  0
SECTION
  2
HEADER
  9
$ACADVER
  1
AC1015
  9
$ACADMAINTVER
 70
     6
  9
$DWGCODEPAGE
  3
ANSI_1252
  9
$INSBASE
 10
0.0
 20
0.0
 30
0.0
  9
$EXTMIN
 10
0.0
 20
0.0
 30
0.0
  9
$EXTMAX
 10
29.75
 20
19.25
 30
0.0
  9
$LIMMIN
 10
0.0
 20
0.0
  9
$LIMMAX
 10
29.75
 20
19.25
  9
$ORTHOMODE
 70
     0
  9
$REGENMODE
 70
     1
  9
$FILLMODE
 70
     1
  9
$QTEXTMODE
 70
     0
  9
$MIRRTEXT
 70
     1
  9
$LTSCALE
 40
1.75
  9
$ATTMODE
 70
     1
  9
$TEXTSIZE
 40
0.21875
  9
$TRACEWID
 40
0.05
  9
$TEXTSTYLE
  7
Standard
  9
$CLAYER
  8
0
  9
$CELTYPE
  6
ByLayer
  9
$CECOLOR
 62
   256
  9
$CELTSCALE
 40
1.0
  9
$DISPSILH
 70
     0
  9
$DIMSCALE
 40
1.0
  9
$DIMASZ
 40
0.2275
  9
$DIMEXO
 40
0.0875
  9
$DIMDLI
 40
0.38
  9
$DIMRND
 40
0.0
  9
$DIMDLE
 40
0.0
  9
$DIMEXE
 40
0.21875
  9
$DIMTP
 40
0.0
  9
$DIMTM
 40
0.0
  9
$DIMTXT
 40
0.21875
  9
$DIMCEN
 40
0.09
  9
$DIMTSZ
 40
0.0
  9
$DIMTOL
 70
     0
  9
$DIMLIM
 70
     0
  9
$DIMTIH
 70
     1
  9
$DIMTOH
 70
     1
  9
$DIMSE1
 70
     0
  9
$DIMSE2
 70
     0
  9
$DIMTAD
 70
     1
  9
$DIMZIN
 70
     0
  9
$DIMBLK
  1

  9
$DIMASO
 70
     1
  9
$DIMSHO
 70
     1
  9
$DIMPOST
  1

  9
$DIMAPOST
  1

  9
$DIMALT
 70
     0
  9
$DIMALTD
 70
     2
  9
$DIMALTF
 40
25.4
  9
$DIMLFAC
 40
1.0
  9
$DIMTOFL
 70
     0
  9
$DIMTVP
 40
0.0
  9
$DIMTIX
 70
     0
  9
$DIMSOXD
 70
     0
  9
$DIMSAH
 70
     0
  9
$DIMBLK1
  1

  9
$DIMBLK2
  1

  9
$DIMSTYLE
  2
Standard
  9
$DIMCLRD
 70
     0
  9
$DIMCLRE
 70
     0
  9
$DIMCLRT
 70
     0
  9
$DIMTFAC
 40
1.0
  9
$DIMGAP
 40
0.105
  9
$DIMJUST
 70
     0
  9
$DIMSD1
 70
     0
  9
$DIMSD2
 70
     0
  9
$DIMTOLJ
 70
     1
  9
$DIMTZIN
 70
     0
  9
$DIMALTZ
 70
     0
  9
$DIMALTTZ
 70
     0
  9
$DIMUPT
 70
     0
  9
$DIMDEC
 70
     2
  9
$DIMTDEC
 70
     2
  9
$DIMALTU
 70
     2
  9
$DIMALTTD
 70
     2
  9
$DIMTXSTY
  7
Standard
  9
$DIMAUNIT
 70
     0
  9
$DIMADEC
 70
     2
  9
$DIMALTRND
 40
0.0
  9
$DIMAZIN
 70
     0
  9
$DIMDSEP
 70
    46
  9
$DIMATFIT
 70
     3
  9
$DIMFRAC
 70
     0
  9
$DIMLDRBLK
  1

  9
$DIMLUNIT
 70
     2
  9
$DIMLWD
 70
    -2
  9
$DIMLWE
 70
    -2
  9
$DIMTMOVE
 70
     0
  9
$LUNITS
 70
     2
  9
$LUPREC
 70
     2
  9
$SKETCHINC
 40
0.1
  9
$FILLETRAD
 40
0.5
  9
$AUNITS
 70
     0
  9
$AUPREC
 70
     2
  9
$MENU
  1
.
  9
$ELEVATION
 40
0.0
  9
$PELEVATION
 40
0.0
  9
$THICKNESS
 40
0.0
  9
$LIMCHECK
 70
     0
  9
$CHAMFERA
 40
0.5
  9
$CHAMFERB
 40
0.5
  9
$CHAMFERC
 40
1.0
  9
$CHAMFERD
 40
0.0
  9
$SKPOLY
 70
     0
  9
$TDCREATE
 40
2455705.41064
  9
$TDUCREATE
 40
2455705.577306667
  9
$TDUPDATE
 40
2455705.410640012
  9
$TDUUPDATE
 40
2455705.577306678
  9
$TDINDWG
 40
0.0000000116
  9
$TDUSRTIMER
 40
0.0000000116
  9
$USRTIMER
 70
     1
  9
$ANGBASE
 50
0.0
  9
$ANGDIR
 70
     0
  9
$PDMODE
 70
     0
  9
$PDSIZE
 40
-1.0
  9
$PLINEWID
 40
0.0
  9
$SPLFRAME
 70
     0
  9
$SPLINETYPE
 70
     6
  9
$SPLINESEGS
 70
     8
  9
$HANDSEED
  5
544
  9
$SURFTAB1
 70
     6
  9
$SURFTAB2
 70
     6
  9
$SURFTYPE
 70
     6
  9
$SURFU
 70
     6
  9
$SURFV
 70
     6
  9
$UCSBASE
  2

  9
$UCSNAME
  2

  9
$UCSORG
 10
0.0
 20
0.0
 30
0.0
  9
$UCSXDIR
 10
1.0
 20
0.0
 30
0.0
  9
$UCSYDIR
 10
0.0
 20
1.0
 30
0.0
  9
$UCSORTHOREF
  2

  9
$UCSORTHOVIEW
 70
     0
  9
$UCSORGTOP
 10
0.0
 20
0.0
 30
0.0
  9
$UCSORGBOTTOM
 10
0.0
 20
0.0
 30
0.0
  9
$UCSORGLEFT
 10
0.0
 20
0.0
 30
0.0
  9
$UCSORGRIGHT
 10
0.0
 20
0.0
 30
0.0
  9
$UCSORGFRONT
 10
0.0
 20
0.0
 30
0.0
  9
$UCSORGBACK
 10
0.0
 20
0.0
 30
0.0
  9
$PUCSBASE
  2

  9
$PUCSNAME
  2

  9
$PUCSORG
 10
0.0
 20
0.0
 30
0.0
  9
$PUCSXDIR
 10
1.0
 20
0.0
 30
0.0
  9
$PUCSYDIR
 10
0.0
 20
1.0
 30
0.0
  9
$PUCSORTHOREF
  2

  9
$PUCSORTHOVIEW
 70
     0
  9
$PUCSORGTOP
 10
0.0
 20
0.0
 30
0.0
  9
$PUCSORGBOTTOM
 10
0.0
 20
0.0
 30
0.0
  9
$PUCSORGLEFT
 10
0.0
 20
0.0
 30
0.0
  9
$PUCSORGRIGHT
 10
0.0
 20
0.0
 30
0.0
  9
$PUCSORGFRONT
 10
0.0
 20
0.0
 30
0.0
  9
$PUCSORGBACK
 10
0.0
 20
0.0
 30
0.0
  9
$USERI1
 70
     0
  9
$USERI2
 70
     0
  9
$USERI3
 70
     0
  9
$USERI4
 70
     0
  9
$USERI5
 70
     0
  9
$USERR1
 40
0.0
  9
$USERR2
 40
0.0
  9
$USERR3
 40
0.0
  9
$USERR4
 40
0.0
  9
$USERR5
 40
0.0
  9
$WORLDVIEW
 70
     1
  9
$SHADEDGE
 70
     3
  9
$SHADEDIF
 70
    70
  9
$TILEMODE
 70
     1
  9
$MAXACTVP
 70
    64
  9
$PINSBASE
 10
0.0
 20
0.0
 30
0.0
  9
$PLIMCHECK
 70
     0
  9
$PEXTMIN
 10
1.0000000000E+20
 20
1.0000000000E+20
 30
1.0000000000E+20
  9
$PEXTMAX
 10
-1.0000000000E+20
 20
-1.0000000000E+20
 30
-1.0000000000E+20
  9
$PLIMMIN
 10
0.0
 20
0.0
  9
$PLIMMAX
 10
12.0
 20
9.0
  9
$UNITMODE
 70
     0
  9
$VISRETAIN
 70
     1
  9
$PLINEGEN
 70
     0
  9
$PSLTSCALE
 70
     1
  9
$TREEDEPTH
 70
  3020
  9
$CMLSTYLE
  2
Standard
  9
$CMLJUST
 70
     0
  9
$CMLSCALE
 40
1.0
  9
$PROXYGRAPHICS
 70
     1
  9
$MEASUREMENT
 70
     0
  9
$CELWEIGHT
370
    -1
  9
$ENDCAPS
280
     0
  9
$JOINSTYLE
280
     0
  9
$LWDISPLAY
290
     1
  9
$INSUNITS
 70
     1
  9
$HYPERLINKBASE
  1

  9
$STYLESHEET
  1

  9
$XEDIT
290
     1
  9
$CEPSNTYPE
380
     0
  9
$PSTYLEMODE
290
     1
  9
$FINGERPRINTGUID
  2
{9E2B49AA-42AD-4C2E-965D-ECB91EC277A4}
  9
$VERSIONGUID
  2
{FAEB1C32-E019-11D5-929B-00C0DF256EC4}
  9
$EXTNAMES
290
     1
  9
$PSVPSCALE
 40
0.0
  9
$OLESTARTUP
290
     0
  0
ENDSEC
  0
SECTION
  2
CLASSES
  0
CLASS
  1
ACDBDICTIONARYWDFLT
  2
AcDbDictionaryWithDefault
  3
ObjectDBX Classes
 90
        0
280
     0
281
     0
  0
CLASS
  1
VISUALSTYLE
  2
AcDbVisualStyle
  3
ObjectDBX Classes
 90
     4095
280
     0
281
     0
  0
CLASS
  1
MATERIAL
  2
AcDbMaterial
  3
ObjectDBX Classes
 90
     1153
280
     0
281
     0
  0
CLASS
  1
SCALE
  2
AcDbScale
  3
ObjectDBX Classes
 90
     1153
280
     0
281
     0
  0
CLASS
  1
DICTIONARYVAR
  2
AcDbDictionaryVar
  3
ObjectDBX Classes
 90
        0
280
     0
281
     0
  0
CLASS
  1
ACDBPLACEHOLDER
  2
AcDbPlaceHolder
  3
ObjectDBX Classes
 90
        0
280
     0
281
     0
  0
CLASS
  1
LAYOUT
  2
AcDbLayout
  3
ObjectDBX Classes
 90
        0
280
     0
281
     0
  0
ENDSEC
  0
SECTION
  2
TABLES
  0
TABLE
  2
VPORT
  5
8
330
0
100
AcDbSymbolTable
 70
     1
  0
VPORT
  5
29
330
8
100
AcDbSymbolTableRecord
100
AcDbViewportTableRecord
  2
*Active
 70
     0
 10
0.0
 20
0.0
 11
1.0
 21
1.0
 12
14.875
 22
9.625
 13
0.0
 23
0.0
 14
0.5
 24
0.5
 15
0.5
 25
0.5
 16
0.0
 26
0.0
 36
1.0
 17
0.0
 27
0.0
 37
0.0
 40
19.25
 41
1.5454545455
 42
50.0
 43
0.0
 44
0.0
 50
0.0
 51
0.0
 71
     0
 72
  2000
 73
     1
 74
     3
 75
     0
 76
     0
 77
     0
 78
     0
281
     0
 65
     1
110
0.0
120
0.0
130
0.0
111
1.0
121
0.0
131
0.0
112
0.0
122
1.0
132
0.0
 79
     0
146
0.0
  0
ENDTAB
  0
TABLE
  2
LTYPE
  5
5
330
0
100
AcDbSymbolTable
 70
     6
  0
LTYPE
  5
14
330
5
100
AcDbSymbolTableRecord
100
AcDbLinetypeTableRecord
  2
ByBlock
 70
     0
  3

 72
    65
 73
     0
 40
0.0
  0
LTYPE
  5
15
330
5
100
AcDbSymbolTableRecord
100
AcDbLinetypeTableRecord
  2
ByLayer
 70
     0
  3

 72
    65
 73
     0
 40
0.0
  0
LTYPE
  5
16
330
5
100
AcDbSymbolTableRecord
100
AcDbLinetypeTableRecord
  2
Continuous
 70
     0
  3
Solid line
 72
    65
 73
     0
 40
0.0
  0
LTYPE
  5
3F
330
5
100
AcDbSymbolTableRecord
100
AcDbLinetypeTableRecord
  2
HIDDEN
 70
     0
  3
Hidden __ __ __ __ __ __ __ __ __ __ __ __ __ __
 72
    65
 73
     2
 40
0.075
 49
0.05
 74
     0
 49
-0.025
 74
     0
  0
LTYPE
  5
40
330
5
100
AcDbSymbolTableRecord
100
AcDbLinetypeTableRecord
  2
PHANTOM
 70
     0
  3
Phantom ______  __  __  ______  __  __  ______
 72
    65
 73
     6
 40
0.5
 49
0.25
 74
     0
 49
-0.05
 74
     0
 49
0.05
 74
     0
 49
-0.05
 74
     0
 49
0.05
 74
     0
 49
-0.05
 74
     0
  0
LTYPE
  5
41
330
5
100
AcDbSymbolTableRecord
100
AcDbLinetypeTableRecord
  2
CENTER
 70
     0
  3
Center ____ _ ____ _ ____ _ ____ _ ____ _ ____
 72
    65
 73
     4
 40
0.4
 49
0.25
 74
     0
 49
-0.05
 74
     0
 49
0.05
 74
     0
 49
-0.05
 74
     0
  0
LTYPE
  5
42
330
5
100
AcDbSymbolTableRecord
100
AcDbLinetypeTableRecord
  2
CENTERX2
 70
     0
  3
Center (2x) ________  __  ________  __  _____
 72
    65
 73
     4
 40
0.8
 49
0.5
 74
     0
 49
-0.1
 74
     0
 49
0.1
 74
     0
 49
-0.1
 74
     0
  0
LTYPE
  5
43
330
5
100
AcDbSymbolTableRecord
100
AcDbLinetypeTableRecord
  2
DOT2
 70
     0
  3
Dot (.5x) ........................................
 72
    65
 73
     2
 40
0.025
 49
0.0
 74
     0
 49
-0.025
 74
     0
  0
ENDTAB
  0
TABLE
  2
LAYER
  5
2
330
0
100
AcDbSymbolTable
 70
     1
  0
LAYER
  5
10
330
2
100
AcDbSymbolTableRecord
100
AcDbLayerTableRecord
  2
0
 70
     0
 62
     7
  6
Continuous
370
    -3
390
F
  0
ENDTAB
  0
TABLE
  2
STYLE
  5
3
330
0
100
AcDbSymbolTable
 70
     2
  0
STYLE
  5
11
330
3
100
AcDbSymbolTableRecord
100
AcDbTextStyleTableRecord
  2
Standard
 70
     0
 40
0.0
 41
1.0
 50
0.0
 71
     0
 42
0.2
  3
txt
  4

  0
STYLE
  5
77
330
3
100
AcDbSymbolTableRecord
100
AcDbTextStyleTableRecord
  2
SLDTEXTSTYLE0
 70
     0
 40
0.0
 41
0.75
 50
0.0
 71
     0
 42
0.2
  3
TXT
  4

  0
ENDTAB
  0
TABLE
  2
VIEW
  5
6
330
0
100
AcDbSymbolTable
 70
     0
  0
ENDTAB
  0
TABLE
  2
UCS
  5
7
330
0
100
AcDbSymbolTable
 70
     0
  0
ENDTAB
  0
TABLE
  2
APPID
  5
9
330
0
100
AcDbSymbolTable
 70
     1
  0
APPID
  5
12
330
9
100
AcDbSymbolTableRecord
100
AcDbRegAppTableRecord
  2
ACAD
 70
     0
  0
ENDTAB
  0
TABLE
  2
DIMSTYLE
  5
A
330
0
100
AcDbSymbolTable
 70
     7
100
AcDbDimStyleTable
  0
DIMSTYLE
105
27
330
A
100
AcDbSymbolTableRecord
100
AcDbDimStyleTableRecord
  2
Standard
 70
     0
340
11
  0
DIMSTYLE
105
78
102
{ACAD_REACTORS
330
54
330
12C
330
285
330
2EB
330
2FD
330
4AF
330
4C1
102
}
330
A
100
AcDbSymbolTableRecord
100
AcDbDimStyleTableRecord
  2
SLDDIMSTYLE0
 70
     0
 41
0.2275
 44
0.0
 45
0.000000001
 78
    12
140
0.21875
147
0.0546875
148
0.000000001
170
     1
173
     1
271
     2
272
     2
284
    12
340
77
  0
DIMSTYLE
105
13F
102
{ACAD_REACTORS
330
13E
102
}
330
A
100
AcDbSymbolTableRecord
100
AcDbDimStyleTableRecord
  2
SLDDIMSTYLE1
 70
     0
 41
0.2275
 44
0.0
 45
0.000000001
 78
    12
140
0.21875
147
0.0546875
148
0.000000001
170
     1
173
     1
271
     2
272
     2
284
    12
340
77
  0
DIMSTYLE
105
152
102
{ACAD_REACTORS
330
151
102
}
330
A
100
AcDbSymbolTableRecord
100
AcDbDimStyleTableRecord
  2
SLDDIMSTYLE2
 70
     0
 41
0.2275
 44
0.0
 45
0.000000001
 78
     4
140
0.21875
147
0.0546875
148
0.000000001
170
     1
173
     1
271
     2
272
     2
284
    12
340
77
  0
DIMSTYLE
105
165
102
{ACAD_REACTORS
330
164
102
}
330
A
100
AcDbSymbolTableRecord
100
AcDbDimStyleTableRecord
  2
SLDDIMSTYLE3
 70
     0
 41
0.2275
 44
0.0
 45
0.000000001
 78
    12
140
0.21875
147
0.0546875
148
0.000000001
170
     1
172
     1
173
     1
271
     2
272
     2
284
    12
340
77
  0
DIMSTYLE
105
17E
330
A
100
AcDbSymbolTableRecord
100
AcDbDimStyleTableRecord
  2
SLDDIMSTYLE4
 70
     0
 41
0.2275
 44
0.0
 45
0.000000001
140
0.0
146
0.2275
147
0.0
173
     1
271
     0
272
     0
340
11
  0
DIMSTYLE
105
310
102
{ACAD_REACTORS
330
30F
102
}
330
A
100
AcDbSymbolTableRecord
100
AcDbDimStyleTableRecord
  2
SLDDIMSTYLE5
 70
     0
 41
0.2275
 44
0.0
 45
0.000000001
 78
     4
140
0.21875
147
0.0546875
148
0.000000001
170
     1
173
     1
271
     2
272
     2
284
    12
340
77
  0
ENDTAB
  0
TABLE
  2
BLOCK_RECORD
  5
1
330
0
100
AcDbSymbolTable
 70
    22
  0
BLOCK_RECORD
  5
1F
330
1
100
AcDbSymbolTableRecord
100
AcDbBlockTableRecord
  2
*Model_Space
340
22
  0
BLOCK_RECORD
  5
1B
330
1
100
AcDbSymbolTableRecord
100
AcDbBlockTableRecord
  2
*Paper_Space
340
1E
  0
BLOCK_RECORD
  5
23
330
1
100
AcDbSymbolTableRecord
100
AcDbBlockTableRecord
  2
*Paper_Space0
340
26
  0
BLOCK_RECORD
  5
79
330
1
100
AcDbSymbolTableRecord
100
AcDbBlockTableRecord
  2
*D1
340
0
  0
BLOCK_RECORD
  5
8A
330
1
100
AcDbSymbolTableRecord
100
AcDbBlockTableRecord
  2
SW_NOTE_0
340
0
102
{BLKREFS
331
90
102
}
  0
BLOCK_RECORD
  5
94
330
1
100
AcDbSymbolTableRecord
100
AcDbBlockTableRecord
  2
SW_NOTE_1
340
0
102
{BLKREFS
331
99
102
}
  0
BLOCK_RECORD
  5
9A
330
1
100
AcDbSymbolTableRecord
100
AcDbBlockTableRecord
  2
SW_NOTE_2
340
0
102
{BLKREFS
331
9F
102
}
  0
BLOCK_RECORD
  5
A0
330
1
100
AcDbSymbolTableRecord
100
AcDbBlockTableRecord
  2
SW_NOTE_3
340
0
102
{BLKREFS
331
A5
102
}
  0
BLOCK_RECORD
  5
12D
330
1
100
AcDbSymbolTableRecord
100
AcDbBlockTableRecord
  2
*D6
340
0
  0
BLOCK_RECORD
  5
140
330
1
100
AcDbSymbolTableRecord
100
AcDbBlockTableRecord
  2
*D7
340
0
  0
BLOCK_RECORD
  5
153
330
1
100
AcDbSymbolTableRecord
100
AcDbBlockTableRecord
  2
*D8
340
0
  0
BLOCK_RECORD
  5
166
330
1
100
AcDbSymbolTableRecord
100
AcDbBlockTableRecord
  2
*D9
340
0
  0
BLOCK_RECORD
  5
175
330
1
100
AcDbSymbolTableRecord
100
AcDbBlockTableRecord
  2
SW_NOTE_4
340
0
102
{BLKREFS
331
17D
102
}
  0
BLOCK_RECORD
  5
180
330
1
100
AcDbSymbolTableRecord
100
AcDbBlockTableRecord
  2
SW_CENTERMARKSYMBOL_0
340
0
102
{BLKREFS
331
187
102
}
  0
BLOCK_RECORD
  5
188
330
1
100
AcDbSymbolTableRecord
100
AcDbBlockTableRecord
  2
SW_CENTERMARKSYMBOL_1
340
0
102
{BLKREFS
331
18F
102
}
  0
BLOCK_RECORD
  5
286
330
1
100
AcDbSymbolTableRecord
100
AcDbBlockTableRecord
  2
*D13
340
0
  0
BLOCK_RECORD
  5
297
330
1
100
AcDbSymbolTableRecord
100
AcDbBlockTableRecord
  2
SW_NOTE_5
340
0
102
{BLKREFS
331
29D
102
}
  0
BLOCK_RECORD
  5
2EC
330
1
100
AcDbSymbolTableRecord
100
AcDbBlockTableRecord
  2
*D15
340
0
  0
BLOCK_RECORD
  5
2FE
330
1
100
AcDbSymbolTableRecord
100
AcDbBlockTableRecord
  2
*D16
340
0
  0
BLOCK_RECORD
  5
311
330
1
100
AcDbSymbolTableRecord
100
AcDbBlockTableRecord
  2
*D17
340
0
  0
BLOCK_RECORD
  5
4B0
330
1
100
AcDbSymbolTableRecord
100
AcDbBlockTableRecord
  2
*D18
340
0
  0
BLOCK_RECORD
  5
4C2
330
1
100
AcDbSymbolTableRecord
100
AcDbBlockTableRecord
  2
*D19
340
0
  0
BLOCK_RECORD
  5
4D3
330
1
100
AcDbSymbolTableRecord
100
AcDbBlockTableRecord
  2
SW_NOTE_6
340
0
102
{BLKREFS
331
4DC
102
}
  0
BLOCK_RECORD
  5
4DE
330
1
100
AcDbSymbolTableRecord
100
AcDbBlockTableRecord
  2
SW_NOTE_7
340
0
102
{BLKREFS
331
4E3
102
}
  0
ENDTAB
  0
ENDSEC
  0
SECTION
  2
BLOCKS
  0
BLOCK
  5
20
330
1F
100
AcDbEntity
  8
0
100
AcDbBlockBegin
  2
*Model_Space
 70
     0
 10
0.0
 20
0.0
 30
0.0
  3
*Model_Space
  1

  0
ENDBLK
  5
21
330
1F
100
AcDbEntity
  8
0
100
AcDbBlockEnd
  0
BLOCK
  5
1C
330
1B
100
AcDbEntity
 67
     1
  8
0
100
AcDbBlockBegin
  2
*Paper_Space
 70
     0
 10
0.0
 20
0.0
 30
0.0
  3
*Paper_Space
  1

  0
ENDBLK
  5
1D
330
1B
100
AcDbEntity
 67
     1
  8
0
100
AcDbBlockEnd
  0
BLOCK
  5
24
330
23
100
AcDbEntity
  8
0
100
AcDbBlockBegin
  2
*Paper_Space0
 70
     0
 10
0.0
 20
0.0
 30
0.0
  3
*Paper_Space0
  1

  0
ENDBLK
  5
25
330
23
100
AcDbEntity
  8
0
100
AcDbBlockEnd
  0
BLOCK
  5
7A
330
79
100
AcDbEntity
  8
0
100
AcDbBlockBegin
  2
*D1
 70
     1
 10
0.0
 20
0.0
 30
0.0
  3
*D1
  1

  0
SOLID
  5
7C
330
79
100
AcDbEntity
  8
0
  6
Continuous
 62
     7
 48
1.75
370
     0
100
AcDbTrace
 10
23.0392962991
 20
12.1179269047
 30
0.0
 11
23.0042962991
 21
11.8904269047
 31
0.0
 12
23.0742962991
 22
11.8904269047
 32
0.0
 13
23.0742962991
 23
11.8904269047
 33
0.0
  0
SOLID
  5
7D
330
79
100
AcDbEntity
  8
0
  6
Continuous
 62
     7
 48
1.75
370
     0
100
AcDbTrace
 10
23.0392962991
 20
5.8679269047
 30
0.0
 11
23.0742962991
 21
6.0954269047
 31
0.0
 12
23.0042962991
 22
6.0954269047
 32
0.0
 13
23.0042962991
 23
6.0954269047
 33
0.0
  0
LINE
  5
7E
330
79
100
AcDbEntity
  8
0
  6
Continuous
 62
     7
 48
1.75
370
     0
100
AcDbLine
 10
22.586882027
 20
8.9668897904
 30
0.0
 11
22.586882027
 21
8.6718024951
 31
0.0
  0
LINE
  5
7F
330
79
100
AcDbEntity
  8
0
  6
Continuous
 62
     7
 48
1.75
370
     0
100
AcDbLine
 10
22.586882027
 20
8.6718024951
 30
0.0
 11
22.6312837328
 21
8.6718024951
 31
0.0
  0
LINE
  5
80
330
79
100
AcDbEntity
  8
0
  6
Continuous
 62
     7
 48
1.75
370
     0
100
AcDbLine
 10
22.586882027
 20
8.9668897904
 30
0.0
 11
22.6312837328
 21
8.9668897904
 31
0.0
  0
LINE
  5
81
330
79
100
AcDbEntity
  8
0
  6
Continuous
 62
     7
 48
1.75
370
     0
100
AcDbLine
 10
23.4917105713
 20
8.9668897904
 30
0.0
 11
23.4917105713
 21
8.6718024951
 31
0.0
  0
LINE
  5
82
330
79
100
AcDbEntity
  8
0
  6
Continuous
 62
     7
 48
1.75
370
     0
100
AcDbLine
 10
23.4917105713
 20
8.6718024951
 30
0.0
 11
23.4473088655
 21
8.6718024951
 31
0.0
  0
LINE
  5
83
330
79
100
AcDbEntity
  8
0
  6
Continuous
 62
     7
 48
1.75
370
     0
100
AcDbLine
 10
23.4917105713
 20
8.9668897904
 30
0.0
 11
23.4473088655
 21
8.9668897904
 31
0.0
  0
LINE
  5
84
330
79
100
AcDbEntity
  8
0
  6
Continuous
 62
     7
 48
1.75
370
     0
100
AcDbLine
 10
21.9996861731
 20
12.1179269047
 30
0.0
 11
23.2580462991
 21
12.1179269047
 31
0.0
  0
LINE
  5
85
330
79
100
AcDbEntity
  8
0
  6
Continuous
 62
     7
 48
1.75
370
     0
100
AcDbLine
 10
21.9996861731
 20
5.8679269047
 30
0.0
 11
23.2580462991
 21
5.8679269047
 31
0.0
  0
LINE
  5
86
330
79
100
AcDbEntity
  8
0
  6
Continuous
 62
     7
 48
1.75
370
     0
100
AcDbLine
 10
23.0392962991
 20
12.1179269047
 30
0.0
 11
23.0392962991
 21
9.3400884286
 31
0.0
  0
LINE
  5
87
330
79
100
AcDbEntity
  8
0
  6
Continuous
 62
     7
 48
1.75
370
     0
100
AcDbLine
 10
23.0392962991
 20
5.8679269047
 30
0.0
 11
23.0392962991
 21
8.6457653808
 31
0.0
  0
MTEXT
  5
88
330
79
100
AcDbEntity
  8
0
  6
Continuous
 62
     7
 48
1.75
370
     0
100
AcDbMText
 10
22.7565517578
 20
9.2749104607
 30
0.0
 40
0.21875
 41
0.0
 71
     1
 72
     1
  1
6.25
  7
SLDTEXTSTYLE0
 73
     1
 44
1.0
  0
MTEXT
  5
89
330
79
100
AcDbEntity
  8
0
  6
Continuous
 62
     7
 48
1.75
370
     0
100
AcDbMText
 10
22.6756854386
 20
8.9277489369
 30
0.0
 40
0.21875
 41
0.0
 71
     1
 72
     1
  1
158.8
  7
SLDTEXTSTYLE0
 73
     1
 44
1.0
  0
ENDBLK
  5
7B
330
79
100
AcDbEntity
  8
0
100
AcDbBlockEnd
  0
BLOCK
  5
8B
330
8A
100
AcDbEntity
  8
0
100
AcDbBlockBegin
  2
SW_NOTE_0
 70
     0
 10
0.0
 20
0.0
 30
0.0
  3
SW_NOTE_0
  1

  0
MTEXT
  5
8D
330
8A
100
AcDbEntity
  8
0
  6
Continuous
 62
     0
 48
1.75
370
     0
100
AcDbMText
 10
0.0
 20
0.2819835681
 30
0.0
 40
0.21875
 41
0.0
 71
     1
 72
     1
  1
MATERIAL - 14 GA. [2.0mm] STEEL
  7
SLDTEXTSTYLE0
 73
     1
 44
1.0
  0
MTEXT
  5
8E
330
8A
100
AcDbEntity
  8
0
  6
Continuous
 62
     0
 48
1.75
370
     0
100
AcDbMText
 10
0.0
 20
-0.2933116927
 30
0.0
 40
0.21875
 41
0.0
 71
     1
 72
     1
  1
FINISH - SMOOTH GRAY POWDERCOAT
  7
SLDTEXTSTYLE0
 73
     1
 44
1.0
  0
MTEXT
  5
8F
330
8A
100
AcDbEntity
  8
0
  6
Continuous
 62
     0
 48
1.75
370
     0
100
AcDbMText
 10
0.0
 20
-0.5809593231
 30
0.0
 40
0.21875
 41
0.0
 71
     1
 72
     1
  1
              UL LISTED TYPE DTOV2
  7
SLDTEXTSTYLE0
 73
     1
 44
1.0
  0
ENDBLK
  5
8C
330
8A
100
AcDbEntity
  8
0
100
AcDbBlockEnd
  0
BLOCK
  5
95
330
94
100
AcDbEntity
  8
0
100
AcDbBlockBegin
  2
SW_NOTE_1
 70
     0
 10
0.0
 20
0.0
 30
0.0
  3
SW_NOTE_1
  1

  0
MTEXT
  5
97
330
94
100
AcDbEntity
  8
0
  6
Continuous
 62
     0
 48
1.75
370
     0
100
AcDbMText
 10
0.0
 20
0.2819835681
 30
0.0
 40
0.21875
 41
0.0
 71
     1
 72
     1
  1
PART
  7
SLDTEXTSTYLE0
 73
     1
 44
1.0
  0
MTEXT
  5
98
330
94
100
AcDbEntity
  8
0
  6
Continuous
 62
     0
 48
1.75
370
     0
100
AcDbMText
 10
-0.0815565274
 20
-0.0056640623
 30
0.0
 40
0.21875
 41
0.0
 71
     1
 72
     1
  1
NAME
  7
SLDTEXTSTYLE0
 73
     1
 44
1.0
  0
ENDBLK
  5
96
330
94
100
AcDbEntity
  8
0
100
AcDbBlockEnd
  0
BLOCK
  5
9B
330
9A
100
AcDbEntity
  8
0
100
AcDbBlockBegin
  2
SW_NOTE_2
 70
     0
 10
0.0
 20
0.0
 30
0.0
  3
SW_NOTE_2
  1

  0
MTEXT
  5
9D
330
9A
100
AcDbEntity
  8
0
  6
Continuous
 62
     0
 48
1.75
370
     0
100
AcDbMText
 10
0.0
 20
0.2819835681
 30
0.0
 40
0.21875
 41
0.0
 71
     1
 72
     1
  1
PART
  7
SLDTEXTSTYLE0
 73
     1
 44
1.0
  0
MTEXT
  5
9E
330
9A
100
AcDbEntity
  8
0
  6
Continuous
 62
     0
 48
1.75
370
     0
100
AcDbMText
 10
0.1021592917
 20
-0.0056640623
 30
0.0
 40
0.21875
 41
0.0
 71
     1
 72
     1
  1
No.
  7
SLDTEXTSTYLE0
 73
     1
 44
1.0
  0
ENDBLK
  5
9C
330
9A
100
AcDbEntity
  8
0
100
AcDbBlockEnd
  0
BLOCK
  5
A1
330
A0
100
AcDbEntity
  8
0
100
AcDbBlockBegin
  2
SW_NOTE_3
 70
     0
 10
0.0
 20
0.0
 30
0.0
  3
SW_NOTE_3
  1

  0
MTEXT
  5
A3
330
A0
100
AcDbEntity
  8
0
  6
Continuous
 62
     0
 48
1.75
370
     0
100
AcDbMText
 10
0.0
 20
0.2819835681
 30
0.0
 40
0.21875
 41
0.0
 71
     1
 72
     1
  1
REVISION
  7
SLDTEXTSTYLE0
 73
     1
 44
1.0
  0
MTEXT
  5
A4
330
A0
100
AcDbEntity
  8
0
  6
Continuous
 62
     0
 48
1.75
370
     0
100
AcDbMText
 10
0.2733995225
 20
-0.0056640623
 30
0.0
 40
0.21875
 41
0.0
 71
     1
 72
     1
  1
DATE
  7
SLDTEXTSTYLE0
 73
     1
 44
1.0
  0
ENDBLK
  5
A2
330
A0
100
AcDbEntity
  8
0
100
AcDbBlockEnd
  0
BLOCK
  5
12E
330
12D
100
AcDbEntity
  8
0
100
AcDbBlockBegin
  2
*D6
 70
     1
 10
0.0
 20
0.0
 30
0.0
  3
*D6
  1

  0
SOLID
  5
130
330
12D
100
AcDbEntity
  8
0
  6
Continuous
 62
     7
 48
1.75
370
     0
100
AcDbTrace
 10
1.843978925
 20
10.1179269047
 30
0.0
 11
1.808978925
 21
9.8904269047
 31
0.0
 12
1.878978925
 22
9.8904269047
 32
0.0
 13
1.878978925
 23
9.8904269047
 33
0.0
  0
SOLID
  5
131
330
12D
100
AcDbEntity
  8
0
  6
Continuous
 62
     7
 48
1.75
370
     0
100
AcDbTrace
 10
1.843978925
 20
7.8679269047
 30
0.0
 11
1.878978925
 21
8.0954269047
 31
0.0
 12
1.808978925
 22
8.0954269047
 32
0.0
 13
1.808978925
 23
8.0954269047
 33
0.0
  0
LINE
  5
132
330
12D
100
AcDbEntity
  8
0
  6
Continuous
 62
     7
 48
1.75
370
     0
100
AcDbLine
 10
1.472430972
 20
8.9668897904
 30
0.0
 11
1.472430972
 21
8.6718024951
 31
0.0
  0
LINE
  5
133
330
12D
100
AcDbEntity
  8
0
  6
Continuous
 62
     7
 48
1.75
370
     0
100
AcDbLine
 10
1.472430972
 20
8.6718024951
 30
0.0
 11
1.5168326778
 21
8.6718024951
 31
0.0
  0
LINE
  5
134
330
12D
100
AcDbEntity
  8
0
  6
Continuous
 62
     7
 48
1.75
370
     0
100
AcDbLine
 10
1.472430972
 20
8.9668897904
 30
0.0
 11
1.5168326778
 21
8.9668897904
 31
0.0
  0
LINE
  5
135
330
12D
100
AcDbEntity
  8
0
  6
Continuous
 62
     7
 48
1.75
370
     0
100
AcDbLine
 10
2.215526878
 20
8.9668897904
 30
0.0
 11
2.215526878
 21
8.6718024951
 31
0.0
  0
LINE
  5
136
330
12D
100
AcDbEntity
  8
0
  6
Continuous
 62
     7
 48
1.75
370
     0
100
AcDbLine
 10
2.215526878
 20
8.6718024951
 30
0.0
 11
2.1711251721
 21
8.6718024951
 31
0.0
  0
LINE
  5
137
330
12D
100
AcDbEntity
  8
0
  6
Continuous
 62
     7
 48
1.75
370
     0
100
AcDbLine
 10
2.215526878
 20
8.9668897904
 30
0.0
 11
2.1711251721
 21
8.9668897904
 31
0.0
  0
LINE
  5
138
330
12D
100
AcDbEntity
  8
0
  6
Continuous
 62
     7
 48
1.75
370
     0
100
AcDbLine
 10
4.1954553029
 20
10.1179269047
 30
0.0
 11
1.625228925
 21
10.1179269047
 31
0.0
  0
LINE
  5
139
330
12D
100
AcDbEntity
  8
0
  6
Continuous
 62
     7
 48
1.75
370
     0
100
AcDbLine
 10
4.1954553029
 20
7.8679269047
 30
0.0
 11
1.625228925
 21
7.8679269047
 31
0.0
  0
LINE
  5
13A
330
12D
100
AcDbEntity
  8
0
  6
Continuous
 62
     7
 48
1.75
370
     0
100
AcDbLine
 10
1.843978925
 20
10.1179269047
 30
0.0
 11
1.843978925
 21
9.3400884286
 31
0.0
  0
LINE
  5
13B
330
12D
100
AcDbEntity
  8
0
  6
Continuous
 62
     7
 48
1.75
370
     0
100
AcDbLine
 10
1.843978925
 20
7.8679269047
 30
0.0
 11
1.843978925
 21
8.6457653808
 31
0.0
  0
MTEXT
  5
13C
330
12D
100
AcDbEntity
  8
0
  6
Continuous
 62
     7
 48
1.75
370
     0
100
AcDbMText
 10
1.5612343836
 20
9.2749104607
 30
0.0
 40
0.21875
 41
0.0
 71
     1
 72
     1
  1
2.25
  7
SLDTEXTSTYLE0
 73
     1
 44
1.0
  0
MTEXT
  5
13D
330
12D
100
AcDbEntity
  8
0
  6
Continuous
 62
     7
 48
1.75
370
     0
100
AcDbMText
 10
1.5612343836
 20
8.9277489369
 30
0.0
 40
0.21875
 41
0.0
 71
     1
 72
     1
  1
57.2
  7
SLDTEXTSTYLE0
 73
     1
 44
1.0
  0
ENDBLK
  5
12F
330
12D
100
AcDbEntity
  8
0
100
AcDbBlockEnd
  0
BLOCK
  5
141
330
140
100
AcDbEntity
  8
0
100
AcDbBlockBegin
  2
*D7
 70
     1
 10
0.0
 20
0.0
 30
0.0
  3
*D7
  1

  0
SOLID
  5
143
330
140
100
AcDbEntity
  8
0
  6
Continuous
 62
     7
 48
1.75
370
     0
100
AcDbTrace
 10
4.3454553029
 20
12.8784171661
 30
0.0
 11
4.5729553029
 21
12.8434171661
 31
0.0
 12
4.5729553029
 22
12.9134171661
 32
0.0
 13
4.5729553029
 23
12.9134171661
 33
0.0
  0
SOLID
  5
144
330
140
100
AcDbEntity
  8
0
  6
Continuous
 62
     7
 48
1.75
370
     0
100
AcDbTrace
 10
4.2204553029
 20
12.8784171661
 30
0.0
 11
3.9929553029
 21
12.9134171661
 31
0.0
 12
3.9929553029
 22
12.8434171661
 32
0.0
 13
3.9929553029
 23
12.8434171661
 33
0.0
  0
LINE
  5
145
330
140
100
AcDbEntity
  8
0
  6
Continuous
 62
     7
 48
1.75
370
     0
100
AcDbLine
 10
5.1167429665
 20
12.8523800518
 30
0.0
 11
5.1167429665
 21
12.5572927565
 31
0.0
  0
LINE
  5
146
330
140
100
AcDbEntity
  8
0
  6
Continuous
 62
     7
 48
1.75
370
     0
100
AcDbLine
 10
5.1167429665
 20
12.5572927565
 30
0.0
 11
5.1611446723
 21
12.5572927565
 31
0.0
  0
LINE
  5
147
330
140
100
AcDbEntity
  8
0
  6
Continuous
 62
     7
 48
1.75
370
     0
100
AcDbLine
 10
5.1167429665
 20
12.8523800518
 30
0.0
 11
5.1611446723
 21
12.8523800518
 31
0.0
  0
LINE
  5
148
330
140
100
AcDbEntity
  8
0
  6
Continuous
 62
     7
 48
1.75
370
     0
100
AcDbLine
 10
5.6983362948
 20
12.8523800518
 30
0.0
 11
5.6983362948
 21
12.5572927565
 31
0.0
  0
LINE
  5
149
330
140
100
AcDbEntity
  8
0
  6
Continuous
 62
     7
 48
1.75
370
     0
100
AcDbLine
 10
5.6983362948
 20
12.5572927565
 30
0.0
 11
5.6539345889
 21
12.5572927565
 31
0.0
  0
LINE
  5
14A
330
140
100
AcDbEntity
  8
0
  6
Continuous
 62
     7
 48
1.75
370
     0
100
AcDbLine
 10
5.6983362948
 20
12.8523800518
 30
0.0
 11
5.6539345889
 21
12.8523800518
 31
0.0
  0
LINE
  5
14B
330
140
100
AcDbEntity
  8
0
  6
Continuous
 62
     7
 48
1.75
370
     0
100
AcDbLine
 10
4.3454553029
 20
10.7054269047
 30
0.0
 11
4.3454553029
 21
13.0971671661
 31
0.0
  0
LINE
  5
14C
330
140
100
AcDbEntity
  8
0
  6
Continuous
 62
     7
 48
1.75
370
     0
100
AcDbLine
 10
4.2204553029
 20
10.7054269047
 30
0.0
 11
4.2204553029
 21
13.0971671661
 31
0.0
  0
LINE
  5
14D
330
140
100
AcDbEntity
  8
0
  6
Continuous
 62
     7
 48
1.75
370
     0
100
AcDbLine
 10
4.3454553029
 20
12.8784171661
 30
0.0
 11
4.8742203642
 21
12.8784171661
 31
0.0
  0
LINE
  5
14E
330
140
100
AcDbEntity
  8
0
  6
Continuous
 62
     7
 48
1.75
370
     0
100
AcDbLine
 10
4.2204553029
 20
12.8784171661
 30
0.0
 11
3.7829553029
 21
12.8784171661
 31
0.0
  0
MTEXT
  5
14F
330
140
100
AcDbEntity
  8
0
  6
Continuous
 62
     7
 48
1.75
370
     0
100
AcDbMText
 10
5.2055463782
 20
13.1604007222
 30
0.0
 40
0.21875
 41
0.0
 71
     1
 72
     1
  1
.13
  7
SLDTEXTSTYLE0
 73
     1
 44
1.0
  0
MTEXT
  5
150
330
140
100
AcDbEntity
  8
0
  6
Continuous
 62
     7
 48
1.75
370
     0
100
AcDbMText
 10
5.2055463782
 20
12.8132391983
 30
0.0
 40
0.21875
 41
0.0
 71
     1
 72
     1
  1
3.2
  7
SLDTEXTSTYLE0
 73
     1
 44
1.0
  0
ENDBLK
  5
142
330
140
100
AcDbEntity
  8
0
100
AcDbBlockEnd
  0
BLOCK
  5
154
330
153
100
AcDbEntity
  8
0
100
AcDbBlockBegin
  2
*D8
 70
     1
 10
0.0
 20
0.0
 30
0.0
  3
*D8
  1

  0
SOLID
  5
156
330
153
100
AcDbEntity
  8
0
  6
Continuous
 62
     7
 48
1.75
370
     0
100
AcDbTrace
 10
6.6894316809
 20
10.6179269047
 30
0.0
 11
6.7244316809
 21
10.8454269047
 31
0.0
 12
6.6544316809
 22
10.8454269047
 32
0.0
 13
6.6544316809
 23
10.8454269047
 33
0.0
  0
SOLID
  5
157
330
153
100
AcDbEntity
  8
0
  6
Continuous
 62
     7
 48
1.75
370
     0
100
AcDbTrace
 10
6.6894316809
 20
9.6179269047
 30
0.0
 11
6.6544316809
 21
9.3904269047
 31
0.0
 12
6.7244316809
 22
9.3904269047
 32
0.0
 13
6.7244316809
 23
9.3904269047
 33
0.0
  0
LINE
  5
158
330
153
100
AcDbEntity
  8
0
  6
Continuous
 62
     7
 48
1.75
370
     0
100
AcDbLine
 10
6.3178837279
 20
10.0918897904
 30
0.0
 11
6.3178837279
 21
9.7968024951
 31
0.0
  0
LINE
  5
159
330
153
100
AcDbEntity
  8
0
  6
Continuous
 62
     7
 48
1.75
370
     0
100
AcDbLine
 10
6.3178837279
 20
9.7968024951
 30
0.0
 11
6.3622854337
 21
9.7968024951
 31
0.0
  0
LINE
  5
15A
330
153
100
AcDbEntity
  8
0
  6
Continuous
 62
     7
 48
1.75
370
     0
100
AcDbLine
 10
6.3178837279
 20
10.0918897904
 30
0.0
 11
6.3622854337
 21
10.0918897904
 31
0.0
  0
LINE
  5
15B
330
153
100
AcDbEntity
  8
0
  6
Continuous
 62
     7
 48
1.75
370
     0
100
AcDbLine
 10
7.0609796339
 20
10.0918897904
 30
0.0
 11
7.0609796339
 21
9.7968024951
 31
0.0
  0
LINE
  5
15C
330
153
100
AcDbEntity
  8
0
  6
Continuous
 62
     7
 48
1.75
370
     0
100
AcDbLine
 10
7.0609796339
 20
9.7968024951
 30
0.0
 11
7.016577928
 21
9.7968024951
 31
0.0
  0
LINE
  5
15D
330
153
100
AcDbEntity
  8
0
  6
Continuous
 62
     7
 48
1.75
370
     0
100
AcDbLine
 10
7.0609796339
 20
10.0918897904
 30
0.0
 11
7.016577928
 21
10.0918897904
 31
0.0
  0
LINE
  5
15E
330
153
100
AcDbEntity
  8
0
  6
Continuous
 62
     7
 48
1.75
370
     0
100
AcDbLine
 10
4.4329553029
 20
10.6179269047
 30
0.0
 11
6.9081816809
 21
10.6179269047
 31
0.0
  0
LINE
  5
15F
330
153
100
AcDbEntity
  8
0
  6
Continuous
 62
     7
 48
1.75
370
     0
100
AcDbLine
 10
4.4329553029
 20
9.6179269047
 30
0.0
 11
6.9081816809
 21
9.6179269047
 31
0.0
  0
LINE
  5
160
330
153
100
AcDbEntity
  8
0
  6
Continuous
 62
     7
 48
1.75
370
     0
100
AcDbLine
 10
6.6894316809
 20
10.6179269047
 30
0.0
 11
6.6894316809
 21
11.0554269047
 31
0.0
  0
LINE
  5
161
330
153
100
AcDbEntity
  8
0
  6
Continuous
 62
     7
 48
1.75
370
     0
100
AcDbLine
 10
6.6894316809
 20
9.6179269047
 30
0.0
 11
6.6894316809
 21
9.1804269047
 31
0.0
  0
MTEXT
  5
162
330
153
100
AcDbEntity
  8
0
  6
Continuous
 62
     7
 48
1.75
370
     0
100
AcDbMText
 10
6.4066871396
 20
10.3999104607
 30
0.0
 40
0.21875
 41
0.0
 71
     1
 72
     1
  1
1.00
  7
SLDTEXTSTYLE0
 73
     1
 44
1.0
  0
MTEXT
  5
163
330
153
100
AcDbEntity
  8
0
  6
Continuous
 62
     7
 48
1.75
370
     0
100
AcDbMText
 10
6.4066871396
 20
10.0527489369
 30
0.0
 40
0.21875
 41
0.0
 71
     1
 72
     1
  1
25.4
  7
SLDTEXTSTYLE0
 73
     1
 44
1.0
  0
ENDBLK
  5
155
330
153
100
AcDbEntity
  8
0
100
AcDbBlockEnd
  0
BLOCK
  5
167
330
166
100
AcDbEntity
  8
0
100
AcDbBlockBegin
  2
*D9
 70
     1
 10
0.0
 20
0.0
 30
0.0
  3
*D9
  1

  0
SOLID
  5
169
330
166
100
AcDbEntity
  8
0
  6
Continuous
 62
     7
 48
1.75
370
     0
100
AcDbTrace
 10
3.8993703081
 20
10.3395381674
 30
0.0
 11
3.7198913191
 21
10.4836511179
 31
0.0
 12
3.6848737381
 22
10.4230394934
 32
0.0
 13
3.6848737381
 23
10.4230394934
 33
0.0
  0
LINE
  5
16A
330
166
100
AcDbEntity
  8
0
  6
Continuous
 62
     7
 48
1.75
370
     0
100
AcDbLine
 10
1.0134880179
 20
11.3205617361
 30
0.0
 11
1.0134880179
 21
11.0254744408
 31
0.0
  0
LINE
  5
16B
330
166
100
AcDbEntity
  8
0
  6
Continuous
 62
     7
 48
1.75
370
     0
100
AcDbLine
 10
1.0134880179
 20
11.0254744408
 30
0.0
 11
1.0578897238
 21
11.0254744408
 31
0.0
  0
LINE
  5
16C
330
166
100
AcDbEntity
  8
0
  6
Continuous
 62
     7
 48
1.75
370
     0
100
AcDbLine
 10
1.0134880179
 20
11.3205617361
 30
0.0
 11
1.0578897238
 21
11.3205617361
 31
0.0
  0
LINE
  5
16D
330
166
100
AcDbEntity
  8
0
  6
Continuous
 62
     7
 48
1.75
370
     0
100
AcDbLine
 10
1.7565839239
 20
11.3205617361
 30
0.0
 11
1.7565839239
 21
11.0254744408
 31
0.0
  0
LINE
  5
16E
330
166
100
AcDbEntity
  8
0
  6
Continuous
 62
     7
 48
1.75
370
     0
100
AcDbLine
 10
1.7565839239
 20
11.0254744408
 30
0.0
 11
1.7121822181
 21
11.0254744408
 31
0.0
  0
LINE
  5
16F
330
166
100
AcDbEntity
  8
0
  6
Continuous
 62
     7
 48
1.75
370
     0
100
AcDbLine
 10
1.7565839239
 20
11.3205617361
 30
0.0
 11
1.7121822181
 21
11.3205617361
 31
0.0
  0
LINE
  5
170
330
166
100
AcDbEntity
  8
0
  6
Continuous
 62
     7
 48
1.75
370
     0
100
AcDbLine
 10
3.8993703081
 20
10.3395381674
 30
0.0
 11
2.1562577867
 21
11.3465988504
 31
0.0
  0
LINE
  5
171
330
166
100
AcDbEntity
  8
0
  6
Continuous
 62
     7
 48
1.75
370
     0
100
AcDbLine
 10
2.1562577867
 20
11.3465988504
 30
0.0
 11
1.9375077867
 21
11.3465988504
 31
0.0
  0
MTEXT
  5
172
330
166
100
AcDbEntity
  8
0
  6
Continuous
 62
     7
 48
1.75
370
     0
100
AcDbMText
 10
1.0268200327
 20
11.6285824105
 30
0.0
 40
0.21875
 41
0.0
 71
     1
 72
     1
  1
%%c
  7
SLDTEXTSTYLE0
 73
     1
 44
1.0
  0
MTEXT
  5
173
330
166
100
AcDbEntity
  8
0
  6
Continuous
 62
     7
 48
1.75
370
     0
100
AcDbMText
 10
1.3392654042
 20
11.6285824064
 30
0.0
 40
0.21875
 41
0.0
 71
     1
 72
     1
  1
.89
  7
SLDTEXTSTYLE0
 73
     1
 44
1.0
  0
MTEXT
  5
174
330
166
100
AcDbEntity
  8
0
  6
Continuous
 62
     7
 48
1.75
370
     0
100
AcDbMText
 10
1.1022914296
 20
11.2814208826
 30
0.0
 40
0.21875
 41
0.0
 71
     1
 72
     1
  1
22.5
  7
SLDTEXTSTYLE0
 73
     1
 44
1.0
  0
ENDBLK
  5
168
330
166
100
AcDbEntity
  8
0
100
AcDbBlockEnd
  0
BLOCK
  5
176
330
175
100
AcDbEntity
  8
0
100
AcDbBlockBegin
  2
SW_NOTE_4
 70
     0
 10
0.0
 20
0.0
 30
0.0
  3
SW_NOTE_4
  1

  0
MTEXT
  5
178
330
175
100
AcDbEntity
  8
0
  6
Continuous
 62
     0
 48
1.75
370
     0
100
AcDbMText
 10
0.0344969878
 20
0.1059929808
 30
0.0
 40
0.21875
 41
0.0
 71
     1
 72
     1
  1
CAPTIVE SCREW M5x0.8 x 16mm LG.,
  7
SLDTEXTSTYLE0
 73
     1
 44
1.0
  0
MTEXT
  5
179
330
175
100
AcDbEntity
  8
0
  6
Continuous
 62
     0
 48
1.75
370
     0
100
AcDbMText
 10
0.0344969878
 20
-0.1816546496
 30
0.0
 40
0.21875
 41
0.0
 71
     1
 72
     1
  1
WASHER HEAD, PHILLIPS DRIVE, STEEL,
  7
SLDTEXTSTYLE0
 73
     1
 44
1.0
  0
MTEXT
  5
17A
330
175
100
AcDbEntity
  8
0
  6
Continuous
 62
     0
 48
1.75
370
     0
100
AcDbMText
 10
0.0344969878
 20
-0.46930228
 30
0.0
 40
0.21875
 41
0.0
 71
     1
 72
     1
  1
ZINC PLATED, WITH SEALING WASHER,
  7
SLDTEXTSTYLE0
 73
     1
 44
1.0
  0
MTEXT
  5
17B
330
175
100
AcDbEntity
  8
0
  6
Continuous
 62
     0
 48
1.75
370
     0
100
AcDbMText
 10
0.0344969878
 20
-0.7569499104
 30
0.0
 40
0.21875
 41
0.0
 71
     1
 72
     1
  1
NEOPRENE, BLACK AND O-RING,
  7
SLDTEXTSTYLE0
 73
     1
 44
1.0
  0
MTEXT
  5
17C
330
175
100
AcDbEntity
  8
0
  6
Continuous
 62
     0
 48
1.75
370
     0
100
AcDbMText
 10
0.0344969878
 20
-1.0445975408
 30
0.0
 40
0.21875
 41
0.0
 71
     1
 72
     1
  1
BUNA-N, BLACK
  7
SLDTEXTSTYLE0
 73
     1
 44
1.0
  0
ENDBLK
  5
177
330
175
100
AcDbEntity
  8
0
100
AcDbBlockEnd
  0
BLOCK
  5
181
330
180
100
AcDbEntity
  8
0
100
AcDbBlockBegin
  2
SW_CENTERMARKSYMBOL_0
 70
     0
 10
0.0
 20
0.0
 30
0.0
  3
SW_CENTERMARKSYMBOL_0
  1

  0
LINE
  5
183
330
180
100
AcDbEntity
  8
0
  6
Continuous
 62
     0
 48
1.75
370
     0
100
AcDbLine
 10
0.0
 20
0.0
 30
0.0
 11
0.0
 21
0.05
 31
0.0
  0
LINE
  5
184
330
180
100
AcDbEntity
  8
0
  6
Continuous
 62
     0
 48
1.75
370
     0
100
AcDbLine
 10
0.0
 20
0.0
 30
0.0
 11
-0.05
 21
0.0
 31
0.0
  0
LINE
  5
185
330
180
100
AcDbEntity
  8
0
  6
Continuous
 62
     0
 48
1.75
370
     0
100
AcDbLine
 10
0.0
 20
0.0
 30
0.0
 11
0.0
 21
-0.05
 31
0.0
  0
LINE
  5
186
330
180
100
AcDbEntity
  8
0
  6
Continuous
 62
     0
 48
1.75
370
     0
100
AcDbLine
 10
0.0
 20
0.0
 30
0.0
 11
0.05
 21
0.0
 31
0.0
  0
ENDBLK
  5
182
330
180
100
AcDbEntity
  8
0
100
AcDbBlockEnd
  0
BLOCK
  5
189
330
188
100
AcDbEntity
  8
0
100
AcDbBlockBegin
  2
SW_CENTERMARKSYMBOL_1
 70
     0
 10
0.0
 20
0.0
 30
0.0
  3
SW_CENTERMARKSYMBOL_1
  1

  0
LINE
  5
18B
330
188
100
AcDbEntity
  8
0
  6
Continuous
 62
     0
 48
1.75
370
     0
100
AcDbLine
 10
0.0
 20
0.0
 30
0.0
 11
0.0
 21
0.05
 31
0.0
  0
LINE
  5
18C
330
188
100
AcDbEntity
  8
0
  6
Continuous
 62
     0
 48
1.75
370
     0
100
AcDbLine
 10
0.0
 20
0.0
 30
0.0
 11
-0.05
 21
0.0
 31
0.0
  0
LINE
  5
18D
330
188
100
AcDbEntity
  8
0
  6
Continuous
 62
     0
 48
1.75
370
     0
100
AcDbLine
 10
0.0
 20
0.0
 30
0.0
 11
0.0
 21
-0.05
 31
0.0
  0
LINE
  5
18E
330
188
100
AcDbEntity
  8
0
  6
Continuous
 62
     0
 48
1.75
370
     0
100
AcDbLine
 10
0.0
 20
0.0
 30
0.0
 11
0.05
 21
0.0
 31
0.0
  0
ENDBLK
  5
18A
330
188
100
AcDbEntity
  8
0
100
AcDbBlockEnd
  0
BLOCK
  5
287
330
286
100
AcDbEntity
  8
0
100
AcDbBlockBegin
  2
*D13
 70
     1
 10
0.0
 20
0.0
 30
0.0
  3
*D13
  1

  0
SOLID
  5
289
330
286
100
AcDbEntity
  8
0
  6
Continuous
 62
     7
 48
1.75
370
     0
100
AcDbTrace
 10
16.6289104465
 20
13.0569032826
 30
0.0
 11
16.4014104465
 21
13.0919032826
 31
0.0
 12
16.4014104465
 22
13.0219032826
 32
0.0
 13
16.4014104465
 23
13.0219032826
 33
0.0
  0
SOLID
  5
28A
330
286
100
AcDbEntity
  8
0
  6
Continuous
 62
     7
 48
1.75
370
     0
100
AcDbTrace
 10
13.8789104465
 20
13.0569032826
 30
0.0
 11
14.1064104465
 21
13.0219032826
 31
0.0
 12
14.1064104465
 22
13.0919032826
 32
0.0
 13
14.1064104465
 23
13.0919032826
 33
0.0
  0
LINE
  5
28B
330
286
100
AcDbEntity
  8
0
  6
Continuous
 62
     7
 48
1.75
370
     0
100
AcDbLine
 10
14.8823624935
 20
13.0308661684
 30
0.0
 11
14.8823624935
 21
12.7357788731
 31
0.0
  0
LINE
  5
28C
330
286
100
AcDbEntity
  8
0
  6
Continuous
 62
     7
 48
1.75
370
     0
100
AcDbLine
 10
14.8823624935
 20
12.7357788731
 30
0.0
 11
14.9267641993
 21
12.7357788731
 31
0.0
  0
LINE
  5
28D
330
286
100
AcDbEntity
  8
0
  6
Continuous
 62
     7
 48
1.75
370
     0
100
AcDbLine
 10
14.8823624935
 20
13.0308661684
 30
0.0
 11
14.9267641993
 21
13.0308661684
 31
0.0
  0
LINE
  5
28E
330
286
100
AcDbEntity
  8
0
  6
Continuous
 62
     7
 48
1.75
370
     0
100
AcDbLine
 10
15.6254583995
 20
13.0308661684
 30
0.0
 11
15.6254583995
 21
12.7357788731
 31
0.0
  0
LINE
  5
28F
330
286
100
AcDbEntity
  8
0
  6
Continuous
 62
     7
 48
1.75
370
     0
100
AcDbLine
 10
15.6254583995
 20
12.7357788731
 30
0.0
 11
15.5810566936
 21
12.7357788731
 31
0.0
  0
LINE
  5
290
330
286
100
AcDbEntity
  8
0
  6
Continuous
 62
     7
 48
1.75
370
     0
100
AcDbLine
 10
15.6254583995
 20
13.0308661684
 30
0.0
 11
15.5810566936
 21
13.0308661684
 31
0.0
  0
LINE
  5
291
330
286
100
AcDbEntity
  8
0
  6
Continuous
 62
     7
 48
1.75
370
     0
100
AcDbLine
 10
16.6289104465
 20
12.4554269047
 30
0.0
 11
16.6289104465
 21
13.2756532826
 31
0.0
  0
LINE
  5
292
330
286
100
AcDbEntity
  8
0
  6
Continuous
 62
     7
 48
1.75
370
     0
100
AcDbLine
 10
13.8789104465
 20
11.9864269047
 30
0.0
 11
13.8789104465
 21
13.2756532826
 31
0.0
  0
LINE
  5
293
330
286
100
AcDbEntity
  8
0
  6
Continuous
 62
     7
 48
1.75
370
     0
100
AcDbLine
 10
16.6289104465
 20
13.0569032826
 30
0.0
 11
15.8679810018
 21
13.0569032826
 31
0.0
  0
LINE
  5
294
330
286
100
AcDbEntity
  8
0
  6
Continuous
 62
     7
 48
1.75
370
     0
100
AcDbLine
 10
13.8789104465
 20
13.0569032826
 30
0.0
 11
14.6398398911
 21
13.0569032826
 31
0.0
  0
MTEXT
  5
295
330
286
100
AcDbEntity
  8
0
  6
Continuous
 62
     7
 48
1.75
370
     0
100
AcDbMText
 10
14.9711659051
 20
13.3388868387
 30
0.0
 40
0.21875
 41
0.0
 71
     1
 72
     1
  1
2.75
  7
SLDTEXTSTYLE0
 73
     1
 44
1.0
  0
MTEXT
  5
296
330
286
100
AcDbEntity
  8
0
  6
Continuous
 62
     7
 48
1.75
370
     0
100
AcDbMText
 10
14.9711659051
 20
12.9917253148
 30
0.0
 40
0.21875
 41
0.0
 71
     1
 72
     1
  1
69.9
  7
SLDTEXTSTYLE0
 73
     1
 44
1.0
  0
ENDBLK
  5
288
330
286
100
AcDbEntity
  8
0
100
AcDbBlockEnd
  0
BLOCK
  5
298
330
297
100
AcDbEntity
  8
0
100
AcDbBlockBegin
  2
SW_NOTE_5
 70
     0
 10
0.0
 20
0.0
 30
0.0
  3
SW_NOTE_5
  1

  0
MTEXT
  5
29A
330
297
100
AcDbEntity
  8
0
  6
Continuous
 62
     0
 48
1.75
370
     0
100
AcDbMText
 10
0.0346762839
 20
0.1060678454
 30
0.0
 40
0.21875
 41
0.0
 71
     1
 72
     1
  1
ONE-PIECE DIE-CUT GASKET
  7
SLDTEXTSTYLE0
 73
     1
 44
1.0
  0
MTEXT
  5
29B
330
297
100
AcDbEntity
  8
0
  6
Continuous
 62
     0
 48
1.75
370
     0
100
AcDbMText
 10
0.0346762839
 20
-0.181579785
 30
0.0
 40
0.21875
 41
0.0
 71
     1
 72
     1
  1
(.25[6.3] THK. PORON #4701-41-15250-04
  7
SLDTEXTSTYLE0
 73
     1
 44
1.0
  0
MTEXT
  5
29C
330
297
100
AcDbEntity
  8
0
  6
Continuous
 62
     0
 48
1.75
370
     0
100
AcDbMText
 10
0.0346762839
 20
-0.4692274155
 30
0.0
 40
0.21875
 41
0.0
 71
     1
 72
     1
  1
- BLACK) INSIDE COVER.
  7
SLDTEXTSTYLE0
 73
     1
 44
1.0
  0
ENDBLK
  5
299
330
297
100
AcDbEntity
  8
0
100
AcDbBlockEnd
  0
BLOCK
  5
2ED
330
2EC
100
AcDbEntity
  8
0
100
AcDbBlockBegin
  2
*D15
 70
     1
 10
0.0
 20
0.0
 30
0.0
  3
*D15
  1

  0
SOLID
  5
2EF
330
2EC
100
AcDbEntity
  8
0
  6
Continuous
 62
     7
 48
1.75
370
     0
100
AcDbTrace
 10
19.4276861731
 20
4.9857823981
 30
0.0
 11
19.6551861731
 21
4.9507823981
 31
0.0
 12
19.6551861731
 22
5.0207823981
 32
0.0
 13
19.6551861731
 23
5.0207823981
 33
0.0
  0
SOLID
  5
2F0
330
2EC
100
AcDbEntity
  8
0
  6
Continuous
 62
     7
 48
1.75
370
     0
100
AcDbTrace
 10
21.8026861731
 20
4.9857823981
 30
0.0
 11
21.5751861731
 21
5.0207823981
 31
0.0
 12
21.5751861731
 22
4.9507823981
 32
0.0
 13
21.5751861731
 23
4.9507823981
 33
0.0
  0
LINE
  5
2F1
330
2EC
100
AcDbEntity
  8
0
  6
Continuous
 62
     7
 48
1.75
370
     0
100
AcDbLine
 10
20.2938523982
 20
4.9597452838
 30
0.0
 11
20.2938523982
 21
4.6646579885
 31
0.0
  0
LINE
  5
2F2
330
2EC
100
AcDbEntity
  8
0
  6
Continuous
 62
     7
 48
1.75
370
     0
100
AcDbLine
 10
20.2938523982
 20
4.6646579885
 30
0.0
 11
20.3382541041
 21
4.6646579885
 31
0.0
  0
LINE
  5
2F3
330
2EC
100
AcDbEntity
  8
0
  6
Continuous
 62
     7
 48
1.75
370
     0
100
AcDbLine
 10
20.2938523982
 20
4.9597452838
 30
0.0
 11
20.3382541041
 21
4.9597452838
 31
0.0
  0
LINE
  5
2F4
330
2EC
100
AcDbEntity
  8
0
  6
Continuous
 62
     7
 48
1.75
370
     0
100
AcDbLine
 10
21.0369483042
 20
4.9597452838
 30
0.0
 11
21.0369483042
 21
4.6646579885
 31
0.0
  0
LINE
  5
2F5
330
2EC
100
AcDbEntity
  8
0
  6
Continuous
 62
     7
 48
1.75
370
     0
100
AcDbLine
 10
21.0369483042
 20
4.6646579885
 30
0.0
 11
20.9925465984
 21
4.6646579885
 31
0.0
  0
LINE
  5
2F6
330
2EC
100
AcDbEntity
  8
0
  6
Continuous
 62
     7
 48
1.75
370
     0
100
AcDbLine
 10
21.0369483042
 20
4.9597452838
 30
0.0
 11
20.9925465984
 21
4.9597452838
 31
0.0
  0
LINE
  5
2F7
330
2EC
100
AcDbEntity
  8
0
  6
Continuous
 62
     7
 48
1.75
370
     0
100
AcDbLine
 10
19.4276861731
 20
5.7494269047
 30
0.0
 11
19.4276861731
 21
4.7670323981
 31
0.0
  0
LINE
  5
2F8
330
2EC
100
AcDbEntity
  8
0
  6
Continuous
 62
     7
 48
1.75
370
     0
100
AcDbLine
 10
21.8026861731
 20
5.7494269047
 30
0.0
 11
21.8026861731
 21
4.7670323981
 31
0.0
  0
LINE
  5
2F9
330
2EC
100
AcDbEntity
  8
0
  6
Continuous
 62
     7
 48
1.75
370
     0
100
AcDbLine
 10
19.4276861731
 20
4.9857823981
 30
0.0
 11
20.0513297959
 21
4.9857823981
 31
0.0
  0
LINE
  5
2FA
330
2EC
100
AcDbEntity
  8
0
  6
Continuous
 62
     7
 48
1.75
370
     0
100
AcDbLine
 10
21.8026861731
 20
4.9857823981
 30
0.0
 11
21.2794709066
 21
4.9857823981
 31
0.0
  0
MTEXT
  5
2FB
330
2EC
100
AcDbEntity
  8
0
  6
Continuous
 62
     7
 48
1.75
370
     0
100
AcDbMText
 10
20.3826558099
 20
5.2677659542
 30
0.0
 40
0.21875
 41
0.0
 71
     1
 72
     1
  1
2.38
  7
SLDTEXTSTYLE0
 73
     1
 44
1.0
  0
MTEXT
  5
2FC
330
2EC
100
AcDbEntity
  8
0
  6
Continuous
 62
     7
 48
1.75
370
     0
100
AcDbMText
 10
20.3826558099
 20
4.9206044303
 30
0.0
 40
0.21875
 41
0.0
 71
     1
 72
     1
  1
60.3
  7
SLDTEXTSTYLE0
 73
     1
 44
1.0
  0
ENDBLK
  5
2EE
330
2EC
100
AcDbEntity
  8
0
100
AcDbBlockEnd
  0
BLOCK
  5
2FF
330
2FE
100
AcDbEntity
  8
0
100
AcDbBlockBegin
  2
*D16
 70
     1
 10
0.0
 20
0.0
 30
0.0
  3
*D16
  1

  0
SOLID
  5
301
330
2FE
100
AcDbEntity
  8
0
  6
Continuous
 62
     7
 48
1.75
370
     0
100
AcDbTrace
 10
18.1762097951
 20
12.3679269047
 30
0.0
 11
18.1412097951
 21
12.1404269047
 31
0.0
 12
18.2112097951
 22
12.1404269047
 32
0.0
 13
18.2112097951
 23
12.1404269047
 33
0.0
  0
SOLID
  5
302
330
2FE
100
AcDbEntity
  8
0
  6
Continuous
 62
     7
 48
1.75
370
     0
100
AcDbTrace
 10
18.1762097951
 20
5.6179269047
 30
0.0
 11
18.2112097951
 21
5.8454269047
 31
0.0
 12
18.1412097951
 22
5.8454269047
 32
0.0
 13
18.1412097951
 23
5.8454269047
 33
0.0
  0
LINE
  5
303
330
2FE
100
AcDbEntity
  8
0
  6
Continuous
 62
     7
 48
1.75
370
     0
100
AcDbLine
 10
17.7237955229
 20
8.9668897904
 30
0.0
 11
17.7237955229
 21
8.6718024951
 31
0.0
  0
LINE
  5
304
330
2FE
100
AcDbEntity
  8
0
  6
Continuous
 62
     7
 48
1.75
370
     0
100
AcDbLine
 10
17.7237955229
 20
8.6718024951
 30
0.0
 11
17.7681972288
 21
8.6718024951
 31
0.0
  0
LINE
  5
305
330
2FE
100
AcDbEntity
  8
0
  6
Continuous
 62
     7
 48
1.75
370
     0
100
AcDbLine
 10
17.7237955229
 20
8.9668897904
 30
0.0
 11
17.7681972288
 21
8.9668897904
 31
0.0
  0
LINE
  5
306
330
2FE
100
AcDbEntity
  8
0
  6
Continuous
 62
     7
 48
1.75
370
     0
100
AcDbLine
 10
18.6286240673
 20
8.9668897904
 30
0.0
 11
18.6286240673
 21
8.6718024951
 31
0.0
  0
LINE
  5
307
330
2FE
100
AcDbEntity
  8
0
  6
Continuous
 62
     7
 48
1.75
370
     0
100
AcDbLine
 10
18.6286240673
 20
8.6718024951
 30
0.0
 11
18.5842223615
 21
8.6718024951
 31
0.0
  0
LINE
  5
308
330
2FE
100
AcDbEntity
  8
0
  6
Continuous
 62
     7
 48
1.75
370
     0
100
AcDbLine
 10
18.6286240673
 20
8.9668897904
 30
0.0
 11
18.5842223615
 21
8.9668897904
 31
0.0
  0
LINE
  5
309
330
2FE
100
AcDbEntity
  8
0
  6
Continuous
 62
     7
 48
1.75
370
     0
100
AcDbLine
 10
19.2776861731
 20
12.3679269047
 30
0.0
 11
17.9574597951
 21
12.3679269047
 31
0.0
  0
LINE
  5
30A
330
2FE
100
AcDbEntity
  8
0
  6
Continuous
 62
     7
 48
1.75
370
     0
100
AcDbLine
 10
19.2776861731
 20
5.6179269047
 30
0.0
 11
17.9574597951
 21
5.6179269047
 31
0.0
  0
LINE
  5
30B
330
2FE
100
AcDbEntity
  8
0
  6
Continuous
 62
     7
 48
1.75
370
     0
100
AcDbLine
 10
18.1762097951
 20
12.3679269047
 30
0.0
 11
18.1762097951
 21
9.3400884286
 31
0.0
  0
LINE
  5
30C
330
2FE
100
AcDbEntity
  8
0
  6
Continuous
 62
     7
 48
1.75
370
     0
100
AcDbLine
 10
18.1762097951
 20
5.6179269047
 30
0.0
 11
18.1762097951
 21
8.6457653808
 31
0.0
  0
MTEXT
  5
30D
330
2FE
100
AcDbEntity
  8
0
  6
Continuous
 62
     7
 48
1.75
370
     0
100
AcDbMText
 10
17.8934652538
 20
9.2749104607
 30
0.0
 40
0.21875
 41
0.0
 71
     1
 72
     1
  1
6.75
  7
SLDTEXTSTYLE0
 73
     1
 44
1.0
  0
MTEXT
  5
30E
330
2FE
100
AcDbEntity
  8
0
  6
Continuous
 62
     7
 48
1.75
370
     0
100
AcDbMText
 10
17.8125989346
 20
8.9277489369
 30
0.0
 40
0.21875
 41
0.0
 71
     1
 72
     1
  1
171.5
  7
SLDTEXTSTYLE0
 73
     1
 44
1.0
  0
ENDBLK
  5
300
330
2FE
100
AcDbEntity
  8
0
100
AcDbBlockEnd
  0
BLOCK
  5
312
330
311
100
AcDbEntity
  8
0
100
AcDbBlockBegin
  2
*D17
 70
     1
 10
0.0
 20
0.0
 30
0.0
  3
*D17
  1

  0
SOLID
  5
314
330
311
100
AcDbEntity
  8
0
  6
Continuous
 62
     7
 48
1.75
370
     0
100
AcDbTrace
 10
19.1151861731
 20
13.0569032826
 30
0.0
 11
19.3426861731
 21
13.0219032826
 31
0.0
 12
19.3426861731
 22
13.0919032826
 32
0.0
 13
19.3426861731
 23
13.0919032826
 33
0.0
  0
SOLID
  5
315
330
311
100
AcDbEntity
  8
0
  6
Continuous
 62
     7
 48
1.75
370
     0
100
AcDbTrace
 10
22.1151861731
 20
13.0569032826
 30
0.0
 11
21.8876861731
 21
13.0919032826
 31
0.0
 12
21.8876861731
 22
13.0219032826
 32
0.0
 13
21.8876861731
 23
13.0219032826
 33
0.0
  0
LINE
  5
316
330
311
100
AcDbEntity
  8
0
  6
Continuous
 62
     7
 48
1.75
370
     0
100
AcDbLine
 10
20.2436382201
 20
13.0308661684
 30
0.0
 11
20.2436382201
 21
12.7357788731
 31
0.0
  0
LINE
  5
317
330
311
100
AcDbEntity
  8
0
  6
Continuous
 62
     7
 48
1.75
370
     0
100
AcDbLine
 10
20.2436382201
 20
12.7357788731
 30
0.0
 11
20.2880399259
 21
12.7357788731
 31
0.0
  0
LINE
  5
318
330
311
100
AcDbEntity
  8
0
  6
Continuous
 62
     7
 48
1.75
370
     0
100
AcDbLine
 10
20.2436382201
 20
13.0308661684
 30
0.0
 11
20.2880399259
 21
13.0308661684
 31
0.0
  0
LINE
  5
319
330
311
100
AcDbEntity
  8
0
  6
Continuous
 62
     7
 48
1.75
370
     0
100
AcDbLine
 10
20.9867341261
 20
13.0308661684
 30
0.0
 11
20.9867341261
 21
12.7357788731
 31
0.0
  0
LINE
  5
31A
330
311
100
AcDbEntity
  8
0
  6
Continuous
 62
     7
 48
1.75
370
     0
100
AcDbLine
 10
20.9867341261
 20
12.7357788731
 30
0.0
 11
20.9423324202
 21
12.7357788731
 31
0.0
  0
LINE
  5
31B
330
311
100
AcDbEntity
  8
0
  6
Continuous
 62
     7
 48
1.75
370
     0
100
AcDbLine
 10
20.9867341261
 20
13.0308661684
 30
0.0
 11
20.9423324202
 21
13.0308661684
 31
0.0
  0
LINE
  5
31C
330
311
100
AcDbEntity
  8
0
  6
Continuous
 62
     7
 48
1.75
370
     0
100
AcDbLine
 10
19.1151861731
 20
12.2054269047
 30
0.0
 11
19.1151861731
 21
13.2756532826
 31
0.0
  0
LINE
  5
31D
330
311
100
AcDbEntity
  8
0
  6
Continuous
 62
     7
 48
1.75
370
     0
100
AcDbLine
 10
22.1151861731
 20
12.2054269047
 30
0.0
 11
22.1151861731
 21
13.2756532826
 31
0.0
  0
LINE
  5
31E
330
311
100
AcDbEntity
  8
0
  6
Continuous
 62
     7
 48
1.75
370
     0
100
AcDbLine
 10
19.1151861731
 20
13.0569032826
 30
0.0
 11
20.0011156177
 21
13.0569032826
 31
0.0
  0
LINE
  5
31F
330
311
100
AcDbEntity
  8
0
  6
Continuous
 62
     7
 48
1.75
370
     0
100
AcDbLine
 10
22.1151861731
 20
13.0569032826
 30
0.0
 11
21.2292567284
 21
13.0569032826
 31
0.0
  0
MTEXT
  5
320
330
311
100
AcDbEntity
  8
0
  6
Continuous
 62
     7
 48
1.75
370
     0
100
AcDbMText
 10
20.3324416318
 20
13.3388868387
 30
0.0
 40
0.21875
 41
0.0
 71
     1
 72
     1
  1
3.00
  7
SLDTEXTSTYLE0
 73
     1
 44
1.0
  0
MTEXT
  5
321
330
311
100
AcDbEntity
  8
0
  6
Continuous
 62
     7
 48
1.75
370
     0
100
AcDbMText
 10
20.3324416318
 20
12.9917253148
 30
0.0
 40
0.21875
 41
0.0
 71
     1
 72
     1
  1
76.2
  7
SLDTEXTSTYLE0
 73
     1
 44
1.0
  0
ENDBLK
  5
313
330
311
100
AcDbEntity
  8
0
100
AcDbBlockEnd
  0
BLOCK
  5
4B1
330
4B0
100
AcDbEntity
  8
0
100
AcDbBlockBegin
  2
*D18
 70
     1
 10
0.0
 20
0.0
 30
0.0
  3
*D18
  1

  0
SOLID
  5
4B3
330
4B0
100
AcDbEntity
  8
0
  6
Continuous
 62
     7
 48
1.75
370
     0
100
AcDbTrace
 10
7.9854249981
 20
13.0569032826
 30
0.0
 11
8.2129249981
 21
13.0219032826
 31
0.0
 12
8.2129249981
 22
13.0919032826
 32
0.0
 13
8.2129249981
 23
13.0919032826
 33
0.0
  0
SOLID
  5
4B4
330
4B0
100
AcDbEntity
  8
0
  6
Continuous
 62
     7
 48
1.75
370
     0
100
AcDbTrace
 10
11.2354249981
 20
13.0569032826
 30
0.0
 11
11.0079249981
 21
13.0919032826
 31
0.0
 12
11.0079249981
 22
13.0219032826
 32
0.0
 13
11.0079249981
 23
13.0219032826
 33
0.0
  0
LINE
  5
4B5
330
4B0
100
AcDbEntity
  8
0
  6
Continuous
 62
     7
 48
1.75
370
     0
100
AcDbLine
 10
9.2388770451
 20
13.0308661684
 30
0.0
 11
9.2388770451
 21
12.7357788731
 31
0.0
  0
LINE
  5
4B6
330
4B0
100
AcDbEntity
  8
0
  6
Continuous
 62
     7
 48
1.75
370
     0
100
AcDbLine
 10
9.2388770451
 20
12.7357788731
 30
0.0
 11
9.283278751
 21
12.7357788731
 31
0.0
  0
LINE
  5
4B7
330
4B0
100
AcDbEntity
  8
0
  6
Continuous
 62
     7
 48
1.75
370
     0
100
AcDbLine
 10
9.2388770451
 20
13.0308661684
 30
0.0
 11
9.283278751
 21
13.0308661684
 31
0.0
  0
LINE
  5
4B8
330
4B0
100
AcDbEntity
  8
0
  6
Continuous
 62
     7
 48
1.75
370
     0
100
AcDbLine
 10
9.9819729511
 20
13.0308661684
 30
0.0
 11
9.9819729511
 21
12.7357788731
 31
0.0
  0
LINE
  5
4B9
330
4B0
100
AcDbEntity
  8
0
  6
Continuous
 62
     7
 48
1.75
370
     0
100
AcDbLine
 10
9.9819729511
 20
12.7357788731
 30
0.0
 11
9.9375712453
 21
12.7357788731
 31
0.0
  0
LINE
  5
4BA
330
4B0
100
AcDbEntity
  8
0
  6
Continuous
 62
     7
 48
1.75
370
     0
100
AcDbLine
 10
9.9819729511
 20
13.0308661684
 30
0.0
 11
9.9375712453
 21
13.0308661684
 31
0.0
  0
LINE
  5
4BB
330
4B0
100
AcDbEntity
  8
0
  6
Continuous
 62
     7
 48
1.75
370
     0
100
AcDbLine
 10
7.9854249981
 20
11.8624269047
 30
0.0
 11
7.9854249981
 21
13.2756532826
 31
0.0
  0
LINE
  5
4BC
330
4B0
100
AcDbEntity
  8
0
  6
Continuous
 62
     7
 48
1.75
370
     0
100
AcDbLine
 10
11.2354249981
 20
11.8624269047
 30
0.0
 11
11.2354249981
 21
13.2756532826
 31
0.0
  0
LINE
  5
4BD
330
4B0
100
AcDbEntity
  8
0
  6
Continuous
 62
     7
 48
1.75
370
     0
100
AcDbLine
 10
7.9854249981
 20
13.0569032826
 30
0.0
 11
8.9963544428
 21
13.0569032826
 31
0.0
  0
LINE
  5
4BE
330
4B0
100
AcDbEntity
  8
0
  6
Continuous
 62
     7
 48
1.75
370
     0
100
AcDbLine
 10
11.2354249981
 20
13.0569032826
 30
0.0
 11
10.2244955535
 21
13.0569032826
 31
0.0
  0
MTEXT
  5
4BF
330
4B0
100
AcDbEntity
  8
0
  6
Continuous
 62
     7
 48
1.75
370
     0
100
AcDbMText
 10
9.3276804568
 20
13.3388868387
 30
0.0
 40
0.21875
 41
0.0
 71
     1
 72
     1
  1
3.25
  7
SLDTEXTSTYLE0
 73
     1
 44
1.0
  0
MTEXT
  5
4C0
330
4B0
100
AcDbEntity
  8
0
  6
Continuous
 62
     7
 48
1.75
370
     0
100
AcDbMText
 10
9.3276804568
 20
12.9917253148
 30
0.0
 40
0.21875
 41
0.0
 71
     1
 72
     1
  1
82.6
  7
SLDTEXTSTYLE0
 73
     1
 44
1.0
  0
ENDBLK
  5
4B2
330
4B0
100
AcDbEntity
  8
0
100
AcDbBlockEnd
  0
BLOCK
  5
4C3
330
4C2
100
AcDbEntity
  8
0
100
AcDbBlockBegin
  2
*D19
 70
     1
 10
0.0
 20
0.0
 30
0.0
  3
*D19
  1

  0
SOLID
  5
4C5
330
4C2
100
AcDbEntity
  8
0
  6
Continuous
 62
     7
 48
1.75
370
     0
100
AcDbTrace
 10
11.9486972082
 20
11.8679269047
 30
0.0
 11
11.9136972082
 21
11.6404269047
 31
0.0
 12
11.9836972082
 22
11.6404269047
 32
0.0
 13
11.9836972082
 23
11.6404269047
 33
0.0
  0
SOLID
  5
4C6
330
4C2
100
AcDbEntity
  8
0
  6
Continuous
 62
     7
 48
1.75
370
     0
100
AcDbTrace
 10
11.9486972082
 20
6.1179269047
 30
0.0
 11
11.9836972082
 21
6.3454269047
 31
0.0
 12
11.9136972082
 22
6.3454269047
 32
0.0
 13
11.9136972082
 23
6.3454269047
 33
0.0
  0
LINE
  5
4C7
330
4C2
100
AcDbEntity
  8
0
  6
Continuous
 62
     7
 48
1.75
370
     0
100
AcDbLine
 10
11.496282936
 20
8.9668897904
 30
0.0
 11
11.496282936
 21
8.6718024951
 31
0.0
  0
LINE
  5
4C8
330
4C2
100
AcDbEntity
  8
0
  6
Continuous
 62
     7
 48
1.75
370
     0
100
AcDbLine
 10
11.496282936
 20
8.6718024951
 30
0.0
 11
11.5406846419
 21
8.6718024951
 31
0.0
  0
LINE
  5
4C9
330
4C2
100
AcDbEntity
  8
0
  6
Continuous
 62
     7
 48
1.75
370
     0
100
AcDbLine
 10
11.496282936
 20
8.9668897904
 30
0.0
 11
11.5406846419
 21
8.9668897904
 31
0.0
  0
LINE
  5
4CA
330
4C2
100
AcDbEntity
  8
0
  6
Continuous
 62
     7
 48
1.75
370
     0
100
AcDbLine
 10
12.4011114804
 20
8.9668897904
 30
0.0
 11
12.4011114804
 21
8.6718024951
 31
0.0
  0
LINE
  5
4CB
330
4C2
100
AcDbEntity
  8
0
  6
Continuous
 62
     7
 48
1.75
370
     0
100
AcDbLine
 10
12.4011114804
 20
8.6718024951
 30
0.0
 11
12.3567097745
 21
8.6718024951
 31
0.0
  0
LINE
  5
4CC
330
4C2
100
AcDbEntity
  8
0
  6
Continuous
 62
     7
 48
1.75
370
     0
100
AcDbLine
 10
12.4011114804
 20
8.9668897904
 30
0.0
 11
12.3567097745
 21
8.9668897904
 31
0.0
  0
LINE
  5
4CD
330
4C2
100
AcDbEntity
  8
0
  6
Continuous
 62
     7
 48
1.75
370
     0
100
AcDbLine
 10
11.2299249981
 20
11.8679269047
 30
0.0
 11
12.1674472082
 21
11.8679269047
 31
0.0
  0
LINE
  5
4CE
330
4C2
100
AcDbEntity
  8
0
  6
Continuous
 62
     7
 48
1.75
370
     0
100
AcDbLine
 10
11.2299249981
 20
6.1179269047
 30
0.0
 11
12.1674472082
 21
6.1179269047
 31
0.0
  0
LINE
  5
4CF
330
4C2
100
AcDbEntity
  8
0
  6
Continuous
 62
     7
 48
1.75
370
     0
100
AcDbLine
 10
11.9486972082
 20
11.8679269047
 30
0.0
 11
11.9486972082
 21
9.3400884286
 31
0.0
  0
LINE
  5
4D0
330
4C2
100
AcDbEntity
  8
0
  6
Continuous
 62
     7
 48
1.75
370
     0
100
AcDbLine
 10
11.9486972082
 20
6.1179269047
 30
0.0
 11
11.9486972082
 21
8.6457653808
 31
0.0
  0
MTEXT
  5
4D1
330
4C2
100
AcDbEntity
  8
0
  6
Continuous
 62
     7
 48
1.75
370
     0
100
AcDbMText
 10
11.6659526669
 20
9.2749104607
 30
0.0
 40
0.21875
 41
0.0
 71
     1
 72
     1
  1
5.75
  7
SLDTEXTSTYLE0
 73
     1
 44
1.0
  0
MTEXT
  5
4D2
330
4C2
100
AcDbEntity
  8
0
  6
Continuous
 62
     7
 48
1.75
370
     0
100
AcDbMText
 10
11.5850863477
 20
8.9277489369
 30
0.0
 40
0.21875
 41
0.0
 71
     1
 72
     1
  1
146.1
  7
SLDTEXTSTYLE0
 73
     1
 44
1.0
  0
ENDBLK
  5
4C4
330
4C2
100
AcDbEntity
  8
0
100
AcDbBlockEnd
  0
BLOCK
  5
4D4
330
4D3
100
AcDbEntity
  8
0
100
AcDbBlockBegin
  2
SW_NOTE_6
 70
     0
 10
0.0
 20
0.0
 30
0.0
  3
SW_NOTE_6
  1

  0
MTEXT
  5
4D6
330
4D3
100
AcDbEntity
  8
0
  6
Continuous
 62
     0
 48
1.75
370
     0
100
AcDbMText
 10
0.0346361018
 20
0.1061300411
 30
0.0
 40
0.21875
 41
0.0
 71
     1
 72
     1
  1
WELD STANDOFF M5x0.8 x 12mm LG.
  7
SLDTEXTSTYLE0
 73
     1
 44
1.0
  0
MTEXT
  5
4D7
330
4D3
100
AcDbEntity
  8
0
  6
Continuous
 62
     0
 48
1.75
370
     0
100
AcDbMText
 10
0.0346361018
 20
-0.1815175893
 30
0.0
 40
0.21875
 41
0.0
 71
     1
 72
     1
  1
FOR GROUNDING [SUPPLIED WITH
  7
SLDTEXTSTYLE0
 73
     1
 44
1.0
  0
MTEXT
  5
4D8
330
4D3
100
AcDbEntity
  8
0
  6
Continuous
 62
     0
 48
1.75
370
     0
100
AcDbMText
 10
0.0346361018
 20
-0.4691652197
 30
0.0
 40
0.21875
 41
0.0
 71
     1
 72
     1
  1
(1) SCREW M5x0.8 x 10mm LG., PAN HEAD,
  7
SLDTEXTSTYLE0
 73
     1
 44
1.0
  0
MTEXT
  5
4D9
330
4D3
100
AcDbEntity
  8
0
  6
Continuous
 62
     0
 48
1.75
370
     0
100
AcDbMText
 10
0.0346361018
 20
-0.7568128501
 30
0.0
 40
0.21875
 41
0.0
 71
     1
 72
     1
  1
PHILLIPS DRIVE, STEEL, ZINC PLATED
  7
SLDTEXTSTYLE0
 73
     1
 44
1.0
  0
MTEXT
  5
4DA
330
4D3
100
AcDbEntity
  8
0
  6
Continuous
 62
     0
 48
1.75
370
     0
100
AcDbMText
 10
0.0346361018
 20
-1.0444604805
 30
0.0
 40
0.21875
 41
0.0
 71
     1
 72
     1
  1
AND (1) LOCKWASHER, INTERNAL TOOTH,
  7
SLDTEXTSTYLE0
 73
     1
 44
1.0
  0
MTEXT
  5
4DB
330
4D3
100
AcDbEntity
  8
0
  6
Continuous
 62
     0
 48
1.75
370
     0
100
AcDbMText
 10
0.0346361018
 20
-1.3321081109
 30
0.0
 40
0.21875
 41
0.0
 71
     1
 72
     1
  1
STEEL, ZINC PLATED]
  7
SLDTEXTSTYLE0
 73
     1
 44
1.0
  0
ENDBLK
  5
4D5
330
4D3
100
AcDbEntity
  8
0
100
AcDbBlockEnd
  0
BLOCK
  5
4DF
330
4DE
100
AcDbEntity
  8
0
100
AcDbBlockBegin
  2
SW_NOTE_7
 70
     0
 10
0.0
 20
0.0
 30
0.0
  3
SW_NOTE_7
  1

  0
MTEXT
  5
4E1
330
4DE
100
AcDbEntity
  8
0
  6
Continuous
 62
     0
 48
1.75
370
     0
100
AcDbMText
 10
0.0
 20
0.2819835681
 30
0.0
 40
0.21875
 41
0.0
 71
     1
 72
     1
  1
\LCOVER
  7
SLDTEXTSTYLE0
 73
     1
 44
1.0
  0
MTEXT
  5
4E2
330
4DE
100
AcDbEntity
  8
0
  6
Continuous
 62
     0
 48
1.75
370
     0
100
AcDbMText
 10
-0.1953558549
 20
-0.0056640623
 30
0.0
 40
0.21875
 41
0.0
 71
     1
 72
     1
  1
\LREMOVED
  7
SLDTEXTSTYLE0
 73
     1
 44
1.0
  0
ENDBLK
  5
4E0
330
4DE
100
AcDbEntity
  8
0
100
AcDbBlockEnd
  0
ENDSEC
  0
SECTION
  2
ENTITIES
  0
LINE
  5
44
330
1F
100
AcDbEntity
  8
0
  6
Continuous
 62
     7
 48
1.75
370
     0
100
AcDbLine
 10
0.5481903081
 20
18.7338780488
 30
0.0
 11
29.2061903081
 21
18.7338780488
 31
0.0
  0
LINE
  5
45
330
1F
100
AcDbEntity
  8
0
  6
Continuous
 62
     7
 48
1.75
370
     0
100
AcDbLine
 10
29.2061903081
 20
0.5758780488
 30
0.0
 11
29.2061903081
 21
18.7338780488
 31
0.0
  0
LINE
  5
46
330
1F
100
AcDbEntity
  8
0
  6
Continuous
 62
     7
 48
1.75
370
     0
100
AcDbLine
 10
29.2061903081
 20
0.5758780488
 30
0.0
 11
0.5481903081
 21
0.5758780488
 31
0.0
  0
LINE
  5
47
330
1F
100
AcDbEntity
  8
0
  6
Continuous
 62
     7
 48
1.75
370
     0
100
AcDbLine
 10
0.5481903081
 20
18.7338780488
 30
0.0
 11
0.5481903081
 21
0.5758780488
 31
0.0
  0
LINE
  5
48
330
1F
100
AcDbEntity
  8
0
  6
Continuous
 62
     7
 48
1.75
370
     0
100
AcDbLine
 10
0.4396903081
 20
18.8423780488
 30
0.0
 11
29.3146903081
 21
18.8423780488
 31
0.0
  0
LINE
  5
49
330
1F
100
AcDbEntity
  8
0
  6
Continuous
 62
     7
 48
1.75
370
     0
100
AcDbLine
 10
29.3146903081
 20
0.4673780488
 30
0.0
 11
0.4396903081
 21
0.4673780488
 31
0.0
  0
LINE
  5
4A
330
1F
100
AcDbEntity
  8
0
  6
Continuous
 62
     7
 48
1.75
370
     0
100
AcDbLine
 10
0.4396903081
 20
18.8423780488
 30
0.0
 11
0.4396903081
 21
0.4673780488
 31
0.0
  0
LINE
  5
4B
330
1F
100
AcDbEntity
  8
0
  6
Continuous
 62
     7
 48
1.75
370
     0
100
AcDbLine
 10
29.3146903081
 20
0.4673780488
 30
0.0
 11
29.3146903081
 21
18.8423780488
 31
0.0
  0
LINE
  5
4C
330
1F
100
AcDbEntity
  8
0
  6
Continuous
 62
     7
 48
1.75
370
     0
100
AcDbLine
 10
0.5481903081
 20
18.0233780488
 30
0.0
 11
29.2061903081
 21
18.0233780488
 31
0.0
  0
LINE
  5
4D
330
1F
100
AcDbEntity
  8
0
  6
Continuous
 62
     7
 48
1.75
370
     0
100
AcDbLine
 10
1.8606903081
 20
18.7338780488
 30
0.0
 11
1.8606903081
 21
18.0233780488
 31
0.0
  0
LINE
  5
4E
330
1F
100
AcDbEntity
  8
0
  6
Continuous
 62
     7
 48
1.75
370
     0
100
AcDbLine
 10
13.0186903081
 20
18.0233780488
 30
0.0
 11
13.0186903081
 21
18.7338780488
 31
0.0
  0
LINE
  5
4F
330
1F
100
AcDbEntity
  8
0
  6
Continuous
 62
     7
 48
1.75
370
     0
100
AcDbLine
 10
13.1271903081
 20
18.0233780488
 30
0.0
 11
13.1271903081
 21
18.7338780488
 31
0.0
  0
LINE
  5
50
330
1F
100
AcDbEntity
  8
0
  6
Continuous
 62
     7
 48
1.75
370
     0
100
AcDbLine
 10
27.0186903081
 20
18.0233780488
 30
0.0
 11
27.0186903081
 21
18.7338780488
 31
0.0
  0
LINE
  5
51
330
1F
100
AcDbEntity
  8
0
  6
Continuous
 62
     7
 48
1.75
370
     0
100
AcDbLine
 10
14.4396903081
 20
18.0233780488
 30
0.0
 11
14.4396903081
 21
18.7338780488
 31
0.0
  0
LINE
  5
52
330
1F
100
AcDbEntity
  8
0
  6
Continuous
 62
     7
 48
1.75
370
     0
100
AcDbLine
 10
25.7061903081
 20
18.0233780488
 30
0.0
 11
25.7061903081
 21
18.7338780488
 31
0.0
  0
LINE
  5
53
330
1F
100
AcDbEntity
  8
0
  6
Continuous
 62
     7
 48
1.75
370
     0
100
AcDbLine
 10
25.5976903081
 20
18.0233780488
 30
0.0
 11
25.5976903081
 21
18.7338780488
 31
0.0
  0
DIMENSION
  5
54
330
1F
100
AcDbEntity
  8
0
  6
Continuous
 62
     7
 48
1.75
370
     0
100
AcDbDimension
  2
*D1
 10
23.0392962991
 20
5.8679269047
 30
0.0
 11
23.0392962991
 21
8.9929269047
 31
0.0
 70
   160
 71
     2
 42
-1.0
  3
SLDDIMSTYLE0
100
AcDbAlignedDimension
 13
21.9121861731
 23
12.1179269047
 33
0.0
 14
21.9121861731
 24
5.8679269047
 34
0.0
 50
90.0
100
AcDbRotatedDimension
  0
INSERT
  5
90
330
1F
100
AcDbEntity
  8
0
  6
Continuous
 62
     7
 48
1.75
370
     0
100
AcDbBlockReference
  2
SW_NOTE_0
 10
12.0107448825
 20
16.4117174109
 30
0.0
  0
MTEXT
  5
91
330
1F
100
AcDbEntity
  8
0
  6
Continuous
 62
     7
 48
1.75
370
     0
100
AcDbMText
 10
27.4108181763
 20
18.5663036022
 30
0.0
 40
0.328125
 41
0.0
 71
     1
 72
     1
  1
1-31-11
  7
SLDTEXTSTYLE0
 73
     1
 44
1.0
  0
MTEXT
  5
92
330
1F
100
AcDbEntity
  8
0
  6
Continuous
 62
     7
 48
1.75
370
     0
100
AcDbMText
 10
3.9331068292
 20
18.5396549456
 30
0.0
 40
0.328125
 41
0.0
 71
     1
 72
     1
  1
22.5mm PUSHBUTTON ENCLOSURE
  7
SLDTEXTSTYLE0
 73
     1
 44
1.0
  0
MTEXT
  5
93
330
1F
100
AcDbEntity
  8
0
  6
Continuous
 62
     7
 48
1.75
370
     0
100
AcDbMText
 10
19.1328634685
 20
18.5382367946
 30
0.0
 40
0.328125
 41
0.0
 71
     1
 72
     1
  1
SPB-3902
  7
SLDTEXTSTYLE0
 73
     1
 44
1.0
  0
INSERT
  5
99
330
1F
100
AcDbEntity
  8
0
  6
Continuous
 62
     7
 48
1.75
370
     0
100
AcDbBlockReference
  2
SW_NOTE_1
 10
0.853368577
 20
18.3833300464
 30
0.0
  0
INSERT
  5
9F
330
1F
100
AcDbEntity
  8
0
  6
Continuous
 62
     7
 48
1.75
370
     0
100
AcDbBlockReference
  2
SW_NOTE_2
 10
13.4489510572
 20
18.3753469195
 30
0.0
  0
INSERT
  5
A5
330
1F
100
AcDbEntity
  8
0
  6
Continuous
 62
     7
 48
1.75
370
     0
100
AcDbBlockReference
  2
SW_NOTE_3
 10
25.740117598
 20
18.3809211727
 30
0.0
  0
LINE
  5
A6
330
1F
100
AcDbEntity
  8
0
  6
Continuous
 62
     7
 48
1.75
370
    15
100
AcDbLine
 10
2.6259552714
 20
5.9929268676
 30
0.0
 11
5.9399553344
 21
5.9929268676
 31
0.0
  0
ARC
  5
A7
330
1F
100
AcDbEntity
  8
0
  6
Continuous
 62
     7
 48
3.0625
370
    15
100
AcDbCircle
 10
2.6259553029
 20
6.0859269047
 30
0.0
 40
0.093
100
AcDbArc
 50
180.0
 51
270.0
  0
LINE
  5
A8
330
1F
100
AcDbEntity
  8
0
  6
Continuous
 62
     7
 48
1.75
370
    15
100
AcDbLine
 10
6.0329553001
 20
6.0859268333
 30
0.0
 11
6.0329553001
 21
11.8999269761
 31
0.0
  0
ARC
  5
A9
330
1F
100
AcDbEntity
  8
0
  6
Continuous
 62
     7
 48
3.0625
370
    15
100
AcDbCircle
 10
4.2829553029
 20
7.8679269047
 30
0.0
 40
0.4430000000000001
100
AcDbArc
 50
188.1105498048
 51
261.8894501952
  0
LINE
  5
AA
330
1F
100
AcDbEntity
  8
0
  6
Continuous
 62
     7
 48
1.75
370
    15
100
AcDbLine
 10
4.2204553037
 20
7.4293578872
 30
0.0
 11
4.2204553037
 21
7.3679269702
 31
0.0
  0
LINE
  5
AB
330
1F
100
AcDbEntity
  8
0
  6
Continuous
 62
     7
 48
1.75
370
    15
100
AcDbLine
 10
4.2204553037
 20
7.3679269702
 30
0.0
 11
4.3454553022
 21
7.3679269702
 31
0.0
  0
LINE
  5
AC
330
1F
100
AcDbEntity
  8
0
  6
Continuous
 62
     7
 48
1.75
370
    15
100
AcDbLine
 10
4.3454553022
 20
7.3679269702
 30
0.0
 11
4.3454553022
 21
7.4293578872
 31
0.0
  0
ARC
  5
AD
330
1F
100
AcDbEntity
  8
0
  6
Continuous
 62
     7
 48
3.0625
370
    15
100
AcDbCircle
 10
4.2829553029
 20
7.8679269047
 30
0.0
 40
0.4430000000000011
100
AcDbArc
 50
278.1105498048
 51
351.8894501952
  0
LINE
  5
AE
330
1F
100
AcDbEntity
  8
0
  6
Continuous
 62
     7
 48
1.75
370
    15
100
AcDbLine
 10
4.7215242699
 20
7.8054268961
 30
0.0
 11
4.7829552969
 21
7.8054268961
 31
0.0
  0
LINE
  5
AF
330
1F
100
AcDbEntity
  8
0
  6
Continuous
 62
     7
 48
1.75
370
    15
100
AcDbLine
 10
4.7829552969
 20
7.8054268961
 30
0.0
 11
4.7829552969
 21
7.9304268855
 31
0.0
  0
LINE
  5
B0
330
1F
100
AcDbEntity
  8
0
  6
Continuous
 62
     7
 48
1.75
370
    15
100
AcDbLine
 10
4.7829552969
 20
7.9304268855
 30
0.0
 11
4.7215242699
 21
7.9304268855
 31
0.0
  0
ARC
  5
B1
330
1F
100
AcDbEntity
  8
0
  6
Continuous
 62
     7
 48
3.0625
370
    15
100
AcDbCircle
 10
4.2829553029
 20
7.8679269047
 30
0.0
 40
0.4430000000000009
100
AcDbArc
 50
8.1105498048
 51
81.8894501952
  0
LINE
  5
B2
330
1F
100
AcDbEntity
  8
0
  6
Continuous
 62
     7
 48
1.75
370
    15
100
AcDbLine
 10
4.3454553022
 20
8.3064958944
 30
0.0
 11
4.3454553022
 21
8.3679268847
 31
0.0
  0
LINE
  5
B3
330
1F
100
AcDbEntity
  8
0
  6
Continuous
 62
     7
 48
1.75
370
    15
100
AcDbLine
 10
4.3454553022
 20
8.3679268847
 30
0.0
 11
4.2204553037
 21
8.3679268847
 31
0.0
  0
LINE
  5
B4
330
1F
100
AcDbEntity
  8
0
  6
Continuous
 62
     7
 48
1.75
370
    15
100
AcDbLine
 10
4.2204553037
 20
8.3679268847
 30
0.0
 11
4.2204553037
 21
8.3064958944
 31
0.0
  0
ARC
  5
B5
330
1F
100
AcDbEntity
  8
0
  6
Continuous
 62
     7
 48
3.0625
370
    15
100
AcDbCircle
 10
4.2829553029
 20
7.8679269047
 30
0.0
 40
0.443
100
AcDbArc
 50
98.1105498048
 51
171.8894501952
  0
LINE
  5
B6
330
1F
100
AcDbEntity
  8
0
  6
Continuous
 62
     7
 48
1.75
370
    15
100
AcDbLine
 10
3.844386336
 20
7.9304268855
 30
0.0
 11
3.782955309
 21
7.9304268855
 31
0.0
  0
LINE
  5
B7
330
1F
100
AcDbEntity
  8
0
  6
Continuous
 62
     7
 48
1.75
370
    15
100
AcDbLine
 10
3.782955309
 20
7.9304268855
 30
0.0
 11
3.782955309
 21
7.8054268961
 31
0.0
  0
LINE
  5
B8
330
1F
100
AcDbEntity
  8
0
  6
Continuous
 62
     7
 48
1.75
370
    15
100
AcDbLine
 10
3.782955309
 20
7.8054268961
 30
0.0
 11
3.844386336
 21
7.8054268961
 31
0.0
  0
ARC
  5
B9
330
1F
100
AcDbEntity
  8
0
  6
Continuous
 62
     7
 48
3.0625
370
    15
100
AcDbCircle
 10
4.2829553029
 20
10.1179269047
 30
0.0
 40
0.4430000000000001
100
AcDbArc
 50
188.1105498048
 51
261.8894501952
  0
LINE
  5
BA
330
1F
100
AcDbEntity
  8
0
  6
Continuous
 62
     7
 48
1.75
370
    15
100
AcDbLine
 10
4.2204553037
 20
9.679357915
 30
0.0
 11
4.2204553037
 21
9.6179269246
 31
0.0
  0
LINE
  5
BB
330
1F
100
AcDbEntity
  8
0
  6
Continuous
 62
     7
 48
1.75
370
    15
100
AcDbLine
 10
4.2204553037
 20
9.6179269246
 30
0.0
 11
4.3454553022
 21
9.6179269246
 31
0.0
  0
LINE
  5
BC
330
1F
100
AcDbEntity
  8
0
  6
Continuous
 62
     7
 48
1.75
370
    15
100
AcDbLine
 10
4.3454553022
 20
9.6179269246
 30
0.0
 11
4.3454553022
 21
9.679357915
 31
0.0
  0
ARC
  5
BD
330
1F
100
AcDbEntity
  8
0
  6
Continuous
 62
     7
 48
3.0625
370
    15
100
AcDbCircle
 10
4.2829553029
 20
10.1179269047
 30
0.0
 40
0.443000000000001
100
AcDbArc
 50
278.1105498048
 51
351.8894501952
  0
LINE
  5
BE
330
1F
100
AcDbEntity
  8
0
  6
Continuous
 62
     7
 48
1.75
370
    15
100
AcDbLine
 10
4.7215242699
 20
10.0554269239
 30
0.0
 11
4.7829552969
 21
10.0554269239
 31
0.0
  0
LINE
  5
BF
330
1F
100
AcDbEntity
  8
0
  6
Continuous
 62
     7
 48
1.75
370
    15
100
AcDbLine
 10
4.7829552969
 20
10.0554269239
 30
0.0
 11
4.7829552969
 21
10.1804269133
 31
0.0
  0
LINE
  5
C0
330
1F
100
AcDbEntity
  8
0
  6
Continuous
 62
     7
 48
1.75
370
    15
100
AcDbLine
 10
4.7829552969
 20
10.1804269133
 30
0.0
 11
4.7215242699
 21
10.1804269133
 31
0.0
  0
ARC
  5
C1
330
1F
100
AcDbEntity
  8
0
  6
Continuous
 62
     7
 48
3.0625
370
    15
100
AcDbCircle
 10
4.2829553029
 20
10.1179269047
 30
0.0
 40
0.443000000000001
100
AcDbArc
 50
8.1105498048
 51
81.8894501952
  0
LINE
  5
C2
330
1F
100
AcDbEntity
  8
0
  6
Continuous
 62
     7
 48
1.75
370
    15
100
AcDbLine
 10
4.3454553022
 20
10.5564959222
 30
0.0
 11
4.3454553022
 21
10.6179268392
 31
0.0
  0
LINE
  5
C3
330
1F
100
AcDbEntity
  8
0
  6
Continuous
 62
     7
 48
1.75
370
    15
100
AcDbLine
 10
4.3454553022
 20
10.6179268392
 30
0.0
 11
4.2204553037
 21
10.6179268392
 31
0.0
  0
LINE
  5
C4
330
1F
100
AcDbEntity
  8
0
  6
Continuous
 62
     7
 48
1.75
370
    15
100
AcDbLine
 10
4.2204553037
 20
10.6179268392
 30
0.0
 11
4.2204553037
 21
10.5564959222
 31
0.0
  0
ARC
  5
C5
330
1F
100
AcDbEntity
  8
0
  6
Continuous
 62
     7
 48
3.0625
370
    15
100
AcDbCircle
 10
4.2829553029
 20
10.1179269047
 30
0.0
 40
0.443
100
AcDbArc
 50
98.1105498048
 51
171.8894501952
  0
LINE
  5
C6
330
1F
100
AcDbEntity
  8
0
  6
Continuous
 62
     7
 48
1.75
370
    15
100
AcDbLine
 10
3.844386336
 20
10.1804269133
 30
0.0
 11
3.782955309
 21
10.1804269133
 31
0.0
  0
LINE
  5
C7
330
1F
100
AcDbEntity
  8
0
  6
Continuous
 62
     7
 48
1.75
370
    15
100
AcDbLine
 10
3.782955309
 20
10.1804269133
 30
0.0
 11
3.782955309
 21
10.0554269239
 31
0.0
  0
LINE
  5
C8
330
1F
100
AcDbEntity
  8
0
  6
Continuous
 62
     7
 48
1.75
370
    15
100
AcDbLine
 10
3.782955309
 20
10.0554269239
 30
0.0
 11
3.844386336
 21
10.0554269239
 31
0.0
  0
ARC
  5
C9
330
1F
100
AcDbEntity
  8
0
  6
Continuous
 62
     7
 48
3.0625
370
    15
100
AcDbCircle
 10
5.9399553029
 20
6.0859269047
 30
0.0
 40
0.093
100
AcDbArc
 50
270.0
 51
0.0
  0
LINE
  5
CA
330
1F
100
AcDbEntity
  8
0
  6
Continuous
 62
     7
 48
1.75
370
    15
100
AcDbLine
 10
2.5329553057
 20
11.8999269761
 30
0.0
 11
2.5329553057
 21
6.0859268333
 31
0.0
  0
ARC
  5
CB
330
1F
100
AcDbEntity
  8
0
  6
Continuous
 62
     7
 48
3.0625
370
    15
100
AcDbCircle
 10
5.9399553029
 20
11.8999269047
 30
0.0
 40
0.093
100
AcDbArc
 50
0.0
 51
90.0
  0
LINE
  5
CC
330
1F
100
AcDbEntity
  8
0
  6
Continuous
 62
     7
 48
1.75
370
    15
100
AcDbLine
 10
5.9399553344
 20
11.9929269418
 30
0.0
 11
2.6259552714
 21
11.9929269418
 31
0.0
  0
ARC
  5
CD
330
1F
100
AcDbEntity
  8
0
  6
Continuous
 62
     7
 48
3.0625
370
    15
100
AcDbCircle
 10
2.6259553029
 20
11.8999269047
 30
0.0
 40
0.0930000000000004
100
AcDbArc
 50
90.0
 51
180.0
  0
CIRCLE
  5
CE
330
1F
100
AcDbEntity
  8
0
  6
Continuous
 62
     7
 48
3.0625
370
    15
100
AcDbCircle
 10
5.5329553029
 20
11.4929269047
 30
0.0
 40
0.2499999999999982
  0
CIRCLE
  5
CF
330
1F
100
AcDbEntity
  8
0
  6
Continuous
 62
     7
 48
3.0625
370
    15
100
AcDbCircle
 10
5.5329553029
 20
6.4929269047
 30
0.0
 40
0.25
  0
CIRCLE
  5
D0
330
1F
100
AcDbEntity
  8
0
  6
Continuous
 62
     7
 48
3.0625
370
    15
100
AcDbCircle
 10
3.0329553029
 20
11.4929269047
 30
0.0
 40
0.25
  0
CIRCLE
  5
D1
330
1F
100
AcDbEntity
  8
0
  6
Continuous
 62
     7
 48
3.0625
370
    15
100
AcDbCircle
 10
3.0329553029
 20
6.4929269047
 30
0.0
 40
0.2499999999999991
  0
LINE
  5
D2
330
1F
100
AcDbEntity
  8
0
  6
Continuous
 62
     7
 48
1.75
370
    15
100
AcDbLine
 10
5.6228948505
 20
11.504679542
 30
0.0
 11
5.6117491926
 21
11.5378575054
 31
0.0
  0
LINE
  5
D3
330
1F
100
AcDbEntity
  8
0
  6
Continuous
 62
     7
 48
1.75
370
    15
100
AcDbLine
 10
5.6117491926
 20
11.5378575054
 30
0.0
 11
5.5439714956
 21
11.5150886485
 31
0.0
  0
LINE
  5
D4
330
1F
100
AcDbEntity
  8
0
  6
Continuous
 62
     7
 48
1.75
370
    15
100
AcDbLine
 10
5.5439714956
 20
11.5150886485
 30
0.0
 11
5.5212026386
 21
11.5828663455
 31
0.0
  0
LINE
  5
D5
330
1F
100
AcDbEntity
  8
0
  6
Continuous
 62
     7
 48
1.75
370
    15
100
AcDbLine
 10
5.5212026386
 20
11.5828663455
 30
0.0
 11
5.4880246752
 21
11.5717209809
 31
0.0
  0
LINE
  5
D6
330
1F
100
AcDbEntity
  8
0
  6
Continuous
 62
     7
 48
1.75
370
    15
100
AcDbLine
 10
5.4880246752
 20
11.5717209809
 30
0.0
 11
5.5107935322
 21
11.5039429906
 31
0.0
  0
LINE
  5
D7
330
1F
100
AcDbEntity
  8
0
  6
Continuous
 62
     7
 48
1.75
370
    15
100
AcDbLine
 10
5.5107935322
 20
11.5039429906
 30
0.0
 11
5.4430157618
 21
11.4811741336
 31
0.0
  0
LINE
  5
D8
330
1F
100
AcDbEntity
  8
0
  6
Continuous
 62
     7
 48
1.75
370
    15
100
AcDbLine
 10
5.4430157618
 20
11.4811741336
 30
0.0
 11
5.4541613464
 21
11.4479963169
 31
0.0
  0
LINE
  5
D9
330
1F
100
AcDbEntity
  8
0
  6
Continuous
 62
     7
 48
1.75
370
    15
100
AcDbLine
 10
5.4541613464
 20
11.4479963169
 30
0.0
 11
5.5219391901
 21
11.4707650272
 31
0.0
  0
LINE
  5
DA
330
1F
100
AcDbEntity
  8
0
  6
Continuous
 62
     7
 48
1.75
370
    15
100
AcDbLine
 10
5.5219391901
 20
11.4707650272
 30
0.0
 11
5.544708047
 21
11.4029873301
 31
0.0
  0
LINE
  5
DB
330
1F
100
AcDbEntity
  8
0
  6
Continuous
 62
     7
 48
1.75
370
    15
100
AcDbLine
 10
5.544708047
 20
11.4029873301
 30
0.0
 11
5.5778860104
 21
11.4141329881
 31
0.0
  0
LINE
  5
DC
330
1F
100
AcDbEntity
  8
0
  6
Continuous
 62
     7
 48
1.75
370
    15
100
AcDbLine
 10
5.5778860104
 20
11.4141329881
 30
0.0
 11
5.5551170068
 21
11.4819106851
 31
0.0
  0
LINE
  5
DD
330
1F
100
AcDbEntity
  8
0
  6
Continuous
 62
     7
 48
1.75
370
    15
100
AcDbLine
 10
5.5551170068
 20
11.4819106851
 30
0.0
 11
5.6228948505
 21
11.504679542
 31
0.0
  0
CIRCLE
  5
DE
330
1F
100
AcDbEntity
  8
0
  6
Continuous
 62
     7
 48
3.0625
370
    15
100
AcDbCircle
 10
5.5329553029
 20
11.4929269047
 30
0.0
 40
0.1792913385826752
  0
CIRCLE
  5
DF
330
1F
100
AcDbEntity
  8
0
  6
Continuous
 62
     7
 48
3.0625
370
    15
100
AcDbCircle
 10
5.5329553029
 20
11.4929269047
 30
0.0
 40
0.2071135629907574
  0
CIRCLE
  5
E0
330
1F
100
AcDbEntity
  8
0
  6
Continuous
 62
     7
 48
3.0625
370
    15
100
AcDbCircle
 10
5.5329553029
 20
11.4929269047
 30
0.0
 40
0.2099999999999989
  0
LINE
  5
E1
330
1F
100
AcDbEntity
  8
0
  6
Continuous
 62
     7
 48
1.75
370
    15
100
AcDbLine
 10
3.122894844
 20
6.5046796758
 30
0.0
 11
3.1117492595
 21
6.5378574925
 31
0.0
  0
LINE
  5
E2
330
1F
100
AcDbEntity
  8
0
  6
Continuous
 62
     7
 48
1.75
370
    15
100
AcDbLine
 10
3.1117492595
 20
6.5378574925
 30
0.0
 11
3.0439714158
 21
6.5150887822
 31
0.0
  0
LINE
  5
E3
330
1F
100
AcDbEntity
  8
0
  6
Continuous
 62
     7
 48
1.75
370
    15
100
AcDbLine
 10
3.0439714158
 20
6.5150887822
 30
0.0
 11
3.0212025588
 21
6.5828664793
 31
0.0
  0
LINE
  5
E4
330
1F
100
AcDbEntity
  8
0
  6
Continuous
 62
     7
 48
1.75
370
    15
100
AcDbLine
 10
3.0212025588
 20
6.5828664793
 30
0.0
 11
2.9880245954
 21
6.5717208213
 31
0.0
  0
LINE
  5
E5
330
1F
100
AcDbEntity
  8
0
  6
Continuous
 62
     7
 48
1.75
370
    15
100
AcDbLine
 10
3.0447079673
 20
6.4029874639
 30
0.0
 11
3.0778859306
 21
6.4141328285
 31
0.0
  0
LINE
  5
E6
330
1F
100
AcDbEntity
  8
0
  6
Continuous
 62
     7
 48
1.75
370
    15
100
AcDbLine
 10
3.0778859306
 20
6.4141328285
 30
0.0
 11
3.0551170737
 21
6.4819108188
 31
0.0
  0
LINE
  5
E7
330
1F
100
AcDbEntity
  8
0
  6
Continuous
 62
     7
 48
1.75
370
    15
100
AcDbLine
 10
3.0551170737
 20
6.4819108188
 30
0.0
 11
3.122894844
 21
6.5046796758
 31
0.0
  0
LINE
  5
E8
330
1F
100
AcDbEntity
  8
0
  6
Continuous
 62
     7
 48
1.75
370
    15
100
AcDbLine
 10
2.9880245954
 20
6.5717208213
 30
0.0
 11
3.010793599
 21
6.5039431243
 31
0.0
  0
LINE
  5
E9
330
1F
100
AcDbEntity
  8
0
  6
Continuous
 62
     7
 48
1.75
370
    15
100
AcDbLine
 10
3.010793599
 20
6.5039431243
 30
0.0
 11
2.9430157553
 21
6.4811742673
 31
0.0
  0
LINE
  5
EA
330
1F
100
AcDbEntity
  8
0
  6
Continuous
 62
     7
 48
1.75
370
    15
100
AcDbLine
 10
2.9430157553
 20
6.4811742673
 30
0.0
 11
2.9541614133
 21
6.447996304
 31
0.0
  0
LINE
  5
EB
330
1F
100
AcDbEntity
  8
0
  6
Continuous
 62
     7
 48
1.75
370
    15
100
AcDbLine
 10
2.9541614133
 20
6.447996304
 30
0.0
 11
3.0219391103
 21
6.4707651609
 31
0.0
  0
LINE
  5
EC
330
1F
100
AcDbEntity
  8
0
  6
Continuous
 62
     7
 48
1.75
370
    15
100
AcDbLine
 10
3.0219391103
 20
6.4707651609
 30
0.0
 11
3.0447079673
 21
6.4029874639
 31
0.0
  0
CIRCLE
  5
ED
330
1F
100
AcDbEntity
  8
0
  6
Continuous
 62
     7
 48
3.0625
370
    15
100
AcDbCircle
 10
3.0329553029
 20
6.4929269047
 30
0.0
 40
0.1792913385826777
  0
CIRCLE
  5
EE
330
1F
100
AcDbEntity
  8
0
  6
Continuous
 62
     7
 48
3.0625
370
    15
100
AcDbCircle
 10
3.0329553029
 20
6.4929269047
 30
0.0
 40
0.2071135629907583
  0
CIRCLE
  5
EF
330
1F
100
AcDbEntity
  8
0
  6
Continuous
 62
     7
 48
3.0625
370
    15
100
AcDbCircle
 10
3.0329553029
 20
6.4929269047
 30
0.0
 40
0.2099999999999995
  0
LINE
  5
F0
330
1F
100
AcDbEntity
  8
0
  6
Continuous
 62
     7
 48
1.75
370
    15
100
AcDbLine
 10
5.6222713777
 20
6.5087349623
 30
0.0
 11
5.609636777
 21
6.5413749586
 31
0.0
  0
LINE
  5
F1
330
1F
100
AcDbEntity
  8
0
  6
Continuous
 62
     7
 48
1.75
370
    15
100
AcDbLine
 10
5.609636777
 20
6.5413749586
 30
0.0
 11
5.5429578939
 21
6.5155642701
 31
0.0
  0
LINE
  5
F2
330
1F
100
AcDbEntity
  8
0
  6
Continuous
 62
     7
 48
1.75
370
    15
100
AcDbLine
 10
5.5429578939
 20
6.5155642701
 30
0.0
 11
5.5171472054
 21
6.5822430065
 31
0.0
  0
LINE
  5
F3
330
1F
100
AcDbEntity
  8
0
  6
Continuous
 62
     7
 48
1.75
370
    15
100
AcDbLine
 10
5.522952645
 20
6.4702896731
 30
0.0
 11
5.5487633335
 21
6.40361079
 31
0.0
  0
LINE
  5
F4
330
1F
100
AcDbEntity
  8
0
  6
Continuous
 62
     7
 48
1.75
370
    15
100
AcDbLine
 10
5.5487633335
 20
6.40361079
 30
0.0
 11
5.5814033298
 21
6.4162453907
 31
0.0
  0
LINE
  5
F5
330
1F
100
AcDbEntity
  8
0
  6
Continuous
 62
     7
 48
1.75
370
    15
100
AcDbLine
 10
5.5814033298
 20
6.4162453907
 30
0.0
 11
5.5555926413
 21
6.4829242738
 31
0.0
  0
LINE
  5
F6
330
1F
100
AcDbEntity
  8
0
  6
Continuous
 62
     7
 48
1.75
370
    15
100
AcDbLine
 10
5.5555926413
 20
6.4829242738
 30
0.0
 11
5.6222713777
 21
6.5087349623
 31
0.0
  0
LINE
  5
F7
330
1F
100
AcDbEntity
  8
0
  6
Continuous
 62
     7
 48
1.75
370
    15
100
AcDbLine
 10
5.5171472054
 20
6.5822430065
 30
0.0
 11
5.4845072825
 21
6.5696082591
 31
0.0
  0
LINE
  5
F8
330
1F
100
AcDbEntity
  8
0
  6
Continuous
 62
     7
 48
1.75
370
    15
100
AcDbLine
 10
5.4845072825
 20
6.5696082591
 30
0.0
 11
5.5103180443
 21
6.5029296694
 31
0.0
  0
LINE
  5
F9
330
1F
100
AcDbEntity
  8
0
  6
Continuous
 62
     7
 48
1.75
370
    15
100
AcDbLine
 10
5.5103180443
 20
6.5029296694
 30
0.0
 11
5.4436392346
 21
6.4771186875
 31
0.0
  0
LINE
  5
FA
330
1F
100
AcDbEntity
  8
0
  6
Continuous
 62
     7
 48
1.75
370
    15
100
AcDbLine
 10
5.4436392346
 20
6.4771186875
 30
0.0
 11
5.4562739086
 21
6.4444789846
 31
0.0
  0
LINE
  5
FB
330
1F
100
AcDbEntity
  8
0
  6
Continuous
 62
     7
 48
1.75
370
    15
100
AcDbLine
 10
5.4562739086
 20
6.4444789846
 30
0.0
 11
5.522952645
 21
6.4702896731
 31
0.0
  0
CIRCLE
  5
FC
330
1F
100
AcDbEntity
  8
0
  6
Continuous
 62
     7
 48
3.0625
370
    15
100
AcDbCircle
 10
5.5329553029
 20
6.4929269047
 30
0.0
 40
0.179291338582677
  0
CIRCLE
  5
FD
330
1F
100
AcDbEntity
  8
0
  6
Continuous
 62
     7
 48
3.0625
370
    15
100
AcDbCircle
 10
5.5329553029
 20
6.4929269047
 30
0.0
 40
0.2071135629907596
  0
CIRCLE
  5
FE
330
1F
100
AcDbEntity
  8
0
  6
Continuous
 62
     7
 48
3.0625
370
    15
100
AcDbCircle
 10
5.5329553029
 20
6.4929269047
 30
0.0
 40
0.2100000000000005
  0
CIRCLE
  5
FF
330
1F
100
AcDbEntity
  8
0
  6
Continuous
 62
     7
 48
3.0625
370
    15
100
AcDbCircle
 10
3.0329553029
 20
11.4929269047
 30
0.0
 40
0.1792913385826785
  0
LINE
  5
100
330
1F
100
AcDbEntity
  8
0
  6
Continuous
 62
     7
 48
1.75
370
    15
100
AcDbLine
 10
3.0439714158
 20
11.5150886485
 30
0.0
 11
3.0212025588
 21
11.5828663455
 31
0.0
  0
LINE
  5
101
330
1F
100
AcDbEntity
  8
0
  6
Continuous
 62
     7
 48
1.75
370
    15
100
AcDbLine
 10
3.0212025588
 20
11.5828663455
 30
0.0
 11
2.9880245954
 21
11.5717209809
 31
0.0
  0
LINE
  5
102
330
1F
100
AcDbEntity
  8
0
  6
Continuous
 62
     7
 48
1.75
370
    15
100
AcDbLine
 10
2.9880245954
 20
11.5717209809
 30
0.0
 11
3.010793599
 21
11.5039429906
 31
0.0
  0
LINE
  5
103
330
1F
100
AcDbEntity
  8
0
  6
Continuous
 62
     7
 48
1.75
370
    15
100
AcDbLine
 10
3.010793599
 20
11.5039429906
 30
0.0
 11
2.9430157553
 21
11.4811741336
 31
0.0
  0
LINE
  5
104
330
1F
100
AcDbEntity
  8
0
  6
Continuous
 62
     7
 48
1.75
370
    15
100
AcDbLine
 10
2.9430157553
 20
11.4811741336
 30
0.0
 11
2.9541614133
 21
11.4479963169
 31
0.0
  0
LINE
  5
105
330
1F
100
AcDbEntity
  8
0
  6
Continuous
 62
     7
 48
1.75
370
    15
100
AcDbLine
 10
2.9541614133
 20
11.4479963169
 30
0.0
 11
3.0219391103
 21
11.4707650272
 31
0.0
  0
LINE
  5
106
330
1F
100
AcDbEntity
  8
0
  6
Continuous
 62
     7
 48
1.75
370
    15
100
AcDbLine
 10
3.0219391103
 20
11.4707650272
 30
0.0
 11
3.0447079673
 21
11.4029873301
 31
0.0
  0
LINE
  5
107
330
1F
100
AcDbEntity
  8
0
  6
Continuous
 62
     7
 48
1.75
370
    15
100
AcDbLine
 10
3.122894844
 20
11.504679542
 30
0.0
 11
3.1117492595
 21
11.5378575054
 31
0.0
  0
LINE
  5
108
330
1F
100
AcDbEntity
  8
0
  6
Continuous
 62
     7
 48
1.75
370
    15
100
AcDbLine
 10
3.0778859306
 20
11.4141329881
 30
0.0
 11
3.0551170737
 21
11.4819106851
 31
0.0
  0
LINE
  5
109
330
1F
100
AcDbEntity
  8
0
  6
Continuous
 62
     7
 48
1.75
370
    15
100
AcDbLine
 10
3.0551170737
 20
11.4819106851
 30
0.0
 11
3.122894844
 21
11.504679542
 31
0.0
  0
LINE
  5
10A
330
1F
100
AcDbEntity
  8
0
  6
Continuous
 62
     7
 48
1.75
370
    15
100
AcDbLine
 10
3.0447079673
 20
11.4029873301
 30
0.0
 11
3.0778859306
 21
11.4141329881
 31
0.0
  0
LINE
  5
10B
330
1F
100
AcDbEntity
  8
0
  6
Continuous
 62
     7
 48
1.75
370
    15
100
AcDbLine
 10
3.1117492595
 20
11.5378575054
 30
0.0
 11
3.0439714158
 21
11.5150886485
 31
0.0
  0
CIRCLE
  5
10C
330
1F
100
AcDbEntity
  8
0
  6
Continuous
 62
     7
 48
3.0625
370
    15
100
AcDbCircle
 10
3.0329553029
 20
11.4929269047
 30
0.0
 40
0.2100000000000002
  0
CIRCLE
  5
10D
330
1F
100
AcDbEntity
  8
0
  6
Continuous
 62
     7
 48
3.0625
370
    15
100
AcDbCircle
 10
3.0329553029
 20
11.4929269047
 30
0.0
 40
0.2071135629907591
  0
ARC
  5
10E
330
1F
100
AcDbEntity
  8
0
  6
Continuous
 62
     7
 48
3.0625
370
    15
100
AcDbCircle
 10
3.0954553029
 20
5.8989269047
 30
0.0
 40
0.1095000000000013
100
AcDbArc
 50
120.8572886398
 51
180.0
  0
ARC
  5
10F
330
1F
100
AcDbEntity
  8
0
  6
Continuous
 62
     7
 48
3.0625
370
    15
100
AcDbCircle
 10
3.0954553029
 20
5.8989269047
 30
0.0
 40
0.1095000000000013
100
AcDbArc
 50
0.0
 51
59.1427113602
  0
LINE
  5
110
330
1F
100
AcDbEntity
  8
0
  6
Continuous
 62
     7
 48
1.75
370
    15
100
AcDbLine
 10
2.9859552993
 20
5.8369269631
 30
0.0
 11
2.9859552993
 21
5.8989269402
 31
0.0
  0
ARC
  5
111
330
1F
100
AcDbEntity
  8
0
  6
Continuous
 62
     7
 48
3.0625
370
    15
100
AcDbCircle
 10
3.0954553029
 20
5.8369269047
 30
0.0
 40
0.1095000000000006
100
AcDbArc
 50
180.0
 51
0.0
  0
LINE
  5
112
330
1F
100
AcDbEntity
  8
0
  6
Continuous
 62
     7
 48
1.75
370
    15
100
AcDbLine
 10
3.2049552894
 20
5.8989269402
 30
0.0
 11
3.2049552894
 21
5.8369269631
 31
0.0
  0
ARC
  5
113
330
1F
100
AcDbEntity
  8
0
  6
Continuous
 62
     7
 48
3.0625
370
    15
100
AcDbCircle
 10
3.0329553029
 20
5.8679269047
 30
0.0
 40
0.25
100
AcDbArc
 50
180.0
 51
270.0
  0
LINE
  5
114
330
1F
100
AcDbEntity
  8
0
  6
Continuous
 62
     7
 48
1.75
370
    15
100
AcDbLine
 10
2.7829552844
 20
5.8679269516
 30
0.0
 11
2.7829552844
 21
5.9929268676
 31
0.0
  0
ARC
  5
115
330
1F
100
AcDbEntity
  8
0
  6
Continuous
 62
     7
 48
3.0625
370
    15
100
AcDbCircle
 10
5.4704553029
 20
5.8369269047
 30
0.0
 40
0.1095000000000006
100
AcDbArc
 50
180.0
 51
0.0
  0
LINE
  5
116
330
1F
100
AcDbEntity
  8
0
  6
Continuous
 62
     7
 48
1.75
370
    15
100
AcDbLine
 10
5.5799553065
 20
5.8369269631
 30
0.0
 11
5.5799553065
 21
5.8989269402
 31
0.0
  0
ARC
  5
117
330
1F
100
AcDbEntity
  8
0
  6
Continuous
 62
     7
 48
3.0625
370
    15
100
AcDbCircle
 10
5.4704553029
 20
5.8989269047
 30
0.0
 40
0.1095000000000006
100
AcDbArc
 50
0.0
 51
59.1427113602
  0
ARC
  5
118
330
1F
100
AcDbEntity
  8
0
  6
Continuous
 62
     7
 48
3.0625
370
    15
100
AcDbCircle
 10
5.4704553029
 20
5.8989269047
 30
0.0
 40
0.1095000000000006
100
AcDbArc
 50
120.8572886398
 51
180.0
  0
LINE
  5
119
330
1F
100
AcDbEntity
  8
0
  6
Continuous
 62
     7
 48
1.75
370
    15
100
AcDbLine
 10
5.3609553164
 20
5.8989269402
 30
0.0
 11
5.3609553164
 21
5.8369269631
 31
0.0
  0
LINE
  5
11A
330
1F
100
AcDbEntity
  8
0
  6
Continuous
 62
     7
 48
1.75
370
    15
100
AcDbLine
 10
3.032955263
 20
5.6179268263
 30
0.0
 11
5.5329553428
 21
5.6179268263
 31
0.0
  0
ARC
  5
11B
330
1F
100
AcDbEntity
  8
0
  6
Continuous
 62
     7
 48
3.0625
370
    15
100
AcDbCircle
 10
5.5329553029
 20
5.8679269047
 30
0.0
 40
0.25
100
AcDbArc
 50
270.0
 51
0.0
  0
LINE
  5
11C
330
1F
100
AcDbEntity
  8
0
  6
Continuous
 62
     7
 48
1.75
370
    15
100
AcDbLine
 10
5.7829553215
 20
5.8679269516
 30
0.0
 11
5.7829553215
 21
5.9929268676
 31
0.0
  0
ARC
  5
11D
330
1F
100
AcDbEntity
  8
0
  6
Continuous
 62
     7
 48
3.0625
370
    15
100
AcDbCircle
 10
5.4704553029
 20
12.0869269047
 30
0.0
 40
0.1095000000000006
100
AcDbArc
 50
300.8572886398
 51
0.0
  0
ARC
  5
11E
330
1F
100
AcDbEntity
  8
0
  6
Continuous
 62
     7
 48
3.0625
370
    15
100
AcDbCircle
 10
5.4704553029
 20
12.0869269047
 30
0.0
 40
0.1095000000000006
100
AcDbArc
 50
180.0
 51
239.1427113602
  0
LINE
  5
11F
330
1F
100
AcDbEntity
  8
0
  6
Continuous
 62
     7
 48
1.75
370
    15
100
AcDbLine
 10
5.5799553065
 20
12.1489268463
 30
0.0
 11
5.5799553065
 21
12.0869268692
 31
0.0
  0
ARC
  5
120
330
1F
100
AcDbEntity
  8
0
  6
Continuous
 62
     7
 48
3.0625
370
    15
100
AcDbCircle
 10
5.4704553029
 20
12.1489269047
 30
0.0
 40
0.1095000000000006
100
AcDbArc
 50
0.0
 51
180.0
  0
LINE
  5
121
330
1F
100
AcDbEntity
  8
0
  6
Continuous
 62
     7
 48
1.75
370
    15
100
AcDbLine
 10
5.7829553215
 20
12.1179268578
 30
0.0
 11
5.7829553215
 21
11.9929269418
 31
0.0
  0
ARC
  5
122
330
1F
100
AcDbEntity
  8
0
  6
Continuous
 62
     7
 48
3.0625
370
    15
100
AcDbCircle
 10
3.0954553029
 20
12.1489269047
 30
0.0
 40
0.109500000000001
100
AcDbArc
 50
0.0
 51
180.0
  0
LINE
  5
123
330
1F
100
AcDbEntity
  8
0
  6
Continuous
 62
     7
 48
1.75
370
    15
100
AcDbLine
 10
2.9859552993
 20
12.1489268463
 30
0.0
 11
2.9859552993
 21
12.0869268692
 31
0.0
  0
ARC
  5
124
330
1F
100
AcDbEntity
  8
0
  6
Continuous
 62
     7
 48
3.0625
370
    15
100
AcDbCircle
 10
3.0954553029
 20
12.0869269047
 30
0.0
 40
0.1095000000000021
100
AcDbArc
 50
180.0
 51
239.1427113602
  0
ARC
  5
125
330
1F
100
AcDbEntity
  8
0
  6
Continuous
 62
     7
 48
3.0625
370
    15
100
AcDbCircle
 10
3.0954553029
 20
12.0869269047
 30
0.0
 40
0.1095000000000016
100
AcDbArc
 50
300.8572886398
 51
0.0
  0
LINE
  5
126
330
1F
100
AcDbEntity
  8
0
  6
Continuous
 62
     7
 48
1.75
370
    15
100
AcDbLine
 10
3.2049552894
 20
12.0869268692
 30
0.0
 11
3.2049552894
 21
12.1489268463
 31
0.0
  0
LINE
  5
127
330
1F
100
AcDbEntity
  8
0
  6
Continuous
 62
     7
 48
1.75
370
    15
100
AcDbLine
 10
5.3609553164
 20
12.0869268692
 30
0.0
 11
5.3609553164
 21
12.1489268463
 31
0.0
  0
LINE
  5
128
330
1F
100
AcDbEntity
  8
0
  6
Continuous
 62
     7
 48
1.75
370
    15
100
AcDbLine
 10
5.5329553428
 20
12.3679269831
 30
0.0
 11
3.032955263
 21
12.3679269831
 31
0.0
  0
ARC
  5
129
330
1F
100
AcDbEntity
  8
0
  6
Continuous
 62
     7
 48
3.0625
370
    15
100
AcDbCircle
 10
3.0329553029
 20
12.1179269047
 30
0.0
 40
0.25
100
AcDbArc
 50
90.0
 51
180.0
  0
LINE
  5
12A
330
1F
100
AcDbEntity
  8
0
  6
Continuous
 62
     7
 48
1.75
370
    15
100
AcDbLine
 10
2.7829552844
 20
12.1179268578
 30
0.0
 11
2.7829552844
 21
11.9929269418
 31
0.0
  0
ARC
  5
12B
330
1F
100
AcDbEntity
  8
0
  6
Continuous
 62
     7
 48
3.0625
370
    15
100
AcDbCircle
 10
5.5329553029
 20
12.1179269047
 30
0.0
 40
0.25
100
AcDbArc
 50
0.0
 51
90.0
  0
DIMENSION
  5
12C
330
1F
100
AcDbEntity
  8
0
  6
Continuous
 62
     7
 48
1.75
370
     0
100
AcDbDimension
  2
*D6
 10
1.843978925
 20
7.8679269047
 30
0.0
 11
1.843978925
 21
8.9929269047
 31
0.0
 70
   160
 71
     2
 42
-1.0
  3
SLDDIMSTYLE0
100
AcDbAlignedDimension
 13
4.2829553029
 23
10.1179269047
 33
0.0
 14
4.2829553029
 24
7.8679269047
 34
0.0
 50
90.0
100
AcDbRotatedDimension
  0
DIMENSION
  5
13E
330
1F
100
AcDbEntity
  8
0
  6
Continuous
 62
     7
 48
1.75
370
     0
100
AcDbDimension
  2
*D7
 10
4.2204553029
 20
12.8784171661
 30
0.0
 11
5.4075396306
 21
12.8784171661
 31
0.0
 70
   160
 71
     2
 42
-1.0
  3
SLDDIMSTYLE1
100
AcDbAlignedDimension
 13
4.3454553029
 23
10.6179269047
 33
0.0
 14
4.2204553029
 24
10.6179269047
 34
0.0
100
AcDbRotatedDimension
  0
DIMENSION
  5
151
330
1F
100
AcDbEntity
  8
0
  6
Continuous
 62
     7
 48
1.75
370
     0
100
AcDbDimension
  2
*D8
 10
6.6894316809
 20
9.6179269047
 30
0.0
 11
6.6894316809
 21
10.1179269047
 31
0.0
 70
   160
 71
     2
 42
-1.0
  3
SLDDIMSTYLE2
100
AcDbAlignedDimension
 13
4.3454553029
 23
10.6179269047
 33
0.0
 14
4.3454553029
 24
9.6179269047
 34
0.0
 50
90.0
100
AcDbRotatedDimension
  0
DIMENSION
  5
164
330
1F
100
AcDbEntity
  8
0
  6
Continuous
 62
     7
 48
1.75
370
     0
100
AcDbDimension
  2
*D9
 10
4.6665402977
 20
9.896315642
 30
0.0
 11
1.367781422
 21
11.3465988504
 31
0.0
 70
   163
  1
<>
 71
     1
 42
-1.0
  3
SLDDIMSTYLE3
100
AcDbDiametricDimension
 15
3.8993703081
 25
10.3395381674
 35
0.0
 40
0.0
  0
INSERT
  5
17D
102
{ACAD_REACTORS
330
17F
102
}
330
1F
100
AcDbEntity
  8
0
  6
Continuous
 62
     7
 48
1.75
370
     0
100
AcDbBlockReference
  2
SW_NOTE_4
 10
2.3109879514
 20
4.0815329606
 30
0.0
  0
LEADER
  5
17F
330
1F
100
AcDbEntity
  8
0
  6
Continuous
 62
     7
 48
1.75
370
     0
100
AcDbLeader
  3
SLDDIMSTYLE4
 73
     2
 76
     3
 10
2.928558592
 20
6.3140488604
 30
0.0
 10
1.8734879514
 20
4.0815329606
 30
0.0
 10
2.3109879514
 20
4.0815329606
 30
0.0
340
17D
  0
INSERT
  5
187
330
1F
100
AcDbEntity
  8
0
  6
Continuous
 62
     7
 48
1.75
370
     0
100
AcDbBlockReference
  2
SW_CENTERMARKSYMBOL_0
 10
4.2829553029
 20
7.8679269047
 30
0.0
  0
INSERT
  5
18F
330
1F
100
AcDbEntity
  8
0
  6
Continuous
 62
     7
 48
1.75
370
     0
100
AcDbBlockReference
  2
SW_CENTERMARKSYMBOL_1
 10
4.2829553029
 20
10.1179269047
 30
0.0
  0
ARC
  5
190
330
1F
100
AcDbEntity
  8
0
  6
Continuous
 62
     7
 48
3.0625
370
    15
100
AcDbCircle
 10
13.6859104465
 20
11.2579269047
 30
0.0
 40
0.0150000000000006
100
AcDbArc
 50
270.0
 51
0.0
  0
ARC
  5
191
330
1F
100
AcDbEntity
  8
0
  6
Continuous
 62
     7
 48
3.0625
370
    15
100
AcDbCircle
 10
13.6859104465
 20
11.7279269047
 30
0.0
 40
0.0149999999999988
100
AcDbArc
 50
0.0
 51
90.0
  0
LINE
  5
192
330
1F
100
AcDbEntity
  8
0
  6
Continuous
 62
     7
 48
1.75
370
    15
100
AcDbLine
 10
13.6859105776
 20
11.7429268165
 30
0.0
 11
13.6459103463
 21
11.7429268165
 31
0.0
  0
LINE
  5
193
330
1F
100
AcDbEntity
  8
0
  6
Continuous
 62
     7
 48
1.75
370
    15
100
AcDbLine
 10
13.6459103463
 20
11.2429268592
 30
0.0
 11
13.6859105776
 21
11.2429268592
 31
0.0
  0
ARC
  5
194
330
1F
100
AcDbEntity
  8
0
  6
Continuous
 62
     7
 48
3.0625
370
    15
100
AcDbCircle
 10
13.6459104465
 20
11.2579269047
 30
0.0
 40
0.0150000000000006
100
AcDbArc
 50
180.0
 51
270.0
  0
ARC
  5
195
330
1F
100
AcDbEntity
  8
0
  6
Continuous
 62
     7
 48
3.0625
370
    15
100
AcDbCircle
 10
13.6459104465
 20
11.7279269047
 30
0.0
 40
0.0149999999999988
100
AcDbArc
 50
90.0
 51
180.0
  0
ARC
  5
196
330
1F
100
AcDbEntity
  8
0
  6
Continuous
 62
     7
 48
3.0625
370
    15
100
AcDbCircle
 10
13.6859104465
 20
6.2579269047
 30
0.0
 40
0.0150000000000006
100
AcDbArc
 50
270.0
 51
0.0
  0
ARC
  5
197
330
1F
100
AcDbEntity
  8
0
  6
Continuous
 62
     7
 48
3.0625
370
    15
100
AcDbCircle
 10
13.6859104465
 20
6.7279269047
 30
0.0
 40
0.0150000000000006
100
AcDbArc
 50
0.0
 51
90.0
  0
LINE
  5
198
330
1F
100
AcDbEntity
  8
0
  6
Continuous
 62
     7
 48
1.75
370
    15
100
AcDbLine
 10
13.6859105776
 20
6.7429269502
 30
0.0
 11
13.6459103463
 21
6.7429269502
 31
0.0
  0
LINE
  5
199
330
1F
100
AcDbEntity
  8
0
  6
Continuous
 62
     7
 48
1.75
370
    15
100
AcDbLine
 10
13.6459103463
 20
6.2429269929
 30
0.0
 11
13.6859105776
 21
6.2429269929
 31
0.0
  0
ARC
  5
19A
330
1F
100
AcDbEntity
  8
0
  6
Continuous
 62
     7
 48
3.0625
370
    15
100
AcDbCircle
 10
13.6459104465
 20
6.2579269047
 30
0.0
 40
0.0150000000000006
100
AcDbArc
 50
180.0
 51
270.0
  0
ARC
  5
19B
330
1F
100
AcDbEntity
  8
0
  6
Continuous
 62
     7
 48
3.0625
370
    15
100
AcDbCircle
 10
13.6459104465
 20
6.7279269047
 30
0.0
 40
0.0150000000000006
100
AcDbArc
 50
90.0
 51
180.0
  0
LINE
  5
19C
330
1F
100
AcDbEntity
  8
0
  6
Continuous
 62
     7
 48
1.75
370
    15
100
AcDbLine
 10
13.6309103329
 20
11.7029268785
 30
0.0
 11
13.5979183407
 21
11.7000405119
 31
0.0
  0
LINE
  5
19D
330
1F
100
AcDbEntity
  8
0
  6
Continuous
 62
     7
 48
1.75
370
    15
100
AcDbLine
 10
13.5979183407
 20
11.2858133104
 30
0.0
 11
13.6309103329
 21
11.2829269438
 31
0.0
  0
ARC
  5
19E
330
1F
100
AcDbEntity
  8
0
  6
Continuous
 62
     7
 48
3.0625
370
    15
100
AcDbCircle
 10
13.593666352
 20
11.3923757236
 30
0.0
 40
0.0787401574803166
100
AcDbArc
 50
180.0
 51
270.0
  0
ARC
  5
19F
330
1F
100
AcDbEntity
  8
0
  6
Continuous
 62
     7
 48
3.0625
370
    15
100
AcDbCircle
 10
13.593666352
 20
11.5934780858
 30
0.0
 40
0.0787401574803148
100
AcDbArc
 50
90.0
 51
180.0
  0
LINE
  5
1A0
330
1F
100
AcDbEntity
  8
0
  6
Continuous
 62
     7
 48
1.75
370
    15
100
AcDbLine
 10
13.5979183407
 20
11.6722181666
 30
0.0
 11
13.5936662299
 21
11.6722181666
 31
0.0
  0
LINE
  5
1A1
330
1F
100
AcDbEntity
  8
0
  6
Continuous
 62
     7
 48
1.75
370
    15
100
AcDbLine
 10
13.5936662299
 20
11.313635509
 30
0.0
 11
13.5979183407
 21
11.313635509
 31
0.0
  0
LINE
  5
1A2
330
1F
100
AcDbEntity
  8
0
  6
Continuous
 62
     7
 48
1.75
370
    15
100
AcDbLine
 10
13.6309103329
 20
6.7029268656
 30
0.0
 11
13.5979183407
 21
6.700040499
 31
0.0
  0
LINE
  5
1A3
330
1F
100
AcDbEntity
  8
0
  6
Continuous
 62
     7
 48
1.75
370
    15
100
AcDbLine
 10
13.5979183407
 20
6.2858132975
 30
0.0
 11
13.6309103329
 21
6.2829269308
 31
0.0
  0
ARC
  5
1A4
330
1F
100
AcDbEntity
  8
0
  6
Continuous
 62
     7
 48
3.0625
370
    15
100
AcDbCircle
 10
13.593666352
 20
6.3923757236
 30
0.0
 40
0.0787401574803148
100
AcDbArc
 50
180.0
 51
270.0
  0
ARC
  5
1A5
330
1F
100
AcDbEntity
  8
0
  6
Continuous
 62
     7
 48
3.0625
370
    15
100
AcDbCircle
 10
13.593666352
 20
6.5934780858
 30
0.0
 40
0.0787401574803148
100
AcDbArc
 50
90.0
 51
180.0
  0
LINE
  5
1A6
330
1F
100
AcDbEntity
  8
0
  6
Continuous
 62
     7
 48
1.75
370
    15
100
AcDbLine
 10
13.5979183407
 20
6.6722183004
 30
0.0
 11
13.5936662299
 21
6.6722183004
 31
0.0
  0
LINE
  5
1A7
330
1F
100
AcDbEntity
  8
0
  6
Continuous
 62
     7
 48
1.75
370
    15
100
AcDbLine
 10
13.5936662299
 20
6.3136356428
 30
0.0
 11
13.5979183407
 21
6.3136356428
 31
0.0
  0
LINE
  5
1A8
330
1F
100
AcDbEntity
  8
0
  6
Continuous
 62
     7
 48
1.75
370
    15
100
AcDbLine
 10
13.7939105566
 20
11.9929269418
 30
0.0
 11
14.2009104016
 21
11.9929269418
 31
0.0
  0
LINE
  5
1A9
330
1F
100
AcDbEntity
  8
0
  6
Continuous
 62
     7
 48
1.75
370
    15
100
AcDbLine
 10
14.2009104016
 20
11.9929269418
 30
0.0
 11
14.2009104016
 21
11.8999269761
 31
0.0
  0
LINE
  5
1AA
330
1F
100
AcDbEntity
  8
0
  6
Continuous
 62
     7
 48
1.75
370
    15
100
AcDbLine
 10
14.2009104016
 20
6.0859268333
 30
0.0
 11
14.2009104016
 21
11.8999269761
 31
0.0
  0
ARC
  5
1AB
330
1F
100
AcDbEntity
  8
0
  6
Continuous
 62
     7
 48
3.0625
370
    15
100
AcDbCircle
 10
13.7939104465
 20
11.8999269047
 30
0.0
 40
0.093
100
AcDbArc
 50
90.0
 51
180.0
  0
LINE
  5
1AC
330
1F
100
AcDbEntity
  8
0
  6
Continuous
 62
     7
 48
1.75
370
    15
100
AcDbLine
 10
13.700910591
 20
11.8999269761
 30
0.0
 11
13.700910591
 21
6.0859268333
 31
0.0
  0
LINE
  5
1AD
330
1F
100
AcDbEntity
  8
0
  6
Continuous
 62
     7
 48
1.75
370
    15
100
AcDbLine
 10
14.2009104016
 20
5.9929268676
 30
0.0
 11
13.7939105566
 21
5.9929268676
 31
0.0
  0
LINE
  5
1AE
330
1F
100
AcDbEntity
  8
0
  6
Continuous
 62
     7
 48
1.75
370
    15
100
AcDbLine
 10
14.2009104016
 20
6.0859268333
 30
0.0
 11
14.2009104016
 21
5.9929268676
 31
0.0
  0
ARC
  5
1AF
330
1F
100
AcDbEntity
  8
0
  6
Continuous
 62
     7
 48
3.0625
370
    15
100
AcDbCircle
 10
13.7939104465
 20
6.0859269047
 30
0.0
 40
0.093
100
AcDbArc
 50
180.0
 51
270.0
  0
LINE
  5
1B0
330
1F
100
AcDbEntity
  8
0
  6
Continuous
 62
     7
 48
1.75
370
    15
100
AcDbLine
 10
16.5359104441
 20
6.1179267836
 30
0.0
 11
14.2009104016
 21
6.1179267836
 31
0.0
  0
LINE
  5
1B1
330
1F
100
AcDbEntity
  8
0
  6
Continuous
 62
     7
 48
1.75
370
    15
100
AcDbLine
 10
14.2009104016
 20
11.8679270258
 30
0.0
 11
16.5359104441
 21
11.8679270258
 31
0.0
  0
ARC
  5
1B2
330
1F
100
AcDbEntity
  8
0
  6
Continuous
 62
     7
 48
3.0625
370
    15
100
AcDbCircle
 10
16.5359104465
 20
6.2109269047
 30
0.0
 40
0.093
100
AcDbArc
 50
270.0
 51
0.0
  0
ARC
  5
1B3
330
1F
100
AcDbEntity
  8
0
  6
Continuous
 62
     7
 48
3.0625
370
    15
100
AcDbCircle
 10
16.5359104465
 20
11.7749269047
 30
0.0
 40
0.093
100
AcDbArc
 50
0.0
 51
90.0
  0
LINE
  5
1B4
330
1F
100
AcDbEntity
  8
0
  6
Continuous
 62
     7
 48
1.75
370
    15
100
AcDbLine
 10
16.6289104465
 20
6.2109270426
 30
0.0
 11
16.6289104465
 21
11.7749267668
 31
0.0
  0
LINE
  5
1B5
330
1F
100
AcDbEntity
  8
0
  6
Continuous
 62
     7
 48
1.75
370
    15
100
AcDbLine
 10
13.6309103329
 20
11.2579268726
 30
0.0
 11
13.6309103329
 21
11.7279268031
 31
0.0
  0
LINE
  5
1B6
330
1F
100
AcDbEntity
  8
0
  6
Continuous
 62
     7
 48
1.75
370
    15
100
AcDbLine
 10
13.6309103329
 20
6.2579270063
 30
0.0
 11
13.6309103329
 21
6.7279269368
 31
0.0
  0
LINE
  5
1B7
330
1F
100
AcDbEntity
  8
0
  6
Continuous
 62
     7
 48
1.75
370
    15
100
AcDbLine
 10
13.5979183407
 20
11.2965953859
 30
0.0
 11
13.5979183407
 21
11.7000405119
 31
0.0
  0
LINE
  5
1B8
330
1F
100
AcDbEntity
  8
0
  6
Continuous
 62
     7
 48
1.75
370
    15
100
AcDbLine
 10
13.5979183407
 20
11.2858133104
 30
0.0
 11
13.5979183407
 21
11.2965953859
 31
0.0
  0
LINE
  5
1B9
330
1F
100
AcDbEntity
  8
0
  6
Continuous
 62
     7
 48
1.75
370
    15
100
AcDbLine
 10
13.5149262061
 20
11.3976102989
 30
0.0
 11
13.5149262061
 21
11.5934781429
 31
0.0
  0
LINE
  5
1BA
330
1F
100
AcDbEntity
  8
0
  6
Continuous
 62
     7
 48
1.75
370
    15
100
AcDbLine
 10
13.5149262061
 20
11.3923756794
 30
0.0
 11
13.5149262061
 21
11.3976102989
 31
0.0
  0
LINE
  5
1BB
330
1F
100
AcDbEntity
  8
0
  6
Continuous
 62
     7
 48
1.75
370
    15
100
AcDbLine
 10
13.5979183407
 20
6.2997790295
 30
0.0
 11
13.5979183407
 21
6.700040499
 31
0.0
  0
LINE
  5
1BC
330
1F
100
AcDbEntity
  8
0
  6
Continuous
 62
     7
 48
1.75
370
    15
100
AcDbLine
 10
13.5979183407
 20
6.2858132975
 30
0.0
 11
13.5979183407
 21
6.2997790295
 31
0.0
  0
LINE
  5
1BD
330
1F
100
AcDbEntity
  8
0
  6
Continuous
 62
     7
 48
1.75
370
    15
100
AcDbLine
 10
13.5149262061
 20
6.3991559882
 30
0.0
 11
13.5149262061
 21
6.59347813
 31
0.0
  0
LINE
  5
1BE
330
1F
100
AcDbEntity
  8
0
  6
Continuous
 62
     7
 48
1.75
370
    15
100
AcDbLine
 10
13.5149262061
 20
6.3923756665
 30
0.0
 11
13.5149262061
 21
6.3991559882
 31
0.0
  0
LINE
  5
1BF
330
1F
100
AcDbEntity
  8
0
  6
Continuous
 62
     7
 48
1.75
370
    15
100
AcDbLine
 10
16.7069104446
 20
5.6179268263
 30
0.0
 11
16.7069104446
 21
5.8679269516
 31
0.0
  0
LINE
  5
1C0
330
1F
100
AcDbEntity
  8
0
  6
Continuous
 62
     7
 48
1.75
370
    15
100
AcDbLine
 10
16.7069104446
 20
5.6179268263
 30
0.0
 11
16.6289104465
 21
5.6179268263
 31
0.0
  0
LINE
  5
1C1
330
1F
100
AcDbEntity
  8
0
  6
Continuous
 62
     7
 48
1.75
370
    15
100
AcDbLine
 10
16.6289104465
 20
5.6179268263
 30
0.0
 11
16.6289104465
 21
5.8679269516
 31
0.0
  0
LINE
  5
1C2
330
1F
100
AcDbEntity
  8
0
  6
Continuous
 62
     7
 48
1.75
370
    15
100
AcDbLine
 10
16.7069104446
 20
5.8679269516
 30
0.0
 11
16.7069104446
 21
7.1179268449
 31
0.0
  0
LINE
  5
1C3
330
1F
100
AcDbEntity
  8
0
  6
Continuous
 62
     7
 48
1.75
370
    15
100
AcDbLine
 10
16.6289104465
 20
5.8679269516
 30
0.0
 11
16.6289104465
 21
6.2109270426
 31
0.0
  0
LINE
  5
1C4
330
1F
100
AcDbEntity
  8
0
  6
Continuous
 62
     7
 48
1.75
370
    15
100
AcDbLine
 10
16.7069104446
 20
7.1179268449
 30
0.0
 11
16.6289104465
 21
7.1179268449
 31
0.0
  0
LINE
  5
1C5
330
1F
100
AcDbEntity
  8
0
  6
Continuous
 62
     7
 48
1.75
370
    15
100
AcDbLine
 10
16.7069104446
 20
12.1179268578
 30
0.0
 11
16.7069104446
 21
10.8679269645
 31
0.0
  0
LINE
  5
1C6
330
1F
100
AcDbEntity
  8
0
  6
Continuous
 62
     7
 48
1.75
370
    15
100
AcDbLine
 10
16.6289104465
 20
12.1179268578
 30
0.0
 11
16.6289104465
 21
11.7749267668
 31
0.0
  0
LINE
  5
1C7
330
1F
100
AcDbEntity
  8
0
  6
Continuous
 62
     7
 48
1.75
370
    15
100
AcDbLine
 10
16.7069104446
 20
10.8679269645
 30
0.0
 11
16.6289104465
 21
10.8679269645
 31
0.0
  0
LINE
  5
1C8
330
1F
100
AcDbEntity
  8
0
  6
Continuous
 62
     7
 48
1.75
370
    15
100
AcDbLine
 10
16.7069104446
 20
12.3679269831
 30
0.0
 11
16.6289104465
 21
12.3679269831
 31
0.0
  0
LINE
  5
1C9
330
1F
100
AcDbEntity
  8
0
  6
Continuous
 62
     7
 48
1.75
370
    15
100
AcDbLine
 10
16.7069104446
 20
12.3679269831
 30
0.0
 11
16.7069104446
 21
12.1179268578
 31
0.0
  0
LINE
  5
1CA
330
1F
100
AcDbEntity
  8
0
  6
Continuous
 62
     7
 48
1.75
370
    15
100
AcDbLine
 10
16.6289104465
 20
12.3679269831
 30
0.0
 11
16.6289104465
 21
12.1179268578
 31
0.0
  0
LINE
  5
1CB
330
1F
100
AcDbEntity
  8
0
  6
HIDDEN
 62
     7
 48
1.75
370
     0
100
AcDbLine
 10
13.7939105566
 20
11.9149269895
 30
0.0
 11
14.2009104016
 21
11.9149269895
 31
0.0
  0
ARC
  5
1CC
330
1F
100
AcDbEntity
  8
0
  6
HIDDEN
 62
     7
 48
3.0625
370
     0
100
AcDbCircle
 10
13.7939104465
 20
11.8999269047
 30
0.0
 40
0.0150000000000006
100
AcDbArc
 50
90.0
 51
180.0
  0
LINE
  5
1CD
330
1F
100
AcDbEntity
  8
0
  6
HIDDEN
 62
     7
 48
1.75
370
     0
100
AcDbLine
 10
13.7789105432
 20
11.8999269761
 30
0.0
 11
13.7789105432
 21
6.0859268333
 31
0.0
  0
LINE
  5
1CE
330
1F
100
AcDbEntity
  8
0
  6
HIDDEN
 62
     7
 48
1.75
370
     0
100
AcDbLine
 10
14.2009104016
 20
6.0709268199
 30
0.0
 11
13.7939105566
 21
6.0709268199
 31
0.0
  0
ARC
  5
1CF
330
1F
100
AcDbEntity
  8
0
  6
HIDDEN
 62
     7
 48
3.0625
370
     0
100
AcDbCircle
 10
13.7939104465
 20
6.0859269047
 30
0.0
 40
0.0150000000000006
100
AcDbArc
 50
180.0
 51
270.0
  0
LINE
  5
1D0
330
1F
100
AcDbEntity
  8
0
  6
HIDDEN
 62
     7
 48
1.75
370
     0
100
AcDbLine
 10
13.7789105432
 20
10.1804269133
 30
0.0
 11
13.700910591
 21
10.1804269133
 31
0.0
  0
LINE
  5
1D1
330
1F
100
AcDbEntity
  8
0
  6
HIDDEN
 62
     7
 48
1.75
370
     0
100
AcDbLine
 10
13.7789105432
 20
10.0554269239
 30
0.0
 11
13.700910591
 21
10.0554269239
 31
0.0
  0
LINE
  5
1D2
330
1F
100
AcDbEntity
  8
0
  6
HIDDEN
 62
     7
 48
1.75
370
     0
100
AcDbLine
 10
13.7789105432
 20
7.9304268855
 30
0.0
 11
13.700910591
 21
7.9304268855
 31
0.0
  0
LINE
  5
1D3
330
1F
100
AcDbEntity
  8
0
  6
HIDDEN
 62
     7
 48
1.75
370
     0
100
AcDbLine
 10
13.7789105432
 20
7.8054268961
 30
0.0
 11
13.700910591
 21
7.8054268961
 31
0.0
  0
LINE
  5
1D4
330
1F
100
AcDbEntity
  8
0
  6
HIDDEN
 62
     7
 48
1.75
370
     0
100
AcDbLine
 10
13.7789105432
 20
10.5564959222
 30
0.0
 11
13.700910591
 21
10.5564959222
 31
0.0
  0
LINE
  5
1D5
330
1F
100
AcDbEntity
  8
0
  6
HIDDEN
 62
     7
 48
1.75
370
     0
100
AcDbLine
 10
13.7789105432
 20
10.6179268392
 30
0.0
 11
13.700910591
 21
10.6179268392
 31
0.0
  0
LINE
  5
1D6
330
1F
100
AcDbEntity
  8
0
  6
HIDDEN
 62
     7
 48
1.75
370
     0
100
AcDbLine
 10
13.7789105432
 20
9.679357915
 30
0.0
 11
13.700910591
 21
9.679357915
 31
0.0
  0
LINE
  5
1D7
330
1F
100
AcDbEntity
  8
0
  6
HIDDEN
 62
     7
 48
1.75
370
     0
100
AcDbLine
 10
13.7789105432
 20
9.6179269246
 30
0.0
 11
13.700910591
 21
9.6179269246
 31
0.0
  0
LINE
  5
1D8
330
1F
100
AcDbEntity
  8
0
  6
HIDDEN
 62
     7
 48
1.75
370
     0
100
AcDbLine
 10
13.7789105432
 20
8.3064958944
 30
0.0
 11
13.700910591
 21
8.3064958944
 31
0.0
  0
LINE
  5
1D9
330
1F
100
AcDbEntity
  8
0
  6
HIDDEN
 62
     7
 48
1.75
370
     0
100
AcDbLine
 10
13.7789105432
 20
8.3679268847
 30
0.0
 11
13.700910591
 21
8.3679268847
 31
0.0
  0
LINE
  5
1DA
330
1F
100
AcDbEntity
  8
0
  6
HIDDEN
 62
     7
 48
1.75
370
     0
100
AcDbLine
 10
13.7789105432
 20
7.4293578872
 30
0.0
 11
13.700910591
 21
7.4293578872
 31
0.0
  0
LINE
  5
1DB
330
1F
100
AcDbEntity
  8
0
  6
HIDDEN
 62
     7
 48
1.75
370
     0
100
AcDbLine
 10
13.7789105432
 20
7.3679269702
 30
0.0
 11
13.700910591
 21
7.3679269702
 31
0.0
  0
LINE
  5
1DC
330
1F
100
AcDbEntity
  8
0
  6
HIDDEN
 62
     7
 48
1.75
370
     0
100
AcDbLine
 10
14.2009104016
 20
6.1179267836
 30
0.0
 11
13.9719105003
 21
6.1179267836
 31
0.0
  0
LINE
  5
1DD
330
1F
100
AcDbEntity
  8
0
  6
HIDDEN
 62
     7
 48
1.75
370
     0
100
AcDbLine
 10
13.9719105003
 20
11.8679270258
 30
0.0
 11
14.2009104016
 21
11.8679270258
 31
0.0
  0
ARC
  5
1DE
330
1F
100
AcDbEntity
  8
0
  6
HIDDEN
 62
     7
 48
3.0625
370
     0
100
AcDbCircle
 10
13.9719104465
 20
11.7749269047
 30
0.0
 40
0.093
100
AcDbArc
 50
90.0
 51
180.0
  0
ARC
  5
1DF
330
1F
100
AcDbEntity
  8
0
  6
HIDDEN
 62
     7
 48
3.0625
370
     0
100
AcDbCircle
 10
13.9719104465
 20
6.2109269047
 30
0.0
 40
0.093
100
AcDbArc
 50
180.0
 51
270.0
  0
LINE
  5
1E0
330
1F
100
AcDbEntity
  8
0
  6
HIDDEN
 62
     7
 48
1.75
370
     0
100
AcDbLine
 10
16.5359104441
 20
6.1959270292
 30
0.0
 11
13.9719105003
 21
6.1959270292
 31
0.0
  0
LINE
  5
1E1
330
1F
100
AcDbEntity
  8
0
  6
HIDDEN
 62
     7
 48
1.75
370
     0
100
AcDbLine
 10
13.9719105003
 20
11.7899267802
 30
0.0
 11
16.5359104441
 21
11.7899267802
 31
0.0
  0
ARC
  5
1E2
330
1F
100
AcDbEntity
  8
0
  6
HIDDEN
 62
     7
 48
3.0625
370
     0
100
AcDbCircle
 10
16.5359104465
 20
6.2109269047
 30
0.0
 40
0.0150000000000006
100
AcDbArc
 50
270.0
 51
0.0
  0
LINE
  5
1E3
330
1F
100
AcDbEntity
  8
0
  6
HIDDEN
 62
     7
 48
1.75
370
     0
100
AcDbLine
 10
13.956910487
 20
6.1959270292
 30
0.0
 11
13.956910487
 21
6.2109270426
 31
0.0
  0
LINE
  5
1E4
330
1F
100
AcDbEntity
  8
0
  6
HIDDEN
 62
     7
 48
1.75
370
     0
100
AcDbLine
 10
13.956910487
 20
11.7899267802
 30
0.0
 11
13.956910487
 21
11.7749267668
 31
0.0
  0
LINE
  5
1E5
330
1F
100
AcDbEntity
  8
0
  6
HIDDEN
 62
     7
 48
1.75
370
     0
100
AcDbLine
 10
13.956910487
 20
11.7749267668
 30
0.0
 11
13.956910487
 21
6.2109270426
 31
0.0
  0
LINE
  5
1E6
330
1F
100
AcDbEntity
  8
0
  6
HIDDEN
 62
     7
 48
1.75
370
     0
100
AcDbLine
 10
13.956910487
 20
6.1959270292
 30
0.0
 11
13.9719105003
 21
6.1959270292
 31
0.0
  0
LINE
  5
1E7
330
1F
100
AcDbEntity
  8
0
  6
HIDDEN
 62
     7
 48
1.75
370
     0
100
AcDbLine
 10
13.956910487
 20
11.7899267802
 30
0.0
 11
13.9719105003
 21
11.7899267802
 31
0.0
  0
LINE
  5
1E8
330
1F
100
AcDbEntity
  8
0
  6
HIDDEN
 62
     7
 48
1.75
370
     0
100
AcDbLine
 10
16.5509104484
 20
6.2109270426
 30
0.0
 11
16.5509104484
 21
11.7749267668
 31
0.0
  0
ARC
  5
1E9
330
1F
100
AcDbEntity
  8
0
  6
HIDDEN
 62
     7
 48
3.0625
370
     0
100
AcDbCircle
 10
16.5359104465
 20
11.7749269047
 30
0.0
 40
0.0150000000000041
100
AcDbArc
 50
0.0
 51
90.0
  0
ARC
  5
1EA
330
1F
100
AcDbEntity
  8
0
  6
HIDDEN
 62
     7
 48
3.0625
370
     0
100
AcDbCircle
 10
13.9719104465
 20
6.2109269047
 30
0.0
 40
0.0150000000000006
100
AcDbArc
 50
180.0
 51
270.0
  0
ARC
  5
1EB
330
1F
100
AcDbEntity
  8
0
  6
HIDDEN
 62
     7
 48
3.0625
370
     0
100
AcDbCircle
 10
13.9719104465
 20
11.7749269047
 30
0.0
 40
0.0150000000000006
100
AcDbArc
 50
90.0
 51
180.0
  0
LINE
  5
1EC
330
1F
100
AcDbEntity
  8
0
  6
HIDDEN
 62
     7
 48
1.75
370
     0
100
AcDbLine
 10
13.956910487
 20
6.8059268891
 30
0.0
 11
13.8789105347
 21
6.8059268891
 31
0.0
  0
LINE
  5
1ED
330
1F
100
AcDbEntity
  8
0
  6
HIDDEN
 62
     7
 48
1.75
370
     0
100
AcDbLine
 10
13.956910487
 20
11.1799269203
 30
0.0
 11
13.8789105347
 21
11.1799269203
 31
0.0
  0
LINE
  5
1EE
330
1F
100
AcDbEntity
  8
0
  6
HIDDEN
 62
     7
 48
1.75
370
     0
100
AcDbLine
 10
14.1790906137
 20
11.4000286577
 30
0.0
 11
14.1790906137
 21
11.590926759
 31
0.0
  0
LINE
  5
1EF
330
1F
100
AcDbEntity
  8
0
  6
HIDDEN
 62
     7
 48
1.75
370
     0
100
AcDbLine
 10
14.1790906137
 20
11.3949269166
 30
0.0
 11
14.1790906137
 21
11.4000286577
 31
0.0
  0
LINE
  5
1F0
330
1F
100
AcDbEntity
  8
0
  6
HIDDEN
 62
     7
 48
1.75
370
     0
100
AcDbLine
 10
14.260831696
 20
11.4321243802
 30
0.0
 11
14.260831696
 21
11.5570685635
 31
0.0
  0
LINE
  5
1F1
330
1F
100
AcDbEntity
  8
0
  6
HIDDEN
 62
     7
 48
1.75
370
     0
100
AcDbLine
 10
14.260831696
 20
11.4287851121
 30
0.0
 11
14.260831696
 21
11.4321243802
 31
0.0
  0
LINE
  5
1F2
330
1F
100
AcDbEntity
  8
0
  6
HIDDEN
 62
     7
 48
1.75
370
     0
100
AcDbLine
 10
13.906500856
 20
11.590926759
 30
0.0
 11
13.906500856
 21
11.3949269166
 31
0.0
  0
LINE
  5
1F3
330
1F
100
AcDbEntity
  8
0
  6
HIDDEN
 62
     7
 48
1.75
370
     0
100
AcDbLine
 10
13.5379103673
 20
11.4819106851
 30
0.0
 11
13.5379103673
 21
11.504679542
 31
0.0
  0
LINE
  5
1F4
330
1F
100
AcDbEntity
  8
0
  6
HIDDEN
 62
     7
 48
1.75
370
     0
100
AcDbLine
 10
13.5379103673
 20
11.504679542
 30
0.0
 11
13.5149262061
 21
11.504679542
 31
0.0
  0
LINE
  5
1F5
330
1F
100
AcDbEntity
  8
0
  6
HIDDEN
 62
     7
 48
1.75
370
     0
100
AcDbLine
 10
13.5379103673
 20
11.504679542
 30
0.0
 11
13.5379103673
 21
11.5378575054
 31
0.0
  0
LINE
  5
1F6
330
1F
100
AcDbEntity
  8
0
  6
HIDDEN
 62
     7
 48
1.75
370
     0
100
AcDbLine
 10
13.5379103673
 20
11.5150886485
 30
0.0
 11
13.5149262061
 21
11.5150886485
 31
0.0
  0
LINE
  5
1F7
330
1F
100
AcDbEntity
  8
0
  6
HIDDEN
 62
     7
 48
1.75
370
     0
100
AcDbLine
 10
13.5379103673
 20
11.5378575054
 30
0.0
 11
13.5149262061
 21
11.5378575054
 31
0.0
  0
LINE
  5
1F8
330
1F
100
AcDbEntity
  8
0
  6
HIDDEN
 62
     7
 48
1.75
370
     0
100
AcDbLine
 10
13.5379103673
 20
11.4029873301
 30
0.0
 11
13.5379103673
 21
11.4141329881
 31
0.0
  0
LINE
  5
1F9
330
1F
100
AcDbEntity
  8
0
  6
HIDDEN
 62
     7
 48
1.75
370
     0
100
AcDbLine
 10
13.5379103673
 20
11.4141329881
 30
0.0
 11
13.5149262061
 21
11.4141329881
 31
0.0
  0
LINE
  5
1FA
330
1F
100
AcDbEntity
  8
0
  6
HIDDEN
 62
     7
 48
1.75
370
     0
100
AcDbLine
 10
13.5379103673
 20
11.4819106851
 30
0.0
 11
13.5149262061
 21
11.4819106851
 31
0.0
  0
LINE
  5
1FB
330
1F
100
AcDbEntity
  8
0
  6
HIDDEN
 62
     7
 48
1.75
370
     0
100
AcDbLine
 10
13.5379103673
 20
11.4141329881
 30
0.0
 11
13.5379103673
 21
11.4819106851
 31
0.0
  0
LINE
  5
1FC
330
1F
100
AcDbEntity
  8
0
  6
HIDDEN
 62
     7
 48
1.75
370
     0
100
AcDbLine
 10
13.5379103673
 20
11.4707650272
 30
0.0
 11
13.5149262061
 21
11.4707650272
 31
0.0
  0
LINE
  5
1FD
330
1F
100
AcDbEntity
  8
0
  6
HIDDEN
 62
     7
 48
1.75
370
     0
100
AcDbLine
 10
13.5379103673
 20
11.4029873301
 30
0.0
 11
13.5149262061
 21
11.4029873301
 31
0.0
  0
LINE
  5
1FE
330
1F
100
AcDbEntity
  8
0
  6
HIDDEN
 62
     7
 48
1.75
370
     0
100
AcDbLine
 10
13.5379103673
 20
11.5378575054
 30
0.0
 11
13.5379103673
 21
11.5828663455
 31
0.0
  0
LINE
  5
1FF
330
1F
100
AcDbEntity
  8
0
  6
HIDDEN
 62
     7
 48
1.75
370
     0
100
AcDbLine
 10
13.5379103673
 20
11.5717209809
 30
0.0
 11
13.5149262061
 21
11.5717209809
 31
0.0
  0
LINE
  5
200
330
1F
100
AcDbEntity
  8
0
  6
HIDDEN
 62
     7
 48
1.75
370
     0
100
AcDbLine
 10
13.5379103673
 20
11.5828663455
 30
0.0
 11
13.5149262061
 21
11.5828663455
 31
0.0
  0
LINE
  5
201
330
1F
100
AcDbEntity
  8
0
  6
HIDDEN
 62
     7
 48
1.75
370
     0
100
AcDbLine
 10
13.5379103673
 20
11.5039429906
 30
0.0
 11
13.5149262061
 21
11.5039429906
 31
0.0
  0
LINE
  5
202
330
1F
100
AcDbEntity
  8
0
  6
HIDDEN
 62
     7
 48
1.75
370
     0
100
AcDbLine
 10
13.5379103673
 20
11.4811741336
 30
0.0
 11
13.5149262061
 21
11.4811741336
 31
0.0
  0
LINE
  5
203
330
1F
100
AcDbEntity
  8
0
  6
HIDDEN
 62
     7
 48
1.75
370
     0
100
AcDbLine
 10
13.5379103673
 20
11.4479963169
 30
0.0
 11
13.5149262061
 21
11.4479963169
 31
0.0
  0
LINE
  5
204
330
1F
100
AcDbEntity
  8
0
  6
HIDDEN
 62
     7
 48
1.75
370
     0
100
AcDbLine
 10
13.5379103673
 20
6.5046796758
 30
0.0
 11
13.5149262061
 21
6.5046796758
 31
0.0
  0
LINE
  5
205
330
1F
100
AcDbEntity
  8
0
  6
HIDDEN
 62
     7
 48
1.75
370
     0
100
AcDbLine
 10
13.5379103673
 20
6.5150887822
 30
0.0
 11
13.5149262061
 21
6.5150887822
 31
0.0
  0
LINE
  5
206
330
1F
100
AcDbEntity
  8
0
  6
HIDDEN
 62
     7
 48
1.75
370
     0
100
AcDbLine
 10
13.5379103673
 20
6.5378574925
 30
0.0
 11
13.5149262061
 21
6.5378574925
 31
0.0
  0
LINE
  5
207
330
1F
100
AcDbEntity
  8
0
  6
HIDDEN
 62
     7
 48
1.75
370
     0
100
AcDbLine
 10
13.5379103673
 20
6.4819108188
 30
0.0
 11
13.5149262061
 21
6.4819108188
 31
0.0
  0
LINE
  5
208
330
1F
100
AcDbEntity
  8
0
  6
HIDDEN
 62
     7
 48
1.75
370
     0
100
AcDbLine
 10
13.5379103673
 20
6.4141328285
 30
0.0
 11
13.5149262061
 21
6.4141328285
 31
0.0
  0
LINE
  5
209
330
1F
100
AcDbEntity
  8
0
  6
HIDDEN
 62
     7
 48
1.75
370
     0
100
AcDbLine
 10
13.5379103673
 20
6.4029874639
 30
0.0
 11
13.5379103673
 21
6.40361079
 31
0.0
  0
LINE
  5
20A
330
1F
100
AcDbEntity
  8
0
  6
HIDDEN
 62
     7
 48
1.75
370
     0
100
AcDbLine
 10
13.5379103673
 20
6.4707651609
 30
0.0
 11
13.5149262061
 21
6.4707651609
 31
0.0
  0
LINE
  5
20B
330
1F
100
AcDbEntity
  8
0
  6
HIDDEN
 62
     7
 48
1.75
370
     0
100
AcDbLine
 10
13.5379103673
 20
6.4029874639
 30
0.0
 11
13.5149262061
 21
6.4029874639
 31
0.0
  0
LINE
  5
20C
330
1F
100
AcDbEntity
  8
0
  6
HIDDEN
 62
     7
 48
1.75
370
     0
100
AcDbLine
 10
13.5379103673
 20
6.5822430065
 30
0.0
 11
13.5379103673
 21
6.5828664793
 31
0.0
  0
LINE
  5
20D
330
1F
100
AcDbEntity
  8
0
  6
HIDDEN
 62
     7
 48
1.75
370
     0
100
AcDbLine
 10
13.5379103673
 20
6.5717208213
 30
0.0
 11
13.5149262061
 21
6.5717208213
 31
0.0
  0
LINE
  5
20E
330
1F
100
AcDbEntity
  8
0
  6
HIDDEN
 62
     7
 48
1.75
370
     0
100
AcDbLine
 10
13.5379103673
 20
6.5828664793
 30
0.0
 11
13.5149262061
 21
6.5828664793
 31
0.0
  0
LINE
  5
20F
330
1F
100
AcDbEntity
  8
0
  6
HIDDEN
 62
     7
 48
1.75
370
     0
100
AcDbLine
 10
13.5379103673
 20
6.5039431243
 30
0.0
 11
13.5149262061
 21
6.5039431243
 31
0.0
  0
LINE
  5
210
330
1F
100
AcDbEntity
  8
0
  6
HIDDEN
 62
     7
 48
1.75
370
     0
100
AcDbLine
 10
13.5379103673
 20
6.4811742673
 30
0.0
 11
13.5149262061
 21
6.4811742673
 31
0.0
  0
LINE
  5
211
330
1F
100
AcDbEntity
  8
0
  6
HIDDEN
 62
     7
 48
1.75
370
     0
100
AcDbLine
 10
13.5379103673
 20
6.447996304
 30
0.0
 11
13.5149262061
 21
6.447996304
 31
0.0
  0
LINE
  5
212
330
1F
100
AcDbEntity
  8
0
  6
HIDDEN
 62
     7
 48
1.75
370
     0
100
AcDbLine
 10
14.1790906137
 20
6.4015351873
 30
0.0
 11
14.1790906137
 21
6.5909268928
 31
0.0
  0
LINE
  5
213
330
1F
100
AcDbEntity
  8
0
  6
HIDDEN
 62
     7
 48
1.75
370
     0
100
AcDbLine
 10
14.1790906137
 20
6.3949270503
 30
0.0
 11
14.1790906137
 21
6.4015351873
 31
0.0
  0
LINE
  5
214
330
1F
100
AcDbEntity
  8
0
  6
HIDDEN
 62
     7
 48
1.75
370
     0
100
AcDbLine
 10
14.260831696
 20
6.4331103959
 30
0.0
 11
14.260831696
 21
6.5570686973
 31
0.0
  0
LINE
  5
215
330
1F
100
AcDbEntity
  8
0
  6
HIDDEN
 62
     7
 48
1.75
370
     0
100
AcDbLine
 10
14.260831696
 20
6.4287852459
 30
0.0
 11
14.260831696
 21
6.4331103959
 31
0.0
  0
LINE
  5
216
330
1F
100
AcDbEntity
  8
0
  6
HIDDEN
 62
     7
 48
1.75
370
     0
100
AcDbLine
 10
13.906500856
 20
6.5909268928
 30
0.0
 11
13.906500856
 21
6.3949270503
 31
0.0
  0
LINE
  5
217
330
1F
100
AcDbEntity
  8
0
  6
HIDDEN
 62
     7
 48
1.75
370
     0
100
AcDbLine
 10
13.5379103673
 20
6.5087349623
 30
0.0
 11
13.5379103673
 21
6.5413749586
 31
0.0
  0
LINE
  5
218
330
1F
100
AcDbEntity
  8
0
  6
HIDDEN
 62
     7
 48
1.75
370
     0
100
AcDbLine
 10
13.5379103673
 20
6.5087349623
 30
0.0
 11
13.5149262061
 21
6.5087349623
 31
0.0
  0
LINE
  5
219
330
1F
100
AcDbEntity
  8
0
  6
HIDDEN
 62
     7
 48
1.75
370
     0
100
AcDbLine
 10
13.5379103673
 20
6.4829242738
 30
0.0
 11
13.5379103673
 21
6.5087349623
 31
0.0
  0
LINE
  5
21A
330
1F
100
AcDbEntity
  8
0
  6
HIDDEN
 62
     7
 48
1.75
370
     0
100
AcDbLine
 10
13.5379103673
 20
6.5155642701
 30
0.0
 11
13.5149262061
 21
6.5155642701
 31
0.0
  0
LINE
  5
21B
330
1F
100
AcDbEntity
  8
0
  6
HIDDEN
 62
     7
 48
1.75
370
     0
100
AcDbLine
 10
13.5379103673
 20
6.5413749586
 30
0.0
 11
13.5149262061
 21
6.5413749586
 31
0.0
  0
LINE
  5
21C
330
1F
100
AcDbEntity
  8
0
  6
HIDDEN
 62
     7
 48
1.75
370
     0
100
AcDbLine
 10
13.5379103673
 20
6.40361079
 30
0.0
 11
13.5379103673
 21
6.4162453907
 31
0.0
  0
LINE
  5
21D
330
1F
100
AcDbEntity
  8
0
  6
HIDDEN
 62
     7
 48
1.75
370
     0
100
AcDbLine
 10
13.5379103673
 20
6.4162453907
 30
0.0
 11
13.5149262061
 21
6.4162453907
 31
0.0
  0
LINE
  5
21E
330
1F
100
AcDbEntity
  8
0
  6
HIDDEN
 62
     7
 48
1.75
370
     0
100
AcDbLine
 10
13.5379103673
 20
6.4829242738
 30
0.0
 11
13.5149262061
 21
6.4829242738
 31
0.0
  0
LINE
  5
21F
330
1F
100
AcDbEntity
  8
0
  6
HIDDEN
 62
     7
 48
1.75
370
     0
100
AcDbLine
 10
13.5379103673
 20
6.4162453907
 30
0.0
 11
13.5379103673
 21
6.4829242738
 31
0.0
  0
LINE
  5
220
330
1F
100
AcDbEntity
  8
0
  6
HIDDEN
 62
     7
 48
1.75
370
     0
100
AcDbLine
 10
13.5379103673
 20
6.4702896731
 30
0.0
 11
13.5149262061
 21
6.4702896731
 31
0.0
  0
LINE
  5
221
330
1F
100
AcDbEntity
  8
0
  6
HIDDEN
 62
     7
 48
1.75
370
     0
100
AcDbLine
 10
13.5379103673
 20
6.40361079
 30
0.0
 11
13.5149262061
 21
6.40361079
 31
0.0
  0
LINE
  5
222
330
1F
100
AcDbEntity
  8
0
  6
HIDDEN
 62
     7
 48
1.75
370
     0
100
AcDbLine
 10
13.5379103673
 20
6.5413749586
 30
0.0
 11
13.5379103673
 21
6.5822430065
 31
0.0
  0
LINE
  5
223
330
1F
100
AcDbEntity
  8
0
  6
HIDDEN
 62
     7
 48
1.75
370
     0
100
AcDbLine
 10
13.5379103673
 20
6.5696082591
 30
0.0
 11
13.5149262061
 21
6.5696082591
 31
0.0
  0
LINE
  5
224
330
1F
100
AcDbEntity
  8
0
  6
HIDDEN
 62
     7
 48
1.75
370
     0
100
AcDbLine
 10
13.5379103673
 20
6.5822430065
 30
0.0
 11
13.5149262061
 21
6.5822430065
 31
0.0
  0
LINE
  5
225
330
1F
100
AcDbEntity
  8
0
  6
HIDDEN
 62
     7
 48
1.75
370
     0
100
AcDbLine
 10
13.5379103673
 20
6.5029296694
 30
0.0
 11
13.5149262061
 21
6.5029296694
 31
0.0
  0
LINE
  5
226
330
1F
100
AcDbEntity
  8
0
  6
HIDDEN
 62
     7
 48
1.75
370
     0
100
AcDbLine
 10
13.5379103673
 20
6.4771186875
 30
0.0
 11
13.5149262061
 21
6.4771186875
 31
0.0
  0
LINE
  5
227
330
1F
100
AcDbEntity
  8
0
  6
HIDDEN
 62
     7
 48
1.75
370
     0
100
AcDbLine
 10
13.5379103673
 20
6.4444789846
 30
0.0
 11
13.5149262061
 21
6.4444789846
 31
0.0
  0
LINE
  5
228
330
1F
100
AcDbEntity
  8
0
  6
HIDDEN
 62
     7
 48
1.75
370
     0
100
AcDbLine
 10
13.7789105432
 20
6.0869267951
 30
0.0
 11
13.8789105347
 21
6.0869267951
 31
0.0
  0
LINE
  5
229
330
1F
100
AcDbEntity
  8
0
  6
HIDDEN
 62
     7
 48
1.75
370
     0
100
AcDbLine
 10
13.7789105432
 20
11.8989270143
 30
0.0
 11
13.8789105347
 21
11.8989270143
 31
0.0
  0
LINE
  5
22A
330
1F
100
AcDbEntity
  8
0
  6
HIDDEN
 62
     7
 48
1.75
370
     0
100
AcDbLine
 10
13.8789105347
 20
11.8989270143
 30
0.0
 11
13.8789105347
 21
6.0869267951
 31
0.0
  0
LINE
  5
22B
330
1F
100
AcDbEntity
  8
0
  6
HIDDEN
 62
     7
 48
1.75
370
     0
100
AcDbLine
 10
13.7789105432
 20
11.0869269546
 30
0.0
 11
13.8789105347
 21
11.0869269546
 31
0.0
  0
LINE
  5
22C
330
1F
100
AcDbEntity
  8
0
  6
HIDDEN
 62
     7
 48
1.75
370
     0
100
AcDbLine
 10
13.7789105432
 20
6.8989268548
 30
0.0
 11
13.8789105347
 21
6.8989268548
 31
0.0
  0
LINE
  5
22D
330
1F
100
AcDbEntity
  8
0
  6
HIDDEN
 62
     7
 48
1.75
370
     0
100
AcDbLine
 10
13.7789105432
 20
11.523926973
 30
0.0
 11
13.8789105347
 21
11.523926973
 31
0.0
  0
LINE
  5
22E
330
1F
100
AcDbEntity
  8
0
  6
HIDDEN
 62
     7
 48
1.75
370
     0
100
AcDbLine
 10
13.7789105432
 20
6.4619268364
 30
0.0
 11
13.8789105347
 21
6.4619268364
 31
0.0
  0
LINE
  5
22F
330
1F
100
AcDbEntity
  8
0
  6
HIDDEN
 62
     7
 48
1.75
370
     0
100
AcDbLine
 10
16.4524852445
 20
7.5706827879
 30
0.0
 11
16.4524852445
 21
7.1651710058
 31
0.0
  0
LINE
  5
230
330
1F
100
AcDbEntity
  8
0
  6
HIDDEN
 62
     7
 48
1.75
370
     0
100
AcDbLine
 10
16.0784695085
 20
7.5450922435
 30
0.0
 11
16.0784695085
 21
7.1907615501
 31
0.0
  0
LINE
  5
231
330
1F
100
AcDbEntity
  8
0
  6
HIDDEN
 62
     7
 48
1.75
370
     0
100
AcDbLine
 10
13.8395403762
 20
6.6897773242
 30
0.0
 11
13.8395403762
 21
6.2960766189
 31
0.0
  0
LINE
  5
232
330
1F
100
AcDbEntity
  8
0
  6
HIDDEN
 62
     7
 48
1.75
370
     0
100
AcDbLine
 10
14.4694615926
 20
6.6307222331
 30
0.0
 11
14.4694615926
 21
6.3551315634
 31
0.0
  0
LINE
  5
233
330
1F
100
AcDbEntity
  8
0
  6
HIDDEN
 62
     7
 48
1.75
370
     0
100
AcDbLine
 10
13.9970207169
 20
6.6109268618
 30
0.0
 11
13.9970207169
 21
6.3749269347
 31
0.0
  0
LINE
  5
234
330
1F
100
AcDbEntity
  8
0
  6
HIDDEN
 62
     7
 48
1.75
370
     0
100
AcDbLine
 10
14.3338956387
 20
6.5913520746
 30
0.0
 11
14.3338956387
 21
6.3945017219
 31
0.0
  0
LINE
  5
235
330
1F
100
AcDbEntity
  8
0
  6
HIDDEN
 62
     7
 48
1.75
370
     0
100
AcDbLine
 10
13.8395403762
 20
11.6897771905
 30
0.0
 11
13.8395403762
 21
11.2960764852
 31
0.0
  0
LINE
  5
236
330
1F
100
AcDbEntity
  8
0
  6
HIDDEN
 62
     7
 48
1.75
370
     0
100
AcDbLine
 10
14.4694615926
 20
11.630722246
 30
0.0
 11
14.4694615926
 21
11.3551315763
 31
0.0
  0
LINE
  5
237
330
1F
100
AcDbEntity
  8
0
  6
HIDDEN
 62
     7
 48
1.75
370
     0
100
AcDbLine
 10
13.9970207169
 20
11.6109268747
 30
0.0
 11
13.9970207169
 21
11.3749269476
 31
0.0
  0
LINE
  5
238
330
1F
100
AcDbEntity
  8
0
  6
HIDDEN
 62
     7
 48
1.75
370
     0
100
AcDbLine
 10
14.3338956387
 20
11.5913520875
 30
0.0
 11
14.3338956387
 21
11.3945017348
 31
0.0
  0
LINE
  5
239
330
1F
100
AcDbEntity
  8
0
  6
HIDDEN
 62
     7
 48
1.75
370
     0
100
AcDbLine
 10
13.7789105432
 20
11.6079269893
 30
0.0
 11
13.700910591
 21
11.6079269893
 31
0.0
  0
LINE
  5
23A
330
1F
100
AcDbEntity
  8
0
  6
HIDDEN
 62
     7
 48
1.75
370
     0
100
AcDbLine
 10
13.700910591
 20
11.377926833
 30
0.0
 11
13.7789105432
 21
11.377926833
 31
0.0
  0
LINE
  5
23B
330
1F
100
AcDbEntity
  8
0
  6
HIDDEN
 62
     7
 48
1.75
370
     0
100
AcDbLine
 10
13.7789105432
 20
6.6079269764
 30
0.0
 11
13.700910591
 21
6.6079269764
 31
0.0
  0
LINE
  5
23C
330
1F
100
AcDbEntity
  8
0
  6
HIDDEN
 62
     7
 48
1.75
370
     0
100
AcDbLine
 10
13.700910591
 20
6.3779268201
 30
0.0
 11
13.7789105432
 21
6.3779268201
 31
0.0
  0
LINE
  5
23D
330
1F
100
AcDbEntity
  8
0
  6
HIDDEN
 62
     7
 48
1.75
370
     0
100
AcDbLine
 10
13.956910487
 20
11.6304268627
 30
0.0
 11
13.8789105347
 21
11.6304268627
 31
0.0
  0
LINE
  5
23E
330
1F
100
AcDbEntity
  8
0
  6
HIDDEN
 62
     7
 48
1.75
370
     0
100
AcDbLine
 10
13.8789105347
 20
11.3554269596
 30
0.0
 11
13.956910487
 21
11.3554269596
 31
0.0
  0
LINE
  5
23F
330
1F
100
AcDbEntity
  8
0
  6
HIDDEN
 62
     7
 48
1.75
370
     0
100
AcDbLine
 10
13.956910487
 20
6.6304268498
 30
0.0
 11
13.8789105347
 21
6.6304268498
 31
0.0
  0
LINE
  5
240
330
1F
100
AcDbEntity
  8
0
  6
HIDDEN
 62
     7
 48
1.75
370
     0
100
AcDbLine
 10
13.8789105347
 20
6.3554269467
 30
0.0
 11
13.956910487
 21
6.3554269467
 31
0.0
  0
ARC
  5
241
330
1F
100
AcDbEntity
  8
0
  6
HIDDEN
 62
     7
 48
3.0625
370
     0
100
AcDbCircle
 10
13.8099104465
 20
6.6179269047
 30
0.0
 40
0.0310000000000006
100
AcDbArc
 50
0.0
 51
180.0
  0
ARC
  5
242
330
1F
100
AcDbEntity
  8
0
  6
HIDDEN
 62
     7
 48
3.0625
370
     0
100
AcDbCircle
 10
13.8099104465
 20
6.6179269047
 30
0.0
 40
0.0310000000000006
100
AcDbArc
 50
180.0
 51
0.0
  0
ARC
  5
243
330
1F
100
AcDbEntity
  8
0
  6
HIDDEN
 62
     7
 48
3.0625
370
     0
100
AcDbCircle
 10
13.8099104465
 20
6.3679269047
 30
0.0
 40
0.0310000000000006
100
AcDbArc
 50
180.0
 51
0.0
  0
ARC
  5
244
330
1F
100
AcDbEntity
  8
0
  6
HIDDEN
 62
     7
 48
3.0625
370
     0
100
AcDbCircle
 10
13.8099104465
 20
6.3679269047
 30
0.0
 40
0.0310000000000006
100
AcDbArc
 50
0.0
 51
180.0
  0
LINE
  5
245
330
1F
100
AcDbEntity
  8
0
  6
HIDDEN
 62
     7
 48
1.75
370
     0
100
AcDbLine
 10
13.8409105203
 20
6.3679269089
 30
0.0
 11
13.8409105203
 21
6.6179268876
 31
0.0
  0
ARC
  5
246
330
1F
100
AcDbEntity
  8
0
  6
HIDDEN
 62
     7
 48
3.0625
370
     0
100
AcDbCircle
 10
13.8099104465
 20
11.6179269047
 30
0.0
 40
0.0310000000000006
100
AcDbArc
 50
0.0
 51
180.0
  0
ARC
  5
247
330
1F
100
AcDbEntity
  8
0
  6
HIDDEN
 62
     7
 48
3.0625
370
     0
100
AcDbCircle
 10
13.8099104465
 20
11.6179269047
 30
0.0
 40
0.0310000000000006
100
AcDbArc
 50
180.0
 51
0.0
  0
ARC
  5
248
330
1F
100
AcDbEntity
  8
0
  6
HIDDEN
 62
     7
 48
3.0625
370
     0
100
AcDbCircle
 10
13.8099104465
 20
11.3679269047
 30
0.0
 40
0.0310000000000006
100
AcDbArc
 50
180.0
 51
0.0
  0
ARC
  5
249
330
1F
100
AcDbEntity
  8
0
  6
HIDDEN
 62
     7
 48
3.0625
370
     0
100
AcDbCircle
 10
13.8099104465
 20
11.3679269047
 30
0.0
 40
0.0310000000000006
100
AcDbArc
 50
0.0
 51
180.0
  0
LINE
  5
24A
330
1F
100
AcDbEntity
  8
0
  6
HIDDEN
 62
     7
 48
1.75
370
     0
100
AcDbLine
 10
13.8409105203
 20
11.3679269218
 30
0.0
 11
13.8409105203
 21
11.6179269005
 31
0.0
  0
ARC
  5
24B
330
1F
100
AcDbEntity
  8
0
  6
HIDDEN
 62
     7
 48
3.0625
370
     0
100
AcDbCircle
 10
13.6859104465
 20
11.3929269047
 30
0.0
 40
0.0150000000000006
100
AcDbArc
 50
0.0
 51
90.0
  0
ARC
  5
24C
330
1F
100
AcDbEntity
  8
0
  6
HIDDEN
 62
     7
 48
3.0625
370
     0
100
AcDbCircle
 10
13.6859104465
 20
11.5929269047
 30
0.0
 40
0.0150000000000006
100
AcDbArc
 50
270.0
 51
0.0
  0
ARC
  5
24D
330
1F
100
AcDbEntity
  8
0
  6
HIDDEN
 62
     7
 48
3.0625
370
     0
100
AcDbCircle
 10
13.6459104465
 20
11.3929269047
 30
0.0
 40
0.0150000000000006
100
AcDbArc
 50
90.0
 51
180.0
  0
ARC
  5
24E
330
1F
100
AcDbEntity
  8
0
  6
HIDDEN
 62
     7
 48
3.0625
370
     0
100
AcDbCircle
 10
13.6459104465
 20
11.5929269047
 30
0.0
 40
0.0150000000000006
100
AcDbArc
 50
180.0
 51
270.0
  0
LINE
  5
24F
330
1F
100
AcDbEntity
  8
0
  6
HIDDEN
 62
     7
 48
1.75
370
     0
100
AcDbLine
 10
13.6859105776
 20
11.5779269626
 30
0.0
 11
13.6459103463
 21
11.5779269626
 31
0.0
  0
LINE
  5
250
330
1F
100
AcDbEntity
  8
0
  6
HIDDEN
 62
     7
 48
1.75
370
     0
100
AcDbLine
 10
13.6459103463
 20
11.4079268597
 30
0.0
 11
13.6859105776
 21
11.4079268597
 31
0.0
  0
ARC
  5
251
330
1F
100
AcDbEntity
  8
0
  6
HIDDEN
 62
     7
 48
3.0625
370
     0
100
AcDbCircle
 10
13.6859104465
 20
6.3929269047
 30
0.0
 40
0.0150000000000006
100
AcDbArc
 50
0.0
 51
90.0
  0
ARC
  5
252
330
1F
100
AcDbEntity
  8
0
  6
HIDDEN
 62
     7
 48
3.0625
370
     0
100
AcDbCircle
 10
13.6859104465
 20
6.5929269047
 30
0.0
 40
0.0150000000000006
100
AcDbArc
 50
270.0
 51
0.0
  0
ARC
  5
253
330
1F
100
AcDbEntity
  8
0
  6
HIDDEN
 62
     7
 48
3.0625
370
     0
100
AcDbCircle
 10
13.6459104465
 20
6.3929269047
 30
0.0
 40
0.0150000000000006
100
AcDbArc
 50
90.0
 51
180.0
  0
ARC
  5
254
330
1F
100
AcDbEntity
  8
0
  6
HIDDEN
 62
     7
 48
3.0625
370
     0
100
AcDbCircle
 10
13.6459104465
 20
6.5929269047
 30
0.0
 40
0.0150000000000006
100
AcDbArc
 50
180.0
 51
270.0
  0
LINE
  5
255
330
1F
100
AcDbEntity
  8
0
  6
HIDDEN
 62
     7
 48
1.75
370
     0
100
AcDbLine
 10
13.6859105776
 20
6.5779269496
 30
0.0
 11
13.6459103463
 21
6.5779269496
 31
0.0
  0
LINE
  5
256
330
1F
100
AcDbEntity
  8
0
  6
HIDDEN
 62
     7
 48
1.75
370
     0
100
AcDbLine
 10
13.6459103463
 20
6.4079268468
 30
0.0
 11
13.6859105776
 21
6.4079268468
 31
0.0
  0
LINE
  5
257
330
1F
100
AcDbEntity
  8
0
  6
HIDDEN
 62
     7
 48
1.75
370
     0
100
AcDbLine
 10
14.1790906137
 20
11.3949269166
 30
0.0
 11
14.260831696
 21
11.4287851121
 31
0.0
  0
LINE
  5
258
330
1F
100
AcDbEntity
  8
0
  6
HIDDEN
 62
     7
 48
1.75
370
     0
100
AcDbLine
 10
14.260831696
 20
11.5570685635
 30
0.0
 11
14.1790906137
 21
11.590926759
 31
0.0
  0
LINE
  5
259
330
1F
100
AcDbEntity
  8
0
  6
HIDDEN
 62
     7
 48
1.75
370
     0
100
AcDbLine
 10
13.906500856
 20
11.3949269166
 30
0.0
 11
14.1790906137
 21
11.3949269166
 31
0.0
  0
LINE
  5
25A
330
1F
100
AcDbEntity
  8
0
  6
HIDDEN
 62
     7
 48
1.75
370
     0
100
AcDbLine
 10
14.1790906137
 20
11.590926759
 30
0.0
 11
13.906500856
 21
11.590926759
 31
0.0
  0
LINE
  5
25B
330
1F
100
AcDbEntity
  8
0
  6
HIDDEN
 62
     7
 48
1.75
370
     0
100
AcDbLine
 10
13.906500856
 20
11.5669426361
 30
0.0
 11
13.6309103329
 21
11.5669426361
 31
0.0
  0
LINE
  5
25C
330
1F
100
AcDbEntity
  8
0
  6
HIDDEN
 62
     7
 48
1.75
370
     0
100
AcDbLine
 10
13.6309103329
 20
11.4189111862
 30
0.0
 11
13.906500856
 21
11.4189111862
 31
0.0
  0
LINE
  5
25D
330
1F
100
AcDbEntity
  8
0
  6
HIDDEN
 62
     7
 48
1.75
370
     0
100
AcDbLine
 10
14.1790906137
 20
6.3949270503
 30
0.0
 11
14.260831696
 21
6.4287852459
 31
0.0
  0
LINE
  5
25E
330
1F
100
AcDbEntity
  8
0
  6
HIDDEN
 62
     7
 48
1.75
370
     0
100
AcDbLine
 10
14.260831696
 20
6.5570686973
 30
0.0
 11
14.1790906137
 21
6.5909268928
 31
0.0
  0
LINE
  5
25F
330
1F
100
AcDbEntity
  8
0
  6
HIDDEN
 62
     7
 48
1.75
370
     0
100
AcDbLine
 10
13.906500856
 20
6.3949270503
 30
0.0
 11
14.1790906137
 21
6.3949270503
 31
0.0
  0
LINE
  5
260
330
1F
100
AcDbEntity
  8
0
  6
HIDDEN
 62
     7
 48
1.75
370
     0
100
AcDbLine
 10
14.1790906137
 20
6.5909268928
 30
0.0
 11
13.906500856
 21
6.5909268928
 31
0.0
  0
LINE
  5
261
330
1F
100
AcDbEntity
  8
0
  6
HIDDEN
 62
     7
 48
1.75
370
     0
100
AcDbLine
 10
13.906500856
 20
6.5669426232
 30
0.0
 11
13.6309103329
 21
6.5669426232
 31
0.0
  0
LINE
  5
262
330
1F
100
AcDbEntity
  8
0
  6
HIDDEN
 62
     7
 48
1.75
370
     0
100
AcDbLine
 10
13.6309103329
 20
6.4189111733
 30
0.0
 11
13.906500856
 21
6.4189111733
 31
0.0
  0
LINE
  5
263
330
1F
100
AcDbEntity
  8
0
  6
HIDDEN
 62
     7
 48
1.75
370
     0
100
AcDbLine
 10
13.8789105347
 20
11.7289267649
 30
0.0
 11
13.7789105432
 21
11.7289267649
 31
0.0
  0
LINE
  5
264
330
1F
100
AcDbEntity
  8
0
  6
HIDDEN
 62
     7
 48
1.75
370
     0
100
AcDbLine
 10
13.7789105432
 20
11.2569269108
 30
0.0
 11
13.8789105347
 21
11.2569269108
 31
0.0
  0
LINE
  5
265
330
1F
100
AcDbEntity
  8
0
  6
HIDDEN
 62
     7
 48
1.75
370
     0
100
AcDbLine
 10
13.8789105347
 20
6.7289268986
 30
0.0
 11
13.7789105432
 21
6.7289268986
 31
0.0
  0
LINE
  5
266
330
1F
100
AcDbEntity
  8
0
  6
HIDDEN
 62
     7
 48
1.75
370
     0
100
AcDbLine
 10
13.7789105432
 20
6.2569270445
 30
0.0
 11
13.8789105347
 21
6.2569270445
 31
0.0
  0
LINE
  5
267
330
1F
100
AcDbEntity
  8
0
  6
HIDDEN
 62
     7
 48
1.75
370
     0
100
AcDbLine
 10
16.5509104484
 20
7.5706827879
 30
0.0
 11
16.4524852445
 21
7.5706827879
 31
0.0
  0
LINE
  5
268
330
1F
100
AcDbEntity
  8
0
  6
HIDDEN
 62
     7
 48
1.75
370
     0
100
AcDbLine
 10
16.4524852445
 20
7.1651710058
 30
0.0
 11
16.5509104484
 21
7.1651710058
 31
0.0
  0
LINE
  5
269
330
1F
100
AcDbEntity
  8
0
  6
HIDDEN
 62
     7
 48
1.75
370
     0
100
AcDbLine
 10
16.4524852445
 20
7.5450922435
 30
0.0
 11
16.0784695085
 21
7.5450922435
 31
0.0
  0
LINE
  5
26A
330
1F
100
AcDbEntity
  8
0
  6
HIDDEN
 62
     7
 48
1.75
370
     0
100
AcDbLine
 10
16.0784695085
 20
7.1907615501
 30
0.0
 11
16.4524852445
 21
7.1907615501
 31
0.0
  0
LINE
  5
26B
330
1F
100
AcDbEntity
  8
0
  6
HIDDEN
 62
     7
 48
1.75
370
     0
100
AcDbLine
 10
16.5509104484
 20
7.4663520732
 30
0.0
 11
16.0784695085
 21
7.4663520732
 31
0.0
  0
LINE
  5
26C
330
1F
100
AcDbEntity
  8
0
  6
HIDDEN
 62
     7
 48
1.75
370
     0
100
AcDbLine
 10
16.0784695085
 20
7.2695017205
 30
0.0
 11
16.5509104484
 21
7.2695017205
 31
0.0
  0
LINE
  5
26D
330
1F
100
AcDbEntity
  8
0
  6
HIDDEN
 62
     7
 48
1.75
370
     0
100
AcDbLine
 10
13.8789105347
 20
6.6897773242
 30
0.0
 11
13.8395403762
 21
6.6897773242
 31
0.0
  0
LINE
  5
26E
330
1F
100
AcDbEntity
  8
0
  6
HIDDEN
 62
     7
 48
1.75
370
     0
100
AcDbLine
 10
13.8395403762
 20
6.2960766189
 30
0.0
 11
13.8789105347
 21
6.2960766189
 31
0.0
  0
LINE
  5
26F
330
1F
100
AcDbEntity
  8
0
  6
HIDDEN
 62
     7
 48
1.75
370
     0
100
AcDbLine
 10
14.4694615926
 20
6.6307222331
 30
0.0
 11
13.8789105347
 21
6.6307222331
 31
0.0
  0
LINE
  5
270
330
1F
100
AcDbEntity
  8
0
  6
HIDDEN
 62
     7
 48
1.75
370
     0
100
AcDbLine
 10
13.8789105347
 20
6.3551315634
 30
0.0
 11
14.4694615926
 21
6.3551315634
 31
0.0
  0
LINE
  5
271
330
1F
100
AcDbEntity
  8
0
  6
HIDDEN
 62
     7
 48
1.75
370
     0
100
AcDbLine
 10
13.9970207169
 20
6.6109268618
 30
0.0
 11
13.8395403762
 21
6.6109268618
 31
0.0
  0
LINE
  5
272
330
1F
100
AcDbEntity
  8
0
  6
HIDDEN
 62
     7
 48
1.75
370
     0
100
AcDbLine
 10
13.8395403762
 20
6.3749269347
 30
0.0
 11
13.9970207169
 21
6.3749269347
 31
0.0
  0
LINE
  5
273
330
1F
100
AcDbEntity
  8
0
  6
HIDDEN
 62
     7
 48
1.75
370
     0
100
AcDbLine
 10
14.3338956387
 20
6.3945017219
 30
0.0
 11
14.3907214222
 21
6.4929268249
 31
0.0
  0
LINE
  5
274
330
1F
100
AcDbEntity
  8
0
  6
HIDDEN
 62
     7
 48
1.75
370
     0
100
AcDbLine
 10
14.3907214222
 20
6.4929268249
 30
0.0
 11
14.3338956387
 21
6.5913520746
 31
0.0
  0
LINE
  5
275
330
1F
100
AcDbEntity
  8
0
  6
HIDDEN
 62
     7
 48
1.75
370
     0
100
AcDbLine
 10
14.3338956387
 20
6.5913520746
 30
0.0
 11
13.9970207169
 21
6.5913520746
 31
0.0
  0
LINE
  5
276
330
1F
100
AcDbEntity
  8
0
  6
HIDDEN
 62
     7
 48
1.75
370
     0
100
AcDbLine
 10
13.9970207169
 20
6.3945017219
 30
0.0
 11
14.3338956387
 21
6.3945017219
 31
0.0
  0
LINE
  5
277
330
1F
100
AcDbEntity
  8
0
  6
HIDDEN
 62
     7
 48
1.75
370
     0
100
AcDbLine
 10
13.8789105347
 20
11.6897771905
 30
0.0
 11
13.8395403762
 21
11.6897771905
 31
0.0
  0
LINE
  5
278
330
1F
100
AcDbEntity
  8
0
  6
HIDDEN
 62
     7
 48
1.75
370
     0
100
AcDbLine
 10
13.8395403762
 20
11.2960764852
 30
0.0
 11
13.8789105347
 21
11.2960764852
 31
0.0
  0
LINE
  5
279
330
1F
100
AcDbEntity
  8
0
  6
HIDDEN
 62
     7
 48
1.75
370
     0
100
AcDbLine
 10
14.4694615926
 20
11.630722246
 30
0.0
 11
13.8789105347
 21
11.630722246
 31
0.0
  0
LINE
  5
27A
330
1F
100
AcDbEntity
  8
0
  6
HIDDEN
 62
     7
 48
1.75
370
     0
100
AcDbLine
 10
13.8789105347
 20
11.3551315763
 30
0.0
 11
14.4694615926
 21
11.3551315763
 31
0.0
  0
LINE
  5
27B
330
1F
100
AcDbEntity
  8
0
  6
HIDDEN
 62
     7
 48
1.75
370
     0
100
AcDbLine
 10
13.9970207169
 20
11.6109268747
 30
0.0
 11
13.8395403762
 21
11.6109268747
 31
0.0
  0
LINE
  5
27C
330
1F
100
AcDbEntity
  8
0
  6
HIDDEN
 62
     7
 48
1.75
370
     0
100
AcDbLine
 10
13.8395403762
 20
11.3749269476
 30
0.0
 11
13.9970207169
 21
11.3749269476
 31
0.0
  0
LINE
  5
27D
330
1F
100
AcDbEntity
  8
0
  6
HIDDEN
 62
     7
 48
1.75
370
     0
100
AcDbLine
 10
14.3338956387
 20
11.5913520875
 30
0.0
 11
13.9970207169
 21
11.5913520875
 31
0.0
  0
LINE
  5
27E
330
1F
100
AcDbEntity
  8
0
  6
HIDDEN
 62
     7
 48
1.75
370
     0
100
AcDbLine
 10
13.9970207169
 20
11.3945017348
 30
0.0
 11
14.3338956387
 21
11.3945017348
 31
0.0
  0
LINE
  5
27F
330
1F
100
AcDbEntity
  8
0
  6
HIDDEN
 62
     7
 48
1.75
370
     0
100
AcDbLine
 10
14.3338956387
 20
11.3945017348
 30
0.0
 11
14.3907214222
 21
11.4929269845
 31
0.0
  0
LINE
  5
280
330
1F
100
AcDbEntity
  8
0
  6
HIDDEN
 62
     7
 48
1.75
370
     0
100
AcDbLine
 10
14.3907214222
 20
11.4929269845
 30
0.0
 11
14.3338956387
 21
11.5913520875
 31
0.0
  0
LINE
  5
281
330
1F
100
AcDbEntity
  8
0
  6
HIDDEN
 62
     7
 48
1.75
370
     0
100
AcDbLine
 10
16.7069104446
 20
6.0084270086
 30
0.0
 11
16.6289104465
 21
6.0084270086
 31
0.0
  0
LINE
  5
282
330
1F
100
AcDbEntity
  8
0
  6
HIDDEN
 62
     7
 48
1.75
370
     0
100
AcDbLine
 10
16.6289104465
 20
5.7274268947
 30
0.0
 11
16.7069104446
 21
5.7274268947
 31
0.0
  0
LINE
  5
283
330
1F
100
AcDbEntity
  8
0
  6
HIDDEN
 62
     7
 48
1.75
370
     0
100
AcDbLine
 10
16.7069104446
 20
12.2584269147
 30
0.0
 11
16.6289104465
 21
12.2584269147
 31
0.0
  0
LINE
  5
284
330
1F
100
AcDbEntity
  8
0
  6
HIDDEN
 62
     7
 48
1.75
370
     0
100
AcDbLine
 10
16.6289104465
 20
11.9774268008
 30
0.0
 11
16.7069104446
 21
11.9774268008
 31
0.0
  0
DIMENSION
  5
285
330
1F
100
AcDbEntity
  8
0
  6
Continuous
 62
     7
 48
1.75
370
     0
100
AcDbDimension
  2
*D13
 10
13.8789104465
 20
13.0569032826
 30
0.0
 11
15.2539104465
 21
13.0569032826
 31
0.0
 70
   160
 71
     2
 42
-1.0
  3
SLDDIMSTYLE0
100
AcDbAlignedDimension
 13
16.6289104465
 23
12.3679269047
 33
0.0
 14
13.8789104465
 24
11.8989269047
 34
0.0
 50
0.0
100
AcDbRotatedDimension
  0
INSERT
  5
29D
102
{ACAD_REACTORS
330
29E
102
}
330
1F
100
AcDbEntity
  8
0
  6
Continuous
 62
     7
 48
1.75
370
     0
100
AcDbBlockReference
  2
SW_NOTE_5
 10
15.0239095208
 20
4.3948755686
 30
0.0
  0
LEADER
  5
29E
330
1F
100
AcDbEntity
  8
0
  6
Continuous
 62
     7
 48
1.75
370
     0
100
AcDbLeader
  3
SLDDIMSTYLE4
 73
     2
 76
     3
 10
13.8362455508
 20
6.0859269047
 30
0.0
 10
14.5864095208
 20
4.3948755686
 30
0.0
 10
15.0239095208
 20
4.3948755686
 30
0.0
340
29D
  0
LINE
  5
29F
330
1F
100
AcDbEntity
  8
0
  6
Continuous
 62
     7
 48
1.75
370
    15
100
AcDbLine
 10
22.287186218
 20
11.8999269761
 30
0.0
 11
22.287186218
 21
11.9149269895
 31
0.0
  0
LINE
  5
2A0
330
1F
100
AcDbEntity
  8
0
  6
Continuous
 62
     7
 48
1.75
370
    15
100
AcDbLine
 10
22.2721862046
 20
11.9149269895
 30
0.0
 11
22.287186218
 21
11.9149269895
 31
0.0
  0
ARC
  5
2A1
330
1F
100
AcDbEntity
  8
0
  6
Continuous
 62
     7
 48
3.0625
370
    15
100
AcDbCircle
 10
22.2721861731
 20
11.8999269047
 30
0.0
 40
0.093
100
AcDbArc
 50
0.0
 51
90.0
  0
LINE
  5
2A2
330
1F
100
AcDbEntity
  8
0
  6
Continuous
 62
     7
 48
1.75
370
    15
100
AcDbLine
 10
22.3651861703
 20
11.8999269761
 30
0.0
 11
22.3651861703
 21
6.0859268333
 31
0.0
  0
LINE
  5
2A3
330
1F
100
AcDbEntity
  8
0
  6
Continuous
 62
     7
 48
1.75
370
    15
100
AcDbLine
 10
22.287186218
 20
11.8999269761
 30
0.0
 11
22.287186218
 21
6.0859268333
 31
0.0
  0
LINE
  5
2A4
330
1F
100
AcDbEntity
  8
0
  6
Continuous
 62
     7
 48
1.75
370
    15
100
AcDbLine
 10
18.9581861416
 20
11.9929269418
 30
0.0
 11
19.1151861545
 21
11.9929269418
 31
0.0
  0
LINE
  5
2A5
330
1F
100
AcDbEntity
  8
0
  6
Continuous
 62
     7
 48
1.75
370
    15
100
AcDbLine
 10
19.3715235266
 20
11.9929269418
 30
0.0
 11
19.4838488757
 21
11.9929269418
 31
0.0
  0
LINE
  5
2A6
330
1F
100
AcDbEntity
  8
0
  6
Continuous
 62
     7
 48
1.75
370
    15
100
AcDbLine
 10
21.7465234704
 20
11.9929269418
 30
0.0
 11
21.8588488195
 21
11.9929269418
 31
0.0
  0
LINE
  5
2A7
330
1F
100
AcDbEntity
  8
0
  6
Continuous
 62
     7
 48
1.75
370
    15
100
AcDbLine
 10
22.1151861916
 20
11.9929269418
 30
0.0
 11
22.2721862046
 21
11.9929269418
 31
0.0
  0
LINE
  5
2A8
330
1F
100
AcDbEntity
  8
0
  6
Continuous
 62
     7
 48
1.75
370
    15
100
AcDbLine
 10
18.9581861416
 20
11.9149269895
 30
0.0
 11
19.1151861545
 21
11.9149269895
 31
0.0
  0
LINE
  5
2A9
330
1F
100
AcDbEntity
  8
0
  6
Continuous
 62
     7
 48
1.75
370
    15
100
AcDbLine
 10
22.1151861916
 20
11.9149269895
 30
0.0
 11
22.2721862046
 21
11.9149269895
 31
0.0
  0
LINE
  5
2AA
330
1F
100
AcDbEntity
  8
0
  6
Continuous
 62
     7
 48
1.75
370
    15
100
AcDbLine
 10
22.2721862046
 20
6.0709268199
 30
0.0
 11
22.287186218
 21
6.0709268199
 31
0.0
  0
LINE
  5
2AB
330
1F
100
AcDbEntity
  8
0
  6
Continuous
 62
     7
 48
1.75
370
    15
100
AcDbLine
 10
22.287186218
 20
6.0859268333
 30
0.0
 11
22.287186218
 21
6.0709268199
 31
0.0
  0
ARC
  5
2AC
330
1F
100
AcDbEntity
  8
0
  6
Continuous
 62
     7
 48
3.0625
370
    15
100
AcDbCircle
 10
22.2721861731
 20
6.0859269047
 30
0.0
 40
0.093
100
AcDbArc
 50
270.0
 51
0.0
  0
LINE
  5
2AD
330
1F
100
AcDbEntity
  8
0
  6
Continuous
 62
     7
 48
1.75
370
    15
100
AcDbLine
 10
22.2721862046
 20
5.9929268676
 30
0.0
 11
22.1151861916
 21
5.9929268676
 31
0.0
  0
LINE
  5
2AE
330
1F
100
AcDbEntity
  8
0
  6
Continuous
 62
     7
 48
1.75
370
    15
100
AcDbLine
 10
21.8588488195
 20
5.9929268676
 30
0.0
 11
21.7465234704
 21
5.9929268676
 31
0.0
  0
LINE
  5
2AF
330
1F
100
AcDbEntity
  8
0
  6
Continuous
 62
     7
 48
1.75
370
    15
100
AcDbLine
 10
19.4838488757
 20
5.9929268676
 30
0.0
 11
19.3715235266
 21
5.9929268676
 31
0.0
  0
LINE
  5
2B0
330
1F
100
AcDbEntity
  8
0
  6
Continuous
 62
     7
 48
1.75
370
    15
100
AcDbLine
 10
19.1151861545
 20
5.9929268676
 30
0.0
 11
18.9581861416
 21
5.9929268676
 31
0.0
  0
LINE
  5
2B1
330
1F
100
AcDbEntity
  8
0
  6
Continuous
 62
     7
 48
1.75
370
    15
100
AcDbLine
 10
22.2721862046
 20
6.0709268199
 30
0.0
 11
22.1151861916
 21
6.0709268199
 31
0.0
  0
LINE
  5
2B2
330
1F
100
AcDbEntity
  8
0
  6
Continuous
 62
     7
 48
1.75
370
    15
100
AcDbLine
 10
19.1151861545
 20
6.0709268199
 30
0.0
 11
18.9581861416
 21
6.0709268199
 31
0.0
  0
LINE
  5
2B3
330
1F
100
AcDbEntity
  8
0
  6
Continuous
 62
     7
 48
1.75
370
    15
100
AcDbLine
 10
18.9581861416
 20
11.9149269895
 30
0.0
 11
18.9431861282
 21
11.9149269895
 31
0.0
  0
LINE
  5
2B4
330
1F
100
AcDbEntity
  8
0
  6
Continuous
 62
     7
 48
1.75
370
    15
100
AcDbLine
 10
18.9431861282
 20
11.8999269761
 30
0.0
 11
18.9431861282
 21
11.9149269895
 31
0.0
  0
ARC
  5
2B5
330
1F
100
AcDbEntity
  8
0
  6
Continuous
 62
     7
 48
3.0625
370
    15
100
AcDbCircle
 10
18.9581861731
 20
11.8999269047
 30
0.0
 40
0.093
100
AcDbArc
 50
90.0
 51
180.0
  0
LINE
  5
2B6
330
1F
100
AcDbEntity
  8
0
  6
Continuous
 62
     7
 48
1.75
370
    15
100
AcDbLine
 10
18.8651861759
 20
6.0859268333
 30
0.0
 11
18.8651861759
 21
11.8999269761
 31
0.0
  0
LINE
  5
2B7
330
1F
100
AcDbEntity
  8
0
  6
Continuous
 62
     7
 48
1.75
370
    15
100
AcDbLine
 10
18.9431861282
 20
6.0859268333
 30
0.0
 11
18.9431861282
 21
11.8999269761
 31
0.0
  0
LINE
  5
2B8
330
1F
100
AcDbEntity
  8
0
  6
Continuous
 62
     7
 48
1.75
370
    15
100
AcDbLine
 10
18.9431861282
 20
6.0859268333
 30
0.0
 11
18.9431861282
 21
6.0709268199
 31
0.0
  0
LINE
  5
2B9
330
1F
100
AcDbEntity
  8
0
  6
Continuous
 62
     7
 48
1.75
370
    15
100
AcDbLine
 10
18.9581861416
 20
6.0709268199
 30
0.0
 11
18.9431861282
 21
6.0709268199
 31
0.0
  0
ARC
  5
2BA
330
1F
100
AcDbEntity
  8
0
  6
Continuous
 62
     7
 48
3.0625
370
    15
100
AcDbCircle
 10
18.9581861731
 20
6.0859269047
 30
0.0
 40
0.093
100
AcDbArc
 50
180.0
 51
270.0
  0
LWPOLYLINE
  5
2BB
330
1F
100
AcDbEntity
  8
0
  6
Continuous
 62
     7
 48
1.75
370
    15
100
AcDbPolyline
 90
       10
 70
   128
 43
0.0
 10
22.287186218
 20
11.9149269895
 10
22.2869583006
 20
11.9146990721
 10
22.2862815884
 20
11.91402236
 10
22.2851766145
 20
11.9129173861
 10
22.2836768185
 20
11.91141759
 10
22.2818279599
 20
11.9095687314
 10
22.2796862113
 20
11.9074268361
 10
22.2773165453
 20
11.9050573169
 10
22.2747908278
 20
11.902531746
 10
22.2721862046
 20
11.8999269761
  0
LWPOLYLINE
  5
2BC
330
1F
100
AcDbEntity
  8
0
  6
Continuous
 62
     7
 48
1.75
370
    15
100
AcDbPolyline
 90
       10
 70
   128
 43
0.0
 10
22.2721862046
 20
6.0859268333
 10
22.2747908278
 20
6.0833220634
 10
22.2773165453
 20
6.0807964925
 10
22.2796862113
 20
6.0784269732
 10
22.2818279599
 20
6.076285078
 10
22.2836768185
 20
6.0744362193
 10
22.2851766145
 20
6.0729364233
 10
22.2862815884
 20
6.0718314494
 10
22.2869583006
 20
6.0711547373
 10
22.287186218
 20
6.0709268199
  0
LWPOLYLINE
  5
2BD
330
1F
100
AcDbEntity
  8
0
  6
Continuous
 62
     7
 48
1.75
370
    15
100
AcDbPolyline
 90
        9
 70
   128
 43
0.0
 10
18.9581861416
 20
11.8999269761
 10
18.955259882
 20
11.9028532356
 10
18.9524459679
 20
11.9056671498
 10
18.9498526378
 20
11.9082604798
 10
18.9475796241
 20
11.9105334936
 10
18.9457141923
 20
11.912399072
 10
18.944327915
 20
11.913785056
 10
18.9434743248
 20
11.9146386462
 10
18.9431861282
 20
11.9149269895
  0
LWPOLYLINE
  5
2BE
330
1F
100
AcDbEntity
  8
0
  6
Continuous
 62
     7
 48
1.75
370
    15
100
AcDbPolyline
 90
       10
 70
   128
 43
0.0
 10
18.9431861282
 20
6.0709268199
 10
18.9434140455
 20
6.0711547373
 10
18.9440907577
 20
6.0718314494
 10
18.9451957316
 20
6.0729364233
 10
18.9466955276
 20
6.0744362193
 10
18.9485443863
 20
6.076285078
 10
18.9506861349
 20
6.0784269732
 10
18.9530558008
 20
6.0807964925
 10
18.9555815183
 20
6.0833220634
 10
18.9581861416
 20
6.0859268333
  0
LINE
  5
2BF
330
1F
100
AcDbEntity
  8
0
  6
Continuous
 62
     7
 48
1.75
370
    15
100
AcDbLine
 10
22.2401861076
 20
6.2109270426
 30
0.0
 11
22.2401861076
 21
11.7749267668
 31
0.0
  0
ARC
  5
2C0
330
1F
100
AcDbEntity
  8
0
  6
Continuous
 62
     7
 48
3.0625
370
    15
100
AcDbCircle
 10
22.1471861731
 20
11.7749269047
 30
0.0
 40
0.093
100
AcDbArc
 50
0.0
 51
90.0
  0
ARC
  5
2C1
330
1F
100
AcDbEntity
  8
0
  6
Continuous
 62
     7
 48
3.0625
370
    15
100
AcDbCircle
 10
22.1471861731
 20
6.2109269047
 30
0.0
 40
0.093
100
AcDbArc
 50
270.0
 51
0.0
  0
LINE
  5
2C2
330
1F
100
AcDbEntity
  8
0
  6
Continuous
 62
     7
 48
1.75
370
    15
100
AcDbLine
 10
22.147186142
 20
11.8679270258
 30
0.0
 11
22.1151861916
 21
11.8679270258
 31
0.0
  0
LINE
  5
2C3
330
1F
100
AcDbEntity
  8
0
  6
Continuous
 62
     7
 48
1.75
370
    15
100
AcDbLine
 10
19.1151861545
 20
11.8679270258
 30
0.0
 11
19.0831862042
 21
11.8679270258
 31
0.0
  0
LINE
  5
2C4
330
1F
100
AcDbEntity
  8
0
  6
Continuous
 62
     7
 48
1.75
370
    15
100
AcDbLine
 10
19.0831862042
 20
6.1179267836
 30
0.0
 11
19.1151861545
 21
6.1179267836
 31
0.0
  0
LINE
  5
2C5
330
1F
100
AcDbEntity
  8
0
  6
Continuous
 62
     7
 48
1.75
370
    15
100
AcDbLine
 10
22.1151861916
 20
6.1179267836
 30
0.0
 11
22.147186142
 21
6.1179267836
 31
0.0
  0
ARC
  5
2C6
330
1F
100
AcDbEntity
  8
0
  6
Continuous
 62
     7
 48
3.0625
370
    15
100
AcDbCircle
 10
19.0831861731
 20
6.2109269047
 30
0.0
 40
0.093
100
AcDbArc
 50
180.0
 51
270.0
  0
LINE
  5
2C7
330
1F
100
AcDbEntity
  8
0
  6
Continuous
 62
     7
 48
1.75
370
    15
100
AcDbLine
 10
18.9901862385
 20
11.7749267668
 30
0.0
 11
18.9901862385
 21
6.2109270426
 31
0.0
  0
ARC
  5
2C8
330
1F
100
AcDbEntity
  8
0
  6
Continuous
 62
     7
 48
3.0625
370
    15
100
AcDbCircle
 10
19.0831861731
 20
11.7749269047
 30
0.0
 40
0.093
100
AcDbArc
 50
90.0
 51
180.0
  0
LINE
  5
2C9
330
1F
100
AcDbEntity
  8
0
  6
Continuous
 62
     7
 48
1.75
370
    15
100
AcDbLine
 10
22.2711862428
 20
11.8989270143
 30
0.0
 11
22.1151861916
 21
11.8989270143
 31
0.0
  0
LINE
  5
2CA
330
1F
100
AcDbEntity
  8
0
  6
Continuous
 62
     7
 48
1.75
370
    15
100
AcDbLine
 10
19.1151861545
 20
11.8989270143
 30
0.0
 11
18.9591861033
 21
11.8989270143
 31
0.0
  0
LINE
  5
2CB
330
1F
100
AcDbEntity
  8
0
  6
Continuous
 62
     7
 48
1.75
370
    15
100
AcDbLine
 10
22.2711862428
 20
6.0869267951
 30
0.0
 11
22.1151861916
 21
6.0869267951
 31
0.0
  0
LINE
  5
2CC
330
1F
100
AcDbEntity
  8
0
  6
Continuous
 62
     7
 48
1.75
370
    15
100
AcDbLine
 10
19.1151861545
 20
6.0869267951
 30
0.0
 11
18.9591861033
 21
6.0869267951
 31
0.0
  0
LINE
  5
2CD
330
1F
100
AcDbEntity
  8
0
  6
Continuous
 62
     7
 48
1.75
370
    15
100
AcDbLine
 10
18.9591861033
 20
11.8989270143
 30
0.0
 11
18.9591861033
 21
6.0869267951
 31
0.0
  0
LINE
  5
2CE
330
1F
100
AcDbEntity
  8
0
  6
Continuous
 62
     7
 48
1.75
370
    15
100
AcDbLine
 10
22.2711862428
 20
11.8989270143
 30
0.0
 11
22.2711862428
 21
6.0869267951
 31
0.0
  0
LINE
  5
2CF
330
1F
100
AcDbEntity
  8
0
  6
Continuous
 62
     7
 48
1.75
370
    15
100
AcDbLine
 10
21.6931861866
 20
5.8989269402
 30
0.0
 11
21.6931861866
 21
5.8369269631
 31
0.0
  0
ARC
  5
2D0
330
1F
100
AcDbEntity
  8
0
  6
Continuous
 62
     7
 48
3.0625
370
    15
100
AcDbCircle
 10
21.8026861731
 20
5.8369269047
 30
0.0
 40
0.1095000000000006
100
AcDbArc
 50
180.0
 51
0.0
  0
LINE
  5
2D1
330
1F
100
AcDbEntity
  8
0
  6
Continuous
 62
     7
 48
1.75
370
    15
100
AcDbLine
 10
21.9121861767
 20
5.8369269631
 30
0.0
 11
21.9121861767
 21
5.8989269402
 31
0.0
  0
ARC
  5
2D2
330
1F
100
AcDbEntity
  8
0
  6
Continuous
 62
     7
 48
3.0625
370
    15
100
AcDbCircle
 10
21.8026861731
 20
5.8989269047
 30
0.0
 40
0.1095000000000006
100
AcDbArc
 50
0.0
 51
180.0
  0
ARC
  5
2D3
330
1F
100
AcDbEntity
  8
0
  6
Continuous
 62
     7
 48
3.0625
370
    15
100
AcDbCircle
 10
19.3651861731
 20
5.8679269047
 30
0.0
 40
0.25
100
AcDbArc
 50
180.0
 51
270.0
  0
LINE
  5
2D4
330
1F
100
AcDbEntity
  8
0
  6
Continuous
 62
     7
 48
1.75
370
    15
100
AcDbLine
 10
19.1151861545
 20
5.8679269516
 30
0.0
 11
19.1151861545
 21
7.1179268449
 31
0.0
  0
LINE
  5
2D5
330
1F
100
AcDbEntity
  8
0
  6
Continuous
 62
     7
 48
1.75
370
    15
100
AcDbLine
 10
21.865186213
 20
5.6179268263
 30
0.0
 11
19.3651861332
 21
5.6179268263
 31
0.0
  0
LINE
  5
2D6
330
1F
100
AcDbEntity
  8
0
  6
Continuous
 62
     7
 48
1.75
370
    15
100
AcDbLine
 10
19.3181861695
 20
5.8369269631
 30
0.0
 11
19.3181861695
 21
5.8989269402
 31
0.0
  0
ARC
  5
2D7
330
1F
100
AcDbEntity
  8
0
  6
Continuous
 62
     7
 48
3.0625
370
    15
100
AcDbCircle
 10
19.4276861731
 20
5.8369269047
 30
0.0
 40
0.1095000000000006
100
AcDbArc
 50
180.0
 51
0.0
  0
LINE
  5
2D8
330
1F
100
AcDbEntity
  8
0
  6
Continuous
 62
     7
 48
1.75
370
    15
100
AcDbLine
 10
19.5371861596
 20
5.8989269402
 30
0.0
 11
19.5371861596
 21
5.8369269631
 31
0.0
  0
ARC
  5
2D9
330
1F
100
AcDbEntity
  8
0
  6
Continuous
 62
     7
 48
3.0625
370
    15
100
AcDbCircle
 10
19.4276861731
 20
5.8989269047
 30
0.0
 40
0.1095000000000006
100
AcDbArc
 50
0.0
 51
180.0
  0
ARC
  5
2DA
330
1F
100
AcDbEntity
  8
0
  6
Continuous
 62
     7
 48
3.0625
370
    15
100
AcDbCircle
 10
21.8651861731
 20
5.8679269047
 30
0.0
 40
0.25
100
AcDbArc
 50
270.0
 51
0.0
  0
LINE
  5
2DB
330
1F
100
AcDbEntity
  8
0
  6
Continuous
 62
     7
 48
1.75
370
    15
100
AcDbLine
 10
19.1151861545
 20
7.1179268449
 30
0.0
 11
22.1151861916
 21
7.1179268449
 31
0.0
  0
LINE
  5
2DC
330
1F
100
AcDbEntity
  8
0
  6
Continuous
 62
     7
 48
1.75
370
    15
100
AcDbLine
 10
22.1151861916
 20
5.8679269516
 30
0.0
 11
22.1151861916
 21
7.1179268449
 31
0.0
  0
LINE
  5
2DD
330
1F
100
AcDbEntity
  8
0
  6
Continuous
 62
     7
 48
1.75
370
    15
100
AcDbLine
 10
19.5371861596
 20
12.0869268692
 30
0.0
 11
19.5371861596
 21
12.1489268463
 31
0.0
  0
ARC
  5
2DE
330
1F
100
AcDbEntity
  8
0
  6
Continuous
 62
     7
 48
3.0625
370
    15
100
AcDbCircle
 10
19.4276861731
 20
12.1489269047
 30
0.0
 40
0.1095000000000006
100
AcDbArc
 50
0.0
 51
180.0
  0
LINE
  5
2DF
330
1F
100
AcDbEntity
  8
0
  6
Continuous
 62
     7
 48
1.75
370
    15
100
AcDbLine
 10
19.3181861695
 20
12.1489268463
 30
0.0
 11
19.3181861695
 21
12.0869268692
 31
0.0
  0
ARC
  5
2E0
330
1F
100
AcDbEntity
  8
0
  6
Continuous
 62
     7
 48
3.0625
370
    15
100
AcDbCircle
 10
19.4276861731
 20
12.0869269047
 30
0.0
 40
0.1095000000000006
100
AcDbArc
 50
180.0
 51
0.0
  0
LINE
  5
2E1
330
1F
100
AcDbEntity
  8
0
  6
Continuous
 62
     7
 48
1.75
370
    15
100
AcDbLine
 10
22.1151861916
 20
10.8679269645
 30
0.0
 11
19.1151861545
 21
10.8679269645
 31
0.0
  0
LINE
  5
2E2
330
1F
100
AcDbEntity
  8
0
  6
Continuous
 62
     7
 48
1.75
370
    15
100
AcDbLine
 10
19.1151861545
 20
12.1179268578
 30
0.0
 11
19.1151861545
 21
10.8679269645
 31
0.0
  0
ARC
  5
2E3
330
1F
100
AcDbEntity
  8
0
  6
Continuous
 62
     7
 48
3.0625
370
    15
100
AcDbCircle
 10
19.3651861731
 20
12.1179269047
 30
0.0
 40
0.25
100
AcDbArc
 50
90.0
 51
180.0
  0
LINE
  5
2E4
330
1F
100
AcDbEntity
  8
0
  6
Continuous
 62
     7
 48
1.75
370
    15
100
AcDbLine
 10
19.3651861332
 20
12.3679269831
 30
0.0
 11
21.865186213
 21
12.3679269831
 31
0.0
  0
LINE
  5
2E5
330
1F
100
AcDbEntity
  8
0
  6
Continuous
 62
     7
 48
1.75
370
    15
100
AcDbLine
 10
21.9121861767
 20
12.1489268463
 30
0.0
 11
21.9121861767
 21
12.0869268692
 31
0.0
  0
ARC
  5
2E6
330
1F
100
AcDbEntity
  8
0
  6
Continuous
 62
     7
 48
3.0625
370
    15
100
AcDbCircle
 10
21.8026861731
 20
12.1489269047
 30
0.0
 40
0.1095000000000006
100
AcDbArc
 50
0.0
 51
180.0
  0
LINE
  5
2E7
330
1F
100
AcDbEntity
  8
0
  6
Continuous
 62
     7
 48
1.75
370
    15
100
AcDbLine
 10
21.6931861866
 20
12.0869268692
 30
0.0
 11
21.6931861866
 21
12.1489268463
 31
0.0
  0
ARC
  5
2E8
330
1F
100
AcDbEntity
  8
0
  6
Continuous
 62
     7
 48
3.0625
370
    15
100
AcDbCircle
 10
21.8026861731
 20
12.0869269047
 30
0.0
 40
0.1095000000000006
100
AcDbArc
 50
180.0
 51
0.0
  0
ARC
  5
2E9
330
1F
100
AcDbEntity
  8
0
  6
Continuous
 62
     7
 48
3.0625
370
    15
100
AcDbCircle
 10
21.8651861731
 20
12.1179269047
 30
0.0
 40
0.25
100
AcDbArc
 50
0.0
 51
90.0
  0
LINE
  5
2EA
330
1F
100
AcDbEntity
  8
0
  6
Continuous
 62
     7
 48
1.75
370
    15
100
AcDbLine
 10
22.1151861916
 20
12.1179268578
 30
0.0
 11
22.1151861916
 21
10.8679269645
 31
0.0
  0
DIMENSION
  5
2EB
330
1F
100
AcDbEntity
  8
0
  6
Continuous
 62
     7
 48
1.75
370
     0
100
AcDbDimension
  2
*D15
 10
21.8026861731
 20
4.9857823981
 30
0.0
 11
20.6654003512
 21
4.9857823981
 31
0.0
 70
   160
 71
     2
 42
-1.0
  3
SLDDIMSTYLE0
100
AcDbAlignedDimension
 13
19.4276861731
 23
5.8369269047
 33
0.0
 14
21.8026861731
 24
5.8369269047
 34
0.0
100
AcDbRotatedDimension
  0
DIMENSION
  5
2FD
330
1F
100
AcDbEntity
  8
0
  6
Continuous
 62
     7
 48
1.75
370
     0
100
AcDbDimension
  2
*D16
 10
18.1762097951
 20
5.6179269047
 30
0.0
 11
18.1762097951
 21
8.9929269047
 31
0.0
 70
   160
 71
     2
 42
-1.0
  3
SLDDIMSTYLE0
100
AcDbAlignedDimension
 13
19.3651861731
 23
12.3679269047
 33
0.0
 14
19.3651861731
 24
5.6179269047
 34
0.0
 50
90.0
100
AcDbRotatedDimension
  0
DIMENSION
  5
30F
330
1F
100
AcDbEntity
  8
0
  6
Continuous
 62
     7
 48
1.75
370
     0
100
AcDbDimension
  2
*D17
 10
22.1151861731
 20
13.0569032826
 30
0.0
 11
20.6151861731
 21
13.0569032826
 31
0.0
 70
   160
 71
     2
 42
-1.0
  3
SLDDIMSTYLE5
100
AcDbAlignedDimension
 13
19.1151861731
 23
12.1179269047
 33
0.0
 14
22.1151861731
 24
12.1179269047
 34
0.0
100
AcDbRotatedDimension
  0
MTEXT
  5
322
330
1F
100
AcDbEntity
  8
0
  6
Continuous
 62
     7
 48
1.75
370
     0
100
AcDbMText
 10
22.8496789113
 20
5.0367723305
 30
0.0
 40
0.21875
 41
0.0
 71
     1
 72
     1
  1
.22 [5.6] x .28 [7.1] OBLONG
  7
SLDTEXTSTYLE0
 73
     1
 44
1.0
  0
LEADER
  5
323
330
1F
100
AcDbEntity
  8
0
  6
Continuous
 62
     7
 48
1.75
370
     0
100
AcDbLeader
  3
SLDDIMSTYLE4
 76
     3
 10
21.8853366355
 20
5.765099674
 30
0.0
 10
22.3776435617
 20
4.9306868271
 30
0.0
 10
22.8151435617
 20
4.9306868271
 30
0.0
  0
ARC
  5
324
330
1F
100
AcDbEntity
  8
0
  6
Continuous
 62
     7
 48
3.0625
370
    15
100
AcDbCircle
 10
23.9600730432
 20
15.9903847613
 30
0.0
 40
0.0930000000000029
100
AcDbArc
 50
119.4125210371
 51
179.8131694679
  0
LINE
  5
325
330
1F
100
AcDbEntity
  8
0
  6
Continuous
 62
     7
 48
1.75
370
    15
100
AcDbLine
 10
23.867073474
 20
15.9906880396
 30
0.0
 11
23.8515234731
 21
11.2219478565
 31
0.0
  0
LINE
  5
326
330
1F
100
AcDbEntity
  8
0
  6
Continuous
 62
     7
 48
1.75
370
    15
100
AcDbLine
 10
24.2037306488
 20
16.2345097882
 30
0.0
 11
23.9144013518
 21
16.0713977946
 31
0.0
  0
ARC
  5
327
330
1F
100
AcDbEntity
  8
0
  6
Continuous
 62
     7
 48
3.0625
370
    15
100
AcDbCircle
 10
26.275276266
 20
9.868856454
 30
0.0
 40
0.0929999999999998
100
AcDbArc
 50
239.8687698654
 51
299.4125210371
  0
LINE
  5
328
330
1F
100
AcDbEntity
  8
0
  6
Continuous
 62
     7
 48
1.75
370
    15
100
AcDbLine
 10
26.3209481141
 20
9.7878435089
 30
0.0
 11
26.6102774111
 21
9.9509555025
 31
0.0
  0
LINE
  5
329
330
1F
100
AcDbEntity
  8
0
  6
Continuous
 62
     7
 48
1.75
370
    15
100
AcDbLine
 10
23.89783874
 20
11.1412111116
 30
0.0
 11
26.2285920076
 21
9.7884228446
 31
0.0
  0
ARC
  5
32A
330
1F
100
AcDbEntity
  8
0
  6
Continuous
 62
     7
 48
3.0625
370
    15
100
AcDbCircle
 10
23.9445230427
 20
11.2216446953
 30
0.0
 40
0.0929999999999994
100
AcDbArc
 50
179.8131694679
 51
239.8687698654
  0
ARC
  5
32B
330
1F
100
AcDbEntity
  8
0
  6
Continuous
 62
     7
 48
3.0625
370
    15
100
AcDbCircle
 10
28.1518201646
 20
15.6849972866
 30
0.0
 40
0.0929999999999994
100
AcDbArc
 50
359.8131694679
 51
59.8687698654
  0
LINE
  5
32C
330
1F
100
AcDbEntity
  8
0
  6
Continuous
 62
     7
 48
1.75
370
    15
100
AcDbLine
 10
28.229938271
 20
11.1210082861
 30
0.0
 11
28.2448196261
 21
15.6846939435
 31
0.0
  0
LINE
  5
32D
330
1F
100
AcDbEntity
  8
0
  6
Continuous
 62
     7
 48
1.75
370
    15
100
AcDbLine
 10
28.1985044904
 20
15.7654310024
 30
0.0
 11
26.043577595
 21
17.0161682043
 31
0.0
  0
LINE
  5
32E
330
1F
100
AcDbEntity
  8
0
  6
Continuous
 62
     7
 48
1.75
370
    15
100
AcDbLine
 10
25.9512214976
 20
17.0167473049
 30
0.0
 11
24.4002455194
 21
16.1423706467
 31
0.0
  0
LINE
  5
32F
330
1F
100
AcDbEntity
  8
0
  6
Continuous
 62
     7
 48
1.75
370
    15
100
AcDbLine
 10
26.6305716077
 20
10.1653227058
 30
0.0
 11
28.1826105333
 21
11.0402986101
 31
0.0
  0
ARC
  5
330
330
1F
100
AcDbEntity
  8
0
  6
Continuous
 62
     7
 48
3.0625
370
    15
100
AcDbCircle
 10
25.9968932255
 20
16.9357345139
 30
0.0
 40
0.0930000000000012
100
AcDbArc
 50
59.8687698654
 51
119.4125210371
  0
ARC
  5
331
330
1F
100
AcDbEntity
  8
0
  6
Continuous
 62
     7
 48
3.0625
370
    15
100
AcDbCircle
 10
28.1369388087
 20
11.121311403
 30
0.0
 40
0.0930000000000029
100
AcDbArc
 50
299.4125210371
 51
359.8131694679
  0
SPLINE
  5
332
330
1F
100
AcDbEntity
  8
0
  6
Continuous
 62
     7
 48
1.75
370
    15
100
AcDbSpline
210
0.0
220
0.0
230
1.0
 70
     8
 71
     3
 72
    14
 73
    10
 74
     0
 42
0.00000001
 43
0.00000001
 40
0.0
 40
0.0
 40
0.0
 40
0.0
 40
0.1033173063465792
 40
0.2697693949533999
 40
0.4359950513777994
 40
0.6050611294403974
 40
0.7778739813686205
 40
0.9530524853312216
 40
0.9999999999999999
 40
0.9999999999999999
 40
0.9999999999999999
 40
0.9999999999999999
 10
25.78762162088961
 20
14.63310140471603
 30
0.0
 10
25.78243309237774
 20
14.6311496702518
 30
0.0
 10
25.76888544729444
 20
14.62605354217661
 30
0.0
 10
25.75113524810562
 20
14.61023419538363
 30
0.0
 10
25.73498795311934
 20
14.58749776228525
 30
0.0
 10
25.72384236519114
 20
14.55946218244605
 30
0.0
 10
25.71827123589582
 20
14.52684084052137
 30
0.0
 10
25.71700133577857
 20
14.49985492869903
 30
0.0
 10
25.71933119847518
 20
14.48350797676979
 30
0.0
 10
25.71982362733965
 20
14.4800529615932
 30
0.0
  0
SPLINE
  5
333
330
1F
100
AcDbEntity
  8
0
  6
Continuous
 62
     7
 48
1.75
370
    15
100
AcDbSpline
210
0.0
220
0.0
230
1.0
 70
     8
 71
     3
 72
     9
 73
     5
 74
     0
 42
0.00000001
 43
0.00000001
 40
0.0
 40
0.0
 40
0.0
 40
0.0
 40
0.3686231873046603
 40
0.9999999999999999
 40
0.9999999999999999
 40
0.9999999999999999
 40
0.9999999999999999
 10
25.87195347862973
 20
14.21706561240883
 30
0.0
 10
25.87415196341538
 20
14.21532902368193
 30
0.0
 10
25.8801160070821
 20
14.21061801041227
 30
0.0
 10
25.88625041494276
 20
14.20709443169578
 30
0.0
 10
25.89012353782559
 20
14.20486972579648
 30
0.0
  0
SPLINE
  5
334
330
1F
100
AcDbEntity
  8
0
  6
Continuous
 62
     7
 48
1.75
370
    15
100
AcDbSpline
210
0.0
220
0.0
230
1.0
 70
     8
 71
     3
 72
    12
 73
     8
 74
     0
 42
0.00000001
 43
0.00000001
 40
0.0
 40
0.0
 40
0.0
 40
0.0
 40
0.1183931938262446
 40
0.3432379802019391
 40
0.5678558072193295
 40
0.7892005151587993
 40
0.9999999999999999
 40
0.9999999999999999
 40
0.9999999999999999
 40
0.9999999999999999
 10
25.89012353782559
 20
14.20486972579648
 30
0.0
 10
25.89567193937564
 20
14.20183343597113
 30
0.0
 10
25.91175751051229
 20
14.19303081858002
 30
0.0
 10
25.93848833121159
 20
14.18346152465747
 30
0.0
 10
25.96917815855767
 20
14.17913870860921
 30
0.0
 10
25.99793945747839
 20
14.18184668526301
 30
0.0
 10
26.01432708151249
 20
14.18977704255606
 30
0.0
 10
26.02232094736067
 20
14.1936454625416
 30
0.0
  0
LINE
  5
335
330
1F
100
AcDbEntity
  8
0
  6
Continuous
 62
     7
 48
1.75
370
    15
100
AcDbLine
 10
25.8039436956
 20
14.6444012737
 30
0.0
 11
25.7755082086
 21
14.6283705122
 31
0.0
  0
LINE
  5
336
330
1F
100
AcDbEntity
  8
0
  6
Continuous
 62
     7
 48
1.75
370
    15
100
AcDbLine
 10
26.0210553113
 20
14.1928171895
 30
0.0
 11
26.0494907983
 21
14.208847951
 31
0.0
  0
SPLINE
  5
337
330
1F
100
AcDbEntity
  8
0
  6
Continuous
 62
     7
 48
1.75
370
    15
100
AcDbSpline
210
0.0
220
0.0
230
1.0
 70
     8
 71
     3
 72
    26
 73
    22
 74
     0
 42
0.00000001
 43
0.00000001
 40
0.0
 40
0.0
 40
0.0
 40
0.0
 40
0.0118980574669336
 40
0.0648462131576198
 40
0.1176737540736573
 40
0.1713607469381466
 40
0.2262473932470614
 40
0.2819168589150368
 40
0.3378378884103376
 40
0.3937008264427454
 40
0.4494711828176792
 40
0.5051823353574991
 40
0.5608878237378682
 40
0.6166391788401981
 40
0.6724914765979781
 40
0.7285081485486159
 40
0.7847339519288207
 40
0.8411397199853465
 40
0.8973587591822219
 40
0.9527168141014399
 40
1.0
 40
1.0
 40
1.0
 40
1.0
 10
26.0457892951054
 20
14.20762705700828
 30
0.0
 10
26.04765870750511
 20
14.20834788922371
 30
0.0
 10
26.05784728789217
 20
14.21227653384678
 30
0.0
 10
26.07276431865692
 20
14.22607746115959
 30
0.0
 10
26.08931358324302
 20
14.24829720322279
 30
0.0
 10
26.10061489299311
 20
14.27616409785053
 30
0.0
 10
26.10680874722746
 20
14.30842833793532
 30
0.0
 10
26.10754527734498
 20
14.34449074537516
 30
0.0
 10
26.10278887338655
 20
14.38313784767102
 30
0.0
 10
26.09271094270581
 20
14.42311157534008
 30
0.0
 10
26.07767213754056
 20
14.46316534025164
 30
0.0
 10
26.05815097936726
 20
14.50211761067438
 30
0.0
 10
26.03473231341315
 20
14.53882435510352
 30
0.0
 10
26.00809587004684
 20
14.57220496514257
 30
0.0
 10
25.9789887554921
 20
14.60126424256089
 30
0.0
 10
25.94819738805141
 20
14.6251226420714
 30
0.0
 10
25.9165391851434
 20
14.64298715631319
 30
0.0
 10
25.88484421873973
 20
14.65423533053737
 30
0.0
 10
25.85422126559837
 20
14.65806554292246
 30
0.0
 10
25.82650163482507
 20
14.65518210724741
 30
0.0
 10
25.81105956783281
 20
14.64746828794469
 30
0.0
 10
25.8039459542557
 20
14.64391480447963
 30
0.0
  0
SPLINE
  5
338
330
1F
100
AcDbEntity
  8
0
  6
Continuous
 62
     7
 48
1.75
370
    15
100
AcDbSpline
210
0.0
220
0.0
230
1.0
 70
     8
 71
     3
 72
    14
 73
    10
 74
     0
 42
0.00000001
 43
0.00000001
 40
0.0
 40
0.0
 40
0.0
 40
0.0
 40
0.1016838058365253
 40
0.2655052601403709
 40
0.4291028992822346
 40
0.5954965719034476
 40
0.7655789429596637
 40
0.937987258754072
 40
1.0
 40
1.0
 40
1.0
 40
1.0
 10
25.77424872738593
 20
10.53201774605463
 30
0.0
 10
25.76906016522416
 20
10.53006607167748
 30
0.0
 10
25.75551237818786
 20
10.52497008014813
 30
0.0
 10
25.73776312234087
 20
10.50915025325827
 30
0.0
 10
25.7216124813404
 20
10.48641520067931
 30
0.0
 10
25.71047919281219
 20
10.45837483774061
 30
0.0
 10
25.70486090011582
 20
10.42577157689892
 30
0.0
 10
25.70368022590734
 20
10.39763420684523
 30
0.0
 10
25.70623393800898
 20
10.38008393744599
 30
0.0
 10
25.70690948605818
 20
10.37544126443362
 30
0.0
  0
SPLINE
  5
339
330
1F
100
AcDbEntity
  8
0
  6
Continuous
 62
     7
 48
1.75
370
    15
100
AcDbSpline
210
0.0
220
0.0
230
1.0
 70
     8
 71
     3
 72
     9
 73
     5
 74
     0
 42
0.00000001
 43
0.00000001
 40
0.0
 40
0.0
 40
0.0
 40
0.0
 40
0.5319471315806675
 40
0.9999999999999999
 40
0.9999999999999999
 40
0.9999999999999999
 40
0.9999999999999999
 10
25.85231556501864
 20
10.12076095904252
 30
0.0
 10
25.85658840919653
 20
10.11733405841025
 30
0.0
 10
25.86462086942466
 20
10.11089187566535
 30
0.0
 10
25.87288336129957
 20
10.10605158095722
 30
0.0
 10
25.87675064432192
 20
10.10378606713509
 30
0.0
  0
SPLINE
  5
33A
330
1F
100
AcDbEntity
  8
0
  6
Continuous
 62
     7
 48
1.75
370
    15
100
AcDbSpline
210
0.0
220
0.0
230
1.0
 70
     8
 71
     3
 72
    12
 73
     8
 74
     0
 42
0.00000001
 43
0.00000001
 40
0.0
 40
0.0
 40
0.0
 40
0.0
 40
0.1183932496990374
 40
0.3432381421847686
 40
0.5678558310542754
 40
0.7892013778037321
 40
1.0
 40
1.0
 40
1.0
 40
1.0
 10
25.87675064432192
 20
10.10378606713509
 30
0.0
 10
25.88229904659314
 20
10.100749775124
 30
0.0
 10
25.89838461982057
 20
10.09194715139616
 30
0.0
 10
25.92511540240158
 20
10.08237794228391
 30
0.0
 10
25.95580536328672
 20
10.07805478398688
 30
0.0
 10
25.98456643031309
 20
10.08076326802957
 30
0.0
 10
26.0009541656133
 20
10.08869339269154
 30
0.0
 10
26.00894805346473
 20
10.09256168358313
 30
0.0
  0
LINE
  5
33B
330
1F
100
AcDbEntity
  8
0
  6
Continuous
 62
     7
 48
1.75
370
    15
100
AcDbLine
 10
25.790570802
 20
10.543317615
 30
0.0
 11
25.7621353151
 21
10.5272868535
 31
0.0
  0
LINE
  5
33C
330
1F
100
AcDbEntity
  8
0
  6
Continuous
 62
     7
 48
1.75
370
    15
100
AcDbLine
 10
26.0076824178
 20
10.0917335308
 30
0.0
 11
26.0361179048
 21
10.1077642924
 31
0.0
  0
SPLINE
  5
33D
330
1F
100
AcDbEntity
  8
0
  6
Continuous
 62
     7
 48
1.75
370
    15
100
AcDbSpline
210
0.0
220
0.0
230
1.0
 70
     8
 71
     3
 72
    26
 73
    22
 74
     0
 42
0.00000001
 43
0.00000001
 40
0.0
 40
0.0
 40
0.0
 40
0.0
 40
0.0118979376057091
 40
0.0648460959390227
 40
0.1176736394916677
 40
0.1713604577474537
 40
0.2262474775087892
 40
0.2819169459552117
 40
0.3378379782415152
 40
0.3937007421263591
 40
0.4494712645092561
 40
0.5051821307232284
 40
0.5608878648778067
 40
0.616639222762671
 40
0.6724915233080232
 40
0.7285081641691732
 40
0.7847339719031922
 40
0.841139742774914
 40
0.8973588476047983
 40
0.9527168117415497
 40
1.0
 40
1.0
 40
1.0
 40
1.0
 10
26.03241640199399
 20
10.10654351864394
 30
0.0
 10
26.03428581574785
 20
10.10726430819324
 30
0.0
 10
26.04447448773869
 20
10.11119275275351
 30
0.0
 10
26.05939139799681
 20
10.12499385396469
 30
0.0
 10
26.0759406656096
 20
10.14721351531546
 30
0.0
 10
26.08724205567193
 20
10.17508040382209
 30
0.0
 10
26.09343583109074
 20
10.20734473255947
 30
0.0
 10
26.09417238459681
 20
10.24340720350013
 30
0.0
 10
26.08941600554802
 20
10.28205426907354
 30
0.0
 10
26.07933798269658
 20
10.32202799190758
 30
0.0
 10
26.06429935692287
 20
10.36208171905254
 30
0.0
 10
26.04477793767015
 20
10.40103390640816
 30
0.0
 10
26.02135950610028
 20
10.43774080378762
 30
0.0
 10
25.99472296243837
 20
10.47112140494938
 30
0.0
 10
25.96561587907157
 20
10.500180750199
 30
0.0
 10
25.9348244784204
 20
10.52403890834993
 30
0.0
 10
25.90316629945549
 20
10.54190365738889
 30
0.0
 10
25.87147129606651
 20
10.55315183796495
 30
0.0
 10
25.84084843008061
 20
10.55698180017465
 30
0.0
 10
25.81312871100909
 20
10.55409860421061
 30
0.0
 10
25.79768666947633
 20
10.54638476293916
 30
0.0
 10
25.79057306114429
 20
10.54283126611529
 30
0.0
  0
SPLINE
  5
33E
330
1F
100
AcDbEntity
  8
0
  6
Continuous
 62
     7
 48
1.75
370
    15
100
AcDbSpline
210
0.0
220
0.0
230
1.0
 70
     8
 71
     3
 72
    14
 73
    10
 74
     0
 42
0.00000001
 43
0.00000001
 40
0.0
 40
0.0
 40
0.0
 40
0.0
 40
0.1033177324015244
 40
0.2697696006267976
 40
0.4359952216461226
 40
0.6050612636986532
 40
0.777874031867463
 40
0.9530524953307625
 40
1.0
 40
1.0
 40
1.0
 40
1.0
 10
24.02935882594585
 20
15.65361151719405
 30
0.0
 10
24.02417025799374
 20
15.6516598131971
 30
0.0
 10
24.01062255546745
 20
15.64656378180381
 30
0.0
 10
23.99287240933196
 20
15.63074430068345
 30
0.0
 10
23.9767251085905
 20
15.60800790837402
 30
0.0
 10
23.96557949715873
 20
15.57997234241073
 30
0.0
 10
23.96000848094442
 20
15.54735092368253
 30
0.0
 10
23.95873848429623
 20
15.52036507390558
 30
0.0
 10
23.96106835108446
 20
15.50401811971083
 30
0.0
 10
23.96156078082079
 20
15.50056310400584
 30
0.0
  0
SPLINE
  5
33F
330
1F
100
AcDbEntity
  8
0
  6
Continuous
 62
     7
 48
1.75
370
    15
100
AcDbSpline
210
0.0
220
0.0
230
1.0
 70
     8
 71
     3
 72
     9
 73
     5
 74
     0
 42
0.00000001
 43
0.00000001
 40
0.0
 40
0.0
 40
0.0
 40
0.0
 40
0.3686288735846497
 40
1.0
 40
1.0
 40
1.0
 40
1.0
 10
24.11369058053575
 20
15.23757578475609
 30
0.0
 10
24.11588909949975
 20
15.23583917568121
 30
0.0
 10
24.12185314388571
 20
15.23112817988213
 30
0.0
 10
24.12798755173679
 20
15.2276045906477
 30
0.0
 10
24.13186063973161
 20
15.22537989814374
 30
0.0
  0
SPLINE
  5
340
330
1F
100
AcDbEntity
  8
0
  6
Continuous
 62
     7
 48
1.75
370
    15
100
AcDbSpline
210
0.0
220
0.0
230
1.0
 70
     8
 71
     3
 72
    12
 73
     8
 74
     0
 42
0.00000001
 43
0.00000001
 40
0.0
 40
0.0
 40
0.0
 40
0.0
 40
0.1183935201126866
 40
0.3432382131209896
 40
0.567855946865234
 40
0.7892008895949196
 40
1.0
 40
1.0
 40
1.0
 40
1.0
 10
24.13186063973161
 20
15.22537989814374
 30
0.0
 10
24.13740905833686
 20
15.22234359773368
 30
0.0
 10
24.15349464550329
 20
15.21354096794233
 30
0.0
 10
24.18022548635765
 20
15.20397166219755
 30
0.0
 10
24.21091532164667
 20
15.19964886662463
 30
0.0
 10
24.23967664570374
 20
15.20235676719573
 30
0.0
 10
24.25606425419261
 20
15.21028716891766
 30
0.0
 10
24.2640581008418
 20
15.21415560495424
 30
0.0
  0
LINE
  5
341
330
1F
100
AcDbEntity
  8
0
  6
Continuous
 62
     7
 48
1.75
370
    15
100
AcDbLine
 10
24.045680849
 20
15.6649114161
 30
0.0
 11
24.0172453621
 21
15.6488806546
 31
0.0
  0
LINE
  5
342
330
1F
100
AcDbEntity
  8
0
  6
Continuous
 62
     7
 48
1.75
370
    15
100
AcDbLine
 10
24.2627924648
 20
15.2133273319
 30
0.0
 11
24.2912279517
 21
15.2293580934
 31
0.0
  0
SPLINE
  5
343
330
1F
100
AcDbEntity
  8
0
  6
Continuous
 62
     7
 48
1.75
370
    15
100
AcDbSpline
210
0.0
220
0.0
230
1.0
 70
     8
 71
     3
 72
    26
 73
    22
 74
     0
 42
0.00000001
 43
0.00000001
 40
0.0
 40
0.0
 40
0.0
 40
0.0
 40
0.0118981282464462
 40
0.0648462792244791
 40
0.1176737696975772
 40
0.1713607889033229
 40
0.2262474145541386
 40
0.2819168751204645
 40
0.3378379158742617
 40
0.3937008169791714
 40
0.449471215162576
 40
0.5051823025404861
 40
0.5608877859627853
 40
0.6166392173560493
 40
0.6724915101426927
 40
0.7285080845904335
 40
0.7847339770039796
 40
0.8411398327678695
 40
0.8973587784316531
 40
0.9527167470826714
 40
1.0
 40
1.0
 40
1.0
 40
1.0
 10
24.28752644858653
 20
15.22813719942092
 30
0.0
 10
24.28939587889431
 20
15.228858019882
 30
0.0
 10
24.29958450665303
 20
15.2327865810743
 30
0.0
 10
24.3145015295422
 20
15.24658756619158
 30
0.0
 10
24.33105070915293
 20
15.26880739106619
 30
0.0
 10
24.3423521398255
 20
15.29667416382921
 30
0.0
 10
24.34854585213153
 20
15.32893851648604
 30
0.0
 10
24.34928253165474
 20
15.36500083767819
 30
0.0
 10
24.3445259824262
 20
15.40364799210254
 30
0.0
 10
24.33444818258562
 20
15.44362170324042
 30
0.0
 10
24.31940927044134
 20
15.4836754537379
 30
0.0
 10
24.29988819213564
 20
15.52262773930956
 30
0.0
 10
24.2764695067225
 20
15.55933449021487
 30
0.0
 10
24.24983303372561
 20
15.59271508708071
 30
0.0
 10
24.22072592611546
 20
15.62177436824534
 30
0.0
 10
24.18993455826265
 20
15.64563278224363
 30
0.0
 10
24.15827633904352
 20
15.6634972934205
 30
0.0
 10
24.12658135454805
 20
15.67474550331845
 30
0.0
 10
24.09595841358081
 20
15.67857569227797
 30
0.0
 10
24.06823882379453
 20
15.67569218992369
 30
0.0
 10
24.05279674032248
 20
15.6679784154221
 30
0.0
 10
24.04568310773683
 20
15.66442494689227
 30
0.0
  0
SPLINE
  5
344
330
1F
100
AcDbEntity
  8
0
  6
Continuous
 62
     7
 48
1.75
370
    15
100
AcDbSpline
210
0.0
220
0.0
230
1.0
 70
     8
 71
     3
 72
    14
 73
    10
 74
     0
 42
0.00000001
 43
0.00000001
 40
0.0
 40
0.0
 40
0.0
 40
0.0
 40
0.1031188147389292
 40
0.269251288129463
 40
0.4351569733316299
 40
0.6038981386340775
 40
0.7763799959065466
 40
0.9512206561753611
 40
0.9999999999999999
 40
0.9999999999999999
 40
0.9999999999999999
 40
0.9999999999999999
 10
24.01598593244218
 20
11.55252785853265
 30
0.0
 10
24.0107973544637
 20
11.55057620555274
 30
0.0
 10
23.99724957166769
 20
11.5454802870227
 30
0.0
 10
23.97949968766051
 20
11.52966058735146
 30
0.0
 10
23.96335184917322
 20
11.50692449735095
 30
0.0
 10
23.95220783829414
 20
11.47888825601799
 30
0.0
 10
23.94663076734055
 20
11.44626913505774
 30
0.0
 10
23.94537216733593
 20
11.41914502257093
 30
0.0
 10
23.9477287459821
 20
11.40265383359214
 30
0.0
 10
23.94824279820429
 20
11.39905652850965
 30
0.0
  0
SPLINE
  5
345
330
1F
100
AcDbEntity
  8
0
  6
Continuous
 62
     7
 48
1.75
370
    15
100
AcDbSpline
210
0.0
220
0.0
230
1.0
 70
     8
 71
     3
 72
     9
 73
     5
 74
     0
 42
0.00000001
 43
0.00000001
 40
0.0
 40
0.0
 40
0.0
 40
0.0
 40
0.426675235323447
 40
1.0
 40
1.0
 40
1.0
 40
1.0
 10
24.09850003738308
 20
11.13787887309991
 30
0.0
 10
24.10130075700727
 20
11.13565443579179
 30
0.0
 10
24.10786481180192
 20
11.1304410155509
 30
0.0
 10
24.11461671367528
 20
11.12653541627063
 30
0.0
 10
24.11848774622793
 20
11.12429623948234
 30
0.0
  0
SPLINE
  5
346
330
1F
100
AcDbEntity
  8
0
  6
Continuous
 62
     7
 48
1.75
370
    15
100
AcDbSpline
210
0.0
220
0.0
230
1.0
 70
     8
 71
     3
 72
    12
 73
     8
 74
     0
 42
0.00000001
 43
0.00000001
 40
0.0
 40
0.0
 40
0.0
 40
0.0
 40
0.1183935759858935
 40
0.3432383751046832
 40
0.567855970701595
 40
0.789201752240476
 40
1.0
 40
1.0
 40
1.0
 40
1.0
 10
24.11848774622793
 20
11.12429623948234
 30
0.0
 10
24.12403616555436
 20
11.12125993688655
 30
0.0
 10
24.14012175481158
 20
11.11245730075845
 30
0.0
 10
24.16685255754766
 20
11.10288807982395
 30
0.0
 10
24.19754252637565
 20
11.09856494200227
 30
0.0
 10
24.22630361853844
 20
11.1012733499622
 30
0.0
 10
24.24269133829346
 20
11.10920351905306
 30
0.0
 10
24.25068520694586
 20
11.11307182599577
 30
0.0
  0
LINE
  5
347
330
1F
100
AcDbEntity
  8
0
  6
Continuous
 62
     7
 48
1.75
370
    15
100
AcDbLine
 10
24.0323079555
 20
11.5638277575
 30
0.0
 11
24.0038724686
 21
11.5477969959
 31
0.0
  0
LINE
  5
348
330
1F
100
AcDbEntity
  8
0
  6
Continuous
 62
     7
 48
1.75
370
    15
100
AcDbLine
 10
24.2494195713
 20
11.1122436732
 30
0.0
 11
24.2778550582
 21
11.1282744348
 31
0.0
  0
SPLINE
  5
349
330
1F
100
AcDbEntity
  8
0
  6
Continuous
 62
     7
 48
1.75
370
    15
100
AcDbSpline
210
0.0
220
0.0
230
1.0
 70
     8
 71
     3
 72
    26
 73
    22
 74
     0
 42
0.00000001
 43
0.00000001
 40
0.0
 40
0.0
 40
0.0
 40
0.0
 40
0.0118980083859597
 40
0.0648461620066043
 40
0.1176736551162918
 40
0.1713604997134383
 40
0.2262474988167311
 40
0.2819169621614876
 40
0.3378380057062715
 40
0.3937007326635137
 40
0.449471296854716
 40
0.5051820979064721
 40
0.5608878271029424
 40
0.616639261278728
 40
0.672491556852927
 40
0.7285081002111057
 40
0.7847339969784513
 40
0.8411398555575248
 40
0.8973588668543897
 40
0.9527167447227917
 40
1.0
 40
1.0
 40
1.0
 40
1.0
 10
24.27415355547512
 20
11.12705366105658
 30
0.0
 10
24.27602298713703
 20
11.12777443885152
 30
0.0
 10
24.28621170649877
 20
11.13170279998097
 30
0.0
 10
24.30112860888242
 20
11.14550395899658
 30
0.0
 10
24.31767779151953
 20
11.16772370315883
 30
0.0
 10
24.32897930250436
 20
11.19559046980071
 30
0.0
 10
24.33517293599468
 20
11.22785491111019
 30
0.0
 10
24.33590963890653
 20
11.26391729580321
 30
0.0
 10
24.33115311458776
 20
11.30256441350496
 30
0.0
 10
24.32107522257644
 20
11.34253811980789
 30
0.0
 10
24.30603648982379
 20
11.38259183253871
 30
0.0
 10
24.28651515043861
 20
11.42154403504356
 30
0.0
 10
24.26309669940972
 20
11.45825093889904
 30
0.0
 10
24.23646012611712
 20
11.49163152688748
 30
0.0
 10
24.20735304969495
 20
11.52069087588344
 30
0.0
 10
24.1765616486316
 20
11.5445490485222
 30
0.0
 10
24.14490345335565
 20
11.5624137944962
 30
0.0
 10
24.11320843187474
 20
11.57366201074625
 30
0.0
 10
24.08258557806311
 20
11.57749194953026
 30
0.0
 10
24.05486589997844
 20
11.57460868688702
 30
0.0
 10
24.03942384196597
 20
11.56689489041661
 30
0.0
 10
24.03231021462543
 20
11.56334140852793
 30
0.0
  0
SPLINE
  5
34A
330
1F
100
AcDbEntity
  8
0
  6
Continuous
 62
     7
 48
1.75
370
    15
100
AcDbSpline
210
0.0
220
0.0
230
1.0
 70
     8
 71
     3
 72
    21
 73
    17
 74
     0
 42
0.00000001
 43
0.00000001
 40
0.0
 40
0.0
 40
0.0
 40
0.0
 40
0.0196314033631068
 40
0.0907030963717994
 40
0.1593587030381913
 40
0.2282353768274506
 40
0.2998831364910751
 40
0.376196048556061
 40
0.4571850010540071
 40
0.5403506132389315
 40
0.6238183043450186
 40
0.7080848612079339
 40
0.7941767666530414
 40
0.883511582799677
 40
0.9589353054651141
 40
1.0
 40
1.0
 40
1.0
 40
1.0
 10
25.7743504299855
 20
14.54561970446665
 30
0.0
 10
25.77191099097794
 20
14.54454884427603
 30
0.0
 10
25.76064003559568
 20
14.53960114220533
 30
0.0
 10
25.74463625065828
 20
14.52426255764432
 30
0.0
 10
25.72793871404194
 20
14.50158583991172
 30
0.0
 10
25.71708058712076
 20
14.47534560778199
 30
0.0
 10
25.71148878621877
 20
14.44648145067848
 30
0.0
 10
25.71140191026361
 20
14.41491122147246
 30
0.0
 10
25.71714009810181
 20
14.38132107098098
 30
0.0
 10
25.72875184196878
 20
14.34713714199082
 30
0.0
 10
25.74576297372568
 20
14.31412784262082
 30
0.0
 10
25.76756886581855
 20
14.28377010280283
 30
0.0
 10
25.79382563645494
 20
14.25717274633995
 30
0.0
 10
25.82248575079625
 20
14.2372043073072
 30
0.0
 10
25.84813820082977
 20
14.22573362584257
 30
0.0
 10
25.86343684318719
 20
14.2222531666207
 30
0.0
 10
25.86882994655579
 20
14.22102622922879
 30
0.0
  0
SPLINE
  5
34B
330
1F
100
AcDbEntity
  8
0
  6
Continuous
 62
     7
 48
1.75
370
    15
100
AcDbSpline
210
0.0
220
0.0
230
1.0
 70
     8
 71
     3
 72
    11
 73
     7
 74
     0
 42
0.00000001
 43
0.00000001
 40
0.0
 40
0.0
 40
0.0
 40
0.0
 40
0.2945477572256112
 40
0.6280369808244113
 40
0.9569888730003616
 40
1.0
 40
1.0
 40
1.0
 40
1.0
 10
25.86882994655579
 20
14.22102622922879
 30
0.0
 10
25.87699081582526
 20
14.21991551122111
 30
0.0
 10
25.89439148370059
 20
14.21754722978973
 30
0.0
 10
25.92090266682666
 20
14.22157417844757
 30
0.0
 10
25.94035757600905
 20
14.22738098651589
 30
0.0
 10
25.94876480767117
 20
14.2335462003298
 30
0.0
 10
25.94973695944457
 20
14.23425910129215
 30
0.0
  0
LINE
  5
34C
330
1F
100
AcDbEntity
  8
0
  6
Continuous
 62
     7
 48
1.75
370
    15
100
AcDbLine
 10
25.7781359484
 20
14.5834701156
 30
0.0
 11
25.7561873562
 21
14.5677892097
 31
0.0
  0
LINE
  5
34D
330
1F
100
AcDbEntity
  8
0
  6
Continuous
 62
     7
 48
1.75
370
    15
100
AcDbLine
 10
25.959221024
 20
14.207646524
 30
0.0
 11
25.983999177
 21
14.218308388
 31
0.0
  0
LINE
  5
34E
330
1F
100
AcDbEntity
  8
0
  6
Continuous
 62
     7
 48
1.75
370
    15
100
AcDbLine
 10
25.7761161472
 20
14.5475421847
 30
0.0
 11
25.7730933936
 21
14.5458380801
 31
0.0
  0
LINE
  5
34F
330
1F
100
AcDbEntity
  8
0
  6
Continuous
 62
     7
 48
1.75
370
    15
100
AcDbLine
 10
25.9491912115
 20
14.2334743352
 30
0.0
 11
25.9522139651
 21
14.2351784398
 31
0.0
  0
SPLINE
  5
350
330
1F
100
AcDbEntity
  8
0
  6
Continuous
 62
     7
 48
1.75
370
    15
100
AcDbSpline
210
0.0
220
0.0
230
1.0
 70
     8
 71
     3
 72
    21
 73
    17
 74
     0
 42
0.00000001
 43
0.00000001
 40
0.0
 40
0.0
 40
0.0
 40
0.0
 40
0.019631508970946
 40
0.0907033487851565
 40
0.1593588941302903
 40
0.2282355573004377
 40
0.2998829849275366
 40
0.3761965022773524
 40
0.4571854977767951
 40
0.5403507267570936
 40
0.6238182665432495
 40
0.7080852100249126
 40
0.794176815404559
 40
0.8835117005839718
 40
0.9589354370035847
 40
1.0
 40
1.0
 40
1.0
 40
1.0
 10
24.00271469035523
 20
11.46504630851495
 30
0.0
 10
24.0002752321654
 20
11.46397546208967
 30
0.0
 10
23.98900421742238
 20
11.45902783646641
 30
0.0
 10
23.97300055778087
 20
11.44368901891183
 30
0.0
 10
23.95630302526427
 20
11.42101228538285
 30
0.0
 10
23.94544491417856
 20
11.39477210907399
 30
0.0
 10
23.939853096253
 20
11.36590788036304
 30
0.0
 10
23.93976612565691
 20
11.33433768121935
 30
0.0
 10
23.94550442797813
 20
11.30074746407698
 30
0.0
 10
23.95711606935041
 20
11.26656356925009
 30
0.0
 10
23.97412740427212
 20
11.23355441270734
 30
0.0
 10
23.99593303184127
 20
11.20319641521921
 30
0.0
 10
24.0221900441669
 20
11.17659936386733
 30
0.0
 10
24.0508500403186
 20
11.15663082620461
 30
0.0
 10
24.0765024942148
 20
11.14515981669213
 30
0.0
 10
24.09180112090281
 20
11.14167966098439
 30
0.0
 10
24.09719420692551
 20
11.1404528332771
 30
0.0
  0
SPLINE
  5
351
330
1F
100
AcDbEntity
  8
0
  6
Continuous
 62
     7
 48
1.75
370
    15
100
AcDbSpline
210
0.0
220
0.0
230
1.0
 70
     8
 71
     3
 72
    11
 73
     7
 74
     0
 42
0.00000001
 43
0.00000001
 40
0.0
 40
0.0
 40
0.0
 40
0.0
 40
0.2945482630725957
 40
0.6280362064216009
 40
0.95698950301437
 40
1.0
 40
1.0
 40
1.0
 40
1.0
 10
24.09719420692551
 20
11.1404528332771
 30
0.0
 10
24.10535508518362
 20
11.13934205401549
 30
0.0
 10
24.12275572088529
 20
11.13697364896583
 30
0.0
 10
24.14926707291362
 20
11.14100060409707
 30
0.0
 10
24.16872155792438
 20
11.14680785046435
 30
0.0
 10
24.17712909963613
 20
11.15297270734542
 30
0.0
 10
24.17810127099715
 20
11.15368555510878
 30
0.0
  0
LINE
  5
352
330
1F
100
AcDbEntity
  8
0
  6
Continuous
 62
     7
 48
1.75
370
    15
100
AcDbLine
 10
24.00650026
 20
11.5028965694
 30
0.0
 11
23.9845515646
 21
11.4872157234
 31
0.0
  0
LINE
  5
353
330
1F
100
AcDbEntity
  8
0
  6
Continuous
 62
     7
 48
1.75
370
    15
100
AcDbLine
 10
24.1875852328
 20
11.127073158
 30
0.0
 11
24.212363437
 21
11.1377348718
 31
0.0
  0
LINE
  5
354
330
1F
100
AcDbEntity
  8
0
  6
Continuous
 62
     7
 48
1.75
370
    15
100
AcDbLine
 10
24.0044804068
 20
11.4669685481
 30
0.0
 11
24.0014576532
 21
11.4652644436
 31
0.0
  0
LINE
  5
355
330
1F
100
AcDbEntity
  8
0
  6
Continuous
 62
     7
 48
1.75
370
    15
100
AcDbLine
 10
24.1775554711
 20
11.1529006987
 30
0.0
 11
24.1805782247
 21
11.1546048032
 31
0.0
  0
SPLINE
  5
356
330
1F
100
AcDbEntity
  8
0
  6
Continuous
 62
     7
 48
1.75
370
    15
100
AcDbSpline
210
0.0
220
0.0
230
1.0
 70
     8
 71
     3
 72
    21
 73
    17
 74
     0
 42
0.00000001
 43
0.00000001
 40
0.0
 40
0.0
 40
0.0
 40
0.0
 40
0.0433256285749738
 40
0.1121107336463819
 40
0.1793833692354634
 40
0.2478214544840558
 40
0.319783577130932
 40
0.3966254453974167
 40
0.4774331560900825
 40
0.5593448881418567
 40
0.6415779841983433
 40
0.7249761244947382
 40
0.8106243115378406
 40
0.8894922766495644
 40
0.962528973477819
 40
1.0
 40
1.0
 40
1.0
 40
1.0
 10
25.76046117069435
 20
10.44407771743804
 30
0.0
 10
25.75518428133187
 20
10.44123398929913
 30
0.0
 10
25.74152963955851
 20
10.43387547060176
 30
0.0
 10
25.72453052462861
 20
10.41533336467309
 30
0.0
 10
25.70998605827057
 20
10.39128119032974
 30
0.0
 10
25.70105754671221
 20
10.36407807615876
 30
0.0
 10
25.69743074675412
 20
10.33420559009773
 30
0.0
 10
25.69942816107176
 20
10.30177511628379
 30
0.0
 10
25.70733042361011
 20
10.26776706725187
 30
0.0
 10
25.72098311192894
 20
10.23381083843396
 30
0.0
 10
25.73979924808801
 20
10.20161959243674
 30
0.0
 10
25.76325085023547
 20
10.1725096249128
 30
0.0
 10
25.78999839208219
 20
10.14858837764148
 30
0.0
 10
25.81847139179758
 20
10.13130670365533
 30
0.0
 10
25.8430012895843
 20
10.12205712025095
 30
0.0
 10
25.85792849791625
 20
10.11958576192524
 30
0.0
 10
25.8629900248607
 20
10.1187477722304
 30
0.0
  0
SPLINE
  5
357
330
1F
100
AcDbEntity
  8
0
  6
Continuous
 62
     7
 48
1.75
370
    15
100
AcDbSpline
210
0.0
220
0.0
230
1.0
 70
     8
 71
     3
 72
    10
 73
     6
 74
     0
 42
0.00000001
 43
0.00000001
 40
0.0
 40
0.0
 40
0.0
 40
0.0
 40
0.3387883401614199
 40
0.7125571021361745
 40
1.0
 40
1.0
 40
1.0
 40
1.0
 10
25.8629900248607
 20
10.1187477722304
 30
0.0
 10
25.87133619932591
 20
10.11818743663776
 30
0.0
 10
25.88889030372047
 20
10.11700890993308
 30
0.0
 10
25.91381546898699
 20
10.12143739883863
 30
0.0
 10
25.92831446478059
 20
10.12929514008523
 30
0.0
 10
25.9346174893946
 20
10.13271106882903
 30
0.0
  0
LINE
  5
358
330
1F
100
AcDbEntity
  8
0
  6
Continuous
 62
     7
 48
1.75
370
    15
100
AcDbLine
 10
25.7647630549
 20
10.4823864569
 30
0.0
 11
25.7428144627
 21
10.466705551
 31
0.0
  0
LINE
  5
359
330
1F
100
AcDbEntity
  8
0
  6
Continuous
 62
     7
 48
1.75
370
    15
100
AcDbLine
 10
25.9458481308
 20
10.1065629857
 30
0.0
 11
25.9706262835
 21
10.1172247294
 31
0.0
  0
LINE
  5
35A
330
1F
100
AcDbEntity
  8
0
  6
Continuous
 62
     7
 48
1.75
370
    15
100
AcDbLine
 10
25.7627432533
 20
10.4464584057
 30
0.0
 11
25.7597204997
 21
10.4447543012
 31
0.0
  0
LINE
  5
35B
330
1F
100
AcDbEntity
  8
0
  6
Continuous
 62
     7
 48
1.75
370
    15
100
AcDbLine
 10
25.9358183176
 20
10.1323905563
 30
0.0
 11
25.9388410712
 21
10.1340946608
 31
0.0
  0
SPLINE
  5
35C
330
1F
100
AcDbEntity
  8
0
  6
Continuous
 62
     7
 48
1.75
370
    15
100
AcDbSpline
210
0.0
220
0.0
230
1.0
 70
     8
 71
     3
 72
    21
 73
    17
 74
     0
 42
0.00000001
 43
0.00000001
 40
0.0
 40
0.0
 40
0.0
 40
0.0
 40
0.0196315144646606
 40
0.0907031367795828
 40
0.1593587013374002
 40
0.2282353837821093
 40
0.2998831524494146
 40
0.3761960459753567
 40
0.4571850641388965
 40
0.540350603100259
 40
0.6238184149479105
 40
0.7080849824002592
 40
0.7941768986641842
 40
0.8835117260371608
 40
0.9589354581807884
 40
0.9999999999999999
 40
0.9999999999999999
 40
0.9999999999999999
 40
0.9999999999999999
 10
24.01608758346664
 20
15.56612984687929
 30
0.0
 10
24.01364812621991
 20
15.56505899979236
 30
0.0
 10
24.00237714533269
 20
15.560111384061
 30
0.0
 10
23.98637340113151
 20
15.54477267582445
 30
0.0
 10
23.96967592822113
 20
15.52209593902437
 30
0.0
 10
23.95881778375622
 20
15.49585572374263
 30
0.0
 10
23.95322601503397
 20
15.46699155977369
 30
0.0
 10
23.95313902364009
 20
15.4354213613268
 30
0.0
 10
23.95887733918067
 20
15.40183120088462
 30
0.0
 10
23.97048897441054
 20
15.36764725307151
 30
0.0
 10
23.98750018670393
 20
15.33463797365739
 30
0.0
 10
24.00930606623765
 20
15.30428021403914
 30
0.0
 10
24.03556284223805
 20
15.27768285824936
 30
0.0
 10
24.06422295784283
 20
15.25771442329266
 30
0.0
 10
24.08987538048148
 20
15.24624373810691
 30
0.0
 10
24.10517401341528
 20
15.24276329891735
 30
0.0
 10
24.11056710003692
 20
15.24153637164144
 30
0.0
  0
SPLINE
  5
35D
330
1F
100
AcDbEntity
  8
0
  6
Continuous
 62
     7
 48
1.75
370
    15
100
AcDbSpline
210
0.0
220
0.0
230
1.0
 70
     8
 71
     3
 72
    11
 73
     7
 74
     0
 42
0.00000001
 43
0.00000001
 40
0.0
 40
0.0
 40
0.0
 40
0.0
 40
0.294548371633482
 40
0.6280361365044342
 40
0.9569884588983478
 40
1.0
 40
1.0
 40
1.0
 40
1.0
 10
24.11056710003692
 20
15.24153637164144
 30
0.0
 10
24.11872798366091
 20
15.24042563462538
 30
0.0
 10
24.1361286224533
 20
15.23805732078827
 30
0.0
 10
24.1626398444212
 20
15.24208435902286
 30
0.0
 10
24.18209467395652
 20
15.24789124678126
 30
0.0
 10
24.19050199521419
 20
15.254056323424
 30
0.0
 10
24.19147416450082
 20
15.25476921377017
 30
0.0
  0
LINE
  5
35E
330
1F
100
AcDbEntity
  8
0
  6
Continuous
 62
     7
 48
1.75
370
    15
100
AcDbLine
 10
24.0198731535
 20
15.6039802281
 30
0.0
 11
23.9979244581
 21
15.5882993821
 31
0.0
  0
LINE
  5
35F
330
1F
100
AcDbEntity
  8
0
  6
Continuous
 62
     7
 48
1.75
370
    15
100
AcDbLine
 10
24.2009581259
 20
15.2281566964
 30
0.0
 11
24.2257363305
 21
15.2388185305
 31
0.0
  0
LINE
  5
360
330
1F
100
AcDbEntity
  8
0
  6
Continuous
 62
     7
 48
1.75
370
    15
100
AcDbLine
 10
24.0178533007
 20
15.5680523271
 30
0.0
 11
24.0148305471
 21
15.5663482226
 31
0.0
  0
LINE
  5
361
330
1F
100
AcDbEntity
  8
0
  6
Continuous
 62
     7
 48
1.75
370
    15
100
AcDbLine
 10
24.190928365
 20
15.2539844776
 30
0.0
 11
24.1939511186
 21
15.2556885822
 31
0.0
  0
LINE
  5
362
330
1F
100
AcDbEntity
  8
0
  6
Continuous
 62
     7
 48
1.75
370
    15
100
AcDbLine
 10
28.1265750586
 20
10.7745853496
 30
0.0
 11
28.1820239363
 21
10.8058451531
 31
0.0
  0
LINE
  5
363
330
1F
100
AcDbEntity
  8
0
  6
Continuous
 62
     7
 48
1.75
370
    15
100
AcDbLine
 10
26.1949301032
 20
17.388262981
 30
0.0
 11
26.1394812256
 21
17.3570031775
 31
0.0
  0
ARC
  5
364
330
1F
100
AcDbEntity
  8
0
  6
Continuous
 62
     7
 48
3.0625
370
    15
100
AcDbCircle
 10
26.2135566968
 20
14.5939608919
 30
0.0
 40
0.1427897522094877
100
AcDbArc
 50
2.2768473322
 51
57.1197539312
  0
ARC
  5
365
330
1F
100
AcDbEntity
  8
0
  6
Continuous
 62
     7
 48
3.0625
370
    15
100
AcDbCircle
 10
26.2911481818
 20
14.7281744402
 30
0.0
 40
0.1440793635343879
100
AcDbArc
 50
242.5423724541
 51
296.8549864915
  0
ARC
  5
366
330
1F
100
AcDbEntity
  8
0
  6
Continuous
 62
     7
 48
3.0625
370
    15
100
AcDbCircle
 10
26.3664888258
 20
14.5936372855
 30
0.0
 40
0.1419322211726337
100
AcDbArc
 50
122.0957790055
 51
177.2991473755
  0
LINE
  5
367
330
1F
100
AcDbEntity
  8
0
  6
Continuous
 62
     7
 48
1.75
370
    15
100
AcDbLine
 10
26.3406837199
 20
9.8308934635
 30
0.0
 11
26.3562337208
 21
14.5996336467
 31
0.0
  0
ARC
  5
368
330
1F
100
AcDbEntity
  8
0
  6
Continuous
 62
     7
 48
3.0625
370
    15
100
AcDbCircle
 10
26.2755981809
 20
9.9594342571
 30
0.0
 40
0.1440793635343789
100
AcDbArc
 50
242.5423724541
 51
296.8549864915
  0
LINE
  5
369
330
1F
100
AcDbEntity
  8
0
  6
Continuous
 62
     7
 48
1.75
370
    15
100
AcDbLine
 10
26.2247142667
 20
14.6003253185
 30
0.0
 11
26.2091642658
 21
9.8315851353
 31
0.0
  0
LINE
  5
36A
330
1F
100
AcDbEntity
  8
0
  6
Continuous
 62
     7
 48
1.75
370
    15
100
AcDbLine
 10
26.6455630178
 20
14.7627456402
 30
0.0
 11
26.3562337208
 21
14.5996336467
 31
0.0
  0
LINE
  5
36B
330
1F
100
AcDbEntity
  8
0
  6
Continuous
 62
     7
 48
1.75
370
    15
100
AcDbLine
 10
26.291075103
 20
14.7138767375
 30
0.0
 11
26.5804044
 21
14.8769887311
 31
0.0
  0
ARC
  5
36C
330
1F
100
AcDbEntity
  8
0
  6
Continuous
 62
     7
 48
3.0625
370
    15
100
AcDbCircle
 10
26.5028859938
 20
14.7570728855
 30
0.0
 40
0.1427897522094812
100
AcDbArc
 50
2.2768473322
 51
57.1197539312
  0
ARC
  5
36D
330
1F
100
AcDbEntity
  8
0
  6
Continuous
 62
     7
 48
3.0625
370
    15
100
AcDbCircle
 10
24.0357355581
 20
15.9464255526
 30
0.0
 40
0.1419322211726629
100
AcDbArc
 50
122.0957790055
 51
177.2991473755
  0
LINE
  5
36E
330
1F
100
AcDbEntity
  8
0
  6
Continuous
 62
     7
 48
1.75
370
    15
100
AcDbLine
 10
26.291075103
 20
14.7138767375
 30
0.0
 11
23.9603218353
 21
16.0666650045
 31
0.0
  0
LINE
  5
36F
330
1F
100
AcDbEntity
  8
0
  6
Continuous
 62
     7
 48
1.75
370
    15
100
AcDbLine
 10
23.893960999
 20
15.9531135855
 30
0.0
 11
26.2247142667
 21
14.6003253185
 31
0.0
  0
LINE
  5
370
330
1F
100
AcDbEntity
  8
0
  6
Continuous
 62
     7
 48
1.75
370
    15
100
AcDbLine
 10
26.6300130169
 20
9.9940054571
 30
0.0
 11
26.6455630178
 21
14.7627456402
 31
0.0
  0
LINE
  5
371
330
1F
100
AcDbEntity
  8
0
  6
Continuous
 62
     7
 48
1.75
370
    15
100
AcDbLine
 10
26.3406837199
 20
9.8308934635
 30
0.0
 11
26.6300130169
 21
9.9940054571
 31
0.0
  0
LINE
  5
372
330
1F
100
AcDbEntity
  8
0
  6
Continuous
 62
     7
 48
1.75
370
    15
100
AcDbLine
 10
26.2091642658
 20
9.8315851353
 30
0.0
 11
23.8784109981
 21
11.1843734024
 31
0.0
  0
LINE
  5
373
330
1F
100
AcDbEntity
  8
0
  6
Continuous
 62
     7
 48
1.75
370
    15
100
AcDbLine
 10
23.8784109981
 20
11.1843734024
 30
0.0
 11
23.893960999
 21
15.9531135855
 31
0.0
  0
ARC
  5
374
330
1F
100
AcDbEntity
  8
0
  6
Continuous
 62
     7
 48
3.0625
370
    15
100
AcDbCircle
 10
25.4389027486
 20
12.1898971186
 30
0.0
 40
0.7050619559999659
100
AcDbArc
 50
187.5410210111
 51
231.8555766199
  0
LINE
  5
375
330
1F
100
AcDbEntity
  8
0
  6
Continuous
 62
     7
 48
1.75
370
    15
100
AcDbLine
 10
25.0034241735
 20
11.6353966475
 30
0.0
 11
25.0032598717
 21
11.5850099817
 31
0.0
  0
LINE
  5
376
330
1F
100
AcDbEntity
  8
0
  6
Continuous
 62
     7
 48
1.75
370
    15
100
AcDbLine
 10
25.0032598717
 20
11.5850099817
 30
0.0
 11
25.0911730127
 21
11.5339844753
 31
0.0
  0
LINE
  5
377
330
1F
100
AcDbEntity
  8
0
  6
Continuous
 62
     7
 48
1.75
370
    15
100
AcDbLine
 10
25.0911730127
 20
11.5339844753
 30
0.0
 11
25.0913373145
 21
11.5843711412
 31
0.0
  0
ARC
  5
378
330
1F
100
AcDbEntity
  8
0
  6
Continuous
 62
     7
 48
3.0625
370
    15
100
AcDbCircle
 10
25.1760721999
 20
11.7441146469
 30
0.0
 40
0.1808258510774727
100
AcDbArc
 50
242.0565810584
 51
358.4794536061
  0
LINE
  5
379
330
1F
100
AcDbEntity
  8
0
  6
Continuous
 62
     7
 48
1.75
370
    15
100
AcDbLine
 10
25.3568343774
 20
11.7393163559
 30
0.0
 11
25.4000391343
 21
11.7142399615
 31
0.0
  0
LINE
  5
37A
330
1F
100
AcDbEntity
  8
0
  6
Continuous
 62
     7
 48
1.75
370
    15
100
AcDbLine
 10
25.4000391343
 20
11.7142399615
 30
0.0
 11
25.4003734566
 21
11.8167670439
 31
0.0
  0
LINE
  5
37B
330
1F
100
AcDbEntity
  8
0
  6
Continuous
 62
     7
 48
1.75
370
    15
100
AcDbLine
 10
25.4003734566
 20
11.8167670439
 30
0.0
 11
25.3571686998
 21
11.8418434383
 31
0.0
  0
ARC
  5
37C
330
1F
100
AcDbEntity
  8
0
  6
Continuous
 62
     7
 48
3.0625
370
    15
100
AcDbCircle
 10
24.6582050817
 20
11.7493141475
 30
0.0
 40
0.7050615640285885
100
AcDbArc
 50
7.5410080398
 51
51.8555895912
  0
LINE
  5
37D
330
1F
100
AcDbEntity
  8
0
  6
Continuous
 62
     7
 48
1.75
370
    15
100
AcDbLine
 10
25.0936832891
 20
12.3038144089
 30
0.0
 11
25.0938475912
 21
12.3542011349
 31
0.0
  0
LINE
  5
37E
330
1F
100
AcDbEntity
  8
0
  6
Continuous
 62
     7
 48
1.75
370
    15
100
AcDbLine
 10
25.0938475912
 20
12.3542011349
 30
0.0
 11
25.0059344501
 21
12.4052266412
 31
0.0
  0
LINE
  5
37F
330
1F
100
AcDbEntity
  8
0
  6
Continuous
 62
     7
 48
1.75
370
    15
100
AcDbLine
 10
25.0059344501
 20
12.4052266412
 30
0.0
 11
25.0057701481
 21
12.3548399152
 31
0.0
  0
ARC
  5
380
330
1F
100
AcDbEntity
  8
0
  6
Continuous
 62
     7
 48
3.0625
370
    15
100
AcDbCircle
 10
24.9210352324
 20
12.1950964615
 30
0.0
 40
0.1808258194009277
100
AcDbArc
 50
62.0565648633
 51
178.4794698012
  0
LINE
  5
381
330
1F
100
AcDbEntity
  8
0
  6
Continuous
 62
     7
 48
1.75
370
    15
100
AcDbLine
 10
24.7402730852
 20
12.1998947005
 30
0.0
 11
24.6970683283
 21
12.2249710949
 31
0.0
  0
LINE
  5
382
330
1F
100
AcDbEntity
  8
0
  6
Continuous
 62
     7
 48
1.75
370
    15
100
AcDbLine
 10
24.6970683283
 20
12.2249710949
 30
0.0
 11
24.696734006
 21
12.1224440125
 31
0.0
  0
LINE
  5
383
330
1F
100
AcDbEntity
  8
0
  6
Continuous
 62
     7
 48
1.75
370
    15
100
AcDbLine
 10
24.696734006
 20
12.1224440125
 30
0.0
 11
24.7399387629
 21
12.0973676181
 31
0.0
  0
ARC
  5
384
330
1F
100
AcDbEntity
  8
0
  6
Continuous
 62
     7
 48
3.0625
370
    15
100
AcDbCircle
 10
25.4449201831
 20
14.0353845734
 30
0.0
 40
0.7050615640286191
100
AcDbArc
 50
187.5410080398
 51
231.8555895912
  0
LINE
  5
385
330
1F
100
AcDbEntity
  8
0
  6
Continuous
 62
     7
 48
1.75
370
    15
100
AcDbLine
 10
25.0094419756
 20
13.480884312
 30
0.0
 11
25.0092776736
 21
13.430497586
 31
0.0
  0
LINE
  5
386
330
1F
100
AcDbEntity
  8
0
  6
Continuous
 62
     7
 48
1.75
370
    15
100
AcDbLine
 10
25.0092776736
 20
13.430497586
 30
0.0
 11
25.0971908146
 21
13.3794720796
 31
0.0
  0
LINE
  5
387
330
1F
100
AcDbEntity
  8
0
  6
Continuous
 62
     7
 48
1.75
370
    15
100
AcDbLine
 10
25.0971908146
 20
13.3794720796
 30
0.0
 11
25.0973551166
 21
13.4298588056
 31
0.0
  0
ARC
  5
388
330
1F
100
AcDbEntity
  8
0
  6
Continuous
 62
     7
 48
3.0625
370
    15
100
AcDbCircle
 10
25.1820900324
 20
13.5896022594
 30
0.0
 40
0.1808258194009268
100
AcDbArc
 50
242.0565648633
 51
358.4794698012
  0
LINE
  5
389
330
1F
100
AcDbEntity
  8
0
  6
Continuous
 62
     7
 48
1.75
370
    15
100
AcDbLine
 10
25.3628521796
 20
13.5848040203
 30
0.0
 11
25.4060569364
 21
13.5597276259
 31
0.0
  0
LINE
  5
38A
330
1F
100
AcDbEntity
  8
0
  6
Continuous
 62
     7
 48
1.75
370
    15
100
AcDbLine
 10
25.4060569364
 20
13.5597276259
 30
0.0
 11
25.4063912587
 21
13.6622547084
 31
0.0
  0
LINE
  5
38B
330
1F
100
AcDbEntity
  8
0
  6
Continuous
 62
     7
 48
1.75
370
    15
100
AcDbLine
 10
25.4063912587
 20
13.6622547084
 30
0.0
 11
25.3631865019
 21
13.6873311028
 31
0.0
  0
ARC
  5
38C
330
1F
100
AcDbEntity
  8
0
  6
Continuous
 62
     7
 48
3.0625
370
    15
100
AcDbCircle
 10
24.6642225162
 20
13.5948016022
 30
0.0
 40
0.7050619559999388
100
AcDbArc
 50
7.5410210111
 51
51.8555766199
  0
LINE
  5
38D
330
1F
100
AcDbEntity
  8
0
  6
Continuous
 62
     7
 48
1.75
370
    15
100
AcDbLine
 10
25.0997010913
 20
14.1493020733
 30
0.0
 11
25.0998653931
 21
14.1996887392
 31
0.0
  0
LINE
  5
38E
330
1F
100
AcDbEntity
  8
0
  6
Continuous
 62
     7
 48
1.75
370
    15
100
AcDbLine
 10
25.0998653931
 20
14.1996887392
 30
0.0
 11
25.0119522521
 21
14.2507142455
 31
0.0
  0
LINE
  5
38F
330
1F
100
AcDbEntity
  8
0
  6
Continuous
 62
     7
 48
1.75
370
    15
100
AcDbLine
 10
25.0119522521
 20
14.2507142455
 30
0.0
 11
25.0117879502
 21
14.2003275797
 31
0.0
  0
ARC
  5
390
330
1F
100
AcDbEntity
  8
0
  6
Continuous
 62
     7
 48
3.0625
370
    15
100
AcDbCircle
 10
24.9270530648
 20
14.040584074
 30
0.0
 40
0.1808258510774728
100
AcDbArc
 50
62.0565810584
 51
178.4794536061
  0
LINE
  5
391
330
1F
100
AcDbEntity
  8
0
  6
Continuous
 62
     7
 48
1.75
370
    15
100
AcDbLine
 10
24.7462908873
 20
14.045382365
 30
0.0
 11
24.7030861305
 21
14.0704587594
 31
0.0
  0
LINE
  5
392
330
1F
100
AcDbEntity
  8
0
  6
Continuous
 62
     7
 48
1.75
370
    15
100
AcDbLine
 10
24.7030861305
 20
14.0704587594
 30
0.0
 11
24.7027518081
 21
13.9679316769
 31
0.0
  0
LINE
  5
393
330
1F
100
AcDbEntity
  8
0
  6
Continuous
 62
     7
 48
1.75
370
    15
100
AcDbLine
 10
24.7027518081
 20
13.9679316769
 30
0.0
 11
24.745956565
 21
13.9428552825
 31
0.0
  0
LINE
  5
394
330
1F
100
AcDbEntity
  8
0
  6
Continuous
 62
     7
 48
1.75
370
    15
100
AcDbLine
 10
24.2496511323
 20
16.2297769981
 30
0.0
 11
23.9603218353
 21
16.0666650045
 31
0.0
  0
LINE
  5
395
330
1F
100
AcDbEntity
  8
0
  6
Continuous
 62
     7
 48
1.75
370
    15
100
AcDbLine
 10
26.5804044
 20
14.8769887311
 30
0.0
 11
24.2496511323
 21
16.2297769981
 31
0.0
  0
LINE
  5
396
330
1F
100
AcDbEntity
  8
0
  6
Continuous
 62
     7
 48
1.75
370
    15
100
AcDbLine
 10
25.4062183512
 20
13.6092520896
 30
0.0
 11
25.3628521796
 21
13.5848040203
 31
0.0
  0
LINE
  5
397
330
1F
100
AcDbEntity
  8
0
  6
Continuous
 62
     7
 48
1.75
370
    15
100
AcDbLine
 10
25.0559091846
 20
14.2252013224
 30
0.0
 11
25.0117879502
 21
14.2003275797
 31
0.0
  0
LINE
  5
398
330
1F
100
AcDbEntity
  8
0
  6
Continuous
 62
     7
 48
1.75
370
    15
100
AcDbLine
 10
25.1528039617
 20
13.4611185908
 30
0.0
 11
25.0973551166
 21
13.4298588056
 31
0.0
  0
ARC
  5
399
330
1F
100
AcDbEntity
  8
0
  6
Continuous
 62
     7
 48
3.0625
370
    15
100
AcDbCircle
 10
25.2436548728
 20
13.6530271632
 30
0.0
 40
0.2123270783638093
100
AcDbArc
 50
244.6667856755
 51
284.8754633354
  0
LINE
  5
39A
330
1F
100
AcDbEntity
  8
0
  6
Continuous
 62
     7
 48
1.75
370
    15
100
AcDbLine
 10
24.8017397324
 20
14.0766421501
 30
0.0
 11
24.7462908873
 21
14.045382365
 31
0.0
  0
ARC
  5
39B
330
1F
100
AcDbEntity
  8
0
  6
Continuous
 62
     7
 48
3.0625
370
    15
100
AcDbCircle
 10
25.0171831956
 20
14.058672606
 30
0.0
 40
0.2161915593523634
100
AcDbArc
 50
134.2123356856
 51
175.2321531429
  0
ARC
  5
39C
330
1F
100
AcDbEntity
  8
0
  6
Continuous
 62
     7
 48
3.0625
370
    15
100
AcDbCircle
 10
24.2225616164
 20
16.1920785979
 30
0.0
 40
0.0464220987068118
100
AcDbArc
 50
54.2995316168
 51
113.9316542591
  0
LINE
  5
39D
330
1F
100
AcDbEntity
  8
0
  6
Continuous
 62
     7
 48
1.75
370
    15
100
AcDbLine
 10
24.8014054101
 20
13.9741150677
 30
0.0
 11
24.745956565
 21
13.9428552825
 31
0.0
  0
LINE
  5
39E
330
1F
100
AcDbEntity
  8
0
  6
Continuous
 62
     7
 48
1.75
370
    15
100
AcDbLine
 10
25.0648908207
 20
13.5121440971
 30
0.0
 11
25.0094419756
 21
13.480884312
 31
0.0
  0
ARC
  5
39F
330
1F
100
AcDbEntity
  8
0
  6
Continuous
 62
     7
 48
3.0625
370
    15
100
AcDbCircle
 10
25.5003690282
 20
14.0666443585
 30
0.0
 40
0.705061564028597
100
AcDbArc
 50
187.5410080398
 51
231.8555895912
  0
LINE
  5
3A0
330
1F
100
AcDbEntity
  8
0
  6
Continuous
 62
     7
 48
1.75
370
    15
100
AcDbLine
 10
25.0647265187
 20
13.4617573711
 30
0.0
 11
25.0092776736
 21
13.430497586
 31
0.0
  0
LINE
  5
3A1
330
1F
100
AcDbEntity
  8
0
  6
Continuous
 62
     7
 48
1.75
370
    15
100
AcDbLine
 10
25.0647265187
 20
13.4617573711
 30
0.0
 11
25.108682689
 21
13.4362448503
 31
0.0
  0
LINE
  5
3A2
330
1F
100
AcDbEntity
  8
0
  6
Continuous
 62
     7
 48
1.75
370
    15
100
AcDbLine
 10
24.7582006532
 20
13.9991914621
 30
0.0
 11
24.7027518081
 21
13.9679316769
 31
0.0
  0
LINE
  5
3A3
330
1F
100
AcDbEntity
  8
0
  6
Continuous
 62
     7
 48
1.75
370
    15
100
AcDbLine
 10
24.7583734851
 20
14.0521940477
 30
0.0
 11
24.7582006532
 21
13.9991914621
 31
0.0
  0
LINE
  5
3A4
330
1F
100
AcDbEntity
  8
0
  6
Continuous
 62
     7
 48
1.75
370
    15
100
AcDbLine
 10
25.0648908207
 20
13.5121440971
 30
0.0
 11
25.0647265187
 21
13.4617573711
 31
0.0
  0
LINE
  5
3A5
330
1F
100
AcDbEntity
  8
0
  6
Continuous
 62
     7
 48
1.75
370
    15
100
AcDbLine
 10
24.7582006532
 20
13.9991914621
 30
0.0
 11
24.8014054101
 21
13.9741150677
 31
0.0
  0
LINE
  5
3A6
330
1F
100
AcDbEntity
  8
0
  6
Continuous
 62
     7
 48
1.75
370
    15
100
AcDbLine
 10
25.400200549
 20
11.7637644252
 30
0.0
 11
25.3568343774
 21
11.7393163559
 31
0.0
  0
LINE
  5
3A7
330
1F
100
AcDbEntity
  8
0
  6
Continuous
 62
     7
 48
1.75
370
    15
100
AcDbLine
 10
25.0498913825
 20
12.379713658
 30
0.0
 11
25.0057701481
 21
12.3548399152
 31
0.0
  0
LINE
  5
3A8
330
1F
100
AcDbEntity
  8
0
  6
Continuous
 62
     7
 48
1.75
370
    15
100
AcDbLine
 10
25.1467861596
 20
11.6156309263
 30
0.0
 11
25.0913373145
 21
11.5843711412
 31
0.0
  0
ARC
  5
3A9
330
1F
100
AcDbEntity
  8
0
  6
Continuous
 62
     7
 48
3.0625
370
    15
100
AcDbCircle
 10
25.2376371935
 20
11.8075408409
 30
0.0
 40
0.2123283440087104
100
AcDbArc
 50
244.6669106863
 51
284.8753383245
  0
LINE
  5
3AA
330
1F
100
AcDbEntity
  8
0
  6
Continuous
 62
     7
 48
1.75
370
    15
100
AcDbLine
 10
24.7957219303
 20
12.2311544857
 30
0.0
 11
24.7402730852
 21
12.1998947005
 31
0.0
  0
ARC
  5
3AB
330
1F
100
AcDbEntity
  8
0
  6
Continuous
 62
     7
 48
3.0625
370
    15
100
AcDbCircle
 10
25.0111649902
 20
12.213185132
 30
0.0
 40
0.216191141668066
100
AcDbArc
 50
134.2122942762
 51
175.2321945524
  0
ARC
  5
3AC
330
1F
100
AcDbEntity
  8
0
  6
Continuous
 62
     7
 48
3.0625
370
    15
100
AcDbCircle
 10
26.585348048
 20
9.9884327185
 30
0.0
 40
0.0450112748590665
100
AcDbArc
 50
303.6313411546
 51
7.1119022708
  0
LINE
  5
3AD
330
1F
100
AcDbEntity
  8
0
  6
Continuous
 62
     7
 48
1.75
370
    15
100
AcDbLine
 10
24.795387608
 20
12.1286274033
 30
0.0
 11
24.7399387629
 21
12.0973676181
 31
0.0
  0
LINE
  5
3AE
330
1F
100
AcDbEntity
  8
0
  6
Continuous
 62
     7
 48
1.75
370
    15
100
AcDbLine
 10
25.0588730186
 20
11.6666564327
 30
0.0
 11
25.0034241735
 21
11.6353966475
 31
0.0
  0
ARC
  5
3AF
330
1F
100
AcDbEntity
  8
0
  6
Continuous
 62
     7
 48
3.0625
370
    15
100
AcDbCircle
 10
25.4943515937
 20
12.2211569038
 30
0.0
 40
0.705061955999938
100
AcDbArc
 50
187.5410210111
 51
231.8555766199
  0
LINE
  5
3B0
330
1F
100
AcDbEntity
  8
0
  6
Continuous
 62
     7
 48
1.75
370
    15
100
AcDbLine
 10
25.0587087167
 20
11.6162697669
 30
0.0
 11
25.0032598717
 21
11.5850099817
 31
0.0
  0
LINE
  5
3B1
330
1F
100
AcDbEntity
  8
0
  6
Continuous
 62
     7
 48
1.75
370
    15
100
AcDbLine
 10
25.0587087167
 20
11.6162697669
 30
0.0
 11
25.102664887
 21
11.590757246
 31
0.0
  0
LINE
  5
3B2
330
1F
100
AcDbEntity
  8
0
  6
Continuous
 62
     7
 48
1.75
370
    15
100
AcDbLine
 10
24.7521828511
 20
12.1537037976
 30
0.0
 11
24.696734006
 21
12.1224440125
 31
0.0
  0
LINE
  5
3B3
330
1F
100
AcDbEntity
  8
0
  6
Continuous
 62
     7
 48
1.75
370
    15
100
AcDbLine
 10
24.752355683
 20
12.2067063833
 30
0.0
 11
24.7521828511
 21
12.1537037976
 31
0.0
  0
LINE
  5
3B4
330
1F
100
AcDbEntity
  8
0
  6
Continuous
 62
     7
 48
1.75
370
    15
100
AcDbLine
 10
25.0588730186
 20
11.6666564327
 30
0.0
 11
25.0587087167
 21
11.6162697669
 31
0.0
  0
LINE
  5
3B5
330
1F
100
AcDbEntity
  8
0
  6
Continuous
 62
     7
 48
1.75
370
    15
100
AcDbLine
 10
24.7521828511
 20
12.1537037976
 30
0.0
 11
24.795387608
 21
12.1286274033
 31
0.0
  0
ARC
  5
3B6
330
1F
100
AcDbEntity
  8
0
  6
Continuous
 62
     7
 48
3.0625
370
    15
100
AcDbCircle
 10
28.0745508107
 20
15.6413619145
 30
0.0
 40
0.1427893942520981
100
AcDbArc
 50
2.2766734361
 51
57.1198233767
  0
LINE
  5
3B7
330
1F
100
AcDbEntity
  8
0
  6
Continuous
 62
     7
 48
1.75
370
    15
100
AcDbLine
 10
28.2172274943
 20
15.6470342221
 30
0.0
 11
28.2023461391
 21
11.0833485647
 31
0.0
  0
LINE
  5
3B8
330
1F
100
AcDbEntity
  8
0
  6
Continuous
 62
     7
 48
1.75
370
    15
100
AcDbLine
 10
25.9971419818
 20
17.0120147554
 30
0.0
 11
28.1520688772
 21
15.7612775535
 31
0.0
  0
LINE
  5
3B9
330
1F
100
AcDbEntity
  8
0
  6
Continuous
 62
     7
 48
1.75
370
    15
100
AcDbLine
 10
24.9407547712
 20
11.7848205091
 30
0.0
 11
25.31790532
 21
11.9974425233
 31
0.0
  0
LWPOLYLINE
  5
3BA
330
1F
100
AcDbEntity
  8
0
  6
Continuous
 62
     7
 48
1.75
370
    15
100
AcDbPolyline
 90
        3
 70
   128
 43
0.0
 10
25.7755082086
 20
14.6283705122
 10
25.7803224783
 20
14.6308820107
 10
25.7859913482
 20
14.6333571737
  0
LWPOLYLINE
  5
3BB
330
1F
100
AcDbEntity
  8
0
  6
Continuous
 62
     7
 48
1.75
370
    15
100
AcDbPolyline
 90
        3
 70
   128
 43
0.0
 10
25.7621353151
 20
10.5272868535
 10
25.7669495848
 20
10.529798352
 10
25.7726184547
 20
10.532273515
  0
LWPOLYLINE
  5
3BC
330
1F
100
AcDbEntity
  8
0
  6
Continuous
 62
     7
 48
1.75
370
    15
100
AcDbPolyline
 90
        3
 70
   128
 43
0.0
 10
24.0172453621
 20
15.6488806546
 10
24.0220596318
 20
15.6513921531
 10
24.0277285532
 20
15.6538672861
  0
LWPOLYLINE
  5
3BD
330
1F
100
AcDbEntity
  8
0
  6
Continuous
 62
     7
 48
1.75
370
    15
100
AcDbPolyline
 90
        3
 70
   128
 43
0.0
 10
24.0038724686
 20
11.5477969959
 10
24.0086867383
 20
11.5503084944
 10
24.0143556597
 20
11.5527836275
  0
LWPOLYLINE
  5
3BE
330
1F
100
AcDbEntity
  8
0
  6
Continuous
 62
     7
 48
1.75
370
    15
100
AcDbPolyline
 90
       22
 70
   128
 43
0.0
 10
25.827432308
 20
14.2668487598
 10
25.8462277773
 20
14.267175514
 10
25.8613748334
 20
14.2755813521
 10
25.871527653
 20
14.2913192679
 10
25.8757840178
 20
14.3129909084
 10
25.873765812
 20
14.3386707562
 10
25.8656523399
 20
14.3660768596
 10
25.8521644534
 20
14.3927742103
 10
25.8345007687
 20
14.4163906226
 10
25.8142305646
 20
14.4348276234
 10
25.793155081
 20
14.4464470177
 10
25.7731470321
 20
14.450216103
 10
25.7559840585
 20
14.4458007192
 10
25.7431912138
 20
14.433592311
 10
25.7359052716
 20
14.4146762838
 10
25.7347735386
 20
14.3907330874
 10
25.7398965838
 20
14.3638904286
 10
25.7508192478
 20
14.3365331185
 10
25.7665709827
 20
14.3110921222
 10
25.7857522148
 20
14.2898279892
 10
25.8066584793
 20
14.2746300833
 10
25.827432308
 20
14.2668487598
  0
LWPOLYLINE
  5
3BF
330
1F
100
AcDbEntity
  8
0
  6
Continuous
 62
     7
 48
1.75
370
    15
100
AcDbPolyline
 90
       19
 70
   128
 43
0.0
 10
25.983999177
 20
14.218308388
 10
25.9856325468
 20
14.2190357812
 10
26.0058668671
 20
14.2330771609
 10
26.0212600261
 20
14.2541400067
 10
26.0311819048
 20
14.2813618978
 10
26.0352262357
 20
14.313628517
 10
26.033227492
 20
14.3496188074
 10
26.0252675765
 20
14.3878594245
 10
26.0116721916
 20
14.4267844532
 10
25.9929981347
 20
14.4648006341
 10
25.9700097377
 20
14.5003516583
 10
25.943648277
 20
14.5319814806
 10
25.9149929026
 20
14.5583958053
 10
25.8852168821
 20
14.5785130341
 10
25.8555391763
 20
14.5915094864
 10
25.8271747877
 20
14.5968530383
 10
25.8012849679
 20
14.5943250322
 10
25.7789296549
 20
14.5840288401
 10
25.7781359484
 20
14.5834701156
  0
LWPOLYLINE
  5
3C0
330
1F
100
AcDbEntity
  8
0
  6
Continuous
 62
     7
 48
1.75
370
    15
100
AcDbPolyline
 90
       23
 70
   128
 43
0.0
 10
25.9100260165
 20
14.203402999
 10
25.9369182562
 20
14.2020074029
 10
25.9608319352
 20
14.2083639321
 10
25.9807880408
 20
14.2222124472
 10
25.9959696377
 20
14.2429857702
 10
26.0057551205
 20
14.269833533
 10
26.0097439551
 20
14.301656531
 10
26.0077726394
 20
14.3371524188
 10
25.9999221056
 20
14.3748672169
 10
25.9865136852
 20
14.4132573134
 10
25.9680961847
 20
14.4507509602
 10
25.9454237743
 20
14.4858131735
 10
25.9194246729
 20
14.5170085035
 10
25.891163204
 20
14.5430596966
 10
25.8617964597
 20
14.5629003282
 10
25.8325266442
 20
14.5757181305
 10
25.8045520936
 20
14.5809882426
 10
25.7790181538
 20
14.5784949714
 10
25.7569701348
 20
14.568340296
 10
25.7393106688
 20
14.5509401731
 10
25.726762758
 20
14.5270069348
 10
25.719840071
 20
14.4975200057
 10
25.7185551048
 20
14.4799082055
  0
LWPOLYLINE
  5
3C1
330
1F
100
AcDbEntity
  8
0
  6
Continuous
 62
     7
 48
1.75
370
    15
100
AcDbPolyline
 90
        3
 70
   128
 43
0.0
 10
25.8662290792
 20
14.2199902032
 10
25.8812562792
 20
14.2124936684
 10
25.9100260165
 20
14.203402999
  0
LWPOLYLINE
  5
3C2
330
1F
100
AcDbEntity
  8
0
  6
Continuous
 62
     7
 48
1.75
370
    15
100
AcDbPolyline
 90
       16
 70
   128
 43
0.0
 10
25.9522139651
 20
14.2351784398
 10
25.9682003038
 20
14.248184139
 10
25.9810856995
 20
14.2688402835
 10
25.9885039923
 20
14.2952251857
 10
25.9901082607
 20
14.3261055958
 10
25.9858236232
 20
14.3600370979
 10
25.9758503567
 20
14.3954330476
 10
25.9606548372
 20
14.4306386504
 10
25.9409474681
 20
14.4640078913
 10
25.9176499614
 20
14.4939798942
 10
25.8918514536
 20
14.5191535679
 10
25.8647584882
 20
14.5383518287
 10
25.8376376338
 20
14.5506770823
 10
25.8117572285
 20
14.5555525088
 10
25.7883273783
 20
14.5527508612
 10
25.7761161472
 20
14.5475421847
  0
LINE
  5
3C3
330
1F
100
AcDbEntity
  8
0
  6
Continuous
 62
     7
 48
1.75
370
    15
100
AcDbLine
 10
25.8684537299
 20
14.3310257841
 30
0.0
 11
25.8607036685
 21
14.3627886074
 31
0.0
  0
LINE
  5
3C4
330
1F
100
AcDbEntity
  8
0
  6
Continuous
 62
     7
 48
1.75
370
    15
100
AcDbLine
 10
25.8607036685
 20
14.3627886074
 30
0.0
 11
25.8129743689
 21
14.3717803409
 31
0.0
  0
LINE
  5
3C5
330
1F
100
AcDbEntity
  8
0
  6
Continuous
 62
     7
 48
1.75
370
    15
100
AcDbLine
 10
25.8129743689
 20
14.3717803409
 30
0.0
 11
25.7971421916
 21
14.4366670816
 31
0.0
  0
LINE
  5
3C6
330
1F
100
AcDbEntity
  8
0
  6
Continuous
 62
     7
 48
1.75
370
    15
100
AcDbLine
 10
25.7971421916
 20
14.4366670816
 30
0.0
 11
25.7737781504
 21
14.4410688464
 31
0.0
  0
LINE
  5
3C7
330
1F
100
AcDbEntity
  8
0
  6
Continuous
 62
     7
 48
1.75
370
    15
100
AcDbLine
 10
25.7737781504
 20
14.4410688464
 30
0.0
 11
25.7896103269
 21
14.376181865
 31
0.0
  0
LINE
  5
3C8
330
1F
100
AcDbEntity
  8
0
  6
Continuous
 62
     7
 48
1.75
370
    15
100
AcDbLine
 10
25.7896103269
 20
14.376181865
 30
0.0
 11
25.7418809757
 21
14.3851736284
 31
0.0
  0
LINE
  5
3C9
330
1F
100
AcDbEntity
  8
0
  6
Continuous
 62
     7
 48
1.75
370
    15
100
AcDbLine
 10
25.7418809757
 20
14.3851736284
 30
0.0
 11
25.7496309859
 21
14.3534109552
 31
0.0
  0
LINE
  5
3CA
330
1F
100
AcDbEntity
  8
0
  6
Continuous
 62
     7
 48
1.75
370
    15
100
AcDbLine
 10
25.7496309859
 20
14.3534109552
 30
0.0
 11
25.7973603883
 21
14.3444190416
 31
0.0
  0
LINE
  5
3CB
330
1F
100
AcDbEntity
  8
0
  6
Continuous
 62
     7
 48
1.75
370
    15
100
AcDbLine
 10
25.7973603883
 20
14.3444190416
 30
0.0
 11
25.8131925655
 21
14.2795323009
 31
0.0
  0
LINE
  5
3CC
330
1F
100
AcDbEntity
  8
0
  6
Continuous
 62
     7
 48
1.75
370
    15
100
AcDbLine
 10
25.8131925655
 20
14.2795323009
 30
0.0
 11
25.8365566076
 21
14.2751307767
 31
0.0
  0
LINE
  5
3CD
330
1F
100
AcDbEntity
  8
0
  6
Continuous
 62
     7
 48
1.75
370
    15
100
AcDbLine
 10
25.8365566076
 20
14.2751307767
 30
0.0
 11
25.8207243271
 21
14.3400175773
 31
0.0
  0
LINE
  5
3CE
330
1F
100
AcDbEntity
  8
0
  6
Continuous
 62
     7
 48
1.75
370
    15
100
AcDbLine
 10
25.8207243271
 20
14.3400175773
 30
0.0
 11
25.8684537299
 21
14.3310257841
 31
0.0
  0
LINE
  5
3CF
330
1F
100
AcDbEntity
  8
0
  6
Continuous
 62
     7
 48
1.75
370
    15
100
AcDbLine
 10
25.8295316164
 20
14.2887435878
 30
0.0
 11
25.8334134705
 21
14.2880122732
 31
0.0
  0
LINE
  5
3D0
330
1F
100
AcDbEntity
  8
0
  6
Continuous
 62
     7
 48
1.75
370
    15
100
AcDbLine
 10
25.8136994392
 20
14.3536303285
 30
0.0
 11
25.8295316164
 21
14.2887435878
 31
0.0
  0
LINE
  5
3D1
330
1F
100
AcDbEntity
  8
0
  6
Continuous
 62
     7
 48
1.75
370
    15
100
AcDbLine
 10
25.7659700368
 20
14.3626222421
 30
0.0
 11
25.8136994392
 21
14.3536303285
 31
0.0
  0
LINE
  5
3D2
330
1F
100
AcDbEntity
  8
0
  6
Continuous
 62
     7
 48
1.75
370
    15
100
AcDbLine
 10
25.7613630777
 20
14.3815034821
 30
0.0
 11
25.7659700368
 21
14.3626222421
 31
0.0
  0
LINE
  5
3D3
330
1F
100
AcDbEntity
  8
0
  6
Continuous
 62
     7
 48
1.75
370
    15
100
AcDbLine
 10
25.7932602516
 20
14.4373984595
 30
0.0
 11
25.8059493778
 21
14.3853931519
 31
0.0
  0
LINE
  5
3D4
330
1F
100
AcDbEntity
  8
0
  6
Continuous
 62
     7
 48
1.75
370
    15
100
AcDbLine
 10
25.837063378
 20
14.3492288643
 30
0.0
 11
25.8653105928
 21
14.3439072806
 31
0.0
  0
LINE
  5
3D5
330
1F
100
AcDbEntity
  8
0
  6
Continuous
 62
     7
 48
1.75
370
    15
100
AcDbLine
 10
25.837063378
 20
14.3492288643
 30
0.0
 11
25.8207243271
 21
14.3400175773
 31
0.0
  0
LINE
  5
3D6
330
1F
100
AcDbEntity
  8
0
  6
Continuous
 62
     7
 48
1.75
370
    15
100
AcDbLine
 10
25.8059493778
 20
14.3853931519
 30
0.0
 11
25.7896103269
 21
14.376181865
 31
0.0
  0
LINE
  5
3D7
330
1F
100
AcDbEntity
  8
0
  6
Continuous
 62
     7
 48
1.75
370
    15
100
AcDbLine
 10
25.8295316164
 20
14.2887435878
 30
0.0
 11
25.8131925655
 21
14.2795323009
 31
0.0
  0
LINE
  5
3D8
330
1F
100
AcDbEntity
  8
0
  6
Continuous
 62
     7
 48
1.75
370
    15
100
AcDbLine
 10
25.7659700368
 20
14.3626222421
 30
0.0
 11
25.7496309859
 21
14.3534109552
 31
0.0
  0
LINE
  5
3D9
330
1F
100
AcDbEntity
  8
0
  6
Continuous
 62
     7
 48
1.75
370
    15
100
AcDbLine
 10
25.8136994392
 20
14.3536303285
 30
0.0
 11
25.7973603883
 21
14.3444190416
 31
0.0
  0
LWPOLYLINE
  5
3DA
330
1F
100
AcDbEntity
  8
0
  6
Continuous
 62
     7
 48
1.75
370
    15
100
AcDbPolyline
 90
       22
 70
   128
 43
0.0
 10
24.0557965684
 20
11.1862753639
 10
24.0745920376
 20
11.186602118
 10
24.0897391449
 20
11.1950078059
 10
24.0998919134
 20
11.210745872
 10
24.1041482782
 20
11.2324175124
 10
24.1021300716
 20
11.2580971196
 10
24.0940165998
 20
11.2855033433
 10
24.0805287649
 20
11.3122006641
 10
24.0628649767
 20
11.335817016
 10
24.0425948757
 20
11.3542539569
 10
24.0215193921
 20
11.3658733512
 10
24.0015112925
 20
11.369642707
 10
23.9843482665
 20
11.3652271126
 10
23.9715555257
 20
11.3530188852
 10
23.9642694804
 20
11.3341029177
 10
23.963137799
 20
11.3101596915
 10
23.9682608442
 20
11.2833170327
 10
23.9791835078
 20
11.2559596023
 10
23.9949352427
 20
11.230518606
 10
24.0141164743
 20
11.2092543526
 10
24.0350227905
 20
11.1940564168
 10
24.0557965684
 20
11.1862753639
  0
LWPOLYLINE
  5
3DB
330
1F
100
AcDbEntity
  8
0
  6
Continuous
 62
     7
 48
1.75
370
    15
100
AcDbPolyline
 90
       19
 70
   128
 43
0.0
 10
24.212363437
 20
11.1377348718
 10
24.213996858
 20
11.1384621148
 10
24.2342311267
 20
11.1525035244
 10
24.2496242857
 20
11.1735663702
 10
24.2595461136
 20
11.2007885318
 10
24.263590496
 20
11.233055121
 10
24.2615917524
 20
11.2690454114
 10
24.2536317849
 20
11.3072859382
 10
24.240036452
 20
11.3462110572
 10
24.2213623435
 20
11.3842272681
 10
24.1983739973
 20
11.4197780218
 10
24.1720125374
 20
11.4514080846
 10
24.1433571629
 20
11.4778224094
 10
24.1135810905
 20
11.4979395478
 10
24.0839033847
 20
11.5109360001
 10
24.0555390477
 20
11.516279522
 10
24.0296491763
 20
11.5137515459
 10
24.0072939152
 20
11.5034554442
 10
24.00650026
 20
11.5028965694
  0
LWPOLYLINE
  5
3DC
330
1F
100
AcDbEntity
  8
0
  6
Continuous
 62
     7
 48
1.75
370
    15
100
AcDbPolyline
 90
       23
 70
   128
 43
0.0
 10
24.1383902768
 20
11.1228296031
 10
24.1652825161
 20
11.1214338867
 10
24.1891961956
 20
11.1277905362
 10
24.2091523519
 20
11.1416387807
 10
24.2243339492
 20
11.1624122241
 10
24.2341194325
 20
11.1892601071
 10
24.2381081639
 20
11.221083165
 10
24.2361369506
 20
11.2565787523
 10
24.2282863656
 20
11.2942937007
 10
24.2148778936
 20
11.3326838271
 10
24.1964604447
 20
11.370177444
 10
24.1737880859
 20
11.4052396273
 10
24.1477889325
 20
11.436434867
 10
24.119527464
 20
11.4624861804
 10
24.0901606681
 20
11.4823268419
 10
24.0608909038
 20
11.495144494
 10
24.0329163536
 20
11.5004147263
 10
24.0073824137
 20
11.4979214552
 10
23.9853343432
 20
11.4877668097
 10
23.9676748772
 20
11.4703666868
 10
23.955126966
 20
11.4464333282
 10
23.9482043313
 20
11.4169466098
 10
23.9469475061
 20
11.4003901823
  0
LWPOLYLINE
  5
3DD
330
1F
100
AcDbEntity
  8
0
  6
Continuous
 62
     7
 48
1.75
370
    15
100
AcDbPolyline
 90
        3
 70
   128
 43
0.0
 10
24.0945933907
 20
11.139416657
 10
24.1096205388
 20
11.1319200318
 10
24.1383902768
 20
11.1228296031
  0
LWPOLYLINE
  5
3DE
330
1F
100
AcDbEntity
  8
0
  6
Continuous
 62
     7
 48
1.75
370
    15
100
AcDbPolyline
 90
       16
 70
   128
 43
0.0
 10
24.1805782247
 20
11.1546048032
 10
24.1965646158
 20
11.1676107131
 10
24.2094499594
 20
11.1882667672
 10
24.2168682527
 20
11.2146517897
 10
24.2184725719
 20
11.2455319293
 10
24.2141878827
 20
11.2794634613
 10
24.2042146166
 20
11.3148595313
 10
24.1890190976
 20
11.3500652544
 10
24.1693117792
 20
11.3834342248
 10
24.1460142214
 20
11.413406378
 10
24.1202157655
 20
11.4385801421
 10
24.0931226966
 20
11.4577783424
 10
24.0660019449
 20
11.4701034158
 10
24.0401215404
 20
11.4749790829
 10
24.0166916379
 20
11.4721772246
 10
24.0044804068
 20
11.4669685481
  0
LINE
  5
3DF
330
1F
100
AcDbEntity
  8
0
  6
Continuous
 62
     7
 48
1.75
370
    15
100
AcDbLine
 10
24.0968179902
 20
11.2504523881
 30
0.0
 11
24.08906798
 21
11.2822150613
 31
0.0
  0
LINE
  5
3E0
330
1F
100
AcDbEntity
  8
0
  6
Continuous
 62
     7
 48
1.75
370
    15
100
AcDbLine
 10
24.08906798
 20
11.2822150613
 30
0.0
 11
24.0413385777
 21
11.2912069749
 31
0.0
  0
LINE
  5
3E1
330
1F
100
AcDbEntity
  8
0
  6
Continuous
 62
     7
 48
1.75
370
    15
100
AcDbLine
 10
24.0413385777
 20
11.2912069749
 30
0.0
 11
24.0255064004
 21
11.3560937156
 31
0.0
  0
LINE
  5
3E2
330
1F
100
AcDbEntity
  8
0
  6
Continuous
 62
     7
 48
1.75
370
    15
100
AcDbLine
 10
24.0255064004
 20
11.3560937156
 30
0.0
 11
24.0021423584
 21
11.3604952398
 31
0.0
  0
LINE
  5
3E3
330
1F
100
AcDbEntity
  8
0
  6
Continuous
 62
     7
 48
1.75
370
    15
100
AcDbLine
 10
24.0021423584
 20
11.3604952398
 30
0.0
 11
24.0179746388
 21
11.2956084391
 31
0.0
  0
LINE
  5
3E4
330
1F
100
AcDbEntity
  8
0
  6
Continuous
 62
     7
 48
1.75
370
    15
100
AcDbLine
 10
24.0179746388
 20
11.2956084391
 30
0.0
 11
23.9702452361
 21
11.3046002324
 31
0.0
  0
LINE
  5
3E5
330
1F
100
AcDbEntity
  8
0
  6
Continuous
 62
     7
 48
1.75
370
    15
100
AcDbLine
 10
23.9702452361
 20
11.3046002324
 30
0.0
 11
23.9779952975
 21
11.272837409
 31
0.0
  0
LINE
  5
3E6
330
1F
100
AcDbEntity
  8
0
  6
Continuous
 62
     7
 48
1.75
370
    15
100
AcDbLine
 10
23.9779952975
 20
11.272837409
 30
0.0
 11
24.025724597
 21
11.2638456756
 31
0.0
  0
LINE
  5
3E7
330
1F
100
AcDbEntity
  8
0
  6
Continuous
 62
     7
 48
1.75
370
    15
100
AcDbLine
 10
24.025724597
 20
11.2638456756
 30
0.0
 11
24.0415567743
 21
11.1989589348
 31
0.0
  0
LINE
  5
3E8
330
1F
100
AcDbEntity
  8
0
  6
Continuous
 62
     7
 48
1.75
370
    15
100
AcDbLine
 10
24.0415567743
 20
11.1989589348
 30
0.0
 11
24.0649208156
 21
11.1945571701
 31
0.0
  0
LINE
  5
3E9
330
1F
100
AcDbEntity
  8
0
  6
Continuous
 62
     7
 48
1.75
370
    15
100
AcDbLine
 10
24.0649208156
 20
11.1945571701
 30
0.0
 11
24.0490886391
 21
11.2594441515
 31
0.0
  0
LINE
  5
3EA
330
1F
100
AcDbEntity
  8
0
  6
Continuous
 62
     7
 48
1.75
370
    15
100
AcDbLine
 10
24.0490886391
 20
11.2594441515
 30
0.0
 11
24.0968179902
 21
11.2504523881
 31
0.0
  0
LINE
  5
3EB
330
1F
100
AcDbEntity
  8
0
  6
Continuous
 62
     7
 48
1.75
370
    15
100
AcDbLine
 10
24.0578958252
 20
11.2081702218
 30
0.0
 11
24.0617776793
 21
11.2074389072
 31
0.0
  0
LINE
  5
3EC
330
1F
100
AcDbEntity
  8
0
  6
Continuous
 62
     7
 48
1.75
370
    15
100
AcDbLine
 10
24.042063648
 20
11.2730569625
 30
0.0
 11
24.0578958252
 21
11.2081702218
 31
0.0
  0
LINE
  5
3ED
330
1F
100
AcDbEntity
  8
0
  6
Continuous
 62
     7
 48
1.75
370
    15
100
AcDbLine
 10
23.9943343484
 20
11.2820486959
 30
0.0
 11
24.042063648
 21
11.2730569625
 31
0.0
  0
LINE
  5
3EE
330
1F
100
AcDbEntity
  8
0
  6
Continuous
 62
     7
 48
1.75
370
    15
100
AcDbLine
 10
23.9897273889
 20
11.3009298156
 30
0.0
 11
23.9943343484
 21
11.2820486959
 31
0.0
  0
LINE
  5
3EF
330
1F
100
AcDbEntity
  8
0
  6
Continuous
 62
     7
 48
1.75
370
    15
100
AcDbLine
 10
24.0216245116
 20
11.3568249433
 30
0.0
 11
24.0343136897
 21
11.304819726
 31
0.0
  0
LINE
  5
3F0
330
1F
100
AcDbEntity
  8
0
  6
Continuous
 62
     7
 48
1.75
370
    15
100
AcDbLine
 10
24.06542769
 20
11.2686554384
 30
0.0
 11
24.0936748532
 21
11.2633338846
 31
0.0
  0
LINE
  5
3F1
330
1F
100
AcDbEntity
  8
0
  6
Continuous
 62
     7
 48
1.75
370
    15
100
AcDbLine
 10
24.06542769
 20
11.2686554384
 30
0.0
 11
24.0490886391
 21
11.2594441515
 31
0.0
  0
LINE
  5
3F2
330
1F
100
AcDbEntity
  8
0
  6
Continuous
 62
     7
 48
1.75
370
    15
100
AcDbLine
 10
24.0343136897
 20
11.304819726
 30
0.0
 11
24.0179746388
 21
11.2956084391
 31
0.0
  0
LINE
  5
3F3
330
1F
100
AcDbEntity
  8
0
  6
Continuous
 62
     7
 48
1.75
370
    15
100
AcDbLine
 10
24.0578958252
 20
11.2081702218
 30
0.0
 11
24.0415567743
 21
11.1989589348
 31
0.0
  0
LINE
  5
3F4
330
1F
100
AcDbEntity
  8
0
  6
Continuous
 62
     7
 48
1.75
370
    15
100
AcDbLine
 10
23.9943343484
 20
11.2820486959
 30
0.0
 11
23.9779952975
 21
11.272837409
 31
0.0
  0
LINE
  5
3F5
330
1F
100
AcDbEntity
  8
0
  6
Continuous
 62
     7
 48
1.75
370
    15
100
AcDbLine
 10
24.042063648
 20
11.2730569625
 30
0.0
 11
24.025724597
 21
11.2638456756
 31
0.0
  0
LWPOLYLINE
  5
3F6
330
1F
100
AcDbEntity
  8
0
  6
Continuous
 62
     7
 48
1.75
370
    15
100
AcDbPolyline
 90
       22
 70
   128
 43
0.0
 10
25.8170721313
 20
10.1652867059
 10
25.8354167216
 20
10.166854779
 10
25.8498853183
 20
10.1764343161
 10
25.8591922145
 20
10.1931738761
 10
25.8625105501
 20
10.2155859296
 10
25.8595454984
 20
10.2416793826
 10
25.8505604706
 20
10.2691355195
 10
25.8363537098
 20
10.2955149099
 10
25.8181877908
 20
10.3184733291
 10
25.7976766229
 20
10.3359711293
 10
25.7766428517
 20
10.346453388
 10
25.7569553361
 20
10.3489887115
 10
25.7403634455
 20
10.3433519119
 10
25.728341434
 20
10.3300438259
 10
25.7219574602
 20
10.3102468124
 10
25.7217788396
 20
10.2857200496
 10
25.7278214112
 20
10.2586428326
 10
25.739548287
 20
10.2314212545
 10
25.7559174659
 20
10.2064735165
 10
25.7754744605
 20
10.1860170738
 10
25.7964815514
 20
10.171868993
 10
25.8170721313
 20
10.1652867059
  0
LWPOLYLINE
  5
3F7
330
1F
100
AcDbEntity
  8
0
  6
Continuous
 62
     7
 48
1.75
370
    15
100
AcDbPolyline
 90
       18
 70
   128
 43
0.0
 10
25.9706262835
 20
10.1172247294
 10
25.9771560158
 20
10.1204430919
 10
25.9963750042
 20
10.1361122196
 10
26.0105940595
 20
10.1586341505
 10
26.0192309238
 20
10.1870868659
 10
26.0219320776
 20
10.2203054264
 10
26.0185869504
 20
10.2569298876
 10
26.0093324432
 20
10.2954608892
 10
25.9945475471
 20
10.3343209914
 10
25.9748374327
 20
10.3719192309
 10
25.9510090659
 20
10.4067163756
 10
25.9240380326
 20
10.4372876899
 10
25.8950284254
 20
10.4623817711
 10
25.8651679499
 20
10.4809710726
 10
25.835679182
 20
10.4922946579
 10
25.8077693383
 20
10.4958889208
 10
25.7825809911
 20
10.4916066693
 10
25.7647630549
 20
10.4823864569
  0
LWPOLYLINE
  5
3F8
330
1F
100
AcDbEntity
  8
0
  6
Continuous
 62
     7
 48
1.75
370
    15
100
AcDbPolyline
 90
       23
 70
   128
 43
0.0
 10
25.9028586973
 20
10.1013338047
 10
25.9291779684
 20
10.101674757
 10
25.9522880149
 20
10.109737077
 10
25.9712428738
 20
10.125190943
 10
25.9852664235
 20
10.1474033051
 10
25.9937846115
 20
10.1754647378
 10
25.9964487259
 20
10.2082267952
 10
25.9931495996
 20
10.2443478818
 10
25.9840222375
 20
10.2823493832
 10
25.9694405335
 20
10.3206752586
 10
25.9500013592
 20
10.3577567169
 10
25.9265004848
 20
10.3920756077
 10
25.8999001251
 20
10.4222267675
 10
25.8712893397
 20
10.4469758349
 10
25.8418393461
 20
10.4653096543
 10
25.8127558565
 20
10.4764775591
 10
25.7852295732
 20
10.4800223944
 10
25.7603874703
 20
10.4757990312
 10
25.7392465141
 20
10.4639803767
 10
25.722672302
 20
10.4450502849
 10
25.7113432918
 20
10.4197837016
 10
25.7057233642
 20
10.3892151031
 10
25.7053026257
 20
10.3824269256
  0
LWPOLYLINE
  5
3F9
330
1F
100
AcDbEntity
  8
0
  6
Continuous
 62
     7
 48
1.75
370
    15
100
AcDbPolyline
 90
        3
 70
   128
 43
0.0
 10
25.8535130973
 20
10.1185409359
 10
25.8744079336
 20
10.1087282001
 10
25.9028586973
 20
10.1013338047
  0
LWPOLYLINE
  5
3FA
330
1F
100
AcDbEntity
  8
0
  6
Continuous
 62
     7
 48
1.75
370
    15
100
AcDbPolyline
 90
       17
 70
   128
 43
0.0
 10
25.9388410712
 20
10.1340946608
 10
25.9411477631
 20
10.1354640288
 10
25.9579434321
 20
10.150888241
 10
25.9697288776
 20
10.1728301439
 10
25.9759529192
 20
10.2002636268
 10
25.9763245907
 20
10.2319059688
 10
25.9708265627
 20
10.2662776629
 10
25.9597157823
 20
10.3017715871
 10
25.9435119352
 20
10.3367279182
 10
25.9229725883
 20
10.3695123171
 10
25.8990580929
 20
10.3985918607
 10
25.8728868622
 20
10.4226064375
 10
25.84568236
 20
10.4404336239
 10
25.8187168921
 20
10.4512396281
 10
25.7932512267
 20
10.4545190354
 10
25.7704760761
 20
10.4501187692
 10
25.7627432533
 20
10.4464584057
  0
LINE
  5
3FB
330
1F
100
AcDbEntity
  8
0
  6
Continuous
 62
     7
 48
1.75
370
    15
100
AcDbLine
 10
25.8546531913
 20
10.2335229636
 30
0.0
 11
25.84585451
 21
10.2654523299
 31
0.0
  0
LINE
  5
3FC
330
1F
100
AcDbEntity
  8
0
  6
Continuous
 62
     7
 48
1.75
370
    15
100
AcDbLine
 10
25.84585451
 20
10.2654523299
 30
0.0
 11
25.7988898763
 21
10.2715005619
 31
0.0
  0
LINE
  5
3FD
330
1F
100
AcDbEntity
  8
0
  6
Continuous
 62
     7
 48
1.75
370
    15
100
AcDbLine
 10
25.7988898763
 20
10.2715005619
 30
0.0
 11
25.780915424
 21
10.3367276047
 31
0.0
  0
LINE
  5
3FE
330
1F
100
AcDbEntity
  8
0
  6
Continuous
 62
     7
 48
1.75
370
    15
100
AcDbLine
 10
25.780915424
 20
10.3367276047
 30
0.0
 11
25.7579258059
 21
10.3396881225
 31
0.0
  0
LINE
  5
3FF
330
1F
100
AcDbEntity
  8
0
  6
Continuous
 62
     7
 48
1.75
370
    15
100
AcDbLine
 10
25.7579258059
 20
10.3396881225
 30
0.0
 11
25.7759003101
 21
10.27446117
 31
0.0
  0
LINE
  5
400
330
1F
100
AcDbEntity
  8
0
  6
Continuous
 62
     7
 48
1.75
370
    15
100
AcDbLine
 10
25.7759003101
 20
10.27446117
 30
0.0
 11
25.7289357273
 21
10.2805091315
 31
0.0
  0
LINE
  5
401
330
1F
100
AcDbEntity
  8
0
  6
Continuous
 62
     7
 48
1.75
370
    15
100
AcDbLine
 10
25.7289357273
 20
10.2805091315
 30
0.0
 11
25.737734461
 21
10.2485799759
 31
0.0
  0
LINE
  5
402
330
1F
100
AcDbEntity
  8
0
  6
Continuous
 62
     7
 48
1.75
370
    15
100
AcDbLine
 10
25.737734461
 20
10.2485799759
 30
0.0
 11
25.7846989915
 21
10.2425318038
 31
0.0
  0
LINE
  5
403
330
1F
100
AcDbEntity
  8
0
  6
Continuous
 62
     7
 48
1.75
370
    15
100
AcDbLine
 10
25.7846989915
 20
10.2425318038
 30
0.0
 11
25.8026734434
 21
10.1773046406
 31
0.0
  0
LINE
  5
404
330
1F
100
AcDbEntity
  8
0
  6
Continuous
 62
     7
 48
1.75
370
    15
100
AcDbLine
 10
25.8026734434
 20
10.1773046406
 30
0.0
 11
25.8256631127
 21
10.1743439726
 31
0.0
  0
LINE
  5
405
330
1F
100
AcDbEntity
  8
0
  6
Continuous
 62
     7
 48
1.75
370
    15
100
AcDbLine
 10
25.8256631127
 20
10.1743439726
 30
0.0
 11
25.8076886608
 21
10.2395711358
 31
0.0
  0
LINE
  5
406
330
1F
100
AcDbEntity
  8
0
  6
Continuous
 62
     7
 48
1.75
370
    15
100
AcDbLine
 10
25.8076886608
 20
10.2395711358
 30
0.0
 11
25.8546531913
 21
10.2335229636
 31
0.0
  0
LINE
  5
407
330
1F
100
AcDbEntity
  8
0
  6
Continuous
 62
     7
 48
1.75
370
    15
100
AcDbLine
 10
25.8190124943
 20
10.1865159275
 30
0.0
 11
25.8224301398
 21
10.1860757379
 31
0.0
  0
LINE
  5
408
330
1F
100
AcDbEntity
  8
0
  6
Continuous
 62
     7
 48
1.75
370
    15
100
AcDbLine
 10
25.8010380424
 20
10.2517430907
 30
0.0
 11
25.8190124943
 21
10.1865159275
 31
0.0
  0
LINE
  5
409
330
1F
100
AcDbEntity
  8
0
  6
Continuous
 62
     7
 48
1.75
370
    15
100
AcDbLine
 10
25.7540735119
 20
10.2577912628
 30
0.0
 11
25.8010380424
 21
10.2517430907
 31
0.0
  0
LINE
  5
40A
330
1F
100
AcDbEntity
  8
0
  6
Continuous
 62
     7
 48
1.75
370
    15
100
AcDbLine
 10
25.7485077167
 20
10.2779886865
 30
0.0
 11
25.7540735119
 21
10.2577912628
 31
0.0
  0
LINE
  5
40B
330
1F
100
AcDbEntity
  8
0
  6
Continuous
 62
     7
 48
1.75
370
    15
100
AcDbLine
 10
25.7774977434
 20
10.3371675872
 30
0.0
 11
25.7922393611
 21
10.2836724569
 31
0.0
  0
LINE
  5
40C
330
1F
100
AcDbEntity
  8
0
  6
Continuous
 62
     7
 48
1.75
370
    15
100
AcDbLine
 10
25.8240277117
 20
10.2487824227
 30
0.0
 11
25.8514202185
 21
10.2452547289
 31
0.0
  0
LINE
  5
40D
330
1F
100
AcDbEntity
  8
0
  6
Continuous
 62
     7
 48
1.75
370
    15
100
AcDbLine
 10
25.8240277117
 20
10.2487824227
 30
0.0
 11
25.8076886608
 21
10.2395711358
 31
0.0
  0
LINE
  5
40E
330
1F
100
AcDbEntity
  8
0
  6
Continuous
 62
     7
 48
1.75
370
    15
100
AcDbLine
 10
25.7922393611
 20
10.2836724569
 30
0.0
 11
25.7759003101
 21
10.27446117
 31
0.0
  0
LINE
  5
40F
330
1F
100
AcDbEntity
  8
0
  6
Continuous
 62
     7
 48
1.75
370
    15
100
AcDbLine
 10
25.8190124943
 20
10.1865159275
 30
0.0
 11
25.8026734434
 21
10.1773046406
 31
0.0
  0
LINE
  5
410
330
1F
100
AcDbEntity
  8
0
  6
Continuous
 62
     7
 48
1.75
370
    15
100
AcDbLine
 10
25.7540735119
 20
10.2577912628
 30
0.0
 11
25.737734461
 21
10.2485799759
 31
0.0
  0
LINE
  5
411
330
1F
100
AcDbEntity
  8
0
  6
Continuous
 62
     7
 48
1.75
370
    15
100
AcDbLine
 10
25.8010380424
 20
10.2517430907
 30
0.0
 11
25.7846989915
 21
10.2425318038
 31
0.0
  0
LWPOLYLINE
  5
412
330
1F
100
AcDbEntity
  8
0
  6
Continuous
 62
     7
 48
1.75
370
    15
100
AcDbPolyline
 90
       22
 70
   128
 43
0.0
 10
24.0691694615
 20
15.2873589022
 10
24.0879649307
 20
15.2876856564
 10
24.1031120384
 20
15.2960914646
 10
24.1132648065
 20
15.3118294103
 10
24.1175211713
 20
15.3335010508
 10
24.1155029655
 20
15.3591808986
 10
24.1073894933
 20
15.386587002
 10
24.0939016584
 20
15.4132843228
 10
24.0762378706
 20
15.4369007949
 10
24.0559677696
 20
15.4553377359
 10
24.034892286
 20
15.4669571302
 10
24.0148841856
 20
15.4707262454
 10
23.9977211604
 20
15.4663108916
 10
23.9849284188
 20
15.4541024235
 10
23.9776423735
 20
15.4351864561
 10
23.9765106921
 20
15.4112432298
 10
23.9816337373
 20
15.3844005711
 10
23.9925564013
 20
15.3570432609
 10
24.0083081362
 20
15.3316022647
 10
24.0274893682
 20
15.3103381316
 10
24.0483956844
 20
15.2951401958
 10
24.0691694615
 20
15.2873589022
  0
LWPOLYLINE
  5
413
330
1F
100
AcDbEntity
  8
0
  6
Continuous
 62
     7
 48
1.75
370
    15
100
AcDbPolyline
 90
       19
 70
   128
 43
0.0
 10
24.2257363305
 20
15.2388185305
 10
24.2273697519
 20
15.2395458937
 10
24.2476040206
 20
15.2535873033
 10
24.2629971796
 20
15.2746501491
 10
24.2729190067
 20
15.3018720701
 10
24.2769633891
 20
15.3341386594
 10
24.2749646455
 20
15.3701289498
 10
24.2670046784
 20
15.4083695968
 10
24.2534093451
 20
15.4472945956
 10
24.2347352366
 20
15.4853108065
 10
24.2117468912
 20
15.5208618007
 10
24.1853854305
 20
15.552491623
 10
24.156730056
 20
15.5789059477
 10
24.126953984
 20
15.5990232065
 10
24.0972762782
 20
15.6120196588
 10
24.0689119412
 20
15.6173631807
 10
24.0430220698
 20
15.6148352046
 10
24.0206668083
 20
15.6045389826
 10
24.0198731535
 20
15.6039802281
  0
LWPOLYLINE
  5
414
330
1F
100
AcDbEntity
  8
0
  6
Continuous
 62
     7
 48
1.75
370
    15
100
AcDbPolyline
 90
       23
 70
   128
 43
0.0
 10
24.1517631699
 20
15.2239131414
 10
24.1786554096
 20
15.2225175453
 10
24.2025690887
 20
15.2288740745
 10
24.2225252458
 20
15.2427225597
 10
24.2377068427
 20
15.2634958827
 10
24.2474923256
 20
15.2903436455
 10
24.251481057
 20
15.3221667033
 10
24.2495098445
 20
15.3576625313
 10
24.2416592591
 20
15.3953773593
 10
24.2282507872
 20
15.4337674857
 10
24.2098333382
 20
15.4712611026
 10
24.1871609794
 20
15.506323286
 10
24.1611618264
 20
15.5375186459
 10
24.1329003575
 20
15.563569839
 10
24.1035335616
 20
15.5834105006
 10
24.0742637977
 20
15.5962282729
 10
24.0462892471
 20
15.601498385
 10
24.0207553072
 20
15.5990051139
 10
23.9987072367
 20
15.5888504683
 10
23.9810477707
 20
15.5714503455
 10
23.9684998599
 20
15.5475171072
 10
23.9615772244
 20
15.5180301482
 10
23.9602922583
 20
15.5004183479
  0
LWPOLYLINE
  5
415
330
1F
100
AcDbEntity
  8
0
  6
Continuous
 62
     7
 48
1.75
370
    15
100
AcDbPolyline
 90
        3
 70
   128
 43
0.0
 10
24.1079662842
 20
15.2405003157
 10
24.1229934327
 20
15.2330038108
 10
24.1517631699
 20
15.2239131414
  0
LWPOLYLINE
  5
416
330
1F
100
AcDbEntity
  8
0
  6
Continuous
 62
     7
 48
1.75
370
    15
100
AcDbPolyline
 90
       16
 70
   128
 43
0.0
 10
24.1939511186
 20
15.2556885822
 10
24.2099375089
 20
15.2686942515
 10
24.2228228529
 20
15.2893504259
 10
24.2302411458
 20
15.3157353281
 10
24.2318454658
 20
15.3466157083
 10
24.2275607766
 20
15.3805472403
 10
24.2175875102
 20
15.41594319
 10
24.2023919907
 20
15.4511487928
 10
24.1826846731
 20
15.4845180037
 10
24.1593871149
 20
15.5144900366
 10
24.1335886586
 20
15.5396636804
 10
24.1064955901
 20
15.558862001
 10
24.0793748388
 20
15.5711871948
 10
24.0534944335
 20
15.5760626213
 10
24.0300645317
 20
15.5732610036
 10
24.0178533007
 20
15.5680523271
  0
LINE
  5
417
330
1F
100
AcDbEntity
  8
0
  6
Continuous
 62
     7
 48
1.75
370
    15
100
AcDbLine
 10
24.1101908833
 20
15.3515359265
 30
0.0
 11
24.1024408735
 21
15.3832987199
 31
0.0
  0
LINE
  5
418
330
1F
100
AcDbEntity
  8
0
  6
Continuous
 62
     7
 48
1.75
370
    15
100
AcDbLine
 10
24.1024408735
 20
15.3832987199
 30
0.0
 11
24.0547114708
 21
15.3922905132
 31
0.0
  0
LINE
  5
419
330
1F
100
AcDbEntity
  8
0
  6
Continuous
 62
     7
 48
1.75
370
    15
100
AcDbLine
 10
24.0547114708
 20
15.3922905132
 30
0.0
 11
24.0388792935
 21
15.457177254
 31
0.0
  0
LINE
  5
41A
330
1F
100
AcDbEntity
  8
0
  6
Continuous
 62
     7
 48
1.75
370
    15
100
AcDbLine
 10
24.0388792935
 20
15.457177254
 30
0.0
 11
24.0155152523
 21
15.4615790187
 31
0.0
  0
LINE
  5
41B
330
1F
100
AcDbEntity
  8
0
  6
Continuous
 62
     7
 48
1.75
370
    15
100
AcDbLine
 10
24.0155152523
 20
15.4615790187
 30
0.0
 11
24.0313475319
 21
15.3966919775
 31
0.0
  0
LINE
  5
41C
330
1F
100
AcDbEntity
  8
0
  6
Continuous
 62
     7
 48
1.75
370
    15
100
AcDbLine
 10
24.0313475319
 20
15.3966919775
 30
0.0
 11
23.9836181292
 21
15.4056837708
 31
0.0
  0
LINE
  5
41D
330
1F
100
AcDbEntity
  8
0
  6
Continuous
 62
     7
 48
1.75
370
    15
100
AcDbLine
 10
23.9836181292
 20
15.4056837708
 30
0.0
 11
23.991368191
 21
15.3739210677
 31
0.0
  0
LINE
  5
41E
330
1F
100
AcDbEntity
  8
0
  6
Continuous
 62
     7
 48
1.75
370
    15
100
AcDbLine
 10
23.991368191
 20
15.3739210677
 30
0.0
 11
24.0390974902
 21
15.364929214
 31
0.0
  0
LINE
  5
41F
330
1F
100
AcDbEntity
  8
0
  6
Continuous
 62
     7
 48
1.75
370
    15
100
AcDbLine
 10
24.0390974902
 20
15.364929214
 30
0.0
 11
24.0549296674
 21
15.3000424732
 31
0.0
  0
LINE
  5
420
330
1F
100
AcDbEntity
  8
0
  6
Continuous
 62
     7
 48
1.75
370
    15
100
AcDbLine
 10
24.0549296674
 20
15.3000424732
 30
0.0
 11
24.0782937095
 21
15.2956409491
 31
0.0
  0
LINE
  5
421
330
1F
100
AcDbEntity
  8
0
  6
Continuous
 62
     7
 48
1.75
370
    15
100
AcDbLine
 10
24.0782937095
 20
15.2956409491
 30
0.0
 11
24.0624615322
 21
15.3605276898
 31
0.0
  0
LINE
  5
422
330
1F
100
AcDbEntity
  8
0
  6
Continuous
 62
     7
 48
1.75
370
    15
100
AcDbLine
 10
24.0624615322
 20
15.3605276898
 30
0.0
 11
24.1101908833
 21
15.3515359265
 31
0.0
  0
LINE
  5
423
330
1F
100
AcDbEntity
  8
0
  6
Continuous
 62
     7
 48
1.75
370
    15
100
AcDbLine
 10
24.0712687184
 20
15.3092537601
 30
0.0
 11
24.0751505725
 21
15.3085224456
 31
0.0
  0
LINE
  5
424
330
1F
100
AcDbEntity
  8
0
  6
Continuous
 62
     7
 48
1.75
370
    15
100
AcDbLine
 10
24.0554365411
 20
15.3741405009
 30
0.0
 11
24.0712687184
 21
15.3092537601
 31
0.0
  0
LINE
  5
425
330
1F
100
AcDbEntity
  8
0
  6
Continuous
 62
     7
 48
1.75
370
    15
100
AcDbLine
 10
24.0077072419
 20
15.3831323546
 30
0.0
 11
24.0554365411
 21
15.3741405009
 31
0.0
  0
LINE
  5
426
330
1F
100
AcDbEntity
  8
0
  6
Continuous
 62
     7
 48
1.75
370
    15
100
AcDbLine
 10
24.0031002828
 20
15.4020135946
 30
0.0
 11
24.0077072419
 21
15.3831323546
 31
0.0
  0
LINE
  5
427
330
1F
100
AcDbEntity
  8
0
  6
Continuous
 62
     7
 48
1.75
370
    15
100
AcDbLine
 10
24.0349974051
 20
15.4579086019
 30
0.0
 11
24.0476865828
 21
15.4059032644
 31
0.0
  0
LINE
  5
428
330
1F
100
AcDbEntity
  8
0
  6
Continuous
 62
     7
 48
1.75
370
    15
100
AcDbLine
 10
24.0788005831
 20
15.3697389767
 30
0.0
 11
24.1070477463
 21
15.364417423
 31
0.0
  0
LINE
  5
429
330
1F
100
AcDbEntity
  8
0
  6
Continuous
 62
     7
 48
1.75
370
    15
100
AcDbLine
 10
24.0788005831
 20
15.3697389767
 30
0.0
 11
24.0624615322
 21
15.3605276898
 31
0.0
  0
LINE
  5
42A
330
1F
100
AcDbEntity
  8
0
  6
Continuous
 62
     7
 48
1.75
370
    15
100
AcDbLine
 10
24.0476865828
 20
15.4059032644
 30
0.0
 11
24.0313475319
 21
15.3966919775
 31
0.0
  0
LINE
  5
42B
330
1F
100
AcDbEntity
  8
0
  6
Continuous
 62
     7
 48
1.75
370
    15
100
AcDbLine
 10
24.0712687184
 20
15.3092537601
 30
0.0
 11
24.0549296674
 21
15.3000424732
 31
0.0
  0
LINE
  5
42C
330
1F
100
AcDbEntity
  8
0
  6
Continuous
 62
     7
 48
1.75
370
    15
100
AcDbLine
 10
24.0077072419
 20
15.3831323546
 30
0.0
 11
23.991368191
 21
15.3739210677
 31
0.0
  0
LINE
  5
42D
330
1F
100
AcDbEntity
  8
0
  6
Continuous
 62
     7
 48
1.75
370
    15
100
AcDbLine
 10
24.0554365411
 20
15.3741405009
 30
0.0
 11
24.0390974902
 21
15.364929214
 31
0.0
  0
LINE
  5
42E
330
1F
100
AcDbEntity
  8
0
  6
Continuous
 62
     7
 48
1.75
370
    15
100
AcDbLine
 10
28.179627802
 20
10.8903109306
 30
0.0
 11
28.1801122918
 21
11.0388900749
 31
0.0
  0
ARC
  5
42F
330
1F
100
AcDbEntity
  8
0
  6
Continuous
 62
     7
 48
3.0625
370
    15
100
AcDbCircle
 10
28.0717700197
 20
10.8724113533
 30
0.0
 40
0.1093329596800719
100
AcDbArc
 50
231.1134175805
 51
9.422664362
  0
LINE
  5
430
330
1F
100
AcDbEntity
  8
0
  6
Continuous
 62
     7
 48
1.75
370
    15
100
AcDbLine
 10
27.8704524509
 20
10.8643164618
 30
0.0
 11
28.0031328878
 21
10.7873076506
 31
0.0
  0
LWPOLYLINE
  5
431
330
1F
100
AcDbEntity
  8
0
  6
Continuous
 62
     7
 48
1.75
370
    15
100
AcDbPolyline
 90
        7
 70
   128
 43
0.0
 10
27.9497298002
 20
10.9090099171
 10
27.9704320606
 20
10.8971872365
 10
27.9914875154
 20
10.8921820533
 10
28.0099727493
 20
10.8953001596
 10
28.0243902363
 20
10.9062884052
 10
28.0335718543
 20
10.9242567511
 10
28.0367739368
 20
10.9477496508
  0
LINE
  5
432
330
1F
100
AcDbEntity
  8
0
  6
Continuous
 62
     7
 48
1.75
370
    15
100
AcDbLine
 10
28.0367739368
 20
10.9477496508
 30
0.0
 11
28.0368076899
 21
10.958100732
 31
0.0
  0
LINE
  5
433
330
1F
100
AcDbEntity
  8
0
  6
Continuous
 62
     7
 48
1.75
370
    15
100
AcDbLine
 10
28.2384199028
 20
11.9468415585
 30
0.0
 11
28.232642149
 21
11.9501950141
 31
0.0
  0
LINE
  5
434
330
1F
100
AcDbEntity
  8
0
  6
Continuous
 62
     7
 48
1.75
370
    15
100
AcDbLine
 10
28.2384199028
 20
11.9468415585
 30
0.0
 11
28.2326205606
 21
11.9435721272
 31
0.0
  0
LINE
  5
435
330
1F
100
AcDbEntity
  8
0
  6
Continuous
 62
     7
 48
1.75
370
    15
100
AcDbLine
 10
28.2350766797
 20
10.9215707341
 30
0.0
 11
28.2384199028
 21
11.9468415585
 31
0.0
  0
LINE
  5
436
330
1F
100
AcDbEntity
  8
0
  6
Continuous
 62
     7
 48
1.75
370
    15
100
AcDbLine
 10
28.2350766797
 20
10.9215707341
 30
0.0
 11
28.179627802
 21
10.8903109306
 31
0.0
  0
ARC
  5
437
330
1F
100
AcDbEntity
  8
0
  6
Continuous
 62
     7
 48
3.0625
370
    15
100
AcDbCircle
 10
28.1113989145
 20
10.9082456155
 30
0.0
 40
0.1243935222746389
100
AcDbArc
 50
304.5938104012
 51
6.1493617905
  0
LWPOLYLINE
  5
438
330
1F
100
AcDbEntity
  8
0
  6
Continuous
 62
     7
 48
1.75
370
    15
100
AcDbPolyline
 90
        3
 70
   128
 43
0.0
 10
28.0051786779
 20
10.9402697207
 10
28.0258809383
 20
10.92844704
 10
28.0339663414
 20
10.9256314992
  0
LINE
  5
439
330
1F
100
AcDbEntity
  8
0
  6
Continuous
 62
     7
 48
1.75
370
    15
100
AcDbLine
 10
28.0766351721
 20
16.3550305077
 30
0.0
 11
28.0211862944
 21
16.3237707041
 31
0.0
  0
ARC
  5
43A
330
1F
100
AcDbEntity
  8
0
  6
Continuous
 62
     7
 48
3.0625
370
    15
100
AcDbCircle
 10
27.8682532584
 20
16.0326765451
 30
0.0
 40
0.3838425447199136
100
AcDbArc
 50
2.2767526307
 51
57.1198292049
  0
LINE
  5
43B
330
1F
100
AcDbEntity
  8
0
  6
Continuous
 62
     7
 48
1.75
370
    15
100
AcDbLine
 10
28.2517927963
 20
16.0479252172
 30
0.0
 11
28.1963439186
 21
16.0166654137
 31
0.0
  0
ARC
  5
43C
330
1F
100
AcDbEntity
  8
0
  6
Continuous
 62
     7
 48
3.0625
370
    15
100
AcDbCircle
 10
27.8128043807
 20
16.0014167416
 30
0.0
 40
0.3838425447199317
100
AcDbArc
 50
2.2767526307
 51
57.1198292049
  0
LWPOLYLINE
  5
43D
330
1F
100
AcDbEntity
  8
0
  6
Continuous
 62
     7
 48
1.75
370
    15
100
AcDbPolyline
 90
       12
 70
   128
 43
0.0
 10
28.0534900534
 20
16.0741041339
 10
28.0502879708
 20
16.0506112342
 10
28.0411063529
 20
16.0326428883
 10
28.0266888659
 20
16.0216546427
 10
28.0082036328
 20
16.018536777
 10
27.9871481772
 20
16.0235417196
 10
27.9652282895
 20
16.0362642018
 10
27.9442198555
 20
16.0556734848
 10
27.9258247044
 20
16.0801970273
 10
27.9115332651
 20
16.1078481687
 10
27.902503246
 20
16.1363866977
 10
27.8994662354
 20
16.1635008181
  0
LINE
  5
43E
330
1F
100
AcDbEntity
  8
0
  6
Continuous
 62
     7
 48
1.75
370
    15
100
AcDbLine
 10
28.0536558773
 20
16.1249575523
 30
0.0
 11
28.0534900534
 21
16.0741041339
 31
0.0
  0
LWPOLYLINE
  5
43F
330
1F
100
AcDbEntity
  8
0
  6
Continuous
 62
     7
 48
1.75
370
    15
100
AcDbPolyline
 90
       12
 70
   128
 43
0.0
 10
27.8996320593
 20
16.2143542365
 10
27.9028340903
 20
16.2378471662
 10
27.9120157598
 20
16.2558154821
 10
27.9264331952
 20
16.2668037577
 10
27.9449184807
 20
16.269921834
 10
27.9659738839
 20
16.2649166808
 10
27.9878937717
 20
16.2521941986
 10
28.008902258
 20
16.2327851262
 10
28.0272973568
 20
16.2082613731
 10
28.0415888476
 20
16.1806102018
 10
28.0506188151
 20
16.1520717027
 10
28.0536558773
 20
16.1249575523
  0
LINE
  5
440
330
1F
100
AcDbEntity
  8
0
  6
Continuous
 62
     7
 48
1.75
370
    15
100
AcDbLine
 10
27.8994662354
 20
16.1635008181
 30
0.0
 11
27.8996320593
 21
16.2143542365
 31
0.0
  0
LINE
  5
441
330
1F
100
AcDbEntity
  8
0
  6
Continuous
 62
     7
 48
1.75
370
    15
100
AcDbLine
 10
26.0864284822
 20
17.2412775965
 30
0.0
 11
26.0856148811
 21
16.9917694561
 31
0.0
  0
ARC
  5
442
330
1F
100
AcDbEntity
  8
0
  6
Continuous
 62
     7
 48
3.0625
370
    15
100
AcDbCircle
 10
26.1942862645
 20
17.2591771738
 30
0.0
 40
0.1093329596800745
100
AcDbArc
 50
51.1134175805
 51
189.422664362
  0
LINE
  5
443
330
1F
100
AcDbEntity
  8
0
  6
Continuous
 62
     7
 48
1.75
370
    15
100
AcDbLine
 10
28.0211862944
 20
16.3237707041
 30
0.0
 11
26.2629233963
 21
17.3442808765
 31
0.0
  0
LINE
  5
444
330
1F
100
AcDbEntity
  8
0
  6
Continuous
 62
     7
 48
1.75
370
    15
100
AcDbLine
 10
28.1963439186
 20
16.0166654137
 30
0.0
 11
28.1955303176
 21
15.7671572732
 31
0.0
  0
LWPOLYLINE
  5
445
330
1F
100
AcDbEntity
  8
0
  6
Continuous
 62
     7
 48
1.75
370
    15
100
AcDbPolyline
 90
       12
 70
   128
 43
0.0
 10
26.3833061653
 20
17.0944421921
 10
26.3802691548
 20
17.1215563126
 10
26.3712391357
 20
17.1500948416
 10
26.3569476964
 20
17.1777459829
 10
26.338552546
 20
17.202269766
 10
26.3175441113
 20
17.2216788085
 10
26.2956242236
 20
17.2344012906
 10
26.2745687688
 20
17.2394064738
 10
26.2560835349
 20
17.2362883676
 10
26.2416660478
 20
17.2253001219
 10
26.2324844299
 20
17.207331776
 10
26.2292823473
 20
17.1838388763
  0
LINE
  5
446
330
1F
100
AcDbEntity
  8
0
  6
Continuous
 62
     7
 48
1.75
370
    15
100
AcDbLine
 10
26.2292823473
 20
17.1838388763
 30
0.0
 11
26.2291165235
 21
17.1329854579
 31
0.0
  0
LWPOLYLINE
  5
447
330
1F
100
AcDbEntity
  8
0
  6
Continuous
 62
     7
 48
1.75
370
    15
100
AcDbPolyline
 90
       12
 70
   128
 43
0.0
 10
26.2291165235
 20
17.1329854579
 10
26.2321535856
 20
17.1058713075
 10
26.2411835532
 20
17.0773328085
 10
26.255475044
 20
17.0496816371
 10
26.2738701436
 20
17.0251581246
 10
26.2948786291
 20
17.0057488116
 10
26.3167985168
 20
16.9930263294
 10
26.3378539208
 20
16.9880214168
 10
26.3563392055
 20
16.9911392525
 10
26.370756641
 20
17.0021275281
 10
26.3799383105
 20
17.020095844
 10
26.3831403415
 20
17.0435887737
  0
LINE
  5
448
330
1F
100
AcDbEntity
  8
0
  6
Continuous
 62
     7
 48
1.75
370
    15
100
AcDbLine
 10
26.3831403415
 20
17.0435887737
 30
0.0
 11
26.3833061653
 21
17.0944421921
 31
0.0
  0
LINE
  5
449
330
1F
100
AcDbEntity
  8
0
  6
Continuous
 62
     7
 48
1.75
370
    15
100
AcDbLine
 10
28.2484495732
 20
15.0226543928
 30
0.0
 11
28.242650231
 21
15.0193849614
 31
0.0
  0
LINE
  5
44A
330
1F
100
AcDbEntity
  8
0
  6
Continuous
 62
     7
 48
1.75
370
    15
100
AcDbLine
 10
28.2517927963
 20
16.0479252172
 30
0.0
 11
28.2484495732
 21
15.0226543928
 31
0.0
  0
LINE
  5
44B
330
1F
100
AcDbEntity
  8
0
  6
Continuous
 62
     7
 48
1.75
370
    15
100
AcDbLine
 10
26.318372274
 20
17.37554068
 30
0.0
 11
26.2629233963
 21
17.3442808765
 31
0.0
  0
LINE
  5
44C
330
1F
100
AcDbEntity
  8
0
  6
Continuous
 62
     7
 48
1.75
370
    15
100
AcDbLine
 10
28.0766351721
 20
16.3550305077
 30
0.0
 11
26.318372274
 21
17.37554068
 31
0.0
  0
LINE
  5
44D
330
1F
100
AcDbEntity
  8
0
  6
Continuous
 62
     7
 48
1.75
370
    15
100
AcDbLine
 10
27.9550809369
 20
16.2456140401
 30
0.0
 11
27.8996320593
 21
16.2143542365
 31
0.0
  0
LINE
  5
44E
330
1F
100
AcDbEntity
  8
0
  6
Continuous
 62
     7
 48
1.75
370
    15
100
AcDbLine
 10
27.9550809369
 20
16.2456140401
 30
0.0
 11
27.9578885111
 21
16.2677322136
 31
0.0
  0
LINE
  5
44F
330
1F
100
AcDbEntity
  8
0
  6
Continuous
 62
     7
 48
1.75
370
    15
100
AcDbLine
 10
27.9549151131
 20
16.1947606216
 30
0.0
 11
27.8994662354
 21
16.1635008181
 31
0.0
  0
ARC
  5
450
330
1F
100
AcDbEntity
  8
0
  6
Continuous
 62
     7
 48
3.0625
370
    15
100
AcDbCircle
 10
28.1123181043
 20
16.1968343481
 30
0.0
 40
0.1574166508504778
100
AcDbArc
 50
180.7548071372
 51
246.9493542553
  0
LINE
  5
451
330
1F
100
AcDbEntity
  8
0
  6
Continuous
 62
     7
 48
1.75
370
    15
100
AcDbLine
 10
27.9549151131
 20
16.1947606216
 30
0.0
 11
27.9550809369
 21
16.2456140401
 31
0.0
  0
LINE
  5
452
330
1F
100
AcDbEntity
  8
0
  6
Continuous
 62
     7
 48
1.75
370
    15
100
AcDbLine
 10
26.284731225
 20
17.2150986799
 30
0.0
 11
26.2292823473
 21
17.1838388763
 31
0.0
  0
LINE
  5
453
330
1F
100
AcDbEntity
  8
0
  6
Continuous
 62
     7
 48
1.75
370
    15
100
AcDbLine
 10
26.2875387991
 20
17.2372168533
 30
0.0
 11
26.284731225
 21
17.2150986799
 31
0.0
  0
ARC
  5
454
330
1F
100
AcDbEntity
  8
0
  6
Continuous
 62
     7
 48
3.0625
370
    15
100
AcDbCircle
 10
26.2455513829
 20
17.2742024366
 30
0.0
 40
0.1247891091132152
100
AcDbArc
 50
54.299263185
 51
113.9321560245
  0
LINE
  5
455
330
1F
100
AcDbEntity
  8
0
  6
Continuous
 62
     7
 48
1.75
370
    15
100
AcDbLine
 10
26.2845654012
 20
17.1642452614
 30
0.0
 11
26.2291165235
 21
17.1329854579
 31
0.0
  0
ARC
  5
456
330
1F
100
AcDbEntity
  8
0
  6
Continuous
 62
     7
 48
3.0625
370
    15
100
AcDbCircle
 10
26.4373443748
 20
17.1632173875
 30
0.0
 40
0.1527824312855656
100
AcDbArc
 50
179.6145284343
 51
248.0896329582
  0
LINE
  5
457
330
1F
100
AcDbEntity
  8
0
  6
Continuous
 62
     7
 48
1.75
370
    15
100
AcDbLine
 10
26.284731225
 20
17.2150986799
 30
0.0
 11
26.2845654012
 21
17.1642452614
 31
0.0
  0
ARC
  5
458
330
1F
100
AcDbEntity
  8
0
  6
Continuous
 62
     8
 48
3.0625
370
    15
100
AcDbCircle
 10
23.9130525212
 20
15.9951824091
 30
0.0
 40
0.0461981832771829
100
AcDbArc
 50
185.5828240889
 51
245.5906735816
  0
ARC
  5
459
330
1F
100
AcDbEntity
  8
0
  6
Continuous
 62
     8
 48
3.0625
370
    15
100
AcDbCircle
 10
23.9332323194
 20
16.0289666044
 30
0.0
 40
0.0464220987068304
100
AcDbArc
 50
54.2995316168
 51
113.9316542591
  0
ARC
  5
45A
330
1F
100
AcDbEntity
  8
0
  6
Continuous
 62
     8
 48
3.0625
370
    15
100
AcDbCircle
 10
23.8975025203
 20
11.2264422259
 30
0.0
 40
0.0461981832771719
100
AcDbArc
 50
185.5828240889
 51
245.5906735816
  0
ARC
  5
45B
330
1F
100
AcDbEntity
  8
0
  6
Continuous
 62
     8
 48
3.0625
370
    15
100
AcDbCircle
 10
26.2539848349
 20
9.8258058359
 30
0.0
 40
0.0451916332741634
100
AcDbArc
 50
172.6526500904
 51
235.8132412143
  0
ARC
  5
45C
330
1F
100
AcDbEntity
  8
0
  6
Continuous
 62
     8
 48
3.0625
370
    15
100
AcDbCircle
 10
26.2946682965
 20
9.8259398205
 30
0.0
 40
0.0462812896051542
100
AcDbArc
 50
304.5989122707
 51
6.1443311547
  0
ARC
  5
45D
330
1F
100
AcDbEntity
  8
0
  6
Continuous
 62
     8
 48
3.0625
370
    15
100
AcDbCircle
 10
23.9245636982
 20
11.1791937073
 30
0.0
 40
0.0464424479410145
100
AcDbArc
 50
173.5965178049
 51
234.8693734998
  0
LINE
  5
45E
330
1F
100
AcDbEntity
  8
0
  6
Continuous
 62
     8
 48
1.75
370
    15
100
AcDbLine
 10
28.2172274943
 20
15.6470342221
 30
0.0
 11
26.6455572477
 21
14.760990984
 31
0.0
  0
LINE
  5
45F
330
1F
100
AcDbEntity
  8
0
  6
Continuous
 62
     8
 48
1.75
370
    15
100
AcDbLine
 10
26.5819170973
 20
14.8760903646
 30
0.0
 11
28.1520688772
 21
15.7612775535
 31
0.0
  0
LINE
  5
460
330
1F
100
AcDbEntity
  8
0
  6
Continuous
 62
     8
 48
1.75
370
    15
100
AcDbLine
 10
26.6306758926
 20
10.1973053266
 30
0.0
 11
28.2023461391
 21
11.0833485647
 31
0.0
  0
LINE
  5
461
330
1F
100
AcDbEntity
  8
0
  6
Continuous
 62
     8
 48
1.75
370
    15
100
AcDbLine
 10
25.9971419818
 20
17.0120147554
 30
0.0
 11
24.4270081349
 21
16.1268376764
 31
0.0
  0
ARC
  5
462
330
1F
100
AcDbEntity
  8
0
  6
Continuous
 62
     8
 48
3.0625
370
    15
100
AcDbCircle
 10
28.1789129951
 20
15.7228120698
 30
0.0
 40
0.0469062907084513
100
AcDbArc
 50
65.31223331
 51
124.9102433182
  0
ARC
  5
463
330
1F
100
AcDbEntity
  8
0
  6
Continuous
 62
     8
 48
3.0625
370
    15
100
AcDbCircle
 10
28.2006524388
 20
15.6881160792
 30
0.0
 40
0.0442995648517164
100
AcDbArc
 50
291.9723079462
 51
355.5694944189
  0
ARC
  5
464
330
1F
100
AcDbEntity
  8
0
  6
Continuous
 62
     8
 48
3.0625
370
    15
100
AcDbCircle
 10
28.1845690446
 20
11.1253111193
 30
0.0
 40
0.045572810747117
100
AcDbArc
 50
292.959549073
 51
354.5822532921
  0
ARC
  5
465
330
1F
100
AcDbEntity
  8
0
  6
Continuous
 62
     8
 48
3.0625
370
    15
100
AcDbCircle
 10
26.0239860998
 20
16.9735492717
 30
0.0
 40
0.046906290708454
100
AcDbArc
 50
65.31223331
 51
124.9102433181
  0
ARC
  5
466
330
1F
100
AcDbEntity
  8
0
  6
Continuous
 62
     8
 48
3.0625
370
    15
100
AcDbCircle
 10
25.9700528077
 20
16.974317517
 30
0.0
 40
0.0464209558377327
100
AcDbArc
 50
54.2990373555
 51
113.9327427968
  0
LINE
  5
467
330
1F
100
AcDbEntity
  8
0
  6
Continuous
 62
     8
 48
1.75
370
    15
100
AcDbLine
 10
25.3139351188
 20
12.0074849313
 30
0.0
 11
24.9342177526
 21
11.7934158507
 31
0.0
  0
ARC
  5
468
330
1F
100
AcDbEntity
  8
0
  6
Continuous
 62
     8
 48
3.0625
370
    15
100
AcDbCircle
 10
28.1563408443
 20
11.0783902784
 30
0.0
 40
0.0462717166193499
100
AcDbArc
 50
304.5918534304
 51
6.151389995
  0
LINE
  5
469
330
1F
100
AcDbEntity
  8
0
  6
Continuous
 62
     8
 48
1.75
370
    15
100
AcDbLine
 10
24.947318852
 20
11.7764505782
 30
0.0
 11
25.3216686202
 21
11.9874936271
 31
0.0
  0
LWPOLYLINE
  5
46A
330
1F
100
AcDbEntity
  8
0
  6
Continuous
 62
     8
 48
1.75
370
    15
100
AcDbPolyline
 90
       26
 70
   128
 43
0.0
 10
25.8957456592
 20
14.2070206934
 10
25.9182801222
 20
14.1971602404
 10
25.9484621227
 20
14.1899857934
 10
25.9764451099
 20
14.1905673228
 10
26.0012175743
 20
14.1988841106
 10
26.0218843896
 20
14.2146351631
 10
26.0376983735
 20
14.2372516263
 10
26.0480881491
 20
14.2659156874
 10
26.0526780891
 20
14.2995916654
 10
26.0513023847
 20
14.3370621977
 10
26.0440106699
 20
14.3769730661
 10
26.0310666294
 20
14.417881852
 10
26.0129379369
 20
14.458309938
 10
25.990279792
 20
14.496796175
 10
25.9639113217
 20
14.5319493881
 10
25.9347853629
 20
14.5624994207
 10
25.9039547123
 20
14.5873420338
 10
25.872533657
 20
14.6055790713
 10
25.8416577264
 20
14.6165514629
 10
25.812442999
 20
14.6198628419
 10
25.7859452753
 20
14.6153936004
 10
25.7631223183
 20
14.6033049671
 10
25.7447989578
 20
14.5840339509
 10
25.7316374291
 20
14.5582770509
 10
25.7241135219
 20
14.5269652908
 10
25.7227936181
 20
14.5138042581
  0
LWPOLYLINE
  5
46B
330
1F
100
AcDbEntity
  8
0
  6
Continuous
 62
     8
 48
1.75
370
    15
100
AcDbPolyline
 90
       18
 70
   128
 43
0.0
 10
25.7859913482
 20
14.6333571737
 10
25.8062896592
 20
14.638657357
 10
25.835389494
 20
14.6386663485
 10
25.8666310017
 20
14.6309085323
 10
25.8989504301
 20
14.6156479406
 10
25.9312470383
 20
14.593404856
 10
25.9624210633
 20
14.5649361862
 10
25.9914108986
 20
14.531211475
 10
26.01722931
 20
14.4933793472
 10
26.0389971019
 20
14.4527282029
 10
26.0559730467
 20
14.4106420894
 10
26.0675789497
 20
14.3685543351
 10
26.0734196408
 20
14.3278981009
 10
26.0732962517
 20
14.2900581782
 10
26.0672129831
 20
14.2563228283
 10
26.0553769652
 20
14.2278409566
 10
26.0381912047
 20
14.2055825765
 10
26.0222307947
 20
14.1934926405
  0
LWPOLYLINE
  5
46C
330
1F
100
AcDbEntity
  8
0
  6
Continuous
 62
     8
 48
1.75
370
    15
100
AcDbPolyline
 90
       19
 70
   128
 43
0.0
 10
26.0494907983
 20
14.208847951
 10
26.0666266916
 20
14.221613338
 10
26.0838124521
 20
14.2438717182
 10
26.09564847
 20
14.2723535899
 10
26.1017317386
 20
14.3060889397
 10
26.1018551278
 20
14.3439288624
 10
26.0960144367
 20
14.3845850966
 10
26.0844085336
 20
14.426672851
 10
26.0674325889
 20
14.4687589644
 10
26.045664797
 20
14.5094101087
 10
26.0198463856
 20
14.5472422365
 10
25.9908565503
 20
14.5809669478
 10
25.9596825252
 20
14.6094356175
 10
25.9273859171
 20
14.6316787021
 10
25.8950664887
 20
14.6469392939
 10
25.8638249809
 20
14.65469711
 10
25.8347251461
 20
14.6546881186
 10
25.8087579653
 20
14.6469127722
 10
25.8039436956
 20
14.6444012737
  0
LWPOLYLINE
  5
46D
330
1F
100
AcDbEntity
  8
0
  6
Continuous
 62
     8
 48
1.75
370
    15
100
AcDbPolyline
 90
       26
 70
   128
 43
0.0
 10
25.8823727653
 20
10.1059369144
 10
25.9049072283
 20
10.0960764614
 10
25.9350892288
 20
10.0889020145
 10
25.9630722168
 20
10.0894837844
 10
25.9878446808
 20
10.097800452
 10
26.0085114961
 20
10.1135515045
 10
26.0243254796
 20
10.1361678473
 10
26.0347152556
 20
10.1648320287
 10
26.0393051952
 20
10.1985078864
 10
26.0379294908
 20
10.2359784188
 10
26.0306377764
 20
10.2758894074
 10
26.0176937355
 20
10.3167980731
 10
25.999565043
 20
10.357226159
 10
25.9769068985
 20
10.3957125163
 10
25.9505384286
 20
10.4308658497
 10
25.9214124698
 20
10.4614158823
 10
25.8905818184
 20
10.4862582548
 10
25.8591607631
 20
10.5044952924
 10
25.8282848333
 20
10.5154679245
 10
25.7990701059
 20
10.5187793035
 10
25.7725723818
 20
10.5143099417
 10
25.7497494244
 20
10.5022211881
 10
25.7314260639
 20
10.4829501719
 10
25.7182645356
 20
10.4571933923
 10
25.710740628
 20
10.4258815119
 10
25.7094207249
 20
10.4127207198
  0
LWPOLYLINE
  5
46E
330
1F
100
AcDbEntity
  8
0
  6
Continuous
 62
     8
 48
1.75
370
    15
100
AcDbPolyline
 90
       18
 70
   128
 43
0.0
 10
25.7726184547
 20
10.532273515
 10
25.7929167657
 20
10.5375736984
 10
25.8220166001
 20
10.5375825695
 10
25.8532581078
 20
10.5298247534
 10
25.885577537
 20
10.5145644022
 10
25.9178741444
 20
10.492321077
 10
25.9490481694
 20
10.4638524073
 10
25.9780380051
 20
10.4301278163
 10
26.0038564165
 20
10.3922956885
 10
26.0256242084
 20
10.3516445442
 10
26.0426001532
 20
10.3095584308
 10
26.0542060562
 20
10.2674706764
 10
26.0600467477
 20
10.2268145625
 10
26.0599233586
 20
10.1889746398
 10
26.0538400895
 20
10.1552391697
 10
26.0420040717
 20
10.126757298
 10
26.0248183112
 20
10.1044989178
 10
26.0088579008
 20
10.0924088615
  0
LWPOLYLINE
  5
46F
330
1F
100
AcDbEntity
  8
0
  6
Continuous
 62
     8
 48
1.75
370
    15
100
AcDbPolyline
 90
       19
 70
   128
 43
0.0
 10
26.0361179048
 20
10.1077642924
 10
26.0532537981
 20
10.1205296793
 10
26.0704395586
 20
10.1427880595
 10
26.0822755765
 20
10.1712699312
 10
26.0883588455
 20
10.2050054014
 10
26.0884822347
 20
10.242845324
 10
26.0826415432
 20
10.2835014379
 10
26.0710356401
 20
10.3255891923
 10
26.0540596954
 20
10.3676753057
 10
26.0322919035
 20
10.40832645
 10
26.0064734921
 20
10.4461585779
 10
25.9774836564
 20
10.4798831688
 10
25.9463096314
 20
10.5083518386
 10
25.914013024
 20
10.5305951638
 10
25.8816935948
 20
10.5458555149
 10
25.850452087
 20
10.553613331
 10
25.8213522526
 20
10.5536044599
 10
25.7953850718
 20
10.5458291136
 10
25.790570802
 20
10.543317615
  0
LWPOLYLINE
  5
470
330
1F
100
AcDbEntity
  8
0
  6
Continuous
 62
     8
 48
1.75
370
    15
100
AcDbPolyline
 90
       26
 70
   128
 43
0.0
 10
24.1374828643
 20
15.2275308058
 10
24.1600173272
 20
15.2176703529
 10
24.1901993277
 20
15.2104959059
 10
24.2181822634
 20
15.2110774652
 10
24.2429547794
 20
15.2193942231
 10
24.2636214915
 20
15.2351453355
 10
24.279435527
 20
15.2577617687
 10
24.2898253026
 20
15.2864258298
 10
24.2944152425
 20
15.3201018078
 10
24.2930395382
 20
15.3575723401
 10
24.285747875
 20
15.3974831786
 10
24.2728037313
 20
15.4383920244
 10
24.2546750388
 20
15.4788201103
 10
24.2320169971
 20
15.5173062875
 10
24.2056484752
 20
15.5524595305
 10
24.176522568
 20
15.5830095331
 10
24.1456918658
 20
15.6078521762
 10
24.1142708105
 20
15.6260892137
 10
24.0833949315
 20
15.6370615754
 10
24.0541801525
 20
15.6403729843
 10
24.0276824804
 20
15.6359037129
 10
24.0048594202
 20
15.6238151394
 10
23.9865360597
 20
15.6045441232
 10
23.9733746342
 20
15.5787871634
 10
23.9658506754
 20
15.5474754332
 10
23.9645308231
 20
15.5343143706
  0
LWPOLYLINE
  5
471
330
1F
100
AcDbEntity
  8
0
  6
Continuous
 62
     8
 48
1.75
370
    15
100
AcDbPolyline
 90
       18
 70
   128
 43
0.0
 10
24.0277285532
 20
15.6538672861
 10
24.0480267611
 20
15.6591675294
 10
24.0771265959
 20
15.6591765208
 10
24.1083681552
 20
15.6514186747
 10
24.1406875321
 20
15.6361581129
 10
24.1729841918
 20
15.6139149984
 10
24.2041581652
 20
15.5854463586
 10
24.2331480005
 20
15.5517216473
 10
24.2589664635
 20
15.5138894896
 10
24.2807342554
 20
15.4732383453
 10
24.2977102002
 20
15.4311522319
 10
24.3093161032
 20
15.3890644775
 10
24.3151568459
 20
15.3484082133
 10
24.3150334567
 20
15.3105682907
 10
24.3089501365
 20
15.2768329707
 10
24.2971141187
 20
15.248351099
 10
24.2799283581
 20
15.2260927189
 10
24.2639679998
 20
15.2140027529
  0
LWPOLYLINE
  5
472
330
1F
100
AcDbEntity
  8
0
  6
Continuous
 62
     8
 48
1.75
370
    15
100
AcDbPolyline
 90
       19
 70
   128
 43
0.0
 10
24.2912279517
 20
15.2293580934
 10
24.3083638451
 20
15.2421234804
 10
24.3255496056
 20
15.2643818606
 10
24.3373856235
 20
15.2928637323
 10
24.3434689437
 20
15.3265990522
 10
24.3435923329
 20
15.3644389749
 10
24.3377515902
 20
15.405095239
 10
24.3261456871
 20
15.4471829934
 10
24.3091697424
 20
15.4892691068
 10
24.2874019505
 20
15.5299202511
 10
24.2615834875
 20
15.5677524089
 10
24.2325936522
 20
15.6014771201
 10
24.2014196787
 20
15.62994576
 10
24.169123019
 20
15.6521888745
 10
24.1368036421
 20
15.6674494363
 10
24.1055620828
 20
15.6752072823
 10
24.0764622481
 20
15.6751982909
 10
24.0504951188
 20
15.6674229146
 10
24.045680849
 20
15.6649114161
  0
LWPOLYLINE
  5
473
330
1F
100
AcDbEntity
  8
0
  6
Continuous
 62
     8
 48
1.75
370
    15
100
AcDbPolyline
 90
       26
 70
   128
 43
0.0
 10
24.1241099704
 20
11.1264470269
 10
24.1466444333
 20
11.1165865739
 10
24.1768264339
 20
11.1094121269
 10
24.2048093703
 20
11.1099939268
 10
24.2295818859
 20
11.1183105644
 10
24.250248598
 20
11.1340616768
 10
24.2660626331
 20
11.1566779897
 10
24.2764524091
 20
11.1853421711
 10
24.2810423486
 20
11.2190180288
 10
24.2796666443
 20
11.2564885612
 10
24.2723749815
 20
11.2963995199
 10
24.2594308374
 20
11.3373082454
 10
24.2413021449
 20
11.3777363314
 10
24.2186441036
 20
11.4162226288
 10
24.192275582
 20
11.4513759922
 10
24.1631496749
 20
11.4819259948
 10
24.1323189719
 20
11.5067683972
 10
24.1008979166
 20
11.5250054348
 10
24.0700220384
 20
11.535978037
 10
24.0408072594
 20
11.5392894459
 10
24.0143095869
 20
11.5348200542
 10
23.9914865263
 20
11.5227313604
 10
23.9731631658
 20
11.5034603442
 10
23.9600017407
 20
11.4777035047
 10
23.9524777815
 20
11.4463916543
 10
23.95115793
 20
11.4332308322
  0
LWPOLYLINE
  5
474
330
1F
100
AcDbEntity
  8
0
  6
Continuous
 62
     8
 48
1.75
370
    15
100
AcDbPolyline
 90
       18
 70
   128
 43
0.0
 10
24.0143556597
 20
11.5527836275
 10
24.0346538676
 20
11.5580838707
 10
24.063753702
 20
11.5580927418
 10
24.0949952613
 20
11.5503348958
 10
24.1273146389
 20
11.5350745746
 10
24.1596112979
 20
11.5128312195
 10
24.1907852713
 20
11.4843625796
 10
24.219775107
 20
11.4506379887
 10
24.24559357
 20
11.4128058309
 10
24.2673613619
 20
11.3721546866
 10
24.2843373067
 20
11.3300685732
 10
24.2959432097
 20
11.2879808188
 10
24.3017839528
 20
11.247324675
 10
24.3016605636
 20
11.2094847523
 10
24.295577243
 20
11.1757493121
 10
24.2837412252
 20
11.1472674404
 10
24.2665554646
 20
11.1250090602
 10
24.2505951059
 20
11.112918974
  0
LWPOLYLINE
  5
475
330
1F
100
AcDbEntity
  8
0
  6
Continuous
 62
     8
 48
1.75
370
    15
100
AcDbPolyline
 90
       19
 70
   128
 43
0.0
 10
24.2778550582
 20
11.1282744348
 10
24.2949909516
 20
11.1410398218
 10
24.3121767121
 20
11.1632982019
 10
24.32401273
 20
11.1917800736
 10
24.3300960506
 20
11.2255155139
 10
24.3302194397
 20
11.2633554365
 10
24.3243786967
 20
11.3040115804
 10
24.3127727936
 20
11.3460993347
 10
24.2957968489
 20
11.3881854482
 10
24.274029057
 20
11.4288365925
 10
24.248210594
 20
11.4666687502
 10
24.2192207583
 20
11.5003933411
 10
24.1880467848
 20
11.528861981
 10
24.1557501259
 20
11.5511053361
 10
24.1234307482
 20
11.5663656573
 10
24.0921891889
 20
11.5741235034
 10
24.0630893545
 20
11.5741146322
 10
24.0371222253
 20
11.566339256
 10
24.0323079555
 20
11.5638277575
  0
LWPOLYLINE
  5
476
330
1F
100
AcDbEntity
  8
0
  6
Continuous
 62
     8
 48
1.75
370
    15
100
AcDbPolyline
 90
       16
 70
   128
 43
0.0
 10
25.773572599
 20
14.5461051993
 10
25.7853046247
 20
14.5510467566
 10
25.8087344749
 20
14.5538484042
 10
25.8346148802
 20
14.5489729778
 10
25.8617357345
 20
14.5366477241
 10
25.8888287
 20
14.5174494634
 10
25.9146272078
 20
14.4922757897
 10
25.9379247144
 20
14.4623037867
 10
25.9576320836
 20
14.4289345458
 10
25.9728276031
 20
14.393728943
 10
25.9828008696
 20
14.3583329933
 10
25.9870855071
 20
14.3244014913
 10
25.9854812387
 20
14.2935210811
 10
25.9780629459
 20
14.2671361789
 10
25.9651775502
 20
14.2464800345
 10
25.9495920049
 20
14.2337022365
  0
LWPOLYLINE
  5
477
330
1F
100
AcDbEntity
  8
0
  6
Continuous
 62
     8
 48
1.75
370
    15
100
AcDbPolyline
 90
       16
 70
   128
 43
0.0
 10
24.0019368078
 20
11.4655318333
 10
24.0136688842
 20
11.4704731201
 10
24.0370987868
 20
11.4732749784
 10
24.0629791913
 20
11.4683993113
 10
24.0900999429
 20
11.4560742378
 10
24.1171930119
 20
11.4368760375
 10
24.1429914678
 20
11.4117022735
 10
24.1662890256
 20
11.3817301202
 10
24.185996344
 20
11.3483611499
 10
24.201191863
 20
11.3131554268
 10
24.2111651291
 20
11.2777593568
 10
24.2154498183
 20
11.2438278248
 10
24.213845499
 20
11.2129476852
 10
24.2064272058
 20
11.1865626627
 10
24.1935418622
 20
11.1659066086
 10
24.1779562133
 20
11.1531287502
  0
LWPOLYLINE
  5
478
330
1F
100
AcDbEntity
  8
0
  6
Continuous
 62
     8
 48
1.75
370
    15
100
AcDbPolyline
 90
       17
 70
   128
 43
0.0
 10
25.7598452598
 20
10.4448244702
 10
25.7674533225
 20
10.4484146647
 10
25.7902284731
 20
10.4528149309
 10
25.8156941385
 20
10.4495355236
 10
25.8426596064
 20
10.4387295193
 10
25.8698641085
 20
10.420902333
 10
25.8960353393
 20
10.3968877562
 10
25.9199498347
 20
10.3678082125
 10
25.9404891816
 20
10.3350238137
 10
25.9566930287
 20
10.3000674825
 10
25.9678038091
 20
10.2645735583
 10
25.973301837
 20
10.2302018643
 10
25.9729301656
 20
10.1985595222
 10
25.966706124
 20
10.1711260394
 10
25.9549206785
 20
10.1491841365
 10
25.9381250095
 20
10.1337599243
 10
25.9353865815
 20
10.1321496396
  0
LWPOLYLINE
  5
479
330
1F
100
AcDbEntity
  8
0
  6
Continuous
 62
     8
 48
1.75
370
    15
100
AcDbPolyline
 90
       16
 70
   128
 43
0.0
 10
24.0153097009
 20
15.5666153716
 10
24.0270417781
 20
15.571556899
 10
24.0504716799
 20
15.5743585167
 10
24.0763520852
 20
15.5694830903
 10
24.1034728364
 20
15.5571578965
 10
24.130565905
 20
15.5379595759
 10
24.1563643613
 20
15.5127859321
 10
24.1796619195
 20
15.4828138992
 10
24.1993692371
 20
15.4494446883
 10
24.2145647565
 20
15.4142390854
 10
24.224538023
 20
15.3788431357
 10
24.2288227121
 20
15.3449116038
 10
24.2272183922
 20
15.3140312236
 10
24.2198000993
 20
15.2876463214
 10
24.2069147553
 20
15.266990147
 10
24.1913291068
 20
15.2542124088
  0
CIRCLE
  5
47A
330
1F
100
AcDbEntity
  8
0
  6
Continuous
 62
     7
 48
3.0625
370
    15
100
AcDbCircle
 10
8.3604249981
 20
11.4929269047
 30
0.0
 40
0.094000000000001
  0
CIRCLE
  5
47B
330
1F
100
AcDbEntity
  8
0
  6
Continuous
 62
     7
 48
3.0625
370
    15
100
AcDbCircle
 10
8.3604249981
 20
11.4929269047
 30
0.0
 40
0.1559999999999999
  0
CIRCLE
  5
47C
330
1F
100
AcDbEntity
  8
0
  6
Continuous
 62
     7
 48
3.0625
370
    15
100
AcDbCircle
 10
10.8604249981
 20
6.4929269047
 30
0.0
 40
0.0939999999999997
  0
CIRCLE
  5
47D
330
1F
100
AcDbEntity
  8
0
  6
Continuous
 62
     7
 48
3.0625
370
    15
100
AcDbCircle
 10
10.8604249981
 20
6.4929269047
 30
0.0
 40
0.1560000000000012
  0
CIRCLE
  5
47E
330
1F
100
AcDbEntity
  8
0
  6
Continuous
 62
     7
 48
3.0625
370
    15
100
AcDbCircle
 10
10.8604249981
 20
11.4929269047
 30
0.0
 40
0.0939999999999998
  0
CIRCLE
  5
47F
330
1F
100
AcDbEntity
  8
0
  6
Continuous
 62
     7
 48
3.0625
370
    15
100
AcDbCircle
 10
10.8604249981
 20
11.4929269047
 30
0.0
 40
0.1560000000000012
  0
CIRCLE
  5
480
330
1F
100
AcDbEntity
  8
0
  6
Continuous
 62
     7
 48
3.0625
370
    15
100
AcDbCircle
 10
8.3604249981
 20
6.4929269047
 30
0.0
 40
0.0940000000000015
  0
CIRCLE
  5
481
330
1F
100
AcDbEntity
  8
0
  6
Continuous
 62
     7
 48
3.0625
370
    15
100
AcDbCircle
 10
8.3604249981
 20
6.4929269047
 30
0.0
 40
0.1559999999999994
  0
LINE
  5
482
330
1F
100
AcDbEntity
  8
0
  6
Continuous
 62
     7
 48
1.75
370
    15
100
AcDbLine
 10
10.985424954
 20
11.1799269203
 30
0.0
 11
8.2354250422
 21
11.1799269203
 31
0.0
  0
LINE
  5
483
330
1F
100
AcDbEntity
  8
0
  6
Continuous
 62
     7
 48
1.75
370
    15
100
AcDbLine
 10
8.2354250422
 20
11.1799269203
 30
0.0
 11
8.2354250422
 21
6.8059268891
 31
0.0
  0
LINE
  5
484
330
1F
100
AcDbEntity
  8
0
  6
Continuous
 62
     7
 48
1.75
370
    15
100
AcDbLine
 10
8.2354250422
 20
6.8059268891
 30
0.0
 11
10.985424954
 21
6.8059268891
 31
0.0
  0
LINE
  5
485
330
1F
100
AcDbEntity
  8
0
  6
Continuous
 62
     7
 48
1.75
370
    15
100
AcDbLine
 10
10.985424954
 20
6.8059268891
 30
0.0
 11
10.985424954
 21
11.1799269203
 31
0.0
  0
LINE
  5
486
330
1F
100
AcDbEntity
  8
0
  6
Continuous
 62
     7
 48
1.75
370
    15
100
AcDbLine
 10
11.2354249326
 20
11.7749267668
 30
0.0
 11
11.2354249326
 21
6.2109270426
 31
0.0
  0
LINE
  5
487
330
1F
100
AcDbEntity
  8
0
  6
Continuous
 62
     7
 48
1.75
370
    15
100
AcDbLine
 10
7.9854250636
 20
6.2109270426
 30
0.0
 11
7.9854250636
 21
11.7749267668
 31
0.0
  0
LINE
  5
488
330
1F
100
AcDbEntity
  8
0
  6
Continuous
 62
     7
 48
1.75
370
    15
100
AcDbLine
 10
11.142424967
 20
6.1179267836
 30
0.0
 11
8.0784250292
 21
6.1179267836
 31
0.0
  0
ARC
  5
489
330
1F
100
AcDbEntity
  8
0
  6
Continuous
 62
     7
 48
3.0625
370
    15
100
AcDbCircle
 10
11.1424249981
 20
6.2109269047
 30
0.0
 40
0.093
100
AcDbArc
 50
270.0
 51
0.0
  0
ARC
  5
48A
330
1F
100
AcDbEntity
  8
0
  6
Continuous
 62
     7
 48
3.0625
370
    15
100
AcDbCircle
 10
11.1424249981
 20
11.7749269047
 30
0.0
 40
0.093
100
AcDbArc
 50
360.0
 51
90.0
  0
ARC
  5
48B
330
1F
100
AcDbEntity
  8
0
  6
Continuous
 62
     7
 48
3.0625
370
    15
100
AcDbCircle
 10
8.0784249981
 20
6.2109269047
 30
0.0
 40
0.093
100
AcDbArc
 50
180.0
 51
270.0
  0
ARC
  5
48C
330
1F
100
AcDbEntity
  8
0
  6
Continuous
 62
     7
 48
3.0625
370
    15
100
AcDbCircle
 10
8.0784249981
 20
11.7749269047
 30
0.0
 40
0.0929999999999982
100
AcDbArc
 50
90.0
 51
180.0
  0
LINE
  5
48D
330
1F
100
AcDbEntity
  8
0
  6
Continuous
 62
     7
 48
1.75
370
    15
100
AcDbLine
 10
8.0784250292
 20
11.8679270258
 30
0.0
 11
11.142424967
 21
11.8679270258
 31
0.0
  0
CIRCLE
  5
48E
330
1F
100
AcDbEntity
  8
0
  6
Continuous
 62
     7
 48
3.0625
370
    15
100
AcDbCircle
 10
10.4854249981
 20
7.3679269047
 30
0.0
 40
0.0984251968503935
  0
CIRCLE
  5
48F
330
1F
100
AcDbEntity
  8
0
  6
Continuous
 62
     7
 48
3.0625
370
    15
100
AcDbCircle
 10
10.4854249981
 20
7.3679269047
 30
0.0
 40
0.1771653543307083
  0
CIRCLE
  5
490
330
1F
100
AcDbEntity
  8
0
  6
Continuous
 62
     7
 48
3.0625
370
    15
100
AcDbCircle
 10
10.4854249981
 20
7.3679269047
 30
0.0
 40
0.2027559055118111
  0
CIRCLE
  5
491
330
1F
100
AcDbEntity
  8
0
  6
Continuous
 62
     7
 48
3.0625
370
    15
100
AcDbCircle
 10
8.3604249981
 20
6.4929269047
 30
0.0
 40
0.1968503937007875
  0
CIRCLE
  5
492
330
1F
100
AcDbEntity
  8
0
  6
Continuous
 62
     7
 48
3.0625
370
    15
100
AcDbCircle
 10
8.3604249981
 20
11.4929269047
 30
0.0
 40
0.1968503937007858
  0
CIRCLE
  5
493
330
1F
100
AcDbEntity
  8
0
  6
Continuous
 62
     7
 48
3.0625
370
    15
100
AcDbCircle
 10
10.8604249981
 20
11.4929269047
 30
0.0
 40
0.1968503937007858
  0
CIRCLE
  5
494
330
1F
100
AcDbEntity
  8
0
  6
Continuous
 62
     7
 48
3.0625
370
    15
100
AcDbCircle
 10
10.8604249981
 20
6.4929269047
 30
0.0
 40
0.1968503937007874
  0
ARC
  5
495
330
1F
100
AcDbEntity
  8
0
  6
Continuous
 62
     7
 48
3.0625
370
    15
100
AcDbCircle
 10
10.7979249981
 20
12.0869269047
 30
0.0
 40
0.1095000000000006
100
AcDbArc
 50
180.0
 51
0.0
  0
LINE
  5
496
330
1F
100
AcDbEntity
  8
0
  6
Continuous
 62
     7
 48
1.75
370
    15
100
AcDbLine
 10
10.9074250017
 20
12.1489268463
 30
0.0
 11
10.9074250017
 21
12.0869268692
 31
0.0
  0
ARC
  5
497
330
1F
100
AcDbEntity
  8
0
  6
Continuous
 62
     7
 48
3.0625
370
    15
100
AcDbCircle
 10
10.7979249981
 20
12.1489269047
 30
0.0
 40
0.1095000000000006
100
AcDbArc
 50
0.0
 51
180.0
  0
LINE
  5
498
330
1F
100
AcDbEntity
  8
0
  6
Continuous
 62
     7
 48
1.75
370
    15
100
AcDbLine
 10
10.6884250116
 20
12.0869268692
 30
0.0
 11
10.6884250116
 21
12.1489268463
 31
0.0
  0
ARC
  5
499
330
1F
100
AcDbEntity
  8
0
  6
Continuous
 62
     7
 48
3.0625
370
    15
100
AcDbCircle
 10
10.8604249981
 20
12.1179269047
 30
0.0
 40
0.25
100
AcDbArc
 50
0.0
 51
90.0
  0
LINE
  5
49A
330
1F
100
AcDbEntity
  8
0
  6
Continuous
 62
     7
 48
1.75
370
    15
100
AcDbLine
 10
11.1104250167
 20
12.1179268578
 30
0.0
 11
11.1104250167
 21
11.8679270258
 31
0.0
  0
ARC
  5
49B
330
1F
100
AcDbEntity
  8
0
  6
Continuous
 62
     7
 48
3.0625
370
    15
100
AcDbCircle
 10
8.4229249981
 20
12.1489269047
 30
0.0
 40
0.1095000000000006
100
AcDbArc
 50
0.0
 51
180.0
  0
LINE
  5
49C
330
1F
100
AcDbEntity
  8
0
  6
Continuous
 62
     7
 48
1.75
370
    15
100
AcDbLine
 10
8.3134249945
 20
12.1489268463
 30
0.0
 11
8.3134249945
 21
12.0869268692
 31
0.0
  0
ARC
  5
49D
330
1F
100
AcDbEntity
  8
0
  6
Continuous
 62
     7
 48
3.0625
370
    15
100
AcDbCircle
 10
8.4229249981
 20
12.0869269047
 30
0.0
 40
0.1095000000000006
100
AcDbArc
 50
180.0
 51
0.0
  0
LINE
  5
49E
330
1F
100
AcDbEntity
  8
0
  6
Continuous
 62
     7
 48
1.75
370
    15
100
AcDbLine
 10
8.5324249846
 20
12.0869268692
 30
0.0
 11
8.5324249846
 21
12.1489268463
 31
0.0
  0
LINE
  5
49F
330
1F
100
AcDbEntity
  8
0
  6
Continuous
 62
     7
 48
1.75
370
    15
100
AcDbLine
 10
10.860425038
 20
12.3679269831
 30
0.0
 11
8.3604249582
 21
12.3679269831
 31
0.0
  0
ARC
  5
4A0
330
1F
100
AcDbEntity
  8
0
  6
Continuous
 62
     7
 48
3.0625
370
    15
100
AcDbCircle
 10
8.3604249981
 20
12.1179269047
 30
0.0
 40
0.25
100
AcDbArc
 50
90.0
 51
180.0
  0
LINE
  5
4A1
330
1F
100
AcDbEntity
  8
0
  6
Continuous
 62
     7
 48
1.75
370
    15
100
AcDbLine
 10
8.1104249796
 20
12.1179268578
 30
0.0
 11
8.1104249796
 21
11.8679270258
 31
0.0
  0
ARC
  5
4A2
330
1F
100
AcDbEntity
  8
0
  6
Continuous
 62
     7
 48
3.0625
370
    15
100
AcDbCircle
 10
8.4229249981
 20
5.8989269047
 30
0.0
 40
0.1095000000000006
100
AcDbArc
 50
0.0
 51
180.0
  0
ARC
  5
4A3
330
1F
100
AcDbEntity
  8
0
  6
Continuous
 62
     7
 48
3.0625
370
    15
100
AcDbCircle
 10
8.4229249981
 20
5.8369269047
 30
0.0
 40
0.1095000000000006
100
AcDbArc
 50
180.0
 51
0.0
  0
LINE
  5
4A4
330
1F
100
AcDbEntity
  8
0
  6
Continuous
 62
     7
 48
1.75
370
    15
100
AcDbLine
 10
8.5324249846
 20
5.8989269402
 30
0.0
 11
8.5324249846
 21
5.8369269631
 31
0.0
  0
ARC
  5
4A5
330
1F
100
AcDbEntity
  8
0
  6
Continuous
 62
     7
 48
3.0625
370
    15
100
AcDbCircle
 10
8.3604249981
 20
5.8679269047
 30
0.0
 40
0.25
100
AcDbArc
 50
180.0
 51
270.0
  0
LINE
  5
4A6
330
1F
100
AcDbEntity
  8
0
  6
Continuous
 62
     7
 48
1.75
370
    15
100
AcDbLine
 10
8.1104249796
 20
5.8679269516
 30
0.0
 11
8.1104249796
 21
6.1179267836
 31
0.0
  0
ARC
  5
4A7
330
1F
100
AcDbEntity
  8
0
  6
Continuous
 62
     7
 48
3.0625
370
    15
100
AcDbCircle
 10
10.7979249981
 20
5.8369269047
 30
0.0
 40
0.1095000000000006
100
AcDbArc
 50
180.0
 51
0.0
  0
LINE
  5
4A8
330
1F
100
AcDbEntity
  8
0
  6
Continuous
 62
     7
 48
1.75
370
    15
100
AcDbLine
 10
10.9074250017
 20
5.8369269631
 30
0.0
 11
10.9074250017
 21
5.8989269402
 31
0.0
  0
LINE
  5
4A9
330
1F
100
AcDbEntity
  8
0
  6
Continuous
 62
     7
 48
1.75
370
    15
100
AcDbLine
 10
10.6884250116
 20
5.8989269402
 30
0.0
 11
10.6884250116
 21
5.8369269631
 31
0.0
  0
LINE
  5
4AA
330
1F
100
AcDbEntity
  8
0
  6
Continuous
 62
     7
 48
1.75
370
    15
100
AcDbLine
 10
8.3134249945
 20
5.8369269631
 30
0.0
 11
8.3134249945
 21
5.8989269402
 31
0.0
  0
LINE
  5
4AB
330
1F
100
AcDbEntity
  8
0
  6
Continuous
 62
     7
 48
1.75
370
    15
100
AcDbLine
 10
8.3604249582
 20
5.6179268263
 30
0.0
 11
10.860425038
 21
5.6179268263
 31
0.0
  0
ARC
  5
4AC
330
1F
100
AcDbEntity
  8
0
  6
Continuous
 62
     7
 48
3.0625
370
    15
100
AcDbCircle
 10
10.8604249981
 20
5.8679269047
 30
0.0
 40
0.25
100
AcDbArc
 50
270.0
 51
0.0
  0
LINE
  5
4AD
330
1F
100
AcDbEntity
  8
0
  6
Continuous
 62
     7
 48
1.75
370
    15
100
AcDbLine
 10
11.1104250167
 20
5.8679269516
 30
0.0
 11
11.1104250167
 21
6.1179267836
 31
0.0
  0
ARC
  5
4AE
330
1F
100
AcDbEntity
  8
0
  6
Continuous
 62
     7
 48
3.0625
370
    15
100
AcDbCircle
 10
10.7979249981
 20
5.8989269047
 30
0.0
 40
0.1095000000000006
100
AcDbArc
 50
0.0
 51
180.0
  0
DIMENSION
  5
4AF
330
1F
100
AcDbEntity
  8
0
  6
Continuous
 62
     7
 48
1.75
370
     0
100
AcDbDimension
  2
*D18
 10
11.2354249981
 20
13.0569032826
 30
0.0
 11
9.6104249981
 21
13.0569032826
 31
0.0
 70
   160
 71
     2
 42
-1.0
  3
SLDDIMSTYLE0
100
AcDbAlignedDimension
 13
7.9854249981
 23
11.7749269047
 33
0.0
 14
11.2354249981
 24
11.7749269047
 34
0.0
100
AcDbRotatedDimension
  0
DIMENSION
  5
4C1
330
1F
100
AcDbEntity
  8
0
  6
Continuous
 62
     7
 48
1.75
370
     0
100
AcDbDimension
  2
*D19
 10
11.9486972082
 20
6.1179269047
 30
0.0
 11
11.9486972082
 21
8.9929269047
 31
0.0
 70
   160
 71
     2
 42
-1.0
  3
SLDDIMSTYLE0
100
AcDbAlignedDimension
 13
11.1424249981
 23
11.8679269047
 33
0.0
 14
11.1424249981
 24
6.1179269047
 34
0.0
 50
90.0
100
AcDbRotatedDimension
  0
INSERT
  5
4DC
102
{ACAD_REACTORS
330
4DD
102
}
330
1F
100
AcDbEntity
  8
0
  6
Continuous
 62
     7
 48
1.75
370
     0
100
AcDbBlockReference
  2
SW_NOTE_6
 10
8.4243896572
 20
3.2758605572
 30
0.0
  0
LEADER
  5
4DD
330
1F
100
AcDbEntity
  8
0
  6
Continuous
 62
     7
 48
1.75
370
     0
100
AcDbLeader
  3
SLDDIMSTYLE4
 73
     2
 76
     3
 10
10.3988257744
 20
7.2133690281
 30
0.0
 10
7.9868896572
 20
3.2758605572
 30
0.0
 10
8.4243896572
 20
3.2758605572
 30
0.0
340
4DC
  0
INSERT
  5
4E3
330
1F
100
AcDbEntity
  8
0
  6
Continuous
 62
     7
 48
1.75
370
     0
100
AcDbBlockReference
  2
SW_NOTE_7
 10
9.1749151197
 20
4.6712958816
 30
0.0
  0
ARC
  5
4E4
330
1F
100
AcDbEntity
  8
0
  6
Continuous
 62
     7
 48
3.0625
370
    15
100
AcDbCircle
 10
5.7679553029
 20
14.0263627799
 30
0.0
 40
0.0150000000000006
100
AcDbArc
 50
270.0
 51
0.0
  0
ARC
  5
4E5
330
1F
100
AcDbEntity
  8
0
  6
Continuous
 62
     7
 48
3.0625
370
    15
100
AcDbCircle
 10
5.2979553029
 20
14.0263627799
 30
0.0
 40
0.0150000000000006
100
AcDbArc
 50
180.0
 51
270.0
  0
ARC
  5
4E6
330
1F
100
AcDbEntity
  8
0
  6
Continuous
 62
     7
 48
3.0625
370
    15
100
AcDbCircle
 10
5.7679553029
 20
14.0663627799
 30
0.0
 40
0.0150000000000006
100
AcDbArc
 50
0.0
 51
90.0
  0
ARC
  5
4E7
330
1F
100
AcDbEntity
  8
0
  6
Continuous
 62
     7
 48
3.0625
370
    15
100
AcDbCircle
 10
5.2979553029
 20
14.0663627799
 30
0.0
 40
0.0150000000000006
100
AcDbArc
 50
90.0
 51
180.0
  0
LINE
  5
4E8
330
1F
100
AcDbEntity
  8
0
  6
Continuous
 62
     7
 48
1.75
370
    15
100
AcDbLine
 10
5.2829552908
 20
14.066362911
 30
0.0
 11
5.2829552908
 21
14.0263626798
 31
0.0
  0
LINE
  5
4E9
330
1F
100
AcDbEntity
  8
0
  6
Continuous
 62
     7
 48
1.75
370
    15
100
AcDbLine
 10
5.7829553215
 20
14.0263626798
 30
0.0
 11
5.7829553215
 21
14.066362911
 31
0.0
  0
ARC
  5
4EA
330
1F
100
AcDbEntity
  8
0
  6
Continuous
 62
     7
 48
3.0625
370
    15
100
AcDbCircle
 10
3.2679553029
 20
14.0663627799
 30
0.0
 40
0.0150000000000006
100
AcDbArc
 50
0.0
 51
90.0
  0
ARC
  5
4EB
330
1F
100
AcDbEntity
  8
0
  6
Continuous
 62
     7
 48
3.0625
370
    15
100
AcDbCircle
 10
2.7979553029
 20
14.0663627799
 30
0.0
 40
0.0150000000000006
100
AcDbArc
 50
90.0
 51
180.0
  0
LINE
  5
4EC
330
1F
100
AcDbEntity
  8
0
  6
Continuous
 62
     7
 48
1.75
370
    15
100
AcDbLine
 10
2.7829552844
 20
14.066362911
 30
0.0
 11
2.7829552844
 21
14.0263626798
 31
0.0
  0
LINE
  5
4ED
330
1F
100
AcDbEntity
  8
0
  6
Continuous
 62
     7
 48
1.75
370
    15
100
AcDbLine
 10
3.282955315
 20
14.0263626798
 30
0.0
 11
3.282955315
 21
14.066362911
 31
0.0
  0
ARC
  5
4EE
330
1F
100
AcDbEntity
  8
0
  6
Continuous
 62
     7
 48
3.0625
370
    15
100
AcDbCircle
 10
3.2679553029
 20
14.0263627799
 30
0.0
 40
0.0150000000000006
100
AcDbArc
 50
270.0
 51
0.0
  0
ARC
  5
4EF
330
1F
100
AcDbEntity
  8
0
  6
Continuous
 62
     7
 48
3.0625
370
    15
100
AcDbCircle
 10
2.7979553029
 20
14.0263627799
 30
0.0
 40
0.0150000000000006
100
AcDbArc
 50
180.0
 51
270.0
  0
LINE
  5
4F0
330
1F
100
AcDbEntity
  8
0
  6
Continuous
 62
     7
 48
1.75
370
    15
100
AcDbLine
 10
5.3229553021
 20
14.0113626664
 30
0.0
 11
5.3258417421
 21
13.9783706742
 31
0.0
  0
LINE
  5
4F1
330
1F
100
AcDbEntity
  8
0
  6
Continuous
 62
     7
 48
1.75
370
    15
100
AcDbLine
 10
5.7400688702
 20
13.9783706742
 30
0.0
 11
5.7429552369
 21
14.0113626664
 31
0.0
  0
LINE
  5
4F2
330
1F
100
AcDbEntity
  8
0
  6
Continuous
 62
     7
 48
1.75
370
    15
100
AcDbLine
 10
5.3536639407
 20
13.9783706742
 30
0.0
 11
5.3536639407
 21
13.9741185633
 31
0.0
  0
LINE
  5
4F3
330
1F
100
AcDbEntity
  8
0
  6
Continuous
 62
     7
 48
1.75
370
    15
100
AcDbLine
 10
5.7122466716
 20
13.9741185633
 30
0.0
 11
5.7122466716
 21
13.9783706742
 31
0.0
  0
ARC
  5
4F4
330
1F
100
AcDbEntity
  8
0
  6
Continuous
 62
     7
 48
3.0625
370
    15
100
AcDbCircle
 10
5.633506484
 20
13.9741186854
 30
0.0
 40
0.0787401574803157
100
AcDbArc
 50
270.0
 51
0.0
  0
ARC
  5
4F5
330
1F
100
AcDbEntity
  8
0
  6
Continuous
 62
     7
 48
3.0625
370
    15
100
AcDbCircle
 10
5.4324041218
 20
13.9741186854
 30
0.0
 40
0.0787401574803148
100
AcDbArc
 50
180.0
 51
270.0
  0
LINE
  5
4F6
330
1F
100
AcDbEntity
  8
0
  6
Continuous
 62
     7
 48
1.75
370
    15
100
AcDbLine
 10
2.822955369
 20
14.0113626664
 30
0.0
 11
2.8258417356
 21
13.9783706742
 31
0.0
  0
LINE
  5
4F7
330
1F
100
AcDbEntity
  8
0
  6
Continuous
 62
     7
 48
1.75
370
    15
100
AcDbLine
 10
3.2400688638
 20
13.9783706742
 30
0.0
 11
3.2429553038
 21
14.0113626664
 31
0.0
  0
LINE
  5
4F8
330
1F
100
AcDbEntity
  8
0
  6
Continuous
 62
     7
 48
1.75
370
    15
100
AcDbLine
 10
2.8536639342
 20
13.9783706742
 30
0.0
 11
2.8536639342
 21
13.9741185633
 31
0.0
  0
LINE
  5
4F9
330
1F
100
AcDbEntity
  8
0
  6
Continuous
 62
     7
 48
1.75
370
    15
100
AcDbLine
 10
3.2122466652
 20
13.9741185633
 30
0.0
 11
3.2122466652
 21
13.9783706742
 31
0.0
  0
ARC
  5
4FA
330
1F
100
AcDbEntity
  8
0
  6
Continuous
 62
     7
 48
3.0625
370
    15
100
AcDbCircle
 10
3.133506484
 20
13.9741186854
 30
0.0
 40
0.0787401574803148
100
AcDbArc
 50
270.0
 51
0.0
  0
ARC
  5
4FB
330
1F
100
AcDbEntity
  8
0
  6
Continuous
 62
     7
 48
3.0625
370
    15
100
AcDbCircle
 10
2.9324041218
 20
13.9741186854
 30
0.0
 40
0.0787401574803153
100
AcDbArc
 50
180.0
 51
270.0
  0
LINE
  5
4FC
330
1F
100
AcDbEntity
  8
0
  6
Continuous
 62
     7
 48
1.75
370
    15
100
AcDbLine
 10
2.5329553057
 20
14.1743628901
 30
0.0
 11
2.5329553057
 21
14.581362735
 31
0.0
  0
LINE
  5
4FD
330
1F
100
AcDbEntity
  8
0
  6
Continuous
 62
     7
 48
1.75
370
    15
100
AcDbLine
 10
2.5329553057
 20
14.581362735
 30
0.0
 11
2.6259552714
 21
14.581362735
 31
0.0
  0
ARC
  5
4FE
330
1F
100
AcDbEntity
  8
0
  6
Continuous
 62
     7
 48
3.0625
370
    15
100
AcDbCircle
 10
2.6259553029
 20
14.1743627799
 30
0.0
 40
0.0930000000000017
100
AcDbArc
 50
180.0
 51
270.0
  0
LINE
  5
4FF
330
1F
100
AcDbEntity
  8
0
  6
Continuous
 62
     7
 48
1.75
370
    15
100
AcDbLine
 10
5.9399553344
 20
14.581362735
 30
0.0
 11
2.6259552714
 21
14.581362735
 31
0.0
  0
LINE
  5
500
330
1F
100
AcDbEntity
  8
0
  6
Continuous
 62
     7
 48
1.75
370
    15
100
AcDbLine
 10
2.6259552714
 20
14.0813629244
 30
0.0
 11
5.9399553344
 21
14.0813629244
 31
0.0
  0
LINE
  5
501
330
1F
100
AcDbEntity
  8
0
  6
Continuous
 62
     7
 48
1.75
370
    15
100
AcDbLine
 10
6.0329553001
 20
14.581362735
 30
0.0
 11
6.0329553001
 21
14.1743628901
 31
0.0
  0
LINE
  5
502
330
1F
100
AcDbEntity
  8
0
  6
Continuous
 62
     7
 48
1.75
370
    15
100
AcDbLine
 10
5.9399553344
 20
14.581362735
 30
0.0
 11
6.0329553001
 21
14.581362735
 31
0.0
  0
ARC
  5
503
330
1F
100
AcDbEntity
  8
0
  6
Continuous
 62
     7
 48
3.0625
370
    15
100
AcDbCircle
 10
5.9399553029
 20
14.1743627799
 30
0.0
 40
0.093
100
AcDbArc
 50
270.0
 51
0.0
  0
LINE
  5
504
330
1F
100
AcDbEntity
  8
0
  6
Continuous
 62
     7
 48
1.75
370
    15
100
AcDbLine
 10
5.9079552374
 20
16.9163627776
 30
0.0
 11
5.9079552374
 21
14.581362735
 31
0.0
  0
LINE
  5
505
330
1F
100
AcDbEntity
  8
0
  6
Continuous
 62
     7
 48
1.75
370
    15
100
AcDbLine
 10
2.6579553684
 20
14.581362735
 30
0.0
 11
2.6579553684
 21
16.9163627776
 31
0.0
  0
ARC
  5
506
330
1F
100
AcDbEntity
  8
0
  6
Continuous
 62
     7
 48
3.0625
370
    15
100
AcDbCircle
 10
5.8149553029
 20
16.9163627799
 30
0.0
 40
0.093
100
AcDbArc
 50
0.0
 51
90.0
  0
ARC
  5
507
330
1F
100
AcDbEntity
  8
0
  6
Continuous
 62
     7
 48
3.0625
370
    15
100
AcDbCircle
 10
2.7509553029
 20
16.9163627799
 30
0.0
 40
0.093
100
AcDbArc
 50
90.0
 51
180.0
  0
LINE
  5
508
330
1F
100
AcDbEntity
  8
0
  6
Continuous
 62
     7
 48
1.75
370
    15
100
AcDbLine
 10
5.8149552718
 20
17.0093627799
 30
0.0
 11
5.7829553215
 21
17.0093627799
 31
0.0
  0
LINE
  5
509
330
1F
100
AcDbEntity
  8
0
  6
Continuous
 62
     7
 48
1.75
370
    15
100
AcDbLine
 10
2.7829552844
 20
17.0093627799
 30
0.0
 11
2.750955334
 21
17.0093627799
 31
0.0
  0
LINE
  5
50A
330
1F
100
AcDbEntity
  8
0
  6
Continuous
 62
     7
 48
1.75
370
    15
100
AcDbLine
 10
5.7679553081
 20
14.0113626664
 30
0.0
 11
5.2979553042
 21
14.0113626664
 31
0.0
  0
LINE
  5
50B
330
1F
100
AcDbEntity
  8
0
  6
Continuous
 62
     7
 48
1.75
370
    15
100
AcDbLine
 10
3.2679553016
 20
14.0113626664
 30
0.0
 11
2.7979552978
 21
14.0113626664
 31
0.0
  0
LINE
  5
50C
330
1F
100
AcDbEntity
  8
0
  6
Continuous
 62
     7
 48
1.75
370
    15
100
AcDbLine
 10
5.7400688702
 20
13.9783706742
 30
0.0
 11
5.3258417421
 21
13.9783706742
 31
0.0
  0
LINE
  5
50D
330
1F
100
AcDbEntity
  8
0
  6
Continuous
 62
     7
 48
1.75
370
    15
100
AcDbLine
 10
5.6335065012
 20
13.8953785396
 30
0.0
 11
5.4324041111
 21
13.8953785396
 31
0.0
  0
LINE
  5
50E
330
1F
100
AcDbEntity
  8
0
  6
Continuous
 62
     7
 48
1.75
370
    15
100
AcDbLine
 10
3.2400688638
 20
13.9783706742
 30
0.0
 11
2.8258417356
 21
13.9783706742
 31
0.0
  0
LINE
  5
50F
330
1F
100
AcDbEntity
  8
0
  6
Continuous
 62
     7
 48
1.75
370
    15
100
AcDbLine
 10
3.1335064948
 20
13.8953785396
 30
0.0
 11
2.9324041046
 21
13.8953785396
 31
0.0
  0
LINE
  5
510
330
1F
100
AcDbEntity
  8
0
  6
Continuous
 62
     7
 48
1.75
370
    15
100
AcDbLine
 10
5.7829553215
 20
17.087362778
 30
0.0
 11
5.7829553215
 21
17.0093627799
 31
0.0
  0
LINE
  5
511
330
1F
100
AcDbEntity
  8
0
  6
Continuous
 62
     7
 48
1.75
370
    15
100
AcDbLine
 10
5.5329553428
 20
17.0093627799
 30
0.0
 11
5.7829553215
 21
17.0093627799
 31
0.0
  0
LINE
  5
512
330
1F
100
AcDbEntity
  8
0
  6
Continuous
 62
     7
 48
1.75
370
    15
100
AcDbLine
 10
5.5329553428
 20
17.087362778
 30
0.0
 11
5.7829553215
 21
17.087362778
 31
0.0
  0
LINE
  5
513
330
1F
100
AcDbEntity
  8
0
  6
Continuous
 62
     7
 48
1.75
370
    15
100
AcDbLine
 10
2.7829552844
 20
17.087362778
 30
0.0
 11
2.7829552844
 21
17.0093627799
 31
0.0
  0
LINE
  5
514
330
1F
100
AcDbEntity
  8
0
  6
Continuous
 62
     7
 48
1.75
370
    15
100
AcDbLine
 10
3.032955263
 20
17.0093627799
 30
0.0
 11
2.7829552844
 21
17.0093627799
 31
0.0
  0
LINE
  5
515
330
1F
100
AcDbEntity
  8
0
  6
Continuous
 62
     7
 48
1.75
370
    15
100
AcDbLine
 10
3.032955263
 20
17.087362778
 30
0.0
 11
2.7829552844
 21
17.087362778
 31
0.0
  0
LINE
  5
516
330
1F
100
AcDbEntity
  8
0
  6
Continuous
 62
     7
 48
1.75
370
    15
100
AcDbLine
 10
5.5329553428
 20
17.0093627799
 30
0.0
 11
3.032955263
 21
17.0093627799
 31
0.0
  0
LINE
  5
517
330
1F
100
AcDbEntity
  8
0
  6
Continuous
 62
     7
 48
1.75
370
    15
100
AcDbLine
 10
5.5329553428
 20
17.087362778
 30
0.0
 11
3.032955263
 21
17.087362778
 31
0.0
  0
ENDSEC
  0
SECTION
  2
OBJECTS
  0
DICTIONARY
  5
C
330
0
100
AcDbDictionary
281
     1
  3
ACAD_GROUP
350
D
  3
ACAD_LAYOUT
350
1A
  3
ACAD_MATERIAL
350
3B
  3
ACAD_MLEADERSTYLE
350
51A
  3
ACAD_MLINESTYLE
350
17
  3
ACAD_PLOTSETTINGS
350
19
  3
ACAD_PLOTSTYLENAME
350
E
  3
ACAD_SCALELIST
350
55
  3
ACAD_VISUALSTYLE
350
2A
  3
AcDbVariableDictionary
350
518
  0
DICTIONARY
  5
D
102
{ACAD_REACTORS
330
C
102
}
330
C
100
AcDbDictionary
281
     1
  0
DICTIONARY
  5
1A
102
{ACAD_REACTORS
330
C
102
}
330
C
100
AcDbDictionary
281
     1
  3
Layout1
350
1E
  3
Layout2
350
26
  3
Model
350
22
  0
DICTIONARY
  5
3B
102
{ACAD_REACTORS
330
C
102
}
330
C
100
AcDbDictionary
281
     1
  3
ByBlock
350
3D
  3
ByLayer
350
3C
  3
Global
350
3E
  0
DICTIONARY
  5
51A
102
{ACAD_REACTORS
330
C
102
}
330
C
100
AcDbDictionary
281
     1
  0
DICTIONARY
  5
17
102
{ACAD_REACTORS
330
C
102
}
330
C
100
AcDbDictionary
281
     1
  3
Standard
350
18
  0
DICTIONARY
  5
19
102
{ACAD_REACTORS
330
C
102
}
330
C
100
AcDbDictionary
281
     1
  0
ACDBDICTIONARYWDFLT
  5
E
102
{ACAD_REACTORS
330
C
102
}
330
C
100
AcDbDictionary
281
     1
  3
Normal
350
F
100
AcDbDictionaryWithDefault
340
F
  0
DICTIONARY
  5
55
102
{ACAD_REACTORS
330
C
102
}
330
C
100
AcDbDictionary
281
     1
  3
A0
350
56
  3
A1
350
57
  3
A2
350
58
  3
A3
350
59
  3
A4
350
5A
  3
A5
350
5B
  3
A6
350
5C
  3
A7
350
5D
  3
A8
350
5E
  3
A9
350
5F
  3
B0
350
60
  3
B1
350
61
  3
B2
350
62
  3
B3
350
63
  3
B4
350
64
  3
B5
350
65
  3
B6
350
66
  3
B7
350
67
  3
B8
350
68
  3
B9
350
69
  3
C0
350
6A
  3
C1
350
6B
  3
C2
350
6C
  3
C3
350
6D
  3
C4
350
6E
  3
C5
350
6F
  3
C6
350
70
  3
C7
350
71
  3
C8
350
72
  3
C9
350
73
  3
D0
350
74
  3
D1
350
75
  3
D2
350
76
  0
DICTIONARY
  5
2A
102
{ACAD_REACTORS
330
C
102
}
330
C
100
AcDbDictionary
281
     1
  3
2dWireframe
350
2F
  3
3D Hidden
350
31
  3
3dWireframe
350
30
  3
Basic
350
32
  3
Brighten
350
36
  3
ColorChange
350
3A
  3
Conceptual
350
34
  3
Dim
350
35
  3
Facepattern
350
39
  3
Flat
350
2B
  3
FlatWithEdges
350
2C
  3
Gouraud
350
2D
  3
GouraudWithEdges
350
2E
  3
Linepattern
350
38
  3
Realistic
350
33
  3
Thicken
350
37
  0
DICTIONARY
  5
518
102
{ACAD_REACTORS
330
C
102
}
330
C
100
AcDbDictionary
281
     1
  3
CANNOSCALE
350
51B
  3
DIMASSOC
350
51C
  3
HIDETEXT
350
51D
  0
LAYOUT
  5
1E
102
{ACAD_REACTORS
330
1A
102
}
330
1A
100
AcDbPlotSettings
  1

  2
none_device
  4

  6

 40
0.0
 41
0.0
 42
0.0
 43
0.0
 44
0.0
 45
0.0
 46
0.0
 47
0.0
 48
0.0
 49
0.0
140
0.0
141
0.0
142
1.0
143
1.0
 70
   688
 72
     0
 73
     0
 74
     5
  7

 75
    16
147
1.0
148
0.0
149
0.0
100
AcDbLayout
  1
Layout1
 70
     1
 71
     1
 10
0.0
 20
0.0
 11
12.0
 21
9.0
 12
0.0
 22
0.0
 32
0.0
 14
1.0000000000E+20
 24
1.0000000000E+20
 34
1.0000000000E+20
 15
-1.0000000000E+20
 25
-1.0000000000E+20
 35
-1.0000000000E+20
146
0.0
 13
0.0
 23
0.0
 33
0.0
 16
1.0
 26
0.0
 36
0.0
 17
0.0
 27
1.0
 37
0.0
 76
     0
330
1B
  0
LAYOUT
  5
26
102
{ACAD_REACTORS
330
1A
102
}
330
1A
100
AcDbPlotSettings
  1

  2
none_device
  4

  6

 40
0.0
 41
0.0
 42
0.0
 43
0.0
 44
0.0
 45
0.0
 46
0.0
 47
0.0
 48
0.0
 49
0.0
140
0.0
141
0.0
142
1.0
143
1.0
 70
   688
 72
     0
 73
     0
 74
     5
  7

 75
    16
147
1.0
148
0.0
149
0.0
100
AcDbLayout
  1
Layout2
 70
     1
 71
     2
 10
0.0
 20
0.0
 11
0.0
 21
0.0
 12
0.0
 22
0.0
 32
0.0
 14
0.0
 24
0.0
 34
0.0
 15
0.0
 25
0.0
 35
0.0
146
0.0
 13
0.0
 23
0.0
 33
0.0
 16
1.0
 26
0.0
 36
0.0
 17
0.0
 27
1.0
 37
0.0
 76
     0
330
23
  0
LAYOUT
  5
22
102
{ACAD_REACTORS
330
1A
102
}
330
1A
100
AcDbPlotSettings
  1

  2
none_device
  4

  6

 40
0.0
 41
0.0
 42
0.0
 43
0.0
 44
0.0
 45
0.0
 46
0.0
 47
0.0
 48
0.0
 49
0.0
140
0.0
141
0.0
142
1.0
143
1.0
 70
  1712
 72
     0
 73
     0
 74
     0
  7

 75
     0
147
1.0
148
0.0
149
0.0
100
AcDbLayout
  1
Model
 70
     1
 71
     0
 10
0.0
 20
0.0
 11
29.75
 21
19.25
 12
0.0
 22
0.0
 32
0.0
 14
0.0
 24
0.0
 34
0.0
 15
29.75
 25
19.25
 35
0.0
146
0.0
 13
0.0
 23
0.0
 33
0.0
 16
1.0
 26
0.0
 36
0.0
 17
0.0
 27
1.0
 37
0.0
 76
     0
330
1F
331
29
  0
MATERIAL
  5
3D
102
{ACAD_REACTORS
330
3B
102
}
102
{ACAD_XDICTIONARY
360
540
102
}
330
3B
100
AcDbMaterial
  1
ByBlock
  0
MATERIAL
  5
3C
102
{ACAD_REACTORS
330
3B
102
}
102
{ACAD_XDICTIONARY
360
53E
102
}
330
3B
100
AcDbMaterial
  1
ByLayer
  0
MATERIAL
  5
3E
102
{ACAD_REACTORS
330
3B
102
}
102
{ACAD_XDICTIONARY
360
542
102
}
330
3B
100
AcDbMaterial
  1
Global
  0
MLINESTYLE
  5
18
102
{ACAD_REACTORS
330
17
102
}
330
17
100
AcDbMlineStyle
  2
Standard
 70
     0
  3

 62
   256
 51
90.0
 52
90.0
 71
     2
 49
0.5
 62
   256
  6
BYLAYER
 49
-0.5
 62
   256
  6
BYLAYER
  0
ACDBPLACEHOLDER
  5
F
102
{ACAD_REACTORS
330
E
102
}
330
E
  0
SCALE
  5
56
102
{ACAD_REACTORS
330
55
102
}
330
55
100
AcDbScale
 70
     0
300
1:1
140
1.0
141
1.0
290
     1
  0
SCALE
  5
57
102
{ACAD_REACTORS
330
55
102
}
330
55
100
AcDbScale
 70
     0
300
1:2
140
1.0
141
2.0
290
     0
  0
SCALE
  5
58
102
{ACAD_REACTORS
330
55
102
}
330
55
100
AcDbScale
 70
     0
300
1:4
140
1.0
141
4.0
290
     0
  0
SCALE
  5
59
102
{ACAD_REACTORS
330
55
102
}
330
55
100
AcDbScale
 70
     0
300
1:5
140
1.0
141
5.0
290
     0
  0
SCALE
  5
5A
102
{ACAD_REACTORS
330
55
102
}
330
55
100
AcDbScale
 70
     0
300
1:8
140
1.0
141
8.0
290
     0
  0
SCALE
  5
5B
102
{ACAD_REACTORS
330
55
102
}
330
55
100
AcDbScale
 70
     0
300
1:10
140
1.0
141
10.0
290
     0
  0
SCALE
  5
5C
102
{ACAD_REACTORS
330
55
102
}
330
55
100
AcDbScale
 70
     0
300
1:16
140
1.0
141
16.0
290
     0
  0
SCALE
  5
5D
102
{ACAD_REACTORS
330
55
102
}
330
55
100
AcDbScale
 70
     0
300
1:20
140
1.0
141
20.0
290
     0
  0
SCALE
  5
5E
102
{ACAD_REACTORS
330
55
102
}
330
55
100
AcDbScale
 70
     0
300
1:30
140
1.0
141
30.0
290
     0
  0
SCALE
  5
5F
102
{ACAD_REACTORS
330
55
102
}
330
55
100
AcDbScale
 70
     0
300
1:40
140
1.0
141
40.0
290
     0
  0
SCALE
  5
60
102
{ACAD_REACTORS
330
55
102
}
330
55
100
AcDbScale
 70
     0
300
1:50
140
1.0
141
50.0
290
     0
  0
SCALE
  5
61
102
{ACAD_REACTORS
330
55
102
}
330
55
100
AcDbScale
 70
     0
300
1:100
140
1.0
141
100.0
290
     0
  0
SCALE
  5
62
102
{ACAD_REACTORS
330
55
102
}
330
55
100
AcDbScale
 70
     0
300
2:1
140
2.0
141
1.0
290
     0
  0
SCALE
  5
63
102
{ACAD_REACTORS
330
55
102
}
330
55
100
AcDbScale
 70
     0
300
4:1
140
4.0
141
1.0
290
     0
  0
SCALE
  5
64
102
{ACAD_REACTORS
330
55
102
}
330
55
100
AcDbScale
 70
     0
300
8:1
140
8.0
141
1.0
290
     0
  0
SCALE
  5
65
102
{ACAD_REACTORS
330
55
102
}
330
55
100
AcDbScale
 70
     0
300
10:1
140
10.0
141
1.0
290
     0
  0
SCALE
  5
66
102
{ACAD_REACTORS
330
55
102
}
330
55
100
AcDbScale
 70
     0
300
100:1
140
100.0
141
1.0
290
     0
  0
SCALE
  5
67
102
{ACAD_REACTORS
330
55
102
}
330
55
100
AcDbScale
 70
     0
300
1/128" = 1'-0"
140
0.0078125
141
12.0
290
     0
  0
SCALE
  5
68
102
{ACAD_REACTORS
330
55
102
}
330
55
100
AcDbScale
 70
     0
300
1/64" = 1'-0"
140
0.015625
141
12.0
290
     0
  0
SCALE
  5
69
102
{ACAD_REACTORS
330
55
102
}
330
55
100
AcDbScale
 70
     0
300
1/32" = 1'-0"
140
0.03125
141
12.0
290
     0
  0
SCALE
  5
6A
102
{ACAD_REACTORS
330
55
102
}
330
55
100
AcDbScale
 70
     0
300
1/16" = 1'-0"
140
0.0625
141
12.0
290
     0
  0
SCALE
  5
6B
102
{ACAD_REACTORS
330
55
102
}
330
55
100
AcDbScale
 70
     0
300
3/32" = 1'-0"
140
0.09375
141
12.0
290
     0
  0
SCALE
  5
6C
102
{ACAD_REACTORS
330
55
102
}
330
55
100
AcDbScale
 70
     0
300
1/8" = 1'-0"
140
0.125
141
12.0
290
     0
  0
SCALE
  5
6D
102
{ACAD_REACTORS
330
55
102
}
330
55
100
AcDbScale
 70
     0
300
3/16" = 1'-0"
140
0.1875
141
12.0
290
     0
  0
SCALE
  5
6E
102
{ACAD_REACTORS
330
55
102
}
330
55
100
AcDbScale
 70
     0
300
1/4" = 1'-0"
140
0.25
141
12.0
290
     0
  0
SCALE
  5
6F
102
{ACAD_REACTORS
330
55
102
}
330
55
100
AcDbScale
 70
     0
300
3/8" = 1'-0"
140
0.375
141
12.0
290
     0
  0
SCALE
  5
70
102
{ACAD_REACTORS
330
55
102
}
330
55
100
AcDbScale
 70
     0
300
1/2" = 1'-0"
140
0.5
141
12.0
290
     0
  0
SCALE
  5
71
102
{ACAD_REACTORS
330
55
102
}
330
55
100
AcDbScale
 70
     0
300
3/4" = 1'-0"
140
0.75
141
12.0
290
     0
  0
SCALE
  5
72
102
{ACAD_REACTORS
330
55
102
}
330
55
100
AcDbScale
 70
     0
300
1" = 1'-0"
140
1.0
141
12.0
290
     0
  0
SCALE
  5
73
102
{ACAD_REACTORS
330
55
102
}
330
55
100
AcDbScale
 70
     0
300
1-1/2" = 1'-0"
140
1.5
141
12.0
290
     0
  0
SCALE
  5
74
102
{ACAD_REACTORS
330
55
102
}
330
55
100
AcDbScale
 70
     0
300
3" = 1'-0"
140
3.0
141
12.0
290
     0
  0
SCALE
  5
75
102
{ACAD_REACTORS
330
55
102
}
330
55
100
AcDbScale
 70
     0
300
6" = 1'-0"
140
6.0
141
12.0
290
     0
  0
SCALE
  5
76
102
{ACAD_REACTORS
330
55
102
}
330
55
100
AcDbScale
 70
     0
300
1'-0" = 1'-0"
140
12.0
141
12.0
290
     0
  0
VISUALSTYLE
  5
2F
102
{ACAD_REACTORS
330
2A
102
}
102
{ACAD_XDICTIONARY
360
526
102
}
330
2A
100
AcDbVisualStyle
  2
2dWireframe
 70
     4
 71
     0
 72
     2
 73
     0
 90
        0
 40
-0.6
 41
-30.0
 62
     5
 63
     7
 74
     1
 91
        4
 64
     7
 65
   257
 75
     1
175
     1
 42
1.0
 92
        0
 66
   257
 43
1.0
 76
     1
 77
     6
 78
     2
 67
     7
 79
     5
170
     0
171
     0
290
     0
174
     0
 93
        1
 44
0.0
173
     0
291
     0
 45
0.0
1001
ACAD
1000
AcDbSavedByObjectVersion
1070
     0
  0
VISUALSTYLE
  5
31
102
{ACAD_REACTORS
330
2A
102
}
102
{ACAD_XDICTIONARY
360
52A
102
}
330
2A
100
AcDbVisualStyle
  2
3D Hidden
 70
     6
 71
     1
 72
     2
 73
     2
 90
        0
 40
-0.6
 41
-30.0
 62
     5
 63
     7
 74
     2
 91
        2
 64
     7
 65
   257
 75
     2
175
     1
 42
40.0
 92
        0
 66
   257
 43
1.0
 76
     1
 77
     6
 78
     2
 67
     7
 79
     3
170
     0
171
     0
290
     0
174
     0
 93
        1
 44
0.0
173
     0
291
     0
 45
0.0
1001
ACAD
1000
AcDbSavedByObjectVersion
1070
     0
  0
VISUALSTYLE
  5
30
102
{ACAD_REACTORS
330
2A
102
}
102
{ACAD_XDICTIONARY
360
528
102
}
330
2A
100
AcDbVisualStyle
  2
3dWireframe
 70
     5
 71
     0
 72
     2
 73
     0
 90
        0
 40
-0.6
 41
-30.0
 62
     5
 63
     7
 74
     1
 91
        4
 64
     7
 65
   257
 75
     1
175
     1
 42
1.0
 92
        0
 66
   257
 43
1.0
 76
     1
 77
     6
 78
     2
 67
     7
 79
     5
170
     0
171
     0
290
     0
174
     0
 93
        1
 44
0.0
173
     0
291
     0
 45
0.0
1001
ACAD
1000
AcDbSavedByObjectVersion
1070
     0
  0
VISUALSTYLE
  5
32
102
{ACAD_REACTORS
330
2A
102
}
102
{ACAD_XDICTIONARY
360
52C
102
}
330
2A
100
AcDbVisualStyle
  2
Basic
 70
     7
 71
     1
 72
     0
 73
     1
 90
        0
 40
-0.6
 41
-30.0
 62
     5
 63
     7
 74
     0
 91
        4
 64
     7
 65
   257
 75
     1
175
     1
 42
1.0
 92
        8
 66
     7
 43
1.0
 76
     1
 77
     6
 78
     2
 67
     7
 79
     5
170
     0
171
     0
290
     0
174
     0
 93
        1
 44
0.0
173
     0
291
     1
 45
0.0
1001
ACAD
1000
AcDbSavedByObjectVersion
1070
     0
  0
VISUALSTYLE
  5
36
102
{ACAD_REACTORS
330
2A
102
}
102
{ACAD_XDICTIONARY
360
534
102
}
330
2A
100
AcDbVisualStyle
  2
Brighten
 70
    12
 71
     2
 72
     2
 73
     0
 90
        0
 40
-0.6
 41
-30.0
 62
     5
 63
     7
 74
     1
 91
        4
 64
     7
 65
   257
 75
     1
175
     1
 42
1.0
 92
        8
 66
     7
 43
1.0
 76
     1
 77
     6
 78
     2
 67
     7
 79
     5
170
     0
171
     0
290
     0
174
     0
 93
        1
 44
50.0
173
     0
291
     1
 45
0.0
1001
ACAD
1000
AcDbSavedByObjectVersion
1070
     0
  0
VISUALSTYLE
  5
3A
102
{ACAD_REACTORS
330
2A
102
}
102
{ACAD_XDICTIONARY
360
53C
102
}
330
2A
100
AcDbVisualStyle
  2
ColorChange
 70
    16
 71
     2
 72
     2
 73
     3
 90
        0
 40
-0.6
 41
-30.0
 62
     5
 63
     8
 74
     1
 91
        4
 64
     7
 65
   257
 75
     1
175
     1
 42
1.0
 92
        8
 66
     8
 43
1.0
 76
     1
 77
     6
 78
     2
 67
     7
 79
     5
170
     0
171
     0
290
     0
174
     0
 93
        1
 44
0.0
173
     0
291
     1
 45
0.0
1001
ACAD
1000
AcDbSavedByObjectVersion
1070
     0
  0
VISUALSTYLE
  5
34
102
{ACAD_REACTORS
330
2A
102
}
102
{ACAD_XDICTIONARY
360
530
102
}
330
2A
100
AcDbVisualStyle
  2
Conceptual
 70
     9
 71
     3
 72
     2
 73
     0
 90
        0
 40
-0.6
 41
-30.0
 62
     5
 63
     7
 74
     2
 91
        2
 64
     7
 65
   257
 75
     1
175
     1
 42
40.0
 92
        8
 66
     7
 43
1.0
 76
     1
 77
     6
 78
     2
 67
     7
 79
     3
170
     0
171
     0
290
     0
174
     0
 93
        1
 44
0.0
173
     0
291
     0
 45
0.0
1001
ACAD
1000
AcDbSavedByObjectVersion
1070
     0
  0
VISUALSTYLE
  5
35
102
{ACAD_REACTORS
330
2A
102
}
102
{ACAD_XDICTIONARY
360
532
102
}
330
2A
100
AcDbVisualStyle
  2
Dim
 70
    11
 71
     2
 72
     2
 73
     0
 90
        0
 40
-0.6
 41
-30.0
 62
     5
 63
     7
 74
     1
 91
        4
 64
     7
 65
   257
 75
     1
175
     1
 42
1.0
 92
        8
 66
     7
 43
1.0
 76
     1
 77
     6
 78
     2
 67
     7
 79
     5
170
     0
171
     0
290
     0
174
     0
 93
        1
 44
-50.0
173
     0
291
     1
 45
0.0
1001
ACAD
1000
AcDbSavedByObjectVersion
1070
     0
  0
VISUALSTYLE
  5
39
102
{ACAD_REACTORS
330
2A
102
}
102
{ACAD_XDICTIONARY
360
53A
102
}
330
2A
100
AcDbVisualStyle
  2
Facepattern
 70
    15
 71
     2
 72
     2
 73
     0
 90
        0
 40
-0.6
 41
-30.0
 62
     5
 63
     7
 74
     1
 91
        4
 64
     7
 65
   257
 75
     1
175
     1
 42
1.0
 92
        8
 66
     7
 43
1.0
 76
     1
 77
     6
 78
     2
 67
     7
 79
     5
170
     0
171
     0
290
     0
174
     0
 93
        1
 44
0.0
173
     0
291
     1
 45
0.0
1001
ACAD
1000
AcDbSavedByObjectVersion
1070
     0
  0
VISUALSTYLE
  5
2B
102
{ACAD_REACTORS
330
2A
102
}
102
{ACAD_XDICTIONARY
360
51E
102
}
330
2A
100
AcDbVisualStyle
  2
Flat
 70
     0
 71
     2
 72
     1
 73
     1
 90
        2
 40
-0.6
 41
30.0
 62
     5
 63
     7
 74
     0
 91
        4
 64
     7
 65
   257
 75
     1
175
     1
 42
1.0
 92
        8
 66
     7
 43
1.0
 76
     1
 77
     6
 78
     2
 67
     7
 79
     5
170
     0
171
     0
290
     0
174
     0
 93
       13
 44
0.0
173
     0
291
     1
 45
0.0
1001
ACAD
1000
AcDbSavedByObjectVersion
1070
     0
  0
VISUALSTYLE
  5
2C
102
{ACAD_REACTORS
330
2A
102
}
102
{ACAD_XDICTIONARY
360
520
102
}
330
2A
100
AcDbVisualStyle
  2
FlatWithEdges
 70
     1
 71
     2
 72
     1
 73
     1
 90
        2
 40
-0.6
 41
30.0
 62
     5
 63
     7
 74
     1
 91
        4
 64
     7
 65
   257
 75
     1
175
     1
 42
1.0
 92
        0
 66
   257
 43
1.0
 76
     1
 77
     6
 78
     2
 67
     7
 79
     5
170
     0
171
     0
290
     0
174
     0
 93
       13
 44
0.0
173
     0
291
     1
 45
0.0
1001
ACAD
1000
AcDbSavedByObjectVersion
1070
     0
  0
VISUALSTYLE
  5
2D
102
{ACAD_REACTORS
330
2A
102
}
102
{ACAD_XDICTIONARY
360
522
102
}
330
2A
100
AcDbVisualStyle
  2
Gouraud
 70
     2
 71
     2
 72
     2
 73
     1
 90
        2
 40
-0.6
 41
30.0
 62
     5
 63
     7
 74
     0
 91
        4
 64
     7
 65
   257
 75
     1
175
     1
 42
1.0
 92
        0
 66
     7
 43
1.0
 76
     1
 77
     6
 78
     2
 67
     7
 79
     5
170
     0
171
     0
290
     0
174
     0
 93
       13
 44
0.0
173
     0
291
     1
 45
0.0
1001
ACAD
1000
AcDbSavedByObjectVersion
1070
     0
  0
VISUALSTYLE
  5
2E
102
{ACAD_REACTORS
330
2A
102
}
102
{ACAD_XDICTIONARY
360
524
102
}
330
2A
100
AcDbVisualStyle
  2
GouraudWithEdges
 70
     3
 71
     2
 72
     2
 73
     1
 90
        2
 40
-0.6
 41
30.0
 62
     5
 63
     7
 74
     1
 91
        4
 64
     7
 65
   257
 75
     1
175
     1
 42
1.0
 92
        0
 66
   257
 43
1.0
 76
     1
 77
     6
 78
     2
 67
     7
 79
     5
170
     0
171
     0
290
     0
174
     0
 93
       13
 44
0.0
173
     0
291
     1
 45
0.0
1001
ACAD
1000
AcDbSavedByObjectVersion
1070
     0
  0
VISUALSTYLE
  5
38
102
{ACAD_REACTORS
330
2A
102
}
102
{ACAD_XDICTIONARY
360
538
102
}
330
2A
100
AcDbVisualStyle
  2
Linepattern
 70
    14
 71
     2
 72
     2
 73
     0
 90
        0
 40
-0.6
 41
-30.0
 62
     5
 63
     7
 74
     1
 91
        4
 64
     7
 65
   257
 75
     7
175
     7
 42
1.0
 92
        8
 66
     7
 43
1.0
 76
     1
 77
     6
 78
     2
 67
     7
 79
     5
170
     0
171
     0
290
     0
174
     0
 93
        1
 44
0.0
173
     0
291
     1
 45
0.0
1001
ACAD
1000
AcDbSavedByObjectVersion
1070
     0
  0
VISUALSTYLE
  5
33
102
{ACAD_REACTORS
330
2A
102
}
102
{ACAD_XDICTIONARY
360
52E
102
}
330
2A
100
AcDbVisualStyle
  2
Realistic
 70
     8
 71
     2
 72
     2
 73
     0
 90
        0
 40
-0.6
 41
-30.0
 62
     5
 63
     7
 74
     1
 91
        0
 64
     7
 65
   257
 75
     1
175
     1
 42
1.0
 92
        8
 66
     8
 43
1.0
 76
     1
 77
     6
 78
     2
 67
     7
 79
     5
170
     0
171
     0
290
     0
174
     0
 93
       13
 44
0.0
173
     0
291
     0
 45
0.0
1001
ACAD
1000
AcDbSavedByObjectVersion
1070
     0
  0
VISUALSTYLE
  5
37
102
{ACAD_REACTORS
330
2A
102
}
102
{ACAD_XDICTIONARY
360
536
102
}
330
2A
100
AcDbVisualStyle
  2
Thicken
 70
    13
 71
     2
 72
     2
 73
     0
 90
        0
 40
-0.6
 41
-30.0
 62
     5
 63
     7
 74
     1
 91
        4
 64
     7
 65
   257
 75
     1
175
     1
 42
1.0
 92
       12
 66
     7
 43
1.0
 76
     1
 77
     6
 78
     2
 67
     7
 79
     5
170
     0
171
     0
290
     0
174
     0
 93
        1
 44
0.0
173
     0
291
     1
 45
0.0
1001
ACAD
1000
AcDbSavedByObjectVersion
1070
     0
  0
DICTIONARYVAR
  5
51B
102
{ACAD_REACTORS
330
518
102
}
330
518
100
DictionaryVariables
280
     0
  1
1:1
  0
DICTIONARYVAR
  5
51C
102
{ACAD_REACTORS
330
518
102
}
330
518
100
DictionaryVariables
280
     0
  1
2
  0
DICTIONARYVAR
  5
51D
102
{ACAD_REACTORS
330
518
102
}
330
518
100
DictionaryVariables
280
     0
  1
1
  0
DICTIONARY
  5
540
330
3D
100
AcDbDictionary
280
     1
281
     1
  3
ACAD_XREC_ROUNDTRIP
360
541
  0
DICTIONARY
  5
53E
330
3C
100
AcDbDictionary
280
     1
281
     1
  3
ACAD_XREC_ROUNDTRIP
360
53F
  0
DICTIONARY
  5
542
330
3E
100
AcDbDictionary
280
     1
281
     1
  3
ACAD_XREC_ROUNDTRIP
360
543
  0
DICTIONARY
  5
526
330
2F
100
AcDbDictionary
280
     1
281
     1
  3
ACAD_XREC_ROUNDTRIP
360
527
  0
DICTIONARY
  5
52A
330
31
100
AcDbDictionary
280
     1
281
     1
  3
ACAD_XREC_ROUNDTRIP
360
52B
  0
DICTIONARY
  5
528
330
30
100
AcDbDictionary
280
     1
281
     1
  3
ACAD_XREC_ROUNDTRIP
360
529
  0
DICTIONARY
  5
52C
330
32
100
AcDbDictionary
280
     1
281
     1
  3
ACAD_XREC_ROUNDTRIP
360
52D
  0
DICTIONARY
  5
534
330
36
100
AcDbDictionary
280
     1
281
     1
  3
ACAD_XREC_ROUNDTRIP
360
535
  0
DICTIONARY
  5
53C
330
3A
100
AcDbDictionary
280
     1
281
     1
  3
ACAD_XREC_ROUNDTRIP
360
53D
  0
DICTIONARY
  5
530
330
34
100
AcDbDictionary
280
     1
281
     1
  3
ACAD_XREC_ROUNDTRIP
360
531
  0
DICTIONARY
  5
532
330
35
100
AcDbDictionary
280
     1
281
     1
  3
ACAD_XREC_ROUNDTRIP
360
533
  0
DICTIONARY
  5
53A
330
39
100
AcDbDictionary
280
     1
281
     1
  3
ACAD_XREC_ROUNDTRIP
360
53B
  0
DICTIONARY
  5
51E
330
2B
100
AcDbDictionary
280
     1
281
     1
  3
ACAD_XREC_ROUNDTRIP
360
51F
  0
DICTIONARY
  5
520
330
2C
100
AcDbDictionary
280
     1
281
     1
  3
ACAD_XREC_ROUNDTRIP
360
521
  0
DICTIONARY
  5
522
330
2D
100
AcDbDictionary
280
     1
281
     1
  3
ACAD_XREC_ROUNDTRIP
360
523
  0
DICTIONARY
  5
524
330
2E
100
AcDbDictionary
280
     1
281
     1
  3
ACAD_XREC_ROUNDTRIP
360
525
  0
DICTIONARY
  5
538
330
38
100
AcDbDictionary
280
     1
281
     1
  3
ACAD_XREC_ROUNDTRIP
360
539
  0
DICTIONARY
  5
52E
330
33
100
AcDbDictionary
280
     1
281
     1
  3
ACAD_XREC_ROUNDTRIP
360
52F
  0
DICTIONARY
  5
536
330
37
100
AcDbDictionary
280
     1
281
     1
  3
ACAD_XREC_ROUNDTRIP
360
537
  0
XRECORD
  5
541
102
{ACAD_REACTORS
330
540
102
}
330
540
100
AcDbXrecord
280
     1
102
MATERIAL
148
0.0
149
0.0
149
0.0
 93
        0
 94
      127
282
     0
 72
     1
 77
     1
171
     1
175
     1
179
     1
273
     0
  0
XRECORD
  5
53F
102
{ACAD_REACTORS
330
53E
102
}
330
53E
100
AcDbXrecord
280
     1
102
MATERIAL
148
0.0
149
0.0
149
0.0
 93
        0
 94
      127
282
     0
 72
     1
 77
     1
171
     1
175
     1
179
     1
273
     0
  0
XRECORD
  5
543
102
{ACAD_REACTORS
330
542
102
}
330
542
100
AcDbXrecord
280
     1
102
MATERIAL
148
0.0
149
0.0
149
0.0
 93
        0
 94
      127
282
     0
 72
     1
 77
     1
171
     1
175
     1
179
     1
273
     0
  0
XRECORD
  5
527
102
{ACAD_REACTORS
330
526
102
}
330
526
100
AcDbXrecord
280
     1
102
RTVSPropertyOp0
 70
     1
102
RTVSPropertyOp1
 70
     1
102
RTVSPropertyOp2
 70
     1
102
RTVSPropertyOp3
 70
     1
102
RTVSPropertyOp4
 70
     1
102
RTVSPropertyOp5
 70
     1
102
RTVSPropertyOp6
 70
     1
102
RTVSPropertyOp7
 70
     1
102
RTVSPropertyOp8
 70
     1
102
RTVSPropertyOp9
 70
     1
102
RTVSPropertyOp10
 70
     1
102
RTVSPropertyOp11
 70
     1
102
RTVSPropertyOp12
 70
     1
102
RTVSPropertyOp13
 70
     1
102
RTVSPropertyOp14
 70
     1
102
RTVSPropertyOp15
 70
     1
102
RTVSPropertyOp16
 70
     1
102
RTVSPropertyOp17
 70
     1
102
RTVSPropertyOp18
 70
     1
102
RTVSPropertyOp19
 70
     1
102
RTVSPropertyOp20
 70
     1
102
RTVSPropertyOp21
 70
     1
102
RTVSPropertyOp22
 70
     1
102
RTVSPropertyOp23
 70
     1
102
RTVSPropertyOp24
 70
     1
102
RTVSPropertyOp25
 70
     1
102
RTVSPropertyOp26
 70
     1
102
RTVSPropertyOp27
 70
     1
  0
XRECORD
  5
52B
102
{ACAD_REACTORS
330
52A
102
}
330
52A
100
AcDbXrecord
280
     1
102
RTVSPropertyOp0
 70
     1
102
RTVSPropertyOp1
 70
     1
102
RTVSPropertyOp2
 70
     1
102
RTVSPropertyOp3
 70
     1
102
RTVSPropertyOp4
 70
     1
102
RTVSPropertyOp5
 70
     1
102
RTVSPropertyOp6
 70
     1
102
RTVSPropertyOp7
 70
     1
102
RTVSPropertyOp8
 70
     1
102
RTVSPropertyOp9
 70
     1
102
RTVSPropertyOp10
 70
     1
102
RTVSPropertyOp11
 70
     1
102
RTVSPropertyOp12
 70
     1
102
RTVSPropertyOp13
 70
     1
102
RTVSPropertyOp14
 70
     1
102
RTVSPropertyOp15
 70
     1
102
RTVSPropertyOp16
 70
     1
102
RTVSPropertyOp17
 70
     1
102
RTVSPropertyOp18
 70
     1
102
RTVSPropertyOp19
 70
     1
102
RTVSPropertyOp20
 70
     1
102
RTVSPropertyOp21
 70
     1
102
RTVSPropertyOp22
 70
     1
102
RTVSPropertyOp23
 70
     1
102
RTVSPropertyOp24
 70
     1
102
RTVSPropertyOp25
 70
     1
102
RTVSPropertyOp26
 70
     1
102
RTVSPropertyOp27
 70
     1
  0
XRECORD
  5
529
102
{ACAD_REACTORS
330
528
102
}
330
528
100
AcDbXrecord
280
     1
102
RTVSPropertyOp0
 70
     1
102
RTVSPropertyOp1
 70
     1
102
RTVSPropertyOp2
 70
     1
102
RTVSPropertyOp3
 70
     1
102
RTVSPropertyOp4
 70
     1
102
RTVSPropertyOp5
 70
     1
102
RTVSPropertyOp6
 70
     1
102
RTVSPropertyOp7
 70
     1
102
RTVSPropertyOp8
 70
     1
102
RTVSPropertyOp9
 70
     1
102
RTVSPropertyOp10
 70
     1
102
RTVSPropertyOp11
 70
     1
102
RTVSPropertyOp12
 70
     1
102
RTVSPropertyOp13
 70
     1
102
RTVSPropertyOp14
 70
     1
102
RTVSPropertyOp15
 70
     1
102
RTVSPropertyOp16
 70
     1
102
RTVSPropertyOp17
 70
     1
102
RTVSPropertyOp18
 70
     1
102
RTVSPropertyOp19
 70
     1
102
RTVSPropertyOp20
 70
     1
102
RTVSPropertyOp21
 70
     1
102
RTVSPropertyOp22
 70
     1
102
RTVSPropertyOp23
 70
     1
102
RTVSPropertyOp24
 70
     1
102
RTVSPropertyOp25
 70
     1
102
RTVSPropertyOp26
 70
     1
102
RTVSPropertyOp27
 70
     1
  0
XRECORD
  5
52D
102
{ACAD_REACTORS
330
52C
102
}
330
52C
100
AcDbXrecord
280
     1
102
RTVSPropertyOp0
 70
     1
102
RTVSPropertyOp1
 70
     1
102
RTVSPropertyOp2
 70
     1
102
RTVSPropertyOp3
 70
     1
102
RTVSPropertyOp4
 70
     1
102
RTVSPropertyOp5
 70
     1
102
RTVSPropertyOp6
 70
     1
102
RTVSPropertyOp7
 70
     1
102
RTVSPropertyOp8
 70
     1
102
RTVSPropertyOp9
 70
     1
102
RTVSPropertyOp10
 70
     1
102
RTVSPropertyOp11
 70
     1
102
RTVSPropertyOp12
 70
     1
102
RTVSPropertyOp13
 70
     1
102
RTVSPropertyOp14
 70
     1
102
RTVSPropertyOp15
 70
     1
102
RTVSPropertyOp16
 70
     1
102
RTVSPropertyOp17
 70
     1
102
RTVSPropertyOp18
 70
     1
102
RTVSPropertyOp19
 70
     1
102
RTVSPropertyOp20
 70
     1
102
RTVSPropertyOp21
 70
     1
102
RTVSPropertyOp22
 70
     1
102
RTVSPropertyOp23
 70
     1
102
RTVSPropertyOp24
 70
     1
102
RTVSPropertyOp25
 70
     1
102
RTVSPropertyOp26
 70
     1
102
RTVSPropertyOp27
 70
     1
  0
XRECORD
  5
535
102
{ACAD_REACTORS
330
534
102
}
330
534
100
AcDbXrecord
280
     1
102
RTVSPropertyOp0
 70
     1
102
RTVSPropertyOp1
 70
     1
102
RTVSPropertyOp2
 70
     1
102
RTVSPropertyOp3
 70
     1
102
RTVSPropertyOp4
 70
     1
102
RTVSPropertyOp5
 70
     1
102
RTVSPropertyOp6
 70
     1
102
RTVSPropertyOp7
 70
     1
102
RTVSPropertyOp8
 70
     1
102
RTVSPropertyOp9
 70
     1
102
RTVSPropertyOp10
 70
     1
102
RTVSPropertyOp11
 70
     1
102
RTVSPropertyOp12
 70
     1
102
RTVSPropertyOp13
 70
     1
102
RTVSPropertyOp14
 70
     1
102
RTVSPropertyOp15
 70
     1
102
RTVSPropertyOp16
 70
     1
102
RTVSPropertyOp17
 70
     1
102
RTVSPropertyOp18
 70
     1
102
RTVSPropertyOp19
 70
     1
102
RTVSPropertyOp20
 70
     1
102
RTVSPropertyOp21
 70
     1
102
RTVSPropertyOp22
 70
     1
102
RTVSPropertyOp23
 70
     1
102
RTVSPropertyOp24
 70
     1
102
RTVSPropertyOp25
 70
     1
102
RTVSPropertyOp26
 70
     1
102
RTVSPropertyOp27
 70
     1
  0
XRECORD
  5
53D
102
{ACAD_REACTORS
330
53C
102
}
330
53C
100
AcDbXrecord
280
     1
102
RTVSPropertyOp0
 70
     1
102
RTVSPropertyOp1
 70
     1
102
RTVSPropertyOp2
 70
     1
102
RTVSPropertyOp3
 70
     1
102
RTVSPropertyOp4
 70
     1
102
RTVSPropertyOp5
 70
     1
102
RTVSPropertyOp6
 70
     1
102
RTVSPropertyOp7
 70
     1
102
RTVSPropertyOp8
 70
     1
102
RTVSPropertyOp9
 70
     1
102
RTVSPropertyOp10
 70
     1
102
RTVSPropertyOp11
 70
     1
102
RTVSPropertyOp12
 70
     1
102
RTVSPropertyOp13
 70
     1
102
RTVSPropertyOp14
 70
     1
102
RTVSPropertyOp15
 70
     1
102
RTVSPropertyOp16
 70
     1
102
RTVSPropertyOp17
 70
     1
102
RTVSPropertyOp18
 70
     1
102
RTVSPropertyOp19
 70
     1
102
RTVSPropertyOp20
 70
     1
102
RTVSPropertyOp21
 70
     1
102
RTVSPropertyOp22
 70
     1
102
RTVSPropertyOp23
 70
     1
102
RTVSPropertyOp24
 70
     1
102
RTVSPropertyOp25
 70
     1
102
RTVSPropertyOp26
 70
     1
102
RTVSPropertyOp27
 70
     1
  0
XRECORD
  5
531
102
{ACAD_REACTORS
330
530
102
}
330
530
100
AcDbXrecord
280
     1
102
RTVSPropertyOp0
 70
     1
102
RTVSPropertyOp1
 70
     1
102
RTVSPropertyOp2
 70
     1
102
RTVSPropertyOp3
 70
     1
102
RTVSPropertyOp4
 70
     1
102
RTVSPropertyOp5
 70
     1
102
RTVSPropertyOp6
 70
     1
102
RTVSPropertyOp7
 70
     1
102
RTVSPropertyOp8
 70
     1
102
RTVSPropertyOp9
 70
     1
102
RTVSPropertyOp10
 70
     1
102
RTVSPropertyOp11
 70
     1
102
RTVSPropertyOp12
 70
     1
102
RTVSPropertyOp13
 70
     1
102
RTVSPropertyOp14
 70
     1
102
RTVSPropertyOp15
 70
     1
102
RTVSPropertyOp16
 70
     1
102
RTVSPropertyOp17
 70
     1
102
RTVSPropertyOp18
 70
     1
102
RTVSPropertyOp19
 70
     1
102
RTVSPropertyOp20
 70
     1
102
RTVSPropertyOp21
 70
     1
102
RTVSPropertyOp22
 70
     1
102
RTVSPropertyOp23
 70
     1
102
RTVSPropertyOp24
 70
     1
102
RTVSPropertyOp25
 70
     1
102
RTVSPropertyOp26
 70
     1
102
RTVSPropertyOp27
 70
     1
  0
XRECORD
  5
533
102
{ACAD_REACTORS
330
532
102
}
330
532
100
AcDbXrecord
280
     1
102
RTVSPropertyOp0
 70
     1
102
RTVSPropertyOp1
 70
     1
102
RTVSPropertyOp2
 70
     1
102
RTVSPropertyOp3
 70
     1
102
RTVSPropertyOp4
 70
     1
102
RTVSPropertyOp5
 70
     1
102
RTVSPropertyOp6
 70
     1
102
RTVSPropertyOp7
 70
     1
102
RTVSPropertyOp8
 70
     1
102
RTVSPropertyOp9
 70
     1
102
RTVSPropertyOp10
 70
     1
102
RTVSPropertyOp11
 70
     1
102
RTVSPropertyOp12
 70
     1
102
RTVSPropertyOp13
 70
     1
102
RTVSPropertyOp14
 70
     1
102
RTVSPropertyOp15
 70
     1
102
RTVSPropertyOp16
 70
     1
102
RTVSPropertyOp17
 70
     1
102
RTVSPropertyOp18
 70
     1
102
RTVSPropertyOp19
 70
     1
102
RTVSPropertyOp20
 70
     1
102
RTVSPropertyOp21
 70
     1
102
RTVSPropertyOp22
 70
     1
102
RTVSPropertyOp23
 70
     1
102
RTVSPropertyOp24
 70
     1
102
RTVSPropertyOp25
 70
     1
102
RTVSPropertyOp26
 70
     1
102
RTVSPropertyOp27
 70
     1
  0
XRECORD
  5
53B
102
{ACAD_REACTORS
330
53A
102
}
330
53A
100
AcDbXrecord
280
     1
102
RTVSPropertyOp0
 70
     1
102
RTVSPropertyOp1
 70
     1
102
RTVSPropertyOp2
 70
     1
102
RTVSPropertyOp3
 70
     1
102
RTVSPropertyOp4
 70
     1
102
RTVSPropertyOp5
 70
     1
102
RTVSPropertyOp6
 70
     1
102
RTVSPropertyOp7
 70
     1
102
RTVSPropertyOp8
 70
     1
102
RTVSPropertyOp9
 70
     1
102
RTVSPropertyOp10
 70
     1
102
RTVSPropertyOp11
 70
     1
102
RTVSPropertyOp12
 70
     1
102
RTVSPropertyOp13
 70
     1
102
RTVSPropertyOp14
 70
     1
102
RTVSPropertyOp15
 70
     1
102
RTVSPropertyOp16
 70
     1
102
RTVSPropertyOp17
 70
     1
102
RTVSPropertyOp18
 70
     1
102
RTVSPropertyOp19
 70
     1
102
RTVSPropertyOp20
 70
     1
102
RTVSPropertyOp21
 70
     1
102
RTVSPropertyOp22
 70
     1
102
RTVSPropertyOp23
 70
     1
102
RTVSPropertyOp24
 70
     1
102
RTVSPropertyOp25
 70
     1
102
RTVSPropertyOp26
 70
     1
102
RTVSPropertyOp27
 70
     1
  0
XRECORD
  5
51F
102
{ACAD_REACTORS
330
51E
102
}
330
51E
100
AcDbXrecord
280
     1
102
RTVSPropertyOp0
 70
     1
102
RTVSPropertyOp1
 70
     1
102
RTVSPropertyOp2
 70
     1
102
RTVSPropertyOp3
 70
     1
102
RTVSPropertyOp4
 70
     1
102
RTVSPropertyOp5
 70
     1
102
RTVSPropertyOp6
 70
     1
102
RTVSPropertyOp7
 70
     1
102
RTVSPropertyOp8
 70
     1
102
RTVSPropertyOp9
 70
     1
102
RTVSPropertyOp10
 70
     1
102
RTVSPropertyOp11
 70
     1
102
RTVSPropertyOp12
 70
     1
102
RTVSPropertyOp13
 70
     1
102
RTVSPropertyOp14
 70
     1
102
RTVSPropertyOp15
 70
     1
102
RTVSPropertyOp16
 70
     1
102
RTVSPropertyOp17
 70
     1
102
RTVSPropertyOp18
 70
     1
102
RTVSPropertyOp19
 70
     1
102
RTVSPropertyOp20
 70
     1
102
RTVSPropertyOp21
 70
     1
102
RTVSPropertyOp22
 70
     1
102
RTVSPropertyOp23
 70
     1
102
RTVSPropertyOp24
 70
     1
102
RTVSPropertyOp25
 70
     1
102
RTVSPropertyOp26
 70
     1
102
RTVSPropertyOp27
 70
     1
  0
XRECORD
  5
521
102
{ACAD_REACTORS
330
520
102
}
330
520
100
AcDbXrecord
280
     1
102
RTVSPropertyOp0
 70
     1
102
RTVSPropertyOp1
 70
     1
102
RTVSPropertyOp2
 70
     1
102
RTVSPropertyOp3
 70
     1
102
RTVSPropertyOp4
 70
     1
102
RTVSPropertyOp5
 70
     1
102
RTVSPropertyOp6
 70
     1
102
RTVSPropertyOp7
 70
     1
102
RTVSPropertyOp8
 70
     1
102
RTVSPropertyOp9
 70
     1
102
RTVSPropertyOp10
 70
     1
102
RTVSPropertyOp11
 70
     1
102
RTVSPropertyOp12
 70
     1
102
RTVSPropertyOp13
 70
     1
102
RTVSPropertyOp14
 70
     1
102
RTVSPropertyOp15
 70
     1
102
RTVSPropertyOp16
 70
     1
102
RTVSPropertyOp17
 70
     1
102
RTVSPropertyOp18
 70
     1
102
RTVSPropertyOp19
 70
     1
102
RTVSPropertyOp20
 70
     1
102
RTVSPropertyOp21
 70
     1
102
RTVSPropertyOp22
 70
     1
102
RTVSPropertyOp23
 70
     1
102
RTVSPropertyOp24
 70
     1
102
RTVSPropertyOp25
 70
     1
102
RTVSPropertyOp26
 70
     1
102
RTVSPropertyOp27
 70
     1
  0
XRECORD
  5
523
102
{ACAD_REACTORS
330
522
102
}
330
522
100
AcDbXrecord
280
     1
102
RTVSPropertyOp0
 70
     1
102
RTVSPropertyOp1
 70
     1
102
RTVSPropertyOp2
 70
     1
102
RTVSPropertyOp3
 70
     1
102
RTVSPropertyOp4
 70
     1
102
RTVSPropertyOp5
 70
     1
102
RTVSPropertyOp6
 70
     1
102
RTVSPropertyOp7
 70
     1
102
RTVSPropertyOp8
 70
     1
102
RTVSPropertyOp9
 70
     1
102
RTVSPropertyOp10
 70
     1
102
RTVSPropertyOp11
 70
     1
102
RTVSPropertyOp12
 70
     1
102
RTVSPropertyOp13
 70
     1
102
RTVSPropertyOp14
 70
     1
102
RTVSPropertyOp15
 70
     1
102
RTVSPropertyOp16
 70
     1
102
RTVSPropertyOp17
 70
     1
102
RTVSPropertyOp18
 70
     1
102
RTVSPropertyOp19
 70
     1
102
RTVSPropertyOp20
 70
     1
102
RTVSPropertyOp21
 70
     1
102
RTVSPropertyOp22
 70
     1
102
RTVSPropertyOp23
 70
     1
102
RTVSPropertyOp24
 70
     1
102
RTVSPropertyOp25
 70
     1
102
RTVSPropertyOp26
 70
     1
102
RTVSPropertyOp27
 70
     1
  0
XRECORD
  5
525
102
{ACAD_REACTORS
330
524
102
}
330
524
100
AcDbXrecord
280
     1
102
RTVSPropertyOp0
 70
     1
102
RTVSPropertyOp1
 70
     1
102
RTVSPropertyOp2
 70
     1
102
RTVSPropertyOp3
 70
     1
102
RTVSPropertyOp4
 70
     1
102
RTVSPropertyOp5
 70
     1
102
RTVSPropertyOp6
 70
     1
102
RTVSPropertyOp7
 70
     1
102
RTVSPropertyOp8
 70
     1
102
RTVSPropertyOp9
 70
     1
102
RTVSPropertyOp10
 70
     1
102
RTVSPropertyOp11
 70
     1
102
RTVSPropertyOp12
 70
     1
102
RTVSPropertyOp13
 70
     1
102
RTVSPropertyOp14
 70
     1
102
RTVSPropertyOp15
 70
     1
102
RTVSPropertyOp16
 70
     1
102
RTVSPropertyOp17
 70
     1
102
RTVSPropertyOp18
 70
     1
102
RTVSPropertyOp19
 70
     1
102
RTVSPropertyOp20
 70
     1
102
RTVSPropertyOp21
 70
     1
102
RTVSPropertyOp22
 70
     1
102
RTVSPropertyOp23
 70
     1
102
RTVSPropertyOp24
 70
     1
102
RTVSPropertyOp25
 70
     1
102
RTVSPropertyOp26
 70
     1
102
RTVSPropertyOp27
 70
     1
  0
XRECORD
  5
539
102
{ACAD_REACTORS
330
538
102
}
330
538
100
AcDbXrecord
280
     1
102
RTVSPropertyOp0
 70
     1
102
RTVSPropertyOp1
 70
     1
102
RTVSPropertyOp2
 70
     1
102
RTVSPropertyOp3
 70
     1
102
RTVSPropertyOp4
 70
     1
102
RTVSPropertyOp5
 70
     1
102
RTVSPropertyOp6
 70
     1
102
RTVSPropertyOp7
 70
     1
102
RTVSPropertyOp8
 70
     1
102
RTVSPropertyOp9
 70
     1
102
RTVSPropertyOp10
 70
     1
102
RTVSPropertyOp11
 70
     1
102
RTVSPropertyOp12
 70
     1
102
RTVSPropertyOp13
 70
     1
102
RTVSPropertyOp14
 70
     1
102
RTVSPropertyOp15
 70
     1
102
RTVSPropertyOp16
 70
     1
102
RTVSPropertyOp17
 70
     1
102
RTVSPropertyOp18
 70
     1
102
RTVSPropertyOp19
 70
     1
102
RTVSPropertyOp20
 70
     1
102
RTVSPropertyOp21
 70
     1
102
RTVSPropertyOp22
 70
     1
102
RTVSPropertyOp23
 70
     1
102
RTVSPropertyOp24
 70
     1
102
RTVSPropertyOp25
 70
     1
102
RTVSPropertyOp26
 70
     1
102
RTVSPropertyOp27
 70
     1
  0
XRECORD
  5
52F
102
{ACAD_REACTORS
330
52E
102
}
330
52E
100
AcDbXrecord
280
     1
102
RTVSPropertyOp0
 70
     1
102
RTVSPropertyOp1
 70
     1
102
RTVSPropertyOp2
 70
     1
102
RTVSPropertyOp3
 70
     1
102
RTVSPropertyOp4
 70
     1
102
RTVSPropertyOp5
 70
     1
102
RTVSPropertyOp6
 70
     1
102
RTVSPropertyOp7
 70
     1
102
RTVSPropertyOp8
 70
     1
102
RTVSPropertyOp9
 70
     1
102
RTVSPropertyOp10
 70
     1
102
RTVSPropertyOp11
 70
     1
102
RTVSPropertyOp12
 70
     1
102
RTVSPropertyOp13
 70
     1
102
RTVSPropertyOp14
 70
     1
102
RTVSPropertyOp15
 70
     1
102
RTVSPropertyOp16
 70
     1
102
RTVSPropertyOp17
 70
     1
102
RTVSPropertyOp18
 70
     1
102
RTVSPropertyOp19
 70
     1
102
RTVSPropertyOp20
 70
     1
102
RTVSPropertyOp21
 70
     1
102
RTVSPropertyOp22
 70
     1
102
RTVSPropertyOp23
 70
     1
102
RTVSPropertyOp24
 70
     1
102
RTVSPropertyOp25
 70
     1
102
RTVSPropertyOp26
 70
     1
102
RTVSPropertyOp27
 70
     1
  0
XRECORD
  5
537
102
{ACAD_REACTORS
330
536
102
}
330
536
100
AcDbXrecord
280
     1
102
RTVSPropertyOp0
 70
     1
102
RTVSPropertyOp1
 70
     1
102
RTVSPropertyOp2
 70
     1
102
RTVSPropertyOp3
 70
     1
102
RTVSPropertyOp4
 70
     1
102
RTVSPropertyOp5
 70
     1
102
RTVSPropertyOp6
 70
     1
102
RTVSPropertyOp7
 70
     1
102
RTVSPropertyOp8
 70
     1
102
RTVSPropertyOp9
 70
     1
102
RTVSPropertyOp10
 70
     1
102
RTVSPropertyOp11
 70
     1
102
RTVSPropertyOp12
 70
     1
102
RTVSPropertyOp13
 70
     1
102
RTVSPropertyOp14
 70
     1
102
RTVSPropertyOp15
 70
     1
102
RTVSPropertyOp16
 70
     1
102
RTVSPropertyOp17
 70
     1
102
RTVSPropertyOp18
 70
     1
102
RTVSPropertyOp19
 70
     1
102
RTVSPropertyOp20
 70
     1
102
RTVSPropertyOp21
 70
     1
102
RTVSPropertyOp22
 70
     1
102
RTVSPropertyOp23
 70
     1
102
RTVSPropertyOp24
 70
     1
102
RTVSPropertyOp25
 70
     1
102
RTVSPropertyOp26
 70
     1
102
RTVSPropertyOp27
 70
     1
  0
ENDSEC
  0
EOF
