  0
SECTION
  2
HEADER
  9
$ACADVER
  1
AC1015
  9
$ACADMAINTVER
 70
     6
  9
$DWGCODEPAGE
  3
ANSI_1252
  9
$INSBASE
 10
0.0
 20
0.0
 30
0.0
  9
$EXTMIN
 10
0.0
 20
0.0
 30
0.0
  9
$EXTMAX
 10
34.0
 20
22.0
 30
0.0
  9
$LIMMIN
 10
0.0
 20
0.0
  9
$LIMMAX
 10
34.0
 20
22.0
  9
$ORTHOMODE
 70
     0
  9
$REGENMODE
 70
     1
  9
$FILLMODE
 70
     1
  9
$QTEXTMODE
 70
     0
  9
$MIRRTEXT
 70
     1
  9
$LTSCALE
 40
2.0
  9
$ATTMODE
 70
     1
  9
$TEXTSIZE
 40
0.25
  9
$TRACEWID
 40
0.05
  9
$TEXTSTYLE
  7
Standard
  9
$CLAYER
  8
0
  9
$CELTYPE
  6
ByLayer
  9
$CECOLOR
 62
   256
  9
$CELTSCALE
 40
1.0
  9
$DISPSILH
 70
     0
  9
$DIMSCALE
 40
1.0
  9
$DIMASZ
 40
0.26
  9
$DIMEXO
 40
0.1
  9
$DIMDLI
 40
0.38
  9
$DIMRND
 40
0.0
  9
$DIMDLE
 40
0.0
  9
$DIMEXE
 40
0.25
  9
$DIMTP
 40
0.0
  9
$DIMTM
 40
0.0
  9
$DIMTXT
 40
0.25
  9
$DIMCEN
 40
0.09
  9
$DIMTSZ
 40
0.0
  9
$DIMTOL
 70
     0
  9
$DIMLIM
 70
     0
  9
$DIMTIH
 70
     1
  9
$DIMTOH
 70
     1
  9
$DIMSE1
 70
     0
  9
$DIMSE2
 70
     0
  9
$DIMTAD
 70
     1
  9
$DIMZIN
 70
     0
  9
$DIMBLK
  1

  9
$DIMASO
 70
     1
  9
$DIMSHO
 70
     1
  9
$DIMPOST
  1

  9
$DIMAPOST
  1

  9
$DIMALT
 70
     0
  9
$DIMALTD
 70
     2
  9
$DIMALTF
 40
25.4
  9
$DIMLFAC
 40
1.0
  9
$DIMTOFL
 70
     0
  9
$DIMTVP
 40
0.0
  9
$DIMTIX
 70
     0
  9
$DIMSOXD
 70
     0
  9
$DIMSAH
 70
     0
  9
$DIMBLK1
  1

  9
$DIMBLK2
  1

  9
$DIMSTYLE
  2
Standard
  9
$DIMCLRD
 70
     0
  9
$DIMCLRE
 70
     0
  9
$DIMCLRT
 70
     0
  9
$DIMTFAC
 40
1.0
  9
$DIMGAP
 40
0.12
  9
$DIMJUST
 70
     0
  9
$DIMSD1
 70
     0
  9
$DIMSD2
 70
     0
  9
$DIMTOLJ
 70
     1
  9
$DIMTZIN
 70
     0
  9
$DIMALTZ
 70
     0
  9
$DIMALTTZ
 70
     0
  9
$DIMUPT
 70
     0
  9
$DIMDEC
 70
     2
  9
$DIMTDEC
 70
     2
  9
$DIMALTU
 70
     2
  9
$DIMALTTD
 70
     2
  9
$DIMTXSTY
  7
Standard
  9
$DIMAUNIT
 70
     0
  9
$DIMADEC
 70
     2
  9
$DIMALTRND
 40
0.0
  9
$DIMAZIN
 70
     0
  9
$DIMDSEP
 70
    46
  9
$DIMATFIT
 70
     3
  9
$DIMFRAC
 70
     0
  9
$DIMLDRBLK
  1

  9
$DIMLUNIT
 70
     2
  9
$DIMLWD
 70
    -2
  9
$DIMLWE
 70
    -2
  9
$DIMTMOVE
 70
     0
  9
$LUNITS
 70
     2
  9
$LUPREC
 70
     2
  9
$SKETCHINC
 40
0.1
  9
$FILLETRAD
 40
0.5
  9
$AUNITS
 70
     0
  9
$AUPREC
 70
     2
  9
$MENU
  1
.
  9
$ELEVATION
 40
0.0
  9
$PELEVATION
 40
0.0
  9
$THICKNESS
 40
0.0
  9
$LIMCHECK
 70
     0
  9
$CHAMFERA
 40
0.5
  9
$CHAMFERB
 40
0.5
  9
$CHAMFERC
 40
1.0
  9
$CHAMFERD
 40
0.0
  9
$SKPOLY
 70
     0
  9
$TDCREATE
 40
2455705.411665937
  9
$TDUCREATE
 40
2455705.578332604
  9
$TDUPDATE
 40
2455705.411665949
  9
$TDUUPDATE
 40
2455705.578332616
  9
$TDINDWG
 40
0.0000000116
  9
$TDUSRTIMER
 40
0.0000000116
  9
$USRTIMER
 70
     1
  9
$ANGBASE
 50
0.0
  9
$ANGDIR
 70
     0
  9
$PDMODE
 70
     0
  9
$PDSIZE
 40
-1.0
  9
$PLINEWID
 40
0.0
  9
$SPLFRAME
 70
     0
  9
$SPLINETYPE
 70
     6
  9
$SPLINESEGS
 70
     8
  9
$HANDSEED
  5
5AD
  9
$SURFTAB1
 70
     6
  9
$SURFTAB2
 70
     6
  9
$SURFTYPE
 70
     6
  9
$SURFU
 70
     6
  9
$SURFV
 70
     6
  9
$UCSBASE
  2

  9
$UCSNAME
  2

  9
$UCSORG
 10
0.0
 20
0.0
 30
0.0
  9
$UCSXDIR
 10
1.0
 20
0.0
 30
0.0
  9
$UCSYDIR
 10
0.0
 20
1.0
 30
0.0
  9
$UCSORTHOREF
  2

  9
$UCSORTHOVIEW
 70
     0
  9
$UCSORGTOP
 10
0.0
 20
0.0
 30
0.0
  9
$UCSORGBOTTOM
 10
0.0
 20
0.0
 30
0.0
  9
$UCSORGLEFT
 10
0.0
 20
0.0
 30
0.0
  9
$UCSORGRIGHT
 10
0.0
 20
0.0
 30
0.0
  9
$UCSORGFRONT
 10
0.0
 20
0.0
 30
0.0
  9
$UCSORGBACK
 10
0.0
 20
0.0
 30
0.0
  9
$PUCSBASE
  2

  9
$PUCSNAME
  2

  9
$PUCSORG
 10
0.0
 20
0.0
 30
0.0
  9
$PUCSXDIR
 10
1.0
 20
0.0
 30
0.0
  9
$PUCSYDIR
 10
0.0
 20
1.0
 30
0.0
  9
$PUCSORTHOREF
  2

  9
$PUCSORTHOVIEW
 70
     0
  9
$PUCSORGTOP
 10
0.0
 20
0.0
 30
0.0
  9
$PUCSORGBOTTOM
 10
0.0
 20
0.0
 30
0.0
  9
$PUCSORGLEFT
 10
0.0
 20
0.0
 30
0.0
  9
$PUCSORGRIGHT
 10
0.0
 20
0.0
 30
0.0
  9
$PUCSORGFRONT
 10
0.0
 20
0.0
 30
0.0
  9
$PUCSORGBACK
 10
0.0
 20
0.0
 30
0.0
  9
$USERI1
 70
     0
  9
$USERI2
 70
     0
  9
$USERI3
 70
     0
  9
$USERI4
 70
     0
  9
$USERI5
 70
     0
  9
$USERR1
 40
0.0
  9
$USERR2
 40
0.0
  9
$USERR3
 40
0.0
  9
$USERR4
 40
0.0
  9
$USERR5
 40
0.0
  9
$WORLDVIEW
 70
     1
  9
$SHADEDGE
 70
     3
  9
$SHADEDIF
 70
    70
  9
$TILEMODE
 70
     1
  9
$MAXACTVP
 70
    64
  9
$PINSBASE
 10
0.0
 20
0.0
 30
0.0
  9
$PLIMCHECK
 70
     0
  9
$PEXTMIN
 10
1.0000000000E+20
 20
1.0000000000E+20
 30
1.0000000000E+20
  9
$PEXTMAX
 10
-1.0000000000E+20
 20
-1.0000000000E+20
 30
-1.0000000000E+20
  9
$PLIMMIN
 10
0.0
 20
0.0
  9
$PLIMMAX
 10
12.0
 20
9.0
  9
$UNITMODE
 70
     0
  9
$VISRETAIN
 70
     1
  9
$PLINEGEN
 70
     0
  9
$PSLTSCALE
 70
     1
  9
$TREEDEPTH
 70
  3020
  9
$CMLSTYLE
  2
Standard
  9
$CMLJUST
 70
     0
  9
$CMLSCALE
 40
1.0
  9
$PROXYGRAPHICS
 70
     1
  9
$MEASUREMENT
 70
     0
  9
$CELWEIGHT
370
    -1
  9
$ENDCAPS
280
     0
  9
$JOINSTYLE
280
     0
  9
$LWDISPLAY
290
     1
  9
$INSUNITS
 70
     1
  9
$HYPERLINKBASE
  1

  9
$STYLESHEET
  1

  9
$XEDIT
290
     1
  9
$CEPSNTYPE
380
     0
  9
$PSTYLEMODE
290
     1
  9
$FINGERPRINTGUID
  2
{9531FC94-72D7-42BF-99A2-FB4F3479EECE}
  9
$VERSIONGUID
  2
{FAEB1C32-E019-11D5-929B-00C0DF256EC4}
  9
$EXTNAMES
290
     1
  9
$PSVPSCALE
 40
0.0
  9
$OLESTARTUP
290
     0
  0
ENDSEC
  0
SECTION
  2
CLASSES
  0
CLASS
  1
ACDBDICTIONARYWDFLT
  2
AcDbDictionaryWithDefault
  3
ObjectDBX Classes
 90
        0
280
     0
281
     0
  0
CLASS
  1
VISUALSTYLE
  2
AcDbVisualStyle
  3
ObjectDBX Classes
 90
     4095
280
     0
281
     0
  0
CLASS
  1
MATERIAL
  2
AcDbMaterial
  3
ObjectDBX Classes
 90
     1153
280
     0
281
     0
  0
CLASS
  1
SCALE
  2
AcDbScale
  3
ObjectDBX Classes
 90
     1153
280
     0
281
     0
  0
CLASS
  1
DICTIONARYVAR
  2
AcDbDictionaryVar
  3
ObjectDBX Classes
 90
        0
280
     0
281
     0
  0
CLASS
  1
ACDBPLACEHOLDER
  2
AcDbPlaceHolder
  3
ObjectDBX Classes
 90
        0
280
     0
281
     0
  0
CLASS
  1
LAYOUT
  2
AcDbLayout
  3
ObjectDBX Classes
 90
        0
280
     0
281
     0
  0
ENDSEC
  0
SECTION
  2
TABLES
  0
TABLE
  2
VPORT
  5
8
330
0
100
AcDbSymbolTable
 70
     1
  0
VPORT
  5
29
330
8
100
AcDbSymbolTableRecord
100
AcDbViewportTableRecord
  2
*Active
 70
     0
 10
0.0
 20
0.0
 11
1.0
 21
1.0
 12
17.0
 22
11.0
 13
0.0
 23
0.0
 14
0.5
 24
0.5
 15
0.5
 25
0.5
 16
0.0
 26
0.0
 36
1.0
 17
0.0
 27
0.0
 37
0.0
 40
22.0
 41
1.5454545455
 42
50.0
 43
0.0
 44
0.0
 50
0.0
 51
0.0
 71
     0
 72
  2000
 73
     1
 74
     3
 75
     0
 76
     0
 77
     0
 78
     0
281
     0
 65
     1
110
0.0
120
0.0
130
0.0
111
1.0
121
0.0
131
0.0
112
0.0
122
1.0
132
0.0
 79
     0
146
0.0
  0
ENDTAB
  0
TABLE
  2
LTYPE
  5
5
330
0
100
AcDbSymbolTable
 70
     6
  0
LTYPE
  5
14
330
5
100
AcDbSymbolTableRecord
100
AcDbLinetypeTableRecord
  2
ByBlock
 70
     0
  3

 72
    65
 73
     0
 40
0.0
  0
LTYPE
  5
15
330
5
100
AcDbSymbolTableRecord
100
AcDbLinetypeTableRecord
  2
ByLayer
 70
     0
  3

 72
    65
 73
     0
 40
0.0
  0
LTYPE
  5
16
330
5
100
AcDbSymbolTableRecord
100
AcDbLinetypeTableRecord
  2
Continuous
 70
     0
  3
Solid line
 72
    65
 73
     0
 40
0.0
  0
LTYPE
  5
3F
330
5
100
AcDbSymbolTableRecord
100
AcDbLinetypeTableRecord
  2
HIDDEN
 70
     0
  3
Hidden __ __ __ __ __ __ __ __ __ __ __ __ __ __
 72
    65
 73
     2
 40
0.075
 49
0.05
 74
     0
 49
-0.025
 74
     0
  0
LTYPE
  5
40
330
5
100
AcDbSymbolTableRecord
100
AcDbLinetypeTableRecord
  2
PHANTOM
 70
     0
  3
Phantom ______  __  __  ______  __  __  ______
 72
    65
 73
     6
 40
0.5
 49
0.25
 74
     0
 49
-0.05
 74
     0
 49
0.05
 74
     0
 49
-0.05
 74
     0
 49
0.05
 74
     0
 49
-0.05
 74
     0
  0
LTYPE
  5
41
330
5
100
AcDbSymbolTableRecord
100
AcDbLinetypeTableRecord
  2
CENTER
 70
     0
  3
Center ____ _ ____ _ ____ _ ____ _ ____ _ ____
 72
    65
 73
     4
 40
0.4
 49
0.25
 74
     0
 49
-0.05
 74
     0
 49
0.05
 74
     0
 49
-0.05
 74
     0
  0
LTYPE
  5
42
330
5
100
AcDbSymbolTableRecord
100
AcDbLinetypeTableRecord
  2
CENTERX2
 70
     0
  3
Center (2x) ________  __  ________  __  _____
 72
    65
 73
     4
 40
0.8
 49
0.5
 74
     0
 49
-0.1
 74
     0
 49
0.1
 74
     0
 49
-0.1
 74
     0
  0
LTYPE
  5
43
330
5
100
AcDbSymbolTableRecord
100
AcDbLinetypeTableRecord
  2
DOT2
 70
     0
  3
Dot (.5x) ........................................
 72
    65
 73
     2
 40
0.025
 49
0.0
 74
     0
 49
-0.025
 74
     0
  0
ENDTAB
  0
TABLE
  2
LAYER
  5
2
330
0
100
AcDbSymbolTable
 70
     1
  0
LAYER
  5
10
330
2
100
AcDbSymbolTableRecord
100
AcDbLayerTableRecord
  2
0
 70
     0
 62
     7
  6
Continuous
370
    -3
390
F
  0
ENDTAB
  0
TABLE
  2
STYLE
  5
3
330
0
100
AcDbSymbolTable
 70
     2
  0
STYLE
  5
11
330
3
100
AcDbSymbolTableRecord
100
AcDbTextStyleTableRecord
  2
Standard
 70
     0
 40
0.0
 41
1.0
 50
0.0
 71
     0
 42
0.2
  3
txt
  4

  0
STYLE
  5
77
330
3
100
AcDbSymbolTableRecord
100
AcDbTextStyleTableRecord
  2
SLDTEXTSTYLE0
 70
     0
 40
0.0
 41
0.75
 50
0.0
 71
     0
 42
0.2
  3
TXT
  4

  0
ENDTAB
  0
TABLE
  2
VIEW
  5
6
330
0
100
AcDbSymbolTable
 70
     0
  0
ENDTAB
  0
TABLE
  2
UCS
  5
7
330
0
100
AcDbSymbolTable
 70
     0
  0
ENDTAB
  0
TABLE
  2
APPID
  5
9
330
0
100
AcDbSymbolTable
 70
     1
  0
APPID
  5
12
330
9
100
AcDbSymbolTableRecord
100
AcDbRegAppTableRecord
  2
ACAD
 70
     0
  0
ENDTAB
  0
TABLE
  2
DIMSTYLE
  5
A
330
0
100
AcDbSymbolTable
 70
     7
100
AcDbDimStyleTable
  0
DIMSTYLE
105
27
330
A
100
AcDbSymbolTableRecord
100
AcDbDimStyleTableRecord
  2
Standard
 70
     0
340
11
  0
DIMSTYLE
105
78
102
{ACAD_REACTORS
330
54
330
14C
330
2B0
330
316
330
328
330
518
330
52A
102
}
330
A
100
AcDbSymbolTableRecord
100
AcDbDimStyleTableRecord
  2
SLDDIMSTYLE0
 70
     0
 41
0.26
 44
0.0
 45
0.000000001
 78
    12
140
0.25
147
0.0625
148
0.000000001
170
     1
173
     1
271
     2
272
     2
284
    12
340
77
  0
DIMSTYLE
105
160
102
{ACAD_REACTORS
330
15F
102
}
330
A
100
AcDbSymbolTableRecord
100
AcDbDimStyleTableRecord
  2
SLDDIMSTYLE1
 70
     0
 41
0.26
 44
0.0
 45
0.000000001
 78
    12
140
0.25
147
0.0625
148
0.000000001
170
     1
173
     1
271
     2
272
     2
284
    12
340
77
  0
DIMSTYLE
105
173
102
{ACAD_REACTORS
330
172
102
}
330
A
100
AcDbSymbolTableRecord
100
AcDbDimStyleTableRecord
  2
SLDDIMSTYLE2
 70
     0
 41
0.26
 44
0.0
 45
0.000000001
 78
     4
140
0.25
147
0.0625
148
0.000000001
170
     1
173
     1
271
     2
272
     2
284
    12
340
77
  0
DIMSTYLE
105
186
102
{ACAD_REACTORS
330
185
102
}
330
A
100
AcDbSymbolTableRecord
100
AcDbDimStyleTableRecord
  2
SLDDIMSTYLE3
 70
     0
 41
0.26
 44
0.0
 45
0.000000001
 78
    12
140
0.25
147
0.0625
148
0.000000001
170
     1
172
     1
173
     1
271
     2
272
     2
284
    12
340
77
  0
DIMSTYLE
105
19F
330
A
100
AcDbSymbolTableRecord
100
AcDbDimStyleTableRecord
  2
SLDDIMSTYLE4
 70
     0
 41
0.26
 44
0.0
 45
0.000000001
140
0.0
146
0.26
147
0.0
173
     1
271
     0
272
     0
340
11
  0
DIMSTYLE
105
33B
102
{ACAD_REACTORS
330
33A
102
}
330
A
100
AcDbSymbolTableRecord
100
AcDbDimStyleTableRecord
  2
SLDDIMSTYLE5
 70
     0
 41
0.26
 44
0.0
 45
0.000000001
 78
     4
140
0.25
147
0.0625
148
0.000000001
170
     1
173
     1
271
     2
272
     2
284
    12
340
77
  0
ENDTAB
  0
TABLE
  2
BLOCK_RECORD
  5
1
330
0
100
AcDbSymbolTable
 70
    22
  0
BLOCK_RECORD
  5
1F
330
1
100
AcDbSymbolTableRecord
100
AcDbBlockTableRecord
  2
*Model_Space
340
22
  0
BLOCK_RECORD
  5
1B
330
1
100
AcDbSymbolTableRecord
100
AcDbBlockTableRecord
  2
*Paper_Space
340
1E
  0
BLOCK_RECORD
  5
23
330
1
100
AcDbSymbolTableRecord
100
AcDbBlockTableRecord
  2
*Paper_Space0
340
26
  0
BLOCK_RECORD
  5
79
330
1
100
AcDbSymbolTableRecord
100
AcDbBlockTableRecord
  2
*D1
340
0
  0
BLOCK_RECORD
  5
8A
330
1
100
AcDbSymbolTableRecord
100
AcDbBlockTableRecord
  2
SW_NOTE_0
340
0
102
{BLKREFS
331
90
102
}
  0
BLOCK_RECORD
  5
94
330
1
100
AcDbSymbolTableRecord
100
AcDbBlockTableRecord
  2
SW_NOTE_1
340
0
102
{BLKREFS
331
99
102
}
  0
BLOCK_RECORD
  5
9A
330
1
100
AcDbSymbolTableRecord
100
AcDbBlockTableRecord
  2
SW_NOTE_2
340
0
102
{BLKREFS
331
9F
102
}
  0
BLOCK_RECORD
  5
A0
330
1
100
AcDbSymbolTableRecord
100
AcDbBlockTableRecord
  2
SW_NOTE_3
340
0
102
{BLKREFS
331
A5
102
}
  0
BLOCK_RECORD
  5
14D
330
1
100
AcDbSymbolTableRecord
100
AcDbBlockTableRecord
  2
*D6
340
0
  0
BLOCK_RECORD
  5
161
330
1
100
AcDbSymbolTableRecord
100
AcDbBlockTableRecord
  2
*D7
340
0
  0
BLOCK_RECORD
  5
174
330
1
100
AcDbSymbolTableRecord
100
AcDbBlockTableRecord
  2
*D8
340
0
  0
BLOCK_RECORD
  5
187
330
1
100
AcDbSymbolTableRecord
100
AcDbBlockTableRecord
  2
*D9
340
0
  0
BLOCK_RECORD
  5
196
330
1
100
AcDbSymbolTableRecord
100
AcDbBlockTableRecord
  2
SW_NOTE_4
340
0
102
{BLKREFS
331
19E
102
}
  0
BLOCK_RECORD
  5
1A1
330
1
100
AcDbSymbolTableRecord
100
AcDbBlockTableRecord
  2
SW_CENTERMARKSYMBOL_0
340
0
102
{BLKREFS
331
1A8
102
}
  0
BLOCK_RECORD
  5
1A9
330
1
100
AcDbSymbolTableRecord
100
AcDbBlockTableRecord
  2
SW_CENTERMARKSYMBOL_1
340
0
102
{BLKREFS
331
1B0
102
}
  0
BLOCK_RECORD
  5
2B1
330
1
100
AcDbSymbolTableRecord
100
AcDbBlockTableRecord
  2
*D13
340
0
  0
BLOCK_RECORD
  5
2C2
330
1
100
AcDbSymbolTableRecord
100
AcDbBlockTableRecord
  2
SW_NOTE_5
340
0
102
{BLKREFS
331
2C8
102
}
  0
BLOCK_RECORD
  5
317
330
1
100
AcDbSymbolTableRecord
100
AcDbBlockTableRecord
  2
*D15
340
0
  0
BLOCK_RECORD
  5
329
330
1
100
AcDbSymbolTableRecord
100
AcDbBlockTableRecord
  2
*D16
340
0
  0
BLOCK_RECORD
  5
33C
330
1
100
AcDbSymbolTableRecord
100
AcDbBlockTableRecord
  2
*D17
340
0
  0
BLOCK_RECORD
  5
519
330
1
100
AcDbSymbolTableRecord
100
AcDbBlockTableRecord
  2
*D18
340
0
  0
BLOCK_RECORD
  5
52B
330
1
100
AcDbSymbolTableRecord
100
AcDbBlockTableRecord
  2
*D19
340
0
  0
BLOCK_RECORD
  5
53C
330
1
100
AcDbSymbolTableRecord
100
AcDbBlockTableRecord
  2
SW_NOTE_6
340
0
102
{BLKREFS
331
545
102
}
  0
BLOCK_RECORD
  5
547
330
1
100
AcDbSymbolTableRecord
100
AcDbBlockTableRecord
  2
SW_NOTE_7
340
0
102
{BLKREFS
331
54C
102
}
  0
ENDTAB
  0
ENDSEC
  0
SECTION
  2
BLOCKS
  0
BLOCK
  5
20
330
1F
100
AcDbEntity
  8
0
100
AcDbBlockBegin
  2
*Model_Space
 70
     0
 10
0.0
 20
0.0
 30
0.0
  3
*Model_Space
  1

  0
ENDBLK
  5
21
330
1F
100
AcDbEntity
  8
0
100
AcDbBlockEnd
  0
BLOCK
  5
1C
330
1B
100
AcDbEntity
 67
     1
  8
0
100
AcDbBlockBegin
  2
*Paper_Space
 70
     0
 10
0.0
 20
0.0
 30
0.0
  3
*Paper_Space
  1

  0
ENDBLK
  5
1D
330
1B
100
AcDbEntity
 67
     1
  8
0
100
AcDbBlockEnd
  0
BLOCK
  5
24
330
23
100
AcDbEntity
  8
0
100
AcDbBlockBegin
  2
*Paper_Space0
 70
     0
 10
0.0
 20
0.0
 30
0.0
  3
*Paper_Space0
  1

  0
ENDBLK
  5
25
330
23
100
AcDbEntity
  8
0
100
AcDbBlockEnd
  0
BLOCK
  5
7A
330
79
100
AcDbEntity
  8
0
100
AcDbBlockBegin
  2
*D1
 70
     1
 10
0.0
 20
0.0
 30
0.0
  3
*D1
  1

  0
SOLID
  5
7C
330
79
100
AcDbEntity
  8
0
  6
Continuous
 62
     7
 48
2.0
370
     0
100
AcDbTrace
 10
26.2418650493
 20
15.2319484131
 30
0.0
 11
26.2018650493
 21
14.9719484131
 31
0.0
 12
26.2818650493
 22
14.9719484131
 32
0.0
 13
26.2818650493
 23
14.9719484131
 33
0.0
  0
SOLID
  5
7D
330
79
100
AcDbEntity
  8
0
  6
Continuous
 62
     7
 48
2.0
370
     0
100
AcDbTrace
 10
26.2418650493
 20
4.4819484131
 30
0.0
 11
26.2818650493
 21
4.7419484131
 31
0.0
 12
26.2018650493
 22
4.7419484131
 32
0.0
 13
26.2018650493
 23
4.7419484131
 33
0.0
  0
LINE
  5
7E
330
79
100
AcDbEntity
  8
0
  6
Continuous
 62
     7
 48
2.0
370
     0
100
AcDbLine
 10
25.7248201668
 20
9.8271917111
 30
0.0
 11
25.7248201668
 21
9.4899490879
 31
0.0
  0
LINE
  5
7F
330
79
100
AcDbEntity
  8
0
  6
Continuous
 62
     7
 48
2.0
370
     0
100
AcDbLine
 10
25.7248201668
 20
9.4899490879
 30
0.0
 11
25.7755649735
 21
9.4899490879
 31
0.0
  0
LINE
  5
80
330
79
100
AcDbEntity
  8
0
  6
Continuous
 62
     7
 48
2.0
370
     0
100
AcDbLine
 10
25.7248201668
 20
9.8271917111
 30
0.0
 11
25.7755649735
 21
9.8271917111
 31
0.0
  0
LINE
  5
81
330
79
100
AcDbEntity
  8
0
  6
Continuous
 62
     7
 48
2.0
370
     0
100
AcDbLine
 10
26.7589099318
 20
9.8271917111
 30
0.0
 11
26.7589099318
 21
9.4899490879
 31
0.0
  0
LINE
  5
82
330
79
100
AcDbEntity
  8
0
  6
Continuous
 62
     7
 48
2.0
370
     0
100
AcDbLine
 10
26.7589099318
 20
9.4899490879
 30
0.0
 11
26.7081651251
 21
9.4899490879
 31
0.0
  0
LINE
  5
83
330
79
100
AcDbEntity
  8
0
  6
Continuous
 62
     7
 48
2.0
370
     0
100
AcDbLine
 10
26.7589099318
 20
9.8271917111
 30
0.0
 11
26.7081651251
 21
9.8271917111
 31
0.0
  0
LINE
  5
84
330
79
100
AcDbEntity
  8
0
  6
Continuous
 62
     7
 48
2.0
370
     0
100
AcDbLine
 10
24.9572127692
 20
15.2319484131
 30
0.0
 11
26.4918650493
 21
15.2319484131
 31
0.0
  0
LINE
  5
85
330
79
100
AcDbEntity
  8
0
  6
Continuous
 62
     7
 48
2.0
370
     0
100
AcDbLine
 10
24.9572127692
 20
4.4819484131
 30
0.0
 11
26.4918650493
 21
4.4819484131
 31
0.0
  0
LINE
  5
86
330
79
100
AcDbEntity
  8
0
  6
Continuous
 62
     7
 48
2.0
370
     0
100
AcDbLine
 10
26.2418650493
 20
15.2319484131
 30
0.0
 11
26.2418650493
 21
10.2537044404
 31
0.0
  0
LINE
  5
87
330
79
100
AcDbEntity
  8
0
  6
Continuous
 62
     7
 48
2.0
370
     0
100
AcDbLine
 10
26.2418650493
 20
4.4819484131
 30
0.0
 11
26.2418650493
 21
9.4601923858
 31
0.0
  0
MTEXT
  5
88
330
79
100
AcDbEntity
  8
0
  6
Continuous
 62
     7
 48
2.0
370
     0
100
AcDbMText
 10
25.8263097801
 20
10.1792153343
 30
0.0
 40
0.25
 41
0.0
 71
     1
 72
     1
  1
10.75
  7
SLDTEXTSTYLE0
 73
     1
 44
1.0
  0
MTEXT
  5
89
330
79
100
AcDbEntity
  8
0
  6
Continuous
 62
     7
 48
2.0
370
     0
100
AcDbMText
 10
25.8263097801
 20
9.782459307
 30
0.0
 40
0.25
 41
0.0
 71
     1
 72
     1
  1
273.1
  7
SLDTEXTSTYLE0
 73
     1
 44
1.0
  0
ENDBLK
  5
7B
330
79
100
AcDbEntity
  8
0
100
AcDbBlockEnd
  0
BLOCK
  5
8B
330
8A
100
AcDbEntity
  8
0
100
AcDbBlockBegin
  2
SW_NOTE_0
 70
     0
 10
0.0
 20
0.0
 30
0.0
  3
SW_NOTE_0
  1

  0
MTEXT
  5
8D
330
8A
100
AcDbEntity
  8
0
  6
Continuous
 62
     0
 48
2.0
370
     0
100
AcDbMText
 10
0.0
 20
0.3222669349
 30
0.0
 40
0.25
 41
0.0
 71
     1
 72
     1
  1
MATERIAL - 14 GA. [2.0mm] STEEL
  7
SLDTEXTSTYLE0
 73
     1
 44
1.0
  0
MTEXT
  5
8E
330
8A
100
AcDbEntity
  8
0
  6
Continuous
 62
     0
 48
2.0
370
     0
100
AcDbMText
 10
0.0
 20
-0.3352133631
 30
0.0
 40
0.25
 41
0.0
 71
     1
 72
     1
  1
FINISH - SMOOTH GRAY POWDERCOAT
  7
SLDTEXTSTYLE0
 73
     1
 44
1.0
  0
MTEXT
  5
8F
330
8A
100
AcDbEntity
  8
0
  6
Continuous
 62
     0
 48
2.0
370
     0
100
AcDbMText
 10
0.0
 20
-0.6639535122
 30
0.0
 40
0.25
 41
0.0
 71
     1
 72
     1
  1
              UL LISTED TYPE DTOV2
  7
SLDTEXTSTYLE0
 73
     1
 44
1.0
  0
ENDBLK
  5
8C
330
8A
100
AcDbEntity
  8
0
100
AcDbBlockEnd
  0
BLOCK
  5
95
330
94
100
AcDbEntity
  8
0
100
AcDbBlockBegin
  2
SW_NOTE_1
 70
     0
 10
0.0
 20
0.0
 30
0.0
  3
SW_NOTE_1
  1

  0
MTEXT
  5
97
330
94
100
AcDbEntity
  8
0
  6
Continuous
 62
     0
 48
2.0
370
     0
100
AcDbMText
 10
0.0
 20
0.3222669349
 30
0.0
 40
0.25
 41
0.0
 71
     1
 72
     1
  1
PART
  7
SLDTEXTSTYLE0
 73
     1
 44
1.0
  0
MTEXT
  5
98
330
94
100
AcDbEntity
  8
0
  6
Continuous
 62
     0
 48
2.0
370
     0
100
AcDbMText
 10
-0.0932074599
 20
-0.0064732141
 30
0.0
 40
0.25
 41
0.0
 71
     1
 72
     1
  1
NAME
  7
SLDTEXTSTYLE0
 73
     1
 44
1.0
  0
ENDBLK
  5
96
330
94
100
AcDbEntity
  8
0
100
AcDbBlockEnd
  0
BLOCK
  5
9B
330
9A
100
AcDbEntity
  8
0
100
AcDbBlockBegin
  2
SW_NOTE_2
 70
     0
 10
0.0
 20
0.0
 30
0.0
  3
SW_NOTE_2
  1

  0
MTEXT
  5
9D
330
9A
100
AcDbEntity
  8
0
  6
Continuous
 62
     0
 48
2.0
370
     0
100
AcDbMText
 10
0.0
 20
0.3222669349
 30
0.0
 40
0.25
 41
0.0
 71
     1
 72
     1
  1
PART
  7
SLDTEXTSTYLE0
 73
     1
 44
1.0
  0
MTEXT
  5
9E
330
9A
100
AcDbEntity
  8
0
  6
Continuous
 62
     0
 48
2.0
370
     0
100
AcDbMText
 10
0.1167534763
 20
-0.0064732141
 30
0.0
 40
0.25
 41
0.0
 71
     1
 72
     1
  1
No.
  7
SLDTEXTSTYLE0
 73
     1
 44
1.0
  0
ENDBLK
  5
9C
330
9A
100
AcDbEntity
  8
0
100
AcDbBlockEnd
  0
BLOCK
  5
A1
330
A0
100
AcDbEntity
  8
0
100
AcDbBlockBegin
  2
SW_NOTE_3
 70
     0
 10
0.0
 20
0.0
 30
0.0
  3
SW_NOTE_3
  1

  0
MTEXT
  5
A3
330
A0
100
AcDbEntity
  8
0
  6
Continuous
 62
     0
 48
2.0
370
     0
100
AcDbMText
 10
0.0
 20
0.3222669349
 30
0.0
 40
0.25
 41
0.0
 71
     1
 72
     1
  1
REVISION
  7
SLDTEXTSTYLE0
 73
     1
 44
1.0
  0
MTEXT
  5
A4
330
A0
100
AcDbEntity
  8
0
  6
Continuous
 62
     0
 48
2.0
370
     0
100
AcDbMText
 10
0.3124565971
 20
-0.0064732141
 30
0.0
 40
0.25
 41
0.0
 71
     1
 72
     1
  1
DATE
  7
SLDTEXTSTYLE0
 73
     1
 44
1.0
  0
ENDBLK
  5
A2
330
A0
100
AcDbEntity
  8
0
100
AcDbBlockEnd
  0
BLOCK
  5
14E
330
14D
100
AcDbEntity
  8
0
100
AcDbBlockBegin
  2
*D6
 70
     1
 10
0.0
 20
0.0
 30
0.0
  3
*D6
  1

  0
SOLID
  5
150
330
14D
100
AcDbEntity
  8
0
  6
Continuous
 62
     7
 48
2.0
370
     0
100
AcDbTrace
 10
2.5305499655
 20
13.2319484131
 30
0.0
 11
2.4905499655
 21
12.9719484131
 31
0.0
 12
2.5705499655
 22
12.9719484131
 32
0.0
 13
2.5705499655
 23
12.9719484131
 33
0.0
  0
SOLID
  5
151
330
14D
100
AcDbEntity
  8
0
  6
Continuous
 62
     7
 48
2.0
370
     0
100
AcDbTrace
 10
2.5305499655
 20
10.9819484131
 30
0.0
 11
2.5705499655
 21
11.2419484131
 31
0.0
 12
2.4905499655
 22
11.2419484131
 32
0.0
 13
2.4905499655
 23
11.2419484131
 33
0.0
  0
LINE
  5
152
330
14D
100
AcDbEntity
  8
0
  6
Continuous
 62
     7
 48
2.0
370
     0
100
AcDbLine
 10
1.7454515576
 20
12.0771917111
 30
0.0
 11
1.7454515576
 21
11.7399490879
 31
0.0
  0
LINE
  5
153
330
14D
100
AcDbEntity
  8
0
  6
Continuous
 62
     7
 48
2.0
370
     0
100
AcDbLine
 10
1.7454515576
 20
11.7399490879
 30
0.0
 11
1.7961963643
 21
11.7399490879
 31
0.0
  0
LINE
  5
154
330
14D
100
AcDbEntity
  8
0
  6
Continuous
 62
     7
 48
2.0
370
     0
100
AcDbLine
 10
1.7454515576
 20
12.0771917111
 30
0.0
 11
1.7961963643
 21
12.0771917111
 31
0.0
  0
LINE
  5
155
330
14D
100
AcDbEntity
  8
0
  6
Continuous
 62
     7
 48
2.0
370
     0
100
AcDbLine
 10
2.5947040216
 20
12.0771917111
 30
0.0
 11
2.5947040216
 21
11.7399490879
 31
0.0
  0
LINE
  5
156
330
14D
100
AcDbEntity
  8
0
  6
Continuous
 62
     7
 48
2.0
370
     0
100
AcDbLine
 10
2.5947040216
 20
11.7399490879
 30
0.0
 11
2.543959215
 21
11.7399490879
 31
0.0
  0
LINE
  5
157
330
14D
100
AcDbEntity
  8
0
  6
Continuous
 62
     7
 48
2.0
370
     0
100
AcDbLine
 10
2.5947040216
 20
12.0771917111
 30
0.0
 11
2.543959215
 21
12.0771917111
 31
0.0
  0
LINE
  5
158
330
14D
100
AcDbEntity
  8
0
  6
Continuous
 62
     7
 48
2.0
370
     0
100
AcDbLine
 10
5.1629031037
 20
13.2319484131
 30
0.0
 11
2.2805499655
 21
13.2319484131
 31
0.0
  0
LINE
  5
159
330
14D
100
AcDbEntity
  8
0
  6
Continuous
 62
     7
 48
2.0
370
     0
100
AcDbLine
 10
5.1629031037
 20
10.9819484131
 30
0.0
 11
2.2805499655
 21
10.9819484131
 31
0.0
  0
LINE
  5
15A
330
14D
100
AcDbEntity
  8
0
  6
Continuous
 62
     7
 48
2.0
370
     0
100
AcDbLine
 10
2.5305499655
 20
13.2319484131
 30
0.0
 11
2.5305499655
 21
12.5037044404
 31
0.0
  0
LINE
  5
15B
330
14D
100
AcDbEntity
  8
0
  6
Continuous
 62
     7
 48
2.0
370
     0
100
AcDbLine
 10
2.5305499655
 20
10.9819484131
 30
0.0
 11
2.5305499655
 21
11.7101923858
 31
0.0
  0
MTEXT
  5
15C
330
14D
100
AcDbEntity
  8
0
  6
Continuous
 62
     7
 48
2.0
370
     0
100
AcDbMText
 10
1.846941171
 20
12.4292153343
 30
0.0
 40
0.25
 41
0.0
 71
     1
 72
     1
  1
2.25
  7
SLDTEXTSTYLE0
 73
     1
 44
1.0
  0
MTEXT
  5
15D
330
14D
100
AcDbEntity
  8
0
  6
Continuous
 62
     7
 48
2.0
370
     0
100
AcDbMText
 10
2.696193635
 20
12.4292153343
 30
0.0
 40
0.25
 41
0.0
 71
     1
 72
     1
  1
 TYP.
  7
SLDTEXTSTYLE0
 73
     1
 44
1.0
  0
MTEXT
  5
15E
330
14D
100
AcDbEntity
  8
0
  6
Continuous
 62
     7
 48
2.0
370
     0
100
AcDbMText
 10
1.846941171
 20
12.032459307
 30
0.0
 40
0.25
 41
0.0
 71
     1
 72
     1
  1
57.2
  7
SLDTEXTSTYLE0
 73
     1
 44
1.0
  0
ENDBLK
  5
14F
330
14D
100
AcDbEntity
  8
0
100
AcDbBlockEnd
  0
BLOCK
  5
162
330
161
100
AcDbEntity
  8
0
100
AcDbBlockBegin
  2
*D7
 70
     1
 10
0.0
 20
0.0
 30
0.0
  3
*D7
  1

  0
SOLID
  5
164
330
161
100
AcDbEntity
  8
0
  6
Continuous
 62
     7
 48
2.0
370
     0
100
AcDbTrace
 10
5.3254031037
 20
16.0206764674
 30
0.0
 11
5.5854031037
 21
15.9806764674
 31
0.0
 12
5.5854031037
 22
16.0606764674
 32
0.0
 13
5.5854031037
 23
16.0606764674
 33
0.0
  0
SOLID
  5
165
330
161
100
AcDbEntity
  8
0
  6
Continuous
 62
     7
 48
2.0
370
     0
100
AcDbTrace
 10
5.2004031037
 20
16.0206764674
 30
0.0
 11
4.9404031037
 21
16.0606764674
 31
0.0
 12
4.9404031037
 22
15.9806764674
 32
0.0
 13
4.9404031037
 23
15.9806764674
 33
0.0
  0
LINE
  5
166
330
161
100
AcDbEntity
  8
0
  6
Continuous
 62
     7
 48
2.0
370
     0
100
AcDbLine
 10
6.1374507149
 20
15.9909197653
 30
0.0
 11
6.1374507149
 21
15.6536771421
 31
0.0
  0
LINE
  5
167
330
161
100
AcDbEntity
  8
0
  6
Continuous
 62
     7
 48
2.0
370
     0
100
AcDbLine
 10
6.1374507149
 20
15.6536771421
 30
0.0
 11
6.1881955216
 21
15.6536771421
 31
0.0
  0
LINE
  5
168
330
161
100
AcDbEntity
  8
0
  6
Continuous
 62
     7
 48
2.0
370
     0
100
AcDbLine
 10
6.1374507149
 20
15.9909197653
 30
0.0
 11
6.1881955216
 21
15.9909197653
 31
0.0
  0
LINE
  5
169
330
161
100
AcDbEntity
  8
0
  6
Continuous
 62
     7
 48
2.0
370
     0
100
AcDbLine
 10
6.8021288044
 20
15.9909197653
 30
0.0
 11
6.8021288044
 21
15.6536771421
 31
0.0
  0
LINE
  5
16A
330
161
100
AcDbEntity
  8
0
  6
Continuous
 62
     7
 48
2.0
370
     0
100
AcDbLine
 10
6.8021288044
 20
15.6536771421
 30
0.0
 11
6.7513839977
 21
15.6536771421
 31
0.0
  0
LINE
  5
16B
330
161
100
AcDbEntity
  8
0
  6
Continuous
 62
     7
 48
2.0
370
     0
100
AcDbLine
 10
6.8021288044
 20
15.9909197653
 30
0.0
 11
6.7513839977
 21
15.9909197653
 31
0.0
  0
LINE
  5
16C
330
161
100
AcDbEntity
  8
0
  6
Continuous
 62
     7
 48
2.0
370
     0
100
AcDbLine
 10
5.3254031037
 20
13.8319484131
 30
0.0
 11
5.3254031037
 21
16.2706764674
 31
0.0
  0
LINE
  5
16D
330
161
100
AcDbEntity
  8
0
  6
Continuous
 62
     7
 48
2.0
370
     0
100
AcDbLine
 10
5.2004031037
 20
13.8319484131
 30
0.0
 11
5.2004031037
 21
16.2706764674
 31
0.0
  0
LINE
  5
16E
330
161
100
AcDbEntity
  8
0
  6
Continuous
 62
     7
 48
2.0
370
     0
100
AcDbLine
 10
5.3254031037
 20
16.0206764674
 30
0.0
 11
5.8602820265
 21
16.0206764674
 31
0.0
  0
LINE
  5
16F
330
161
100
AcDbEntity
  8
0
  6
Continuous
 62
     7
 48
2.0
370
     0
100
AcDbLine
 10
5.2004031037
 20
16.0206764674
 30
0.0
 11
4.7004031037
 21
16.0206764674
 31
0.0
  0
MTEXT
  5
170
330
161
100
AcDbEntity
  8
0
  6
Continuous
 62
     7
 48
2.0
370
     0
100
AcDbMText
 10
6.2389403282
 20
16.3429433886
 30
0.0
 40
0.25
 41
0.0
 71
     1
 72
     1
  1
.13
  7
SLDTEXTSTYLE0
 73
     1
 44
1.0
  0
MTEXT
  5
171
330
161
100
AcDbEntity
  8
0
  6
Continuous
 62
     7
 48
2.0
370
     0
100
AcDbMText
 10
6.2389403282
 20
15.9461873613
 30
0.0
 40
0.25
 41
0.0
 71
     1
 72
     1
  1
3.2
  7
SLDTEXTSTYLE0
 73
     1
 44
1.0
  0
ENDBLK
  5
163
330
161
100
AcDbEntity
  8
0
100
AcDbBlockEnd
  0
BLOCK
  5
175
330
174
100
AcDbEntity
  8
0
100
AcDbBlockBegin
  2
*D8
 70
     1
 10
0.0
 20
0.0
 30
0.0
  3
*D8
  1

  0
SOLID
  5
177
330
174
100
AcDbEntity
  8
0
  6
Continuous
 62
     7
 48
2.0
370
     0
100
AcDbTrace
 10
7.677885577
 20
13.7319484131
 30
0.0
 11
7.717885577
 21
13.9919484131
 31
0.0
 12
7.637885577
 22
13.9919484131
 32
0.0
 13
7.637885577
 23
13.9919484131
 33
0.0
  0
SOLID
  5
178
330
174
100
AcDbEntity
  8
0
  6
Continuous
 62
     7
 48
2.0
370
     0
100
AcDbTrace
 10
7.677885577
 20
12.7319484131
 30
0.0
 11
7.637885577
 21
12.4719484131
 31
0.0
 12
7.717885577
 22
12.4719484131
 32
0.0
 13
7.717885577
 23
12.4719484131
 33
0.0
  0
LINE
  5
179
330
174
100
AcDbEntity
  8
0
  6
Continuous
 62
     7
 48
2.0
370
     0
100
AcDbLine
 10
7.253259345
 20
13.2021917111
 30
0.0
 11
7.253259345
 21
12.8649490879
 31
0.0
  0
LINE
  5
17A
330
174
100
AcDbEntity
  8
0
  6
Continuous
 62
     7
 48
2.0
370
     0
100
AcDbLine
 10
7.253259345
 20
12.8649490879
 30
0.0
 11
7.3040041517
 21
12.8649490879
 31
0.0
  0
LINE
  5
17B
330
174
100
AcDbEntity
  8
0
  6
Continuous
 62
     7
 48
2.0
370
     0
100
AcDbLine
 10
7.253259345
 20
13.2021917111
 30
0.0
 11
7.3040041517
 21
13.2021917111
 31
0.0
  0
LINE
  5
17C
330
174
100
AcDbEntity
  8
0
  6
Continuous
 62
     7
 48
2.0
370
     0
100
AcDbLine
 10
8.102511809
 20
13.2021917111
 30
0.0
 11
8.102511809
 21
12.8649490879
 31
0.0
  0
LINE
  5
17D
330
174
100
AcDbEntity
  8
0
  6
Continuous
 62
     7
 48
2.0
370
     0
100
AcDbLine
 10
8.102511809
 20
12.8649490879
 30
0.0
 11
8.0517670023
 21
12.8649490879
 31
0.0
  0
LINE
  5
17E
330
174
100
AcDbEntity
  8
0
  6
Continuous
 62
     7
 48
2.0
370
     0
100
AcDbLine
 10
8.102511809
 20
13.2021917111
 30
0.0
 11
8.0517670023
 21
13.2021917111
 31
0.0
  0
LINE
  5
17F
330
174
100
AcDbEntity
  8
0
  6
Continuous
 62
     7
 48
2.0
370
     0
100
AcDbLine
 10
5.4254031037
 20
13.7319484131
 30
0.0
 11
7.927885577
 21
13.7319484131
 31
0.0
  0
LINE
  5
180
330
174
100
AcDbEntity
  8
0
  6
Continuous
 62
     7
 48
2.0
370
     0
100
AcDbLine
 10
5.4254031037
 20
12.7319484131
 30
0.0
 11
7.927885577
 21
12.7319484131
 31
0.0
  0
LINE
  5
181
330
174
100
AcDbEntity
  8
0
  6
Continuous
 62
     7
 48
2.0
370
     0
100
AcDbLine
 10
7.677885577
 20
13.7319484131
 30
0.0
 11
7.677885577
 21
14.2319484131
 31
0.0
  0
LINE
  5
182
330
174
100
AcDbEntity
  8
0
  6
Continuous
 62
     7
 48
2.0
370
     0
100
AcDbLine
 10
7.677885577
 20
12.7319484131
 30
0.0
 11
7.677885577
 21
12.2319484131
 31
0.0
  0
MTEXT
  5
183
330
174
100
AcDbEntity
  8
0
  6
Continuous
 62
     7
 48
2.0
370
     0
100
AcDbMText
 10
7.3547489583
 20
13.5542153343
 30
0.0
 40
0.25
 41
0.0
 71
     1
 72
     1
  1
1.00
  7
SLDTEXTSTYLE0
 73
     1
 44
1.0
  0
MTEXT
  5
184
330
174
100
AcDbEntity
  8
0
  6
Continuous
 62
     7
 48
2.0
370
     0
100
AcDbMText
 10
7.3547489583
 20
13.157459307
 30
0.0
 40
0.25
 41
0.0
 71
     1
 72
     1
  1
25.4
  7
SLDTEXTSTYLE0
 73
     1
 44
1.0
  0
ENDBLK
  5
176
330
174
100
AcDbEntity
  8
0
100
AcDbBlockEnd
  0
BLOCK
  5
188
330
187
100
AcDbEntity
  8
0
100
AcDbBlockBegin
  2
*D9
 70
     1
 10
0.0
 20
0.0
 30
0.0
  3
*D9
  1

  0
SOLID
  5
18A
330
187
100
AcDbEntity
  8
0
  6
Continuous
 62
     7
 48
2.0
370
     0
100
AcDbTrace
 10
4.8827377216
 20
13.459375945
 30
0.0
 11
4.6801510442
 21
13.6271813029
 31
0.0
 12
4.6390806096
 22
13.5585284122
 32
0.0
 13
4.6390806096
 23
13.5585284122
 33
0.0
  0
LINE
  5
18B
330
187
100
AcDbEntity
  8
0
  6
Continuous
 62
     7
 48
2.0
370
     0
100
AcDbLine
 10
2.0095013865
 20
14.3671784476
 30
0.0
 11
2.0095013865
 21
14.0299358244
 31
0.0
  0
LINE
  5
18C
330
187
100
AcDbEntity
  8
0
  6
Continuous
 62
     7
 48
2.0
370
     0
100
AcDbLine
 10
2.0095013865
 20
14.0299358244
 30
0.0
 11
2.0602461932
 21
14.0299358244
 31
0.0
  0
LINE
  5
18D
330
187
100
AcDbEntity
  8
0
  6
Continuous
 62
     7
 48
2.0
370
     0
100
AcDbLine
 10
2.0095013865
 20
14.3671784476
 30
0.0
 11
2.0602461932
 21
14.3671784476
 31
0.0
  0
LINE
  5
18E
330
187
100
AcDbEntity
  8
0
  6
Continuous
 62
     7
 48
2.0
370
     0
100
AcDbLine
 10
2.8587538505
 20
14.3671784476
 30
0.0
 11
2.8587538505
 21
14.0299358244
 31
0.0
  0
LINE
  5
18F
330
187
100
AcDbEntity
  8
0
  6
Continuous
 62
     7
 48
2.0
370
     0
100
AcDbLine
 10
2.8587538505
 20
14.0299358244
 30
0.0
 11
2.8080090438
 21
14.0299358244
 31
0.0
  0
LINE
  5
190
330
187
100
AcDbEntity
  8
0
  6
Continuous
 62
     7
 48
2.0
370
     0
100
AcDbLine
 10
2.8587538505
 20
14.3671784476
 30
0.0
 11
2.8080090438
 21
14.3671784476
 31
0.0
  0
LINE
  5
191
330
187
100
AcDbEntity
  8
0
  6
Continuous
 62
     7
 48
2.0
370
     0
100
AcDbLine
 10
4.8827377216
 20
13.459375945
 30
0.0
 11
3.3155239794
 21
14.3969351496
 31
0.0
  0
LINE
  5
192
330
187
100
AcDbEntity
  8
0
  6
Continuous
 62
     7
 48
2.0
370
     0
100
AcDbLine
 10
3.3155239794
 20
14.3969351496
 30
0.0
 11
3.0655239794
 21
14.3969351496
 31
0.0
  0
MTEXT
  5
193
330
187
100
AcDbEntity
  8
0
  6
Continuous
 62
     7
 48
2.0
370
     0
100
AcDbMText
 10
2.0247379748
 20
14.7192020754
 30
0.0
 40
0.25
 41
0.0
 71
     1
 72
     1
  1
%%c
  7
SLDTEXTSTYLE0
 73
     1
 44
1.0
  0
MTEXT
  5
194
330
187
100
AcDbEntity
  8
0
  6
Continuous
 62
     7
 48
2.0
370
     0
100
AcDbMText
 10
2.3818183994
 20
14.7192020708
 30
0.0
 40
0.25
 41
0.0
 71
     1
 72
     1
  1
.89
  7
SLDTEXTSTYLE0
 73
     1
 44
1.0
  0
MTEXT
  5
195
330
187
100
AcDbEntity
  8
0
  6
Continuous
 62
     7
 48
2.0
370
     0
100
AcDbMText
 10
2.1109909998
 20
14.3224460435
 30
0.0
 40
0.25
 41
0.0
 71
     1
 72
     1
  1
22.5
  7
SLDTEXTSTYLE0
 73
     1
 44
1.0
  0
ENDBLK
  5
189
330
187
100
AcDbEntity
  8
0
100
AcDbBlockEnd
  0
BLOCK
  5
197
330
196
100
AcDbEntity
  8
0
100
AcDbBlockBegin
  2
SW_NOTE_4
 70
     0
 10
0.0
 20
0.0
 30
0.0
  3
SW_NOTE_4
  1

  0
MTEXT
  5
199
330
196
100
AcDbEntity
  8
0
  6
Continuous
 62
     0
 48
2.0
370
     0
100
AcDbMText
 10
0.0393964991
 20
0.1211354136
 30
0.0
 40
0.25
 41
0.0
 71
     1
 72
     1
  1
CAPTIVE SCREW M5x0.8 x 16mm LG.,
  7
SLDTEXTSTYLE0
 73
     1
 44
1.0
  0
MTEXT
  5
19A
330
196
100
AcDbEntity
  8
0
  6
Continuous
 62
     0
 48
2.0
370
     0
100
AcDbMText
 10
0.0393964991
 20
-0.2076047354
 30
0.0
 40
0.25
 41
0.0
 71
     1
 72
     1
  1
WASHER HEAD, PHILLIPS DRIVE, STEEL,
  7
SLDTEXTSTYLE0
 73
     1
 44
1.0
  0
MTEXT
  5
19B
330
196
100
AcDbEntity
  8
0
  6
Continuous
 62
     0
 48
2.0
370
     0
100
AcDbMText
 10
0.0393964991
 20
-0.5363448845
 30
0.0
 40
0.25
 41
0.0
 71
     1
 72
     1
  1
ZINC PLATED, WITH SEALING WASHER,
  7
SLDTEXTSTYLE0
 73
     1
 44
1.0
  0
MTEXT
  5
19C
330
196
100
AcDbEntity
  8
0
  6
Continuous
 62
     0
 48
2.0
370
     0
100
AcDbMText
 10
0.0393964991
 20
-0.8650850335
 30
0.0
 40
0.25
 41
0.0
 71
     1
 72
     1
  1
NEOPRENE, BLACK AND O-RING,
  7
SLDTEXTSTYLE0
 73
     1
 44
1.0
  0
MTEXT
  5
19D
330
196
100
AcDbEntity
  8
0
  6
Continuous
 62
     0
 48
2.0
370
     0
100
AcDbMText
 10
0.0393964991
 20
-1.1938251825
 30
0.0
 40
0.25
 41
0.0
 71
     1
 72
     1
  1
BUNA-N, BLACK
  7
SLDTEXTSTYLE0
 73
     1
 44
1.0
  0
ENDBLK
  5
198
330
196
100
AcDbEntity
  8
0
100
AcDbBlockEnd
  0
BLOCK
  5
1A2
330
1A1
100
AcDbEntity
  8
0
100
AcDbBlockBegin
  2
SW_CENTERMARKSYMBOL_0
 70
     0
 10
0.0
 20
0.0
 30
0.0
  3
SW_CENTERMARKSYMBOL_0
  1

  0
LINE
  5
1A4
330
1A1
100
AcDbEntity
  8
0
  6
Continuous
 62
     0
 48
2.0
370
     0
100
AcDbLine
 10
0.0
 20
0.0
 30
0.0
 11
0.0
 21
0.05
 31
0.0
  0
LINE
  5
1A5
330
1A1
100
AcDbEntity
  8
0
  6
Continuous
 62
     0
 48
2.0
370
     0
100
AcDbLine
 10
0.0
 20
0.0
 30
0.0
 11
-0.05
 21
0.0
 31
0.0
  0
LINE
  5
1A6
330
1A1
100
AcDbEntity
  8
0
  6
Continuous
 62
     0
 48
2.0
370
     0
100
AcDbLine
 10
0.0
 20
0.0
 30
0.0
 11
0.0
 21
-0.05
 31
0.0
  0
LINE
  5
1A7
330
1A1
100
AcDbEntity
  8
0
  6
Continuous
 62
     0
 48
2.0
370
     0
100
AcDbLine
 10
0.0
 20
0.0
 30
0.0
 11
0.05
 21
0.0
 31
0.0
  0
ENDBLK
  5
1A3
330
1A1
100
AcDbEntity
  8
0
100
AcDbBlockEnd
  0
BLOCK
  5
1AA
330
1A9
100
AcDbEntity
  8
0
100
AcDbBlockBegin
  2
SW_CENTERMARKSYMBOL_1
 70
     0
 10
0.0
 20
0.0
 30
0.0
  3
SW_CENTERMARKSYMBOL_1
  1

  0
LINE
  5
1AC
330
1A9
100
AcDbEntity
  8
0
  6
Continuous
 62
     0
 48
2.0
370
     0
100
AcDbLine
 10
0.0
 20
0.0
 30
0.0
 11
0.0
 21
0.05
 31
0.0
  0
LINE
  5
1AD
330
1A9
100
AcDbEntity
  8
0
  6
Continuous
 62
     0
 48
2.0
370
     0
100
AcDbLine
 10
0.0
 20
0.0
 30
0.0
 11
-0.05
 21
0.0
 31
0.0
  0
LINE
  5
1AE
330
1A9
100
AcDbEntity
  8
0
  6
Continuous
 62
     0
 48
2.0
370
     0
100
AcDbLine
 10
0.0
 20
0.0
 30
0.0
 11
0.0
 21
-0.05
 31
0.0
  0
LINE
  5
1AF
330
1A9
100
AcDbEntity
  8
0
  6
Continuous
 62
     0
 48
2.0
370
     0
100
AcDbLine
 10
0.0
 20
0.0
 30
0.0
 11
0.05
 21
0.0
 31
0.0
  0
ENDBLK
  5
1AB
330
1A9
100
AcDbEntity
  8
0
100
AcDbBlockEnd
  0
BLOCK
  5
2B2
330
2B1
100
AcDbEntity
  8
0
100
AcDbBlockBegin
  2
*D13
 70
     1
 10
0.0
 20
0.0
 30
0.0
  3
*D13
  1

  0
SOLID
  5
2B4
330
2B1
100
AcDbEntity
  8
0
  6
Continuous
 62
     7
 48
2.0
370
     0
100
AcDbTrace
 10
18.7876130637
 20
16.2693499879
 30
0.0
 11
18.5276130637
 21
16.3093499879
 31
0.0
 12
18.5276130637
 22
16.2293499879
 32
0.0
 13
18.5276130637
 23
16.2293499879
 33
0.0
  0
SOLID
  5
2B5
330
2B1
100
AcDbEntity
  8
0
  6
Continuous
 62
     7
 48
2.0
370
     0
100
AcDbTrace
 10
16.0376130637
 20
16.2693499879
 30
0.0
 11
16.2976130637
 21
16.2293499879
 31
0.0
 12
16.2976130637
 22
16.3093499879
 32
0.0
 13
16.2976130637
 23
16.3093499879
 33
0.0
  0
LINE
  5
2B6
330
2B1
100
AcDbEntity
  8
0
  6
Continuous
 62
     7
 48
2.0
370
     0
100
AcDbLine
 10
16.9879868317
 20
16.2395932859
 30
0.0
 11
16.9879868317
 21
15.9023506627
 31
0.0
  0
LINE
  5
2B7
330
2B1
100
AcDbEntity
  8
0
  6
Continuous
 62
     7
 48
2.0
370
     0
100
AcDbLine
 10
16.9879868317
 20
15.9023506627
 30
0.0
 11
17.0387316383
 21
15.9023506627
 31
0.0
  0
LINE
  5
2B8
330
2B1
100
AcDbEntity
  8
0
  6
Continuous
 62
     7
 48
2.0
370
     0
100
AcDbLine
 10
16.9879868317
 20
16.2395932859
 30
0.0
 11
17.0387316383
 21
16.2395932859
 31
0.0
  0
LINE
  5
2B9
330
2B1
100
AcDbEntity
  8
0
  6
Continuous
 62
     7
 48
2.0
370
     0
100
AcDbLine
 10
17.8372392957
 20
16.2395932859
 30
0.0
 11
17.8372392957
 21
15.9023506627
 31
0.0
  0
LINE
  5
2BA
330
2B1
100
AcDbEntity
  8
0
  6
Continuous
 62
     7
 48
2.0
370
     0
100
AcDbLine
 10
17.8372392957
 20
15.9023506627
 30
0.0
 11
17.786494489
 21
15.9023506627
 31
0.0
  0
LINE
  5
2BB
330
2B1
100
AcDbEntity
  8
0
  6
Continuous
 62
     7
 48
2.0
370
     0
100
AcDbLine
 10
17.8372392957
 20
16.2395932859
 30
0.0
 11
17.786494489
 21
16.2395932859
 31
0.0
  0
LINE
  5
2BC
330
2B1
100
AcDbEntity
  8
0
  6
Continuous
 62
     7
 48
2.0
370
     0
100
AcDbLine
 10
18.7876130637
 20
15.5819484131
 30
0.0
 11
18.7876130637
 21
16.5193499879
 31
0.0
  0
LINE
  5
2BD
330
2B1
100
AcDbEntity
  8
0
  6
Continuous
 62
     7
 48
2.0
370
     0
100
AcDbLine
 10
16.0376130637
 20
15.1129484131
 30
0.0
 11
16.0376130637
 21
16.5193499879
 31
0.0
  0
LINE
  5
2BE
330
2B1
100
AcDbEntity
  8
0
  6
Continuous
 62
     7
 48
2.0
370
     0
100
AcDbLine
 10
18.7876130637
 20
16.2693499879
 30
0.0
 11
18.1144079841
 21
16.2693499879
 31
0.0
  0
LINE
  5
2BF
330
2B1
100
AcDbEntity
  8
0
  6
Continuous
 62
     7
 48
2.0
370
     0
100
AcDbLine
 10
16.0376130637
 20
16.2693499879
 30
0.0
 11
16.7108181433
 21
16.2693499879
 31
0.0
  0
MTEXT
  5
2C0
330
2B1
100
AcDbEntity
  8
0
  6
Continuous
 62
     7
 48
2.0
370
     0
100
AcDbMText
 10
17.089476445
 20
16.5916169091
 30
0.0
 40
0.25
 41
0.0
 71
     1
 72
     1
  1
2.75
  7
SLDTEXTSTYLE0
 73
     1
 44
1.0
  0
MTEXT
  5
2C1
330
2B1
100
AcDbEntity
  8
0
  6
Continuous
 62
     7
 48
2.0
370
     0
100
AcDbMText
 10
17.089476445
 20
16.1948608818
 30
0.0
 40
0.25
 41
0.0
 71
     1
 72
     1
  1
69.9
  7
SLDTEXTSTYLE0
 73
     1
 44
1.0
  0
ENDBLK
  5
2B3
330
2B1
100
AcDbEntity
  8
0
100
AcDbBlockEnd
  0
BLOCK
  5
2C3
330
2C2
100
AcDbEntity
  8
0
100
AcDbBlockBegin
  2
SW_NOTE_5
 70
     0
 10
0.0
 20
0.0
 30
0.0
  3
SW_NOTE_5
  1

  0
MTEXT
  5
2C5
330
2C2
100
AcDbEntity
  8
0
  6
Continuous
 62
     0
 48
2.0
370
     0
100
AcDbMText
 10
0.0395181124
 20
0.1212069429
 30
0.0
 40
0.25
 41
0.0
 71
     1
 72
     1
  1
ONE-PIECE DIE-CUT GASKET
  7
SLDTEXTSTYLE0
 73
     1
 44
1.0
  0
MTEXT
  5
2C6
330
2C2
100
AcDbEntity
  8
0
  6
Continuous
 62
     0
 48
2.0
370
     0
100
AcDbMText
 10
0.0395181124
 20
-0.2075332061
 30
0.0
 40
0.25
 41
0.0
 71
     1
 72
     1
  1
(.25[6.3] THK. PORON #4701-41-15250-04
  7
SLDTEXTSTYLE0
 73
     1
 44
1.0
  0
MTEXT
  5
2C7
330
2C2
100
AcDbEntity
  8
0
  6
Continuous
 62
     0
 48
2.0
370
     0
100
AcDbMText
 10
0.0395181124
 20
-0.5362733551
 30
0.0
 40
0.25
 41
0.0
 71
     1
 72
     1
  1
- BLACK) INSIDE COVER.
  7
SLDTEXTSTYLE0
 73
     1
 44
1.0
  0
ENDBLK
  5
2C4
330
2C2
100
AcDbEntity
  8
0
100
AcDbBlockEnd
  0
BLOCK
  5
318
330
317
100
AcDbEntity
  8
0
100
AcDbBlockBegin
  2
*D15
 70
     1
 10
0.0
 20
0.0
 30
0.0
  3
*D15
  1

  0
SOLID
  5
31A
330
317
100
AcDbEntity
  8
0
  6
Continuous
 62
     7
 48
2.0
370
     0
100
AcDbTrace
 10
22.3727127692
 20
3.5094975485
 30
0.0
 11
22.6327127692
 21
3.4694975485
 31
0.0
 12
22.6327127692
 22
3.5494975485
 32
0.0
 13
22.6327127692
 23
3.5494975485
 33
0.0
  0
SOLID
  5
31B
330
317
100
AcDbEntity
  8
0
  6
Continuous
 62
     7
 48
2.0
370
     0
100
AcDbTrace
 10
24.7477127692
 20
3.5094975485
 30
0.0
 11
24.4877127692
 21
3.5494975485
 31
0.0
 12
24.4877127692
 22
3.4694975485
 32
0.0
 13
24.4877127692
 23
3.4694975485
 33
0.0
  0
LINE
  5
31C
330
317
100
AcDbEntity
  8
0
  6
Continuous
 62
     7
 48
2.0
370
     0
100
AcDbLine
 10
23.1858007154
 20
3.4797408464
 30
0.0
 11
23.1858007154
 21
3.1424982232
 31
0.0
  0
LINE
  5
31D
330
317
100
AcDbEntity
  8
0
  6
Continuous
 62
     7
 48
2.0
370
     0
100
AcDbLine
 10
23.1858007154
 20
3.1424982232
 30
0.0
 11
23.2365455221
 21
3.1424982232
 31
0.0
  0
LINE
  5
31E
330
317
100
AcDbEntity
  8
0
  6
Continuous
 62
     7
 48
2.0
370
     0
100
AcDbLine
 10
23.1858007154
 20
3.4797408464
 30
0.0
 11
23.2365455221
 21
3.4797408464
 31
0.0
  0
LINE
  5
31F
330
317
100
AcDbEntity
  8
0
  6
Continuous
 62
     7
 48
2.0
370
     0
100
AcDbLine
 10
24.0350531794
 20
3.4797408464
 30
0.0
 11
24.0350531794
 21
3.1424982232
 31
0.0
  0
LINE
  5
320
330
317
100
AcDbEntity
  8
0
  6
Continuous
 62
     7
 48
2.0
370
     0
100
AcDbLine
 10
24.0350531794
 20
3.1424982232
 30
0.0
 11
23.9843083727
 21
3.1424982232
 31
0.0
  0
LINE
  5
321
330
317
100
AcDbEntity
  8
0
  6
Continuous
 62
     7
 48
2.0
370
     0
100
AcDbLine
 10
24.0350531794
 20
3.4797408464
 30
0.0
 11
23.9843083727
 21
3.4797408464
 31
0.0
  0
LINE
  5
322
330
317
100
AcDbEntity
  8
0
  6
Continuous
 62
     7
 48
2.0
370
     0
100
AcDbLine
 10
22.3727127692
 20
4.3509484131
 30
0.0
 11
22.3727127692
 21
3.2594975485
 31
0.0
  0
LINE
  5
323
330
317
100
AcDbEntity
  8
0
  6
Continuous
 62
     7
 48
2.0
370
     0
100
AcDbLine
 10
24.7477127692
 20
4.3509484131
 30
0.0
 11
24.7477127692
 21
3.2594975485
 31
0.0
  0
LINE
  5
324
330
317
100
AcDbEntity
  8
0
  6
Continuous
 62
     7
 48
2.0
370
     0
100
AcDbLine
 10
22.3727127692
 20
3.5094975485
 30
0.0
 11
22.908632027
 21
3.5094975485
 31
0.0
  0
LINE
  5
325
330
317
100
AcDbEntity
  8
0
  6
Continuous
 62
     7
 48
2.0
370
     0
100
AcDbLine
 10
24.7477127692
 20
3.5094975485
 30
0.0
 11
24.3122218678
 21
3.5094975485
 31
0.0
  0
MTEXT
  5
326
330
317
100
AcDbEntity
  8
0
  6
Continuous
 62
     7
 48
2.0
370
     0
100
AcDbMText
 10
23.2872903287
 20
3.8317644697
 30
0.0
 40
0.25
 41
0.0
 71
     1
 72
     1
  1
2.38
  7
SLDTEXTSTYLE0
 73
     1
 44
1.0
  0
MTEXT
  5
327
330
317
100
AcDbEntity
  8
0
  6
Continuous
 62
     7
 48
2.0
370
     0
100
AcDbMText
 10
23.2872903287
 20
3.4350084424
 30
0.0
 40
0.25
 41
0.0
 71
     1
 72
     1
  1
60.3
  7
SLDTEXTSTYLE0
 73
     1
 44
1.0
  0
ENDBLK
  5
319
330
317
100
AcDbEntity
  8
0
100
AcDbBlockEnd
  0
BLOCK
  5
32A
330
329
100
AcDbEntity
  8
0
100
AcDbBlockBegin
  2
*D16
 70
     1
 10
0.0
 20
0.0
 30
0.0
  3
*D16
  1

  0
SOLID
  5
32C
330
329
100
AcDbEntity
  8
0
  6
Continuous
 62
     7
 48
2.0
370
     0
100
AcDbTrace
 10
21.0228111944
 20
15.4819484131
 30
0.0
 11
20.9828111944
 21
15.2219484131
 31
0.0
 12
21.0628111944
 22
15.2219484131
 32
0.0
 13
21.0628111944
 23
15.2219484131
 33
0.0
  0
SOLID
  5
32D
330
329
100
AcDbEntity
  8
0
  6
Continuous
 62
     7
 48
2.0
370
     0
100
AcDbTrace
 10
21.0228111944
 20
4.2319484131
 30
0.0
 11
21.0628111944
 21
4.4919484131
 31
0.0
 12
20.9828111944
 22
4.4919484131
 32
0.0
 13
20.9828111944
 23
4.4919484131
 33
0.0
  0
LINE
  5
32E
330
329
100
AcDbEntity
  8
0
  6
Continuous
 62
     7
 48
2.0
370
     0
100
AcDbLine
 10
20.5057663119
 20
9.8271917111
 30
0.0
 11
20.5057663119
 21
9.4899490879
 31
0.0
  0
LINE
  5
32F
330
329
100
AcDbEntity
  8
0
  6
Continuous
 62
     7
 48
2.0
370
     0
100
AcDbLine
 10
20.5057663119
 20
9.4899490879
 30
0.0
 11
20.5565111186
 21
9.4899490879
 31
0.0
  0
LINE
  5
330
330
329
100
AcDbEntity
  8
0
  6
Continuous
 62
     7
 48
2.0
370
     0
100
AcDbLine
 10
20.5057663119
 20
9.8271917111
 30
0.0
 11
20.5565111186
 21
9.8271917111
 31
0.0
  0
LINE
  5
331
330
329
100
AcDbEntity
  8
0
  6
Continuous
 62
     7
 48
2.0
370
     0
100
AcDbLine
 10
21.5398560769
 20
9.8271917111
 30
0.0
 11
21.5398560769
 21
9.4899490879
 31
0.0
  0
LINE
  5
332
330
329
100
AcDbEntity
  8
0
  6
Continuous
 62
     7
 48
2.0
370
     0
100
AcDbLine
 10
21.5398560769
 20
9.4899490879
 30
0.0
 11
21.4891112702
 21
9.4899490879
 31
0.0
  0
LINE
  5
333
330
329
100
AcDbEntity
  8
0
  6
Continuous
 62
     7
 48
2.0
370
     0
100
AcDbLine
 10
21.5398560769
 20
9.8271917111
 30
0.0
 11
21.4891112702
 21
9.8271917111
 31
0.0
  0
LINE
  5
334
330
329
100
AcDbEntity
  8
0
  6
Continuous
 62
     7
 48
2.0
370
     0
100
AcDbLine
 10
22.2102127692
 20
15.4819484131
 30
0.0
 11
20.7728111944
 21
15.4819484131
 31
0.0
  0
LINE
  5
335
330
329
100
AcDbEntity
  8
0
  6
Continuous
 62
     7
 48
2.0
370
     0
100
AcDbLine
 10
22.2102127692
 20
4.2319484131
 30
0.0
 11
20.7728111944
 21
4.2319484131
 31
0.0
  0
LINE
  5
336
330
329
100
AcDbEntity
  8
0
  6
Continuous
 62
     7
 48
2.0
370
     0
100
AcDbLine
 10
21.0228111944
 20
15.4819484131
 30
0.0
 11
21.0228111944
 21
10.2537044404
 31
0.0
  0
LINE
  5
337
330
329
100
AcDbEntity
  8
0
  6
Continuous
 62
     7
 48
2.0
370
     0
100
AcDbLine
 10
21.0228111944
 20
4.2319484131
 30
0.0
 11
21.0228111944
 21
9.4601923858
 31
0.0
  0
MTEXT
  5
338
330
329
100
AcDbEntity
  8
0
  6
Continuous
 62
     7
 48
2.0
370
     0
100
AcDbMText
 10
20.6072559253
 20
10.1792153343
 30
0.0
 40
0.25
 41
0.0
 71
     1
 72
     1
  1
11.25
  7
SLDTEXTSTYLE0
 73
     1
 44
1.0
  0
MTEXT
  5
339
330
329
100
AcDbEntity
  8
0
  6
Continuous
 62
     7
 48
2.0
370
     0
100
AcDbMText
 10
20.6072559253
 20
9.782459307
 30
0.0
 40
0.25
 41
0.0
 71
     1
 72
     1
  1
285.8
  7
SLDTEXTSTYLE0
 73
     1
 44
1.0
  0
ENDBLK
  5
32B
330
329
100
AcDbEntity
  8
0
100
AcDbBlockEnd
  0
BLOCK
  5
33D
330
33C
100
AcDbEntity
  8
0
100
AcDbBlockBegin
  2
*D17
 70
     1
 10
0.0
 20
0.0
 30
0.0
  3
*D17
  1

  0
SOLID
  5
33F
330
33C
100
AcDbEntity
  8
0
  6
Continuous
 62
     7
 48
2.0
370
     0
100
AcDbTrace
 10
22.0602127692
 20
16.2693499879
 30
0.0
 11
22.3202127692
 21
16.2293499879
 31
0.0
 12
22.3202127692
 22
16.3093499879
 32
0.0
 13
22.3202127692
 23
16.3093499879
 33
0.0
  0
SOLID
  5
340
330
33C
100
AcDbEntity
  8
0
  6
Continuous
 62
     7
 48
2.0
370
     0
100
AcDbTrace
 10
25.0602127692
 20
16.2693499879
 30
0.0
 11
24.8002127692
 21
16.3093499879
 31
0.0
 12
24.8002127692
 22
16.2293499879
 32
0.0
 13
24.8002127692
 23
16.2293499879
 33
0.0
  0
LINE
  5
341
330
33C
100
AcDbEntity
  8
0
  6
Continuous
 62
     7
 48
2.0
370
     0
100
AcDbLine
 10
23.1355865372
 20
16.2395932859
 30
0.0
 11
23.1355865372
 21
15.9023506627
 31
0.0
  0
LINE
  5
342
330
33C
100
AcDbEntity
  8
0
  6
Continuous
 62
     7
 48
2.0
370
     0
100
AcDbLine
 10
23.1355865372
 20
15.9023506627
 30
0.0
 11
23.1863313439
 21
15.9023506627
 31
0.0
  0
LINE
  5
343
330
33C
100
AcDbEntity
  8
0
  6
Continuous
 62
     7
 48
2.0
370
     0
100
AcDbLine
 10
23.1355865372
 20
16.2395932859
 30
0.0
 11
23.1863313439
 21
16.2395932859
 31
0.0
  0
LINE
  5
344
330
33C
100
AcDbEntity
  8
0
  6
Continuous
 62
     7
 48
2.0
370
     0
100
AcDbLine
 10
23.9848390012
 20
16.2395932859
 30
0.0
 11
23.9848390012
 21
15.9023506627
 31
0.0
  0
LINE
  5
345
330
33C
100
AcDbEntity
  8
0
  6
Continuous
 62
     7
 48
2.0
370
     0
100
AcDbLine
 10
23.9848390012
 20
15.9023506627
 30
0.0
 11
23.9340941946
 21
15.9023506627
 31
0.0
  0
LINE
  5
346
330
33C
100
AcDbEntity
  8
0
  6
Continuous
 62
     7
 48
2.0
370
     0
100
AcDbLine
 10
23.9848390012
 20
16.2395932859
 30
0.0
 11
23.9340941946
 21
16.2395932859
 31
0.0
  0
LINE
  5
347
330
33C
100
AcDbEntity
  8
0
  6
Continuous
 62
     7
 48
2.0
370
     0
100
AcDbLine
 10
22.0602127692
 20
15.3319484131
 30
0.0
 11
22.0602127692
 21
16.5193499879
 31
0.0
  0
LINE
  5
348
330
33C
100
AcDbEntity
  8
0
  6
Continuous
 62
     7
 48
2.0
370
     0
100
AcDbLine
 10
25.0602127692
 20
15.3319484131
 30
0.0
 11
25.0602127692
 21
16.5193499879
 31
0.0
  0
LINE
  5
349
330
33C
100
AcDbEntity
  8
0
  6
Continuous
 62
     7
 48
2.0
370
     0
100
AcDbLine
 10
22.0602127692
 20
16.2693499879
 30
0.0
 11
22.8584178488
 21
16.2693499879
 31
0.0
  0
LINE
  5
34A
330
33C
100
AcDbEntity
  8
0
  6
Continuous
 62
     7
 48
2.0
370
     0
100
AcDbLine
 10
25.0602127692
 20
16.2693499879
 30
0.0
 11
24.2620076896
 21
16.2693499879
 31
0.0
  0
MTEXT
  5
34B
330
33C
100
AcDbEntity
  8
0
  6
Continuous
 62
     7
 48
2.0
370
     0
100
AcDbMText
 10
23.2370761506
 20
16.5916169091
 30
0.0
 40
0.25
 41
0.0
 71
     1
 72
     1
  1
3.00
  7
SLDTEXTSTYLE0
 73
     1
 44
1.0
  0
MTEXT
  5
34C
330
33C
100
AcDbEntity
  8
0
  6
Continuous
 62
     7
 48
2.0
370
     0
100
AcDbMText
 10
23.2370761506
 20
16.1948608818
 30
0.0
 40
0.25
 41
0.0
 71
     1
 72
     1
  1
76.2
  7
SLDTEXTSTYLE0
 73
     1
 44
1.0
  0
ENDBLK
  5
33E
330
33C
100
AcDbEntity
  8
0
100
AcDbBlockEnd
  0
BLOCK
  5
51A
330
519
100
AcDbEntity
  8
0
100
AcDbBlockBegin
  2
*D18
 70
     1
 10
0.0
 20
0.0
 30
0.0
  3
*D18
  1

  0
SOLID
  5
51C
330
519
100
AcDbEntity
  8
0
  6
Continuous
 62
     7
 48
2.0
370
     0
100
AcDbTrace
 10
9.4635134388
 20
16.2693499879
 30
0.0
 11
9.7235134388
 21
16.2293499879
 31
0.0
 12
9.7235134388
 22
16.3093499879
 32
0.0
 13
9.7235134388
 23
16.3093499879
 33
0.0
  0
SOLID
  5
51D
330
519
100
AcDbEntity
  8
0
  6
Continuous
 62
     7
 48
2.0
370
     0
100
AcDbTrace
 10
12.7135134388
 20
16.2693499879
 30
0.0
 11
12.4535134388
 21
16.3093499879
 31
0.0
 12
12.4535134388
 22
16.2293499879
 32
0.0
 13
12.4535134388
 23
16.2293499879
 33
0.0
  0
LINE
  5
51E
330
519
100
AcDbEntity
  8
0
  6
Continuous
 62
     7
 48
2.0
370
     0
100
AcDbLine
 10
10.6638872068
 20
16.2395932859
 30
0.0
 11
10.6638872068
 21
15.9023506627
 31
0.0
  0
LINE
  5
51F
330
519
100
AcDbEntity
  8
0
  6
Continuous
 62
     7
 48
2.0
370
     0
100
AcDbLine
 10
10.6638872068
 20
15.9023506627
 30
0.0
 11
10.7146320134
 21
15.9023506627
 31
0.0
  0
LINE
  5
520
330
519
100
AcDbEntity
  8
0
  6
Continuous
 62
     7
 48
2.0
370
     0
100
AcDbLine
 10
10.6638872068
 20
16.2395932859
 30
0.0
 11
10.7146320134
 21
16.2395932859
 31
0.0
  0
LINE
  5
521
330
519
100
AcDbEntity
  8
0
  6
Continuous
 62
     7
 48
2.0
370
     0
100
AcDbLine
 10
11.5131396708
 20
16.2395932859
 30
0.0
 11
11.5131396708
 21
15.9023506627
 31
0.0
  0
LINE
  5
522
330
519
100
AcDbEntity
  8
0
  6
Continuous
 62
     7
 48
2.0
370
     0
100
AcDbLine
 10
11.5131396708
 20
15.9023506627
 30
0.0
 11
11.4623948641
 21
15.9023506627
 31
0.0
  0
LINE
  5
523
330
519
100
AcDbEntity
  8
0
  6
Continuous
 62
     7
 48
2.0
370
     0
100
AcDbLine
 10
11.5131396708
 20
16.2395932859
 30
0.0
 11
11.4623948641
 21
16.2395932859
 31
0.0
  0
LINE
  5
524
330
519
100
AcDbEntity
  8
0
  6
Continuous
 62
     7
 48
2.0
370
     0
100
AcDbLine
 10
9.4635134388
 20
14.9889484131
 30
0.0
 11
9.4635134388
 21
16.5193499879
 31
0.0
  0
LINE
  5
525
330
519
100
AcDbEntity
  8
0
  6
Continuous
 62
     7
 48
2.0
370
     0
100
AcDbLine
 10
12.7135134388
 20
14.9889484131
 30
0.0
 11
12.7135134388
 21
16.5193499879
 31
0.0
  0
LINE
  5
526
330
519
100
AcDbEntity
  8
0
  6
Continuous
 62
     7
 48
2.0
370
     0
100
AcDbLine
 10
9.4635134388
 20
16.2693499879
 30
0.0
 11
10.3867185184
 21
16.2693499879
 31
0.0
  0
LINE
  5
527
330
519
100
AcDbEntity
  8
0
  6
Continuous
 62
     7
 48
2.0
370
     0
100
AcDbLine
 10
12.7135134388
 20
16.2693499879
 30
0.0
 11
11.7903083592
 21
16.2693499879
 31
0.0
  0
MTEXT
  5
528
330
519
100
AcDbEntity
  8
0
  6
Continuous
 62
     7
 48
2.0
370
     0
100
AcDbMText
 10
10.7653768201
 20
16.5916169091
 30
0.0
 40
0.25
 41
0.0
 71
     1
 72
     1
  1
3.25
  7
SLDTEXTSTYLE0
 73
     1
 44
1.0
  0
MTEXT
  5
529
330
519
100
AcDbEntity
  8
0
  6
Continuous
 62
     7
 48
2.0
370
     0
100
AcDbMText
 10
10.7653768201
 20
16.1948608818
 30
0.0
 40
0.25
 41
0.0
 71
     1
 72
     1
  1
82.6
  7
SLDTEXTSTYLE0
 73
     1
 44
1.0
  0
ENDBLK
  5
51B
330
519
100
AcDbEntity
  8
0
100
AcDbBlockEnd
  0
BLOCK
  5
52C
330
52B
100
AcDbEntity
  8
0
100
AcDbBlockBegin
  2
*D19
 70
     1
 10
0.0
 20
0.0
 30
0.0
  3
*D19
  1

  0
SOLID
  5
52E
330
52B
100
AcDbEntity
  8
0
  6
Continuous
 62
     7
 48
2.0
370
     0
100
AcDbTrace
 10
13.510824536
 20
14.9819484131
 30
0.0
 11
13.470824536
 21
14.7219484131
 31
0.0
 12
13.550824536
 22
14.7219484131
 32
0.0
 13
13.550824536
 23
14.7219484131
 33
0.0
  0
SOLID
  5
52F
330
52B
100
AcDbEntity
  8
0
  6
Continuous
 62
     7
 48
2.0
370
     0
100
AcDbTrace
 10
13.510824536
 20
4.7319484131
 30
0.0
 11
13.550824536
 21
4.9919484131
 31
0.0
 12
13.470824536
 22
4.9919484131
 32
0.0
 13
13.470824536
 23
4.9919484131
 33
0.0
  0
LINE
  5
530
330
52B
100
AcDbEntity
  8
0
  6
Continuous
 62
     7
 48
2.0
370
     0
100
AcDbLine
 10
12.9937796535
 20
9.8271917111
 30
0.0
 11
12.9937796535
 21
9.4899490879
 31
0.0
  0
LINE
  5
531
330
52B
100
AcDbEntity
  8
0
  6
Continuous
 62
     7
 48
2.0
370
     0
100
AcDbLine
 10
12.9937796535
 20
9.4899490879
 30
0.0
 11
13.0445244602
 21
9.4899490879
 31
0.0
  0
LINE
  5
532
330
52B
100
AcDbEntity
  8
0
  6
Continuous
 62
     7
 48
2.0
370
     0
100
AcDbLine
 10
12.9937796535
 20
9.8271917111
 30
0.0
 11
13.0445244602
 21
9.8271917111
 31
0.0
  0
LINE
  5
533
330
52B
100
AcDbEntity
  8
0
  6
Continuous
 62
     7
 48
2.0
370
     0
100
AcDbLine
 10
14.0278694185
 20
9.8271917111
 30
0.0
 11
14.0278694185
 21
9.4899490879
 31
0.0
  0
LINE
  5
534
330
52B
100
AcDbEntity
  8
0
  6
Continuous
 62
     7
 48
2.0
370
     0
100
AcDbLine
 10
14.0278694185
 20
9.4899490879
 30
0.0
 11
13.9771246118
 21
9.4899490879
 31
0.0
  0
LINE
  5
535
330
52B
100
AcDbEntity
  8
0
  6
Continuous
 62
     7
 48
2.0
370
     0
100
AcDbLine
 10
14.0278694185
 20
9.8271917111
 30
0.0
 11
13.9771246118
 21
9.8271917111
 31
0.0
  0
LINE
  5
536
330
52B
100
AcDbEntity
  8
0
  6
Continuous
 62
     7
 48
2.0
370
     0
100
AcDbLine
 10
12.7205134388
 20
14.9819484131
 30
0.0
 11
13.760824536
 21
14.9819484131
 31
0.0
  0
LINE
  5
537
330
52B
100
AcDbEntity
  8
0
  6
Continuous
 62
     7
 48
2.0
370
     0
100
AcDbLine
 10
12.7205134388
 20
4.7319484131
 30
0.0
 11
13.760824536
 21
4.7319484131
 31
0.0
  0
LINE
  5
538
330
52B
100
AcDbEntity
  8
0
  6
Continuous
 62
     7
 48
2.0
370
     0
100
AcDbLine
 10
13.510824536
 20
14.9819484131
 30
0.0
 11
13.510824536
 21
10.2537044404
 31
0.0
  0
LINE
  5
539
330
52B
100
AcDbEntity
  8
0
  6
Continuous
 62
     7
 48
2.0
370
     0
100
AcDbLine
 10
13.510824536
 20
4.7319484131
 30
0.0
 11
13.510824536
 21
9.4601923858
 31
0.0
  0
MTEXT
  5
53A
330
52B
100
AcDbEntity
  8
0
  6
Continuous
 62
     7
 48
2.0
370
     0
100
AcDbMText
 10
13.0952692669
 20
10.1792153343
 30
0.0
 40
0.25
 41
0.0
 71
     1
 72
     1
  1
10.25
  7
SLDTEXTSTYLE0
 73
     1
 44
1.0
  0
MTEXT
  5
53B
330
52B
100
AcDbEntity
  8
0
  6
Continuous
 62
     7
 48
2.0
370
     0
100
AcDbMText
 10
13.0952692669
 20
9.782459307
 30
0.0
 40
0.25
 41
0.0
 71
     1
 72
     1
  1
260.4
  7
SLDTEXTSTYLE0
 73
     1
 44
1.0
  0
ENDBLK
  5
52D
330
52B
100
AcDbEntity
  8
0
100
AcDbBlockEnd
  0
BLOCK
  5
53D
330
53C
100
AcDbEntity
  8
0
100
AcDbBlockBegin
  2
SW_NOTE_6
 70
     0
 10
0.0
 20
0.0
 30
0.0
  3
SW_NOTE_6
  1

  0
MTEXT
  5
53F
330
53C
100
AcDbEntity
  8
0
  6
Continuous
 62
     0
 48
2.0
370
     0
100
AcDbMText
 10
0.0394674269
 20
0.1213048618
 30
0.0
 40
0.25
 41
0.0
 71
     1
 72
     1
  1
WELD STANDOFF M5x0.8 x 12mm LG.
  7
SLDTEXTSTYLE0
 73
     1
 44
1.0
  0
MTEXT
  5
540
330
53C
100
AcDbEntity
  8
0
  6
Continuous
 62
     0
 48
2.0
370
     0
100
AcDbMText
 10
0.0394674269
 20
-0.2074352873
 30
0.0
 40
0.25
 41
0.0
 71
     1
 72
     1
  1
FOR GROUNDING [SUPPLIED WITH
  7
SLDTEXTSTYLE0
 73
     1
 44
1.0
  0
MTEXT
  5
541
330
53C
100
AcDbEntity
  8
0
  6
Continuous
 62
     0
 48
2.0
370
     0
100
AcDbMText
 10
0.0394674269
 20
-0.5361754363
 30
0.0
 40
0.25
 41
0.0
 71
     1
 72
     1
  1
(1) SCREW M5x0.8 x 10mm LG., PAN HEAD,
  7
SLDTEXTSTYLE0
 73
     1
 44
1.0
  0
MTEXT
  5
542
330
53C
100
AcDbEntity
  8
0
  6
Continuous
 62
     0
 48
2.0
370
     0
100
AcDbMText
 10
0.0394674269
 20
-0.8649155853
 30
0.0
 40
0.25
 41
0.0
 71
     1
 72
     1
  1
PHILLIPS DRIVE, STEEL, ZINC PLATED
  7
SLDTEXTSTYLE0
 73
     1
 44
1.0
  0
MTEXT
  5
543
330
53C
100
AcDbEntity
  8
0
  6
Continuous
 62
     0
 48
2.0
370
     0
100
AcDbMText
 10
0.0394674269
 20
-1.1936557344
 30
0.0
 40
0.25
 41
0.0
 71
     1
 72
     1
  1
AND (1) LOCKWASHER, INTERNAL TOOTH,
  7
SLDTEXTSTYLE0
 73
     1
 44
1.0
  0
MTEXT
  5
544
330
53C
100
AcDbEntity
  8
0
  6
Continuous
 62
     0
 48
2.0
370
     0
100
AcDbMText
 10
0.0394674269
 20
-1.5223958834
 30
0.0
 40
0.25
 41
0.0
 71
     1
 72
     1
  1
STEEL, ZINC PLATED]
  7
SLDTEXTSTYLE0
 73
     1
 44
1.0
  0
ENDBLK
  5
53E
330
53C
100
AcDbEntity
  8
0
100
AcDbBlockEnd
  0
BLOCK
  5
548
330
547
100
AcDbEntity
  8
0
100
AcDbBlockBegin
  2
SW_NOTE_7
 70
     0
 10
0.0
 20
0.0
 30
0.0
  3
SW_NOTE_7
  1

  0
MTEXT
  5
54A
330
547
100
AcDbEntity
  8
0
  6
Continuous
 62
     0
 48
2.0
370
     0
100
AcDbMText
 10
0.0
 20
0.3222669349
 30
0.0
 40
0.25
 41
0.0
 71
     1
 72
     1
  1
\LCOVER
  7
SLDTEXTSTYLE0
 73
     1
 44
1.0
  0
MTEXT
  5
54B
330
547
100
AcDbEntity
  8
0
  6
Continuous
 62
     0
 48
2.0
370
     0
100
AcDbMText
 10
-0.2232638342
 20
-0.0064732141
 30
0.0
 40
0.25
 41
0.0
 71
     1
 72
     1
  1
\LREMOVED
  7
SLDTEXTSTYLE0
 73
     1
 44
1.0
  0
ENDBLK
  5
549
330
547
100
AcDbEntity
  8
0
100
AcDbBlockEnd
  0
ENDSEC
  0
SECTION
  2
ENTITIES
  0
LINE
  5
44
330
1F
100
AcDbEntity
  8
0
  6
Continuous
 62
     7
 48
2.0
370
     0
100
AcDbLine
 10
0.6265032092
 20
21.4101463415
 30
0.0
 11
33.3785032092
 21
21.4101463415
 31
0.0
  0
LINE
  5
45
330
1F
100
AcDbEntity
  8
0
  6
Continuous
 62
     7
 48
2.0
370
     0
100
AcDbLine
 10
33.3785032092
 20
0.6581463415
 30
0.0
 11
33.3785032092
 21
21.4101463415
 31
0.0
  0
LINE
  5
46
330
1F
100
AcDbEntity
  8
0
  6
Continuous
 62
     7
 48
2.0
370
     0
100
AcDbLine
 10
33.3785032092
 20
0.6581463415
 30
0.0
 11
0.6265032092
 21
0.6581463415
 31
0.0
  0
LINE
  5
47
330
1F
100
AcDbEntity
  8
0
  6
Continuous
 62
     7
 48
2.0
370
     0
100
AcDbLine
 10
0.6265032092
 20
21.4101463415
 30
0.0
 11
0.6265032092
 21
0.6581463415
 31
0.0
  0
LINE
  5
48
330
1F
100
AcDbEntity
  8
0
  6
Continuous
 62
     7
 48
2.0
370
     0
100
AcDbLine
 10
0.5025032092
 20
21.5341463415
 30
0.0
 11
33.5025032092
 21
21.5341463415
 31
0.0
  0
LINE
  5
49
330
1F
100
AcDbEntity
  8
0
  6
Continuous
 62
     7
 48
2.0
370
     0
100
AcDbLine
 10
33.5025032092
 20
0.5341463415
 30
0.0
 11
0.5025032092
 21
0.5341463415
 31
0.0
  0
LINE
  5
4A
330
1F
100
AcDbEntity
  8
0
  6
Continuous
 62
     7
 48
2.0
370
     0
100
AcDbLine
 10
0.5025032092
 20
21.5341463415
 30
0.0
 11
0.5025032092
 21
0.5341463415
 31
0.0
  0
LINE
  5
4B
330
1F
100
AcDbEntity
  8
0
  6
Continuous
 62
     7
 48
2.0
370
     0
100
AcDbLine
 10
33.5025032092
 20
0.5341463415
 30
0.0
 11
33.5025032092
 21
21.5341463415
 31
0.0
  0
LINE
  5
4C
330
1F
100
AcDbEntity
  8
0
  6
Continuous
 62
     7
 48
2.0
370
     0
100
AcDbLine
 10
0.6265032092
 20
20.5981463415
 30
0.0
 11
33.3785032092
 21
20.5981463415
 31
0.0
  0
LINE
  5
4D
330
1F
100
AcDbEntity
  8
0
  6
Continuous
 62
     7
 48
2.0
370
     0
100
AcDbLine
 10
2.1265032092
 20
21.4101463415
 30
0.0
 11
2.1265032092
 21
20.5981463415
 31
0.0
  0
LINE
  5
4E
330
1F
100
AcDbEntity
  8
0
  6
Continuous
 62
     7
 48
2.0
370
     0
100
AcDbLine
 10
14.8785032092
 20
20.5981463415
 30
0.0
 11
14.8785032092
 21
21.4101463415
 31
0.0
  0
LINE
  5
4F
330
1F
100
AcDbEntity
  8
0
  6
Continuous
 62
     7
 48
2.0
370
     0
100
AcDbLine
 10
15.0025032092
 20
20.5981463415
 30
0.0
 11
15.0025032092
 21
21.4101463415
 31
0.0
  0
LINE
  5
50
330
1F
100
AcDbEntity
  8
0
  6
Continuous
 62
     7
 48
2.0
370
     0
100
AcDbLine
 10
30.8785032092
 20
20.5981463415
 30
0.0
 11
30.8785032092
 21
21.4101463415
 31
0.0
  0
LINE
  5
51
330
1F
100
AcDbEntity
  8
0
  6
Continuous
 62
     7
 48
2.0
370
     0
100
AcDbLine
 10
16.5025032092
 20
20.5981463415
 30
0.0
 11
16.5025032092
 21
21.4101463415
 31
0.0
  0
LINE
  5
52
330
1F
100
AcDbEntity
  8
0
  6
Continuous
 62
     7
 48
2.0
370
     0
100
AcDbLine
 10
29.3785032092
 20
20.5981463415
 30
0.0
 11
29.3785032092
 21
21.4101463415
 31
0.0
  0
LINE
  5
53
330
1F
100
AcDbEntity
  8
0
  6
Continuous
 62
     7
 48
2.0
370
     0
100
AcDbLine
 10
29.2545032092
 20
20.5981463415
 30
0.0
 11
29.2545032092
 21
21.4101463415
 31
0.0
  0
DIMENSION
  5
54
330
1F
100
AcDbEntity
  8
0
  6
Continuous
 62
     7
 48
2.0
370
     0
100
AcDbDimension
  2
*D1
 10
26.2418650493
 20
4.4819484131
 30
0.0
 11
26.2418650493
 21
9.8569484131
 31
0.0
 70
   160
 71
     2
 42
-1.0
  3
SLDDIMSTYLE0
100
AcDbAlignedDimension
 13
24.8572127692
 23
15.2319484131
 33
0.0
 14
24.8572127692
 24
4.4819484131
 34
0.0
 50
90.0
100
AcDbRotatedDimension
  0
INSERT
  5
90
330
1F
100
AcDbEntity
  8
0
  6
Continuous
 62
     7
 48
2.0
370
     0
100
AcDbBlockReference
  2
SW_NOTE_0
 10
13.72656558
 20
18.7562484695
 30
0.0
  0
MTEXT
  5
91
330
1F
100
AcDbEntity
  8
0
  6
Continuous
 62
     7
 48
2.0
370
     0
100
AcDbMText
 10
31.3266493443
 20
21.2186326882
 30
0.0
 40
0.375
 41
0.0
 71
     1
 72
     1
  1
1-31-11
  7
SLDTEXTSTYLE0
 73
     1
 44
1.0
  0
MTEXT
  5
92
330
1F
100
AcDbEntity
  8
0
  6
Continuous
 62
     7
 48
2.0
370
     0
100
AcDbMText
 10
4.4949792334
 20
21.1881770807
 30
0.0
 40
0.375
 41
0.0
 71
     1
 72
     1
  1
22.5mm PUSHBUTTON ENCLOSURE
  7
SLDTEXTSTYLE0
 73
     1
 44
1.0
  0
MTEXT
  5
93
330
1F
100
AcDbEntity
  8
0
  6
Continuous
 62
     7
 48
2.0
370
     0
100
AcDbMText
 10
21.8656522838
 20
21.1865563367
 30
0.0
 40
0.375
 41
0.0
 71
     1
 72
     1
  1
SPB-3904
  7
SLDTEXTSTYLE0
 73
     1
 44
1.0
  0
INSERT
  5
99
330
1F
100
AcDbEntity
  8
0
  6
Continuous
 62
     7
 48
2.0
370
     0
100
AcDbBlockReference
  2
SW_NOTE_1
 10
0.9752783738
 20
21.009520053
 30
0.0
  0
INSERT
  5
9F
330
1F
100
AcDbEntity
  8
0
  6
Continuous
 62
     7
 48
2.0
370
     0
100
AcDbBlockReference
  2
SW_NOTE_2
 10
15.3702297796
 20
21.0003964794
 30
0.0
  0
INSERT
  5
A5
330
1F
100
AcDbEntity
  8
0
  6
Continuous
 62
     7
 48
2.0
370
     0
100
AcDbBlockReference
  2
SW_NOTE_3
 10
29.4172772548
 20
21.0067670545
 30
0.0
  0
LINE
  5
A6
330
1F
100
AcDbEntity
  8
0
  6
Continuous
 62
     7
 48
2.0
370
    15
100
AcDbLine
 10
7.0129031009
 20
4.6999486806
 30
0.0
 11
7.0129031009
 21
15.0139481457
 31
0.0
  0
LINE
  5
A7
330
1F
100
AcDbEntity
  8
0
  6
Continuous
 62
     7
 48
2.0
370
    15
100
AcDbLine
 10
3.6059030722
 20
4.6069484216
 30
0.0
 11
6.9199031352
 21
4.6069484216
 31
0.0
  0
LINE
  5
A8
330
1F
100
AcDbEntity
  8
0
  6
Continuous
 62
     7
 48
2.0
370
    15
100
AcDbLine
 10
4.7629031097
 20
13.1694483868
 30
0.0
 11
4.8243341367
 21
13.1694483868
 31
0.0
  0
ARC
  5
A9
330
1F
100
AcDbEntity
  8
0
  6
Continuous
 62
     7
 48
4.0
370
    15
100
AcDbCircle
 10
5.2629031037
 20
13.2319484131
 30
0.0
 40
0.4430000000000004
100
AcDbArc
 50
188.1105498048
 51
261.8894501952
  0
LINE
  5
AA
330
1F
100
AcDbEntity
  8
0
  6
Continuous
 62
     7
 48
2.0
370
    15
100
AcDbLine
 10
5.2004031044
 20
12.7933794512
 30
0.0
 11
5.2004031044
 21
12.7319485342
 31
0.0
  0
LINE
  5
AB
330
1F
100
AcDbEntity
  8
0
  6
Continuous
 62
     7
 48
2.0
370
    15
100
AcDbLine
 10
5.2004031044
 20
12.7319485342
 30
0.0
 11
5.3254031029
 21
12.7319485342
 31
0.0
  0
LINE
  5
AC
330
1F
100
AcDbEntity
  8
0
  6
Continuous
 62
     7
 48
2.0
370
    15
100
AcDbLine
 10
5.3254031029
 20
12.7319485342
 30
0.0
 11
5.3254031029
 21
12.7933794512
 31
0.0
  0
ARC
  5
AD
330
1F
100
AcDbEntity
  8
0
  6
Continuous
 62
     7
 48
4.0
370
    15
100
AcDbCircle
 10
5.2629031037
 20
13.2319484131
 30
0.0
 40
0.4430000000000004
100
AcDbArc
 50
278.1105498048
 51
351.8894501952
  0
LINE
  5
AE
330
1F
100
AcDbEntity
  8
0
  6
Continuous
 62
     7
 48
2.0
370
    15
100
AcDbLine
 10
5.7014720706
 20
13.1694483868
 30
0.0
 11
5.7629030977
 21
13.1694483868
 31
0.0
  0
LINE
  5
AF
330
1F
100
AcDbEntity
  8
0
  6
Continuous
 62
     7
 48
2.0
370
    15
100
AcDbLine
 10
5.7629030977
 20
13.1694483868
 30
0.0
 11
5.7629030977
 21
13.2944483028
 31
0.0
  0
LINE
  5
B0
330
1F
100
AcDbEntity
  8
0
  6
Continuous
 62
     7
 48
2.0
370
    15
100
AcDbLine
 10
5.7629030977
 20
13.2944483028
 30
0.0
 11
5.7014720706
 21
13.2944483028
 31
0.0
  0
ARC
  5
B1
330
1F
100
AcDbEntity
  8
0
  6
Continuous
 62
     7
 48
4.0
370
    15
100
AcDbCircle
 10
5.2629031037
 20
13.2319484131
 30
0.0
 40
0.443
100
AcDbArc
 50
8.1105498048
 51
81.8894501952
  0
LINE
  5
B2
330
1F
100
AcDbEntity
  8
0
  6
Continuous
 62
     7
 48
2.0
370
    15
100
AcDbLine
 10
5.3254031029
 20
13.6705175318
 30
0.0
 11
5.3254031029
 21
13.7319484488
 31
0.0
  0
LINE
  5
B3
330
1F
100
AcDbEntity
  8
0
  6
Continuous
 62
     7
 48
2.0
370
    15
100
AcDbLine
 10
5.3254031029
 20
13.7319484488
 30
0.0
 11
5.2004031044
 21
13.7319484488
 31
0.0
  0
LINE
  5
B4
330
1F
100
AcDbEntity
  8
0
  6
Continuous
 62
     7
 48
2.0
370
    15
100
AcDbLine
 10
5.2004031044
 20
13.7319484488
 30
0.0
 11
5.2004031044
 21
13.6705175318
 31
0.0
  0
ARC
  5
B5
330
1F
100
AcDbEntity
  8
0
  6
Continuous
 62
     7
 48
4.0
370
    15
100
AcDbCircle
 10
5.2629031037
 20
13.2319484131
 30
0.0
 40
0.4430000000000001
100
AcDbArc
 50
98.1105498048
 51
171.8894501952
  0
LINE
  5
B6
330
1F
100
AcDbEntity
  8
0
  6
Continuous
 62
     7
 48
2.0
370
    15
100
AcDbLine
 10
4.8243341367
 20
13.2944483028
 30
0.0
 11
4.7629031097
 21
13.2944483028
 31
0.0
  0
LINE
  5
B7
330
1F
100
AcDbEntity
  8
0
  6
Continuous
 62
     7
 48
2.0
370
    15
100
AcDbLine
 10
4.7629031097
 20
13.2944483028
 30
0.0
 11
4.7629031097
 21
13.1694483868
 31
0.0
  0
LINE
  5
B8
330
1F
100
AcDbEntity
  8
0
  6
Continuous
 62
     7
 48
2.0
370
    15
100
AcDbLine
 10
4.7629031097
 20
10.9194484324
 30
0.0
 11
4.8243341367
 21
10.9194484324
 31
0.0
  0
ARC
  5
B9
330
1F
100
AcDbEntity
  8
0
  6
Continuous
 62
     7
 48
4.0
370
    15
100
AcDbCircle
 10
5.2629031037
 20
10.9819484131
 30
0.0
 40
0.4430000000000001
100
AcDbArc
 50
188.1105498048
 51
261.8894501952
  0
LINE
  5
BA
330
1F
100
AcDbEntity
  8
0
  6
Continuous
 62
     7
 48
2.0
370
    15
100
AcDbLine
 10
5.2004031044
 20
10.5433794234
 30
0.0
 11
5.2004031044
 21
10.4819484331
 31
0.0
  0
LINE
  5
BB
330
1F
100
AcDbEntity
  8
0
  6
Continuous
 62
     7
 48
2.0
370
    15
100
AcDbLine
 10
5.2004031044
 20
10.4819484331
 30
0.0
 11
5.3254031029
 21
10.4819484331
 31
0.0
  0
LINE
  5
BC
330
1F
100
AcDbEntity
  8
0
  6
Continuous
 62
     7
 48
2.0
370
    15
100
AcDbLine
 10
5.3254031029
 20
10.4819484331
 30
0.0
 11
5.3254031029
 21
10.5433794234
 31
0.0
  0
ARC
  5
BD
330
1F
100
AcDbEntity
  8
0
  6
Continuous
 62
     7
 48
4.0
370
    15
100
AcDbCircle
 10
5.2629031037
 20
10.9819484131
 30
0.0
 40
0.4430000000000001
100
AcDbArc
 50
278.1105498048
 51
351.8894501952
  0
LINE
  5
BE
330
1F
100
AcDbEntity
  8
0
  6
Continuous
 62
     7
 48
2.0
370
    15
100
AcDbLine
 10
5.7014720706
 20
10.9194484324
 30
0.0
 11
5.7629030977
 21
10.9194484324
 31
0.0
  0
LINE
  5
BF
330
1F
100
AcDbEntity
  8
0
  6
Continuous
 62
     7
 48
2.0
370
    15
100
AcDbLine
 10
5.7629030977
 20
10.9194484324
 30
0.0
 11
5.7629030977
 21
11.0444484217
 31
0.0
  0
LINE
  5
C0
330
1F
100
AcDbEntity
  8
0
  6
Continuous
 62
     7
 48
2.0
370
    15
100
AcDbLine
 10
5.7629030977
 20
11.0444484217
 30
0.0
 11
5.7014720706
 21
11.0444484217
 31
0.0
  0
ARC
  5
C1
330
1F
100
AcDbEntity
  8
0
  6
Continuous
 62
     7
 48
4.0
370
    15
100
AcDbCircle
 10
5.2629031037
 20
10.9819484131
 30
0.0
 40
0.4430000000000003
100
AcDbArc
 50
8.1105498048
 51
81.8894501952
  0
LINE
  5
C2
330
1F
100
AcDbEntity
  8
0
  6
Continuous
 62
     7
 48
2.0
370
    15
100
AcDbLine
 10
5.3254031029
 20
11.4205174306
 30
0.0
 11
5.3254031029
 21
11.4819483477
 31
0.0
  0
LINE
  5
C3
330
1F
100
AcDbEntity
  8
0
  6
Continuous
 62
     7
 48
2.0
370
    15
100
AcDbLine
 10
5.3254031029
 20
11.4819483477
 30
0.0
 11
5.2004031044
 21
11.4819483477
 31
0.0
  0
LINE
  5
C4
330
1F
100
AcDbEntity
  8
0
  6
Continuous
 62
     7
 48
2.0
370
    15
100
AcDbLine
 10
5.2004031044
 20
11.4819483477
 30
0.0
 11
5.2004031044
 21
11.4205174306
 31
0.0
  0
ARC
  5
C5
330
1F
100
AcDbEntity
  8
0
  6
Continuous
 62
     7
 48
4.0
370
    15
100
AcDbCircle
 10
5.2629031037
 20
10.9819484131
 30
0.0
 40
0.4430000000000004
100
AcDbArc
 50
98.1105498048
 51
171.8894501952
  0
LINE
  5
C6
330
1F
100
AcDbEntity
  8
0
  6
Continuous
 62
     7
 48
2.0
370
    15
100
AcDbLine
 10
4.8243341367
 20
11.0444484217
 30
0.0
 11
4.7629031097
 21
11.0444484217
 31
0.0
  0
LINE
  5
C7
330
1F
100
AcDbEntity
  8
0
  6
Continuous
 62
     7
 48
2.0
370
    15
100
AcDbLine
 10
4.7629031097
 20
11.0444484217
 30
0.0
 11
4.7629031097
 21
10.9194484324
 31
0.0
  0
ARC
  5
C8
330
1F
100
AcDbEntity
  8
0
  6
Continuous
 62
     7
 48
4.0
370
    15
100
AcDbCircle
 10
5.2629031037
 20
6.4819484131
 30
0.0
 40
0.4430000000000003
100
AcDbArc
 50
188.1105498048
 51
261.8894501952
  0
LINE
  5
C9
330
1F
100
AcDbEntity
  8
0
  6
Continuous
 62
     7
 48
2.0
370
    15
100
AcDbLine
 10
5.2004031044
 20
6.0433792945
 30
0.0
 11
5.2004031044
 21
5.9819483775
 31
0.0
  0
LINE
  5
CA
330
1F
100
AcDbEntity
  8
0
  6
Continuous
 62
     7
 48
2.0
370
    15
100
AcDbLine
 10
5.2004031044
 20
5.9819483775
 30
0.0
 11
5.3254031029
 21
5.9819483775
 31
0.0
  0
LINE
  5
CB
330
1F
100
AcDbEntity
  8
0
  6
Continuous
 62
     7
 48
2.0
370
    15
100
AcDbLine
 10
5.3254031029
 20
5.9819483775
 30
0.0
 11
5.3254031029
 21
6.0433792945
 31
0.0
  0
ARC
  5
CC
330
1F
100
AcDbEntity
  8
0
  6
Continuous
 62
     7
 48
4.0
370
    15
100
AcDbCircle
 10
5.2629031037
 20
6.4819484131
 30
0.0
 40
0.4430000000000001
100
AcDbArc
 50
278.1105498048
 51
351.8894501952
  0
LINE
  5
CD
330
1F
100
AcDbEntity
  8
0
  6
Continuous
 62
     7
 48
2.0
370
    15
100
AcDbLine
 10
5.7014720706
 20
6.4194485234
 30
0.0
 11
5.7629030977
 21
6.4194485234
 31
0.0
  0
LINE
  5
CE
330
1F
100
AcDbEntity
  8
0
  6
Continuous
 62
     7
 48
2.0
370
    15
100
AcDbLine
 10
5.7629030977
 20
6.4194485234
 30
0.0
 11
5.7629030977
 21
6.5444484394
 31
0.0
  0
LINE
  5
CF
330
1F
100
AcDbEntity
  8
0
  6
Continuous
 62
     7
 48
2.0
370
    15
100
AcDbLine
 10
5.7629030977
 20
6.5444484394
 30
0.0
 11
5.7014720706
 21
6.5444484394
 31
0.0
  0
ARC
  5
D0
330
1F
100
AcDbEntity
  8
0
  6
Continuous
 62
     7
 48
4.0
370
    15
100
AcDbCircle
 10
5.2629031037
 20
6.4819484131
 30
0.0
 40
0.4430000000000003
100
AcDbArc
 50
8.1105498048
 51
81.8894501952
  0
LINE
  5
D1
330
1F
100
AcDbEntity
  8
0
  6
Continuous
 62
     7
 48
2.0
370
    15
100
AcDbLine
 10
5.3254031029
 20
6.920517375
 30
0.0
 11
5.3254031029
 21
6.981948292
 31
0.0
  0
LINE
  5
D2
330
1F
100
AcDbEntity
  8
0
  6
Continuous
 62
     7
 48
2.0
370
    15
100
AcDbLine
 10
5.3254031029
 20
6.981948292
 30
0.0
 11
5.2004031044
 21
6.981948292
 31
0.0
  0
LINE
  5
D3
330
1F
100
AcDbEntity
  8
0
  6
Continuous
 62
     7
 48
2.0
370
    15
100
AcDbLine
 10
5.2004031044
 20
6.981948292
 30
0.0
 11
5.2004031044
 21
6.920517375
 31
0.0
  0
ARC
  5
D4
330
1F
100
AcDbEntity
  8
0
  6
Continuous
 62
     7
 48
4.0
370
    15
100
AcDbCircle
 10
5.2629031037
 20
6.4819484131
 30
0.0
 40
0.4430000000000003
100
AcDbArc
 50
98.1105498048
 51
171.8894501952
  0
LINE
  5
D5
330
1F
100
AcDbEntity
  8
0
  6
Continuous
 62
     7
 48
2.0
370
    15
100
AcDbLine
 10
4.8243341367
 20
6.5444484394
 30
0.0
 11
4.7629031097
 21
6.5444484394
 31
0.0
  0
LINE
  5
D6
330
1F
100
AcDbEntity
  8
0
  6
Continuous
 62
     7
 48
2.0
370
    15
100
AcDbLine
 10
4.7629031097
 20
6.5444484394
 30
0.0
 11
4.7629031097
 21
6.4194485234
 31
0.0
  0
LINE
  5
D7
330
1F
100
AcDbEntity
  8
0
  6
Continuous
 62
     7
 48
2.0
370
    15
100
AcDbLine
 10
4.7629031097
 20
6.4194485234
 30
0.0
 11
4.8243341367
 21
6.4194485234
 31
0.0
  0
ARC
  5
D8
330
1F
100
AcDbEntity
  8
0
  6
Continuous
 62
     7
 48
4.0
370
    15
100
AcDbCircle
 10
5.2629031037
 20
8.7319484131
 30
0.0
 40
0.4430000000000001
100
AcDbArc
 50
188.1105498048
 51
261.8894501952
  0
LINE
  5
D9
330
1F
100
AcDbEntity
  8
0
  6
Continuous
 62
     7
 48
2.0
370
    15
100
AcDbLine
 10
5.2004031044
 20
8.2933793956
 30
0.0
 11
5.2004031044
 21
8.2319484786
 31
0.0
  0
LINE
  5
DA
330
1F
100
AcDbEntity
  8
0
  6
Continuous
 62
     7
 48
2.0
370
    15
100
AcDbLine
 10
5.2004031044
 20
8.2319484786
 30
0.0
 11
5.3254031029
 21
8.2319484786
 31
0.0
  0
LINE
  5
DB
330
1F
100
AcDbEntity
  8
0
  6
Continuous
 62
     7
 48
2.0
370
    15
100
AcDbLine
 10
5.3254031029
 20
8.2319484786
 30
0.0
 11
5.3254031029
 21
8.2933793956
 31
0.0
  0
ARC
  5
DC
330
1F
100
AcDbEntity
  8
0
  6
Continuous
 62
     7
 48
4.0
370
    15
100
AcDbCircle
 10
5.2629031037
 20
8.7319484131
 30
0.0
 40
0.4430000000000003
100
AcDbArc
 50
278.1105498048
 51
351.8894501952
  0
LINE
  5
DD
330
1F
100
AcDbEntity
  8
0
  6
Continuous
 62
     7
 48
2.0
370
    15
100
AcDbLine
 10
5.7014720706
 20
8.6694484046
 30
0.0
 11
5.7629030977
 21
8.6694484046
 31
0.0
  0
LINE
  5
DE
330
1F
100
AcDbEntity
  8
0
  6
Continuous
 62
     7
 48
2.0
370
    15
100
AcDbLine
 10
5.7629030977
 20
8.6694484046
 30
0.0
 11
5.7629030977
 21
8.7944483939
 31
0.0
  0
LINE
  5
DF
330
1F
100
AcDbEntity
  8
0
  6
Continuous
 62
     7
 48
2.0
370
    15
100
AcDbLine
 10
5.7629030977
 20
8.7944483939
 30
0.0
 11
5.7014720706
 21
8.7944483939
 31
0.0
  0
ARC
  5
E0
330
1F
100
AcDbEntity
  8
0
  6
Continuous
 62
     7
 48
4.0
370
    15
100
AcDbCircle
 10
5.2629031037
 20
8.7319484131
 30
0.0
 40
0.4430000000000003
100
AcDbArc
 50
8.1105498048
 51
81.8894501952
  0
LINE
  5
E1
330
1F
100
AcDbEntity
  8
0
  6
Continuous
 62
     7
 48
2.0
370
    15
100
AcDbLine
 10
5.3254031029
 20
9.1705174028
 30
0.0
 11
5.3254031029
 21
9.2319483932
 31
0.0
  0
LINE
  5
E2
330
1F
100
AcDbEntity
  8
0
  6
Continuous
 62
     7
 48
2.0
370
    15
100
AcDbLine
 10
5.3254031029
 20
9.2319483932
 30
0.0
 11
5.2004031044
 21
9.2319483932
 31
0.0
  0
LINE
  5
E3
330
1F
100
AcDbEntity
  8
0
  6
Continuous
 62
     7
 48
2.0
370
    15
100
AcDbLine
 10
5.2004031044
 20
9.2319483932
 30
0.0
 11
5.2004031044
 21
9.1705174028
 31
0.0
  0
ARC
  5
E4
330
1F
100
AcDbEntity
  8
0
  6
Continuous
 62
     7
 48
4.0
370
    15
100
AcDbCircle
 10
5.2629031037
 20
8.7319484131
 30
0.0
 40
0.4430000000000004
100
AcDbArc
 50
98.1105498048
 51
171.8894501952
  0
LINE
  5
E5
330
1F
100
AcDbEntity
  8
0
  6
Continuous
 62
     7
 48
2.0
370
    15
100
AcDbLine
 10
4.8243341367
 20
8.7944483939
 30
0.0
 11
4.7629031097
 21
8.7944483939
 31
0.0
  0
LINE
  5
E6
330
1F
100
AcDbEntity
  8
0
  6
Continuous
 62
     7
 48
2.0
370
    15
100
AcDbLine
 10
4.7629031097
 20
8.7944483939
 30
0.0
 11
4.7629031097
 21
8.6694484046
 31
0.0
  0
LINE
  5
E7
330
1F
100
AcDbEntity
  8
0
  6
Continuous
 62
     7
 48
2.0
370
    15
100
AcDbLine
 10
4.7629031097
 20
8.6694484046
 30
0.0
 11
4.8243341367
 21
8.6694484046
 31
0.0
  0
ARC
  5
E8
330
1F
100
AcDbEntity
  8
0
  6
Continuous
 62
     7
 48
4.0
370
    15
100
AcDbCircle
 10
6.9199031037
 20
4.6999484131
 30
0.0
 40
0.093
100
AcDbArc
 50
270.0
 51
0.0
  0
LINE
  5
E9
330
1F
100
AcDbEntity
  8
0
  6
Continuous
 62
     7
 48
2.0
370
    15
100
AcDbLine
 10
3.5129031065
 20
15.0139481457
 30
0.0
 11
3.5129031065
 21
4.6999486806
 31
0.0
  0
ARC
  5
EA
330
1F
100
AcDbEntity
  8
0
  6
Continuous
 62
     7
 48
4.0
370
    15
100
AcDbCircle
 10
3.6059031037
 20
4.6999484131
 30
0.0
 40
0.0930000000000009
100
AcDbArc
 50
180.0
 51
270.0
  0
ARC
  5
EB
330
1F
100
AcDbEntity
  8
0
  6
Continuous
 62
     7
 48
4.0
370
    15
100
AcDbCircle
 10
6.9199031037
 20
15.0139484131
 30
0.0
 40
0.0930000000000009
100
AcDbArc
 50
0.0
 51
90.0
  0
LINE
  5
EC
330
1F
100
AcDbEntity
  8
0
  6
Continuous
 62
     7
 48
2.0
370
    15
100
AcDbLine
 10
6.9199031352
 20
15.1069484047
 30
0.0
 11
3.6059030722
 21
15.1069484047
 31
0.0
  0
ARC
  5
ED
330
1F
100
AcDbEntity
  8
0
  6
Continuous
 62
     7
 48
4.0
370
    15
100
AcDbCircle
 10
3.6059031037
 20
15.0139484131
 30
0.0
 40
0.0930000000000017
100
AcDbArc
 50
90.0
 51
180.0
  0
CIRCLE
  5
EE
330
1F
100
AcDbEntity
  8
0
  6
Continuous
 62
     7
 48
4.0
370
    15
100
AcDbCircle
 10
6.5129031037
 20
14.6069484131
 30
0.0
 40
0.2499999999999982
  0
CIRCLE
  5
EF
330
1F
100
AcDbEntity
  8
0
  6
Continuous
 62
     7
 48
4.0
370
    15
100
AcDbCircle
 10
4.0129031037
 20
14.6069484131
 30
0.0
 40
0.2500000000000018
  0
CIRCLE
  5
F0
330
1F
100
AcDbEntity
  8
0
  6
Continuous
 62
     7
 48
4.0
370
    15
100
AcDbCircle
 10
6.5129031037
 20
5.1069484131
 30
0.0
 40
0.25
  0
CIRCLE
  5
F1
330
1F
100
AcDbEntity
  8
0
  6
Continuous
 62
     7
 48
4.0
370
    15
100
AcDbCircle
 10
4.0129031037
 20
5.1069484131
 30
0.0
 40
0.25
  0
LINE
  5
F2
330
1F
100
AcDbEntity
  8
0
  6
Continuous
 62
     7
 48
2.0
370
    15
100
AcDbLine
 10
3.9679723962
 20
14.6857424438
 30
0.0
 11
3.9907413998
 21
14.6179644535
 31
0.0
  0
LINE
  5
F3
330
1F
100
AcDbEntity
  8
0
  6
Continuous
 62
     7
 48
2.0
370
    15
100
AcDbLine
 10
3.9907413998
 20
14.6179644535
 30
0.0
 11
3.9229635561
 21
14.5951955965
 31
0.0
  0
LINE
  5
F4
330
1F
100
AcDbEntity
  8
0
  6
Continuous
 62
     7
 48
2.0
370
    15
100
AcDbLine
 10
3.9229635561
 20
14.5951955965
 30
0.0
 11
3.934109214
 21
14.5620176331
 31
0.0
  0
LINE
  5
F5
330
1F
100
AcDbEntity
  8
0
  6
Continuous
 62
     7
 48
2.0
370
    15
100
AcDbLine
 10
3.934109214
 20
14.5620176331
 30
0.0
 11
4.0018869111
 21
14.5847867834
 31
0.0
  0
LINE
  5
F6
330
1F
100
AcDbEntity
  8
0
  6
Continuous
 62
     7
 48
2.0
370
    15
100
AcDbLine
 10
4.0018869111
 20
14.5847867834
 30
0.0
 11
4.024655768
 21
14.517008793
 31
0.0
  0
LINE
  5
F7
330
1F
100
AcDbEntity
  8
0
  6
Continuous
 62
     7
 48
2.0
370
    15
100
AcDbLine
 10
4.024655768
 20
14.517008793
 30
0.0
 11
4.0578337314
 21
14.528154451
 31
0.0
  0
LINE
  5
F8
330
1F
100
AcDbEntity
  8
0
  6
Continuous
 62
     7
 48
2.0
370
    15
100
AcDbLine
 10
4.0578337314
 20
14.528154451
 30
0.0
 11
4.0350648745
 21
14.595932148
 31
0.0
  0
LINE
  5
F9
330
1F
100
AcDbEntity
  8
0
  6
Continuous
 62
     7
 48
2.0
370
    15
100
AcDbLine
 10
4.0350648745
 20
14.595932148
 30
0.0
 11
4.1028426448
 21
14.6187010049
 31
0.0
  0
LINE
  5
FA
330
1F
100
AcDbEntity
  8
0
  6
Continuous
 62
     7
 48
2.0
370
    15
100
AcDbLine
 10
4.1028426448
 20
14.6187010049
 30
0.0
 11
4.0916970602
 21
14.6518789683
 31
0.0
  0
LINE
  5
FB
330
1F
100
AcDbEntity
  8
0
  6
Continuous
 62
     7
 48
2.0
370
    15
100
AcDbLine
 10
4.0916970602
 20
14.6518789683
 30
0.0
 11
4.0239192165
 21
14.6291101114
 31
0.0
  0
LINE
  5
FC
330
1F
100
AcDbEntity
  8
0
  6
Continuous
 62
     7
 48
2.0
370
    15
100
AcDbLine
 10
4.0011503596
 20
14.6968881017
 30
0.0
 11
3.9679723962
 21
14.6857424438
 31
0.0
  0
LINE
  5
FD
330
1F
100
AcDbEntity
  8
0
  6
Continuous
 62
     7
 48
2.0
370
    15
100
AcDbLine
 10
4.0239192165
 20
14.6291101114
 30
0.0
 11
4.0011503596
 21
14.6968881017
 31
0.0
  0
CIRCLE
  5
FE
330
1F
100
AcDbEntity
  8
0
  6
Continuous
 62
     7
 48
4.0
370
    15
100
AcDbCircle
 10
4.0129031037
 20
14.6069484131
 30
0.0
 40
0.1792913385826785
  0
CIRCLE
  5
FF
330
1F
100
AcDbEntity
  8
0
  6
Continuous
 62
     7
 48
4.0
370
    15
100
AcDbCircle
 10
4.0129031037
 20
14.6069484131
 30
0.0
 40
0.2100000000000005
  0
CIRCLE
  5
100
330
1F
100
AcDbEntity
  8
0
  6
Continuous
 62
     7
 48
4.0
370
    15
100
AcDbCircle
 10
4.0129031037
 20
14.6069484131
 30
0.0
 40
0.2071135629907608
  0
LINE
  5
101
330
1F
100
AcDbEntity
  8
0
  6
Continuous
 62
     7
 48
2.0
370
    15
100
AcDbLine
 10
6.6028426513
 20
14.6187010049
 30
0.0
 11
6.5916969934
 21
14.6518789683
 31
0.0
  0
LINE
  5
102
330
1F
100
AcDbEntity
  8
0
  6
Continuous
 62
     7
 48
2.0
370
    15
100
AcDbLine
 10
6.5916969934
 20
14.6518789683
 30
0.0
 11
6.5239192963
 21
14.6291101114
 31
0.0
  0
LINE
  5
103
330
1F
100
AcDbEntity
  8
0
  6
Continuous
 62
     7
 48
2.0
370
    15
100
AcDbLine
 10
6.5239192963
 20
14.6291101114
 30
0.0
 11
6.5011504394
 21
14.6968881017
 31
0.0
  0
LINE
  5
104
330
1F
100
AcDbEntity
  8
0
  6
Continuous
 62
     7
 48
2.0
370
    15
100
AcDbLine
 10
6.5011504394
 20
14.6968881017
 30
0.0
 11
6.467972476
 21
14.6857424438
 31
0.0
  0
LINE
  5
105
330
1F
100
AcDbEntity
  8
0
  6
Continuous
 62
     7
 48
2.0
370
    15
100
AcDbLine
 10
6.467972476
 20
14.6857424438
 30
0.0
 11
6.4907413329
 21
14.6179644535
 31
0.0
  0
LINE
  5
106
330
1F
100
AcDbEntity
  8
0
  6
Continuous
 62
     7
 48
2.0
370
    15
100
AcDbLine
 10
6.4907413329
 20
14.6179644535
 30
0.0
 11
6.4229635626
 21
14.5951955965
 31
0.0
  0
LINE
  5
107
330
1F
100
AcDbEntity
  8
0
  6
Continuous
 62
     7
 48
2.0
370
    15
100
AcDbLine
 10
6.4229635626
 20
14.5951955965
 30
0.0
 11
6.4341091472
 21
14.5620176331
 31
0.0
  0
LINE
  5
108
330
1F
100
AcDbEntity
  8
0
  6
Continuous
 62
     7
 48
2.0
370
    15
100
AcDbLine
 10
6.4341091472
 20
14.5620176331
 30
0.0
 11
6.5018869908
 21
14.5847867834
 31
0.0
  0
LINE
  5
109
330
1F
100
AcDbEntity
  8
0
  6
Continuous
 62
     7
 48
2.0
370
    15
100
AcDbLine
 10
6.5018869908
 20
14.5847867834
 30
0.0
 11
6.5246558478
 21
14.517008793
 31
0.0
  0
LINE
  5
10A
330
1F
100
AcDbEntity
  8
0
  6
Continuous
 62
     7
 48
2.0
370
    15
100
AcDbLine
 10
6.5246558478
 20
14.517008793
 30
0.0
 11
6.5578338112
 21
14.528154451
 31
0.0
  0
LINE
  5
10B
330
1F
100
AcDbEntity
  8
0
  6
Continuous
 62
     7
 48
2.0
370
    15
100
AcDbLine
 10
6.5578338112
 20
14.528154451
 30
0.0
 11
6.5350648076
 21
14.595932148
 31
0.0
  0
LINE
  5
10C
330
1F
100
AcDbEntity
  8
0
  6
Continuous
 62
     7
 48
2.0
370
    15
100
AcDbLine
 10
6.5350648076
 20
14.595932148
 30
0.0
 11
6.6028426513
 21
14.6187010049
 31
0.0
  0
CIRCLE
  5
10D
330
1F
100
AcDbEntity
  8
0
  6
Continuous
 62
     7
 48
4.0
370
    15
100
AcDbCircle
 10
6.5129031037
 20
14.6069484131
 30
0.0
 40
0.1792913385826768
  0
CIRCLE
  5
10E
330
1F
100
AcDbEntity
  8
0
  6
Continuous
 62
     7
 48
4.0
370
    15
100
AcDbCircle
 10
6.5129031037
 20
14.6069484131
 30
0.0
 40
0.2099999999999986
  0
CIRCLE
  5
10F
330
1F
100
AcDbEntity
  8
0
  6
Continuous
 62
     7
 48
4.0
370
    15
100
AcDbCircle
 10
6.5129031037
 20
14.6069484131
 30
0.0
 40
0.2071135629907577
  0
LINE
  5
110
330
1F
100
AcDbEntity
  8
0
  6
Continuous
 62
     7
 48
2.0
370
    15
100
AcDbLine
 10
6.5229056947
 20
5.129585824
 30
0.0
 11
6.4970950062
 21
5.1962644137
 31
0.0
  0
LINE
  5
111
330
1F
100
AcDbEntity
  8
0
  6
Continuous
 62
     7
 48
2.0
370
    15
100
AcDbLine
 10
6.4970950062
 20
5.1962644137
 30
0.0
 11
6.4644550833
 21
5.183629813
 31
0.0
  0
LINE
  5
112
330
1F
100
AcDbEntity
  8
0
  6
Continuous
 62
     7
 48
2.0
370
    15
100
AcDbLine
 10
6.4644550833
 20
5.183629813
 30
0.0
 11
6.4902658451
 21
5.11695093
 31
0.0
  0
LINE
  5
113
330
1F
100
AcDbEntity
  8
0
  6
Continuous
 62
     7
 48
2.0
370
    15
100
AcDbLine
 10
6.4902658451
 20
5.11695093
 30
0.0
 11
6.4235870354
 21
5.0911402415
 31
0.0
  0
LINE
  5
114
330
1F
100
AcDbEntity
  8
0
  6
Continuous
 62
     7
 48
2.0
370
    15
100
AcDbLine
 10
6.4235870354
 20
5.0911402415
 30
0.0
 11
6.4362217094
 21
5.0585002452
 31
0.0
  0
LINE
  5
115
330
1F
100
AcDbEntity
  8
0
  6
Continuous
 62
     7
 48
2.0
370
    15
100
AcDbLine
 10
6.4362217094
 20
5.0585002452
 30
0.0
 11
6.5029004458
 21
5.084311227
 31
0.0
  0
LINE
  5
116
330
1F
100
AcDbEntity
  8
0
  6
Continuous
 62
     7
 48
2.0
370
    15
100
AcDbLine
 10
6.5287111343
 20
5.017632344
 30
0.0
 11
6.5613511306
 21
5.0302669447
 31
0.0
  0
LINE
  5
117
330
1F
100
AcDbEntity
  8
0
  6
Continuous
 62
     7
 48
2.0
370
    15
100
AcDbLine
 10
6.5613511306
 20
5.0302669447
 30
0.0
 11
6.5355404421
 21
5.0969458277
 31
0.0
  0
LINE
  5
118
330
1F
100
AcDbEntity
  8
0
  6
Continuous
 62
     7
 48
2.0
370
    15
100
AcDbLine
 10
6.5355404421
 20
5.0969458277
 30
0.0
 11
6.6022191785
 21
5.1227565162
 31
0.0
  0
LINE
  5
119
330
1F
100
AcDbEntity
  8
0
  6
Continuous
 62
     7
 48
2.0
370
    15
100
AcDbLine
 10
6.5029004458
 20
5.084311227
 30
0.0
 11
6.5287111343
 21
5.017632344
 31
0.0
  0
LINE
  5
11A
330
1F
100
AcDbEntity
  8
0
  6
Continuous
 62
     7
 48
2.0
370
    15
100
AcDbLine
 10
6.5895845778
 20
5.1553965125
 30
0.0
 11
6.5229056947
 21
5.129585824
 31
0.0
  0
LINE
  5
11B
330
1F
100
AcDbEntity
  8
0
  6
Continuous
 62
     7
 48
2.0
370
    15
100
AcDbLine
 10
6.6022191785
 20
5.1227565162
 30
0.0
 11
6.5895845778
 21
5.1553965125
 31
0.0
  0
CIRCLE
  5
11C
330
1F
100
AcDbEntity
  8
0
  6
Continuous
 62
     7
 48
4.0
370
    15
100
AcDbCircle
 10
6.5129031037
 20
5.1069484131
 30
0.0
 40
0.1792913385826759
  0
CIRCLE
  5
11D
330
1F
100
AcDbEntity
  8
0
  6
Continuous
 62
     7
 48
4.0
370
    15
100
AcDbCircle
 10
6.5129031037
 20
5.1069484131
 30
0.0
 40
0.2099999999999994
  0
CIRCLE
  5
11E
330
1F
100
AcDbEntity
  8
0
  6
Continuous
 62
     7
 48
4.0
370
    15
100
AcDbCircle
 10
6.5129031037
 20
5.1069484131
 30
0.0
 40
0.2071135629907588
  0
LINE
  5
11F
330
1F
100
AcDbEntity
  8
0
  6
Continuous
 62
     7
 48
2.0
370
    15
100
AcDbLine
 10
4.1028426448
 20
5.1187012298
 30
0.0
 11
4.0916970602
 21
5.1518791931
 31
0.0
  0
LINE
  5
120
330
1F
100
AcDbEntity
  8
0
  6
Continuous
 62
     7
 48
2.0
370
    15
100
AcDbLine
 10
4.0916970602
 20
5.1518791931
 30
0.0
 11
4.0239192165
 21
5.1291100428
 31
0.0
  0
LINE
  5
121
330
1F
100
AcDbEntity
  8
0
  6
Continuous
 62
     7
 48
2.0
370
    15
100
AcDbLine
 10
4.0350648745
 20
5.0959323728
 30
0.0
 11
4.1028426448
 21
5.1187012298
 31
0.0
  0
LINE
  5
122
330
1F
100
AcDbEntity
  8
0
  6
Continuous
 62
     7
 48
2.0
370
    15
100
AcDbLine
 10
4.0239192165
 20
5.1291100428
 30
0.0
 11
4.0011503596
 21
5.1968880332
 31
0.0
  0
LINE
  5
123
330
1F
100
AcDbEntity
  8
0
  6
Continuous
 62
     7
 48
2.0
370
    15
100
AcDbLine
 10
4.0011503596
 20
5.1968880332
 30
0.0
 11
3.9679723962
 21
5.1857423753
 31
0.0
  0
LINE
  5
124
330
1F
100
AcDbEntity
  8
0
  6
Continuous
 62
     7
 48
2.0
370
    15
100
AcDbLine
 10
3.9679723962
 20
5.1857423753
 30
0.0
 11
3.9907413998
 21
5.1179646783
 31
0.0
  0
LINE
  5
125
330
1F
100
AcDbEntity
  8
0
  6
Continuous
 62
     7
 48
2.0
370
    15
100
AcDbLine
 10
3.9907413998
 20
5.1179646783
 30
0.0
 11
3.9229635561
 21
5.0951958213
 31
0.0
  0
LINE
  5
126
330
1F
100
AcDbEntity
  8
0
  6
Continuous
 62
     7
 48
2.0
370
    15
100
AcDbLine
 10
3.9229635561
 20
5.0951958213
 30
0.0
 11
3.934109214
 21
5.0620178579
 31
0.0
  0
LINE
  5
127
330
1F
100
AcDbEntity
  8
0
  6
Continuous
 62
     7
 48
2.0
370
    15
100
AcDbLine
 10
3.934109214
 20
5.0620178579
 30
0.0
 11
4.0018869111
 21
5.0847867149
 31
0.0
  0
LINE
  5
128
330
1F
100
AcDbEntity
  8
0
  6
Continuous
 62
     7
 48
2.0
370
    15
100
AcDbLine
 10
4.0018869111
 20
5.0847867149
 30
0.0
 11
4.024655768
 21
5.0170087245
 31
0.0
  0
LINE
  5
129
330
1F
100
AcDbEntity
  8
0
  6
Continuous
 62
     7
 48
2.0
370
    15
100
AcDbLine
 10
4.024655768
 20
5.0170087245
 30
0.0
 11
4.0578337314
 21
5.0281543824
 31
0.0
  0
LINE
  5
12A
330
1F
100
AcDbEntity
  8
0
  6
Continuous
 62
     7
 48
2.0
370
    15
100
AcDbLine
 10
4.0578337314
 20
5.0281543824
 30
0.0
 11
4.0350648745
 21
5.0959323728
 31
0.0
  0
CIRCLE
  5
12B
330
1F
100
AcDbEntity
  8
0
  6
Continuous
 62
     7
 48
4.0
370
    15
100
AcDbCircle
 10
4.0129031037
 20
5.1069484131
 30
0.0
 40
0.1792913385826774
  0
CIRCLE
  5
12C
330
1F
100
AcDbEntity
  8
0
  6
Continuous
 62
     7
 48
4.0
370
    15
100
AcDbCircle
 10
4.0129031037
 20
5.1069484131
 30
0.0
 40
0.2071135629907591
  0
CIRCLE
  5
12D
330
1F
100
AcDbEntity
  8
0
  6
Continuous
 62
     7
 48
4.0
370
    15
100
AcDbCircle
 10
4.0129031037
 20
5.1069484131
 30
0.0
 40
0.2099999999999994
  0
ARC
  5
12E
330
1F
100
AcDbEntity
  8
0
  6
Continuous
 62
     7
 48
4.0
370
    15
100
AcDbCircle
 10
6.4504031037
 20
15.2009484131
 30
0.0
 40
0.1095000000000014
100
AcDbArc
 50
300.8572886398
 51
0.0
  0
ARC
  5
12F
330
1F
100
AcDbEntity
  8
0
  6
Continuous
 62
     7
 48
4.0
370
    15
100
AcDbCircle
 10
6.4504031037
 20
15.2009484131
 30
0.0
 40
0.1095000000000019
100
AcDbArc
 50
180.0
 51
239.1427113602
  0
LINE
  5
130
330
1F
100
AcDbEntity
  8
0
  6
Continuous
 62
     7
 48
2.0
370
    15
100
AcDbLine
 10
6.5599031073
 20
15.2629483092
 30
0.0
 11
6.5599031073
 21
15.2009483321
 31
0.0
  0
ARC
  5
131
330
1F
100
AcDbEntity
  8
0
  6
Continuous
 62
     7
 48
4.0
370
    15
100
AcDbCircle
 10
6.4504031037
 20
15.2629484131
 30
0.0
 40
0.1095000000000006
100
AcDbArc
 50
0.0
 51
180.0
  0
LINE
  5
132
330
1F
100
AcDbEntity
  8
0
  6
Continuous
 62
     7
 48
2.0
370
    15
100
AcDbLine
 10
6.3409031172
 20
15.2009483321
 30
0.0
 11
6.3409031172
 21
15.2629483092
 31
0.0
  0
ARC
  5
133
330
1F
100
AcDbEntity
  8
0
  6
Continuous
 62
     7
 48
4.0
370
    15
100
AcDbCircle
 10
6.5129031037
 20
15.2319484131
 30
0.0
 40
0.25
100
AcDbArc
 50
0.0
 51
90.0
  0
LINE
  5
134
330
1F
100
AcDbEntity
  8
0
  6
Continuous
 62
     7
 48
2.0
370
    15
100
AcDbLine
 10
6.7629031222
 20
15.231948614
 30
0.0
 11
6.7629031222
 21
15.1069484047
 31
0.0
  0
ARC
  5
135
330
1F
100
AcDbEntity
  8
0
  6
Continuous
 62
     7
 48
4.0
370
    15
100
AcDbCircle
 10
4.0754031037
 20
15.2629484131
 30
0.0
 40
0.109500000000001
100
AcDbArc
 50
0.0
 51
180.0
  0
LINE
  5
136
330
1F
100
AcDbEntity
  8
0
  6
Continuous
 62
     7
 48
2.0
370
    15
100
AcDbLine
 10
3.9659031001
 20
15.2629483092
 30
0.0
 11
3.9659031001
 21
15.2009483321
 31
0.0
  0
ARC
  5
137
330
1F
100
AcDbEntity
  8
0
  6
Continuous
 62
     7
 48
4.0
370
    15
100
AcDbCircle
 10
4.0754031037
 20
15.2009484131
 30
0.0
 40
0.109500000000001
100
AcDbArc
 50
180.0
 51
239.1427113602
  0
ARC
  5
138
330
1F
100
AcDbEntity
  8
0
  6
Continuous
 62
     7
 48
4.0
370
    15
100
AcDbCircle
 10
4.0754031037
 20
15.2009484131
 30
0.0
 40
0.1095000000000006
100
AcDbArc
 50
300.8572886398
 51
0.0
  0
LINE
  5
139
330
1F
100
AcDbEntity
  8
0
  6
Continuous
 62
     7
 48
2.0
370
    15
100
AcDbLine
 10
4.1849030902
 20
15.2009483321
 30
0.0
 11
4.1849030902
 21
15.2629483092
 31
0.0
  0
LINE
  5
13A
330
1F
100
AcDbEntity
  8
0
  6
Continuous
 62
     7
 48
2.0
370
    15
100
AcDbLine
 10
6.5129031436
 20
15.481948446
 30
0.0
 11
4.0129030638
 21
15.481948446
 31
0.0
  0
ARC
  5
13B
330
1F
100
AcDbEntity
  8
0
  6
Continuous
 62
     7
 48
4.0
370
    15
100
AcDbCircle
 10
4.0129031037
 20
15.2319484131
 30
0.0
 40
0.2500000000000018
100
AcDbArc
 50
90.0
 51
180.0
  0
LINE
  5
13C
330
1F
100
AcDbEntity
  8
0
  6
Continuous
 62
     7
 48
2.0
370
    15
100
AcDbLine
 10
3.7629030852
 20
15.231948614
 30
0.0
 11
3.7629030852
 21
15.1069484047
 31
0.0
  0
ARC
  5
13D
330
1F
100
AcDbEntity
  8
0
  6
Continuous
 62
     7
 48
4.0
370
    15
100
AcDbCircle
 10
4.0754031037
 20
4.4509484131
 30
0.0
 40
0.109500000000001
100
AcDbArc
 50
180.0
 51
0.0
  0
LINE
  5
13E
330
1F
100
AcDbEntity
  8
0
  6
Continuous
 62
     7
 48
2.0
370
    15
100
AcDbLine
 10
4.1849030902
 20
4.5129484941
 30
0.0
 11
4.1849030902
 21
4.450948517
 31
0.0
  0
ARC
  5
13F
330
1F
100
AcDbEntity
  8
0
  6
Continuous
 62
     7
 48
4.0
370
    15
100
AcDbCircle
 10
4.0129031037
 20
4.4819484131
 30
0.0
 40
0.25
100
AcDbArc
 50
180.0
 51
270.0
  0
ARC
  5
140
330
1F
100
AcDbEntity
  8
0
  6
Continuous
 62
     7
 48
4.0
370
    15
100
AcDbCircle
 10
6.4504031037
 20
4.4509484131
 30
0.0
 40
0.1095000000000006
100
AcDbArc
 50
180.0
 51
0.0
  0
LINE
  5
141
330
1F
100
AcDbEntity
  8
0
  6
Continuous
 62
     7
 48
2.0
370
    15
100
AcDbLine
 10
6.5599031073
 20
4.450948517
 30
0.0
 11
6.5599031073
 21
4.5129484941
 31
0.0
  0
ARC
  5
142
330
1F
100
AcDbEntity
  8
0
  6
Continuous
 62
     7
 48
4.0
370
    15
100
AcDbCircle
 10
6.4504031037
 20
4.5129484131
 30
0.0
 40
0.1095000000000006
100
AcDbArc
 50
0.0
 51
59.1427113602
  0
ARC
  5
143
330
1F
100
AcDbEntity
  8
0
  6
Continuous
 62
     7
 48
4.0
370
    15
100
AcDbCircle
 10
6.4504031037
 20
4.5129484131
 30
0.0
 40
0.1095000000000008
100
AcDbArc
 50
120.8572886398
 51
180.0
  0
LINE
  5
144
330
1F
100
AcDbEntity
  8
0
  6
Continuous
 62
     7
 48
2.0
370
    15
100
AcDbLine
 10
6.3409031172
 20
4.5129484941
 30
0.0
 11
6.3409031172
 21
4.450948517
 31
0.0
  0
LINE
  5
145
330
1F
100
AcDbEntity
  8
0
  6
Continuous
 62
     7
 48
2.0
370
    15
100
AcDbLine
 10
3.7629030852
 20
4.4819482122
 30
0.0
 11
3.7629030852
 21
4.6069484216
 31
0.0
  0
LINE
  5
146
330
1F
100
AcDbEntity
  8
0
  6
Continuous
 62
     7
 48
2.0
370
    15
100
AcDbLine
 10
4.0129030638
 20
4.2319483803
 30
0.0
 11
6.5129031436
 21
4.2319483803
 31
0.0
  0
ARC
  5
147
330
1F
100
AcDbEntity
  8
0
  6
Continuous
 62
     7
 48
4.0
370
    15
100
AcDbCircle
 10
6.5129031037
 20
4.4819484131
 30
0.0
 40
0.2500000000000009
100
AcDbArc
 50
270.0
 51
0.0
  0
LINE
  5
148
330
1F
100
AcDbEntity
  8
0
  6
Continuous
 62
     7
 48
2.0
370
    15
100
AcDbLine
 10
6.7629031222
 20
4.4819482122
 30
0.0
 11
6.7629031222
 21
4.6069484216
 31
0.0
  0
ARC
  5
149
330
1F
100
AcDbEntity
  8
0
  6
Continuous
 62
     7
 48
4.0
370
    15
100
AcDbCircle
 10
4.0754031037
 20
4.5129484131
 30
0.0
 40
0.109500000000001
100
AcDbArc
 50
120.8572886398
 51
180.0
  0
ARC
  5
14A
330
1F
100
AcDbEntity
  8
0
  6
Continuous
 62
     7
 48
4.0
370
    15
100
AcDbCircle
 10
4.0754031037
 20
4.5129484131
 30
0.0
 40
0.1095000000000006
100
AcDbArc
 50
0.0
 51
59.1427113602
  0
LINE
  5
14B
330
1F
100
AcDbEntity
  8
0
  6
Continuous
 62
     7
 48
2.0
370
    15
100
AcDbLine
 10
3.9659031001
 20
4.450948517
 30
0.0
 11
3.9659031001
 21
4.5129484941
 31
0.0
  0
DIMENSION
  5
14C
330
1F
100
AcDbEntity
  8
0
  6
Continuous
 62
     7
 48
2.0
370
     0
100
AcDbDimension
  2
*D6
 10
2.5305499655
 20
10.9819484131
 30
0.0
 11
2.5305499655
 21
12.1069484131
 31
0.0
 70
   160
  1
<> TYP.
 71
     2
 42
-1.0
  3
SLDDIMSTYLE0
100
AcDbAlignedDimension
 13
5.2629031037
 23
13.2319484131
 33
0.0
 14
5.2629031037
 24
10.9819484131
 34
0.0
 50
90.0
100
AcDbRotatedDimension
  0
DIMENSION
  5
15F
330
1F
100
AcDbEntity
  8
0
  6
Continuous
 62
     7
 48
2.0
370
     0
100
AcDbDimension
  2
*D7
 10
5.2004031037
 20
16.0206764674
 30
0.0
 11
6.4697897596
 21
16.0206764674
 31
0.0
 70
   160
 71
     2
 42
-1.0
  3
SLDDIMSTYLE1
100
AcDbAlignedDimension
 13
5.3254031037
 23
13.7319484131
 33
0.0
 14
5.2004031037
 24
13.7319484131
 34
0.0
100
AcDbRotatedDimension
  0
DIMENSION
  5
172
330
1F
100
AcDbEntity
  8
0
  6
Continuous
 62
     7
 48
2.0
370
     0
100
AcDbDimension
  2
*D8
 10
7.677885577
 20
12.7319484131
 30
0.0
 11
7.677885577
 21
13.2319484131
 31
0.0
 70
   160
 71
     2
 42
-1.0
  3
SLDDIMSTYLE2
100
AcDbAlignedDimension
 13
5.3254031037
 23
13.7319484131
 33
0.0
 14
5.3254031037
 24
12.7319484131
 34
0.0
 50
90.0
100
AcDbRotatedDimension
  0
DIMENSION
  5
185
330
1F
100
AcDbEntity
  8
0
  6
Continuous
 62
     7
 48
2.0
370
     0
100
AcDbDimension
  2
*D9
 10
5.6430684858
 20
13.0045208813
 30
0.0
 11
2.414408134
 21
14.3969351496
 31
0.0
 70
   163
  1
<>
 71
     1
 42
-1.0
  3
SLDDIMSTYLE3
100
AcDbDiametricDimension
 15
4.8827377216
 25
13.459375945
 35
0.0
 40
0.0
  0
INSERT
  5
19E
102
{ACAD_REACTORS
330
1A0
102
}
330
1F
100
AcDbEntity
  8
0
  6
Continuous
 62
     7
 48
2.0
370
     0
100
AcDbBlockReference
  2
SW_NOTE_4
 10
2.9398135452
 20
2.9813539045
 30
0.0
  0
LEADER
  5
1A0
330
1F
100
AcDbEntity
  8
0
  6
Continuous
 62
     7
 48
2.0
370
     0
100
AcDbLeader
  3
SLDDIMSTYLE4
 73
     2
 76
     3
 10
3.9085063928
 20
4.9280703689
 30
0.0
 10
2.4398135452
 20
2.9813539045
 30
0.0
 10
2.9398135452
 20
2.9813539045
 30
0.0
340
19E
  0
INSERT
  5
1A8
330
1F
100
AcDbEntity
  8
0
  6
Continuous
 62
     7
 48
2.0
370
     0
100
AcDbBlockReference
  2
SW_CENTERMARKSYMBOL_0
 10
5.2629031037
 20
13.2319484131
 30
0.0
  0
INSERT
  5
1B0
330
1F
100
AcDbEntity
  8
0
  6
Continuous
 62
     7
 48
2.0
370
     0
100
AcDbBlockReference
  2
SW_CENTERMARKSYMBOL_1
 10
5.2629031037
 20
10.9819484131
 30
0.0
  0
ARC
  5
1B1
330
1F
100
AcDbEntity
  8
0
  6
Continuous
 62
     7
 48
4.0
370
    15
100
AcDbCircle
 10
15.8446130637
 20
14.3719484131
 30
0.0
 40
0.0150000000000006
100
AcDbArc
 50
270.0
 51
0.0
  0
ARC
  5
1B2
330
1F
100
AcDbEntity
  8
0
  6
Continuous
 62
     7
 48
4.0
370
    15
100
AcDbCircle
 10
15.8446130637
 20
14.8419484131
 30
0.0
 40
0.0150000000000006
100
AcDbArc
 50
0.0
 51
90.0
  0
ARC
  5
1B3
330
1F
100
AcDbEntity
  8
0
  6
Continuous
 62
     7
 48
4.0
370
    15
100
AcDbCircle
 10
15.8046130637
 20
14.3719484131
 30
0.0
 40
0.0150000000000006
100
AcDbArc
 50
180.0
 51
270.0
  0
ARC
  5
1B4
330
1F
100
AcDbEntity
  8
0
  6
Continuous
 62
     7
 48
4.0
370
    15
100
AcDbCircle
 10
15.8046130637
 20
14.8419484131
 30
0.0
 40
0.0150000000000006
100
AcDbArc
 50
90.0
 51
180.0
  0
LINE
  5
1B5
330
1F
100
AcDbEntity
  8
0
  6
Continuous
 62
     7
 48
2.0
370
    15
100
AcDbLine
 10
15.8446131948
 20
14.8569485727
 30
0.0
 11
15.8046129635
 21
14.8569485727
 31
0.0
  0
LINE
  5
1B6
330
1F
100
AcDbEntity
  8
0
  6
Continuous
 62
     7
 48
2.0
370
    15
100
AcDbLine
 10
15.8046129635
 20
14.3569483221
 30
0.0
 11
15.8446131948
 21
14.3569483221
 31
0.0
  0
ARC
  5
1B7
330
1F
100
AcDbEntity
  8
0
  6
Continuous
 62
     7
 48
4.0
370
    15
100
AcDbCircle
 10
15.8446130637
 20
4.8719484131
 30
0.0
 40
0.0150000000000015
100
AcDbArc
 50
270.0
 51
0.0
  0
ARC
  5
1B8
330
1F
100
AcDbEntity
  8
0
  6
Continuous
 62
     7
 48
4.0
370
    15
100
AcDbCircle
 10
15.8446130637
 20
5.3419484131
 30
0.0
 40
0.0150000000000006
100
AcDbArc
 50
0.0
 51
90.0
  0
ARC
  5
1B9
330
1F
100
AcDbEntity
  8
0
  6
Continuous
 62
     7
 48
4.0
370
    15
100
AcDbCircle
 10
15.8046130637
 20
4.8719484131
 30
0.0
 40
0.0150000000000015
100
AcDbArc
 50
180.0
 51
270.0
  0
ARC
  5
1BA
330
1F
100
AcDbEntity
  8
0
  6
Continuous
 62
     7
 48
4.0
370
    15
100
AcDbCircle
 10
15.8046130637
 20
5.3419484131
 30
0.0
 40
0.0150000000000006
100
AcDbArc
 50
90.0
 51
180.0
  0
LINE
  5
1BB
330
1F
100
AcDbEntity
  8
0
  6
Continuous
 62
     7
 48
2.0
370
    15
100
AcDbLine
 10
15.8446131948
 20
5.3569485042
 30
0.0
 11
15.8046129635
 21
5.3569485042
 31
0.0
  0
LINE
  5
1BC
330
1F
100
AcDbEntity
  8
0
  6
Continuous
 62
     7
 48
2.0
370
    15
100
AcDbLine
 10
15.8046129635
 20
4.8569482536
 30
0.0
 11
15.8446131948
 21
4.8569482536
 31
0.0
  0
LINE
  5
1BD
330
1F
100
AcDbEntity
  8
0
  6
Continuous
 62
     7
 48
2.0
370
    15
100
AcDbLine
 10
15.7896129502
 20
14.8169483414
 30
0.0
 11
15.7566209579
 21
14.8140619748
 31
0.0
  0
LINE
  5
1BE
330
1F
100
AcDbEntity
  8
0
  6
Continuous
 62
     7
 48
2.0
370
    15
100
AcDbLine
 10
15.7566209579
 20
14.39983492
 30
0.0
 11
15.7896129502
 21
14.3969485533
 31
0.0
  0
ARC
  5
1BF
330
1F
100
AcDbEntity
  8
0
  6
Continuous
 62
     7
 48
4.0
370
    15
100
AcDbCircle
 10
15.7523689692
 20
14.506397232
 30
0.0
 40
0.0787401574803166
100
AcDbArc
 50
180.0
 51
270.0
  0
ARC
  5
1C0
330
1F
100
AcDbEntity
  8
0
  6
Continuous
 62
     7
 48
4.0
370
    15
100
AcDbCircle
 10
15.7523689692
 20
14.7074995942
 30
0.0
 40
0.0787401574803148
100
AcDbArc
 50
90.0
 51
180.0
  0
LINE
  5
1C1
330
1F
100
AcDbEntity
  8
0
  6
Continuous
 62
     7
 48
2.0
370
    15
100
AcDbLine
 10
15.7566209579
 20
14.7862396295
 30
0.0
 11
15.7523688471
 21
14.7862396295
 31
0.0
  0
LINE
  5
1C2
330
1F
100
AcDbEntity
  8
0
  6
Continuous
 62
     7
 48
2.0
370
    15
100
AcDbLine
 10
15.7523688471
 20
14.4276569719
 30
0.0
 11
15.7566209579
 21
14.4276569719
 31
0.0
  0
LINE
  5
1C3
330
1F
100
AcDbEntity
  8
0
  6
Continuous
 62
     7
 48
2.0
370
    15
100
AcDbLine
 10
15.7896129502
 20
5.3169482729
 30
0.0
 11
15.7566209579
 21
5.3140619063
 31
0.0
  0
LINE
  5
1C4
330
1F
100
AcDbEntity
  8
0
  6
Continuous
 62
     7
 48
2.0
370
    15
100
AcDbLine
 10
15.7566209579
 20
4.8998348515
 30
0.0
 11
15.7896129502
 21
4.8969484848
 31
0.0
  0
LINE
  5
1C5
330
1F
100
AcDbEntity
  8
0
  6
Continuous
 62
     7
 48
2.0
370
    15
100
AcDbLine
 10
15.7566209579
 20
5.2862398543
 30
0.0
 11
15.7523688471
 21
5.2862398543
 31
0.0
  0
LINE
  5
1C6
330
1F
100
AcDbEntity
  8
0
  6
Continuous
 62
     7
 48
2.0
370
    15
100
AcDbLine
 10
15.7523688471
 20
4.9276571967
 30
0.0
 11
15.7566209579
 21
4.9276571967
 31
0.0
  0
ARC
  5
1C7
330
1F
100
AcDbEntity
  8
0
  6
Continuous
 62
     7
 48
4.0
370
    15
100
AcDbCircle
 10
15.7523689692
 20
5.006397232
 30
0.0
 40
0.0787401574803166
100
AcDbArc
 50
180.0
 51
270.0
  0
ARC
  5
1C8
330
1F
100
AcDbEntity
  8
0
  6
Continuous
 62
     7
 48
4.0
370
    15
100
AcDbCircle
 10
15.7523689692
 20
5.2074995942
 30
0.0
 40
0.0787401574803166
100
AcDbArc
 50
90.0
 51
180.0
  0
LINE
  5
1C9
330
1F
100
AcDbEntity
  8
0
  6
Continuous
 62
     7
 48
2.0
370
    15
100
AcDbLine
 10
16.3596130188
 20
4.6999486806
 30
0.0
 11
16.3596130188
 21
15.0139481457
 31
0.0
  0
LINE
  5
1CA
330
1F
100
AcDbEntity
  8
0
  6
Continuous
 62
     7
 48
2.0
370
    15
100
AcDbLine
 10
15.9526131738
 20
15.1069484047
 30
0.0
 11
16.3596130188
 21
15.1069484047
 31
0.0
  0
LINE
  5
1CB
330
1F
100
AcDbEntity
  8
0
  6
Continuous
 62
     7
 48
2.0
370
    15
100
AcDbLine
 10
16.3596130188
 20
15.1069484047
 30
0.0
 11
16.3596130188
 21
15.0139481457
 31
0.0
  0
ARC
  5
1CC
330
1F
100
AcDbEntity
  8
0
  6
Continuous
 62
     7
 48
4.0
370
    15
100
AcDbCircle
 10
15.9526130637
 20
15.0139484131
 30
0.0
 40
0.093
100
AcDbArc
 50
90.0
 51
180.0
  0
LINE
  5
1CD
330
1F
100
AcDbEntity
  8
0
  6
Continuous
 62
     7
 48
2.0
370
    15
100
AcDbLine
 10
15.8596132082
 20
15.0139481457
 30
0.0
 11
15.8596132082
 21
4.6999486806
 31
0.0
  0
LINE
  5
1CE
330
1F
100
AcDbEntity
  8
0
  6
Continuous
 62
     7
 48
2.0
370
    15
100
AcDbLine
 10
16.3596130188
 20
4.6069484216
 30
0.0
 11
15.9526131738
 21
4.6069484216
 31
0.0
  0
LINE
  5
1CF
330
1F
100
AcDbEntity
  8
0
  6
Continuous
 62
     7
 48
2.0
370
    15
100
AcDbLine
 10
16.3596130188
 20
4.6999486806
 30
0.0
 11
16.3596130188
 21
4.6069484216
 31
0.0
  0
ARC
  5
1D0
330
1F
100
AcDbEntity
  8
0
  6
Continuous
 62
     7
 48
4.0
370
    15
100
AcDbCircle
 10
15.9526130637
 20
4.6999484131
 30
0.0
 40
0.0930000000000017
100
AcDbArc
 50
180.0
 51
270.0
  0
LINE
  5
1D1
330
1F
100
AcDbEntity
  8
0
  6
Continuous
 62
     7
 48
2.0
370
    15
100
AcDbLine
 10
18.6946130613
 20
4.7319486309
 30
0.0
 11
16.3596130188
 21
4.7319486309
 31
0.0
  0
LINE
  5
1D2
330
1F
100
AcDbEntity
  8
0
  6
Continuous
 62
     7
 48
2.0
370
    15
100
AcDbLine
 10
16.3596130188
 20
14.9819481954
 30
0.0
 11
18.6946130613
 21
14.9819481954
 31
0.0
  0
ARC
  5
1D3
330
1F
100
AcDbEntity
  8
0
  6
Continuous
 62
     7
 48
4.0
370
    15
100
AcDbCircle
 10
18.6946130637
 20
4.8249484131
 30
0.0
 40
0.093
100
AcDbArc
 50
270.0
 51
0.0
  0
ARC
  5
1D4
330
1F
100
AcDbEntity
  8
0
  6
Continuous
 62
     7
 48
4.0
370
    15
100
AcDbCircle
 10
18.6946130637
 20
14.8889484131
 30
0.0
 40
0.093
100
AcDbArc
 50
0.0
 51
90.0
  0
LINE
  5
1D5
330
1F
100
AcDbEntity
  8
0
  6
Continuous
 62
     7
 48
2.0
370
    15
100
AcDbLine
 10
18.7876130637
 20
4.8249483032
 30
0.0
 11
18.7876130637
 21
14.888948523
 31
0.0
  0
LINE
  5
1D6
330
1F
100
AcDbEntity
  8
0
  6
Continuous
 62
     7
 48
2.0
370
    15
100
AcDbLine
 10
15.7896129502
 20
14.3719483355
 30
0.0
 11
15.7896129502
 21
14.841948266
 31
0.0
  0
LINE
  5
1D7
330
1F
100
AcDbEntity
  8
0
  6
Continuous
 62
     7
 48
2.0
370
    15
100
AcDbLine
 10
15.7896129502
 20
4.8719485603
 30
0.0
 11
15.7896129502
 21
5.3419484908
 31
0.0
  0
LINE
  5
1D8
330
1F
100
AcDbEntity
  8
0
  6
Continuous
 62
     7
 48
2.0
370
    15
100
AcDbLine
 10
15.7566209579
 20
14.4106168488
 30
0.0
 11
15.7566209579
 21
14.8140619748
 31
0.0
  0
LINE
  5
1D9
330
1F
100
AcDbEntity
  8
0
  6
Continuous
 62
     7
 48
2.0
370
    15
100
AcDbLine
 10
15.7566209579
 20
14.39983492
 30
0.0
 11
15.7566209579
 21
14.4106168488
 31
0.0
  0
LINE
  5
1DA
330
1F
100
AcDbEntity
  8
0
  6
Continuous
 62
     7
 48
2.0
370
    15
100
AcDbLine
 10
15.6736288233
 20
14.5116317618
 30
0.0
 11
15.6736288233
 21
14.7074996058
 31
0.0
  0
LINE
  5
1DB
330
1F
100
AcDbEntity
  8
0
  6
Continuous
 62
     7
 48
2.0
370
    15
100
AcDbLine
 10
15.6736288233
 20
14.506397289
 30
0.0
 11
15.6736288233
 21
14.5116317618
 31
0.0
  0
LINE
  5
1DC
330
1F
100
AcDbEntity
  8
0
  6
Continuous
 62
     7
 48
2.0
370
    15
100
AcDbLine
 10
15.7566209579
 20
4.9138002901
 30
0.0
 11
15.7566209579
 21
5.3140619063
 31
0.0
  0
LINE
  5
1DD
330
1F
100
AcDbEntity
  8
0
  6
Continuous
 62
     7
 48
2.0
370
    15
100
AcDbLine
 10
15.7566209579
 20
4.8998348515
 30
0.0
 11
15.7566209579
 21
4.9138002901
 31
0.0
  0
LINE
  5
1DE
330
1F
100
AcDbEntity
  8
0
  6
Continuous
 62
     7
 48
2.0
370
    15
100
AcDbLine
 10
15.6736288233
 20
5.0131775421
 30
0.0
 11
15.6736288233
 21
5.2074995373
 31
0.0
  0
LINE
  5
1DF
330
1F
100
AcDbEntity
  8
0
  6
Continuous
 62
     7
 48
2.0
370
    15
100
AcDbLine
 10
15.6736288233
 20
5.0063972204
 30
0.0
 11
15.6736288233
 21
5.0131775421
 31
0.0
  0
LINE
  5
1E0
330
1F
100
AcDbEntity
  8
0
  6
Continuous
 62
     7
 48
2.0
370
    15
100
AcDbLine
 10
18.8656130618
 20
15.481948446
 30
0.0
 11
18.7876130637
 21
15.481948446
 31
0.0
  0
LINE
  5
1E1
330
1F
100
AcDbEntity
  8
0
  6
Continuous
 62
     7
 48
2.0
370
    15
100
AcDbLine
 10
18.8656130618
 20
15.481948446
 30
0.0
 11
18.8656130618
 21
15.231948614
 31
0.0
  0
LINE
  5
1E2
330
1F
100
AcDbEntity
  8
0
  6
Continuous
 62
     7
 48
2.0
370
    15
100
AcDbLine
 10
18.7876130637
 20
15.481948446
 30
0.0
 11
18.7876130637
 21
15.231948614
 31
0.0
  0
LINE
  5
1E3
330
1F
100
AcDbEntity
  8
0
  6
Continuous
 62
     7
 48
2.0
370
    15
100
AcDbLine
 10
18.8656130618
 20
15.231948614
 30
0.0
 11
18.8656130618
 21
13.9819482808
 31
0.0
  0
LINE
  5
1E4
330
1F
100
AcDbEntity
  8
0
  6
Continuous
 62
     7
 48
2.0
370
    15
100
AcDbLine
 10
18.7876130637
 20
15.231948614
 30
0.0
 11
18.7876130637
 21
14.888948523
 31
0.0
  0
LINE
  5
1E5
330
1F
100
AcDbEntity
  8
0
  6
Continuous
 62
     7
 48
2.0
370
    15
100
AcDbLine
 10
18.8656130618
 20
13.9819482808
 30
0.0
 11
18.7876130637
 21
13.9819482808
 31
0.0
  0
LINE
  5
1E6
330
1F
100
AcDbEntity
  8
0
  6
Continuous
 62
     7
 48
2.0
370
    15
100
AcDbLine
 10
18.8656130618
 20
5.7319485455
 30
0.0
 11
18.7876130637
 21
5.7319485455
 31
0.0
  0
LINE
  5
1E7
330
1F
100
AcDbEntity
  8
0
  6
Continuous
 62
     7
 48
2.0
370
    15
100
AcDbLine
 10
18.8656130618
 20
4.4819482122
 30
0.0
 11
18.8656130618
 21
5.7319485455
 31
0.0
  0
LINE
  5
1E8
330
1F
100
AcDbEntity
  8
0
  6
Continuous
 62
     7
 48
2.0
370
    15
100
AcDbLine
 10
18.7876130637
 20
4.4819482122
 30
0.0
 11
18.7876130637
 21
4.8249483032
 31
0.0
  0
LINE
  5
1E9
330
1F
100
AcDbEntity
  8
0
  6
Continuous
 62
     7
 48
2.0
370
    15
100
AcDbLine
 10
18.8656130618
 20
4.2319483803
 30
0.0
 11
18.7876130637
 21
4.2319483803
 31
0.0
  0
LINE
  5
1EA
330
1F
100
AcDbEntity
  8
0
  6
Continuous
 62
     7
 48
2.0
370
    15
100
AcDbLine
 10
18.7876130637
 20
4.2319483803
 30
0.0
 11
18.7876130637
 21
4.4819482122
 31
0.0
  0
LINE
  5
1EB
330
1F
100
AcDbEntity
  8
0
  6
Continuous
 62
     7
 48
2.0
370
    15
100
AcDbLine
 10
18.8656130618
 20
4.2319483803
 30
0.0
 11
18.8656130618
 21
4.4819482122
 31
0.0
  0
LINE
  5
1EC
330
1F
100
AcDbEntity
  8
0
  6
HIDDEN
 62
     7
 48
2.0
370
     0
100
AcDbLine
 10
15.9376131604
 20
4.700948349
 30
0.0
 11
16.0376131519
 21
4.700948349
 31
0.0
  0
LINE
  5
1ED
330
1F
100
AcDbEntity
  8
0
  6
HIDDEN
 62
     7
 48
2.0
370
     0
100
AcDbLine
 10
15.9376131604
 20
15.0129484772
 30
0.0
 11
16.0376131519
 21
15.0129484772
 31
0.0
  0
LINE
  5
1EE
330
1F
100
AcDbEntity
  8
0
  6
HIDDEN
 62
     7
 48
2.0
370
     0
100
AcDbLine
 10
16.0376131519
 20
15.0129484772
 30
0.0
 11
16.0376131519
 21
4.700948349
 31
0.0
  0
LINE
  5
1EF
330
1F
100
AcDbEntity
  8
0
  6
HIDDEN
 62
     7
 48
2.0
370
     0
100
AcDbLine
 10
15.9376131604
 20
14.2009484175
 30
0.0
 11
16.0376131519
 21
14.2009484175
 31
0.0
  0
LINE
  5
1F0
330
1F
100
AcDbEntity
  8
0
  6
HIDDEN
 62
     7
 48
2.0
370
     0
100
AcDbLine
 10
15.9376131604
 20
5.5129484087
 30
0.0
 11
16.0376131519
 21
5.5129484087
 31
0.0
  0
LINE
  5
1F1
330
1F
100
AcDbEntity
  8
0
  6
HIDDEN
 62
     7
 48
2.0
370
     0
100
AcDbLine
 10
15.9376131604
 20
14.6379484359
 30
0.0
 11
16.0376131519
 21
14.6379484359
 31
0.0
  0
LINE
  5
1F2
330
1F
100
AcDbEntity
  8
0
  6
HIDDEN
 62
     7
 48
2.0
370
     0
100
AcDbLine
 10
15.9376131604
 20
5.0759483903
 30
0.0
 11
16.0376131519
 21
5.0759483903
 31
0.0
  0
LINE
  5
1F3
330
1F
100
AcDbEntity
  8
0
  6
HIDDEN
 62
     7
 48
2.0
370
     0
100
AcDbLine
 10
15.9526131738
 20
15.0289484524
 30
0.0
 11
16.3596130188
 21
15.0289484524
 31
0.0
  0
ARC
  5
1F4
330
1F
100
AcDbEntity
  8
0
  6
HIDDEN
 62
     7
 48
4.0
370
     0
100
AcDbCircle
 10
15.9526130637
 20
15.0139484131
 30
0.0
 40
0.0150000000000006
100
AcDbArc
 50
90.0
 51
180.0
  0
LINE
  5
1F5
330
1F
100
AcDbEntity
  8
0
  6
HIDDEN
 62
     7
 48
2.0
370
     0
100
AcDbLine
 10
15.9376131604
 20
15.0139481457
 30
0.0
 11
15.9376131604
 21
4.6999486806
 31
0.0
  0
LINE
  5
1F6
330
1F
100
AcDbEntity
  8
0
  6
HIDDEN
 62
     7
 48
2.0
370
     0
100
AcDbLine
 10
16.3596130188
 20
4.6849483738
 30
0.0
 11
15.9526131738
 21
4.6849483738
 31
0.0
  0
ARC
  5
1F7
330
1F
100
AcDbEntity
  8
0
  6
HIDDEN
 62
     7
 48
4.0
370
     0
100
AcDbCircle
 10
15.9526130637
 20
4.6999484131
 30
0.0
 40
0.0150000000000006
100
AcDbArc
 50
180.0
 51
270.0
  0
LINE
  5
1F8
330
1F
100
AcDbEntity
  8
0
  6
HIDDEN
 62
     7
 48
2.0
370
     0
100
AcDbLine
 10
15.9376131604
 20
13.2944483028
 30
0.0
 11
15.8596132082
 21
13.2944483028
 31
0.0
  0
LINE
  5
1F9
330
1F
100
AcDbEntity
  8
0
  6
HIDDEN
 62
     7
 48
2.0
370
     0
100
AcDbLine
 10
15.9376131604
 20
13.1694483868
 30
0.0
 11
15.8596132082
 21
13.1694483868
 31
0.0
  0
LINE
  5
1FA
330
1F
100
AcDbEntity
  8
0
  6
HIDDEN
 62
     7
 48
2.0
370
     0
100
AcDbLine
 10
15.9376131604
 20
11.0444484217
 30
0.0
 11
15.8596132082
 21
11.0444484217
 31
0.0
  0
LINE
  5
1FB
330
1F
100
AcDbEntity
  8
0
  6
HIDDEN
 62
     7
 48
2.0
370
     0
100
AcDbLine
 10
15.9376131604
 20
10.9194484324
 30
0.0
 11
15.8596132082
 21
10.9194484324
 31
0.0
  0
LINE
  5
1FC
330
1F
100
AcDbEntity
  8
0
  6
HIDDEN
 62
     7
 48
2.0
370
     0
100
AcDbLine
 10
15.9376131604
 20
8.7944483939
 30
0.0
 11
15.8596132082
 21
8.7944483939
 31
0.0
  0
LINE
  5
1FD
330
1F
100
AcDbEntity
  8
0
  6
HIDDEN
 62
     7
 48
2.0
370
     0
100
AcDbLine
 10
15.9376131604
 20
8.6694484046
 30
0.0
 11
15.8596132082
 21
8.6694484046
 31
0.0
  0
LINE
  5
1FE
330
1F
100
AcDbEntity
  8
0
  6
HIDDEN
 62
     7
 48
2.0
370
     0
100
AcDbLine
 10
15.9376131604
 20
6.5444484394
 30
0.0
 11
15.8596132082
 21
6.5444484394
 31
0.0
  0
LINE
  5
1FF
330
1F
100
AcDbEntity
  8
0
  6
HIDDEN
 62
     7
 48
2.0
370
     0
100
AcDbLine
 10
15.9376131604
 20
6.4194485234
 30
0.0
 11
15.8596132082
 21
6.4194485234
 31
0.0
  0
LINE
  5
200
330
1F
100
AcDbEntity
  8
0
  6
HIDDEN
 62
     7
 48
2.0
370
     0
100
AcDbLine
 10
15.9376131604
 20
13.6705175318
 30
0.0
 11
15.8596132082
 21
13.6705175318
 31
0.0
  0
LINE
  5
201
330
1F
100
AcDbEntity
  8
0
  6
HIDDEN
 62
     7
 48
2.0
370
     0
100
AcDbLine
 10
15.9376131604
 20
13.7319484488
 30
0.0
 11
15.8596132082
 21
13.7319484488
 31
0.0
  0
LINE
  5
202
330
1F
100
AcDbEntity
  8
0
  6
HIDDEN
 62
     7
 48
2.0
370
     0
100
AcDbLine
 10
15.9376131604
 20
12.7933794512
 30
0.0
 11
15.8596132082
 21
12.7933794512
 31
0.0
  0
LINE
  5
203
330
1F
100
AcDbEntity
  8
0
  6
HIDDEN
 62
     7
 48
2.0
370
     0
100
AcDbLine
 10
15.9376131604
 20
12.7319485342
 30
0.0
 11
15.8596132082
 21
12.7319485342
 31
0.0
  0
LINE
  5
204
330
1F
100
AcDbEntity
  8
0
  6
HIDDEN
 62
     7
 48
2.0
370
     0
100
AcDbLine
 10
15.9376131604
 20
11.4205174306
 30
0.0
 11
15.8596132082
 21
11.4205174306
 31
0.0
  0
LINE
  5
205
330
1F
100
AcDbEntity
  8
0
  6
HIDDEN
 62
     7
 48
2.0
370
     0
100
AcDbLine
 10
15.9376131604
 20
11.4819483477
 30
0.0
 11
15.8596132082
 21
11.4819483477
 31
0.0
  0
LINE
  5
206
330
1F
100
AcDbEntity
  8
0
  6
HIDDEN
 62
     7
 48
2.0
370
     0
100
AcDbLine
 10
15.9376131604
 20
10.5433794234
 30
0.0
 11
15.8596132082
 21
10.5433794234
 31
0.0
  0
LINE
  5
207
330
1F
100
AcDbEntity
  8
0
  6
HIDDEN
 62
     7
 48
2.0
370
     0
100
AcDbLine
 10
15.9376131604
 20
10.4819484331
 30
0.0
 11
15.8596132082
 21
10.4819484331
 31
0.0
  0
LINE
  5
208
330
1F
100
AcDbEntity
  8
0
  6
HIDDEN
 62
     7
 48
2.0
370
     0
100
AcDbLine
 10
15.9376131604
 20
9.1705174028
 30
0.0
 11
15.8596132082
 21
9.1705174028
 31
0.0
  0
LINE
  5
209
330
1F
100
AcDbEntity
  8
0
  6
HIDDEN
 62
     7
 48
2.0
370
     0
100
AcDbLine
 10
15.9376131604
 20
9.2319483932
 30
0.0
 11
15.8596132082
 21
9.2319483932
 31
0.0
  0
LINE
  5
20A
330
1F
100
AcDbEntity
  8
0
  6
HIDDEN
 62
     7
 48
2.0
370
     0
100
AcDbLine
 10
15.9376131604
 20
8.2933793956
 30
0.0
 11
15.8596132082
 21
8.2933793956
 31
0.0
  0
LINE
  5
20B
330
1F
100
AcDbEntity
  8
0
  6
HIDDEN
 62
     7
 48
2.0
370
     0
100
AcDbLine
 10
15.9376131604
 20
8.2319484786
 30
0.0
 11
15.8596132082
 21
8.2319484786
 31
0.0
  0
LINE
  5
20C
330
1F
100
AcDbEntity
  8
0
  6
HIDDEN
 62
     7
 48
2.0
370
     0
100
AcDbLine
 10
15.9376131604
 20
6.920517375
 30
0.0
 11
15.8596132082
 21
6.920517375
 31
0.0
  0
LINE
  5
20D
330
1F
100
AcDbEntity
  8
0
  6
HIDDEN
 62
     7
 48
2.0
370
     0
100
AcDbLine
 10
15.9376131604
 20
6.981948292
 30
0.0
 11
15.8596132082
 21
6.981948292
 31
0.0
  0
LINE
  5
20E
330
1F
100
AcDbEntity
  8
0
  6
HIDDEN
 62
     7
 48
2.0
370
     0
100
AcDbLine
 10
15.9376131604
 20
6.0433792945
 30
0.0
 11
15.8596132082
 21
6.0433792945
 31
0.0
  0
LINE
  5
20F
330
1F
100
AcDbEntity
  8
0
  6
HIDDEN
 62
     7
 48
2.0
370
     0
100
AcDbLine
 10
15.9376131604
 20
5.9819483775
 30
0.0
 11
15.8596132082
 21
5.9819483775
 31
0.0
  0
LINE
  5
210
330
1F
100
AcDbEntity
  8
0
  6
HIDDEN
 62
     7
 48
2.0
370
     0
100
AcDbLine
 10
16.3596130188
 20
4.7319486309
 30
0.0
 11
16.1306131176
 21
4.7319486309
 31
0.0
  0
LINE
  5
211
330
1F
100
AcDbEntity
  8
0
  6
HIDDEN
 62
     7
 48
2.0
370
     0
100
AcDbLine
 10
16.1306131176
 20
14.9819481954
 30
0.0
 11
16.3596130188
 21
14.9819481954
 31
0.0
  0
ARC
  5
212
330
1F
100
AcDbEntity
  8
0
  6
HIDDEN
 62
     7
 48
4.0
370
     0
100
AcDbCircle
 10
16.1306130637
 20
4.8249484131
 30
0.0
 40
0.0930000000000009
100
AcDbArc
 50
180.0
 51
270.0
  0
ARC
  5
213
330
1F
100
AcDbEntity
  8
0
  6
HIDDEN
 62
     7
 48
4.0
370
     0
100
AcDbCircle
 10
16.1306130637
 20
14.8889484131
 30
0.0
 40
0.093
100
AcDbArc
 50
90.0
 51
179.9999999999
  0
LINE
  5
214
330
1F
100
AcDbEntity
  8
0
  6
HIDDEN
 62
     7
 48
2.0
370
     0
100
AcDbLine
 10
18.6946130613
 20
4.8099485832
 30
0.0
 11
16.1306131176
 21
4.8099485832
 31
0.0
  0
LINE
  5
215
330
1F
100
AcDbEntity
  8
0
  6
HIDDEN
 62
     7
 48
2.0
370
     0
100
AcDbLine
 10
16.1306131176
 20
14.9039482431
 30
0.0
 11
18.6946130613
 21
14.9039482431
 31
0.0
  0
ARC
  5
216
330
1F
100
AcDbEntity
  8
0
  6
HIDDEN
 62
     7
 48
4.0
370
     0
100
AcDbCircle
 10
18.6946130637
 20
4.8249484131
 30
0.0
 40
0.0150000000000006
100
AcDbArc
 50
270.0
 51
0.0
  0
LINE
  5
217
330
1F
100
AcDbEntity
  8
0
  6
HIDDEN
 62
     7
 48
2.0
370
     0
100
AcDbLine
 10
18.7096130656
 20
4.8249483032
 30
0.0
 11
18.7096130656
 21
14.888948523
 31
0.0
  0
LINE
  5
218
330
1F
100
AcDbEntity
  8
0
  6
HIDDEN
 62
     7
 48
2.0
370
     0
100
AcDbLine
 10
16.1156131042
 20
4.8099485832
 30
0.0
 11
16.1156131042
 21
4.8249483032
 31
0.0
  0
LINE
  5
219
330
1F
100
AcDbEntity
  8
0
  6
HIDDEN
 62
     7
 48
2.0
370
     0
100
AcDbLine
 10
16.1156131042
 20
14.9039482431
 30
0.0
 11
16.1156131042
 21
14.888948523
 31
0.0
  0
LINE
  5
21A
330
1F
100
AcDbEntity
  8
0
  6
HIDDEN
 62
     7
 48
2.0
370
     0
100
AcDbLine
 10
16.1156131042
 20
14.888948523
 30
0.0
 11
16.1156131042
 21
4.8249483032
 31
0.0
  0
LINE
  5
21B
330
1F
100
AcDbEntity
  8
0
  6
HIDDEN
 62
     7
 48
2.0
370
     0
100
AcDbLine
 10
16.1156131042
 20
14.9039482431
 30
0.0
 11
16.1306131176
 21
14.9039482431
 31
0.0
  0
LINE
  5
21C
330
1F
100
AcDbEntity
  8
0
  6
HIDDEN
 62
     7
 48
2.0
370
     0
100
AcDbLine
 10
16.1156131042
 20
4.8099485832
 30
0.0
 11
16.1306131176
 21
4.8099485832
 31
0.0
  0
ARC
  5
21D
330
1F
100
AcDbEntity
  8
0
  6
HIDDEN
 62
     7
 48
4.0
370
     0
100
AcDbCircle
 10
18.6946130637
 20
14.8889484131
 30
0.0
 40
0.0150000000000023
100
AcDbArc
 50
0.0
 51
90.0
  0
ARC
  5
21E
330
1F
100
AcDbEntity
  8
0
  6
HIDDEN
 62
     7
 48
4.0
370
     0
100
AcDbCircle
 10
16.1306130637
 20
4.8249484131
 30
0.0
 40
0.0150000000000006
100
AcDbArc
 50
180.0
 51
270.0
  0
ARC
  5
21F
330
1F
100
AcDbEntity
  8
0
  6
HIDDEN
 62
     7
 48
4.0
370
     0
100
AcDbCircle
 10
16.1306130637
 20
14.8889484131
 30
0.0
 40
0.0150000000000006
100
AcDbArc
 50
90.0
 51
180.0
  0
LINE
  5
220
330
1F
100
AcDbEntity
  8
0
  6
HIDDEN
 62
     7
 48
2.0
370
     0
100
AcDbLine
 10
16.1156131042
 20
5.4199484431
 30
0.0
 11
16.0376131519
 21
5.4199484431
 31
0.0
  0
LINE
  5
221
330
1F
100
AcDbEntity
  8
0
  6
HIDDEN
 62
     7
 48
2.0
370
     0
100
AcDbLine
 10
16.1156131042
 20
14.2939483832
 30
0.0
 11
16.0376131519
 21
14.2939483832
 31
0.0
  0
LINE
  5
222
330
1F
100
AcDbEntity
  8
0
  6
HIDDEN
 62
     7
 48
2.0
370
     0
100
AcDbLine
 10
16.3377932309
 20
14.5140502672
 30
0.0
 11
16.3377932309
 21
14.7049485153
 31
0.0
  0
LINE
  5
223
330
1F
100
AcDbEntity
  8
0
  6
HIDDEN
 62
     7
 48
2.0
370
     0
100
AcDbLine
 10
16.3377932309
 20
14.5089483795
 30
0.0
 11
16.3377932309
 21
14.5140502672
 31
0.0
  0
LINE
  5
224
330
1F
100
AcDbEntity
  8
0
  6
HIDDEN
 62
     7
 48
2.0
370
     0
100
AcDbLine
 10
16.4195343133
 20
14.542806575
 30
0.0
 11
16.4195343133
 21
14.6710900264
 31
0.0
  0
LINE
  5
225
330
1F
100
AcDbEntity
  8
0
  6
HIDDEN
 62
     7
 48
2.0
370
     0
100
AcDbLine
 10
16.0652034732
 20
14.7049485153
 30
0.0
 11
16.0652034732
 21
14.5089483795
 31
0.0
  0
LINE
  5
226
330
1F
100
AcDbEntity
  8
0
  6
HIDDEN
 62
     7
 48
2.0
370
     0
100
AcDbLine
 10
15.6966129845
 20
14.595932148
 30
0.0
 11
15.6966129845
 21
14.6187010049
 31
0.0
  0
LINE
  5
227
330
1F
100
AcDbEntity
  8
0
  6
HIDDEN
 62
     7
 48
2.0
370
     0
100
AcDbLine
 10
15.6966129845
 20
14.6187010049
 30
0.0
 11
15.6736288233
 21
14.6187010049
 31
0.0
  0
LINE
  5
228
330
1F
100
AcDbEntity
  8
0
  6
HIDDEN
 62
     7
 48
2.0
370
     0
100
AcDbLine
 10
15.6966129845
 20
14.6187010049
 30
0.0
 11
15.6966129845
 21
14.6518789683
 31
0.0
  0
LINE
  5
229
330
1F
100
AcDbEntity
  8
0
  6
HIDDEN
 62
     7
 48
2.0
370
     0
100
AcDbLine
 10
15.6966129845
 20
14.6291101114
 30
0.0
 11
15.6736288233
 21
14.6291101114
 31
0.0
  0
LINE
  5
22A
330
1F
100
AcDbEntity
  8
0
  6
HIDDEN
 62
     7
 48
2.0
370
     0
100
AcDbLine
 10
15.6966129845
 20
14.6518789683
 30
0.0
 11
15.6736288233
 21
14.6518789683
 31
0.0
  0
LINE
  5
22B
330
1F
100
AcDbEntity
  8
0
  6
HIDDEN
 62
     7
 48
2.0
370
     0
100
AcDbLine
 10
15.6966129845
 20
14.595932148
 30
0.0
 11
15.6736288233
 21
14.595932148
 31
0.0
  0
LINE
  5
22C
330
1F
100
AcDbEntity
  8
0
  6
HIDDEN
 62
     7
 48
2.0
370
     0
100
AcDbLine
 10
15.6966129845
 20
14.528154451
 30
0.0
 11
15.6966129845
 21
14.595932148
 31
0.0
  0
LINE
  5
22D
330
1F
100
AcDbEntity
  8
0
  6
HIDDEN
 62
     7
 48
2.0
370
     0
100
AcDbLine
 10
15.6966129845
 20
14.528154451
 30
0.0
 11
15.6736288233
 21
14.528154451
 31
0.0
  0
LINE
  5
22E
330
1F
100
AcDbEntity
  8
0
  6
HIDDEN
 62
     7
 48
2.0
370
     0
100
AcDbLine
 10
15.6966129845
 20
14.517008793
 30
0.0
 11
15.6966129845
 21
14.528154451
 31
0.0
  0
LINE
  5
22F
330
1F
100
AcDbEntity
  8
0
  6
HIDDEN
 62
     7
 48
2.0
370
     0
100
AcDbLine
 10
15.6966129845
 20
14.5847867834
 30
0.0
 11
15.6736288233
 21
14.5847867834
 31
0.0
  0
LINE
  5
230
330
1F
100
AcDbEntity
  8
0
  6
HIDDEN
 62
     7
 48
2.0
370
     0
100
AcDbLine
 10
15.6966129845
 20
14.517008793
 30
0.0
 11
15.6736288233
 21
14.517008793
 31
0.0
  0
LINE
  5
231
330
1F
100
AcDbEntity
  8
0
  6
HIDDEN
 62
     7
 48
2.0
370
     0
100
AcDbLine
 10
15.6966129845
 20
14.6518789683
 30
0.0
 11
15.6966129845
 21
14.6968881017
 31
0.0
  0
LINE
  5
232
330
1F
100
AcDbEntity
  8
0
  6
HIDDEN
 62
     7
 48
2.0
370
     0
100
AcDbLine
 10
15.6966129845
 20
14.6857424438
 30
0.0
 11
15.6736288233
 21
14.6857424438
 31
0.0
  0
LINE
  5
233
330
1F
100
AcDbEntity
  8
0
  6
HIDDEN
 62
     7
 48
2.0
370
     0
100
AcDbLine
 10
15.6966129845
 20
14.6968881017
 30
0.0
 11
15.6736288233
 21
14.6968881017
 31
0.0
  0
LINE
  5
234
330
1F
100
AcDbEntity
  8
0
  6
HIDDEN
 62
     7
 48
2.0
370
     0
100
AcDbLine
 10
15.6966129845
 20
14.6179644535
 30
0.0
 11
15.6736288233
 21
14.6179644535
 31
0.0
  0
LINE
  5
235
330
1F
100
AcDbEntity
  8
0
  6
HIDDEN
 62
     7
 48
2.0
370
     0
100
AcDbLine
 10
15.6966129845
 20
14.5951955965
 30
0.0
 11
15.6736288233
 21
14.5951955965
 31
0.0
  0
LINE
  5
236
330
1F
100
AcDbEntity
  8
0
  6
HIDDEN
 62
     7
 48
2.0
370
     0
100
AcDbLine
 10
15.6966129845
 20
14.5620176331
 30
0.0
 11
15.6736288233
 21
14.5620176331
 31
0.0
  0
LINE
  5
237
330
1F
100
AcDbEntity
  8
0
  6
HIDDEN
 62
     7
 48
2.0
370
     0
100
AcDbLine
 10
16.3377932309
 20
5.015556448
 30
0.0
 11
16.3377932309
 21
5.2049484468
 31
0.0
  0
LINE
  5
238
330
1F
100
AcDbEntity
  8
0
  6
HIDDEN
 62
     7
 48
2.0
370
     0
100
AcDbLine
 10
16.3377932309
 20
5.008948311
 30
0.0
 11
16.3377932309
 21
5.015556448
 31
0.0
  0
LINE
  5
239
330
1F
100
AcDbEntity
  8
0
  6
HIDDEN
 62
     7
 48
2.0
370
     0
100
AcDbLine
 10
16.4195343133
 20
5.0428067998
 30
0.0
 11
16.4195343133
 21
5.1710902512
 31
0.0
  0
LINE
  5
23A
330
1F
100
AcDbEntity
  8
0
  6
HIDDEN
 62
     7
 48
2.0
370
     0
100
AcDbLine
 10
16.0652034732
 20
5.2049484468
 30
0.0
 11
16.0652034732
 21
5.008948311
 31
0.0
  0
LINE
  5
23B
330
1F
100
AcDbEntity
  8
0
  6
HIDDEN
 62
     7
 48
2.0
370
     0
100
AcDbLine
 10
15.6966129845
 20
5.1227565162
 30
0.0
 11
15.6966129845
 21
5.1553965125
 31
0.0
  0
LINE
  5
23C
330
1F
100
AcDbEntity
  8
0
  6
HIDDEN
 62
     7
 48
2.0
370
     0
100
AcDbLine
 10
15.6966129845
 20
5.1227565162
 30
0.0
 11
15.6736288233
 21
5.1227565162
 31
0.0
  0
LINE
  5
23D
330
1F
100
AcDbEntity
  8
0
  6
HIDDEN
 62
     7
 48
2.0
370
     0
100
AcDbLine
 10
15.6966129845
 20
5.0969458277
 30
0.0
 11
15.6966129845
 21
5.1227565162
 31
0.0
  0
LINE
  5
23E
330
1F
100
AcDbEntity
  8
0
  6
HIDDEN
 62
     7
 48
2.0
370
     0
100
AcDbLine
 10
15.6966129845
 20
5.129585824
 30
0.0
 11
15.6736288233
 21
5.129585824
 31
0.0
  0
LINE
  5
23F
330
1F
100
AcDbEntity
  8
0
  6
HIDDEN
 62
     7
 48
2.0
370
     0
100
AcDbLine
 10
15.6966129845
 20
5.1553965125
 30
0.0
 11
15.6736288233
 21
5.1553965125
 31
0.0
  0
LINE
  5
240
330
1F
100
AcDbEntity
  8
0
  6
HIDDEN
 62
     7
 48
2.0
370
     0
100
AcDbLine
 10
15.6966129845
 20
5.017632344
 30
0.0
 11
15.6966129845
 21
5.0302669447
 31
0.0
  0
LINE
  5
241
330
1F
100
AcDbEntity
  8
0
  6
HIDDEN
 62
     7
 48
2.0
370
     0
100
AcDbLine
 10
15.6966129845
 20
5.0302669447
 30
0.0
 11
15.6736288233
 21
5.0302669447
 31
0.0
  0
LINE
  5
242
330
1F
100
AcDbEntity
  8
0
  6
HIDDEN
 62
     7
 48
2.0
370
     0
100
AcDbLine
 10
15.6966129845
 20
5.0969458277
 30
0.0
 11
15.6736288233
 21
5.0969458277
 31
0.0
  0
LINE
  5
243
330
1F
100
AcDbEntity
  8
0
  6
HIDDEN
 62
     7
 48
2.0
370
     0
100
AcDbLine
 10
15.6966129845
 20
5.0302669447
 30
0.0
 11
15.6966129845
 21
5.0969458277
 31
0.0
  0
LINE
  5
244
330
1F
100
AcDbEntity
  8
0
  6
HIDDEN
 62
     7
 48
2.0
370
     0
100
AcDbLine
 10
15.6966129845
 20
5.084311227
 30
0.0
 11
15.6736288233
 21
5.084311227
 31
0.0
  0
LINE
  5
245
330
1F
100
AcDbEntity
  8
0
  6
HIDDEN
 62
     7
 48
2.0
370
     0
100
AcDbLine
 10
15.6966129845
 20
5.017632344
 30
0.0
 11
15.6736288233
 21
5.017632344
 31
0.0
  0
LINE
  5
246
330
1F
100
AcDbEntity
  8
0
  6
HIDDEN
 62
     7
 48
2.0
370
     0
100
AcDbLine
 10
15.6966129845
 20
5.1553965125
 30
0.0
 11
15.6966129845
 21
5.1962644137
 31
0.0
  0
LINE
  5
247
330
1F
100
AcDbEntity
  8
0
  6
HIDDEN
 62
     7
 48
2.0
370
     0
100
AcDbLine
 10
15.6966129845
 20
5.183629813
 30
0.0
 11
15.6736288233
 21
5.183629813
 31
0.0
  0
LINE
  5
248
330
1F
100
AcDbEntity
  8
0
  6
HIDDEN
 62
     7
 48
2.0
370
     0
100
AcDbLine
 10
15.6966129845
 20
5.1962644137
 30
0.0
 11
15.6736288233
 21
5.1962644137
 31
0.0
  0
LINE
  5
249
330
1F
100
AcDbEntity
  8
0
  6
HIDDEN
 62
     7
 48
2.0
370
     0
100
AcDbLine
 10
15.6966129845
 20
5.11695093
 30
0.0
 11
15.6736288233
 21
5.11695093
 31
0.0
  0
LINE
  5
24A
330
1F
100
AcDbEntity
  8
0
  6
HIDDEN
 62
     7
 48
2.0
370
     0
100
AcDbLine
 10
15.6966129845
 20
5.0911402415
 30
0.0
 11
15.6736288233
 21
5.0911402415
 31
0.0
  0
LINE
  5
24B
330
1F
100
AcDbEntity
  8
0
  6
HIDDEN
 62
     7
 48
2.0
370
     0
100
AcDbLine
 10
15.6966129845
 20
5.0585002452
 30
0.0
 11
15.6736288233
 21
5.0585002452
 31
0.0
  0
LINE
  5
24C
330
1F
100
AcDbEntity
  8
0
  6
HIDDEN
 62
     7
 48
2.0
370
     0
100
AcDbLine
 10
15.6966129845
 20
5.1187012298
 30
0.0
 11
15.6736288233
 21
5.1187012298
 31
0.0
  0
LINE
  5
24D
330
1F
100
AcDbEntity
  8
0
  6
HIDDEN
 62
     7
 48
2.0
370
     0
100
AcDbLine
 10
15.6966129845
 20
5.1291100428
 30
0.0
 11
15.6736288233
 21
5.1291100428
 31
0.0
  0
LINE
  5
24E
330
1F
100
AcDbEntity
  8
0
  6
HIDDEN
 62
     7
 48
2.0
370
     0
100
AcDbLine
 10
15.6966129845
 20
5.1518791931
 30
0.0
 11
15.6736288233
 21
5.1518791931
 31
0.0
  0
LINE
  5
24F
330
1F
100
AcDbEntity
  8
0
  6
HIDDEN
 62
     7
 48
2.0
370
     0
100
AcDbLine
 10
15.6966129845
 20
5.0959323728
 30
0.0
 11
15.6736288233
 21
5.0959323728
 31
0.0
  0
LINE
  5
250
330
1F
100
AcDbEntity
  8
0
  6
HIDDEN
 62
     7
 48
2.0
370
     0
100
AcDbLine
 10
15.6966129845
 20
5.0281543824
 30
0.0
 11
15.6736288233
 21
5.0281543824
 31
0.0
  0
LINE
  5
251
330
1F
100
AcDbEntity
  8
0
  6
HIDDEN
 62
     7
 48
2.0
370
     0
100
AcDbLine
 10
15.6966129845
 20
5.0170087245
 30
0.0
 11
15.6966129845
 21
5.017632344
 31
0.0
  0
LINE
  5
252
330
1F
100
AcDbEntity
  8
0
  6
HIDDEN
 62
     7
 48
2.0
370
     0
100
AcDbLine
 10
15.6966129845
 20
5.0847867149
 30
0.0
 11
15.6736288233
 21
5.0847867149
 31
0.0
  0
LINE
  5
253
330
1F
100
AcDbEntity
  8
0
  6
HIDDEN
 62
     7
 48
2.0
370
     0
100
AcDbLine
 10
15.6966129845
 20
5.0170087245
 30
0.0
 11
15.6736288233
 21
5.0170087245
 31
0.0
  0
LINE
  5
254
330
1F
100
AcDbEntity
  8
0
  6
HIDDEN
 62
     7
 48
2.0
370
     0
100
AcDbLine
 10
15.6966129845
 20
5.1962644137
 30
0.0
 11
15.6966129845
 21
5.1968880332
 31
0.0
  0
LINE
  5
255
330
1F
100
AcDbEntity
  8
0
  6
HIDDEN
 62
     7
 48
2.0
370
     0
100
AcDbLine
 10
15.6966129845
 20
5.1857423753
 30
0.0
 11
15.6736288233
 21
5.1857423753
 31
0.0
  0
LINE
  5
256
330
1F
100
AcDbEntity
  8
0
  6
HIDDEN
 62
     7
 48
2.0
370
     0
100
AcDbLine
 10
15.6966129845
 20
5.1968880332
 30
0.0
 11
15.6736288233
 21
5.1968880332
 31
0.0
  0
LINE
  5
257
330
1F
100
AcDbEntity
  8
0
  6
HIDDEN
 62
     7
 48
2.0
370
     0
100
AcDbLine
 10
15.6966129845
 20
5.1179646783
 30
0.0
 11
15.6736288233
 21
5.1179646783
 31
0.0
  0
LINE
  5
258
330
1F
100
AcDbEntity
  8
0
  6
HIDDEN
 62
     7
 48
2.0
370
     0
100
AcDbLine
 10
15.6966129845
 20
5.0951958213
 30
0.0
 11
15.6736288233
 21
5.0951958213
 31
0.0
  0
LINE
  5
259
330
1F
100
AcDbEntity
  8
0
  6
HIDDEN
 62
     7
 48
2.0
370
     0
100
AcDbLine
 10
15.6966129845
 20
5.0620178579
 30
0.0
 11
15.6736288233
 21
5.0620178579
 31
0.0
  0
LINE
  5
25A
330
1F
100
AcDbEntity
  8
0
  6
HIDDEN
 62
     7
 48
2.0
370
     0
100
AcDbLine
 10
18.6111878617
 20
6.1847041952
 30
0.0
 11
18.6111878617
 21
5.7791925597
 31
0.0
  0
LINE
  5
25B
330
1F
100
AcDbEntity
  8
0
  6
HIDDEN
 62
     7
 48
2.0
370
     0
100
AcDbLine
 10
18.2371721257
 20
6.1591137975
 30
0.0
 11
18.2371721257
 21
5.8047829574
 31
0.0
  0
LINE
  5
25C
330
1F
100
AcDbEntity
  8
0
  6
HIDDEN
 62
     7
 48
2.0
370
     0
100
AcDbLine
 10
15.9982429934
 20
14.8037989467
 30
0.0
 11
15.9982429934
 21
14.4100979481
 31
0.0
  0
LINE
  5
25D
330
1F
100
AcDbEntity
  8
0
  6
HIDDEN
 62
     7
 48
2.0
370
     0
100
AcDbLine
 10
16.6281642098
 20
14.7447437089
 30
0.0
 11
16.6281642098
 21
14.4691531859
 31
0.0
  0
LINE
  5
25E
330
1F
100
AcDbEntity
  8
0
  6
HIDDEN
 62
     7
 48
2.0
370
     0
100
AcDbLine
 10
16.1557233342
 20
14.7249483376
 30
0.0
 11
16.1557233342
 21
14.4889485572
 31
0.0
  0
LINE
  5
25F
330
1F
100
AcDbEntity
  8
0
  6
HIDDEN
 62
     7
 48
2.0
370
     0
100
AcDbLine
 10
16.4925982559
 20
14.7053735504
 30
0.0
 11
16.4925982559
 21
14.5085233444
 31
0.0
  0
LINE
  5
260
330
1F
100
AcDbEntity
  8
0
  6
HIDDEN
 62
     7
 48
2.0
370
     0
100
AcDbLine
 10
15.9982429934
 20
5.3037988782
 30
0.0
 11
15.9982429934
 21
4.9100978796
 31
0.0
  0
LINE
  5
261
330
1F
100
AcDbEntity
  8
0
  6
HIDDEN
 62
     7
 48
2.0
370
     0
100
AcDbLine
 10
16.6281642098
 20
5.2447436404
 30
0.0
 11
16.6281642098
 21
4.9691531174
 31
0.0
  0
LINE
  5
262
330
1F
100
AcDbEntity
  8
0
  6
HIDDEN
 62
     7
 48
2.0
370
     0
100
AcDbLine
 10
16.1557233342
 20
5.224948269
 30
0.0
 11
16.1557233342
 21
4.9889484887
 31
0.0
  0
LINE
  5
263
330
1F
100
AcDbEntity
  8
0
  6
HIDDEN
 62
     7
 48
2.0
370
     0
100
AcDbLine
 10
16.4925982559
 20
5.2053734818
 30
0.0
 11
16.4925982559
 21
5.0085232759
 31
0.0
  0
LINE
  5
264
330
1F
100
AcDbEntity
  8
0
  6
HIDDEN
 62
     7
 48
2.0
370
     0
100
AcDbLine
 10
16.0376131519
 20
14.8429485211
 30
0.0
 11
15.9376131604
 21
14.8429485211
 31
0.0
  0
LINE
  5
265
330
1F
100
AcDbEntity
  8
0
  6
HIDDEN
 62
     7
 48
2.0
370
     0
100
AcDbLine
 10
15.9376131604
 20
14.3709483737
 30
0.0
 11
16.0376131519
 21
14.3709483737
 31
0.0
  0
LINE
  5
266
330
1F
100
AcDbEntity
  8
0
  6
HIDDEN
 62
     7
 48
2.0
370
     0
100
AcDbLine
 10
16.0376131519
 20
5.3429484526
 30
0.0
 11
15.9376131604
 21
5.3429484526
 31
0.0
  0
LINE
  5
267
330
1F
100
AcDbEntity
  8
0
  6
HIDDEN
 62
     7
 48
2.0
370
     0
100
AcDbLine
 10
15.9376131604
 20
4.8709483052
 30
0.0
 11
16.0376131519
 21
4.8709483052
 31
0.0
  0
LINE
  5
268
330
1F
100
AcDbEntity
  8
0
  6
HIDDEN
 62
     7
 48
2.0
370
     0
100
AcDbLine
 10
15.9376131604
 20
14.7219484522
 30
0.0
 11
15.8596132082
 21
14.7219484522
 31
0.0
  0
LINE
  5
269
330
1F
100
AcDbEntity
  8
0
  6
HIDDEN
 62
     7
 48
2.0
370
     0
100
AcDbLine
 10
15.8596132082
 20
14.4919484425
 30
0.0
 11
15.9376131604
 21
14.4919484425
 31
0.0
  0
LINE
  5
26A
330
1F
100
AcDbEntity
  8
0
  6
HIDDEN
 62
     7
 48
2.0
370
     0
100
AcDbLine
 10
15.9376131604
 20
5.2219483837
 30
0.0
 11
15.8596132082
 21
5.2219483837
 31
0.0
  0
LINE
  5
26B
330
1F
100
AcDbEntity
  8
0
  6
HIDDEN
 62
     7
 48
2.0
370
     0
100
AcDbLine
 10
15.8596132082
 20
4.991948374
 30
0.0
 11
15.9376131604
 21
4.991948374
 31
0.0
  0
LINE
  5
26C
330
1F
100
AcDbEntity
  8
0
  6
HIDDEN
 62
     7
 48
2.0
370
     0
100
AcDbLine
 10
16.1156131042
 20
14.7444483256
 30
0.0
 11
16.0376131519
 21
14.7444483256
 31
0.0
  0
LINE
  5
26D
330
1F
100
AcDbEntity
  8
0
  6
HIDDEN
 62
     7
 48
2.0
370
     0
100
AcDbLine
 10
16.0376131519
 20
14.4694482758
 30
0.0
 11
16.1156131042
 21
14.4694482758
 31
0.0
  0
LINE
  5
26E
330
1F
100
AcDbEntity
  8
0
  6
HIDDEN
 62
     7
 48
2.0
370
     0
100
AcDbLine
 10
16.1156131042
 20
5.2444485504
 30
0.0
 11
16.0376131519
 21
5.2444485504
 31
0.0
  0
LINE
  5
26F
330
1F
100
AcDbEntity
  8
0
  6
HIDDEN
 62
     7
 48
2.0
370
     0
100
AcDbLine
 10
16.0376131519
 20
4.9694485006
 30
0.0
 11
16.1156131042
 21
4.9694485006
 31
0.0
  0
ARC
  5
270
330
1F
100
AcDbEntity
  8
0
  6
HIDDEN
 62
     7
 48
4.0
370
     0
100
AcDbCircle
 10
15.9686130637
 20
14.7319484131
 30
0.0
 40
0.0310000000000006
100
AcDbArc
 50
0.0
 51
180.0
  0
ARC
  5
271
330
1F
100
AcDbEntity
  8
0
  6
HIDDEN
 62
     7
 48
4.0
370
     0
100
AcDbCircle
 10
15.9686130637
 20
14.7319484131
 30
0.0
 40
0.0310000000000006
100
AcDbArc
 50
180.0
 51
0.0
  0
ARC
  5
272
330
1F
100
AcDbEntity
  8
0
  6
HIDDEN
 62
     7
 48
4.0
370
     0
100
AcDbCircle
 10
15.9686130637
 20
14.4819484131
 30
0.0
 40
0.0310000000000006
100
AcDbArc
 50
180.0
 51
0.0
  0
ARC
  5
273
330
1F
100
AcDbEntity
  8
0
  6
HIDDEN
 62
     7
 48
4.0
370
     0
100
AcDbCircle
 10
15.9686130637
 20
14.4819484131
 30
0.0
 40
0.0310000000000006
100
AcDbArc
 50
0.0
 51
180.0
  0
LINE
  5
274
330
1F
100
AcDbEntity
  8
0
  6
HIDDEN
 62
     7
 48
2.0
370
     0
100
AcDbLine
 10
15.9996131375
 20
14.4819485314
 30
0.0
 11
15.9996131375
 21
14.7319483634
 31
0.0
  0
ARC
  5
275
330
1F
100
AcDbEntity
  8
0
  6
HIDDEN
 62
     7
 48
4.0
370
     0
100
AcDbCircle
 10
15.9686130637
 20
5.2319484131
 30
0.0
 40
0.0310000000000006
100
AcDbArc
 50
0.0
 51
180.0
  0
ARC
  5
276
330
1F
100
AcDbEntity
  8
0
  6
HIDDEN
 62
     7
 48
4.0
370
     0
100
AcDbCircle
 10
15.9686130637
 20
5.2319484131
 30
0.0
 40
0.0310000000000006
100
AcDbArc
 50
180.0
 51
0.0
  0
ARC
  5
277
330
1F
100
AcDbEntity
  8
0
  6
HIDDEN
 62
     7
 48
4.0
370
     0
100
AcDbCircle
 10
15.9686130637
 20
4.9819484131
 30
0.0
 40
0.0310000000000006
100
AcDbArc
 50
180.0
 51
0.0
  0
ARC
  5
278
330
1F
100
AcDbEntity
  8
0
  6
HIDDEN
 62
     7
 48
4.0
370
     0
100
AcDbCircle
 10
15.9686130637
 20
4.9819484131
 30
0.0
 40
0.0310000000000006
100
AcDbArc
 50
0.0
 51
180.0
  0
LINE
  5
279
330
1F
100
AcDbEntity
  8
0
  6
HIDDEN
 62
     7
 48
2.0
370
     0
100
AcDbLine
 10
15.9996131375
 20
4.9819484629
 30
0.0
 11
15.9996131375
 21
5.2319482949
 31
0.0
  0
ARC
  5
27A
330
1F
100
AcDbEntity
  8
0
  6
HIDDEN
 62
     7
 48
4.0
370
     0
100
AcDbCircle
 10
15.8446130637
 20
14.5069484131
 30
0.0
 40
0.0150000000000023
100
AcDbArc
 50
0.0
 51
90.0
  0
ARC
  5
27B
330
1F
100
AcDbEntity
  8
0
  6
HIDDEN
 62
     7
 48
4.0
370
     0
100
AcDbCircle
 10
15.8446130637
 20
14.7069484131
 30
0.0
 40
0.0150000000000006
100
AcDbArc
 50
270.0
 51
0.0
  0
ARC
  5
27C
330
1F
100
AcDbEntity
  8
0
  6
HIDDEN
 62
     7
 48
4.0
370
     0
100
AcDbCircle
 10
15.8046130637
 20
14.5069484131
 30
0.0
 40
0.0150000000000023
100
AcDbArc
 50
90.0
 51
180.0
  0
ARC
  5
27D
330
1F
100
AcDbEntity
  8
0
  6
HIDDEN
 62
     7
 48
4.0
370
     0
100
AcDbCircle
 10
15.8046130637
 20
14.7069484131
 30
0.0
 40
0.0150000000000006
100
AcDbArc
 50
180.0
 51
270.0
  0
LINE
  5
27E
330
1F
100
AcDbEntity
  8
0
  6
HIDDEN
 62
     7
 48
2.0
370
     0
100
AcDbLine
 10
15.8446131948
 20
14.6919484255
 30
0.0
 11
15.8046129635
 21
14.6919484255
 31
0.0
  0
LINE
  5
27F
330
1F
100
AcDbEntity
  8
0
  6
HIDDEN
 62
     7
 48
2.0
370
     0
100
AcDbLine
 10
15.8046129635
 20
14.5219484693
 30
0.0
 11
15.8446131948
 21
14.5219484693
 31
0.0
  0
ARC
  5
280
330
1F
100
AcDbEntity
  8
0
  6
HIDDEN
 62
     7
 48
4.0
370
     0
100
AcDbCircle
 10
15.8446130637
 20
5.0069484131
 30
0.0
 40
0.0150000000000015
100
AcDbArc
 50
0.0
 51
90.0
  0
ARC
  5
281
330
1F
100
AcDbEntity
  8
0
  6
HIDDEN
 62
     7
 48
4.0
370
     0
100
AcDbCircle
 10
15.8446130637
 20
5.2069484131
 30
0.0
 40
0.0150000000000006
100
AcDbArc
 50
270.0
 51
0.0
  0
ARC
  5
282
330
1F
100
AcDbEntity
  8
0
  6
HIDDEN
 62
     7
 48
4.0
370
     0
100
AcDbCircle
 10
15.8046130637
 20
5.0069484131
 30
0.0
 40
0.0150000000000015
100
AcDbArc
 50
90.0
 51
180.0
  0
ARC
  5
283
330
1F
100
AcDbEntity
  8
0
  6
HIDDEN
 62
     7
 48
4.0
370
     0
100
AcDbCircle
 10
15.8046130637
 20
5.2069484131
 30
0.0
 40
0.0149999999999997
100
AcDbArc
 50
180.0
 51
270.0
  0
LINE
  5
284
330
1F
100
AcDbEntity
  8
0
  6
HIDDEN
 62
     7
 48
2.0
370
     0
100
AcDbLine
 10
15.8446131948
 20
5.1919483569
 30
0.0
 11
15.8046129635
 21
5.1919483569
 31
0.0
  0
LINE
  5
285
330
1F
100
AcDbEntity
  8
0
  6
HIDDEN
 62
     7
 48
2.0
370
     0
100
AcDbLine
 10
15.8046129635
 20
5.0219484008
 30
0.0
 11
15.8446131948
 21
5.0219484008
 31
0.0
  0
LINE
  5
286
330
1F
100
AcDbEntity
  8
0
  6
HIDDEN
 62
     7
 48
2.0
370
     0
100
AcDbLine
 10
16.3377932309
 20
14.5089483795
 30
0.0
 11
16.4195343133
 21
14.542806575
 31
0.0
  0
LINE
  5
287
330
1F
100
AcDbEntity
  8
0
  6
HIDDEN
 62
     7
 48
2.0
370
     0
100
AcDbLine
 10
16.4195343133
 20
14.6710900264
 30
0.0
 11
16.3377932309
 21
14.7049485153
 31
0.0
  0
LINE
  5
288
330
1F
100
AcDbEntity
  8
0
  6
HIDDEN
 62
     7
 48
2.0
370
     0
100
AcDbLine
 10
16.0652034732
 20
14.5089483795
 30
0.0
 11
16.3377932309
 21
14.5089483795
 31
0.0
  0
LINE
  5
289
330
1F
100
AcDbEntity
  8
0
  6
HIDDEN
 62
     7
 48
2.0
370
     0
100
AcDbLine
 10
16.3377932309
 20
14.7049485153
 30
0.0
 11
16.0652034732
 21
14.7049485153
 31
0.0
  0
LINE
  5
28A
330
1F
100
AcDbEntity
  8
0
  6
HIDDEN
 62
     7
 48
2.0
370
     0
100
AcDbLine
 10
16.0652034732
 20
14.680964099
 30
0.0
 11
15.7896129502
 21
14.680964099
 31
0.0
  0
LINE
  5
28B
330
1F
100
AcDbEntity
  8
0
  6
HIDDEN
 62
     7
 48
2.0
370
     0
100
AcDbLine
 10
15.7896129502
 20
14.5329327958
 30
0.0
 11
16.0652034732
 21
14.5329327958
 31
0.0
  0
LINE
  5
28C
330
1F
100
AcDbEntity
  8
0
  6
HIDDEN
 62
     7
 48
2.0
370
     0
100
AcDbLine
 10
16.3377932309
 20
5.008948311
 30
0.0
 11
16.4195343133
 21
5.0428067998
 31
0.0
  0
LINE
  5
28D
330
1F
100
AcDbEntity
  8
0
  6
HIDDEN
 62
     7
 48
2.0
370
     0
100
AcDbLine
 10
16.4195343133
 20
5.1710902512
 30
0.0
 11
16.3377932309
 21
5.2049484468
 31
0.0
  0
LINE
  5
28E
330
1F
100
AcDbEntity
  8
0
  6
HIDDEN
 62
     7
 48
2.0
370
     0
100
AcDbLine
 10
16.0652034732
 20
5.008948311
 30
0.0
 11
16.3377932309
 21
5.008948311
 31
0.0
  0
LINE
  5
28F
330
1F
100
AcDbEntity
  8
0
  6
HIDDEN
 62
     7
 48
2.0
370
     0
100
AcDbLine
 10
16.3377932309
 20
5.2049484468
 30
0.0
 11
16.0652034732
 21
5.2049484468
 31
0.0
  0
LINE
  5
290
330
1F
100
AcDbEntity
  8
0
  6
HIDDEN
 62
     7
 48
2.0
370
     0
100
AcDbLine
 10
16.0652034732
 20
5.1809640305
 30
0.0
 11
15.7896129502
 21
5.1809640305
 31
0.0
  0
LINE
  5
291
330
1F
100
AcDbEntity
  8
0
  6
HIDDEN
 62
     7
 48
2.0
370
     0
100
AcDbLine
 10
15.7896129502
 20
5.0329327272
 30
0.0
 11
16.0652034732
 21
5.0329327272
 31
0.0
  0
LINE
  5
292
330
1F
100
AcDbEntity
  8
0
  6
HIDDEN
 62
     7
 48
2.0
370
     0
100
AcDbLine
 10
18.7096130656
 20
6.1847041952
 30
0.0
 11
18.6111878617
 21
6.1847041952
 31
0.0
  0
LINE
  5
293
330
1F
100
AcDbEntity
  8
0
  6
HIDDEN
 62
     7
 48
2.0
370
     0
100
AcDbLine
 10
18.6111878617
 20
5.7791925597
 30
0.0
 11
18.7096130656
 21
5.7791925597
 31
0.0
  0
LINE
  5
294
330
1F
100
AcDbEntity
  8
0
  6
HIDDEN
 62
     7
 48
2.0
370
     0
100
AcDbLine
 10
18.6111878617
 20
6.1591137975
 30
0.0
 11
18.2371721257
 21
6.1591137975
 31
0.0
  0
LINE
  5
295
330
1F
100
AcDbEntity
  8
0
  6
HIDDEN
 62
     7
 48
2.0
370
     0
100
AcDbLine
 10
18.2371721257
 20
5.8047829574
 30
0.0
 11
18.6111878617
 21
5.8047829574
 31
0.0
  0
LINE
  5
296
330
1F
100
AcDbEntity
  8
0
  6
HIDDEN
 62
     7
 48
2.0
370
     0
100
AcDbLine
 10
18.7096130656
 20
6.0803734804
 30
0.0
 11
18.2371721257
 21
6.0803734804
 31
0.0
  0
LINE
  5
297
330
1F
100
AcDbEntity
  8
0
  6
HIDDEN
 62
     7
 48
2.0
370
     0
100
AcDbLine
 10
18.2371721257
 20
5.8835232745
 30
0.0
 11
18.7096130656
 21
5.8835232745
 31
0.0
  0
LINE
  5
298
330
1F
100
AcDbEntity
  8
0
  6
HIDDEN
 62
     7
 48
2.0
370
     0
100
AcDbLine
 10
16.0376131519
 20
14.8037989467
 30
0.0
 11
15.9982429934
 21
14.8037989467
 31
0.0
  0
LINE
  5
299
330
1F
100
AcDbEntity
  8
0
  6
HIDDEN
 62
     7
 48
2.0
370
     0
100
AcDbLine
 10
15.9982429934
 20
14.4100979481
 30
0.0
 11
16.0376131519
 21
14.4100979481
 31
0.0
  0
LINE
  5
29A
330
1F
100
AcDbEntity
  8
0
  6
HIDDEN
 62
     7
 48
2.0
370
     0
100
AcDbLine
 10
16.6281642098
 20
14.7447437089
 30
0.0
 11
16.0376131519
 21
14.7447437089
 31
0.0
  0
LINE
  5
29B
330
1F
100
AcDbEntity
  8
0
  6
HIDDEN
 62
     7
 48
2.0
370
     0
100
AcDbLine
 10
16.0376131519
 20
14.4691531859
 30
0.0
 11
16.6281642098
 21
14.4691531859
 31
0.0
  0
LINE
  5
29C
330
1F
100
AcDbEntity
  8
0
  6
HIDDEN
 62
     7
 48
2.0
370
     0
100
AcDbLine
 10
16.1557233342
 20
14.7249483376
 30
0.0
 11
15.9982429934
 21
14.7249483376
 31
0.0
  0
LINE
  5
29D
330
1F
100
AcDbEntity
  8
0
  6
HIDDEN
 62
     7
 48
2.0
370
     0
100
AcDbLine
 10
15.9982429934
 20
14.4889485572
 30
0.0
 11
16.1557233342
 21
14.4889485572
 31
0.0
  0
LINE
  5
29E
330
1F
100
AcDbEntity
  8
0
  6
HIDDEN
 62
     7
 48
2.0
370
     0
100
AcDbLine
 10
16.4925982559
 20
14.5085233444
 30
0.0
 11
16.5494240394
 21
14.6069484474
 31
0.0
  0
LINE
  5
29F
330
1F
100
AcDbEntity
  8
0
  6
HIDDEN
 62
     7
 48
2.0
370
     0
100
AcDbLine
 10
16.5494240394
 20
14.6069484474
 30
0.0
 11
16.4925982559
 21
14.7053735504
 31
0.0
  0
LINE
  5
2A0
330
1F
100
AcDbEntity
  8
0
  6
HIDDEN
 62
     7
 48
2.0
370
     0
100
AcDbLine
 10
16.4925982559
 20
14.7053735504
 30
0.0
 11
16.1557233342
 21
14.7053735504
 31
0.0
  0
LINE
  5
2A1
330
1F
100
AcDbEntity
  8
0
  6
HIDDEN
 62
     7
 48
2.0
370
     0
100
AcDbLine
 10
16.1557233342
 20
14.5085233444
 30
0.0
 11
16.4925982559
 21
14.5085233444
 31
0.0
  0
LINE
  5
2A2
330
1F
100
AcDbEntity
  8
0
  6
HIDDEN
 62
     7
 48
2.0
370
     0
100
AcDbLine
 10
16.0376131519
 20
5.3037988782
 30
0.0
 11
15.9982429934
 21
5.3037988782
 31
0.0
  0
LINE
  5
2A3
330
1F
100
AcDbEntity
  8
0
  6
HIDDEN
 62
     7
 48
2.0
370
     0
100
AcDbLine
 10
15.9982429934
 20
4.9100978796
 30
0.0
 11
16.0376131519
 21
4.9100978796
 31
0.0
  0
LINE
  5
2A4
330
1F
100
AcDbEntity
  8
0
  6
HIDDEN
 62
     7
 48
2.0
370
     0
100
AcDbLine
 10
16.6281642098
 20
5.2447436404
 30
0.0
 11
16.0376131519
 21
5.2447436404
 31
0.0
  0
LINE
  5
2A5
330
1F
100
AcDbEntity
  8
0
  6
HIDDEN
 62
     7
 48
2.0
370
     0
100
AcDbLine
 10
16.0376131519
 20
4.9691531174
 30
0.0
 11
16.6281642098
 21
4.9691531174
 31
0.0
  0
LINE
  5
2A6
330
1F
100
AcDbEntity
  8
0
  6
HIDDEN
 62
     7
 48
2.0
370
     0
100
AcDbLine
 10
16.1557233342
 20
5.224948269
 30
0.0
 11
15.9982429934
 21
5.224948269
 31
0.0
  0
LINE
  5
2A7
330
1F
100
AcDbEntity
  8
0
  6
HIDDEN
 62
     7
 48
2.0
370
     0
100
AcDbLine
 10
15.9982429934
 20
4.9889484887
 30
0.0
 11
16.1557233342
 21
4.9889484887
 31
0.0
  0
LINE
  5
2A8
330
1F
100
AcDbEntity
  8
0
  6
HIDDEN
 62
     7
 48
2.0
370
     0
100
AcDbLine
 10
16.4925982559
 20
5.2053734818
 30
0.0
 11
16.1557233342
 21
5.2053734818
 31
0.0
  0
LINE
  5
2A9
330
1F
100
AcDbEntity
  8
0
  6
HIDDEN
 62
     7
 48
2.0
370
     0
100
AcDbLine
 10
16.1557233342
 20
5.0085232759
 30
0.0
 11
16.4925982559
 21
5.0085232759
 31
0.0
  0
LINE
  5
2AA
330
1F
100
AcDbEntity
  8
0
  6
HIDDEN
 62
     7
 48
2.0
370
     0
100
AcDbLine
 10
16.4925982559
 20
5.0085232759
 30
0.0
 11
16.5494240394
 21
5.1069483789
 31
0.0
  0
LINE
  5
2AB
330
1F
100
AcDbEntity
  8
0
  6
HIDDEN
 62
     7
 48
2.0
370
     0
100
AcDbLine
 10
16.5494240394
 20
5.1069483789
 30
0.0
 11
16.4925982559
 21
5.2053734818
 31
0.0
  0
LINE
  5
2AC
330
1F
100
AcDbEntity
  8
0
  6
HIDDEN
 62
     7
 48
2.0
370
     0
100
AcDbLine
 10
18.7876130637
 20
15.0914482637
 30
0.0
 11
18.8656130618
 21
15.0914482637
 31
0.0
  0
LINE
  5
2AD
330
1F
100
AcDbEntity
  8
0
  6
HIDDEN
 62
     7
 48
2.0
370
     0
100
AcDbLine
 10
18.8656130618
 20
15.3724483776
 30
0.0
 11
18.7876130637
 21
15.3724483776
 31
0.0
  0
LINE
  5
2AE
330
1F
100
AcDbEntity
  8
0
  6
HIDDEN
 62
     7
 48
2.0
370
     0
100
AcDbLine
 10
18.8656130618
 20
4.6224485625
 30
0.0
 11
18.7876130637
 21
4.6224485625
 31
0.0
  0
LINE
  5
2AF
330
1F
100
AcDbEntity
  8
0
  6
HIDDEN
 62
     7
 48
2.0
370
     0
100
AcDbLine
 10
18.7876130637
 20
4.3414484486
 30
0.0
 11
18.8656130618
 21
4.3414484486
 31
0.0
  0
DIMENSION
  5
2B0
330
1F
100
AcDbEntity
  8
0
  6
Continuous
 62
     7
 48
2.0
370
     0
100
AcDbDimension
  2
*D13
 10
16.0376130637
 20
16.2693499879
 30
0.0
 11
17.4126130637
 21
16.2693499879
 31
0.0
 70
   160
 71
     2
 42
-1.0
  3
SLDDIMSTYLE0
100
AcDbAlignedDimension
 13
18.7876130637
 23
15.4819484131
 33
0.0
 14
16.0376130637
 24
15.0129484131
 34
0.0
100
AcDbRotatedDimension
  0
INSERT
  5
2C8
102
{ACAD_REACTORS
330
2C9
102
}
330
1F
100
AcDbEntity
  8
0
  6
Continuous
 62
     7
 48
2.0
370
     0
100
AcDbBlockReference
  2
SW_NOTE_5
 10
17.3523903458
 20
2.9513802881
 30
0.0
  0
LEADER
  5
2C9
330
1F
100
AcDbEntity
  8
0
  6
Continuous
 62
     7
 48
2.0
370
     0
100
AcDbLeader
  3
SLDDIMSTYLE4
 73
     2
 76
     3
 10
15.994948168
 20
4.6999484131
 30
0.0
 10
16.8523903458
 20
2.9513802881
 30
0.0
 10
17.3523903458
 20
2.9513802881
 30
0.0
340
2C8
  0
LINE
  5
2CA
330
1F
100
AcDbEntity
  8
0
  6
Continuous
 62
     7
 48
2.0
370
    15
100
AcDbLine
 10
25.216212839
 20
15.0129484772
 30
0.0
 11
25.0602127878
 21
15.0129484772
 31
0.0
  0
LINE
  5
2CB
330
1F
100
AcDbEntity
  8
0
  6
Continuous
 62
     7
 48
2.0
370
    15
100
AcDbLine
 10
22.0602127507
 20
15.0129484772
 30
0.0
 11
21.9042126995
 21
15.0129484772
 31
0.0
  0
LINE
  5
2CC
330
1F
100
AcDbEntity
  8
0
  6
Continuous
 62
     7
 48
2.0
370
    15
100
AcDbLine
 10
25.216212839
 20
15.0129484772
 30
0.0
 11
25.216212839
 21
4.700948349
 31
0.0
  0
LINE
  5
2CD
330
1F
100
AcDbEntity
  8
0
  6
Continuous
 62
     7
 48
2.0
370
    15
100
AcDbLine
 10
25.216212839
 20
4.700948349
 30
0.0
 11
25.0602127878
 21
4.700948349
 31
0.0
  0
LINE
  5
2CE
330
1F
100
AcDbEntity
  8
0
  6
Continuous
 62
     7
 48
2.0
370
    15
100
AcDbLine
 10
22.0602127507
 20
4.700948349
 30
0.0
 11
21.9042126995
 21
4.700948349
 31
0.0
  0
LINE
  5
2CF
330
1F
100
AcDbEntity
  8
0
  6
Continuous
 62
     7
 48
2.0
370
    15
100
AcDbLine
 10
21.9042126995
 20
15.0129484772
 30
0.0
 11
21.9042126995
 21
4.700948349
 31
0.0
  0
LINE
  5
2D0
330
1F
100
AcDbEntity
  8
0
  6
Continuous
 62
     7
 48
2.0
370
    15
100
AcDbLine
 10
25.2322128141
 20
15.0139481457
 30
0.0
 11
25.2322128141
 21
15.0289484524
 31
0.0
  0
LINE
  5
2D1
330
1F
100
AcDbEntity
  8
0
  6
Continuous
 62
     7
 48
2.0
370
    15
100
AcDbLine
 10
25.2172128008
 20
15.0289484524
 30
0.0
 11
25.2322128141
 21
15.0289484524
 31
0.0
  0
ARC
  5
2D2
330
1F
100
AcDbEntity
  8
0
  6
Continuous
 62
     7
 48
4.0
370
    15
100
AcDbCircle
 10
25.2172127692
 20
15.0139484131
 30
0.0
 40
0.0930000000000017
100
AcDbArc
 50
0.0
 51
90.0
  0
LINE
  5
2D3
330
1F
100
AcDbEntity
  8
0
  6
Continuous
 62
     7
 48
2.0
370
    15
100
AcDbLine
 10
25.3102127664
 20
15.0139481457
 30
0.0
 11
25.3102127664
 21
4.6999486806
 31
0.0
  0
LINE
  5
2D4
330
1F
100
AcDbEntity
  8
0
  6
Continuous
 62
     7
 48
2.0
370
    15
100
AcDbLine
 10
25.2322128141
 20
15.0139481457
 30
0.0
 11
25.2322128141
 21
4.6999486806
 31
0.0
  0
LINE
  5
2D5
330
1F
100
AcDbEntity
  8
0
  6
Continuous
 62
     7
 48
2.0
370
    15
100
AcDbLine
 10
21.9032127377
 20
15.0289484524
 30
0.0
 11
22.0602127507
 21
15.0289484524
 31
0.0
  0
LINE
  5
2D6
330
1F
100
AcDbEntity
  8
0
  6
Continuous
 62
     7
 48
2.0
370
    15
100
AcDbLine
 10
25.0602127878
 20
15.0289484524
 30
0.0
 11
25.2172128008
 21
15.0289484524
 31
0.0
  0
LINE
  5
2D7
330
1F
100
AcDbEntity
  8
0
  6
Continuous
 62
     7
 48
2.0
370
    15
100
AcDbLine
 10
21.9032127377
 20
15.1069484047
 30
0.0
 11
22.0602127507
 21
15.1069484047
 31
0.0
  0
LINE
  5
2D8
330
1F
100
AcDbEntity
  8
0
  6
Continuous
 62
     7
 48
2.0
370
    15
100
AcDbLine
 10
22.3165501228
 20
15.1069484047
 30
0.0
 11
22.4288754719
 21
15.1069484047
 31
0.0
  0
LINE
  5
2D9
330
1F
100
AcDbEntity
  8
0
  6
Continuous
 62
     7
 48
2.0
370
    15
100
AcDbLine
 10
24.6915500666
 20
15.1069484047
 30
0.0
 11
24.8038754157
 21
15.1069484047
 31
0.0
  0
LINE
  5
2DA
330
1F
100
AcDbEntity
  8
0
  6
Continuous
 62
     7
 48
2.0
370
    15
100
AcDbLine
 10
25.0602127878
 20
15.1069484047
 30
0.0
 11
25.2172128008
 21
15.1069484047
 31
0.0
  0
LINE
  5
2DB
330
1F
100
AcDbEntity
  8
0
  6
Continuous
 62
     7
 48
2.0
370
    15
100
AcDbLine
 10
25.2172128008
 20
4.6849483738
 30
0.0
 11
25.2322128141
 21
4.6849483738
 31
0.0
  0
LINE
  5
2DC
330
1F
100
AcDbEntity
  8
0
  6
Continuous
 62
     7
 48
2.0
370
    15
100
AcDbLine
 10
25.2322128141
 20
4.6999486806
 30
0.0
 11
25.2322128141
 21
4.6849483738
 31
0.0
  0
ARC
  5
2DD
330
1F
100
AcDbEntity
  8
0
  6
Continuous
 62
     7
 48
4.0
370
    15
100
AcDbCircle
 10
25.2172127692
 20
4.6999484131
 30
0.0
 40
0.093
100
AcDbArc
 50
270.0
 51
0.0
  0
LINE
  5
2DE
330
1F
100
AcDbEntity
  8
0
  6
Continuous
 62
     7
 48
2.0
370
    15
100
AcDbLine
 10
21.9032127377
 20
15.0289484524
 30
0.0
 11
21.8882127243
 21
15.0289484524
 31
0.0
  0
LINE
  5
2DF
330
1F
100
AcDbEntity
  8
0
  6
Continuous
 62
     7
 48
2.0
370
    15
100
AcDbLine
 10
21.8882127243
 20
15.0139481457
 30
0.0
 11
21.8882127243
 21
15.0289484524
 31
0.0
  0
ARC
  5
2E0
330
1F
100
AcDbEntity
  8
0
  6
Continuous
 62
     7
 48
4.0
370
    15
100
AcDbCircle
 10
21.9032127692
 20
15.0139484131
 30
0.0
 40
0.093
100
AcDbArc
 50
90.0
 51
180.0
  0
LINE
  5
2E1
330
1F
100
AcDbEntity
  8
0
  6
Continuous
 62
     7
 48
2.0
370
    15
100
AcDbLine
 10
21.810212772
 20
4.6999486806
 30
0.0
 11
21.810212772
 21
15.0139481457
 31
0.0
  0
LINE
  5
2E2
330
1F
100
AcDbEntity
  8
0
  6
Continuous
 62
     7
 48
2.0
370
    15
100
AcDbLine
 10
21.8882127243
 20
4.6999486806
 30
0.0
 11
21.8882127243
 21
15.0139481457
 31
0.0
  0
LINE
  5
2E3
330
1F
100
AcDbEntity
  8
0
  6
Continuous
 62
     7
 48
2.0
370
    15
100
AcDbLine
 10
25.2172128008
 20
4.6069484216
 30
0.0
 11
25.0602127878
 21
4.6069484216
 31
0.0
  0
LINE
  5
2E4
330
1F
100
AcDbEntity
  8
0
  6
Continuous
 62
     7
 48
2.0
370
    15
100
AcDbLine
 10
24.8038754157
 20
4.6069484216
 30
0.0
 11
24.6915500666
 21
4.6069484216
 31
0.0
  0
LINE
  5
2E5
330
1F
100
AcDbEntity
  8
0
  6
Continuous
 62
     7
 48
2.0
370
    15
100
AcDbLine
 10
22.4288754719
 20
4.6069484216
 30
0.0
 11
22.3165501228
 21
4.6069484216
 31
0.0
  0
LINE
  5
2E6
330
1F
100
AcDbEntity
  8
0
  6
Continuous
 62
     7
 48
2.0
370
    15
100
AcDbLine
 10
22.0602127507
 20
4.6069484216
 30
0.0
 11
21.9032127377
 21
4.6069484216
 31
0.0
  0
LINE
  5
2E7
330
1F
100
AcDbEntity
  8
0
  6
Continuous
 62
     7
 48
2.0
370
    15
100
AcDbLine
 10
25.2172128008
 20
4.6849483738
 30
0.0
 11
25.0602127878
 21
4.6849483738
 31
0.0
  0
LINE
  5
2E8
330
1F
100
AcDbEntity
  8
0
  6
Continuous
 62
     7
 48
2.0
370
    15
100
AcDbLine
 10
22.0602127507
 20
4.6849483738
 30
0.0
 11
21.9032127377
 21
4.6849483738
 31
0.0
  0
LINE
  5
2E9
330
1F
100
AcDbEntity
  8
0
  6
Continuous
 62
     7
 48
2.0
370
    15
100
AcDbLine
 10
21.8882127243
 20
4.6999486806
 30
0.0
 11
21.8882127243
 21
4.6849483738
 31
0.0
  0
LINE
  5
2EA
330
1F
100
AcDbEntity
  8
0
  6
Continuous
 62
     7
 48
2.0
370
    15
100
AcDbLine
 10
21.9032127377
 20
4.6849483738
 30
0.0
 11
21.8882127243
 21
4.6849483738
 31
0.0
  0
ARC
  5
2EB
330
1F
100
AcDbEntity
  8
0
  6
Continuous
 62
     7
 48
4.0
370
    15
100
AcDbCircle
 10
21.9032127692
 20
4.6999484131
 30
0.0
 40
0.0930000000000009
100
AcDbArc
 50
180.0
 51
270.0
  0
LWPOLYLINE
  5
2EC
330
1F
100
AcDbEntity
  8
0
  6
Continuous
 62
     7
 48
2.0
370
    15
100
AcDbPolyline
 90
       10
 70
   128
 43
0.0
 10
25.2322128141
 20
15.0289484524
 10
25.2319848968
 20
15.0287202417
 10
25.2313081846
 20
15.0280438229
 10
25.2302032107
 20
15.0269385556
 10
25.2287034147
 20
15.0254390529
 10
25.226854556
 20
15.0235904876
 10
25.2247128075
 20
15.0214485924
 10
25.2223431415
 20
15.0190784864
 10
25.219817424
 20
15.0165529156
 10
25.2172128008
 20
15.0139481457
  0
LWPOLYLINE
  5
2ED
330
1F
100
AcDbEntity
  8
0
  6
Continuous
 62
     7
 48
2.0
370
    15
100
AcDbPolyline
 90
        9
 70
   128
 43
0.0
 10
25.2172128008
 20
4.6999486806
 10
25.2201390603
 20
4.6970218344
 10
25.2229529744
 20
4.6942082135
 10
25.2255463045
 20
4.6916145902
 10
25.2278193182
 20
4.6893418698
 10
25.22968475
 20
4.6874762913
 10
25.2310710273
 20
4.686090014
 10
25.2319246175
 20
4.6852364238
 10
25.2322128141
 20
4.6849483738
  0
LWPOLYLINE
  5
2EE
330
1F
100
AcDbEntity
  8
0
  6
Continuous
 62
     7
 48
2.0
370
    15
100
AcDbPolyline
 90
        9
 70
   128
 43
0.0
 10
21.9032127377
 20
15.0139481457
 10
21.9002864782
 20
15.0168749919
 10
21.897472564
 20
15.0196886127
 10
21.894879234
 20
15.0222822361
 10
21.8926062202
 20
15.0245549565
 10
21.8907407884
 20
15.0264205349
 10
21.8893545111
 20
15.0278068123
 10
21.888500921
 20
15.0286604024
 10
21.8882127243
 20
15.0289484524
  0
LWPOLYLINE
  5
2EF
330
1F
100
AcDbEntity
  8
0
  6
Continuous
 62
     7
 48
2.0
370
    15
100
AcDbPolyline
 90
       10
 70
   128
 43
0.0
 10
21.8882127243
 20
4.6849483738
 10
21.8884406417
 20
4.6851765845
 10
21.8891173539
 20
4.6858530034
 10
21.8902223278
 20
4.6869582706
 10
21.8917221238
 20
4.6884577733
 10
21.8935709824
 20
4.6903063386
 10
21.895712731
 20
4.6924482339
 10
21.898082397
 20
4.6948183398
 10
21.9006081145
 20
4.6973439106
 10
21.9032127377
 20
4.6999486806
  0
ARC
  5
2F0
330
1F
100
AcDbEntity
  8
0
  6
Continuous
 62
     7
 48
4.0
370
    15
100
AcDbCircle
 10
25.0922127692
 20
14.8889484131
 30
0.0
 40
0.093
100
AcDbArc
 50
0.0
 51
90.0
  0
LINE
  5
2F1
330
1F
100
AcDbEntity
  8
0
  6
Continuous
 62
     7
 48
2.0
370
    15
100
AcDbLine
 10
25.1852127038
 20
4.8249483032
 30
0.0
 11
25.1852127038
 21
14.888948523
 31
0.0
  0
ARC
  5
2F2
330
1F
100
AcDbEntity
  8
0
  6
Continuous
 62
     7
 48
4.0
370
    15
100
AcDbCircle
 10
25.0922127692
 20
4.8249484131
 30
0.0
 40
0.093
100
AcDbArc
 50
270.0
 51
0.0
  0
LINE
  5
2F3
330
1F
100
AcDbEntity
  8
0
  6
Continuous
 62
     7
 48
2.0
370
    15
100
AcDbLine
 10
25.0922127381
 20
14.9819481954
 30
0.0
 11
25.0602127878
 21
14.9819481954
 31
0.0
  0
LINE
  5
2F4
330
1F
100
AcDbEntity
  8
0
  6
Continuous
 62
     7
 48
2.0
370
    15
100
AcDbLine
 10
22.0602127507
 20
14.9819481954
 30
0.0
 11
22.0282128004
 21
14.9819481954
 31
0.0
  0
LINE
  5
2F5
330
1F
100
AcDbEntity
  8
0
  6
Continuous
 62
     7
 48
2.0
370
    15
100
AcDbLine
 10
22.0282128004
 20
4.7319486309
 30
0.0
 11
22.0602127507
 21
4.7319486309
 31
0.0
  0
LINE
  5
2F6
330
1F
100
AcDbEntity
  8
0
  6
Continuous
 62
     7
 48
2.0
370
    15
100
AcDbLine
 10
25.0602127878
 20
4.7319486309
 30
0.0
 11
25.0922127381
 21
4.7319486309
 31
0.0
  0
ARC
  5
2F7
330
1F
100
AcDbEntity
  8
0
  6
Continuous
 62
     7
 48
4.0
370
    15
100
AcDbCircle
 10
22.0282127692
 20
14.8889484131
 30
0.0
 40
0.093
100
AcDbArc
 50
90.0
 51
180.0
  0
LINE
  5
2F8
330
1F
100
AcDbEntity
  8
0
  6
Continuous
 62
     7
 48
2.0
370
    15
100
AcDbLine
 10
21.9352128347
 20
14.888948523
 30
0.0
 11
21.9352128347
 21
4.8249483032
 31
0.0
  0
ARC
  5
2F9
330
1F
100
AcDbEntity
  8
0
  6
Continuous
 62
     7
 48
4.0
370
    15
100
AcDbCircle
 10
22.0282127692
 20
4.8249484131
 30
0.0
 40
0.0930000000000035
100
AcDbArc
 50
180.0
 51
270.0
  0
LINE
  5
2FA
330
1F
100
AcDbEntity
  8
0
  6
Continuous
 62
     7
 48
2.0
370
    15
100
AcDbLine
 10
22.4822127557
 20
15.2009483321
 30
0.0
 11
22.4822127557
 21
15.2629483092
 31
0.0
  0
ARC
  5
2FB
330
1F
100
AcDbEntity
  8
0
  6
Continuous
 62
     7
 48
4.0
370
    15
100
AcDbCircle
 10
22.3727127692
 20
15.2629484131
 30
0.0
 40
0.1095000000000006
100
AcDbArc
 50
0.0
 51
180.0
  0
LINE
  5
2FC
330
1F
100
AcDbEntity
  8
0
  6
Continuous
 62
     7
 48
2.0
370
    15
100
AcDbLine
 10
22.2632127656
 20
15.2629483092
 30
0.0
 11
22.2632127656
 21
15.2009483321
 31
0.0
  0
ARC
  5
2FD
330
1F
100
AcDbEntity
  8
0
  6
Continuous
 62
     7
 48
4.0
370
    15
100
AcDbCircle
 10
22.3727127692
 20
15.2009484131
 30
0.0
 40
0.1095000000000006
100
AcDbArc
 50
180.0
 51
0.0
  0
ARC
  5
2FE
330
1F
100
AcDbEntity
  8
0
  6
Continuous
 62
     7
 48
4.0
370
    15
100
AcDbCircle
 10
24.8102127692
 20
15.2319484131
 30
0.0
 40
0.2500000000000018
100
AcDbArc
 50
0.0
 51
90.0
  0
LINE
  5
2FF
330
1F
100
AcDbEntity
  8
0
  6
Continuous
 62
     7
 48
2.0
370
    15
100
AcDbLine
 10
25.0602127878
 20
15.231948614
 30
0.0
 11
25.0602127878
 21
13.9819482808
 31
0.0
  0
LINE
  5
300
330
1F
100
AcDbEntity
  8
0
  6
Continuous
 62
     7
 48
2.0
370
    15
100
AcDbLine
 10
25.0602127878
 20
13.9819482808
 30
0.0
 11
22.0602127507
 21
13.9819482808
 31
0.0
  0
LINE
  5
301
330
1F
100
AcDbEntity
  8
0
  6
Continuous
 62
     7
 48
2.0
370
    15
100
AcDbLine
 10
22.0602127507
 20
15.231948614
 30
0.0
 11
22.0602127507
 21
13.9819482808
 31
0.0
  0
ARC
  5
302
330
1F
100
AcDbEntity
  8
0
  6
Continuous
 62
     7
 48
4.0
370
    15
100
AcDbCircle
 10
22.3102127692
 20
15.2319484131
 30
0.0
 40
0.25
100
AcDbArc
 50
90.0
 51
180.0
  0
LINE
  5
303
330
1F
100
AcDbEntity
  8
0
  6
Continuous
 62
     7
 48
2.0
370
    15
100
AcDbLine
 10
22.3102127293
 20
15.481948446
 30
0.0
 11
24.8102128091
 21
15.481948446
 31
0.0
  0
LINE
  5
304
330
1F
100
AcDbEntity
  8
0
  6
Continuous
 62
     7
 48
2.0
370
    15
100
AcDbLine
 10
24.8572127728
 20
15.2629483092
 30
0.0
 11
24.8572127728
 21
15.2009483321
 31
0.0
  0
ARC
  5
305
330
1F
100
AcDbEntity
  8
0
  6
Continuous
 62
     7
 48
4.0
370
    15
100
AcDbCircle
 10
24.7477127692
 20
15.2629484131
 30
0.0
 40
0.1095000000000041
100
AcDbArc
 50
0.0
 51
180.0
  0
LINE
  5
306
330
1F
100
AcDbEntity
  8
0
  6
Continuous
 62
     7
 48
2.0
370
    15
100
AcDbLine
 10
24.6382127828
 20
15.2009483321
 30
0.0
 11
24.6382127828
 21
15.2629483092
 31
0.0
  0
ARC
  5
307
330
1F
100
AcDbEntity
  8
0
  6
Continuous
 62
     7
 48
4.0
370
    15
100
AcDbCircle
 10
24.7477127692
 20
15.2009484131
 30
0.0
 40
0.1095000000000041
100
AcDbArc
 50
180.0
 51
0.0
  0
LINE
  5
308
330
1F
100
AcDbEntity
  8
0
  6
Continuous
 62
     7
 48
2.0
370
    15
100
AcDbLine
 10
24.6382127828
 20
4.5129484941
 30
0.0
 11
24.6382127828
 21
4.450948517
 31
0.0
  0
ARC
  5
309
330
1F
100
AcDbEntity
  8
0
  6
Continuous
 62
     7
 48
4.0
370
    15
100
AcDbCircle
 10
24.7477127692
 20
4.4509484131
 30
0.0
 40
0.1095000000000041
100
AcDbArc
 50
180.0
 51
0.0
  0
LINE
  5
30A
330
1F
100
AcDbEntity
  8
0
  6
Continuous
 62
     7
 48
2.0
370
    15
100
AcDbLine
 10
24.8572127728
 20
4.450948517
 30
0.0
 11
24.8572127728
 21
4.5129484941
 31
0.0
  0
ARC
  5
30B
330
1F
100
AcDbEntity
  8
0
  6
Continuous
 62
     7
 48
4.0
370
    15
100
AcDbCircle
 10
24.7477127692
 20
4.5129484131
 30
0.0
 40
0.1095000000000041
100
AcDbArc
 50
0.0
 51
180.0
  0
ARC
  5
30C
330
1F
100
AcDbEntity
  8
0
  6
Continuous
 62
     7
 48
4.0
370
    15
100
AcDbCircle
 10
22.3102127692
 20
4.4819484131
 30
0.0
 40
0.2500000000000036
100
AcDbArc
 50
180.0
 51
270.0
  0
LINE
  5
30D
330
1F
100
AcDbEntity
  8
0
  6
Continuous
 62
     7
 48
2.0
370
    15
100
AcDbLine
 10
22.0602127507
 20
4.4819482122
 30
0.0
 11
22.0602127507
 21
5.7319485455
 31
0.0
  0
LINE
  5
30E
330
1F
100
AcDbEntity
  8
0
  6
Continuous
 62
     7
 48
2.0
370
    15
100
AcDbLine
 10
22.0602127507
 20
5.7319485455
 30
0.0
 11
25.0602127878
 21
5.7319485455
 31
0.0
  0
LINE
  5
30F
330
1F
100
AcDbEntity
  8
0
  6
Continuous
 62
     7
 48
2.0
370
    15
100
AcDbLine
 10
25.0602127878
 20
4.4819482122
 30
0.0
 11
25.0602127878
 21
5.7319485455
 31
0.0
  0
ARC
  5
310
330
1F
100
AcDbEntity
  8
0
  6
Continuous
 62
     7
 48
4.0
370
    15
100
AcDbCircle
 10
24.8102127692
 20
4.4819484131
 30
0.0
 40
0.25
100
AcDbArc
 50
270.0
 51
0.0
  0
LINE
  5
311
330
1F
100
AcDbEntity
  8
0
  6
Continuous
 62
     7
 48
2.0
370
    15
100
AcDbLine
 10
24.8102128091
 20
4.2319483803
 30
0.0
 11
22.3102127293
 21
4.2319483803
 31
0.0
  0
LINE
  5
312
330
1F
100
AcDbEntity
  8
0
  6
Continuous
 62
     7
 48
2.0
370
    15
100
AcDbLine
 10
22.2632127656
 20
4.450948517
 30
0.0
 11
22.2632127656
 21
4.5129484941
 31
0.0
  0
ARC
  5
313
330
1F
100
AcDbEntity
  8
0
  6
Continuous
 62
     7
 48
4.0
370
    15
100
AcDbCircle
 10
22.3727127692
 20
4.4509484131
 30
0.0
 40
0.1095000000000006
100
AcDbArc
 50
180.0
 51
0.0
  0
LINE
  5
314
330
1F
100
AcDbEntity
  8
0
  6
Continuous
 62
     7
 48
2.0
370
    15
100
AcDbLine
 10
22.4822127557
 20
4.5129484941
 30
0.0
 11
22.4822127557
 21
4.450948517
 31
0.0
  0
ARC
  5
315
330
1F
100
AcDbEntity
  8
0
  6
Continuous
 62
     7
 48
4.0
370
    15
100
AcDbCircle
 10
22.3727127692
 20
4.5129484131
 30
0.0
 40
0.1095000000000006
100
AcDbArc
 50
0.0
 51
180.0
  0
DIMENSION
  5
316
330
1F
100
AcDbEntity
  8
0
  6
Continuous
 62
     7
 48
2.0
370
     0
100
AcDbDimension
  2
*D15
 10
24.7477127692
 20
3.5094975485
 30
0.0
 11
23.6104269474
 21
3.5094975485
 31
0.0
 70
   160
 71
     2
 42
-1.0
  3
SLDDIMSTYLE0
100
AcDbAlignedDimension
 13
22.3727127692
 23
4.4509484131
 33
0.0
 14
24.7477127692
 24
4.4509484131
 34
0.0
100
AcDbRotatedDimension
  0
DIMENSION
  5
328
330
1F
100
AcDbEntity
  8
0
  6
Continuous
 62
     7
 48
2.0
370
     0
100
AcDbDimension
  2
*D16
 10
21.0228111944
 20
4.2319484131
 30
0.0
 11
21.0228111944
 21
9.8569484131
 31
0.0
 70
   160
 71
     2
 42
-1.0
  3
SLDDIMSTYLE0
100
AcDbAlignedDimension
 13
22.3102127692
 23
15.4819484131
 33
0.0
 14
22.3102127692
 24
4.2319484131
 34
0.0
 50
90.0
100
AcDbRotatedDimension
  0
DIMENSION
  5
33A
330
1F
100
AcDbEntity
  8
0
  6
Continuous
 62
     7
 48
2.0
370
     0
100
AcDbDimension
  2
*D17
 10
25.0602127692
 20
16.2693499879
 30
0.0
 11
23.5602127692
 21
16.2693499879
 31
0.0
 70
   160
 71
     2
 42
-1.0
  3
SLDDIMSTYLE5
100
AcDbAlignedDimension
 13
22.0602127692
 23
15.2319484131
 33
0.0
 14
25.0602127692
 24
15.2319484131
 34
0.0
100
AcDbRotatedDimension
  0
MTEXT
  5
34D
330
1F
100
AcDbEntity
  8
0
  6
Continuous
 62
     7
 48
2.0
370
     0
100
AcDbMText
 10
25.9324686897
 20
3.5467470755
 30
0.0
 40
0.25
 41
0.0
 71
     1
 72
     1
  1
.22 [5.6] x .28 [7.1] OBLONG
  7
SLDTEXTSTYLE0
 73
     1
 44
1.0
  0
LEADER
  5
34E
330
1F
100
AcDbEntity
  8
0
  6
Continuous
 62
     7
 48
2.0
370
     0
100
AcDbLeader
  3
SLDDIMSTYLE4
 76
     3
 10
24.8303632316
 20
4.3791211825
 30
0.0
 10
25.3930305278
 20
3.4254366945
 30
0.0
 10
25.8930305278
 20
3.4254366945
 30
0.0
  0
ARC
  5
34F
330
1F
100
AcDbEntity
  8
0
  6
Continuous
 62
     7
 48
4.0
370
    15
100
AcDbCircle
 10
27.9424455128
 20
18.5354289748
 30
0.0
 40
0.0930000000000012
100
AcDbArc
 50
119.4125210371
 51
179.8131694679
  0
LINE
  5
350
330
1F
100
AcDbEntity
  8
0
  6
Continuous
 62
     7
 48
2.0
370
    15
100
AcDbLine
 10
27.8494459427
 20
18.5357319752
 30
0.0
 11
27.8218603395
 21
10.0760170647
 31
0.0
  0
LINE
  5
351
330
1F
100
AcDbEntity
  8
0
  6
Continuous
 62
     7
 48
2.0
370
    15
100
AcDbLine
 10
28.1861031175
 20
18.7795537238
 30
0.0
 11
27.8967738205
 21
18.6164417302
 31
0.0
  0
ARC
  5
352
330
1F
100
AcDbEntity
  8
0
  6
Continuous
 62
     7
 48
4.0
370
    15
100
AcDbCircle
 10
30.2456131315
 20
8.7229253843
 30
0.0
 40
0.0930000000000013
100
AcDbArc
 50
239.8687698654
 51
299.4125210371
  0
LINE
  5
353
330
1F
100
AcDbEntity
  8
0
  6
Continuous
 62
     7
 48
2.0
370
    15
100
AcDbLine
 10
30.2912849805
 20
8.6419127171
 30
0.0
 11
30.5806142775
 21
8.8050247107
 31
0.0
  0
LINE
  5
354
330
1F
100
AcDbEntity
  8
0
  6
Continuous
 62
     7
 48
2.0
370
    15
100
AcDbLine
 10
27.8681756048
 20
9.9952798386
 30
0.0
 11
30.1989288725
 21
8.6424915716
 31
0.0
  0
ARC
  5
355
330
1F
100
AcDbEntity
  8
0
  6
Continuous
 62
     7
 48
4.0
370
    15
100
AcDbCircle
 10
27.9148599082
 20
10.0757136255
 30
0.0
 40
0.0930000000000026
100
AcDbArc
 50
179.8131694679
 51
239.8687698654
  0
ARC
  5
356
330
1F
100
AcDbEntity
  8
0
  6
Continuous
 62
     7
 48
4.0
370
    15
100
AcDbCircle
 10
32.1341926342
 20
18.2300415001
 30
0.0
 40
0.0930000000000008
100
AcDbArc
 50
359.8131694679
 51
59.8687698654
  0
LINE
  5
357
330
1F
100
AcDbEntity
  8
0
  6
Continuous
 62
     7
 48
2.0
370
    15
100
AcDbLine
 10
32.2002751358
 20
9.9750770132
 30
0.0
 11
32.2271920964
 21
18.2297383603
 31
0.0
  0
LINE
  5
358
330
1F
100
AcDbEntity
  8
0
  6
Continuous
 62
     7
 48
2.0
370
    15
100
AcDbLine
 10
32.1808769599
 20
18.3104751786
 30
0.0
 11
30.0259500645
 21
19.5612123805
 31
0.0
  0
LINE
  5
359
330
1F
100
AcDbEntity
  8
0
  6
Continuous
 62
     7
 48
2.0
370
    15
100
AcDbLine
 10
29.9335939678
 20
19.5617917217
 30
0.0
 11
28.3826179896
 21
18.6874150635
 31
0.0
  0
ARC
  5
35A
330
1F
100
AcDbEntity
  8
0
  6
Continuous
 62
     7
 48
4.0
370
    15
100
AcDbCircle
 10
29.9792656951
 20
19.4807787274
 30
0.0
 40
0.0929999999999981
100
AcDbArc
 50
59.8687698654
 51
119.4125210371
  0
LINE
  5
35B
330
1F
100
AcDbEntity
  8
0
  6
Continuous
 62
     7
 48
2.0
370
    15
100
AcDbLine
 10
30.6009084725
 20
9.0193914328
 30
0.0
 11
32.1529473982
 21
9.8943673371
 31
0.0
  0
ARC
  5
35C
330
1F
100
AcDbEntity
  8
0
  6
Continuous
 62
     7
 48
4.0
370
    15
100
AcDbCircle
 10
32.1072756742
 20
9.9753803333
 30
0.0
 40
0.0930000000000029
100
AcDbArc
 50
299.4125210371
 51
359.8131694679
  0
LINE
  5
35D
330
1F
100
AcDbEntity
  8
0
  6
Continuous
 62
     7
 48
2.0
370
    15
100
AcDbLine
 10
29.8679652917
 20
16.7527819317
 30
0.0
 11
29.8724960077
 21
16.7499140223
 31
0.0
  0
LINE
  5
35E
330
1F
100
AcDbEntity
  8
0
  6
Continuous
 62
     7
 48
2.0
370
    15
100
AcDbLine
 10
29.8786517765
 20
16.7467332226
 30
0.0
 11
29.8820074977
 21
16.7449993216
 31
0.0
  0
LINE
  5
35F
330
1F
100
AcDbEntity
  8
0
  6
Continuous
 62
     7
 48
2.0
370
    15
100
AcDbLine
 10
29.8724960077
 20
16.7499140223
 30
0.0
 11
29.8786517765
 21
16.7467332226
 31
0.0
  0
LINE
  5
360
330
1F
100
AcDbEntity
  8
0
  6
Continuous
 62
     7
 48
2.0
370
    15
100
AcDbLine
 10
29.786316165
 20
17.1894454499
 30
0.0
 11
29.7578806781
 21
17.1734146884
 31
0.0
  0
LINE
  5
361
330
1F
100
AcDbEntity
  8
0
  6
Continuous
 62
     7
 48
2.0
370
    15
100
AcDbLine
 10
30.0034277812
 20
16.737861486
 30
0.0
 11
30.0318632681
 21
16.7538922475
 31
0.0
  0
LINE
  5
362
330
1F
100
AcDbEntity
  8
0
  6
Continuous
 62
     7
 48
2.0
370
    15
100
AcDbLine
 10
28.1097024968
 20
17.7732920442
 30
0.0
 11
28.1142331096
 21
17.7704241946
 31
0.0
  0
LINE
  5
363
330
1F
100
AcDbEntity
  8
0
  6
Continuous
 62
     7
 48
2.0
370
    15
100
AcDbLine
 10
28.1203889816
 20
17.7672433351
 30
0.0
 11
28.1237447028
 21
17.765509434
 31
0.0
  0
LINE
  5
364
330
1F
100
AcDbEntity
  8
0
  6
Continuous
 62
     7
 48
2.0
370
    15
100
AcDbLine
 10
28.1142331096
 20
17.7704241946
 30
0.0
 11
28.1203889816
 21
17.7672433351
 31
0.0
  0
LINE
  5
365
330
1F
100
AcDbEntity
  8
0
  6
Continuous
 62
     7
 48
2.0
370
    15
100
AcDbLine
 10
28.0280533185
 20
18.2099555923
 30
0.0
 11
27.9996178316
 21
18.1939248308
 31
0.0
  0
LINE
  5
366
330
1F
100
AcDbEntity
  8
0
  6
Continuous
 62
     7
 48
2.0
370
    15
100
AcDbLine
 10
28.2451649347
 20
17.7583716284
 30
0.0
 11
28.2736004216
 21
17.7744023899
 31
0.0
  0
LINE
  5
367
330
1F
100
AcDbEntity
  8
0
  6
Continuous
 62
     7
 48
2.0
370
    15
100
AcDbLine
 10
29.842556794
 20
8.9607229442
 30
0.0
 11
29.8470875091
 21
8.9578547941
 31
0.0
  0
LINE
  5
368
330
1F
100
AcDbEntity
  8
0
  6
Continuous
 62
     7
 48
2.0
370
    15
100
AcDbLine
 10
29.8532432788
 20
8.954674235
 30
0.0
 11
29.856599
 21
8.952940334
 31
0.0
  0
LINE
  5
369
330
1F
100
AcDbEntity
  8
0
  6
Continuous
 62
     7
 48
2.0
370
    15
100
AcDbLine
 10
29.8470875091
 20
8.9578547941
 30
0.0
 11
29.8532432788
 21
8.954674235
 31
0.0
  0
LINE
  5
36A
330
1F
100
AcDbEntity
  8
0
  6
Continuous
 62
     7
 48
2.0
370
    15
100
AcDbLine
 10
29.7609076673
 20
9.3973864624
 30
0.0
 11
29.7324721803
 21
9.3813557008
 31
0.0
  0
LINE
  5
36B
330
1F
100
AcDbEntity
  8
0
  6
Continuous
 62
     7
 48
2.0
370
    15
100
AcDbLine
 10
29.9780192834
 20
8.9458024984
 30
0.0
 11
30.0064547704
 21
8.96183326
 31
0.0
  0
LINE
  5
36C
330
1F
100
AcDbEntity
  8
0
  6
Continuous
 62
     7
 48
2.0
370
    15
100
AcDbLine
 10
28.084293999
 20
9.9812330566
 30
0.0
 11
28.0888246111
 21
9.9783649665
 31
0.0
  0
LINE
  5
36D
330
1F
100
AcDbEntity
  8
0
  6
Continuous
 62
     7
 48
2.0
370
    15
100
AcDbLine
 10
28.0949804838
 20
9.9751843475
 30
0.0
 11
28.098336205
 21
9.9734504465
 31
0.0
  0
LINE
  5
36E
330
1F
100
AcDbEntity
  8
0
  6
Continuous
 62
     7
 48
2.0
370
    15
100
AcDbLine
 10
28.0888246111
 20
9.9783649665
 30
0.0
 11
28.0949804838
 21
9.9751843475
 31
0.0
  0
LINE
  5
36F
330
1F
100
AcDbEntity
  8
0
  6
Continuous
 62
     7
 48
2.0
370
    15
100
AcDbLine
 10
28.0026448207
 20
10.4178966048
 30
0.0
 11
27.9742093338
 21
10.4018658432
 31
0.0
  0
LINE
  5
370
330
1F
100
AcDbEntity
  8
0
  6
Continuous
 62
     7
 48
2.0
370
    15
100
AcDbLine
 10
28.2197564369
 20
9.9663126408
 30
0.0
 11
28.2481919238
 21
9.9823434024
 31
0.0
  0
SPLINE
  5
371
330
1F
100
AcDbEntity
  8
0
  6
Continuous
 62
     7
 48
2.0
370
    15
100
AcDbSpline
210
0.0
220
0.0
230
1.0
 70
     8
 71
     3
 72
    19
 73
    15
 74
     0
 42
0.00000001
 43
0.00000001
 40
0.0
 40
0.0
 40
0.0
 40
0.0
 40
0.0620860044621855
 40
0.1422542744260334
 40
0.2210681622890034
 40
0.3028375937804727
 40
0.39073382068981
 40
0.4848928982312473
 40
0.5814545626999215
 40
0.6788068303568474
 40
0.7782978913328013
 40
0.8819591176309024
 40
0.9701246823397707
 40
0.9999999999999999
 40
0.9999999999999999
 40
0.9999999999999999
 40
0.9999999999999999
 10
27.99772839777117
 20
18.11049017172446
 30
0.0
 10
27.99044469550751
 20
18.10623168941859
 30
0.0
 10
27.97375594593137
 20
18.0964744612667
 30
0.0
 10
27.95505112544044
 20
18.0724543038431
 30
0.0
 10
27.94146346981912
 20
18.04301969470537
 30
0.0
 10
27.93514119037768
 20
18.00990343728115
 30
0.0
 10
27.9359361064359
 20
17.9735192939994
 30
0.0
 10
27.94441870693172
 20
17.93466732100681
 30
0.0
 10
27.96058633979773
 20
17.89555257896753
 30
0.0
 10
27.98367742258063
 20
17.85884001993093
 30
0.0
 10
28.01293458292781
 20
17.82662275267001
 30
0.0
 10
28.04581143509415
 20
17.80275230556403
 30
0.0
 10
28.07354495922931
 20
17.79079841918247
 30
0.0
 10
28.08902235056238
 20
17.78743245077618
 30
0.0
 10
28.0929395695237
 20
17.78658054783075
 30
0.0
  0
SPLINE
  5
372
330
1F
100
AcDbEntity
  8
0
  6
Continuous
 62
     7
 48
2.0
370
    15
100
AcDbSpline
210
0.0
220
0.0
230
1.0
 70
     8
 71
     3
 72
    10
 73
     6
 74
     0
 42
0.00000001
 43
0.00000001
 40
0.0
 40
0.0
 40
0.0
 40
0.0
 40
0.3474735513574456
 40
0.7381648344574169
 40
1.0
 40
1.0
 40
1.0
 40
1.0
 10
28.0929395695237
 20
17.78658054783075
 30
0.0
 10
28.10237465373342
 20
17.78546321898645
 30
0.0
 10
28.12241832999753
 20
17.78308959124369
 30
0.0
 10
28.15039079257188
 20
17.78730716468529
 30
0.0
 10
28.16601499628168
 20
17.79636262465693
 30
0.0
 10
28.17228442179438
 20
17.79999625186954
 30
0.0
  0
LINE
  5
373
330
1F
100
AcDbEntity
  8
0
  6
Continuous
 62
     7
 48
2.0
370
    15
100
AcDbLine
 10
28.002245623
 20
18.1490244043
 30
0.0
 11
27.9802969276
 21
18.1333435582
 31
0.0
  0
LINE
  5
374
330
1F
100
AcDbEntity
  8
0
  6
Continuous
 62
     7
 48
2.0
370
    15
100
AcDbLine
 10
28.1833305953
 20
17.7732008726
 30
0.0
 11
28.2081087996
 21
17.7838625863
 31
0.0
  0
LINE
  5
375
330
1F
100
AcDbEntity
  8
0
  6
Continuous
 62
     7
 48
2.0
370
    15
100
AcDbLine
 10
28.0002257702
 20
18.1130965033
 30
0.0
 11
27.9972030166
 21
18.1113923987
 31
0.0
  0
LINE
  5
376
330
1F
100
AcDbEntity
  8
0
  6
Continuous
 62
     7
 48
2.0
370
    15
100
AcDbLine
 10
28.1733008344
 20
17.7990286538
 30
0.0
 11
28.176323588
 21
17.8007327584
 31
0.0
  0
SPLINE
  5
377
330
1F
100
AcDbEntity
  8
0
  6
Continuous
 62
     7
 48
2.0
370
    15
100
AcDbSpline
210
0.0
220
0.0
230
1.0
 70
     8
 71
     3
 72
    19
 73
    15
 74
     0
 42
0.00000001
 43
0.00000001
 40
0.0
 40
0.0
 40
0.0
 40
0.0
 40
0.0620860077410306
 40
0.1422541631603232
 40
0.2210680551855603
 40
0.3028374888497666
 40
0.3907337204010213
 40
0.484892739356978
 40
0.5814545046608168
 40
0.67880665302609
 40
0.7782977192563003
 40
0.8819592692244432
 40
0.9701248385894531
 40
1.0
 40
1.0
 40
1.0
 40
1.0
 10
29.75599119271493
 20
17.08998005924644
 30
0.0
 10
29.74870748485321
 20
17.08572158457837
 30
0.0
 10
29.73201873638522
 20
17.07596438207355
 30
0.0
 10
29.71331403698737
 20
17.05194408521089
 30
0.0
 10
29.69972638013077
 20
17.02250952203357
 30
0.0
 10
29.69340401398182
 20
16.9893933033371
 30
0.0
 10
29.69419897673948
 20
16.95300915762069
 30
0.0
 10
29.70268147496598
 20
16.91415718429132
 30
0.0
 10
29.71884919842757
 20
16.8750424734414
 30
0.0
 10
29.74194021468695
 20
16.83832988799101
 30
0.0
 10
29.77119741477527
 20
16.80611260251227
 30
0.0
 10
29.80407429647265
 20
16.78224216487344
 30
0.0
 10
29.83180782818824
 20
16.77028823947746
 30
0.0
 10
29.84728521394836
 20
16.76692229814893
 30
0.0
 10
29.85120241604258
 20
16.76607040541811
 30
0.0
  0
SPLINE
  5
378
330
1F
100
AcDbEntity
  8
0
  6
Continuous
 62
     7
 48
2.0
370
    15
100
AcDbSpline
210
0.0
220
0.0
230
1.0
 70
     8
 71
     3
 72
    10
 73
     6
 74
     0
 42
0.00000001
 43
0.00000001
 40
0.0
 40
0.0
 40
0.0
 40
0.0
 40
0.3474735993409684
 40
0.7381642821911034
 40
1.0
 40
1.0
 40
1.0
 40
1.0
 10
29.85120241604258
 20
16.76607040541811
 30
0.0
 10
29.86063750063886
 20
16.76495307043701
 30
0.0
 10
29.88068115996041
 20
16.762579431761
 30
0.0
 10
29.90865361196836
 20
16.76679709292842
 30
0.0
 10
29.92427782526794
 20
16.7758524968171
 30
0.0
 10
29.93054726831325
 20
16.7794861094569
 30
0.0
  0
LINE
  5
379
330
1F
100
AcDbEntity
  8
0
  6
Continuous
 62
     7
 48
2.0
370
    15
100
AcDbLine
 10
29.7605084179
 20
17.1285142918
 30
0.0
 11
29.7385598257
 21
17.1128333859
 31
0.0
  0
LINE
  5
37A
330
1F
100
AcDbEntity
  8
0
  6
Continuous
 62
     7
 48
2.0
370
    15
100
AcDbLine
 10
29.9415934934
 20
16.7526907002
 30
0.0
 11
29.9663716461
 21
16.7633524439
 31
0.0
  0
LINE
  5
37B
330
1F
100
AcDbEntity
  8
0
  6
Continuous
 62
     7
 48
2.0
370
    15
100
AcDbLine
 10
29.7584886167
 20
17.0925863609
 30
0.0
 11
29.7554658631
 21
17.0908822563
 31
0.0
  0
LINE
  5
37C
330
1F
100
AcDbEntity
  8
0
  6
Continuous
 62
     7
 48
2.0
370
    15
100
AcDbLine
 10
29.931563681
 20
16.7785185114
 30
0.0
 11
29.9345864346
 21
16.780222616
 31
0.0
  0
SPLINE
  5
37D
330
1F
100
AcDbEntity
  8
0
  6
Continuous
 62
     7
 48
2.0
370
    15
100
AcDbSpline
210
0.0
220
0.0
230
1.0
 70
     8
 71
     3
 72
    19
 73
    15
 74
     0
 42
0.00000001
 43
0.00000001
 40
0.0
 40
0.0
 40
0.0
 40
0.0
 40
0.0783071815990343
 40
0.1563130417486237
 40
0.2339777524137317
 40
0.3153570316356836
 40
0.403122854674173
 40
0.496499872453207
 40
0.591423816228844
 40
0.6873062018440036
 40
0.7856426519592639
 40
0.877721488055767
 40
0.9628113118615319
 40
1.0
 40
1.0
 40
1.0
 40
1.0
 10
29.73007166156959
 20
9.298571022485312
 30
0.0
 10
29.72105667654301
 20
9.292535981059416
 30
0.0
 10
29.70306139562438
 20
9.280489120693643
 30
0.0
 10
29.68428485383683
 20
9.253750984685466
 30
0.0
 10
29.67233914471433
 20
9.223482962354083
 30
0.0
 10
29.66753897692335
 20
9.189642136501766
 30
0.0
 10
29.66997909822164
 20
9.15258278126653
 30
0.0
 10
29.68017873307097
 20
9.11344488046324
 30
0.0
 10
29.69795333775241
 20
9.074626625845285
 30
0.0
 10
29.72244113958718
 20
9.038754747535053
 30
0.0
 10
29.75189705973477
 20
9.008901213045197
 30
0.0
 10
29.78419892212841
 20
8.98733137956237
 30
0.0
 10
29.81182039480856
 20
8.976377440429317
 30
0.0
 10
29.82831144930191
 20
8.973647116135387
 30
0.0
 10
29.83332689046877
 20
8.972816739832396
 30
0.0
  0
SPLINE
  5
37E
330
1F
100
AcDbEntity
  8
0
  6
Continuous
 62
     7
 48
2.0
370
    15
100
AcDbSpline
210
0.0
220
0.0
230
1.0
 70
     8
 71
     3
 72
    10
 73
     6
 74
     0
 42
0.00000001
 43
0.00000001
 40
0.0
 40
0.0
 40
0.0
 40
0.0
 40
0.3889874828668346
 40
0.8160812931638602
 40
1.0
 40
1.0
 40
1.0
 40
1.0
 10
29.83332689046877
 20
8.972816739832396
 30
0.0
 10
29.84299665928655
 20
8.972295221526455
 30
0.0
 10
29.8632834751585
 20
8.971201095488306
 30
0.0
 10
29.88866353679352
 20
8.976512453803558
 30
0.0
 10
29.90151044095647
 20
8.984966350464722
 30
0.0
 10
29.90537744193313
 20
8.98751102786175
 30
0.0
  0
LINE
  5
37F
330
1F
100
AcDbEntity
  8
0
  6
Continuous
 62
     7
 48
2.0
370
    15
100
AcDbLine
 10
29.7350999202
 20
9.3364553042
 30
0.0
 11
29.7131513279
 21
9.3207743984
 31
0.0
  0
LINE
  5
380
330
1F
100
AcDbEntity
  8
0
  6
Continuous
 62
     7
 48
2.0
370
    15
100
AcDbLine
 10
29.9161849957
 20
8.9606317127
 30
0.0
 11
29.9409631491
 21
8.971293697
 31
0.0
  0
LINE
  5
381
330
1F
100
AcDbEntity
  8
0
  6
Continuous
 62
     7
 48
2.0
370
    15
100
AcDbLine
 10
29.7330801189
 20
9.3005273733
 30
0.0
 11
29.7300573653
 21
9.2988232688
 31
0.0
  0
LINE
  5
382
330
1F
100
AcDbEntity
  8
0
  6
Continuous
 62
     7
 48
2.0
370
    15
100
AcDbLine
 10
29.9061551832
 20
8.9864595239
 30
0.0
 11
29.9091779368
 21
8.9881636284
 31
0.0
  0
SPLINE
  5
383
330
1F
100
AcDbEntity
  8
0
  6
Continuous
 62
     7
 48
2.0
370
    15
100
AcDbSpline
210
0.0
220
0.0
230
1.0
 70
     8
 71
     3
 72
    19
 73
    15
 74
     0
 42
0.00000001
 43
0.00000001
 40
0.0
 40
0.0
 40
0.0
 40
0.0
 40
0.0620864175823183
 40
0.1422546680410492
 40
0.2210685367284264
 40
0.3028379483252125
 40
0.390733508164005
 40
0.4848925627963309
 40
0.5814547493548214
 40
0.6788069933257258
 40
0.7782980300952851
 40
0.8819592311723811
 40
0.9701247306604308
 40
1.0
 40
1.0
 40
1.0
 40
1.0
 10
27.97231990078105
 20
10.31843142477281
 30
0.0
 10
27.96503620648494
 20
10.31417285463064
 30
0.0
 10
27.94834754003334
 20
10.30441546315124
 30
0.0
 10
27.92964261118273
 20
10.28039533349024
 30
0.0
 10
27.91605497780766
 20
10.25096070015685
 30
0.0
 10
27.90973270248857
 20
10.21784454688982
 30
0.0
 10
27.91052761673646
 20
10.18146044520459
 30
0.0
 10
27.91901026443988
 20
10.14260850791229
 30
0.0
 10
27.93517776894484
 20
10.10349365687927
 30
0.0
 10
27.95826893293939
 20
10.06678101951248
 30
0.0
 10
27.98752608346431
 20
10.03456382182968
 30
0.0
 10
28.0204029304514
 20
10.01069311249846
 30
0.0
 10
28.04813645085702
 20
9.998739910526272
 30
0.0
 10
28.06361385269649
 20
9.995373559508236
 30
0.0
 10
28.06753107174904
 20
9.994521560284966
 30
0.0
  0
SPLINE
  5
384
330
1F
100
AcDbEntity
  8
0
  6
Continuous
 62
     7
 48
2.0
370
    15
100
AcDbSpline
210
0.0
220
0.0
230
1.0
 70
     8
 71
     3
 72
    10
 73
     6
 74
     0
 42
0.00000001
 43
0.00000001
 40
0.0
 40
0.0
 40
0.0
 40
0.0
 40
0.3474735513574456
 40
0.7381648344574169
 40
1.0
 40
1.0
 40
1.0
 40
1.0
 10
28.06753107174904
 20
9.994521560284966
 30
0.0
 10
28.07696615595876
 20
9.993404231440675
 30
0.0
 10
28.09700983222287
 20
9.991030603697906
 30
0.0
 10
28.12498229479722
 20
9.995248177139514
 30
0.0
 10
28.14060649850702
 20
10.00430363711115
 30
0.0
 10
28.14687592401972
 20
10.00793726432376
 30
0.0
  0
LINE
  5
385
330
1F
100
AcDbEntity
  8
0
  6
Continuous
 62
     7
 48
2.0
370
    15
100
AcDbLine
 10
27.9768371252
 20
10.3569654167
 30
0.0
 11
27.9548884299
 21
10.3412845707
 31
0.0
  0
LINE
  5
386
330
1F
100
AcDbEntity
  8
0
  6
Continuous
 62
     7
 48
2.0
370
    15
100
AcDbLine
 10
28.1579220976
 20
9.981141885
 30
0.0
 11
28.1827003026
 21
9.9918038394
 31
0.0
  0
LINE
  5
387
330
1F
100
AcDbEntity
  8
0
  6
Continuous
 62
     7
 48
2.0
370
    15
100
AcDbLine
 10
27.9748172724
 20
10.3210375157
 30
0.0
 11
27.9717945188
 21
10.3193334112
 31
0.0
  0
LINE
  5
388
330
1F
100
AcDbEntity
  8
0
  6
Continuous
 62
     7
 48
2.0
370
    15
100
AcDbLine
 10
28.1478923367
 20
10.0069696663
 30
0.0
 11
28.1509150903
 21
10.0086737708
 31
0.0
  0
LINE
  5
389
330
1F
100
AcDbEntity
  8
0
  6
Continuous
 62
     7
 48
2.0
370
    15
100
AcDbLine
 10
30.1773025727
 20
19.9333071572
 30
0.0
 11
30.1218536951
 21
19.9020473537
 31
0.0
  0
LINE
  5
38A
330
1F
100
AcDbEntity
  8
0
  6
Continuous
 62
     7
 48
2.0
370
    15
100
AcDbLine
 10
32.0969119242
 20
9.6286543172
 30
0.0
 11
32.1523608019
 21
9.6599141207
 31
0.0
  0
ARC
  5
38B
330
1F
100
AcDbEntity
  8
0
  6
Continuous
 62
     7
 48
4.0
370
    15
100
AcDbCircle
 10
30.1959292104
 20
17.1390051062
 30
0.0
 40
0.142789696253195
100
AcDbArc
 50
2.2767363082
 51
57.1197605046
  0
ARC
  5
38C
330
1F
100
AcDbEntity
  8
0
  6
Continuous
 62
     7
 48
4.0
370
    15
100
AcDbCircle
 10
30.2735206505
 20
17.2732183758
 30
0.0
 40
0.1440793635344152
100
AcDbArc
 50
242.5423724541
 51
296.8549864915
  0
ARC
  5
38D
330
1F
100
AcDbEntity
  8
0
  6
Continuous
 62
     7
 48
4.0
370
    15
100
AcDbCircle
 10
30.3488612515
 20
17.1386815005
 30
0.0
 40
0.1419321650093708
100
AcDbArc
 50
122.0957723397
 51
177.2992592207
  0
LINE
  5
38E
330
1F
100
AcDbEntity
  8
0
  6
Continuous
 62
     7
 48
2.0
370
    15
100
AcDbLine
 10
30.3110205863
 20
8.6849626717
 30
0.0
 11
30.3386061895
 21
17.1446775822
 31
0.0
  0
ARC
  5
38F
330
1F
100
AcDbEntity
  8
0
  6
Continuous
 62
     7
 48
4.0
370
    15
100
AcDbCircle
 10
30.2459350472
 20
8.8135034652
 30
0.0
 40
0.1440793635343879
100
AcDbArc
 50
242.5423724541
 51
296.8549864915
  0
LINE
  5
390
330
1F
100
AcDbEntity
  8
0
  6
Continuous
 62
     7
 48
2.0
370
    15
100
AcDbLine
 10
30.2070867354
 20
17.1453692541
 30
0.0
 11
30.1795011322
 21
8.6856543435
 31
0.0
  0
LINE
  5
391
330
1F
100
AcDbEntity
  8
0
  6
Continuous
 62
     7
 48
2.0
370
    15
100
AcDbLine
 10
30.6279354865
 20
17.3077895758
 30
0.0
 11
30.3386061895
 21
17.1446775822
 31
0.0
  0
LINE
  5
392
330
1F
100
AcDbEntity
  8
0
  6
Continuous
 62
     7
 48
2.0
370
    15
100
AcDbLine
 10
30.2734475725
 20
17.2589209137
 30
0.0
 11
30.5627768694
 21
17.4220329073
 31
0.0
  0
ARC
  5
393
330
1F
100
AcDbEntity
  8
0
  6
Continuous
 62
     7
 48
4.0
370
    15
100
AcDbCircle
 10
30.4852585074
 20
17.3021170998
 30
0.0
 40
0.142789696253185
100
AcDbArc
 50
2.2767363082
 51
57.1197605046
  0
ARC
  5
394
330
1F
100
AcDbEntity
  8
0
  6
Continuous
 62
     7
 48
4.0
370
    15
100
AcDbCircle
 10
28.0181079838
 20
18.4914697676
 30
0.0
 40
0.1419321650093618
100
AcDbArc
 50
122.0957723397
 51
177.2992592207
  0
LINE
  5
395
330
1F
100
AcDbEntity
  8
0
  6
Continuous
 62
     7
 48
2.0
370
    15
100
AcDbLine
 10
30.2734475725
 20
17.2589209137
 30
0.0
 11
27.9426943048
 21
18.6117091807
 31
0.0
  0
LINE
  5
396
330
1F
100
AcDbEntity
  8
0
  6
Continuous
 62
     7
 48
2.0
370
    15
100
AcDbLine
 10
27.8763334677
 20
18.4981575211
 30
0.0
 11
30.2070867354
 21
17.1453692541
 31
0.0
  0
LINE
  5
397
330
1F
100
AcDbEntity
  8
0
  6
Continuous
 62
     7
 48
2.0
370
    15
100
AcDbLine
 10
30.6003498833
 20
8.8480746653
 30
0.0
 11
30.6279354865
 21
17.3077895758
 31
0.0
  0
LINE
  5
398
330
1F
100
AcDbEntity
  8
0
  6
Continuous
 62
     7
 48
2.0
370
    15
100
AcDbLine
 10
30.3110205863
 20
8.6849626717
 30
0.0
 11
30.6003498833
 21
8.8480746653
 31
0.0
  0
LINE
  5
399
330
1F
100
AcDbEntity
  8
0
  6
Continuous
 62
     7
 48
2.0
370
    15
100
AcDbLine
 10
28.6851242776
 20
16.5129758531
 30
0.0
 11
28.7283290345
 21
16.4878994587
 31
0.0
  0
ARC
  5
39A
330
1F
100
AcDbEntity
  8
0
  6
Continuous
 62
     7
 48
4.0
370
    15
100
AcDbCircle
 10
29.4293344696
 20
16.5815933736
 30
0.0
 40
0.7072391178161952
100
AcDbArc
 50
187.6128338112
 51
231.7837702774
  0
LINE
  5
39B
330
1F
100
AcDbEntity
  8
0
  6
Continuous
 62
     7
 48
2.0
370
    15
100
AcDbLine
 10
28.9918144453
 20
16.0259285483
 30
0.0
 11
28.9916501435
 21
15.9755418825
 31
0.0
  0
LINE
  5
39C
330
1F
100
AcDbEntity
  8
0
  6
Continuous
 62
     7
 48
2.0
370
    15
100
AcDbLine
 10
28.9916501435
 20
15.9755418825
 30
0.0
 11
29.0795632845
 21
15.9245163761
 31
0.0
  0
LINE
  5
39D
330
1F
100
AcDbEntity
  8
0
  6
Continuous
 62
     7
 48
2.0
370
    15
100
AcDbLine
 10
29.0795632845
 20
15.9245163761
 30
0.0
 11
29.0797275863
 21
15.9749030419
 31
0.0
  0
ARC
  5
39E
330
1F
100
AcDbEntity
  8
0
  6
Continuous
 62
     7
 48
4.0
370
    15
100
AcDbCircle
 10
29.1651473592
 20
16.133473001
 30
0.0
 40
0.1801137682903197
100
AcDbArc
 50
241.6891755039
 51
358.8468398324
  0
LINE
  5
39F
330
1F
100
AcDbEntity
  8
0
  6
Continuous
 62
     7
 48
2.0
370
    15
100
AcDbLine
 10
29.3452246491
 20
16.1298481965
 30
0.0
 11
29.3884294059
 21
16.1047718021
 31
0.0
  0
LINE
  5
3A0
330
1F
100
AcDbEntity
  8
0
  6
Continuous
 62
     7
 48
2.0
370
    15
100
AcDbLine
 10
29.3884294059
 20
16.1047718021
 30
0.0
 11
29.388763728
 21
16.2072988244
 31
0.0
  0
LINE
  5
3A1
330
1F
100
AcDbEntity
  8
0
  6
Continuous
 62
     7
 48
2.0
370
    15
100
AcDbLine
 10
29.388763728
 20
16.2072988244
 30
0.0
 11
29.3455589712
 21
16.2323752188
 31
0.0
  0
ARC
  5
3A2
330
1F
100
AcDbEntity
  8
0
  6
Continuous
 62
     7
 48
4.0
370
    15
100
AcDbCircle
 10
28.6445528629
 20
16.1386812101
 30
0.0
 40
0.7072397974679349
100
AcDbArc
 50
7.6128341188
 51
51.7837441396
  0
LINE
  5
3A3
330
1F
100
AcDbEntity
  8
0
  6
Continuous
 62
     7
 48
2.0
370
    15
100
AcDbLine
 10
29.0820735612
 20
16.6943463698
 30
0.0
 11
29.082237863
 21
16.7447330357
 31
0.0
  0
LINE
  5
3A4
330
1F
100
AcDbEntity
  8
0
  6
Continuous
 62
     7
 48
2.0
370
    15
100
AcDbLine
 10
29.082237863
 20
16.7447330357
 30
0.0
 11
28.9943247219
 21
16.795758542
 31
0.0
  0
LINE
  5
3A5
330
1F
100
AcDbEntity
  8
0
  6
Continuous
 62
     7
 48
2.0
370
    15
100
AcDbLine
 10
28.9943247219
 20
16.795758542
 30
0.0
 11
28.9941604201
 21
16.7453718762
 31
0.0
  0
ARC
  5
3A6
330
1F
100
AcDbEntity
  8
0
  6
Continuous
 62
     7
 48
4.0
370
    15
100
AcDbCircle
 10
28.9087407774
 20
16.5868016988
 30
0.0
 40
0.1801138987673755
100
AcDbArc
 50
61.6892448956
 51
178.8468477538
  0
LINE
  5
3A7
330
1F
100
AcDbEntity
  8
0
  6
Continuous
 62
     7
 48
2.0
370
    15
100
AcDbLine
 10
28.7286633566
 20
16.590426481
 30
0.0
 11
28.6854585997
 21
16.6155028754
 31
0.0
  0
LINE
  5
3A8
330
1F
100
AcDbEntity
  8
0
  6
Continuous
 62
     7
 48
2.0
370
    15
100
AcDbLine
 10
28.6854585997
 20
16.6155028754
 30
0.0
 11
28.6851242776
 21
16.5129758531
 31
0.0
  0
LINE
  5
3A9
330
1F
100
AcDbEntity
  8
0
  6
Continuous
 62
     7
 48
2.0
370
    15
100
AcDbLine
 10
28.6791064757
 20
14.6674882488
 30
0.0
 11
28.7223112325
 21
14.6424118544
 31
0.0
  0
ARC
  5
3AA
330
1F
100
AcDbEntity
  8
0
  6
Continuous
 62
     7
 48
4.0
370
    15
100
AcDbCircle
 10
29.4233167449
 20
14.7361057409
 30
0.0
 40
0.7072391906148833
100
AcDbArc
 50
187.6128306957
 51
231.7837669353
  0
LINE
  5
3AB
330
1F
100
AcDbEntity
  8
0
  6
Continuous
 62
     7
 48
2.0
370
    15
100
AcDbLine
 10
28.9857966432
 20
14.1804408839
 30
0.0
 11
28.9856323411
 21
14.1300541579
 31
0.0
  0
LINE
  5
3AC
330
1F
100
AcDbEntity
  8
0
  6
Continuous
 62
     7
 48
2.0
370
    15
100
AcDbLine
 10
28.9856323411
 20
14.1300541579
 30
0.0
 11
29.0735454822
 21
14.0790286515
 31
0.0
  0
LINE
  5
3AD
330
1F
100
AcDbEntity
  8
0
  6
Continuous
 62
     7
 48
2.0
370
    15
100
AcDbLine
 10
29.0735454822
 20
14.0790286515
 30
0.0
 11
29.0737097842
 21
14.1294153775
 31
0.0
  0
ARC
  5
3AE
330
1F
100
AcDbEntity
  8
0
  6
Continuous
 62
     7
 48
4.0
370
    15
100
AcDbCircle
 10
29.1591295347
 20
14.2879853737
 30
0.0
 40
0.1801137903584669
100
AcDbArc
 50
241.6891873577
 51
358.8468473068
  0
LINE
  5
3AF
330
1F
100
AcDbEntity
  8
0
  6
Continuous
 62
     7
 48
2.0
370
    15
100
AcDbLine
 10
29.3392068471
 20
14.2843605922
 30
0.0
 11
29.382411604
 21
14.2592841978
 31
0.0
  0
LINE
  5
3B0
330
1F
100
AcDbEntity
  8
0
  6
Continuous
 62
     7
 48
2.0
370
    15
100
AcDbLine
 10
29.382411604
 20
14.2592841978
 30
0.0
 11
29.3827459263
 21
14.3618112803
 31
0.0
  0
LINE
  5
3B1
330
1F
100
AcDbEntity
  8
0
  6
Continuous
 62
     7
 48
2.0
370
    15
100
AcDbLine
 10
29.3827459263
 20
14.3618112803
 30
0.0
 11
29.3395411694
 21
14.3868876747
 31
0.0
  0
ARC
  5
3B2
330
1F
100
AcDbEntity
  8
0
  6
Continuous
 62
     7
 48
4.0
370
    15
100
AcDbCircle
 10
28.6385353429
 20
14.2931936091
 30
0.0
 40
0.7072395257148639
100
AcDbArc
 50
7.6128417112
 51
51.7837559199
  0
LINE
  5
3B3
330
1F
100
AcDbEntity
  8
0
  6
Continuous
 62
     7
 48
2.0
370
    15
100
AcDbLine
 10
29.0760557588
 20
14.8488586452
 30
0.0
 11
29.0762200606
 21
14.8992453111
 31
0.0
  0
LINE
  5
3B4
330
1F
100
AcDbEntity
  8
0
  6
Continuous
 62
     7
 48
2.0
370
    15
100
AcDbLine
 10
29.0762200606
 20
14.8992453111
 30
0.0
 11
28.9883069196
 21
14.9502708174
 31
0.0
  0
LINE
  5
3B5
330
1F
100
AcDbEntity
  8
0
  6
Continuous
 62
     7
 48
2.0
370
    15
100
AcDbLine
 10
28.9883069196
 20
14.9502708174
 30
0.0
 11
28.9881426178
 21
14.8998841516
 31
0.0
  0
ARC
  5
3B6
330
1F
100
AcDbEntity
  8
0
  6
Continuous
 62
     7
 48
4.0
370
    15
100
AcDbCircle
 10
28.9027229102
 20
14.7413140817
 30
0.0
 40
0.1801138348401206
100
AcDbArc
 50
61.6892105199
 51
178.8468241446
  0
LINE
  5
3B7
330
1F
100
AcDbEntity
  8
0
  6
Continuous
 62
     7
 48
2.0
370
    15
100
AcDbLine
 10
28.7226455549
 20
14.7449389369
 30
0.0
 11
28.679440798
 21
14.7700153313
 31
0.0
  0
LINE
  5
3B8
330
1F
100
AcDbEntity
  8
0
  6
Continuous
 62
     7
 48
2.0
370
    15
100
AcDbLine
 10
28.679440798
 20
14.7700153313
 30
0.0
 11
28.6791064757
 21
14.6674882488
 31
0.0
  0
LINE
  5
3B9
330
1F
100
AcDbEntity
  8
0
  6
Continuous
 62
     7
 48
2.0
370
    15
100
AcDbLine
 10
30.1795011322
 20
8.6856543435
 30
0.0
 11
27.8487478645
 21
10.0384426106
 31
0.0
  0
LINE
  5
3BA
330
1F
100
AcDbEntity
  8
0
  6
Continuous
 62
     7
 48
2.0
370
    15
100
AcDbLine
 10
27.8487478645
 20
10.0384426106
 30
0.0
 11
27.8763334677
 21
18.4981575211
 31
0.0
  0
ARC
  5
3BB
330
1F
100
AcDbEntity
  8
0
  6
Continuous
 62
     7
 48
4.0
370
    15
100
AcDbCircle
 10
29.411281737
 20
11.0451306546
 30
0.0
 40
0.7072397974679189
100
AcDbArc
 50
187.6128341188
 51
231.7837441396
  0
LINE
  5
3BC
330
1F
100
AcDbEntity
  8
0
  6
Continuous
 62
     7
 48
2.0
370
    15
100
AcDbLine
 10
28.9737610387
 20
10.4894654948
 30
0.0
 11
28.9735967369
 21
10.439078829
 31
0.0
  0
LINE
  5
3BD
330
1F
100
AcDbEntity
  8
0
  6
Continuous
 62
     7
 48
2.0
370
    15
100
AcDbLine
 10
28.9735967369
 20
10.439078829
 30
0.0
 11
29.0615098779
 21
10.3880533226
 31
0.0
  0
LINE
  5
3BE
330
1F
100
AcDbEntity
  8
0
  6
Continuous
 62
     7
 48
2.0
370
    15
100
AcDbLine
 10
29.0615098779
 20
10.3880533226
 30
0.0
 11
29.0616741797
 21
10.4384399885
 31
0.0
  0
ARC
  5
3BF
330
1F
100
AcDbEntity
  8
0
  6
Continuous
 62
     7
 48
4.0
370
    15
100
AcDbCircle
 10
29.1470938224
 20
10.5970101659
 30
0.0
 40
0.1801138987673791
100
AcDbArc
 50
241.6892448956
 51
358.8468477538
  0
LINE
  5
3C0
330
1F
100
AcDbEntity
  8
0
  6
Continuous
 62
     7
 48
2.0
370
    15
100
AcDbLine
 10
29.3271712432
 20
10.5933853836
 30
0.0
 11
29.3703760001
 21
10.5683089892
 31
0.0
  0
LINE
  5
3C1
330
1F
100
AcDbEntity
  8
0
  6
Continuous
 62
     7
 48
2.0
370
    15
100
AcDbLine
 10
29.3703760001
 20
10.5683089892
 30
0.0
 11
29.3707103222
 21
10.6708360115
 31
0.0
  0
LINE
  5
3C2
330
1F
100
AcDbEntity
  8
0
  6
Continuous
 62
     7
 48
2.0
370
    15
100
AcDbLine
 10
29.3707103222
 20
10.6708360115
 30
0.0
 11
29.3275055654
 21
10.6959124059
 31
0.0
  0
ARC
  5
3C3
330
1F
100
AcDbEntity
  8
0
  6
Continuous
 62
     7
 48
4.0
370
    15
100
AcDbCircle
 10
28.6265001302
 20
10.602218491
 30
0.0
 40
0.7072391178161801
100
AcDbArc
 50
7.6128338112
 51
51.7837702774
  0
LINE
  5
3C4
330
1F
100
AcDbEntity
  8
0
  6
Continuous
 62
     7
 48
2.0
370
    15
100
AcDbLine
 10
29.0640201546
 20
11.1578833163
 30
0.0
 11
29.0641844564
 21
11.2082699822
 31
0.0
  0
LINE
  5
3C5
330
1F
100
AcDbEntity
  8
0
  6
Continuous
 62
     7
 48
2.0
370
    15
100
AcDbLine
 10
29.0641844564
 20
11.2082699822
 30
0.0
 11
28.9762713153
 21
11.2592954885
 31
0.0
  0
LINE
  5
3C6
330
1F
100
AcDbEntity
  8
0
  6
Continuous
 62
     7
 48
2.0
370
    15
100
AcDbLine
 10
28.9762713153
 20
11.2592954885
 30
0.0
 11
28.9761070135
 21
11.2089088227
 31
0.0
  0
ARC
  5
3C7
330
1F
100
AcDbEntity
  8
0
  6
Continuous
 62
     7
 48
4.0
370
    15
100
AcDbCircle
 10
28.8906872406
 20
11.0503388636
 30
0.0
 40
0.1801137682903229
100
AcDbArc
 50
61.6891755039
 51
178.8468398324
  0
LINE
  5
3C8
330
1F
100
AcDbEntity
  8
0
  6
Continuous
 62
     7
 48
2.0
370
    15
100
AcDbLine
 10
28.7106099508
 20
11.0539636681
 30
0.0
 11
28.6674051939
 21
11.0790400625
 31
0.0
  0
LINE
  5
3C9
330
1F
100
AcDbEntity
  8
0
  6
Continuous
 62
     7
 48
2.0
370
    15
100
AcDbLine
 10
28.6674051939
 20
11.0790400625
 30
0.0
 11
28.6670708718
 21
10.9765130402
 31
0.0
  0
LINE
  5
3CA
330
1F
100
AcDbEntity
  8
0
  6
Continuous
 62
     7
 48
2.0
370
    15
100
AcDbLine
 10
28.6670708718
 20
10.9765130402
 30
0.0
 11
28.7102756287
 21
10.9514366458
 31
0.0
  0
ARC
  5
3CB
330
1F
100
AcDbEntity
  8
0
  6
Continuous
 62
     7
 48
4.0
370
    15
100
AcDbCircle
 10
29.4172992569
 20
12.8906182556
 30
0.0
 40
0.7072395257148884
100
AcDbArc
 50
187.6128417112
 51
231.7837559199
  0
LINE
  5
3CC
330
1F
100
AcDbEntity
  8
0
  6
Continuous
 62
     7
 48
2.0
370
    15
100
AcDbLine
 10
28.979778841
 20
12.3349532194
 30
0.0
 11
28.9796145392
 21
12.2845665536
 31
0.0
  0
LINE
  5
3CD
330
1F
100
AcDbEntity
  8
0
  6
Continuous
 62
     7
 48
2.0
370
    15
100
AcDbLine
 10
28.9796145392
 20
12.2845665536
 30
0.0
 11
29.0675276802
 21
12.2335410472
 31
0.0
  0
LINE
  5
3CE
330
1F
100
AcDbEntity
  8
0
  6
Continuous
 62
     7
 48
2.0
370
    15
100
AcDbLine
 10
29.0675276802
 20
12.2335410472
 30
0.0
 11
29.0676919821
 21
12.2839277131
 31
0.0
  0
ARC
  5
3CF
330
1F
100
AcDbEntity
  8
0
  6
Continuous
 62
     7
 48
4.0
370
    15
100
AcDbCircle
 10
29.1531116896
 20
12.442497783
 30
0.0
 40
0.1801138348401191
100
AcDbArc
 50
241.6892105199
 51
358.8468241446
  0
LINE
  5
3D0
330
1F
100
AcDbEntity
  8
0
  6
Continuous
 62
     7
 48
2.0
370
    15
100
AcDbLine
 10
29.333189045
 20
12.4388729278
 30
0.0
 11
29.3763938018
 21
12.4137965334
 31
0.0
  0
LINE
  5
3D1
330
1F
100
AcDbEntity
  8
0
  6
Continuous
 62
     7
 48
2.0
370
    15
100
AcDbLine
 10
29.3763938018
 20
12.4137965334
 30
0.0
 11
29.3767281242
 21
12.5163236158
 31
0.0
  0
LINE
  5
3D2
330
1F
100
AcDbEntity
  8
0
  6
Continuous
 62
     7
 48
2.0
370
    15
100
AcDbLine
 10
29.3767281242
 20
12.5163236158
 30
0.0
 11
29.3335233673
 21
12.5414000102
 31
0.0
  0
ARC
  5
3D3
330
1F
100
AcDbEntity
  8
0
  6
Continuous
 62
     7
 48
4.0
370
    15
100
AcDbCircle
 10
28.6325178549
 20
12.4477061238
 30
0.0
 40
0.707239190614874
100
AcDbArc
 50
7.6128306957
 51
51.7837669353
  0
LINE
  5
3D4
330
1F
100
AcDbEntity
  8
0
  6
Continuous
 62
     7
 48
2.0
370
    15
100
AcDbLine
 10
29.0700379567
 20
13.0033709808
 30
0.0
 11
29.0702022587
 21
13.0537577068
 31
0.0
  0
LINE
  5
3D5
330
1F
100
AcDbEntity
  8
0
  6
Continuous
 62
     7
 48
2.0
370
    15
100
AcDbLine
 10
29.0702022587
 20
13.0537577068
 30
0.0
 11
28.9822891177
 21
13.1047832131
 31
0.0
  0
LINE
  5
3D6
330
1F
100
AcDbEntity
  8
0
  6
Continuous
 62
     7
 48
2.0
370
    15
100
AcDbLine
 10
28.9822891177
 20
13.1047832131
 30
0.0
 11
28.9821248156
 21
13.0543964871
 31
0.0
  0
ARC
  5
3D7
330
1F
100
AcDbEntity
  8
0
  6
Continuous
 62
     7
 48
4.0
370
    15
100
AcDbCircle
 10
28.8967050651
 20
12.8958264909
 30
0.0
 40
0.1801137903584669
100
AcDbArc
 50
61.6891873577
 51
178.8468473068
  0
LINE
  5
3D8
330
1F
100
AcDbEntity
  8
0
  6
Continuous
 62
     7
 48
2.0
370
    15
100
AcDbLine
 10
28.7166277527
 20
12.8994512724
 30
0.0
 11
28.6734229959
 21
12.9245276668
 31
0.0
  0
LINE
  5
3D9
330
1F
100
AcDbEntity
  8
0
  6
Continuous
 62
     7
 48
2.0
370
    15
100
AcDbLine
 10
28.6734229959
 20
12.9245276668
 30
0.0
 11
28.6730886736
 21
12.8220005844
 31
0.0
  0
LINE
  5
3DA
330
1F
100
AcDbEntity
  8
0
  6
Continuous
 62
     7
 48
2.0
370
    15
100
AcDbLine
 10
28.6730886736
 20
12.8220005844
 30
0.0
 11
28.7162934304
 21
12.79692419
 31
0.0
  0
LINE
  5
3DB
330
1F
100
AcDbEntity
  8
0
  6
Continuous
 62
     7
 48
2.0
370
    15
100
AcDbLine
 10
28.2320236018
 20
18.7748211743
 30
0.0
 11
27.9426943048
 21
18.6117091807
 31
0.0
  0
LINE
  5
3DC
330
1F
100
AcDbEntity
  8
0
  6
Continuous
 62
     7
 48
2.0
370
    15
100
AcDbLine
 10
30.5627768694
 20
17.4220329073
 30
0.0
 11
28.2320236018
 21
18.7748211743
 31
0.0
  0
LINE
  5
3DD
330
1F
100
AcDbEntity
  8
0
  6
Continuous
 62
     7
 48
2.0
370
    15
100
AcDbLine
 10
29.3885908206
 20
16.1542962658
 30
0.0
 11
29.3452246491
 21
16.1298481965
 31
0.0
  0
LINE
  5
3DE
330
1F
100
AcDbEntity
  8
0
  6
Continuous
 62
     7
 48
2.0
370
    15
100
AcDbLine
 10
29.0382816545
 20
16.7702456189
 30
0.0
 11
28.9941604201
 21
16.7453718762
 31
0.0
  0
LINE
  5
3DF
330
1F
100
AcDbEntity
  8
0
  6
Continuous
 62
     7
 48
2.0
370
    15
100
AcDbLine
 10
29.1351764314
 20
16.0061628271
 30
0.0
 11
29.0797275863
 21
15.9749030419
 31
0.0
  0
ARC
  5
3E0
330
1F
100
AcDbEntity
  8
0
  6
Continuous
 62
     7
 48
4.0
370
    15
100
AcDbCircle
 10
29.2256968357
 20
16.1944580861
 30
0.0
 40
0.2089235462414493
100
AcDbArc
 50
244.3247074616
 51
285.2174474746
  0
LINE
  5
3E1
330
1F
100
AcDbEntity
  8
0
  6
Continuous
 62
     7
 48
2.0
370
    15
100
AcDbLine
 10
28.7841122017
 20
16.6216862662
 30
0.0
 11
28.7286633566
 21
16.590426481
 31
0.0
  0
ARC
  5
3E2
330
1F
100
AcDbEntity
  8
0
  6
Continuous
 62
     7
 48
4.0
370
    15
100
AcDbCircle
 10
28.9961488494
 20
16.6053255656
 30
0.0
 40
0.2126669050071668
100
AcDbArc
 50
133.856695404
 51
175.5878127179
  0
ARC
  5
3E3
330
1F
100
AcDbEntity
  8
0
  6
Continuous
 62
     7
 48
4.0
370
    15
100
AcDbCircle
 10
28.2049344935
 20
18.737124575
 30
0.0
 40
0.0464203983776897
100
AcDbArc
 50
54.2986430291
 51
113.9331371231
  0
LINE
  5
3E4
330
1F
100
AcDbEntity
  8
0
  6
Continuous
 62
     7
 48
2.0
370
    15
100
AcDbLine
 10
28.7837778796
 20
16.5191592439
 30
0.0
 11
28.7283290345
 21
16.4878994587
 31
0.0
  0
LINE
  5
3E5
330
1F
100
AcDbEntity
  8
0
  6
Continuous
 62
     7
 48
2.0
370
    15
100
AcDbLine
 10
29.0472632904
 20
16.0571883335
 30
0.0
 11
28.9918144453
 21
16.0259285483
 31
0.0
  0
ARC
  5
3E6
330
1F
100
AcDbEntity
  8
0
  6
Continuous
 62
     7
 48
4.0
370
    15
100
AcDbCircle
 10
29.4847833147
 20
16.6128531588
 30
0.0
 40
0.7072391178161873
100
AcDbArc
 50
187.6128338112
 51
231.7837702774
  0
LINE
  5
3E7
330
1F
100
AcDbEntity
  8
0
  6
Continuous
 62
     7
 48
2.0
370
    15
100
AcDbLine
 10
29.0470989886
 20
16.0068016676
 30
0.0
 11
28.9916501435
 21
15.9755418825
 31
0.0
  0
LINE
  5
3E8
330
1F
100
AcDbEntity
  8
0
  6
Continuous
 62
     7
 48
2.0
370
    15
100
AcDbLine
 10
29.0470989886
 20
16.0068016676
 30
0.0
 11
29.0910551588
 21
15.9812891467
 31
0.0
  0
LINE
  5
3E9
330
1F
100
AcDbEntity
  8
0
  6
Continuous
 62
     7
 48
2.0
370
    15
100
AcDbLine
 10
28.7405731227
 20
16.5442356383
 30
0.0
 11
28.6851242776
 21
16.5129758531
 31
0.0
  0
LINE
  5
3EA
330
1F
100
AcDbEntity
  8
0
  6
Continuous
 62
     7
 48
2.0
370
    15
100
AcDbLine
 10
28.7407459548
 20
16.5972382841
 30
0.0
 11
28.7405731227
 21
16.5442356383
 31
0.0
  0
LINE
  5
3EB
330
1F
100
AcDbEntity
  8
0
  6
Continuous
 62
     7
 48
2.0
370
    15
100
AcDbLine
 10
29.0472632904
 20
16.0571883335
 30
0.0
 11
29.0470989886
 21
16.0068016676
 31
0.0
  0
LINE
  5
3EC
330
1F
100
AcDbEntity
  8
0
  6
Continuous
 62
     7
 48
2.0
370
    15
100
AcDbLine
 10
28.7405731227
 20
16.5442356383
 30
0.0
 11
28.7837778796
 21
16.5191592439
 31
0.0
  0
LINE
  5
3ED
330
1F
100
AcDbEntity
  8
0
  6
Continuous
 62
     7
 48
2.0
370
    15
100
AcDbLine
 10
29.3825730187
 20
14.3088086615
 30
0.0
 11
29.3392068471
 21
14.2843605922
 31
0.0
  0
LINE
  5
3EE
330
1F
100
AcDbEntity
  8
0
  6
Continuous
 62
     7
 48
2.0
370
    15
100
AcDbLine
 10
29.0322638522
 20
14.9247578943
 30
0.0
 11
28.9881426178
 21
14.8998841516
 31
0.0
  0
LINE
  5
3EF
330
1F
100
AcDbEntity
  8
0
  6
Continuous
 62
     7
 48
2.0
370
    15
100
AcDbLine
 10
29.1291586293
 20
14.1606751627
 30
0.0
 11
29.0737097842
 21
14.1294153775
 31
0.0
  0
ARC
  5
3F0
330
1F
100
AcDbEntity
  8
0
  6
Continuous
 62
     7
 48
4.0
370
    15
100
AcDbCircle
 10
29.2196787273
 20
14.3489688963
 30
0.0
 40
0.2089220387530903
100
AcDbArc
 50
244.3246019153
 51
285.2176470956
  0
LINE
  5
3F1
330
1F
100
AcDbEntity
  8
0
  6
Continuous
 62
     7
 48
2.0
370
    15
100
AcDbLine
 10
28.7780943999
 20
14.776198722
 30
0.0
 11
28.7226455549
 21
14.7449389369
 31
0.0
  0
ARC
  5
3F2
330
1F
100
AcDbEntity
  8
0
  6
Continuous
 62
     7
 48
4.0
370
    15
100
AcDbCircle
 10
28.9901325008
 20
14.7598372681
 30
0.0
 40
0.2126684118317882
100
AcDbArc
 50
133.8568483513
 51
175.5876404772
  0
LINE
  5
3F3
330
1F
100
AcDbEntity
  8
0
  6
Continuous
 62
     7
 48
2.0
370
    15
100
AcDbLine
 10
28.7777600776
 20
14.6736716396
 30
0.0
 11
28.7223112325
 21
14.6424118544
 31
0.0
  0
LINE
  5
3F4
330
1F
100
AcDbEntity
  8
0
  6
Continuous
 62
     7
 48
2.0
370
    15
100
AcDbLine
 10
29.0412454883
 20
14.211700669
 30
0.0
 11
28.9857966432
 21
14.1804408839
 31
0.0
  0
ARC
  5
3F5
330
1F
100
AcDbEntity
  8
0
  6
Continuous
 62
     7
 48
4.0
370
    15
100
AcDbCircle
 10
29.47876559
 20
14.767365526
 30
0.0
 40
0.7072391906148889
100
AcDbArc
 50
187.6128306957
 51
231.7837669353
  0
LINE
  5
3F6
330
1F
100
AcDbEntity
  8
0
  6
Continuous
 62
     7
 48
2.0
370
    15
100
AcDbLine
 10
29.0410811862
 20
14.161313943
 30
0.0
 11
28.9856323411
 21
14.1300541579
 31
0.0
  0
LINE
  5
3F7
330
1F
100
AcDbEntity
  8
0
  6
Continuous
 62
     7
 48
2.0
370
    15
100
AcDbLine
 10
29.0410811862
 20
14.161313943
 30
0.0
 11
29.0850373565
 21
14.1358014222
 31
0.0
  0
LINE
  5
3F8
330
1F
100
AcDbEntity
  8
0
  6
Continuous
 62
     7
 48
2.0
370
    15
100
AcDbLine
 10
28.7345553208
 20
14.698748034
 30
0.0
 11
28.6791064757
 21
14.6674882488
 31
0.0
  0
LINE
  5
3F9
330
1F
100
AcDbEntity
  8
0
  6
Continuous
 62
     7
 48
2.0
370
    15
100
AcDbLine
 10
28.7347281526
 20
14.7517506196
 30
0.0
 11
28.7345553208
 21
14.698748034
 31
0.0
  0
LINE
  5
3FA
330
1F
100
AcDbEntity
  8
0
  6
Continuous
 62
     7
 48
2.0
370
    15
100
AcDbLine
 10
29.0412454883
 20
14.211700669
 30
0.0
 11
29.0410811862
 21
14.161313943
 31
0.0
  0
LINE
  5
3FB
330
1F
100
AcDbEntity
  8
0
  6
Continuous
 62
     7
 48
2.0
370
    15
100
AcDbLine
 10
28.7345553208
 20
14.698748034
 30
0.0
 11
28.7777600776
 21
14.6736716396
 31
0.0
  0
LINE
  5
3FC
330
1F
100
AcDbEntity
  8
0
  6
Continuous
 62
     7
 48
2.0
370
    15
100
AcDbLine
 10
29.3765552166
 20
12.4633209971
 30
0.0
 11
29.333189045
 21
12.4388729278
 31
0.0
  0
LINE
  5
3FD
330
1F
100
AcDbEntity
  8
0
  6
Continuous
 62
     7
 48
2.0
370
    15
100
AcDbLine
 10
29.0262460501
 20
13.0792702299
 30
0.0
 11
28.9821248156
 21
13.0543964871
 31
0.0
  0
LINE
  5
3FE
330
1F
100
AcDbEntity
  8
0
  6
Continuous
 62
     7
 48
2.0
370
    15
100
AcDbLine
 10
29.1231408272
 20
12.3151874982
 30
0.0
 11
29.0676919821
 21
12.2839277131
 31
0.0
  0
ARC
  5
3FF
330
1F
100
AcDbEntity
  8
0
  6
Continuous
 62
     7
 48
4.0
370
    15
100
AcDbCircle
 10
29.2136610887
 20
12.5034830183
 30
0.0
 40
0.2089237196218934
100
AcDbArc
 50
244.324773773
 51
285.2174752379
  0
LINE
  5
400
330
1F
100
AcDbEntity
  8
0
  6
Continuous
 62
     7
 48
2.0
370
    15
100
AcDbLine
 10
28.7720765978
 20
12.9307110576
 30
0.0
 11
28.7166277527
 21
12.8994512724
 31
0.0
  0
ARC
  5
401
330
1F
100
AcDbEntity
  8
0
  6
Continuous
 62
     7
 48
4.0
370
    15
100
AcDbCircle
 10
28.9841138342
 20
12.9143500119
 30
0.0
 40
0.2126675185501654
100
AcDbArc
 50
133.8567566174
 51
175.5877322111
  0
LINE
  5
402
330
1F
100
AcDbEntity
  8
0
  6
Continuous
 62
     7
 48
2.0
370
    15
100
AcDbLine
 10
28.7717422755
 20
12.8281839751
 30
0.0
 11
28.7162934304
 21
12.79692419
 31
0.0
  0
LINE
  5
403
330
1F
100
AcDbEntity
  8
0
  6
Continuous
 62
     7
 48
2.0
370
    15
100
AcDbLine
 10
29.0352276861
 20
12.3662130046
 30
0.0
 11
28.979778841
 21
12.3349532194
 31
0.0
  0
ARC
  5
404
330
1F
100
AcDbEntity
  8
0
  6
Continuous
 62
     7
 48
4.0
370
    15
100
AcDbCircle
 10
29.472748102
 20
12.9218780408
 30
0.0
 40
0.7072395257148869
100
AcDbArc
 50
187.6128417112
 51
231.7837559199
  0
LINE
  5
405
330
1F
100
AcDbEntity
  8
0
  6
Continuous
 62
     7
 48
2.0
370
    15
100
AcDbLine
 10
29.0350633843
 20
12.3158263387
 30
0.0
 11
28.9796145392
 21
12.2845665536
 31
0.0
  0
LINE
  5
406
330
1F
100
AcDbEntity
  8
0
  6
Continuous
 62
     7
 48
2.0
370
    15
100
AcDbLine
 10
29.0350633843
 20
12.3158263387
 30
0.0
 11
29.0790195546
 21
12.2903138179
 31
0.0
  0
LINE
  5
407
330
1F
100
AcDbEntity
  8
0
  6
Continuous
 62
     7
 48
2.0
370
    15
100
AcDbLine
 10
28.7285375186
 20
12.8532603695
 30
0.0
 11
28.6730886736
 21
12.8220005844
 31
0.0
  0
LINE
  5
408
330
1F
100
AcDbEntity
  8
0
  6
Continuous
 62
     7
 48
2.0
370
    15
100
AcDbLine
 10
28.7287103505
 20
12.9062629552
 30
0.0
 11
28.7285375186
 21
12.8532603695
 31
0.0
  0
LINE
  5
409
330
1F
100
AcDbEntity
  8
0
  6
Continuous
 62
     7
 48
2.0
370
    15
100
AcDbLine
 10
29.0352276861
 20
12.3662130046
 30
0.0
 11
29.0350633843
 21
12.3158263387
 31
0.0
  0
LINE
  5
40A
330
1F
100
AcDbEntity
  8
0
  6
Continuous
 62
     7
 48
2.0
370
    15
100
AcDbLine
 10
28.7285375186
 20
12.8532603695
 30
0.0
 11
28.7717422755
 21
12.8281839751
 31
0.0
  0
LINE
  5
40B
330
1F
100
AcDbEntity
  8
0
  6
Continuous
 62
     7
 48
2.0
370
    15
100
AcDbLine
 10
29.3705374148
 20
10.6178334529
 30
0.0
 11
29.3271712432
 21
10.5933853836
 31
0.0
  0
LINE
  5
40C
330
1F
100
AcDbEntity
  8
0
  6
Continuous
 62
     7
 48
2.0
370
    15
100
AcDbLine
 10
29.0202282479
 20
11.2337825655
 30
0.0
 11
28.9761070135
 21
11.2089088227
 31
0.0
  0
LINE
  5
40D
330
1F
100
AcDbEntity
  8
0
  6
Continuous
 62
     7
 48
2.0
370
    15
100
AcDbLine
 10
29.1171230248
 20
10.4696997736
 30
0.0
 11
29.0616741797
 21
10.4384399885
 31
0.0
  0
ARC
  5
40E
330
1F
100
AcDbEntity
  8
0
  6
Continuous
 62
     7
 48
4.0
370
    15
100
AcDbCircle
 10
29.2076431435
 20
10.6579955547
 30
0.0
 40
0.2089238930159071
100
AcDbArc
 50
244.3248400857
 51
285.2175029997
  0
LINE
  5
40F
330
1F
100
AcDbEntity
  8
0
  6
Continuous
 62
     7
 48
2.0
370
    15
100
AcDbLine
 10
28.7660587959
 20
11.0852234533
 30
0.0
 11
28.7106099508
 21
11.0539636681
 31
0.0
  0
ARC
  5
410
330
1F
100
AcDbEntity
  8
0
  6
Continuous
 62
     7
 48
4.0
370
    15
100
AcDbCircle
 10
28.9780982858
 20
11.0688614105
 30
0.0
 40
0.2126698421365122
100
AcDbArc
 50
133.8569970259
 51
175.587511096
  0
ARC
  5
411
330
1F
100
AcDbEntity
  8
0
  6
Continuous
 62
     7
 48
4.0
370
    15
100
AcDbCircle
 10
30.5556949704
 20
8.8424973166
 30
0.0
 40
0.0450018672806433
100
AcDbArc
 50
303.6239317017
 51
7.1193117237
  0
LINE
  5
412
330
1F
100
AcDbEntity
  8
0
  6
Continuous
 62
     7
 48
2.0
370
    15
100
AcDbLine
 10
28.7657244738
 20
10.982696431
 30
0.0
 11
28.7102756287
 21
10.9514366458
 31
0.0
  0
LINE
  5
413
330
1F
100
AcDbEntity
  8
0
  6
Continuous
 62
     7
 48
2.0
370
    15
100
AcDbLine
 10
29.0292098838
 20
10.52072528
 30
0.0
 11
28.9737610387
 21
10.4894654948
 31
0.0
  0
ARC
  5
414
330
1F
100
AcDbEntity
  8
0
  6
Continuous
 62
     7
 48
4.0
370
    15
100
AcDbCircle
 10
29.466730582
 20
11.0763904397
 30
0.0
 40
0.7072397974679115
100
AcDbArc
 50
187.6128341188
 51
231.7837441396
  0
LINE
  5
415
330
1F
100
AcDbEntity
  8
0
  6
Continuous
 62
     7
 48
2.0
370
    15
100
AcDbLine
 10
29.029045582
 20
10.4703386142
 30
0.0
 11
28.9735967369
 21
10.439078829
 31
0.0
  0
LINE
  5
416
330
1F
100
AcDbEntity
  8
0
  6
Continuous
 62
     7
 48
2.0
370
    15
100
AcDbLine
 10
29.029045582
 20
10.4703386142
 30
0.0
 11
29.0730017522
 21
10.4448260933
 31
0.0
  0
LINE
  5
417
330
1F
100
AcDbEntity
  8
0
  6
Continuous
 62
     7
 48
2.0
370
    15
100
AcDbLine
 10
28.7225197169
 20
11.0077728254
 30
0.0
 11
28.6670708718
 21
10.9765130402
 31
0.0
  0
LINE
  5
418
330
1F
100
AcDbEntity
  8
0
  6
Continuous
 62
     7
 48
2.0
370
    15
100
AcDbLine
 10
28.7226925482
 20
11.0607752306
 30
0.0
 11
28.7225197169
 21
11.0077728254
 31
0.0
  0
LINE
  5
419
330
1F
100
AcDbEntity
  8
0
  6
Continuous
 62
     7
 48
2.0
370
    15
100
AcDbLine
 10
29.0292098838
 20
10.52072528
 30
0.0
 11
29.029045582
 21
10.4703386142
 31
0.0
  0
LINE
  5
41A
330
1F
100
AcDbEntity
  8
0
  6
Continuous
 62
     7
 48
2.0
370
    15
100
AcDbLine
 10
28.7225197169
 20
11.0077728254
 30
0.0
 11
28.7657244738
 21
10.982696431
 31
0.0
  0
ARC
  5
41B
330
1F
100
AcDbEntity
  8
0
  6
Continuous
 62
     7
 48
4.0
370
    15
100
AcDbCircle
 10
32.0569242834
 20
18.186406397
 30
0.0
 40
0.1427883899466536
100
AcDbArc
 50
2.2766631033
 51
57.1200426109
  0
LINE
  5
41C
330
1F
100
AcDbEntity
  8
0
  6
Continuous
 62
     7
 48
2.0
370
    15
100
AcDbLine
 10
32.1995999645
 20
18.1920786388
 30
0.0
 11
32.172683004
 21
9.9374172917
 31
0.0
  0
LINE
  5
41D
330
1F
100
AcDbEntity
  8
0
  6
Continuous
 62
     7
 48
2.0
370
    15
100
AcDbLine
 10
29.9795144506
 20
19.557058691
 30
0.0
 11
32.1344413459
 21
18.3063214891
 31
0.0
  0
LINE
  5
41E
330
1F
100
AcDbEntity
  8
0
  6
Continuous
 62
     7
 48
2.0
370
    15
100
AcDbLine
 10
28.9110916368
 20
10.6388894767
 30
0.0
 11
29.2882421856
 21
10.8515114909
 31
0.0
  0
LWPOLYLINE
  5
41F
330
1F
100
AcDbEntity
  8
0
  6
Continuous
 62
     7
 48
2.0
370
    15
100
AcDbPolyline
 90
       12
 70
   128
 43
0.0
 10
30.0305131093
 20
16.8111790043
 10
30.0309839681
 20
16.8132125575
 10
30.0352676826
 20
16.853698627
 10
30.031263689
 20
16.8989949503
 10
30.019172821
 20
16.9468299792
 10
29.9996013367
 20
16.9948053266
 10
29.9735307175
 20
17.0405152588
 10
29.9422681461
 20
17.0816675195
 10
29.9073812592
 20
17.1161988178
 10
29.8706195254
 20
17.1423773487
 10
29.8338262238
 20
17.1588907622
 10
29.8257024918
 20
17.1611871522
  0
LWPOLYLINE
  5
420
330
1F
100
AcDbEntity
  8
0
  6
Continuous
 62
     7
 48
2.0
370
    15
100
AcDbPolyline
 90
       23
 70
   128
 43
0.0
 10
29.7054321269
 20
17.0735938419
 10
29.7072523477
 20
17.0895188244
 10
29.7175632046
 20
17.1263394029
 10
29.7354999904
 20
17.1551783501
 10
29.760223999
 20
17.174686866
 10
29.7905792322
 20
17.1839531706
 10
29.8251462728
 20
17.1825435503
 10
29.8623088064
 20
17.1705240099
 10
29.9003291554
 20
17.1484566883
 10
29.9374294741
 20
17.1173734616
 10
29.9718750939
 20
17.0787275692
 10
30.0020552742
 20
17.0343260152
 10
30.02655899
 20
16.9862453252
 10
30.044240236
 20
16.936733381
 10
30.0542724609
 20
16.8881055114
 10
30.0561864491
 20
16.8426352458
 10
30.049892713
 20
16.8024489952
 10
30.0356857135
 20
16.769425737
 10
30.0142295191
 20
16.7451094004
 10
29.9865274987
 20
16.7306372689
 10
29.9538749164
 20
16.7266857787
 10
29.9177986844
 20
16.7334399214
 10
29.8896529327
 20
16.7452835068
  0
LWPOLYLINE
  5
421
330
1F
100
AcDbEntity
  8
0
  6
Continuous
 62
     7
 48
2.0
370
    15
100
AcDbPolyline
 90
       17
 70
   128
 43
0.0
 10
30.0318632681
 20
16.7538922475
 10
30.0426650061
 20
16.761140162
 10
30.0641212005
 20
16.7854564986
 10
30.0783282
 20
16.8184797568
 10
30.084621936
 20
16.8586660073
 10
30.0827079479
 20
16.9041362729
 10
30.072675723
 20
16.9527641425
 10
30.054994477
 20
17.0022760868
 10
30.0304907612
 20
17.0503567767
 10
30.0003105808
 20
17.0947583307
 10
29.965864961
 20
17.1334042231
 10
29.9287646424
 20
17.1644874498
 10
29.8907442933
 20
17.1865547715
 10
29.8535817598
 20
17.1985743118
 10
29.8190147192
 20
17.1999839322
 10
29.788659486
 20
17.1907176275
 10
29.786316165
 20
17.1894454499
  0
LWPOLYLINE
  5
422
330
1F
100
AcDbEntity
  8
0
  6
Continuous
 62
     7
 48
2.0
370
    15
100
AcDbPolyline
 90
       12
 70
   128
 43
0.0
 10
28.2722502627
 20
17.8316891467
 10
28.2727211215
 20
17.8337226999
 10
28.2770048361
 20
17.8742087695
 10
28.2730008424
 20
17.9195050927
 10
28.2609100261
 20
17.9673400916
 10
28.2413385418
 20
18.015315439
 10
28.215267871
 20
18.0610254012
 10
28.1840052996
 20
18.1021776619
 10
28.1491184127
 20
18.1367089602
 10
28.1123566273
 20
18.162887521
 10
28.0755633773
 20
18.1794009046
 10
28.0674396453
 20
18.1816972946
  0
LWPOLYLINE
  5
423
330
1F
100
AcDbEntity
  8
0
  6
Continuous
 62
     7
 48
2.0
370
    15
100
AcDbPolyline
 90
       23
 70
   128
 43
0.0
 10
27.9471692288
 20
18.0941040142
 10
27.9489895012
 20
18.1100289668
 10
27.9593003581
 20
18.1468495453
 10
27.9772370923
 20
18.1756885224
 10
28.0019612041
 20
18.1951969785
 10
28.0323163857
 20
18.2044633131
 10
28.0668834263
 20
18.2030536927
 10
28.1040459083
 20
18.1910341823
 10
28.1420662573
 20
18.1689668606
 10
28.1791666275
 20
18.137883604
 10
28.2136122473
 20
18.0992377116
 10
28.2437924793
 20
18.0548361277
 10
28.2682960919
 20
18.0067554976
 10
28.2859773895
 20
17.9572435234
 10
28.2960096144
 20
17.9086156538
 10
28.2979236025
 20
17.8631453882
 10
28.2916299181
 20
17.8229591077
 10
28.2774228155
 20
17.7899359094
 10
28.255966621
 20
17.7656195728
 10
28.2282646006
 20
17.7511474412
 10
28.1956120699
 20
17.7471959211
 10
28.1595358379
 20
17.7539500638
 10
28.1313901378
 20
17.7657936193
  0
LWPOLYLINE
  5
424
330
1F
100
AcDbEntity
  8
0
  6
Continuous
 62
     7
 48
2.0
370
    15
100
AcDbPolyline
 90
       17
 70
   128
 43
0.0
 10
28.2736004216
 20
17.7744023899
 10
28.284402108
 20
17.7816503343
 10
28.3058583024
 20
17.8059666709
 10
28.320065405
 20
17.8389898692
 10
28.3263590895
 20
17.8791761497
 10
28.3244451013
 20
17.9246464153
 10
28.3144128764
 20
17.9732742849
 10
28.2967315789
 20
18.0227862591
 10
28.2722279662
 20
18.0708668892
 10
28.2420477343
 20
18.1152684731
 10
28.2076021145
 20
18.1539143655
 10
28.1705017443
 20
18.1849976222
 10
28.1324813953
 20
18.2070649438
 10
28.0953189132
 20
18.2190844542
 10
28.0607518727
 20
18.2204940746
 10
28.0303966911
 20
18.21122774
 10
28.0280533185
 20
18.2099555923
  0
LWPOLYLINE
  5
425
330
1F
100
AcDbEntity
  8
0
  6
Continuous
 62
     7
 48
2.0
370
    15
100
AcDbPolyline
 90
       12
 70
   128
 43
0.0
 10
30.0051046123
 20
9.0191202574
 10
30.0055754703
 20
9.02115357
 10
30.0098591849
 20
9.0616396395
 10
30.0058551912
 20
9.1069359627
 10
29.9937643232
 20
9.1547709916
 10
29.974192839
 20
9.202746339
 10
29.9481222197
 20
9.2484562713
 10
29.9168596483
 20
9.289608532
 10
29.8819727614
 20
9.3241398302
 10
29.8452110284
 20
9.3503186017
 10
29.808417726
 20
9.3668317746
 10
29.800293994
 20
9.3691281647
  0
LWPOLYLINE
  5
426
330
1F
100
AcDbEntity
  8
0
  6
Continuous
 62
     7
 48
2.0
370
    15
100
AcDbPolyline
 90
       23
 70
   128
 43
0.0
 10
29.6800236291
 20
9.2815348543
 10
29.68184385
 20
9.2974598369
 10
29.6921547068
 20
9.3342804154
 10
29.7100914926
 20
9.3631193626
 10
29.7348155013
 20
9.3826278785
 10
29.7651707345
 20
9.3918941831
 10
29.7997377742
 20
9.3904843221
 10
29.8369003086
 20
9.3784650224
 10
29.8749206576
 20
9.3563977007
 10
29.9120209755
 20
9.3253142334
 10
29.9464665961
 20
9.2866685816
 10
29.9766467764
 20
9.2422670277
 10
30.0011504922
 20
9.1941863377
 10
30.0188317382
 20
9.1446743934
 10
30.0288639631
 20
9.0960465238
 10
30.0307779513
 20
9.0505762582
 10
30.0244842152
 20
9.0103900077
 10
30.0102772158
 20
8.9773667495
 10
29.9888210213
 20
8.9530504129
 10
29.9611190002
 20
8.9385780408
 10
29.9284664187
 20
8.9346267911
 10
29.8923901866
 20
8.9413809338
 10
29.8642444357
 20
8.9532247599
  0
LWPOLYLINE
  5
427
330
1F
100
AcDbEntity
  8
0
  6
Continuous
 62
     7
 48
2.0
370
    15
100
AcDbPolyline
 90
       17
 70
   128
 43
0.0
 10
30.0064547704
 20
8.96183326
 10
30.0172565083
 20
8.9690811744
 10
30.0387127027
 20
8.993397511
 10
30.0529197022
 20
9.0264207692
 10
30.0592134382
 20
9.0666070198
 10
30.0572994501
 20
9.1120772854
 10
30.0472672252
 20
9.160705155
 10
30.0295859792
 20
9.2102170992
 10
30.0050822634
 20
9.2582977892
 10
29.9749020831
 20
9.3026993432
 10
29.9404564625
 20
9.341344995
 10
29.9033561446
 20
9.3724284623
 10
29.8653357956
 20
9.3944957839
 10
29.8281732612
 20
9.4065150837
 10
29.7936062214
 20
9.4079249446
 10
29.7632509882
 20
9.39865864
 10
29.7609076673
 20
9.3973864624
  0
LWPOLYLINE
  5
428
330
1F
100
AcDbEntity
  8
0
  6
Continuous
 62
     7
 48
2.0
370
    15
100
AcDbPolyline
 90
       12
 70
   128
 43
0.0
 10
28.2468417657
 20
10.0396303998
 10
28.2473126238
 20
10.0416637124
 10
28.2515963384
 20
10.0821497819
 10
28.2475923447
 20
10.1274461051
 10
28.2355015283
 20
10.1752811041
 10
28.215930044
 20
10.2232564515
 10
28.1898593732
 20
10.2689664137
 10
28.1585968018
 20
10.3101186744
 10
28.1237099149
 20
10.3446499727
 10
28.0869481304
 20
10.3708287741
 10
28.0501548795
 20
10.387341917
 10
28.0420311475
 20
10.3896383071
  0
LWPOLYLINE
  5
429
330
1F
100
AcDbEntity
  8
0
  6
Continuous
 62
     7
 48
2.0
370
    15
100
AcDbPolyline
 90
       23
 70
   128
 43
0.0
 10
27.921760731
 20
10.3020450267
 10
27.9235810034
 20
10.3179699793
 10
27.9338918603
 20
10.3547905578
 10
27.9518285945
 20
10.3836295349
 10
27.9765527063
 20
10.4031379909
 10
28.0069078879
 20
10.4124043255
 10
28.0414749277
 20
10.4109944646
 10
28.0786374105
 20
10.3989751947
 10
28.1166577595
 20
10.3769078731
 10
28.153758129
 20
10.3458243758
 10
28.1882037496
 20
10.307178724
 10
28.2183839815
 20
10.2627771401
 10
28.2428875941
 20
10.21469651
 10
28.2605688917
 20
10.1651845359
 10
28.2706011166
 20
10.1165566662
 10
28.2725151048
 20
10.0710864006
 10
28.2662214203
 20
10.0309001201
 10
28.2520143177
 20
9.9978769218
 10
28.2305581232
 20
9.9735605853
 10
28.2028561021
 20
9.9590882131
 10
28.1702035721
 20
9.9551369336
 10
28.1341273401
 20
9.9618910762
 10
28.1059816408
 20
9.9737348723
  0
LWPOLYLINE
  5
42A
330
1F
100
AcDbEntity
  8
0
  6
Continuous
 62
     7
 48
2.0
370
    15
100
AcDbPolyline
 90
       17
 70
   128
 43
0.0
 10
28.2481919238
 20
9.9823434024
 10
28.2589936102
 20
9.9895913468
 10
28.2804498046
 20
10.0139076834
 10
28.2946569072
 20
10.0469308817
 10
28.3009505917
 20
10.0871171622
 10
28.2990366036
 20
10.1325874278
 10
28.2890043787
 20
10.1812152974
 10
28.2713230811
 20
10.2307272716
 10
28.2468194684
 20
10.2788079017
 10
28.2166392365
 20
10.3232094856
 10
28.182193616
 20
10.3618551374
 10
28.1450932465
 20
10.3929386346
 10
28.1070728975
 20
10.4150059563
 10
28.0699104147
 20
10.4270252261
 10
28.0353433749
 20
10.4284350871
 10
28.0049881933
 20
10.4191687525
 10
28.0026448207
 20
10.4178966048
  0
LWPOLYLINE
  5
42B
330
1F
100
AcDbEntity
  8
0
  6
Continuous
 62
     7
 48
2.0
370
    15
100
AcDbPolyline
 90
       19
 70
   128
 43
0.0
 10
28.051541931
 20
17.8324030784
 10
28.0731563919
 20
17.8335812973
 10
28.0894783037
 20
17.8456235205
 10
28.098539057
 20
17.8670774473
 10
28.0992458103
 20
17.8953555044
 10
28.0915132391
 20
17.9270467087
 10
28.0762741279
 20
17.958328499
 10
28.0553664203
 20
17.9854283372
 10
28.0313119366
 20
18.0050770778
 10
28.0070120213
 20
18.0149052118
 10
27.9853976119
 20
18.013726963
 10
27.9690756478
 20
18.0016845291
 10
27.960014843
 20
17.9802306323
 10
27.959308142
 20
17.9519527858
 10
27.9670406616
 20
17.9202616114
 10
27.982279876
 20
17.8889797613
 10
28.0031875835
 20
17.8618799231
 10
28.0272420673
 20
17.8422311825
 10
28.051541931
 20
17.8324030784
  0
LWPOLYLINE
  5
42C
330
1F
100
AcDbEntity
  8
0
  6
Continuous
 62
     7
 48
2.0
370
    15
100
AcDbPolyline
 90
       16
 70
   128
 43
0.0
 10
28.2081087996
 20
17.7838625863
 10
28.2161967048
 20
17.7879786584
 10
28.2374579195
 20
17.8071708808
 10
28.2519410371
 20
17.835148528
 10
28.2588652227
 20
17.8704036244
 10
28.2578572461
 20
17.9110351762
 10
28.2489713531
 20
17.9548531007
 10
28.2326866998
 20
17.9994946958
 10
28.2098811108
 20
18.0425538877
 10
28.18178406
 20
18.0817087975
 10
28.1499102725
 20
18.1148489857
 10
28.1159781364
 20
18.1401874076
 10
28.0818168062
 20
18.1563586846
 10
28.0492679989
 20
18.1624905656
 10
28.0200864768
 20
18.1582527684
 10
28.002245623
 20
18.1490244043
  0
LWPOLYLINE
  5
42D
330
1F
100
AcDbEntity
  8
0
  6
Continuous
 62
     7
 48
2.0
370
    15
100
AcDbPolyline
 90
       20
 70
   128
 43
0.0
 10
28.1341356394
 20
17.7689573176
 10
28.1658901473
 20
17.7681857851
 10
28.1931339442
 20
17.7783825012
 10
28.2142837048
 20
17.7989545784
 10
28.2281102172
 20
17.8287070727
 10
28.2338100661
 20
17.8659103322
 10
28.2310519035
 20
17.9084023436
 10
28.2199960273
 20
17.9537138032
 10
28.2012849789
 20
17.9992114535
 10
28.1760062164
 20
18.0422506388
 10
28.145628806
 20
18.0803308867
 10
28.1119181612
 20
18.1112381986
 10
28.0768334364
 20
18.1331766773
 10
28.042413718
 20
18.1448717034
 10
28.0106592109
 20
18.1456434765
 10
27.983415414
 20
18.1354467605
 10
27.9622656526
 20
18.1148744427
 10
27.9484390895
 20
18.0851222189
 10
27.9427392921
 20
18.0479189295
 10
27.9426800206
 20
18.0460639853
  0
LWPOLYLINE
  5
42E
330
1F
100
AcDbEntity
  8
0
  6
Continuous
 62
     7
 48
2.0
370
    15
100
AcDbPolyline
 90
        3
 70
   128
 43
0.0
 10
28.0897603555
 20
17.7858694723
 10
28.0997158695
 20
17.7806523737
 10
28.1341356394
 20
17.7689573176
  0
LWPOLYLINE
  5
42F
330
1F
100
AcDbEntity
  8
0
  6
Continuous
 62
     7
 48
2.0
370
    15
100
AcDbPolyline
 90
       15
 70
   128
 43
0.0
 10
28.176323588
 20
17.8007327584
 10
28.1807229382
 20
17.8034698935
 10
28.1991448478
 20
17.8228705243
 10
28.2106003699
 20
17.8506936493
 10
28.2143697382
 20
17.8851909561
 10
28.2102160964
 20
17.9241950029
 10
28.1984004093
 20
17.9652549527
 10
28.1796651208
 20
18.0057909289
 10
28.1551874519
 20
18.043255627
 10
28.126505414
 20
18.075295372
 10
28.0954211425
 20
18.099896858
 10
28.0638878362
 20
18.1155137558
 10
28.0338868938
 20
18.1211659852
 10
28.0073033116
 20
18.1164973316
 10
28.0002257702
 20
18.1130965033
  0
LINE
  5
430
330
1F
100
AcDbEntity
  8
0
  6
Continuous
 62
     7
 48
2.0
370
    15
100
AcDbLine
 10
28.0925633528
 20
17.8965801027
 30
0.0
 11
28.084813343
 21
17.9283428961
 31
0.0
  0
LINE
  5
431
330
1F
100
AcDbEntity
  8
0
  6
Continuous
 62
     7
 48
2.0
370
    15
100
AcDbLine
 10
28.084813343
 20
17.9283428961
 30
0.0
 11
28.0370839403
 21
17.9373346894
 31
0.0
  0
LINE
  5
432
330
1F
100
AcDbEntity
  8
0
  6
Continuous
 62
     7
 48
2.0
370
    15
100
AcDbLine
 10
28.0370839403
 20
17.9373346894
 30
0.0
 11
28.0212517638
 21
18.0022216708
 31
0.0
  0
LINE
  5
433
330
1F
100
AcDbEntity
  8
0
  6
Continuous
 62
     7
 48
2.0
370
    15
100
AcDbLine
 10
28.0212517638
 20
18.0022216708
 30
0.0
 11
27.9978877218
 21
18.0066231949
 31
0.0
  0
LINE
  5
434
330
1F
100
AcDbEntity
  8
0
  6
Continuous
 62
     7
 48
2.0
370
    15
100
AcDbLine
 10
27.9978877218
 20
18.0066231949
 30
0.0
 11
28.0137200014
 21
17.9417361537
 31
0.0
  0
LINE
  5
435
330
1F
100
AcDbEntity
  8
0
  6
Continuous
 62
     7
 48
2.0
370
    15
100
AcDbLine
 10
28.0137200014
 20
17.9417361537
 30
0.0
 11
27.9659905987
 21
17.950727947
 31
0.0
  0
LINE
  5
436
330
1F
100
AcDbEntity
  8
0
  6
Continuous
 62
     7
 48
2.0
370
    15
100
AcDbLine
 10
27.9659905987
 20
17.950727947
 30
0.0
 11
27.9737406601
 21
17.9189651236
 31
0.0
  0
LINE
  5
437
330
1F
100
AcDbEntity
  8
0
  6
Continuous
 62
     7
 48
2.0
370
    15
100
AcDbLine
 10
27.9737406601
 20
17.9189651236
 30
0.0
 11
28.0214699604
 21
17.9099736308
 31
0.0
  0
LINE
  5
438
330
1F
100
AcDbEntity
  8
0
  6
Continuous
 62
     7
 48
2.0
370
    15
100
AcDbLine
 10
28.0214699604
 20
17.9099736308
 30
0.0
 11
28.0373021369
 21
17.8450866494
 31
0.0
  0
LINE
  5
439
330
1F
100
AcDbEntity
  8
0
  6
Continuous
 62
     7
 48
2.0
370
    15
100
AcDbLine
 10
28.0373021369
 20
17.8450866494
 30
0.0
 11
28.060666179
 21
17.8406851253
 31
0.0
  0
LINE
  5
43A
330
1F
100
AcDbEntity
  8
0
  6
Continuous
 62
     7
 48
2.0
370
    15
100
AcDbLine
 10
28.060666179
 20
17.8406851253
 30
0.0
 11
28.0448340017
 21
17.905571866
 31
0.0
  0
LINE
  5
43B
330
1F
100
AcDbEntity
  8
0
  6
Continuous
 62
     7
 48
2.0
370
    15
100
AcDbLine
 10
28.0448340017
 20
17.905571866
 30
0.0
 11
28.0925633528
 21
17.8965801027
 31
0.0
  0
LINE
  5
43C
330
1F
100
AcDbEntity
  8
0
  6
Continuous
 62
     7
 48
2.0
370
    15
100
AcDbLine
 10
28.0536411878
 20
17.8542979363
 30
0.0
 11
28.0575230419
 21
17.8535666218
 31
0.0
  0
LINE
  5
43D
330
1F
100
AcDbEntity
  8
0
  6
Continuous
 62
     7
 48
2.0
370
    15
100
AcDbLine
 10
28.0378090113
 20
17.9191849177
 30
0.0
 11
28.0536411878
 21
17.8542979363
 31
0.0
  0
LINE
  5
43E
330
1F
100
AcDbEntity
  8
0
  6
Continuous
 62
     7
 48
2.0
370
    15
100
AcDbLine
 10
27.990079711
 20
17.9281764105
 30
0.0
 11
28.0378090113
 21
17.9191849177
 31
0.0
  0
LINE
  5
43F
330
1F
100
AcDbEntity
  8
0
  6
Continuous
 62
     7
 48
2.0
370
    15
100
AcDbLine
 10
27.9854727523
 20
17.9470577708
 30
0.0
 11
27.990079711
 21
17.9281764105
 31
0.0
  0
LINE
  5
440
330
1F
100
AcDbEntity
  8
0
  6
Continuous
 62
     7
 48
2.0
370
    15
100
AcDbLine
 10
28.0173698746
 20
18.0029527781
 30
0.0
 11
28.0300590523
 21
17.9509474406
 31
0.0
  0
LINE
  5
441
330
1F
100
AcDbEntity
  8
0
  6
Continuous
 62
     7
 48
2.0
370
    15
100
AcDbLine
 10
28.0611730526
 20
17.9147831529
 30
0.0
 11
28.0894202166
 21
17.9094618398
 31
0.0
  0
LINE
  5
442
330
1F
100
AcDbEntity
  8
0
  6
Continuous
 62
     7
 48
2.0
370
    15
100
AcDbLine
 10
28.0611730526
 20
17.9147831529
 30
0.0
 11
28.0448340017
 21
17.905571866
 31
0.0
  0
LINE
  5
443
330
1F
100
AcDbEntity
  8
0
  6
Continuous
 62
     7
 48
2.0
370
    15
100
AcDbLine
 10
28.0300590523
 20
17.9509474406
 30
0.0
 11
28.0137200014
 21
17.9417361537
 31
0.0
  0
LINE
  5
444
330
1F
100
AcDbEntity
  8
0
  6
Continuous
 62
     7
 48
2.0
370
    15
100
AcDbLine
 10
28.0536411878
 20
17.8542979363
 30
0.0
 11
28.0373021369
 21
17.8450866494
 31
0.0
  0
LINE
  5
445
330
1F
100
AcDbEntity
  8
0
  6
Continuous
 62
     7
 48
2.0
370
    15
100
AcDbLine
 10
27.990079711
 20
17.9281764105
 30
0.0
 11
27.9737406601
 21
17.9189651236
 31
0.0
  0
LINE
  5
446
330
1F
100
AcDbEntity
  8
0
  6
Continuous
 62
     7
 48
2.0
370
    15
100
AcDbLine
 10
28.0378090113
 20
17.9191849177
 30
0.0
 11
28.0214699604
 21
17.9099736308
 31
0.0
  0
LWPOLYLINE
  5
447
330
1F
100
AcDbEntity
  8
0
  6
Continuous
 62
     7
 48
2.0
370
    15
100
AcDbPolyline
 90
       19
 70
   128
 43
0.0
 10
29.8098047775
 20
16.811892936
 10
29.8314191869
 20
16.8130711849
 10
29.8477411502
 20
16.8251133781
 10
29.8568019551
 20
16.8465672749
 10
29.8575086568
 20
16.874845362
 10
29.8497761372
 20
16.9065365364
 10
29.8345369228
 20
16.9378183865
 10
29.8136292153
 20
16.9649182247
 10
29.7895747316
 20
16.9845669653
 10
29.7652748678
 20
16.9943950694
 10
29.7436604069
 20
16.9932168505
 10
29.7273384943
 20
16.9811743867
 10
29.7182777411
 20
16.95972046
 10
29.7175709885
 20
16.9314426434
 10
29.7253035597
 20
16.8997514391
 10
29.7405426709
 20
16.8684696488
 10
29.7614503785
 20
16.8413698106
 10
29.7855048622
 20
16.8217210701
 10
29.8098047775
 20
16.811892936
  0
LWPOLYLINE
  5
448
330
1F
100
AcDbEntity
  8
0
  6
Continuous
 62
     7
 48
2.0
370
    15
100
AcDbPolyline
 90
       16
 70
   128
 43
0.0
 10
29.9663716461
 20
16.7633524439
 10
29.9744595513
 20
16.767468516
 10
29.995720766
 20
16.7866607384
 10
30.0102038836
 20
16.8146383856
 10
30.0171280692
 20
16.849893482
 10
30.0161200411
 20
16.8905250637
 10
30.0072342512
 20
16.9343429283
 10
29.9909495463
 20
16.9789845534
 10
29.9681439573
 20
17.0220437453
 10
29.9400469581
 20
17.0611986251
 10
29.908173119
 20
17.0943388432
 10
29.8742409313
 20
17.1196772951
 10
29.8400796527
 20
17.1358485422
 10
29.807530897
 20
17.1419803933
 10
29.7783493749
 20
17.1377425961
 10
29.7605084179
 20
17.1285142918
  0
LWPOLYLINE
  5
449
330
1F
100
AcDbEntity
  8
0
  6
Continuous
 62
     7
 48
2.0
370
    15
100
AcDbPolyline
 90
       20
 70
   128
 43
0.0
 10
29.8923984859
 20
16.7484471752
 10
29.9241529938
 20
16.7476756427
 10
29.9513967907
 20
16.7578723588
 10
29.9725465513
 20
16.778444436
 10
29.9863731153
 20
16.8081969004
 10
29.9920729126
 20
16.8454001898
 10
29.9893146985
 20
16.8878922312
 10
29.9782588738
 20
16.9332036608
 10
29.9595478254
 20
16.9787013111
 10
29.9342691145
 20
17.0217404664
 10
29.9038917041
 20
17.0598207143
 10
29.8701810593
 20
17.0907280263
 10
29.8350963345
 20
17.112666505
 10
29.8006765645
 20
17.124361561
 10
29.7689220574
 20
17.1251333341
 10
29.7416782605
 20
17.1149366181
 10
29.7205284991
 20
17.0943643002
 10
29.7067019875
 20
17.0646120465
 10
29.7010021386
 20
17.027408787
 10
29.7009428671
 20
17.0255538429
  0
LWPOLYLINE
  5
44A
330
1F
100
AcDbEntity
  8
0
  6
Continuous
 62
     7
 48
2.0
370
    15
100
AcDbPolyline
 90
        3
 70
   128
 43
0.0
 10
29.8473266495
 20
16.7657542137
 10
29.8579787676
 20
16.7601422013
 10
29.8923984859
 20
16.7484471752
  0
LWPOLYLINE
  5
44B
330
1F
100
AcDbEntity
  8
0
  6
Continuous
 62
     7
 48
2.0
370
    15
100
AcDbPolyline
 90
       15
 70
   128
 43
0.0
 10
29.9345864346
 20
16.780222616
 10
29.9389857847
 20
16.7829597511
 10
29.9574076427
 20
16.8023604118
 10
29.968863268
 20
16.8301834769
 10
29.9726326363
 20
16.8646807837
 10
29.9684789429
 20
16.9036848605
 10
29.9566632042
 20
16.9447448402
 10
29.9379280189
 20
16.9852807565
 10
29.9134502469
 20
17.0227455146
 10
29.8847682605
 20
17.0547852296
 10
29.8536840406
 20
17.0793866857
 10
29.8221507343
 20
17.0950035834
 10
29.7921497404
 20
17.1006558428
 10
29.7655662097
 20
17.0959871592
 10
29.7584886167
 20
17.0925863609
  0
LINE
  5
44C
330
1F
100
AcDbEntity
  8
0
  6
Continuous
 62
     7
 48
2.0
370
    15
100
AcDbLine
 10
29.8508261993
 20
16.8760699602
 30
0.0
 11
29.843076138
 21
16.9078327836
 31
0.0
  0
LINE
  5
44D
330
1F
100
AcDbEntity
  8
0
  6
Continuous
 62
     7
 48
2.0
370
    15
100
AcDbLine
 10
29.843076138
 20
16.9078327836
 30
0.0
 11
29.7953468384
 21
16.9168245171
 31
0.0
  0
LINE
  5
44E
330
1F
100
AcDbEntity
  8
0
  6
Continuous
 62
     7
 48
2.0
370
    15
100
AcDbLine
 10
29.7953468384
 20
16.9168245171
 30
0.0
 11
29.7795146619
 21
16.9817114984
 31
0.0
  0
LINE
  5
44F
330
1F
100
AcDbEntity
  8
0
  6
Continuous
 62
     7
 48
2.0
370
    15
100
AcDbLine
 10
29.7795146619
 20
16.9817114984
 30
0.0
 11
29.7561506199
 21
16.9861130226
 31
0.0
  0
LINE
  5
450
330
1F
100
AcDbEntity
  8
0
  6
Continuous
 62
     7
 48
2.0
370
    15
100
AcDbLine
 10
29.7561506199
 20
16.9861130226
 30
0.0
 11
29.7719827964
 21
16.9212260412
 31
0.0
  0
LINE
  5
451
330
1F
100
AcDbEntity
  8
0
  6
Continuous
 62
     7
 48
2.0
370
    15
100
AcDbLine
 10
29.7719827964
 20
16.9212260412
 30
0.0
 11
29.7242534452
 21
16.9302178046
 31
0.0
  0
LINE
  5
452
330
1F
100
AcDbEntity
  8
0
  6
Continuous
 62
     7
 48
2.0
370
    15
100
AcDbLine
 10
29.7242534452
 20
16.9302178046
 30
0.0
 11
29.732003455
 21
16.8984550111
 31
0.0
  0
LINE
  5
453
330
1F
100
AcDbEntity
  8
0
  6
Continuous
 62
     7
 48
2.0
370
    15
100
AcDbLine
 10
29.732003455
 20
16.8984550111
 30
0.0
 11
29.7797328585
 21
16.8894634584
 31
0.0
  0
LINE
  5
454
330
1F
100
AcDbEntity
  8
0
  6
Continuous
 62
     7
 48
2.0
370
    15
100
AcDbLine
 10
29.7797328585
 20
16.8894634584
 30
0.0
 11
29.795565035
 21
16.8245764771
 31
0.0
  0
LINE
  5
455
330
1F
100
AcDbEntity
  8
0
  6
Continuous
 62
     7
 48
2.0
370
    15
100
AcDbLine
 10
29.795565035
 20
16.8245764771
 30
0.0
 11
29.818929077
 21
16.8201749529
 31
0.0
  0
LINE
  5
456
330
1F
100
AcDbEntity
  8
0
  6
Continuous
 62
     7
 48
2.0
370
    15
100
AcDbLine
 10
29.818929077
 20
16.8201749529
 30
0.0
 11
29.8030967966
 21
16.8850617535
 31
0.0
  0
LINE
  5
457
330
1F
100
AcDbEntity
  8
0
  6
Continuous
 62
     7
 48
2.0
370
    15
100
AcDbLine
 10
29.8030967966
 20
16.8850617535
 30
0.0
 11
29.8508261993
 21
16.8760699602
 31
0.0
  0
LINE
  5
458
330
1F
100
AcDbEntity
  8
0
  6
Continuous
 62
     7
 48
2.0
370
    15
100
AcDbLine
 10
29.8119040859
 20
16.833787764
 30
0.0
 11
29.81578594
 21
16.8330564494
 31
0.0
  0
LINE
  5
459
330
1F
100
AcDbEntity
  8
0
  6
Continuous
 62
     7
 48
2.0
370
    15
100
AcDbLine
 10
29.7960719094
 20
16.8986747453
 30
0.0
 11
29.8119040859
 21
16.833787764
 31
0.0
  0
LINE
  5
45A
330
1F
100
AcDbEntity
  8
0
  6
Continuous
 62
     7
 48
2.0
370
    15
100
AcDbLine
 10
29.7483425059
 20
16.907666298
 30
0.0
 11
29.7960719094
 21
16.8986747453
 31
0.0
  0
LINE
  5
45B
330
1F
100
AcDbEntity
  8
0
  6
Continuous
 62
     7
 48
2.0
370
    15
100
AcDbLine
 10
29.7437355472
 20
16.9265476583
 30
0.0
 11
29.7483425059
 21
16.907666298
 31
0.0
  0
LINE
  5
45C
330
1F
100
AcDbEntity
  8
0
  6
Continuous
 62
     7
 48
2.0
370
    15
100
AcDbLine
 10
29.7756327211
 20
16.9824426357
 30
0.0
 11
29.7883218473
 21
16.9304373281
 31
0.0
  0
LINE
  5
45D
330
1F
100
AcDbEntity
  8
0
  6
Continuous
 62
     7
 48
2.0
370
    15
100
AcDbLine
 10
29.8194358475
 20
16.8942730405
 30
0.0
 11
29.8476830631
 21
16.8889516974
 31
0.0
  0
LINE
  5
45E
330
1F
100
AcDbEntity
  8
0
  6
Continuous
 62
     7
 48
2.0
370
    15
100
AcDbLine
 10
29.8194358475
 20
16.8942730405
 30
0.0
 11
29.8030967966
 21
16.8850617535
 31
0.0
  0
LINE
  5
45F
330
1F
100
AcDbEntity
  8
0
  6
Continuous
 62
     7
 48
2.0
370
    15
100
AcDbLine
 10
29.7883218473
 20
16.9304373281
 30
0.0
 11
29.7719827964
 21
16.9212260412
 31
0.0
  0
LINE
  5
460
330
1F
100
AcDbEntity
  8
0
  6
Continuous
 62
     7
 48
2.0
370
    15
100
AcDbLine
 10
29.8119040859
 20
16.833787764
 30
0.0
 11
29.795565035
 21
16.8245764771
 31
0.0
  0
LINE
  5
461
330
1F
100
AcDbEntity
  8
0
  6
Continuous
 62
     7
 48
2.0
370
    15
100
AcDbLine
 10
29.7960719094
 20
16.8986747453
 30
0.0
 11
29.7797328585
 21
16.8894634584
 31
0.0
  0
LINE
  5
462
330
1F
100
AcDbEntity
  8
0
  6
Continuous
 62
     7
 48
2.0
370
    15
100
AcDbLine
 10
29.7483425059
 20
16.907666298
 30
0.0
 11
29.732003455
 21
16.8984550111
 31
0.0
  0
LWPOLYLINE
  5
463
330
1F
100
AcDbEntity
  8
0
  6
Continuous
 62
     7
 48
2.0
370
    15
100
AcDbPolyline
 90
       19
 70
   128
 43
0.0
 10
29.7874089969
 20
9.0193556735
 10
29.8084738754
 20
9.0219785756
 10
29.8239492229
 20
9.0353488344
 10
29.831968324
 20
9.0578542503
 10
29.8315641072
 20
9.0867800162
 10
29.8227852401
 20
9.1186373787
 10
29.8066905754
 20
9.1495838775
 10
29.7852214801
 20
9.1758867412
 10
29.7609673679
 20
9.1943735445
 10
29.736853602
 20
9.2028146273
 10
29.7157887236
 20
9.2001917252
 10
29.7003134785
 20
9.186821166
 10
29.6922943258
 20
9.16431578
 10
29.6926985941
 20
9.1353899842
 10
29.7014774612
 20
9.1035326217
 10
29.7175720236
 20
9.0725864234
 10
29.7390411704
 20
9.0462835297
 10
29.7632953334
 20
9.0277964559
 10
29.7874089969
 20
9.0193556735
  0
LWPOLYLINE
  5
464
330
1F
100
AcDbEntity
  8
0
  6
Continuous
 62
     7
 48
2.0
370
    15
100
AcDbPolyline
 90
       16
 70
   128
 43
0.0
 10
29.9409631491
 20
8.971293697
 10
29.9536656611
 20
8.9783967994
 10
29.9736883775
 20
8.9993935432
 10
29.9867508873
 20
9.0289176659
 10
29.9921490749
 20
9.0653773725
 10
29.9895919166
 20
9.1068068414
 10
29.979217331
 20
9.1509729693
 10
29.9615845074
 20
9.1954948053
 10
29.9376440437
 20
9.237971765
 10
29.9086865959
 20
9.2761141939
 10
29.8762733123
 20
9.3078657007
 10
29.8421515576
 20
9.3315147445
 10
29.8081608046
 20
9.3457861365
 10
29.7761335983
 20
9.3499105741
 10
29.7477965297
 20
9.3436657248
 10
29.7350999202
 20
9.3364553042
  0
LWPOLYLINE
  5
465
330
1F
100
AcDbEntity
  8
0
  6
Continuous
 62
     7
 48
2.0
370
    15
100
AcDbPolyline
 90
       19
 70
   128
 43
0.0
 10
29.8731955621
 20
8.9554025317
 10
29.9042396003
 20
8.9567003358
 10
29.9304534876
 20
8.9689032719
 10
29.9503138733
 20
8.9913021683
 10
29.9626664847
 20
9.0225954304
 10
29.9667934451
 20
9.0609644681
 10
29.9624549553
 20
9.1041791875
 10
29.9499030496
 20
9.1497281283
 10
29.9298672937
 20
9.1949644043
 10
29.9035120855
 20
9.2372589653
 10
29.8723690497
 20
9.2741536119
 10
29.8382481121
 20
9.3035044478
 10
29.8031323339
 20
9.3236053512
 10
29.7690624412
 20
9.3332882593
 10
29.7380184554
 20
9.3319906659
 10
29.7118045681
 20
9.3197877298
 10
29.6919441824
 20
9.2973888335
 10
29.679591571
 20
9.2660955713
 10
29.6756026368
 20
9.2355890023
  0
LWPOLYLINE
  5
466
330
1F
100
AcDbEntity
  8
0
  6
Continuous
 62
     7
 48
2.0
370
    15
100
AcDbPolyline
 90
        3
 70
   128
 43
0.0
 10
29.8292677437
 20
8.9697254716
 10
29.8391257218
 20
8.9650856505
 10
29.8731955621
 20
8.9554025317
  0
LWPOLYLINE
  5
467
330
1F
100
AcDbEntity
  8
0
  6
Continuous
 62
     7
 48
2.0
370
    15
100
AcDbPolyline
 90
       15
 70
   128
 43
0.0
 10
29.9091779368
 20
8.9881636284
 10
29.9173608273
 20
8.993709194
 10
29.9346022938
 20
9.014732405
 10
29.9447138507
 20
9.0438996342
 10
29.9470601487
 20
9.0793783796
 10
29.9414936783
 20
9.1189392176
 10
29.9283642191
 20
9.1600963949
 10
29.9084968203
 20
9.2002640327
 10
29.883139828
 20
9.2369179052
 10
29.853886451
 20
9.2677552211
 10
29.8225747769
 20
9.2908382277
 10
29.7911722172
 20
9.3047164798
 10
29.7616519972
 20
9.3085180514
 10
29.7358689579
 20
9.3020042657
 10
29.7330801189
 20
9.3005273733
  0
LINE
  5
468
330
1F
100
AcDbEntity
  8
0
  6
Continuous
 62
     7
 48
2.0
370
    15
100
AcDbLine
 10
29.8249900569
 20
9.0875919312
 30
0.0
 11
29.8161913756
 21
9.1195212975
 31
0.0
  0
LINE
  5
469
330
1F
100
AcDbEntity
  8
0
  6
Continuous
 62
     7
 48
2.0
370
    15
100
AcDbLine
 10
29.8161913756
 20
9.1195212975
 30
0.0
 11
29.7692267419
 21
9.1255695295
 31
0.0
  0
LINE
  5
46A
330
1F
100
AcDbEntity
  8
0
  6
Continuous
 62
     7
 48
2.0
370
    15
100
AcDbLine
 10
29.7692267419
 20
9.1255695295
 30
0.0
 11
29.7512522892
 21
9.190796452
 31
0.0
  0
LINE
  5
46B
330
1F
100
AcDbEntity
  8
0
  6
Continuous
 62
     7
 48
2.0
370
    15
100
AcDbLine
 10
29.7512522892
 20
9.190796452
 30
0.0
 11
29.7282626715
 21
9.1937570901
 31
0.0
  0
LINE
  5
46C
330
1F
100
AcDbEntity
  8
0
  6
Continuous
 62
     7
 48
2.0
370
    15
100
AcDbLine
 10
29.7282626715
 20
9.1937570901
 30
0.0
 11
29.746237175
 21
9.128529897
 31
0.0
  0
LINE
  5
46D
330
1F
100
AcDbEntity
  8
0
  6
Continuous
 62
     7
 48
2.0
370
    15
100
AcDbLine
 10
29.746237175
 20
9.128529897
 30
0.0
 11
29.6992725929
 21
9.1345780991
 31
0.0
  0
LINE
  5
46E
330
1F
100
AcDbEntity
  8
0
  6
Continuous
 62
     7
 48
2.0
370
    15
100
AcDbLine
 10
29.6992725929
 20
9.1345780991
 30
0.0
 11
29.7080713258
 21
9.1026487029
 31
0.0
  0
LINE
  5
46F
330
1F
100
AcDbEntity
  8
0
  6
Continuous
 62
     7
 48
2.0
370
    15
100
AcDbLine
 10
29.7080713258
 20
9.1026487029
 30
0.0
 11
29.7550358571
 21
9.0966007714
 31
0.0
  0
LINE
  5
470
330
1F
100
AcDbEntity
  8
0
  6
Continuous
 62
     7
 48
2.0
370
    15
100
AcDbLine
 10
29.7550358571
 20
9.0966007714
 30
0.0
 11
29.773010309
 21
9.0313736082
 31
0.0
  0
LINE
  5
471
330
1F
100
AcDbEntity
  8
0
  6
Continuous
 62
     7
 48
2.0
370
    15
100
AcDbLine
 10
29.773010309
 20
9.0313736082
 30
0.0
 11
29.7959999783
 21
9.0284129402
 31
0.0
  0
LINE
  5
472
330
1F
100
AcDbEntity
  8
0
  6
Continuous
 62
     7
 48
2.0
370
    15
100
AcDbLine
 10
29.7959999783
 20
9.0284129402
 30
0.0
 11
29.7780255264
 21
9.0936401034
 31
0.0
  0
LINE
  5
473
330
1F
100
AcDbEntity
  8
0
  6
Continuous
 62
     7
 48
2.0
370
    15
100
AcDbLine
 10
29.7780255264
 20
9.0936401034
 30
0.0
 11
29.8249900569
 21
9.0875919312
 31
0.0
  0
LINE
  5
474
330
1F
100
AcDbEntity
  8
0
  6
Continuous
 62
     7
 48
2.0
370
    15
100
AcDbLine
 10
29.7893493599
 20
9.0405848951
 30
0.0
 11
29.7927670054
 21
9.0401447055
 31
0.0
  0
LINE
  5
475
330
1F
100
AcDbEntity
  8
0
  6
Continuous
 62
     7
 48
2.0
370
    15
100
AcDbLine
 10
29.771374908
 20
9.1058120583
 30
0.0
 11
29.7893493599
 21
9.0405848951
 31
0.0
  0
LINE
  5
476
330
1F
100
AcDbEntity
  8
0
  6
Continuous
 62
     7
 48
2.0
370
    15
100
AcDbLine
 10
29.7244103767
 20
9.1118599898
 30
0.0
 11
29.771374908
 21
9.1058120583
 31
0.0
  0
LINE
  5
477
330
1F
100
AcDbEntity
  8
0
  6
Continuous
 62
     7
 48
2.0
370
    15
100
AcDbLine
 10
29.7188445823
 20
9.1320576541
 30
0.0
 11
29.7244103767
 21
9.1118599898
 31
0.0
  0
LINE
  5
478
330
1F
100
AcDbEntity
  8
0
  6
Continuous
 62
     7
 48
2.0
370
    15
100
AcDbLine
 10
29.7478346094
 20
9.1912366751
 30
0.0
 11
29.7625762259
 21
9.1377411839
 31
0.0
  0
LINE
  5
479
330
1F
100
AcDbEntity
  8
0
  6
Continuous
 62
     7
 48
2.0
370
    15
100
AcDbLine
 10
29.7943645773
 20
9.1028513903
 30
0.0
 11
29.8217570841
 21
9.0993236965
 31
0.0
  0
LINE
  5
47A
330
1F
100
AcDbEntity
  8
0
  6
Continuous
 62
     7
 48
2.0
370
    15
100
AcDbLine
 10
29.7943645773
 20
9.1028513903
 30
0.0
 11
29.7780255264
 21
9.0936401034
 31
0.0
  0
LINE
  5
47B
330
1F
100
AcDbEntity
  8
0
  6
Continuous
 62
     7
 48
2.0
370
    15
100
AcDbLine
 10
29.7625762259
 20
9.1377411839
 30
0.0
 11
29.746237175
 21
9.128529897
 31
0.0
  0
LINE
  5
47C
330
1F
100
AcDbEntity
  8
0
  6
Continuous
 62
     7
 48
2.0
370
    15
100
AcDbLine
 10
29.7893493599
 20
9.0405848951
 30
0.0
 11
29.773010309
 21
9.0313736082
 31
0.0
  0
LINE
  5
47D
330
1F
100
AcDbEntity
  8
0
  6
Continuous
 62
     7
 48
2.0
370
    15
100
AcDbLine
 10
29.771374908
 20
9.1058120583
 30
0.0
 11
29.7550358571
 21
9.0966007714
 31
0.0
  0
LINE
  5
47E
330
1F
100
AcDbEntity
  8
0
  6
Continuous
 62
     7
 48
2.0
370
    15
100
AcDbLine
 10
29.7244103767
 20
9.1118599898
 30
0.0
 11
29.7080713258
 21
9.1026487029
 31
0.0
  0
LWPOLYLINE
  5
47F
330
1F
100
AcDbEntity
  8
0
  6
Continuous
 62
     7
 48
2.0
370
    15
100
AcDbPolyline
 90
       19
 70
   128
 43
0.0
 10
28.0261334332
 20
10.0403440909
 10
28.0477478941
 20
10.0415223098
 10
28.0640698067
 20
10.0535647736
 10
28.07313056
 20
10.0750187003
 10
28.0738373125
 20
10.1032965169
 10
28.0661047414
 20
10.1349877212
 10
28.0508656301
 20
10.1662695114
 10
28.0299579226
 20
10.1933693497
 10
28.0059034388
 20
10.2130180902
 10
27.9816035235
 20
10.2228462242
 10
27.9599891142
 20
10.2216679754
 10
27.9436671508
 20
10.2096257822
 10
27.934606346
 20
10.1881718853
 10
27.9338996442
 20
10.1598937983
 10
27.9416321638
 20
10.1282026239
 10
27.9568713782
 20
10.0969207738
 10
27.9777790858
 20
10.0698209355
 10
28.0018335695
 20
10.050172195
 10
28.0261334332
 20
10.0403440909
  0
LWPOLYLINE
  5
480
330
1F
100
AcDbEntity
  8
0
  6
Continuous
 62
     7
 48
2.0
370
    15
100
AcDbPolyline
 90
       16
 70
   128
 43
0.0
 10
28.1827003026
 20
9.9918038394
 10
28.190788207
 20
9.9959196709
 10
28.2120494217
 20
10.0151118932
 10
28.2265325401
 20
10.043089781
 10
28.2334567249
 20
10.0783446368
 10
28.2324487484
 20
10.1189761887
 10
28.2235628554
 20
10.1627941131
 10
28.2072782028
 20
10.2074359489
 10
28.184472613
 20
10.2504949001
 10
28.156375563
 20
10.2896500505
 10
28.1245017747
 20
10.3227899981
 10
28.0905696394
 20
10.3481286606
 10
28.0564083092
 20
10.3642999377
 10
28.0238595019
 20
10.3704318187
 10
27.994677979
 20
10.3661937809
 10
27.9768371252
 20
10.3569654167
  0
LWPOLYLINE
  5
481
330
1F
100
AcDbEntity
  8
0
  6
Continuous
 62
     7
 48
2.0
370
    15
100
AcDbPolyline
 90
       20
 70
   128
 43
0.0
 10
28.1087271424
 20
9.9768985707
 10
28.1404816495
 20
9.9761267976
 10
28.1677254465
 20
9.9863235136
 10
28.1888752078
 20
10.0068958314
 10
28.2027017194
 20
10.0366480852
 10
28.2084015683
 20
10.0738513446
 10
28.2056434058
 20
10.1163433561
 10
28.1945875296
 20
10.1616548156
 10
28.1758764811
 20
10.207152466
 10
28.1505977194
 20
10.2501918918
 10
28.1202203075
 20
10.2882716585
 10
28.0865096635
 20
10.3191792111
 10
28.0514249394
 20
10.3411179304
 10
28.017005221
 20
10.3528129565
 10
27.9852507131
 20
10.353584489
 10
27.9580069162
 20
10.3433877729
 10
27.9368571556
 20
10.3228156957
 10
27.9230305917
 20
10.2930632313
 10
27.9173307944
 20
10.2558599419
 10
27.9172715228
 20
10.2540049978
  0
LWPOLYLINE
  5
482
330
1F
100
AcDbEntity
  8
0
  6
Continuous
 62
     7
 48
2.0
370
    15
100
AcDbPolyline
 90
        3
 70
   128
 43
0.0
 10
28.0636552536
 20
9.9942053985
 10
28.0743073725
 20
9.9885936267
 10
28.1087271424
 20
9.9768985707
  0
LWPOLYLINE
  5
483
330
1F
100
AcDbEntity
  8
0
  6
Continuous
 62
     7
 48
2.0
370
    15
100
AcDbPolyline
 90
       15
 70
   128
 43
0.0
 10
28.1509150903
 20
10.0086737708
 10
28.1553144404
 20
10.011410906
 10
28.17373635
 20
10.0308115368
 10
28.1851918721
 20
10.0586346617
 10
28.1889612412
 20
10.0931322091
 10
28.1848075986
 20
10.1321360154
 10
28.1729919115
 20
10.1731959652
 10
28.154256623
 20
10.2137319413
 10
28.1297789542
 20
10.2511966395
 10
28.1010969163
 20
10.2832363844
 10
28.0700126447
 20
10.3078378705
 10
28.0384793392
 20
10.3234550088
 10
28.0084783961
 20
10.3291069977
 10
27.9818948138
 20
10.324438344
 10
27.9748172724
 20
10.3210375157
  0
LINE
  5
484
330
1F
100
AcDbEntity
  8
0
  6
Continuous
 62
     7
 48
2.0
370
    15
100
AcDbLine
 10
28.0671548558
 20
10.1045213557
 30
0.0
 11
28.059404846
 21
10.1362841492
 31
0.0
  0
LINE
  5
485
330
1F
100
AcDbEntity
  8
0
  6
Continuous
 62
     7
 48
2.0
370
    15
100
AcDbLine
 10
28.059404846
 20
10.1362841492
 30
0.0
 11
28.0116754425
 21
10.1452757019
 31
0.0
  0
LINE
  5
486
330
1F
100
AcDbEntity
  8
0
  6
Continuous
 62
     7
 48
2.0
370
    15
100
AcDbLine
 10
28.0116754425
 20
10.1452757019
 30
0.0
 11
27.995843266
 21
10.2101626832
 31
0.0
  0
LINE
  5
487
330
1F
100
AcDbEntity
  8
0
  6
Continuous
 62
     7
 48
2.0
370
    15
100
AcDbLine
 10
27.995843266
 20
10.2101626832
 30
0.0
 11
27.972479224
 21
10.2145642074
 31
0.0
  0
LINE
  5
488
330
1F
100
AcDbEntity
  8
0
  6
Continuous
 62
     7
 48
2.0
370
    15
100
AcDbLine
 10
27.972479224
 20
10.2145642074
 30
0.0
 11
27.9883115044
 21
10.1496774067
 31
0.0
  0
LINE
  5
489
330
1F
100
AcDbEntity
  8
0
  6
Continuous
 62
     7
 48
2.0
370
    15
100
AcDbLine
 10
27.9883115044
 20
10.1496774067
 30
0.0
 11
27.9405821017
 21
10.1586692
 31
0.0
  0
LINE
  5
48A
330
1F
100
AcDbEntity
  8
0
  6
Continuous
 62
     7
 48
2.0
370
    15
100
AcDbLine
 10
27.9405821017
 20
10.1586692
 30
0.0
 11
27.9483321631
 21
10.1269063766
 31
0.0
  0
LINE
  5
48B
330
1F
100
AcDbEntity
  8
0
  6
Continuous
 62
     7
 48
2.0
370
    15
100
AcDbLine
 10
27.9483321631
 20
10.1269063766
 30
0.0
 11
27.9960614627
 21
10.1179146432
 31
0.0
  0
LINE
  5
48C
330
1F
100
AcDbEntity
  8
0
  6
Continuous
 62
     7
 48
2.0
370
    15
100
AcDbLine
 10
27.9960614627
 20
10.1179146432
 30
0.0
 11
28.0118936392
 21
10.0530276619
 31
0.0
  0
LINE
  5
48D
330
1F
100
AcDbEntity
  8
0
  6
Continuous
 62
     7
 48
2.0
370
    15
100
AcDbLine
 10
28.0118936392
 20
10.0530276619
 30
0.0
 11
28.0352576812
 21
10.0486261377
 31
0.0
  0
LINE
  5
48E
330
1F
100
AcDbEntity
  8
0
  6
Continuous
 62
     7
 48
2.0
370
    15
100
AcDbLine
 10
28.0352576812
 20
10.0486261377
 30
0.0
 11
28.0194255047
 21
10.1135131191
 31
0.0
  0
LINE
  5
48F
330
1F
100
AcDbEntity
  8
0
  6
Continuous
 62
     7
 48
2.0
370
    15
100
AcDbLine
 10
28.0194255047
 20
10.1135131191
 30
0.0
 11
28.0671548558
 21
10.1045213557
 31
0.0
  0
LINE
  5
490
330
1F
100
AcDbEntity
  8
0
  6
Continuous
 62
     7
 48
2.0
370
    15
100
AcDbLine
 10
28.0282326901
 20
10.0622389488
 30
0.0
 11
28.0321145442
 21
10.0615076342
 31
0.0
  0
LINE
  5
491
330
1F
100
AcDbEntity
  8
0
  6
Continuous
 62
     7
 48
2.0
370
    15
100
AcDbLine
 10
28.0124005136
 20
10.1271259301
 30
0.0
 11
28.0282326901
 21
10.0622389488
 31
0.0
  0
LINE
  5
492
330
1F
100
AcDbEntity
  8
0
  6
Continuous
 62
     7
 48
2.0
370
    15
100
AcDbLine
 10
27.964671214
 20
10.1361176635
 30
0.0
 11
28.0124005136
 21
10.1271259301
 31
0.0
  0
LINE
  5
493
330
1F
100
AcDbEntity
  8
0
  6
Continuous
 62
     7
 48
2.0
370
    15
100
AcDbLine
 10
27.9600642545
 20
10.1549987832
 30
0.0
 11
27.964671214
 21
10.1361176635
 31
0.0
  0
LINE
  5
494
330
1F
100
AcDbEntity
  8
0
  6
Continuous
 62
     7
 48
2.0
370
    15
100
AcDbLine
 10
27.9919613768
 20
10.2108937906
 30
0.0
 11
28.0046505553
 21
10.1588886936
 31
0.0
  0
LINE
  5
495
330
1F
100
AcDbEntity
  8
0
  6
Continuous
 62
     7
 48
2.0
370
    15
100
AcDbLine
 10
28.0357645556
 20
10.122724406
 30
0.0
 11
28.0640117188
 21
10.1174028522
 31
0.0
  0
LINE
  5
496
330
1F
100
AcDbEntity
  8
0
  6
Continuous
 62
     7
 48
2.0
370
    15
100
AcDbLine
 10
28.0357645556
 20
10.122724406
 30
0.0
 11
28.0194255047
 21
10.1135131191
 31
0.0
  0
LINE
  5
497
330
1F
100
AcDbEntity
  8
0
  6
Continuous
 62
     7
 48
2.0
370
    15
100
AcDbLine
 10
28.0046505553
 20
10.1588886936
 30
0.0
 11
27.9883115044
 21
10.1496774067
 31
0.0
  0
LINE
  5
498
330
1F
100
AcDbEntity
  8
0
  6
Continuous
 62
     7
 48
2.0
370
    15
100
AcDbLine
 10
28.0282326901
 20
10.0622389488
 30
0.0
 11
28.0118936392
 21
10.0530276619
 31
0.0
  0
LINE
  5
499
330
1F
100
AcDbEntity
  8
0
  6
Continuous
 62
     7
 48
2.0
370
    15
100
AcDbLine
 10
27.964671214
 20
10.1361176635
 30
0.0
 11
27.9483321631
 21
10.1269063766
 31
0.0
  0
LINE
  5
49A
330
1F
100
AcDbEntity
  8
0
  6
Continuous
 62
     7
 48
2.0
370
    15
100
AcDbLine
 10
28.0124005136
 20
10.1271259301
 30
0.0
 11
27.9960614627
 21
10.1179146432
 31
0.0
  0
LWPOLYLINE
  5
49B
330
1F
100
AcDbEntity
  8
0
  6
Continuous
 62
     7
 48
2.0
370
    15
100
AcDbPolyline
 90
       10
 70
   128
 43
0.0
 10
32.0358625229
 20
18.6191483101
 10
32.0311180177
 20
18.5911258266
 10
32.0176569189
 20
18.5718746873
 10
31.9971029138
 20
18.5637167828
 10
31.9719351602
 20
18.567635737
 10
31.9451892343
 20
18.5831592912
 10
31.9200910048
 20
18.6084151249
 10
31.899667808
 20
18.6403565327
 10
31.8863829294
 20
18.6751312561
 10
31.8818387049
 20
18.7085449943
  0
LINE
  5
49C
330
1F
100
AcDbEntity
  8
0
  6
Continuous
 62
     7
 48
2.0
370
    15
100
AcDbLine
 10
32.0360283467
 20
18.6700017285
 30
0.0
 11
32.0358625229
 21
18.6191483101
 31
0.0
  0
LWPOLYLINE
  5
49D
330
1F
100
AcDbEntity
  8
0
  6
Continuous
 62
     7
 48
2.0
370
    15
100
AcDbPolyline
 90
       10
 70
   128
 43
0.0
 10
31.8820045287
 20
18.7593984127
 10
31.8867490855
 20
18.7874208663
 10
31.9002101328
 20
18.8066720355
 10
31.9207640879
 20
18.8148304511
 10
31.9459318915
 20
18.8109109858
 10
31.9726778174
 20
18.7953874316
 10
31.9977759969
 20
18.770132109
 10
32.0181992437
 20
18.7381901902
 10
32.0314841739
 20
18.7034154368
 10
32.0360283467
 20
18.6700017285
  0
LINE
  5
49E
330
1F
100
AcDbEntity
  8
0
  6
Continuous
 62
     7
 48
2.0
370
    15
100
AcDbLine
 10
31.8818387049
 20
18.7085449943
 30
0.0
 11
31.8820045287
 21
18.7593984127
 31
0.0
  0
LINE
  5
49F
330
1F
100
AcDbEntity
  8
0
  6
Continuous
 62
     7
 48
2.0
370
    15
100
AcDbLine
 10
30.0688009524
 20
19.7863220133
 30
0.0
 11
30.0679873499
 21
19.5368133917
 31
0.0
  0
ARC
  5
4A0
330
1F
100
AcDbEntity
  8
0
  6
Continuous
 62
     7
 48
4.0
370
    15
100
AcDbCircle
 10
30.1766587345
 20
19.8042213917
 30
0.0
 40
0.1093329268902092
100
AcDbArc
 50
51.1134040973
 51
189.4225615449
  0
LINE
  5
4A1
330
1F
100
AcDbEntity
  8
0
  6
Continuous
 62
     7
 48
2.0
370
    15
100
AcDbLine
 10
32.0035587639
 20
18.8688148803
 30
0.0
 11
30.2452958658
 21
19.8893250527
 31
0.0
  0
ARC
  5
4A2
330
1F
100
AcDbEntity
  8
0
  6
Continuous
 62
     7
 48
4.0
370
    15
100
AcDbCircle
 10
31.7951768061
 20
18.5464608797
 30
0.0
 40
0.3838426006752775
100
AcDbArc
 50
2.2767939316
 51
57.1198267596
  0
LINE
  5
4A3
330
1F
100
AcDbEntity
  8
0
  6
Continuous
 62
     7
 48
2.0
370
    15
100
AcDbLine
 10
32.1787163889
 20
18.5617098305
 30
0.0
 11
32.1779027863
 21
18.3122012088
 31
0.0
  0
LWPOLYLINE
  5
4A4
330
1F
100
AcDbEntity
  8
0
  6
Continuous
 62
     7
 48
2.0
370
    15
100
AcDbPolyline
 90
       10
 70
   128
 43
0.0
 10
30.3656786348
 20
19.6394863683
 10
30.3611344104
 20
19.6729001065
 10
30.3478495318
 20
19.7076748299
 10
30.3274263365
 20
19.7396167189
 10
30.3023281054
 20
19.7648720714
 10
30.2755821795
 20
19.7803956256
 10
30.2504144275
 20
19.784315061
 10
30.2298604209
 20
19.7761566753
 10
30.216399322
 20
19.756905536
 10
30.2116548168
 20
19.7288830525
  0
LINE
  5
4A5
330
1F
100
AcDbEntity
  8
0
  6
Continuous
 62
     7
 48
2.0
370
    15
100
AcDbLine
 10
30.2116548168
 20
19.7288830525
 30
0.0
 11
30.211488993
 21
19.6780296341
 31
0.0
  0
LWPOLYLINE
  5
4A6
330
1F
100
AcDbEntity
  8
0
  6
Continuous
 62
     7
 48
2.0
370
    15
100
AcDbPolyline
 90
       10
 70
   128
 43
0.0
 10
30.211488993
 20
19.6780296341
 10
30.2160331659
 20
19.6446159258
 10
30.229318096
 20
19.6098411724
 10
30.2497413444
 20
19.5778997348
 10
30.2748395224
 20
19.552643931
 10
30.3015854483
 20
19.5371203768
 10
30.3267532534
 20
19.5332013927
 10
30.3473072069
 20
19.5413593271
 10
30.3607682542
 20
19.5606104963
 10
30.365512811
 20
19.5886329499
  0
LINE
  5
4A7
330
1F
100
AcDbEntity
  8
0
  6
Continuous
 62
     7
 48
2.0
370
    15
100
AcDbLine
 10
30.365512811
 20
19.5886329499
 30
0.0
 11
30.3656786348
 21
19.6394863683
 31
0.0
  0
LINE
  5
4A8
330
1F
100
AcDbEntity
  8
0
  6
Continuous
 62
     7
 48
2.0
370
    15
100
AcDbLine
 10
32.0590076416
 20
18.9000746838
 30
0.0
 11
32.0035587639
 21
18.8688148803
 31
0.0
  0
ARC
  5
4A9
330
1F
100
AcDbEntity
  8
0
  6
Continuous
 62
     7
 48
4.0
370
    15
100
AcDbCircle
 10
31.8506256837
 20
18.5777206832
 30
0.0
 40
0.3838426006752521
100
AcDbArc
 50
2.2767939316
 51
57.1198267596
  0
LINE
  5
4AA
330
1F
100
AcDbEntity
  8
0
  6
Continuous
 62
     7
 48
2.0
370
    15
100
AcDbLine
 10
32.2341652666
 20
18.592969634
 30
0.0
 11
32.1787163889
 21
18.5617098305
 31
0.0
  0
LINE
  5
4AB
330
1F
100
AcDbEntity
  8
0
  6
Continuous
 62
     7
 48
2.0
370
    15
100
AcDbLine
 10
32.2308220423
 20
17.5676984487
 30
0.0
 11
32.2250227001
 21
17.5644290173
 31
0.0
  0
LINE
  5
4AC
330
1F
100
AcDbEntity
  8
0
  6
Continuous
 62
     7
 48
2.0
370
    15
100
AcDbLine
 10
32.2341652666
 20
18.592969634
 30
0.0
 11
32.2308220423
 21
17.5676984487
 31
0.0
  0
LINE
  5
4AD
330
1F
100
AcDbEntity
  8
0
  6
Continuous
 62
     7
 48
2.0
370
    15
100
AcDbLine
 10
30.3007447435
 20
19.9205848562
 30
0.0
 11
30.2452958658
 21
19.8893250527
 31
0.0
  0
LINE
  5
4AE
330
1F
100
AcDbEntity
  8
0
  6
Continuous
 62
     7
 48
2.0
370
    15
100
AcDbLine
 10
32.0590076416
 20
18.9000746838
 30
0.0
 11
30.3007447435
 21
19.9205848562
 31
0.0
  0
LINE
  5
4AF
330
1F
100
AcDbEntity
  8
0
  6
Continuous
 62
     7
 48
2.0
370
    15
100
AcDbLine
 10
31.9374534064
 20
18.7906582163
 30
0.0
 11
31.8820045287
 21
18.7593984127
 31
0.0
  0
LINE
  5
4B0
330
1F
100
AcDbEntity
  8
0
  6
Continuous
 62
     7
 48
2.0
370
    15
100
AcDbLine
 10
31.9374534064
 20
18.7906582163
 30
0.0
 11
31.9402609805
 21
18.8127763897
 31
0.0
  0
LINE
  5
4B1
330
1F
100
AcDbEntity
  8
0
  6
Continuous
 62
     7
 48
2.0
370
    15
100
AcDbLine
 10
31.9372875826
 20
18.7398047978
 30
0.0
 11
31.8818387049
 21
18.7085449943
 31
0.0
  0
ARC
  5
4B2
330
1F
100
AcDbEntity
  8
0
  6
Continuous
 62
     7
 48
4.0
370
    15
100
AcDbCircle
 10
32.0896005842
 20
18.738464369
 30
0.0
 40
0.1523188997086579
100
AcDbArc
 50
179.4957821845
 51
248.208379208
  0
LINE
  5
4B3
330
1F
100
AcDbEntity
  8
0
  6
Continuous
 62
     7
 48
2.0
370
    15
100
AcDbLine
 10
31.9372875826
 20
18.7398047978
 30
0.0
 11
31.9374534064
 21
18.7906582163
 31
0.0
  0
LINE
  5
4B4
330
1F
100
AcDbEntity
  8
0
  6
Continuous
 62
     7
 48
2.0
370
    15
100
AcDbLine
 10
30.2671036945
 20
19.7601428561
 30
0.0
 11
30.2116548168
 21
19.7288830525
 31
0.0
  0
LINE
  5
4B5
330
1F
100
AcDbEntity
  8
0
  6
Continuous
 62
     7
 48
2.0
370
    15
100
AcDbLine
 10
30.2699112686
 20
19.7822610295
 30
0.0
 11
30.2671036945
 21
19.7601428561
 31
0.0
  0
ARC
  5
4B6
330
1F
100
AcDbEntity
  8
0
  6
Continuous
 62
     7
 48
4.0
370
    15
100
AcDbCircle
 10
30.2279239393
 20
19.8192474556
 30
0.0
 40
0.1247883740083199
100
AcDbArc
 50
54.2990697574
 51
113.9323494522
  0
LINE
  5
4B7
330
1F
100
AcDbEntity
  8
0
  6
Continuous
 62
     7
 48
2.0
370
    15
100
AcDbLine
 10
30.2669378707
 20
19.7092894376
 30
0.0
 11
30.211488993
 21
19.6780296341
 31
0.0
  0
ARC
  5
4B8
330
1F
100
AcDbEntity
  8
0
  6
Continuous
 62
     7
 48
4.0
370
    15
100
AcDbCircle
 10
30.4192507789
 20
19.7079489462
 30
0.0
 40
0.1523188069068552
100
AcDbArc
 50
179.4957583216
 51
248.208403071
  0
LINE
  5
4B9
330
1F
100
AcDbEntity
  8
0
  6
Continuous
 62
     7
 48
2.0
370
    15
100
AcDbLine
 10
30.2671036945
 20
19.7601428561
 30
0.0
 11
30.2669378707
 21
19.7092894376
 31
0.0
  0
LINE
  5
4BA
330
1F
100
AcDbEntity
  8
0
  6
Continuous
 62
     7
 48
2.0
370
    15
100
AcDbLine
 10
32.1499646668
 20
9.7443796576
 30
0.0
 11
32.1504491574
 21
9.8929590425
 31
0.0
  0
ARC
  5
4BB
330
1F
100
AcDbEntity
  8
0
  6
Continuous
 62
     7
 48
4.0
370
    15
100
AcDbCircle
 10
32.0421068848
 20
9.7264802792
 30
0.0
 40
0.1093329268902078
100
AcDbArc
 50
231.1134040973
 51
9.4225615449
  0
LINE
  5
4BC
330
1F
100
AcDbEntity
  8
0
  6
Continuous
 62
     7
 48
2.0
370
    15
100
AcDbLine
 10
31.8407893166
 20
9.7183854294
 30
0.0
 11
31.9734697534
 21
9.6413766183
 31
0.0
  0
LWPOLYLINE
  5
4BD
330
1F
100
AcDbEntity
  8
0
  6
Continuous
 62
     7
 48
2.0
370
    15
100
AcDbPolyline
 90
        6
 70
   128
 43
0.0
 10
31.9200666651
 20
9.7630786441
 10
31.9431834397
 20
9.7503060453
 10
31.9683511917
 20
9.74638661
 10
31.9889051984
 20
9.7545449956
 10
32.0023662973
 20
9.7737961349
 10
32.0071108025
 20
9.8018186184
  0
LINE
  5
4BE
330
1F
100
AcDbEntity
  8
0
  6
Continuous
 62
     7
 48
2.0
370
    15
100
AcDbLine
 10
32.0071108025
 20
9.8018186184
 30
0.0
 11
32.0071445562
 21
9.8121699402
 31
0.0
  0
LINE
  5
4BF
330
1F
100
AcDbEntity
  8
0
  6
Continuous
 62
     7
 48
2.0
370
    15
100
AcDbLine
 10
32.2087567688
 20
10.8009106464
 30
0.0
 11
32.2029574266
 21
10.7976412151
 31
0.0
  0
LINE
  5
4C0
330
1F
100
AcDbEntity
  8
0
  6
Continuous
 62
     7
 48
2.0
370
    15
100
AcDbLine
 10
32.2054135445
 20
9.7756394611
 30
0.0
 11
32.2087567688
 21
10.8009106464
 31
0.0
  0
LINE
  5
4C1
330
1F
100
AcDbEntity
  8
0
  6
Continuous
 62
     7
 48
2.0
370
    15
100
AcDbLine
 10
32.2054135445
 20
9.7756394611
 30
0.0
 11
32.1499646668
 21
9.7443796576
 31
0.0
  0
LINE
  5
4C2
330
1F
100
AcDbEntity
  8
0
  6
Continuous
 62
     7
 48
2.0
370
    15
100
AcDbLine
 10
32.2087567688
 20
10.8009106464
 30
0.0
 11
32.202979015
 21
10.804264102
 31
0.0
  0
ARC
  5
4C3
330
1F
100
AcDbEntity
  8
0
  6
Continuous
 62
     7
 48
4.0
370
    15
100
AcDbCircle
 10
32.0817360192
 20
9.7623144449
 30
0.0
 40
0.1243932728122913
100
AcDbArc
 50
304.593755875
 51
6.1493267093
  0
LWPOLYLINE
  5
4C4
330
1F
100
AcDbEntity
  8
0
  6
Continuous
 62
     7
 48
2.0
370
    15
100
AcDbPolyline
 90
        3
 70
   128
 43
0.0
 10
31.9755155427
 20
9.7943384477
 10
31.9986323174
 20
9.7815658488
 10
32.0043032071
 20
9.7797004668
  0
ARC
  5
4C5
330
1F
100
AcDbEntity
  8
0
  6
Continuous
 62
     8
 48
4.0
370
    15
100
AcDbCircle
 10
27.8954249899
 20
18.5402263447
 30
0.0
 40
0.0461981832771738
100
AcDbArc
 50
185.5828240889
 51
245.5906735816
  0
ARC
  5
4C6
330
1F
100
AcDbEntity
  8
0
  6
Continuous
 62
     8
 48
4.0
370
    15
100
AcDbCircle
 10
27.9156051965
 20
18.5740125815
 30
0.0
 40
0.0464203983776744
100
AcDbArc
 50
54.2986430291
 51
113.9331371231
  0
ARC
  5
4C7
330
1F
100
AcDbEntity
  8
0
  6
Continuous
 62
     8
 48
4.0
370
    15
100
AcDbCircle
 10
27.8678393867
 20
10.0805114341
 30
0.0
 40
0.0461981832772008
100
AcDbArc
 50
185.5828240889
 51
245.5906735816
  0
ARC
  5
4C8
330
1F
100
AcDbEntity
  8
0
  6
Continuous
 62
     8
 48
4.0
370
    15
100
AcDbCircle
 10
30.2243383812
 20
8.6798821342
 30
0.0
 40
0.0452072705141285
100
AcDbArc
 50
172.664265747
 51
235.8011439524
  0
ARC
  5
4C9
330
1F
100
AcDbEntity
  8
0
  6
Continuous
 62
     8
 48
4.0
370
    15
100
AcDbCircle
 10
30.2650150244
 20
8.6800045079
 30
0.0
 40
0.0462719690156489
100
AcDbArc
 50
304.5920395842
 51
6.1512038412
  0
ARC
  5
4CA
330
1F
100
AcDbEntity
  8
0
  6
Continuous
 62
     8
 48
4.0
370
    15
100
AcDbCircle
 10
27.8949170531
 20
10.0332699126
 30
0.0
 40
0.046458054031039
100
AcDbArc
 50
173.6073613353
 51
234.858048364
  0
LINE
  5
4CB
330
1F
100
AcDbEntity
  8
0
  6
Continuous
 62
     8
 48
2.0
370
    15
100
AcDbLine
 10
32.1995999645
 20
18.1920786388
 30
0.0
 11
30.627929718
 21
17.3060354008
 31
0.0
  0
LINE
  5
4CC
330
1F
100
AcDbEntity
  8
0
  6
Continuous
 62
     8
 48
2.0
370
    15
100
AcDbLine
 10
30.564289566
 20
17.4211343002
 30
0.0
 11
32.1344413459
 21
18.3063214891
 31
0.0
  0
LINE
  5
4CD
330
1F
100
AcDbEntity
  8
0
  6
Continuous
 62
     8
 48
2.0
370
    15
100
AcDbLine
 10
30.6010127574
 20
9.0513740536
 30
0.0
 11
32.172683004
 21
9.9374172917
 31
0.0
  0
LINE
  5
4CE
330
1F
100
AcDbEntity
  8
0
  6
Continuous
 62
     8
 48
2.0
370
    15
100
AcDbLine
 10
29.9795144506
 20
19.557058691
 30
0.0
 11
28.4093806036
 21
18.671881612
 31
0.0
  0
ARC
  5
4CF
330
1F
100
AcDbEntity
  8
0
  6
Continuous
 62
     8
 48
4.0
370
    15
100
AcDbCircle
 10
32.1612857138
 20
18.2678556837
 30
0.0
 40
0.0469066975212398
100
AcDbArc
 50
65.3127966693
 51
124.910268801
  0
ARC
  5
4D0
330
1F
100
AcDbEntity
  8
0
  6
Continuous
 62
     8
 48
4.0
370
    15
100
AcDbCircle
 10
32.1830249091
 20
18.233160496
 30
0.0
 40
0.0442995648516978
100
AcDbArc
 50
291.9723079462
 51
355.5694944189
  0
ARC
  5
4D1
330
1F
100
AcDbEntity
  8
0
  6
Continuous
 62
     8
 48
4.0
370
    15
100
AcDbCircle
 10
32.1549059094
 20
9.9793798463
 30
0.0
 40
0.0455728107471175
100
AcDbArc
 50
292.959549073
 51
354.5822532921
  0
ARC
  5
4D2
330
1F
100
AcDbEntity
  8
0
  6
Continuous
 62
     8
 48
4.0
370
    15
100
AcDbCircle
 10
30.0063588184
 20
19.5185928856
 30
0.0
 40
0.0469066975211772
100
AcDbArc
 50
65.3127966692
 51
124.910268801
  0
ARC
  5
4D3
330
1F
100
AcDbEntity
  8
0
  6
Continuous
 62
     8
 48
4.0
370
    15
100
AcDbCircle
 10
29.9524246895
 20
19.519360066
 30
0.0
 40
0.046422424363352
100
AcDbArc
 50
54.2994478285
 51
113.9311437717
  0
LINE
  5
4D4
330
1F
100
AcDbEntity
  8
0
  6
Continuous
 62
     8
 48
2.0
370
    15
100
AcDbLine
 10
29.2842719836
 20
10.8615536583
 30
0.0
 11
28.9045546174
 21
10.6474845777
 31
0.0
  0
ARC
  5
4D5
330
1F
100
AcDbEntity
  8
0
  6
Continuous
 62
     8
 48
4.0
370
    15
100
AcDbCircle
 10
32.1266773496
 20
9.9324591702
 30
0.0
 40
0.0462720563764055
100
AcDbArc
 50
304.5921040162
 51
6.1511394092
  0
LINE
  5
4D6
330
1F
100
AcDbEntity
  8
0
  6
Continuous
 62
     8
 48
2.0
370
    15
100
AcDbLine
 10
28.9176557176
 20
10.6305195458
 30
0.0
 11
29.2920054858
 21
10.8415625947
 31
0.0
  0
ARC
  5
4D7
330
1F
100
AcDbEntity
  8
0
  6
Continuous
 62
     8
 48
4.0
370
    15
100
AcDbCircle
 10
29.9347034345
 20
16.8321817309
 30
0.0
 40
0.098084699620009
100
AcDbArc
 50
234.7670273042
 51
347.6355984608
  0
ARC
  5
4D8
330
1F
100
AcDbEntity
  8
0
  6
Continuous
 62
     8
 48
4.0
370
    15
100
AcDbCircle
 10
29.8028427883
 20
17.0659573828
 30
0.0
 40
0.0979350551196102
100
AcDbArc
 50
76.5016732583
 51
184.1626697577
  0
ARC
  5
4D9
330
1F
100
AcDbEntity
  8
0
  6
Continuous
 62
     8
 48
4.0
370
    15
100
AcDbCircle
 10
28.1764406203
 20
17.8526917987
 30
0.0
 40
0.0980846520585666
100
AcDbArc
 50
234.7670214361
 51
347.6356369698
  0
ARC
  5
4DA
330
1F
100
AcDbEntity
  8
0
  6
Continuous
 62
     8
 48
4.0
370
    15
100
AcDbCircle
 10
28.0445799197
 20
18.0864675984
 30
0.0
 40
0.0979349891378206
100
AcDbArc
 50
76.5016507047
 51
184.1627330396
  0
ARC
  5
4DB
330
1F
100
AcDbEntity
  8
0
  6
Continuous
 62
     8
 48
4.0
370
    15
100
AcDbCircle
 10
29.9092949358
 20
9.0401226614
 30
0.0
 40
0.0980846322084496
100
AcDbArc
 50
234.7670001333
 51
347.6357826834
  0
ARC
  5
4DC
330
1F
100
AcDbEntity
  8
0
  6
Continuous
 62
     8
 48
4.0
370
    15
100
AcDbCircle
 10
29.7774342905
 20
9.2738984129
 30
0.0
 40
0.0979350380646214
100
AcDbArc
 50
76.501670813
 51
184.1625396548
  0
ARC
  5
4DD
330
1F
100
AcDbEntity
  8
0
  6
Continuous
 62
     8
 48
4.0
370
    15
100
AcDbCircle
 10
28.1510321217
 20
10.0606327293
 30
0.0
 40
0.0980845846474691
100
AcDbArc
 50
234.7669942655
 51
347.6358211922
  0
ARC
  5
4DE
330
1F
100
AcDbEntity
  8
0
  6
Continuous
 62
     8
 48
4.0
370
    15
100
AcDbCircle
 10
28.0191714218
 20
10.2944086284
 30
0.0
 40
0.0979349720821397
100
AcDbArc
 50
76.5016482591
 51
184.1626029372
  0
LWPOLYLINE
  5
4DF
330
1F
100
AcDbEntity
  8
0
  6
Continuous
 62
     8
 48
2.0
370
    15
100
AcDbPolyline
 90
       15
 70
   128
 43
0.0
 10
27.9971952513
 20
18.111387987
 10
28.004280558
 20
18.114793227
 10
28.0308641402
 20
18.1194618807
 10
28.0608650826
 20
18.1138096512
 10
28.0923983889
 20
18.0981927535
 10
28.1234826604
 20
18.0735912674
 10
28.1521646983
 20
18.0415515225
 10
28.1766423672
 20
18.0040868243
 10
28.1953776557
 20
17.9635508482
 10
28.2071933428
 20
17.9224908984
 10
28.2113469846
 20
17.8834868516
 10
28.2075776163
 20
17.8489895448
 10
28.1961220942
 20
17.8211664198
 10
28.1777001845
 20
17.801765789
 10
28.1731016852
 20
17.798916932
  0
LWPOLYLINE
  5
4E0
330
1F
100
AcDbEntity
  8
0
  6
Continuous
 62
     8
 48
2.0
370
    15
100
AcDbPolyline
 90
       15
 70
   128
 43
0.0
 10
29.7554580978
 20
17.0908778445
 10
29.7625434561
 20
17.0942830547
 10
29.7891269868
 20
17.0989517383
 10
29.8191279807
 20
17.0932994789
 10
29.850661287
 20
17.0776825811
 10
29.8817455069
 20
17.053081125
 10
29.9104274933
 20
17.02104141
 10
29.9349052653
 20
16.983576652
 10
29.9536404506
 20
16.9430407357
 10
29.9654561893
 20
16.901980756
 10
29.9696098827
 20
16.8629766792
 10
29.9658405144
 20
16.8284793724
 10
29.9543848891
 20
16.8006563073
 10
29.9359630311
 20
16.7812556466
 10
29.9313645833
 20
16.7784067597
  0
LWPOLYLINE
  5
4E1
330
1F
100
AcDbEntity
  8
0
  6
Continuous
 62
     8
 48
2.0
370
    15
100
AcDbPolyline
 90
       15
 70
   128
 43
0.0
 10
29.7300313781
 20
9.2988087029
 10
29.7328462043
 20
9.3003001612
 10
29.7586292436
 20
9.3068139469
 10
29.7881494636
 20
9.3030123753
 10
29.8195520233
 20
9.2891341232
 10
29.8508636974
 20
9.2660511166
 10
29.8801170744
 20
9.2352138007
 10
29.9054740667
 20
9.1985599282
 10
29.9253414655
 20
9.1583922904
 10
29.9384709247
 20
9.1172351131
 10
29.9440373951
 20
9.077674275
 10
29.9416910971
 20
9.0421955297
 10
29.9315795402
 20
9.0130283005
 10
29.9143380736
 20
8.9920050894
 10
29.9060938907
 20
8.9864251942
  0
LWPOLYLINE
  5
4E2
330
1F
100
AcDbEntity
  8
0
  6
Continuous
 62
     8
 48
2.0
370
    15
100
AcDbPolyline
 90
       15
 70
   128
 43
0.0
 10
27.9717867535
 20
10.3193289994
 10
27.9788720602
 20
10.3227342395
 10
28.0054556425
 20
10.3274028932
 10
28.0354565856
 20
10.3217509043
 10
28.0669898911
 20
10.3061337659
 10
28.0980741626
 20
10.2815322799
 10
28.1267562006
 20
10.2494925349
 10
28.1512338694
 20
10.2120278368
 10
28.1699691579
 20
10.1714918606
 10
28.181784845
 20
10.1304319108
 10
28.1859384876
 20
10.0914281046
 10
28.1821691185
 20
10.0569305572
 10
28.1707135964
 20
10.0291074322
 10
28.1522916868
 20
10.0097068014
 10
28.1476931874
 20
10.0068579445
  0
CIRCLE
  5
4E3
330
1F
100
AcDbEntity
  8
0
  6
Continuous
 62
     7
 48
4.0
370
    15
100
AcDbCircle
 10
9.8385134388
 20
14.6069484131
 30
0.0
 40
0.0939999999999992
  0
CIRCLE
  5
4E4
330
1F
100
AcDbEntity
  8
0
  6
Continuous
 62
     7
 48
4.0
370
    15
100
AcDbCircle
 10
9.8385134388
 20
14.6069484131
 30
0.0
 40
0.1559999999999999
  0
CIRCLE
  5
4E5
330
1F
100
AcDbEntity
  8
0
  6
Continuous
 62
     7
 48
4.0
370
    15
100
AcDbCircle
 10
12.3385134388
 20
14.6069484131
 30
0.0
 40
0.0940000000000015
  0
CIRCLE
  5
4E6
330
1F
100
AcDbEntity
  8
0
  6
Continuous
 62
     7
 48
4.0
370
    15
100
AcDbCircle
 10
12.3385134388
 20
14.6069484131
 30
0.0
 40
0.1559999999999976
  0
CIRCLE
  5
4E7
330
1F
100
AcDbEntity
  8
0
  6
Continuous
 62
     7
 48
4.0
370
    15
100
AcDbCircle
 10
12.3385134388
 20
5.1069484131
 30
0.0
 40
0.0940000000000015
  0
CIRCLE
  5
4E8
330
1F
100
AcDbEntity
  8
0
  6
Continuous
 62
     7
 48
4.0
370
    15
100
AcDbCircle
 10
12.3385134388
 20
5.1069484131
 30
0.0
 40
0.1559999999999994
  0
CIRCLE
  5
4E9
330
1F
100
AcDbEntity
  8
0
  6
Continuous
 62
     7
 48
4.0
370
    15
100
AcDbCircle
 10
9.8385134388
 20
5.1069484131
 30
0.0
 40
0.0940000000000015
  0
CIRCLE
  5
4EA
330
1F
100
AcDbEntity
  8
0
  6
Continuous
 62
     7
 48
4.0
370
    15
100
AcDbCircle
 10
9.8385134388
 20
5.1069484131
 30
0.0
 40
0.1559999999999976
  0
LINE
  5
4EB
330
1F
100
AcDbEntity
  8
0
  6
Continuous
 62
     7
 48
2.0
370
    15
100
AcDbLine
 10
12.4635133947
 20
14.2939483832
 30
0.0
 11
9.7135134829
 21
14.2939483832
 31
0.0
  0
LINE
  5
4EC
330
1F
100
AcDbEntity
  8
0
  6
Continuous
 62
     7
 48
2.0
370
    15
100
AcDbLine
 10
9.7135134829
 20
14.2939483832
 30
0.0
 11
9.7135134829
 21
5.4199484431
 31
0.0
  0
LINE
  5
4ED
330
1F
100
AcDbEntity
  8
0
  6
Continuous
 62
     7
 48
2.0
370
    15
100
AcDbLine
 10
9.7135134829
 20
5.4199484431
 30
0.0
 11
12.4635133947
 21
5.4199484431
 31
0.0
  0
LINE
  5
4EE
330
1F
100
AcDbEntity
  8
0
  6
Continuous
 62
     7
 48
2.0
370
    15
100
AcDbLine
 10
12.4635133947
 20
5.4199484431
 30
0.0
 11
12.4635133947
 21
14.2939483832
 31
0.0
  0
LINE
  5
4EF
330
1F
100
AcDbEntity
  8
0
  6
Continuous
 62
     7
 48
2.0
370
    15
100
AcDbLine
 10
12.7135133733
 20
14.888948523
 30
0.0
 11
12.7135133733
 21
4.8249483032
 31
0.0
  0
LINE
  5
4F0
330
1F
100
AcDbEntity
  8
0
  6
Continuous
 62
     7
 48
2.0
370
    15
100
AcDbLine
 10
12.6205134076
 20
4.7319486309
 30
0.0
 11
9.5565134699
 21
4.7319486309
 31
0.0
  0
ARC
  5
4F1
330
1F
100
AcDbEntity
  8
0
  6
Continuous
 62
     7
 48
4.0
370
    15
100
AcDbCircle
 10
12.6205134388
 20
4.8249484131
 30
0.0
 40
0.0930000000000017
100
AcDbArc
 50
270.0
 51
0.0
  0
LINE
  5
4F2
330
1F
100
AcDbEntity
  8
0
  6
Continuous
 62
     7
 48
2.0
370
    15
100
AcDbLine
 10
9.4635135042
 20
4.8249483032
 30
0.0
 11
9.4635135042
 21
14.888948523
 31
0.0
  0
ARC
  5
4F3
330
1F
100
AcDbEntity
  8
0
  6
Continuous
 62
     7
 48
4.0
370
    15
100
AcDbCircle
 10
9.5565134388
 20
4.8249484131
 30
0.0
 40
0.0930000000000035
100
AcDbArc
 50
180.0
 51
270.0
  0
ARC
  5
4F4
330
1F
100
AcDbEntity
  8
0
  6
Continuous
 62
     7
 48
4.0
370
    15
100
AcDbCircle
 10
12.6205134388
 20
14.8889484131
 30
0.0
 40
0.0930000000000017
100
AcDbArc
 50
360.0
 51
90.0
  0
LINE
  5
4F5
330
1F
100
AcDbEntity
  8
0
  6
Continuous
 62
     7
 48
2.0
370
    15
100
AcDbLine
 10
9.5565134699
 20
14.9819481954
 30
0.0
 11
12.6205134076
 21
14.9819481954
 31
0.0
  0
ARC
  5
4F6
330
1F
100
AcDbEntity
  8
0
  6
Continuous
 62
     7
 48
4.0
370
    15
100
AcDbCircle
 10
9.5565134388
 20
14.8889484131
 30
0.0
 40
0.093
100
AcDbArc
 50
90.0
 51
180.0
  0
CIRCLE
  5
4F7
330
1F
100
AcDbEntity
  8
0
  6
Continuous
 62
     7
 48
4.0
370
    15
100
AcDbCircle
 10
11.9635134388
 20
5.9819484131
 30
0.0
 40
0.0984251968503944
  0
CIRCLE
  5
4F8
330
1F
100
AcDbEntity
  8
0
  6
Continuous
 62
     7
 48
4.0
370
    15
100
AcDbCircle
 10
11.9635134388
 20
5.9819484131
 30
0.0
 40
0.1771653543307092
  0
CIRCLE
  5
4F9
330
1F
100
AcDbEntity
  8
0
  6
Continuous
 62
     7
 48
4.0
370
    15
100
AcDbCircle
 10
11.9635134388
 20
5.9819484131
 30
0.0
 40
0.2027559055118111
  0
CIRCLE
  5
4FA
330
1F
100
AcDbEntity
  8
0
  6
Continuous
 62
     7
 48
4.0
370
    15
100
AcDbCircle
 10
12.3385134388
 20
5.1069484131
 30
0.0
 40
0.1968503937007859
  0
CIRCLE
  5
4FB
330
1F
100
AcDbEntity
  8
0
  6
Continuous
 62
     7
 48
4.0
370
    15
100
AcDbCircle
 10
9.8385134388
 20
5.1069484131
 30
0.0
 40
0.1968503937007859
  0
CIRCLE
  5
4FC
330
1F
100
AcDbEntity
  8
0
  6
Continuous
 62
     7
 48
4.0
370
    15
100
AcDbCircle
 10
9.8385134388
 20
14.6069484131
 30
0.0
 40
0.1968503937007856
  0
CIRCLE
  5
4FD
330
1F
100
AcDbEntity
  8
0
  6
Continuous
 62
     7
 48
4.0
370
    15
100
AcDbCircle
 10
12.3385134388
 20
14.6069484131
 30
0.0
 40
0.1968503937007856
  0
ARC
  5
4FE
330
1F
100
AcDbEntity
  8
0
  6
Continuous
 62
     7
 48
4.0
370
    15
100
AcDbCircle
 10
9.9010134388
 20
4.5129484131
 30
0.0
 40
0.1095000000000024
100
AcDbArc
 50
0.0
 51
180.0
  0
LINE
  5
4FF
330
1F
100
AcDbEntity
  8
0
  6
Continuous
 62
     7
 48
2.0
370
    15
100
AcDbLine
 10
9.7915134352
 20
4.450948517
 30
0.0
 11
9.7915134352
 21
4.5129484941
 31
0.0
  0
ARC
  5
500
330
1F
100
AcDbEntity
  8
0
  6
Continuous
 62
     7
 48
4.0
370
    15
100
AcDbCircle
 10
9.9010134388
 20
4.4509484131
 30
0.0
 40
0.1095000000000024
100
AcDbArc
 50
180.0
 51
0.0
  0
LINE
  5
501
330
1F
100
AcDbEntity
  8
0
  6
Continuous
 62
     7
 48
2.0
370
    15
100
AcDbLine
 10
10.0105134253
 20
4.5129484941
 30
0.0
 11
10.0105134253
 21
4.450948517
 31
0.0
  0
ARC
  5
502
330
1F
100
AcDbEntity
  8
0
  6
Continuous
 62
     7
 48
4.0
370
    15
100
AcDbCircle
 10
9.8385134388
 20
4.4819484131
 30
0.0
 40
0.25
100
AcDbArc
 50
180.0
 51
270.0
  0
LINE
  5
503
330
1F
100
AcDbEntity
  8
0
  6
Continuous
 62
     7
 48
2.0
370
    15
100
AcDbLine
 10
9.5885134202
 20
4.4819482122
 30
0.0
 11
9.5885134202
 21
4.7319486309
 31
0.0
  0
LINE
  5
504
330
1F
100
AcDbEntity
  8
0
  6
Continuous
 62
     7
 48
2.0
370
    15
100
AcDbLine
 10
12.3855134424
 20
4.450948517
 30
0.0
 11
12.3855134424
 21
4.5129484941
 31
0.0
  0
ARC
  5
505
330
1F
100
AcDbEntity
  8
0
  6
Continuous
 62
     7
 48
4.0
370
    15
100
AcDbCircle
 10
12.2760134388
 20
4.5129484131
 30
0.0
 40
0.1095000000000024
100
AcDbArc
 50
0.0
 51
180.0
  0
LINE
  5
506
330
1F
100
AcDbEntity
  8
0
  6
Continuous
 62
     7
 48
2.0
370
    15
100
AcDbLine
 10
12.1665134523
 20
4.5129484941
 30
0.0
 11
12.1665134523
 21
4.450948517
 31
0.0
  0
LINE
  5
507
330
1F
100
AcDbEntity
  8
0
  6
Continuous
 62
     7
 48
2.0
370
    15
100
AcDbLine
 10
9.8385133989
 20
4.2319483803
 30
0.0
 11
12.3385134787
 21
4.2319483803
 31
0.0
  0
ARC
  5
508
330
1F
100
AcDbEntity
  8
0
  6
Continuous
 62
     7
 48
4.0
370
    15
100
AcDbCircle
 10
12.3385134388
 20
4.4819484131
 30
0.0
 40
0.2500000000000009
100
AcDbArc
 50
270.0
 51
0.0
  0
LINE
  5
509
330
1F
100
AcDbEntity
  8
0
  6
Continuous
 62
     7
 48
2.0
370
    15
100
AcDbLine
 10
12.5885134573
 20
4.4819482122
 30
0.0
 11
12.5885134573
 21
4.7319486309
 31
0.0
  0
ARC
  5
50A
330
1F
100
AcDbEntity
  8
0
  6
Continuous
 62
     7
 48
4.0
370
    15
100
AcDbCircle
 10
12.2760134388
 20
4.4509484131
 30
0.0
 40
0.1095000000000024
100
AcDbArc
 50
180.0
 51
0.0
  0
ARC
  5
50B
330
1F
100
AcDbEntity
  8
0
  6
Continuous
 62
     7
 48
4.0
370
    15
100
AcDbCircle
 10
12.2760134388
 20
15.2009484131
 30
0.0
 40
0.1095000000000024
100
AcDbArc
 50
180.0
 51
0.0
  0
ARC
  5
50C
330
1F
100
AcDbEntity
  8
0
  6
Continuous
 62
     7
 48
4.0
370
    15
100
AcDbCircle
 10
12.2760134388
 20
15.2629484131
 30
0.0
 40
0.1095000000000024
100
AcDbArc
 50
0.0
 51
180.0
  0
LINE
  5
50D
330
1F
100
AcDbEntity
  8
0
  6
Continuous
 62
     7
 48
2.0
370
    15
100
AcDbLine
 10
12.1665134523
 20
15.2009483321
 30
0.0
 11
12.1665134523
 21
15.2629483092
 31
0.0
  0
ARC
  5
50E
330
1F
100
AcDbEntity
  8
0
  6
Continuous
 62
     7
 48
4.0
370
    15
100
AcDbCircle
 10
12.3385134388
 20
15.2319484131
 30
0.0
 40
0.25
100
AcDbArc
 50
0.0
 51
90.0
  0
ARC
  5
50F
330
1F
100
AcDbEntity
  8
0
  6
Continuous
 62
     7
 48
4.0
370
    15
100
AcDbCircle
 10
9.9010134388
 20
15.2629484131
 30
0.0
 40
0.1095000000000006
100
AcDbArc
 50
0.0
 51
180.0
  0
LINE
  5
510
330
1F
100
AcDbEntity
  8
0
  6
Continuous
 62
     7
 48
2.0
370
    15
100
AcDbLine
 10
9.7915134352
 20
15.2629483092
 30
0.0
 11
9.7915134352
 21
15.2009483321
 31
0.0
  0
LINE
  5
511
330
1F
100
AcDbEntity
  8
0
  6
Continuous
 62
     7
 48
2.0
370
    15
100
AcDbLine
 10
10.0105134253
 20
15.2009483321
 30
0.0
 11
10.0105134253
 21
15.2629483092
 31
0.0
  0
LINE
  5
512
330
1F
100
AcDbEntity
  8
0
  6
Continuous
 62
     7
 48
2.0
370
    15
100
AcDbLine
 10
12.3855134424
 20
15.2629483092
 30
0.0
 11
12.3855134424
 21
15.2009483321
 31
0.0
  0
LINE
  5
513
330
1F
100
AcDbEntity
  8
0
  6
Continuous
 62
     7
 48
2.0
370
    15
100
AcDbLine
 10
12.3385134787
 20
15.481948446
 30
0.0
 11
9.8385133989
 21
15.481948446
 31
0.0
  0
ARC
  5
514
330
1F
100
AcDbEntity
  8
0
  6
Continuous
 62
     7
 48
4.0
370
    15
100
AcDbCircle
 10
9.8385134388
 20
15.2319484131
 30
0.0
 40
0.2500000000000018
100
AcDbArc
 50
90.0
 51
180.0
  0
LINE
  5
515
330
1F
100
AcDbEntity
  8
0
  6
Continuous
 62
     7
 48
2.0
370
    15
100
AcDbLine
 10
9.5885134202
 20
15.231948614
 30
0.0
 11
9.5885134202
 21
14.9819481954
 31
0.0
  0
LINE
  5
516
330
1F
100
AcDbEntity
  8
0
  6
Continuous
 62
     7
 48
2.0
370
    15
100
AcDbLine
 10
12.5885134573
 20
15.231948614
 30
0.0
 11
12.5885134573
 21
14.9819481954
 31
0.0
  0
ARC
  5
517
330
1F
100
AcDbEntity
  8
0
  6
Continuous
 62
     7
 48
4.0
370
    15
100
AcDbCircle
 10
9.9010134388
 20
15.2009484131
 30
0.0
 40
0.1095000000000006
100
AcDbArc
 50
180.0
 51
0.0
  0
DIMENSION
  5
518
330
1F
100
AcDbEntity
  8
0
  6
Continuous
 62
     7
 48
2.0
370
     0
100
AcDbDimension
  2
*D18
 10
12.7135134388
 20
16.2693499879
 30
0.0
 11
11.0885134388
 21
16.2693499879
 31
0.0
 70
   160
 71
     2
 42
-1.0
  3
SLDDIMSTYLE0
100
AcDbAlignedDimension
 13
9.4635134388
 23
14.8889484131
 33
0.0
 14
12.7135134388
 24
14.8889484131
 34
0.0
100
AcDbRotatedDimension
  0
DIMENSION
  5
52A
330
1F
100
AcDbEntity
  8
0
  6
Continuous
 62
     7
 48
2.0
370
     0
100
AcDbDimension
  2
*D19
 10
13.510824536
 20
4.7319484131
 30
0.0
 11
13.510824536
 21
9.8569484131
 31
0.0
 70
   160
 71
     2
 42
-1.0
  3
SLDDIMSTYLE0
100
AcDbAlignedDimension
 13
12.6205134388
 23
14.9819484131
 33
0.0
 14
12.6205134388
 24
4.7319484131
 34
0.0
 50
90.0
100
AcDbRotatedDimension
  0
INSERT
  5
545
102
{ACAD_REACTORS
330
546
102
}
330
1F
100
AcDbEntity
  8
0
  6
Continuous
 62
     7
 48
2.0
370
     0
100
AcDbBlockReference
  2
SW_NOTE_6
 10
9.8405813997
 20
2.867769674
 30
0.0
  0
LEADER
  5
546
330
1F
100
AcDbEntity
  8
0
  6
Continuous
 62
     7
 48
2.0
370
     0
100
AcDbLeader
  3
SLDDIMSTYLE4
 73
     2
 76
     3
 10
11.8769142151
 20
5.8273905365
 30
0.0
 10
9.3405813997
 20
2.867769674
 30
0.0
 10
9.8405813997
 20
2.867769674
 30
0.0
340
545
  0
INSERT
  5
54C
330
1F
100
AcDbEntity
  8
0
  6
Continuous
 62
     7
 48
2.0
370
     0
100
AcDbBlockReference
  2
SW_NOTE_7
 10
10.5573958055
 20
3.5657470271
 30
0.0
  0
ARC
  5
54D
330
1F
100
AcDbEntity
  8
0
  6
Continuous
 62
     7
 48
4.0
370
    15
100
AcDbCircle
 10
6.7479031037
 20
16.8052686493
 30
0.0
 40
0.0150000000000006
100
AcDbArc
 50
0.0
 51
90.0
  0
ARC
  5
54E
330
1F
100
AcDbEntity
  8
0
  6
Continuous
 62
     7
 48
4.0
370
    15
100
AcDbCircle
 10
6.2779031037
 20
16.8052686493
 30
0.0
 40
0.0150000000000006
100
AcDbArc
 50
90.0
 51
180.0
  0
LINE
  5
54F
330
1F
100
AcDbEntity
  8
0
  6
Continuous
 62
     7
 48
2.0
370
    15
100
AcDbLine
 10
6.2629030916
 20
16.8052687805
 30
0.0
 11
6.2629030916
 21
16.7652685492
 31
0.0
  0
LINE
  5
550
330
1F
100
AcDbEntity
  8
0
  6
Continuous
 62
     7
 48
2.0
370
    15
100
AcDbLine
 10
6.7629031222
 20
16.7652685492
 30
0.0
 11
6.7629031222
 21
16.8052687805
 31
0.0
  0
ARC
  5
551
330
1F
100
AcDbEntity
  8
0
  6
Continuous
 62
     7
 48
4.0
370
    15
100
AcDbCircle
 10
6.7479031037
 20
16.7652686493
 30
0.0
 40
0.0150000000000006
100
AcDbArc
 50
270.0
 51
0.0
  0
ARC
  5
552
330
1F
100
AcDbEntity
  8
0
  6
Continuous
 62
     7
 48
4.0
370
    15
100
AcDbCircle
 10
6.2779031037
 20
16.7652686493
 30
0.0
 40
0.0150000000000006
100
AcDbArc
 50
180.0
 51
270.0
  0
LINE
  5
553
330
1F
100
AcDbEntity
  8
0
  6
Continuous
 62
     7
 48
2.0
370
    15
100
AcDbLine
 10
3.7629030852
 20
16.8052687805
 30
0.0
 11
3.7629030852
 21
16.7652685492
 31
0.0
  0
LINE
  5
554
330
1F
100
AcDbEntity
  8
0
  6
Continuous
 62
     7
 48
2.0
370
    15
100
AcDbLine
 10
4.2629031158
 20
16.7652685492
 30
0.0
 11
4.2629031158
 21
16.8052687805
 31
0.0
  0
ARC
  5
555
330
1F
100
AcDbEntity
  8
0
  6
Continuous
 62
     7
 48
4.0
370
    15
100
AcDbCircle
 10
4.2479031037
 20
16.8052686493
 30
0.0
 40
0.0150000000000006
100
AcDbArc
 50
0.0
 51
90.0
  0
ARC
  5
556
330
1F
100
AcDbEntity
  8
0
  6
Continuous
 62
     7
 48
4.0
370
    15
100
AcDbCircle
 10
3.7779031037
 20
16.8052686493
 30
0.0
 40
0.0150000000000006
100
AcDbArc
 50
90.0
 51
180.0
  0
ARC
  5
557
330
1F
100
AcDbEntity
  8
0
  6
Continuous
 62
     7
 48
4.0
370
    15
100
AcDbCircle
 10
4.2479031037
 20
16.7652686493
 30
0.0
 40
0.0150000000000006
100
AcDbArc
 50
270.0
 51
0.0
  0
ARC
  5
558
330
1F
100
AcDbEntity
  8
0
  6
Continuous
 62
     7
 48
4.0
370
    15
100
AcDbCircle
 10
3.7779031037
 20
16.7652686493
 30
0.0
 40
0.0150000000000006
100
AcDbArc
 50
180.0
 51
270.0
  0
LINE
  5
559
330
1F
100
AcDbEntity
  8
0
  6
Continuous
 62
     7
 48
2.0
370
    15
100
AcDbLine
 10
3.8029031697
 20
16.7502685358
 30
0.0
 11
3.8057895364
 21
16.7172765436
 31
0.0
  0
LINE
  5
55A
330
1F
100
AcDbEntity
  8
0
  6
Continuous
 62
     7
 48
2.0
370
    15
100
AcDbLine
 10
4.2200166645
 20
16.7172765436
 30
0.0
 11
4.2229031045
 21
16.7502685358
 31
0.0
  0
ARC
  5
55B
330
1F
100
AcDbEntity
  8
0
  6
Continuous
 62
     7
 48
4.0
370
    15
100
AcDbCircle
 10
4.1134542848
 20
16.7130245548
 30
0.0
 40
0.0787401574803184
100
AcDbArc
 50
270.0
 51
0.0
  0
ARC
  5
55C
330
1F
100
AcDbEntity
  8
0
  6
Continuous
 62
     7
 48
4.0
370
    15
100
AcDbCircle
 10
3.9123519226
 20
16.7130245548
 30
0.0
 40
0.0787401574803184
100
AcDbArc
 50
180.0
 51
270.0
  0
LINE
  5
55D
330
1F
100
AcDbEntity
  8
0
  6
Continuous
 62
     7
 48
2.0
370
    15
100
AcDbLine
 10
3.833611735
 20
16.7172765436
 30
0.0
 11
3.833611735
 21
16.7130244327
 31
0.0
  0
LINE
  5
55E
330
1F
100
AcDbEntity
  8
0
  6
Continuous
 62
     7
 48
2.0
370
    15
100
AcDbLine
 10
4.1921944659
 20
16.7130244327
 30
0.0
 11
4.1921944659
 21
16.7172765436
 31
0.0
  0
LINE
  5
55F
330
1F
100
AcDbEntity
  8
0
  6
Continuous
 62
     7
 48
2.0
370
    15
100
AcDbLine
 10
6.3029031029
 20
16.7502685358
 30
0.0
 11
6.3057895428
 21
16.7172765436
 31
0.0
  0
LINE
  5
560
330
1F
100
AcDbEntity
  8
0
  6
Continuous
 62
     7
 48
2.0
370
    15
100
AcDbLine
 10
6.720016671
 20
16.7172765436
 30
0.0
 11
6.7229030376
 21
16.7502685358
 31
0.0
  0
ARC
  5
561
330
1F
100
AcDbEntity
  8
0
  6
Continuous
 62
     7
 48
4.0
370
    15
100
AcDbCircle
 10
6.6134542848
 20
16.7130245548
 30
0.0
 40
0.0787401574803184
100
AcDbArc
 50
270.0
 51
0.0
  0
ARC
  5
562
330
1F
100
AcDbEntity
  8
0
  6
Continuous
 62
     7
 48
4.0
370
    15
100
AcDbCircle
 10
6.4123519226
 20
16.7130245548
 30
0.0
 40
0.0787401574803184
100
AcDbArc
 50
180.0
 51
270.0
  0
LINE
  5
563
330
1F
100
AcDbEntity
  8
0
  6
Continuous
 62
     7
 48
2.0
370
    15
100
AcDbLine
 10
6.3336117414
 20
16.7172765436
 30
0.0
 11
6.3336117414
 21
16.7130244327
 31
0.0
  0
LINE
  5
564
330
1F
100
AcDbEntity
  8
0
  6
Continuous
 62
     7
 48
2.0
370
    15
100
AcDbLine
 10
6.6921944724
 20
16.7130244327
 30
0.0
 11
6.6921944724
 21
16.7172765436
 31
0.0
  0
LINE
  5
565
330
1F
100
AcDbEntity
  8
0
  6
Continuous
 62
     7
 48
2.0
370
    15
100
AcDbLine
 10
6.9199031352
 20
17.3202686045
 30
0.0
 11
3.6059030722
 21
17.3202686045
 31
0.0
  0
LINE
  5
566
330
1F
100
AcDbEntity
  8
0
  6
Continuous
 62
     7
 48
2.0
370
    15
100
AcDbLine
 10
3.5129031065
 20
16.9132687595
 30
0.0
 11
3.5129031065
 21
17.3202686045
 31
0.0
  0
LINE
  5
567
330
1F
100
AcDbEntity
  8
0
  6
Continuous
 62
     7
 48
2.0
370
    15
100
AcDbLine
 10
3.5129031065
 20
17.3202686045
 30
0.0
 11
3.6059030722
 21
17.3202686045
 31
0.0
  0
LINE
  5
568
330
1F
100
AcDbEntity
  8
0
  6
Continuous
 62
     7
 48
2.0
370
    15
100
AcDbLine
 10
3.6059030722
 20
16.8202687938
 30
0.0
 11
6.9199031352
 21
16.8202687938
 31
0.0
  0
ARC
  5
569
330
1F
100
AcDbEntity
  8
0
  6
Continuous
 62
     7
 48
4.0
370
    15
100
AcDbCircle
 10
3.6059031037
 20
16.9132686493
 30
0.0
 40
0.0930000000000035
100
AcDbArc
 50
180.0
 51
270.0
  0
LINE
  5
56A
330
1F
100
AcDbEntity
  8
0
  6
Continuous
 62
     7
 48
2.0
370
    15
100
AcDbLine
 10
7.0129031009
 20
17.3202686045
 30
0.0
 11
7.0129031009
 21
16.9132687595
 31
0.0
  0
LINE
  5
56B
330
1F
100
AcDbEntity
  8
0
  6
Continuous
 62
     7
 48
2.0
370
    15
100
AcDbLine
 10
6.9199031352
 20
17.3202686045
 30
0.0
 11
7.0129031009
 21
17.3202686045
 31
0.0
  0
ARC
  5
56C
330
1F
100
AcDbEntity
  8
0
  6
Continuous
 62
     7
 48
4.0
370
    15
100
AcDbCircle
 10
6.9199031037
 20
16.9132686493
 30
0.0
 40
0.0930000000000035
100
AcDbArc
 50
270.0
 51
360.0
  0
LINE
  5
56D
330
1F
100
AcDbEntity
  8
0
  6
Continuous
 62
     7
 48
2.0
370
    15
100
AcDbLine
 10
3.6379031692
 20
17.3202686045
 30
0.0
 11
3.6379031692
 21
19.655268647
 31
0.0
  0
LINE
  5
56E
330
1F
100
AcDbEntity
  8
0
  6
Continuous
 62
     7
 48
2.0
370
    15
100
AcDbLine
 10
6.8879030382
 20
19.655268647
 30
0.0
 11
6.8879030382
 21
17.3202686045
 31
0.0
  0
ARC
  5
56F
330
1F
100
AcDbEntity
  8
0
  6
Continuous
 62
     7
 48
4.0
370
    15
100
AcDbCircle
 10
6.7949031037
 20
19.6552686493
 30
0.0
 40
0.093
100
AcDbArc
 50
0.0
 51
90.0
  0
LINE
  5
570
330
1F
100
AcDbEntity
  8
0
  6
Continuous
 62
     7
 48
2.0
370
    15
100
AcDbLine
 10
6.7949030726
 20
19.7482686493
 30
0.0
 11
6.7629031222
 21
19.7482686493
 31
0.0
  0
LINE
  5
571
330
1F
100
AcDbEntity
  8
0
  6
Continuous
 62
     7
 48
2.0
370
    15
100
AcDbLine
 10
3.7629030852
 20
19.7482686493
 30
0.0
 11
3.7309031348
 21
19.7482686493
 31
0.0
  0
ARC
  5
572
330
1F
100
AcDbEntity
  8
0
  6
Continuous
 62
     7
 48
4.0
370
    15
100
AcDbCircle
 10
3.7309031037
 20
19.6552686493
 30
0.0
 40
0.0930000000000009
100
AcDbArc
 50
90.0
 51
180.0
  0
LINE
  5
573
330
1F
100
AcDbEntity
  8
0
  6
Continuous
 62
     7
 48
2.0
370
    15
100
AcDbLine
 10
6.7479031088
 20
16.7502685358
 30
0.0
 11
6.277903105
 21
16.7502685358
 31
0.0
  0
LINE
  5
574
330
1F
100
AcDbEntity
  8
0
  6
Continuous
 62
     7
 48
2.0
370
    15
100
AcDbLine
 10
4.2479031024
 20
16.7502685358
 30
0.0
 11
3.7779030985
 21
16.7502685358
 31
0.0
  0
LINE
  5
575
330
1F
100
AcDbEntity
  8
0
  6
Continuous
 62
     7
 48
2.0
370
    15
100
AcDbLine
 10
4.2200166645
 20
16.7172765436
 30
0.0
 11
3.8057895364
 21
16.7172765436
 31
0.0
  0
LINE
  5
576
330
1F
100
AcDbEntity
  8
0
  6
Continuous
 62
     7
 48
2.0
370
    15
100
AcDbLine
 10
4.1134542956
 20
16.634284409
 30
0.0
 11
3.9123519054
 21
16.634284409
 31
0.0
  0
LINE
  5
577
330
1F
100
AcDbEntity
  8
0
  6
Continuous
 62
     7
 48
2.0
370
    15
100
AcDbLine
 10
6.720016671
 20
16.7172765436
 30
0.0
 11
6.3057895428
 21
16.7172765436
 31
0.0
  0
LINE
  5
578
330
1F
100
AcDbEntity
  8
0
  6
Continuous
 62
     7
 48
2.0
370
    15
100
AcDbLine
 10
6.613454302
 20
16.634284409
 30
0.0
 11
6.4123519118
 21
16.634284409
 31
0.0
  0
LINE
  5
579
330
1F
100
AcDbEntity
  8
0
  6
Continuous
 62
     7
 48
2.0
370
    15
100
AcDbLine
 10
3.7629030852
 20
19.8262686474
 30
0.0
 11
3.7629030852
 21
19.7482686493
 31
0.0
  0
LINE
  5
57A
330
1F
100
AcDbEntity
  8
0
  6
Continuous
 62
     7
 48
2.0
370
    15
100
AcDbLine
 10
4.0129030638
 20
19.8262686474
 30
0.0
 11
3.7629030852
 21
19.8262686474
 31
0.0
  0
LINE
  5
57B
330
1F
100
AcDbEntity
  8
0
  6
Continuous
 62
     7
 48
2.0
370
    15
100
AcDbLine
 10
4.0129030638
 20
19.7482686493
 30
0.0
 11
3.7629030852
 21
19.7482686493
 31
0.0
  0
LINE
  5
57C
330
1F
100
AcDbEntity
  8
0
  6
Continuous
 62
     7
 48
2.0
370
    15
100
AcDbLine
 10
6.5129031436
 20
19.8262686474
 30
0.0
 11
4.0129030638
 21
19.8262686474
 31
0.0
  0
LINE
  5
57D
330
1F
100
AcDbEntity
  8
0
  6
Continuous
 62
     7
 48
2.0
370
    15
100
AcDbLine
 10
6.5129031436
 20
19.7482686493
 30
0.0
 11
4.0129030638
 21
19.7482686493
 31
0.0
  0
LINE
  5
57E
330
1F
100
AcDbEntity
  8
0
  6
Continuous
 62
     7
 48
2.0
370
    15
100
AcDbLine
 10
6.7629031222
 20
19.8262686474
 30
0.0
 11
6.7629031222
 21
19.7482686493
 31
0.0
  0
LINE
  5
57F
330
1F
100
AcDbEntity
  8
0
  6
Continuous
 62
     7
 48
2.0
370
    15
100
AcDbLine
 10
6.5129031436
 20
19.7482686493
 30
0.0
 11
6.7629031222
 21
19.7482686493
 31
0.0
  0
LINE
  5
580
330
1F
100
AcDbEntity
  8
0
  6
Continuous
 62
     7
 48
2.0
370
    15
100
AcDbLine
 10
6.5129031436
 20
19.8262686474
 30
0.0
 11
6.7629031222
 21
19.8262686474
 31
0.0
  0
ENDSEC
  0
SECTION
  2
OBJECTS
  0
DICTIONARY
  5
C
330
0
100
AcDbDictionary
281
     1
  3
ACAD_GROUP
350
D
  3
ACAD_LAYOUT
350
1A
  3
ACAD_MATERIAL
350
3B
  3
ACAD_MLEADERSTYLE
350
583
  3
ACAD_MLINESTYLE
350
17
  3
ACAD_PLOTSETTINGS
350
19
  3
ACAD_PLOTSTYLENAME
350
E
  3
ACAD_SCALELIST
350
55
  3
ACAD_VISUALSTYLE
350
2A
  3
AcDbVariableDictionary
350
581
  0
DICTIONARY
  5
D
102
{ACAD_REACTORS
330
C
102
}
330
C
100
AcDbDictionary
281
     1
  0
DICTIONARY
  5
1A
102
{ACAD_REACTORS
330
C
102
}
330
C
100
AcDbDictionary
281
     1
  3
Layout1
350
1E
  3
Layout2
350
26
  3
Model
350
22
  0
DICTIONARY
  5
3B
102
{ACAD_REACTORS
330
C
102
}
330
C
100
AcDbDictionary
281
     1
  3
ByBlock
350
3D
  3
ByLayer
350
3C
  3
Global
350
3E
  0
DICTIONARY
  5
583
102
{ACAD_REACTORS
330
C
102
}
330
C
100
AcDbDictionary
281
     1
  0
DICTIONARY
  5
17
102
{ACAD_REACTORS
330
C
102
}
330
C
100
AcDbDictionary
281
     1
  3
Standard
350
18
  0
DICTIONARY
  5
19
102
{ACAD_REACTORS
330
C
102
}
330
C
100
AcDbDictionary
281
     1
  0
ACDBDICTIONARYWDFLT
  5
E
102
{ACAD_REACTORS
330
C
102
}
330
C
100
AcDbDictionary
281
     1
  3
Normal
350
F
100
AcDbDictionaryWithDefault
340
F
  0
DICTIONARY
  5
55
102
{ACAD_REACTORS
330
C
102
}
330
C
100
AcDbDictionary
281
     1
  3
A0
350
56
  3
A1
350
57
  3
A2
350
58
  3
A3
350
59
  3
A4
350
5A
  3
A5
350
5B
  3
A6
350
5C
  3
A7
350
5D
  3
A8
350
5E
  3
A9
350
5F
  3
B0
350
60
  3
B1
350
61
  3
B2
350
62
  3
B3
350
63
  3
B4
350
64
  3
B5
350
65
  3
B6
350
66
  3
B7
350
67
  3
B8
350
68
  3
B9
350
69
  3
C0
350
6A
  3
C1
350
6B
  3
C2
350
6C
  3
C3
350
6D
  3
C4
350
6E
  3
C5
350
6F
  3
C6
350
70
  3
C7
350
71
  3
C8
350
72
  3
C9
350
73
  3
D0
350
74
  3
D1
350
75
  3
D2
350
76
  0
DICTIONARY
  5
2A
102
{ACAD_REACTORS
330
C
102
}
330
C
100
AcDbDictionary
281
     1
  3
2dWireframe
350
2F
  3
3D Hidden
350
31
  3
3dWireframe
350
30
  3
Basic
350
32
  3
Brighten
350
36
  3
ColorChange
350
3A
  3
Conceptual
350
34
  3
Dim
350
35
  3
Facepattern
350
39
  3
Flat
350
2B
  3
FlatWithEdges
350
2C
  3
Gouraud
350
2D
  3
GouraudWithEdges
350
2E
  3
Linepattern
350
38
  3
Realistic
350
33
  3
Thicken
350
37
  0
DICTIONARY
  5
581
102
{ACAD_REACTORS
330
C
102
}
330
C
100
AcDbDictionary
281
     1
  3
CANNOSCALE
350
584
  3
DIMASSOC
350
585
  3
HIDETEXT
350
586
  0
LAYOUT
  5
1E
102
{ACAD_REACTORS
330
1A
102
}
330
1A
100
AcDbPlotSettings
  1

  2
none_device
  4

  6

 40
0.0
 41
0.0
 42
0.0
 43
0.0
 44
0.0
 45
0.0
 46
0.0
 47
0.0
 48
0.0
 49
0.0
140
0.0
141
0.0
142
1.0
143
1.0
 70
   688
 72
     0
 73
     0
 74
     5
  7

 75
    16
147
1.0
148
0.0
149
0.0
100
AcDbLayout
  1
Layout1
 70
     1
 71
     1
 10
0.0
 20
0.0
 11
12.0
 21
9.0
 12
0.0
 22
0.0
 32
0.0
 14
1.0000000000E+20
 24
1.0000000000E+20
 34
1.0000000000E+20
 15
-1.0000000000E+20
 25
-1.0000000000E+20
 35
-1.0000000000E+20
146
0.0
 13
0.0
 23
0.0
 33
0.0
 16
1.0
 26
0.0
 36
0.0
 17
0.0
 27
1.0
 37
0.0
 76
     0
330
1B
  0
LAYOUT
  5
26
102
{ACAD_REACTORS
330
1A
102
}
330
1A
100
AcDbPlotSettings
  1

  2
none_device
  4

  6

 40
0.0
 41
0.0
 42
0.0
 43
0.0
 44
0.0
 45
0.0
 46
0.0
 47
0.0
 48
0.0
 49
0.0
140
0.0
141
0.0
142
1.0
143
1.0
 70
   688
 72
     0
 73
     0
 74
     5
  7

 75
    16
147
1.0
148
0.0
149
0.0
100
AcDbLayout
  1
Layout2
 70
     1
 71
     2
 10
0.0
 20
0.0
 11
0.0
 21
0.0
 12
0.0
 22
0.0
 32
0.0
 14
0.0
 24
0.0
 34
0.0
 15
0.0
 25
0.0
 35
0.0
146
0.0
 13
0.0
 23
0.0
 33
0.0
 16
1.0
 26
0.0
 36
0.0
 17
0.0
 27
1.0
 37
0.0
 76
     0
330
23
  0
LAYOUT
  5
22
102
{ACAD_REACTORS
330
1A
102
}
330
1A
100
AcDbPlotSettings
  1

  2
none_device
  4

  6

 40
0.0
 41
0.0
 42
0.0
 43
0.0
 44
0.0
 45
0.0
 46
0.0
 47
0.0
 48
0.0
 49
0.0
140
0.0
141
0.0
142
1.0
143
1.0
 70
  1712
 72
     0
 73
     0
 74
     0
  7

 75
     0
147
1.0
148
0.0
149
0.0
100
AcDbLayout
  1
Model
 70
     1
 71
     0
 10
0.0
 20
0.0
 11
34.0
 21
22.0
 12
0.0
 22
0.0
 32
0.0
 14
0.0
 24
0.0
 34
0.0
 15
34.0
 25
22.0
 35
0.0
146
0.0
 13
0.0
 23
0.0
 33
0.0
 16
1.0
 26
0.0
 36
0.0
 17
0.0
 27
1.0
 37
0.0
 76
     0
330
1F
331
29
  0
MATERIAL
  5
3D
102
{ACAD_REACTORS
330
3B
102
}
102
{ACAD_XDICTIONARY
360
5A9
102
}
330
3B
100
AcDbMaterial
  1
ByBlock
  0
MATERIAL
  5
3C
102
{ACAD_REACTORS
330
3B
102
}
102
{ACAD_XDICTIONARY
360
5A7
102
}
330
3B
100
AcDbMaterial
  1
ByLayer
  0
MATERIAL
  5
3E
102
{ACAD_REACTORS
330
3B
102
}
102
{ACAD_XDICTIONARY
360
5AB
102
}
330
3B
100
AcDbMaterial
  1
Global
  0
MLINESTYLE
  5
18
102
{ACAD_REACTORS
330
17
102
}
330
17
100
AcDbMlineStyle
  2
Standard
 70
     0
  3

 62
   256
 51
90.0
 52
90.0
 71
     2
 49
0.5
 62
   256
  6
BYLAYER
 49
-0.5
 62
   256
  6
BYLAYER
  0
ACDBPLACEHOLDER
  5
F
102
{ACAD_REACTORS
330
E
102
}
330
E
  0
SCALE
  5
56
102
{ACAD_REACTORS
330
55
102
}
330
55
100
AcDbScale
 70
     0
300
1:1
140
1.0
141
1.0
290
     1
  0
SCALE
  5
57
102
{ACAD_REACTORS
330
55
102
}
330
55
100
AcDbScale
 70
     0
300
1:2
140
1.0
141
2.0
290
     0
  0
SCALE
  5
58
102
{ACAD_REACTORS
330
55
102
}
330
55
100
AcDbScale
 70
     0
300
1:4
140
1.0
141
4.0
290
     0
  0
SCALE
  5
59
102
{ACAD_REACTORS
330
55
102
}
330
55
100
AcDbScale
 70
     0
300
1:5
140
1.0
141
5.0
290
     0
  0
SCALE
  5
5A
102
{ACAD_REACTORS
330
55
102
}
330
55
100
AcDbScale
 70
     0
300
1:8
140
1.0
141
8.0
290
     0
  0
SCALE
  5
5B
102
{ACAD_REACTORS
330
55
102
}
330
55
100
AcDbScale
 70
     0
300
1:10
140
1.0
141
10.0
290
     0
  0
SCALE
  5
5C
102
{ACAD_REACTORS
330
55
102
}
330
55
100
AcDbScale
 70
     0
300
1:16
140
1.0
141
16.0
290
     0
  0
SCALE
  5
5D
102
{ACAD_REACTORS
330
55
102
}
330
55
100
AcDbScale
 70
     0
300
1:20
140
1.0
141
20.0
290
     0
  0
SCALE
  5
5E
102
{ACAD_REACTORS
330
55
102
}
330
55
100
AcDbScale
 70
     0
300
1:30
140
1.0
141
30.0
290
     0
  0
SCALE
  5
5F
102
{ACAD_REACTORS
330
55
102
}
330
55
100
AcDbScale
 70
     0
300
1:40
140
1.0
141
40.0
290
     0
  0
SCALE
  5
60
102
{ACAD_REACTORS
330
55
102
}
330
55
100
AcDbScale
 70
     0
300
1:50
140
1.0
141
50.0
290
     0
  0
SCALE
  5
61
102
{ACAD_REACTORS
330
55
102
}
330
55
100
AcDbScale
 70
     0
300
1:100
140
1.0
141
100.0
290
     0
  0
SCALE
  5
62
102
{ACAD_REACTORS
330
55
102
}
330
55
100
AcDbScale
 70
     0
300
2:1
140
2.0
141
1.0
290
     0
  0
SCALE
  5
63
102
{ACAD_REACTORS
330
55
102
}
330
55
100
AcDbScale
 70
     0
300
4:1
140
4.0
141
1.0
290
     0
  0
SCALE
  5
64
102
{ACAD_REACTORS
330
55
102
}
330
55
100
AcDbScale
 70
     0
300
8:1
140
8.0
141
1.0
290
     0
  0
SCALE
  5
65
102
{ACAD_REACTORS
330
55
102
}
330
55
100
AcDbScale
 70
     0
300
10:1
140
10.0
141
1.0
290
     0
  0
SCALE
  5
66
102
{ACAD_REACTORS
330
55
102
}
330
55
100
AcDbScale
 70
     0
300
100:1
140
100.0
141
1.0
290
     0
  0
SCALE
  5
67
102
{ACAD_REACTORS
330
55
102
}
330
55
100
AcDbScale
 70
     0
300
1/128" = 1'-0"
140
0.0078125
141
12.0
290
     0
  0
SCALE
  5
68
102
{ACAD_REACTORS
330
55
102
}
330
55
100
AcDbScale
 70
     0
300
1/64" = 1'-0"
140
0.015625
141
12.0
290
     0
  0
SCALE
  5
69
102
{ACAD_REACTORS
330
55
102
}
330
55
100
AcDbScale
 70
     0
300
1/32" = 1'-0"
140
0.03125
141
12.0
290
     0
  0
SCALE
  5
6A
102
{ACAD_REACTORS
330
55
102
}
330
55
100
AcDbScale
 70
     0
300
1/16" = 1'-0"
140
0.0625
141
12.0
290
     0
  0
SCALE
  5
6B
102
{ACAD_REACTORS
330
55
102
}
330
55
100
AcDbScale
 70
     0
300
3/32" = 1'-0"
140
0.09375
141
12.0
290
     0
  0
SCALE
  5
6C
102
{ACAD_REACTORS
330
55
102
}
330
55
100
AcDbScale
 70
     0
300
1/8" = 1'-0"
140
0.125
141
12.0
290
     0
  0
SCALE
  5
6D
102
{ACAD_REACTORS
330
55
102
}
330
55
100
AcDbScale
 70
     0
300
3/16" = 1'-0"
140
0.1875
141
12.0
290
     0
  0
SCALE
  5
6E
102
{ACAD_REACTORS
330
55
102
}
330
55
100
AcDbScale
 70
     0
300
1/4" = 1'-0"
140
0.25
141
12.0
290
     0
  0
SCALE
  5
6F
102
{ACAD_REACTORS
330
55
102
}
330
55
100
AcDbScale
 70
     0
300
3/8" = 1'-0"
140
0.375
141
12.0
290
     0
  0
SCALE
  5
70
102
{ACAD_REACTORS
330
55
102
}
330
55
100
AcDbScale
 70
     0
300
1/2" = 1'-0"
140
0.5
141
12.0
290
     0
  0
SCALE
  5
71
102
{ACAD_REACTORS
330
55
102
}
330
55
100
AcDbScale
 70
     0
300
3/4" = 1'-0"
140
0.75
141
12.0
290
     0
  0
SCALE
  5
72
102
{ACAD_REACTORS
330
55
102
}
330
55
100
AcDbScale
 70
     0
300
1" = 1'-0"
140
1.0
141
12.0
290
     0
  0
SCALE
  5
73
102
{ACAD_REACTORS
330
55
102
}
330
55
100
AcDbScale
 70
     0
300
1-1/2" = 1'-0"
140
1.5
141
12.0
290
     0
  0
SCALE
  5
74
102
{ACAD_REACTORS
330
55
102
}
330
55
100
AcDbScale
 70
     0
300
3" = 1'-0"
140
3.0
141
12.0
290
     0
  0
SCALE
  5
75
102
{ACAD_REACTORS
330
55
102
}
330
55
100
AcDbScale
 70
     0
300
6" = 1'-0"
140
6.0
141
12.0
290
     0
  0
SCALE
  5
76
102
{ACAD_REACTORS
330
55
102
}
330
55
100
AcDbScale
 70
     0
300
1'-0" = 1'-0"
140
12.0
141
12.0
290
     0
  0
VISUALSTYLE
  5
2F
102
{ACAD_REACTORS
330
2A
102
}
102
{ACAD_XDICTIONARY
360
58F
102
}
330
2A
100
AcDbVisualStyle
  2
2dWireframe
 70
     4
 71
     0
 72
     2
 73
     0
 90
        0
 40
-0.6
 41
-30.0
 62
     5
 63
     7
 74
     1
 91
        4
 64
     7
 65
   257
 75
     1
175
     1
 42
1.0
 92
        0
 66
   257
 43
1.0
 76
     1
 77
     6
 78
     2
 67
     7
 79
     5
170
     0
171
     0
290
     0
174
     0
 93
        1
 44
0.0
173
     0
291
     0
 45
0.0
1001
ACAD
1000
AcDbSavedByObjectVersion
1070
     0
  0
VISUALSTYLE
  5
31
102
{ACAD_REACTORS
330
2A
102
}
102
{ACAD_XDICTIONARY
360
593
102
}
330
2A
100
AcDbVisualStyle
  2
3D Hidden
 70
     6
 71
     1
 72
     2
 73
     2
 90
        0
 40
-0.6
 41
-30.0
 62
     5
 63
     7
 74
     2
 91
        2
 64
     7
 65
   257
 75
     2
175
     1
 42
40.0
 92
        0
 66
   257
 43
1.0
 76
     1
 77
     6
 78
     2
 67
     7
 79
     3
170
     0
171
     0
290
     0
174
     0
 93
        1
 44
0.0
173
     0
291
     0
 45
0.0
1001
ACAD
1000
AcDbSavedByObjectVersion
1070
     0
  0
VISUALSTYLE
  5
30
102
{ACAD_REACTORS
330
2A
102
}
102
{ACAD_XDICTIONARY
360
591
102
}
330
2A
100
AcDbVisualStyle
  2
3dWireframe
 70
     5
 71
     0
 72
     2
 73
     0
 90
        0
 40
-0.6
 41
-30.0
 62
     5
 63
     7
 74
     1
 91
        4
 64
     7
 65
   257
 75
     1
175
     1
 42
1.0
 92
        0
 66
   257
 43
1.0
 76
     1
 77
     6
 78
     2
 67
     7
 79
     5
170
     0
171
     0
290
     0
174
     0
 93
        1
 44
0.0
173
     0
291
     0
 45
0.0
1001
ACAD
1000
AcDbSavedByObjectVersion
1070
     0
  0
VISUALSTYLE
  5
32
102
{ACAD_REACTORS
330
2A
102
}
102
{ACAD_XDICTIONARY
360
595
102
}
330
2A
100
AcDbVisualStyle
  2
Basic
 70
     7
 71
     1
 72
     0
 73
     1
 90
        0
 40
-0.6
 41
-30.0
 62
     5
 63
     7
 74
     0
 91
        4
 64
     7
 65
   257
 75
     1
175
     1
 42
1.0
 92
        8
 66
     7
 43
1.0
 76
     1
 77
     6
 78
     2
 67
     7
 79
     5
170
     0
171
     0
290
     0
174
     0
 93
        1
 44
0.0
173
     0
291
     1
 45
0.0
1001
ACAD
1000
AcDbSavedByObjectVersion
1070
     0
  0
VISUALSTYLE
  5
36
102
{ACAD_REACTORS
330
2A
102
}
102
{ACAD_XDICTIONARY
360
59D
102
}
330
2A
100
AcDbVisualStyle
  2
Brighten
 70
    12
 71
     2
 72
     2
 73
     0
 90
        0
 40
-0.6
 41
-30.0
 62
     5
 63
     7
 74
     1
 91
        4
 64
     7
 65
   257
 75
     1
175
     1
 42
1.0
 92
        8
 66
     7
 43
1.0
 76
     1
 77
     6
 78
     2
 67
     7
 79
     5
170
     0
171
     0
290
     0
174
     0
 93
        1
 44
50.0
173
     0
291
     1
 45
0.0
1001
ACAD
1000
AcDbSavedByObjectVersion
1070
     0
  0
VISUALSTYLE
  5
3A
102
{ACAD_REACTORS
330
2A
102
}
102
{ACAD_XDICTIONARY
360
5A5
102
}
330
2A
100
AcDbVisualStyle
  2
ColorChange
 70
    16
 71
     2
 72
     2
 73
     3
 90
        0
 40
-0.6
 41
-30.0
 62
     5
 63
     8
 74
     1
 91
        4
 64
     7
 65
   257
 75
     1
175
     1
 42
1.0
 92
        8
 66
     8
 43
1.0
 76
     1
 77
     6
 78
     2
 67
     7
 79
     5
170
     0
171
     0
290
     0
174
     0
 93
        1
 44
0.0
173
     0
291
     1
 45
0.0
1001
ACAD
1000
AcDbSavedByObjectVersion
1070
     0
  0
VISUALSTYLE
  5
34
102
{ACAD_REACTORS
330
2A
102
}
102
{ACAD_XDICTIONARY
360
599
102
}
330
2A
100
AcDbVisualStyle
  2
Conceptual
 70
     9
 71
     3
 72
     2
 73
     0
 90
        0
 40
-0.6
 41
-30.0
 62
     5
 63
     7
 74
     2
 91
        2
 64
     7
 65
   257
 75
     1
175
     1
 42
40.0
 92
        8
 66
     7
 43
1.0
 76
     1
 77
     6
 78
     2
 67
     7
 79
     3
170
     0
171
     0
290
     0
174
     0
 93
        1
 44
0.0
173
     0
291
     0
 45
0.0
1001
ACAD
1000
AcDbSavedByObjectVersion
1070
     0
  0
VISUALSTYLE
  5
35
102
{ACAD_REACTORS
330
2A
102
}
102
{ACAD_XDICTIONARY
360
59B
102
}
330
2A
100
AcDbVisualStyle
  2
Dim
 70
    11
 71
     2
 72
     2
 73
     0
 90
        0
 40
-0.6
 41
-30.0
 62
     5
 63
     7
 74
     1
 91
        4
 64
     7
 65
   257
 75
     1
175
     1
 42
1.0
 92
        8
 66
     7
 43
1.0
 76
     1
 77
     6
 78
     2
 67
     7
 79
     5
170
     0
171
     0
290
     0
174
     0
 93
        1
 44
-50.0
173
     0
291
     1
 45
0.0
1001
ACAD
1000
AcDbSavedByObjectVersion
1070
     0
  0
VISUALSTYLE
  5
39
102
{ACAD_REACTORS
330
2A
102
}
102
{ACAD_XDICTIONARY
360
5A3
102
}
330
2A
100
AcDbVisualStyle
  2
Facepattern
 70
    15
 71
     2
 72
     2
 73
     0
 90
        0
 40
-0.6
 41
-30.0
 62
     5
 63
     7
 74
     1
 91
        4
 64
     7
 65
   257
 75
     1
175
     1
 42
1.0
 92
        8
 66
     7
 43
1.0
 76
     1
 77
     6
 78
     2
 67
     7
 79
     5
170
     0
171
     0
290
     0
174
     0
 93
        1
 44
0.0
173
     0
291
     1
 45
0.0
1001
ACAD
1000
AcDbSavedByObjectVersion
1070
     0
  0
VISUALSTYLE
  5
2B
102
{ACAD_REACTORS
330
2A
102
}
102
{ACAD_XDICTIONARY
360
587
102
}
330
2A
100
AcDbVisualStyle
  2
Flat
 70
     0
 71
     2
 72
     1
 73
     1
 90
        2
 40
-0.6
 41
30.0
 62
     5
 63
     7
 74
     0
 91
        4
 64
     7
 65
   257
 75
     1
175
     1
 42
1.0
 92
        8
 66
     7
 43
1.0
 76
     1
 77
     6
 78
     2
 67
     7
 79
     5
170
     0
171
     0
290
     0
174
     0
 93
       13
 44
0.0
173
     0
291
     1
 45
0.0
1001
ACAD
1000
AcDbSavedByObjectVersion
1070
     0
  0
VISUALSTYLE
  5
2C
102
{ACAD_REACTORS
330
2A
102
}
102
{ACAD_XDICTIONARY
360
589
102
}
330
2A
100
AcDbVisualStyle
  2
FlatWithEdges
 70
     1
 71
     2
 72
     1
 73
     1
 90
        2
 40
-0.6
 41
30.0
 62
     5
 63
     7
 74
     1
 91
        4
 64
     7
 65
   257
 75
     1
175
     1
 42
1.0
 92
        0
 66
   257
 43
1.0
 76
     1
 77
     6
 78
     2
 67
     7
 79
     5
170
     0
171
     0
290
     0
174
     0
 93
       13
 44
0.0
173
     0
291
     1
 45
0.0
1001
ACAD
1000
AcDbSavedByObjectVersion
1070
     0
  0
VISUALSTYLE
  5
2D
102
{ACAD_REACTORS
330
2A
102
}
102
{ACAD_XDICTIONARY
360
58B
102
}
330
2A
100
AcDbVisualStyle
  2
Gouraud
 70
     2
 71
     2
 72
     2
 73
     1
 90
        2
 40
-0.6
 41
30.0
 62
     5
 63
     7
 74
     0
 91
        4
 64
     7
 65
   257
 75
     1
175
     1
 42
1.0
 92
        0
 66
     7
 43
1.0
 76
     1
 77
     6
 78
     2
 67
     7
 79
     5
170
     0
171
     0
290
     0
174
     0
 93
       13
 44
0.0
173
     0
291
     1
 45
0.0
1001
ACAD
1000
AcDbSavedByObjectVersion
1070
     0
  0
VISUALSTYLE
  5
2E
102
{ACAD_REACTORS
330
2A
102
}
102
{ACAD_XDICTIONARY
360
58D
102
}
330
2A
100
AcDbVisualStyle
  2
GouraudWithEdges
 70
     3
 71
     2
 72
     2
 73
     1
 90
        2
 40
-0.6
 41
30.0
 62
     5
 63
     7
 74
     1
 91
        4
 64
     7
 65
   257
 75
     1
175
     1
 42
1.0
 92
        0
 66
   257
 43
1.0
 76
     1
 77
     6
 78
     2
 67
     7
 79
     5
170
     0
171
     0
290
     0
174
     0
 93
       13
 44
0.0
173
     0
291
     1
 45
0.0
1001
ACAD
1000
AcDbSavedByObjectVersion
1070
     0
  0
VISUALSTYLE
  5
38
102
{ACAD_REACTORS
330
2A
102
}
102
{ACAD_XDICTIONARY
360
5A1
102
}
330
2A
100
AcDbVisualStyle
  2
Linepattern
 70
    14
 71
     2
 72
     2
 73
     0
 90
        0
 40
-0.6
 41
-30.0
 62
     5
 63
     7
 74
     1
 91
        4
 64
     7
 65
   257
 75
     7
175
     7
 42
1.0
 92
        8
 66
     7
 43
1.0
 76
     1
 77
     6
 78
     2
 67
     7
 79
     5
170
     0
171
     0
290
     0
174
     0
 93
        1
 44
0.0
173
     0
291
     1
 45
0.0
1001
ACAD
1000
AcDbSavedByObjectVersion
1070
     0
  0
VISUALSTYLE
  5
33
102
{ACAD_REACTORS
330
2A
102
}
102
{ACAD_XDICTIONARY
360
597
102
}
330
2A
100
AcDbVisualStyle
  2
Realistic
 70
     8
 71
     2
 72
     2
 73
     0
 90
        0
 40
-0.6
 41
-30.0
 62
     5
 63
     7
 74
     1
 91
        0
 64
     7
 65
   257
 75
     1
175
     1
 42
1.0
 92
        8
 66
     8
 43
1.0
 76
     1
 77
     6
 78
     2
 67
     7
 79
     5
170
     0
171
     0
290
     0
174
     0
 93
       13
 44
0.0
173
     0
291
     0
 45
0.0
1001
ACAD
1000
AcDbSavedByObjectVersion
1070
     0
  0
VISUALSTYLE
  5
37
102
{ACAD_REACTORS
330
2A
102
}
102
{ACAD_XDICTIONARY
360
59F
102
}
330
2A
100
AcDbVisualStyle
  2
Thicken
 70
    13
 71
     2
 72
     2
 73
     0
 90
        0
 40
-0.6
 41
-30.0
 62
     5
 63
     7
 74
     1
 91
        4
 64
     7
 65
   257
 75
     1
175
     1
 42
1.0
 92
       12
 66
     7
 43
1.0
 76
     1
 77
     6
 78
     2
 67
     7
 79
     5
170
     0
171
     0
290
     0
174
     0
 93
        1
 44
0.0
173
     0
291
     1
 45
0.0
1001
ACAD
1000
AcDbSavedByObjectVersion
1070
     0
  0
DICTIONARYVAR
  5
584
102
{ACAD_REACTORS
330
581
102
}
330
581
100
DictionaryVariables
280
     0
  1
1:1
  0
DICTIONARYVAR
  5
585
102
{ACAD_REACTORS
330
581
102
}
330
581
100
DictionaryVariables
280
     0
  1
2
  0
DICTIONARYVAR
  5
586
102
{ACAD_REACTORS
330
581
102
}
330
581
100
DictionaryVariables
280
     0
  1
1
  0
DICTIONARY
  5
5A9
330
3D
100
AcDbDictionary
280
     1
281
     1
  3
ACAD_XREC_ROUNDTRIP
360
5AA
  0
DICTIONARY
  5
5A7
330
3C
100
AcDbDictionary
280
     1
281
     1
  3
ACAD_XREC_ROUNDTRIP
360
5A8
  0
DICTIONARY
  5
5AB
330
3E
100
AcDbDictionary
280
     1
281
     1
  3
ACAD_XREC_ROUNDTRIP
360
5AC
  0
DICTIONARY
  5
58F
330
2F
100
AcDbDictionary
280
     1
281
     1
  3
ACAD_XREC_ROUNDTRIP
360
590
  0
DICTIONARY
  5
593
330
31
100
AcDbDictionary
280
     1
281
     1
  3
ACAD_XREC_ROUNDTRIP
360
594
  0
DICTIONARY
  5
591
330
30
100
AcDbDictionary
280
     1
281
     1
  3
ACAD_XREC_ROUNDTRIP
360
592
  0
DICTIONARY
  5
595
330
32
100
AcDbDictionary
280
     1
281
     1
  3
ACAD_XREC_ROUNDTRIP
360
596
  0
DICTIONARY
  5
59D
330
36
100
AcDbDictionary
280
     1
281
     1
  3
ACAD_XREC_ROUNDTRIP
360
59E
  0
DICTIONARY
  5
5A5
330
3A
100
AcDbDictionary
280
     1
281
     1
  3
ACAD_XREC_ROUNDTRIP
360
5A6
  0
DICTIONARY
  5
599
330
34
100
AcDbDictionary
280
     1
281
     1
  3
ACAD_XREC_ROUNDTRIP
360
59A
  0
DICTIONARY
  5
59B
330
35
100
AcDbDictionary
280
     1
281
     1
  3
ACAD_XREC_ROUNDTRIP
360
59C
  0
DICTIONARY
  5
5A3
330
39
100
AcDbDictionary
280
     1
281
     1
  3
ACAD_XREC_ROUNDTRIP
360
5A4
  0
DICTIONARY
  5
587
330
2B
100
AcDbDictionary
280
     1
281
     1
  3
ACAD_XREC_ROUNDTRIP
360
588
  0
DICTIONARY
  5
589
330
2C
100
AcDbDictionary
280
     1
281
     1
  3
ACAD_XREC_ROUNDTRIP
360
58A
  0
DICTIONARY
  5
58B
330
2D
100
AcDbDictionary
280
     1
281
     1
  3
ACAD_XREC_ROUNDTRIP
360
58C
  0
DICTIONARY
  5
58D
330
2E
100
AcDbDictionary
280
     1
281
     1
  3
ACAD_XREC_ROUNDTRIP
360
58E
  0
DICTIONARY
  5
5A1
330
38
100
AcDbDictionary
280
     1
281
     1
  3
ACAD_XREC_ROUNDTRIP
360
5A2
  0
DICTIONARY
  5
597
330
33
100
AcDbDictionary
280
     1
281
     1
  3
ACAD_XREC_ROUNDTRIP
360
598
  0
DICTIONARY
  5
59F
330
37
100
AcDbDictionary
280
     1
281
     1
  3
ACAD_XREC_ROUNDTRIP
360
5A0
  0
XRECORD
  5
5AA
102
{ACAD_REACTORS
330
5A9
102
}
330
5A9
100
AcDbXrecord
280
     1
102
MATERIAL
148
0.0
149
0.0
149
0.0
 93
        0
 94
      127
282
     0
 72
     1
 77
     1
171
     1
175
     1
179
     1
273
     0
  0
XRECORD
  5
5A8
102
{ACAD_REACTORS
330
5A7
102
}
330
5A7
100
AcDbXrecord
280
     1
102
MATERIAL
148
0.0
149
0.0
149
0.0
 93
        0
 94
      127
282
     0
 72
     1
 77
     1
171
     1
175
     1
179
     1
273
     0
  0
XRECORD
  5
5AC
102
{ACAD_REACTORS
330
5AB
102
}
330
5AB
100
AcDbXrecord
280
     1
102
MATERIAL
148
0.0
149
0.0
149
0.0
 93
        0
 94
      127
282
     0
 72
     1
 77
     1
171
     1
175
     1
179
     1
273
     0
  0
XRECORD
  5
590
102
{ACAD_REACTORS
330
58F
102
}
330
58F
100
AcDbXrecord
280
     1
102
RTVSPropertyOp0
 70
     1
102
RTVSPropertyOp1
 70
     1
102
RTVSPropertyOp2
 70
     1
102
RTVSPropertyOp3
 70
     1
102
RTVSPropertyOp4
 70
     1
102
RTVSPropertyOp5
 70
     1
102
RTVSPropertyOp6
 70
     1
102
RTVSPropertyOp7
 70
     1
102
RTVSPropertyOp8
 70
     1
102
RTVSPropertyOp9
 70
     1
102
RTVSPropertyOp10
 70
     1
102
RTVSPropertyOp11
 70
     1
102
RTVSPropertyOp12
 70
     1
102
RTVSPropertyOp13
 70
     1
102
RTVSPropertyOp14
 70
     1
102
RTVSPropertyOp15
 70
     1
102
RTVSPropertyOp16
 70
     1
102
RTVSPropertyOp17
 70
     1
102
RTVSPropertyOp18
 70
     1
102
RTVSPropertyOp19
 70
     1
102
RTVSPropertyOp20
 70
     1
102
RTVSPropertyOp21
 70
     1
102
RTVSPropertyOp22
 70
     1
102
RTVSPropertyOp23
 70
     1
102
RTVSPropertyOp24
 70
     1
102
RTVSPropertyOp25
 70
     1
102
RTVSPropertyOp26
 70
     1
102
RTVSPropertyOp27
 70
     1
  0
XRECORD
  5
594
102
{ACAD_REACTORS
330
593
102
}
330
593
100
AcDbXrecord
280
     1
102
RTVSPropertyOp0
 70
     1
102
RTVSPropertyOp1
 70
     1
102
RTVSPropertyOp2
 70
     1
102
RTVSPropertyOp3
 70
     1
102
RTVSPropertyOp4
 70
     1
102
RTVSPropertyOp5
 70
     1
102
RTVSPropertyOp6
 70
     1
102
RTVSPropertyOp7
 70
     1
102
RTVSPropertyOp8
 70
     1
102
RTVSPropertyOp9
 70
     1
102
RTVSPropertyOp10
 70
     1
102
RTVSPropertyOp11
 70
     1
102
RTVSPropertyOp12
 70
     1
102
RTVSPropertyOp13
 70
     1
102
RTVSPropertyOp14
 70
     1
102
RTVSPropertyOp15
 70
     1
102
RTVSPropertyOp16
 70
     1
102
RTVSPropertyOp17
 70
     1
102
RTVSPropertyOp18
 70
     1
102
RTVSPropertyOp19
 70
     1
102
RTVSPropertyOp20
 70
     1
102
RTVSPropertyOp21
 70
     1
102
RTVSPropertyOp22
 70
     1
102
RTVSPropertyOp23
 70
     1
102
RTVSPropertyOp24
 70
     1
102
RTVSPropertyOp25
 70
     1
102
RTVSPropertyOp26
 70
     1
102
RTVSPropertyOp27
 70
     1
  0
XRECORD
  5
592
102
{ACAD_REACTORS
330
591
102
}
330
591
100
AcDbXrecord
280
     1
102
RTVSPropertyOp0
 70
     1
102
RTVSPropertyOp1
 70
     1
102
RTVSPropertyOp2
 70
     1
102
RTVSPropertyOp3
 70
     1
102
RTVSPropertyOp4
 70
     1
102
RTVSPropertyOp5
 70
     1
102
RTVSPropertyOp6
 70
     1
102
RTVSPropertyOp7
 70
     1
102
RTVSPropertyOp8
 70
     1
102
RTVSPropertyOp9
 70
     1
102
RTVSPropertyOp10
 70
     1
102
RTVSPropertyOp11
 70
     1
102
RTVSPropertyOp12
 70
     1
102
RTVSPropertyOp13
 70
     1
102
RTVSPropertyOp14
 70
     1
102
RTVSPropertyOp15
 70
     1
102
RTVSPropertyOp16
 70
     1
102
RTVSPropertyOp17
 70
     1
102
RTVSPropertyOp18
 70
     1
102
RTVSPropertyOp19
 70
     1
102
RTVSPropertyOp20
 70
     1
102
RTVSPropertyOp21
 70
     1
102
RTVSPropertyOp22
 70
     1
102
RTVSPropertyOp23
 70
     1
102
RTVSPropertyOp24
 70
     1
102
RTVSPropertyOp25
 70
     1
102
RTVSPropertyOp26
 70
     1
102
RTVSPropertyOp27
 70
     1
  0
XRECORD
  5
596
102
{ACAD_REACTORS
330
595
102
}
330
595
100
AcDbXrecord
280
     1
102
RTVSPropertyOp0
 70
     1
102
RTVSPropertyOp1
 70
     1
102
RTVSPropertyOp2
 70
     1
102
RTVSPropertyOp3
 70
     1
102
RTVSPropertyOp4
 70
     1
102
RTVSPropertyOp5
 70
     1
102
RTVSPropertyOp6
 70
     1
102
RTVSPropertyOp7
 70
     1
102
RTVSPropertyOp8
 70
     1
102
RTVSPropertyOp9
 70
     1
102
RTVSPropertyOp10
 70
     1
102
RTVSPropertyOp11
 70
     1
102
RTVSPropertyOp12
 70
     1
102
RTVSPropertyOp13
 70
     1
102
RTVSPropertyOp14
 70
     1
102
RTVSPropertyOp15
 70
     1
102
RTVSPropertyOp16
 70
     1
102
RTVSPropertyOp17
 70
     1
102
RTVSPropertyOp18
 70
     1
102
RTVSPropertyOp19
 70
     1
102
RTVSPropertyOp20
 70
     1
102
RTVSPropertyOp21
 70
     1
102
RTVSPropertyOp22
 70
     1
102
RTVSPropertyOp23
 70
     1
102
RTVSPropertyOp24
 70
     1
102
RTVSPropertyOp25
 70
     1
102
RTVSPropertyOp26
 70
     1
102
RTVSPropertyOp27
 70
     1
  0
XRECORD
  5
59E
102
{ACAD_REACTORS
330
59D
102
}
330
59D
100
AcDbXrecord
280
     1
102
RTVSPropertyOp0
 70
     1
102
RTVSPropertyOp1
 70
     1
102
RTVSPropertyOp2
 70
     1
102
RTVSPropertyOp3
 70
     1
102
RTVSPropertyOp4
 70
     1
102
RTVSPropertyOp5
 70
     1
102
RTVSPropertyOp6
 70
     1
102
RTVSPropertyOp7
 70
     1
102
RTVSPropertyOp8
 70
     1
102
RTVSPropertyOp9
 70
     1
102
RTVSPropertyOp10
 70
     1
102
RTVSPropertyOp11
 70
     1
102
RTVSPropertyOp12
 70
     1
102
RTVSPropertyOp13
 70
     1
102
RTVSPropertyOp14
 70
     1
102
RTVSPropertyOp15
 70
     1
102
RTVSPropertyOp16
 70
     1
102
RTVSPropertyOp17
 70
     1
102
RTVSPropertyOp18
 70
     1
102
RTVSPropertyOp19
 70
     1
102
RTVSPropertyOp20
 70
     1
102
RTVSPropertyOp21
 70
     1
102
RTVSPropertyOp22
 70
     1
102
RTVSPropertyOp23
 70
     1
102
RTVSPropertyOp24
 70
     1
102
RTVSPropertyOp25
 70
     1
102
RTVSPropertyOp26
 70
     1
102
RTVSPropertyOp27
 70
     1
  0
XRECORD
  5
5A6
102
{ACAD_REACTORS
330
5A5
102
}
330
5A5
100
AcDbXrecord
280
     1
102
RTVSPropertyOp0
 70
     1
102
RTVSPropertyOp1
 70
     1
102
RTVSPropertyOp2
 70
     1
102
RTVSPropertyOp3
 70
     1
102
RTVSPropertyOp4
 70
     1
102
RTVSPropertyOp5
 70
     1
102
RTVSPropertyOp6
 70
     1
102
RTVSPropertyOp7
 70
     1
102
RTVSPropertyOp8
 70
     1
102
RTVSPropertyOp9
 70
     1
102
RTVSPropertyOp10
 70
     1
102
RTVSPropertyOp11
 70
     1
102
RTVSPropertyOp12
 70
     1
102
RTVSPropertyOp13
 70
     1
102
RTVSPropertyOp14
 70
     1
102
RTVSPropertyOp15
 70
     1
102
RTVSPropertyOp16
 70
     1
102
RTVSPropertyOp17
 70
     1
102
RTVSPropertyOp18
 70
     1
102
RTVSPropertyOp19
 70
     1
102
RTVSPropertyOp20
 70
     1
102
RTVSPropertyOp21
 70
     1
102
RTVSPropertyOp22
 70
     1
102
RTVSPropertyOp23
 70
     1
102
RTVSPropertyOp24
 70
     1
102
RTVSPropertyOp25
 70
     1
102
RTVSPropertyOp26
 70
     1
102
RTVSPropertyOp27
 70
     1
  0
XRECORD
  5
59A
102
{ACAD_REACTORS
330
599
102
}
330
599
100
AcDbXrecord
280
     1
102
RTVSPropertyOp0
 70
     1
102
RTVSPropertyOp1
 70
     1
102
RTVSPropertyOp2
 70
     1
102
RTVSPropertyOp3
 70
     1
102
RTVSPropertyOp4
 70
     1
102
RTVSPropertyOp5
 70
     1
102
RTVSPropertyOp6
 70
     1
102
RTVSPropertyOp7
 70
     1
102
RTVSPropertyOp8
 70
     1
102
RTVSPropertyOp9
 70
     1
102
RTVSPropertyOp10
 70
     1
102
RTVSPropertyOp11
 70
     1
102
RTVSPropertyOp12
 70
     1
102
RTVSPropertyOp13
 70
     1
102
RTVSPropertyOp14
 70
     1
102
RTVSPropertyOp15
 70
     1
102
RTVSPropertyOp16
 70
     1
102
RTVSPropertyOp17
 70
     1
102
RTVSPropertyOp18
 70
     1
102
RTVSPropertyOp19
 70
     1
102
RTVSPropertyOp20
 70
     1
102
RTVSPropertyOp21
 70
     1
102
RTVSPropertyOp22
 70
     1
102
RTVSPropertyOp23
 70
     1
102
RTVSPropertyOp24
 70
     1
102
RTVSPropertyOp25
 70
     1
102
RTVSPropertyOp26
 70
     1
102
RTVSPropertyOp27
 70
     1
  0
XRECORD
  5
59C
102
{ACAD_REACTORS
330
59B
102
}
330
59B
100
AcDbXrecord
280
     1
102
RTVSPropertyOp0
 70
     1
102
RTVSPropertyOp1
 70
     1
102
RTVSPropertyOp2
 70
     1
102
RTVSPropertyOp3
 70
     1
102
RTVSPropertyOp4
 70
     1
102
RTVSPropertyOp5
 70
     1
102
RTVSPropertyOp6
 70
     1
102
RTVSPropertyOp7
 70
     1
102
RTVSPropertyOp8
 70
     1
102
RTVSPropertyOp9
 70
     1
102
RTVSPropertyOp10
 70
     1
102
RTVSPropertyOp11
 70
     1
102
RTVSPropertyOp12
 70
     1
102
RTVSPropertyOp13
 70
     1
102
RTVSPropertyOp14
 70
     1
102
RTVSPropertyOp15
 70
     1
102
RTVSPropertyOp16
 70
     1
102
RTVSPropertyOp17
 70
     1
102
RTVSPropertyOp18
 70
     1
102
RTVSPropertyOp19
 70
     1
102
RTVSPropertyOp20
 70
     1
102
RTVSPropertyOp21
 70
     1
102
RTVSPropertyOp22
 70
     1
102
RTVSPropertyOp23
 70
     1
102
RTVSPropertyOp24
 70
     1
102
RTVSPropertyOp25
 70
     1
102
RTVSPropertyOp26
 70
     1
102
RTVSPropertyOp27
 70
     1
  0
XRECORD
  5
5A4
102
{ACAD_REACTORS
330
5A3
102
}
330
5A3
100
AcDbXrecord
280
     1
102
RTVSPropertyOp0
 70
     1
102
RTVSPropertyOp1
 70
     1
102
RTVSPropertyOp2
 70
     1
102
RTVSPropertyOp3
 70
     1
102
RTVSPropertyOp4
 70
     1
102
RTVSPropertyOp5
 70
     1
102
RTVSPropertyOp6
 70
     1
102
RTVSPropertyOp7
 70
     1
102
RTVSPropertyOp8
 70
     1
102
RTVSPropertyOp9
 70
     1
102
RTVSPropertyOp10
 70
     1
102
RTVSPropertyOp11
 70
     1
102
RTVSPropertyOp12
 70
     1
102
RTVSPropertyOp13
 70
     1
102
RTVSPropertyOp14
 70
     1
102
RTVSPropertyOp15
 70
     1
102
RTVSPropertyOp16
 70
     1
102
RTVSPropertyOp17
 70
     1
102
RTVSPropertyOp18
 70
     1
102
RTVSPropertyOp19
 70
     1
102
RTVSPropertyOp20
 70
     1
102
RTVSPropertyOp21
 70
     1
102
RTVSPropertyOp22
 70
     1
102
RTVSPropertyOp23
 70
     1
102
RTVSPropertyOp24
 70
     1
102
RTVSPropertyOp25
 70
     1
102
RTVSPropertyOp26
 70
     1
102
RTVSPropertyOp27
 70
     1
  0
XRECORD
  5
588
102
{ACAD_REACTORS
330
587
102
}
330
587
100
AcDbXrecord
280
     1
102
RTVSPropertyOp0
 70
     1
102
RTVSPropertyOp1
 70
     1
102
RTVSPropertyOp2
 70
     1
102
RTVSPropertyOp3
 70
     1
102
RTVSPropertyOp4
 70
     1
102
RTVSPropertyOp5
 70
     1
102
RTVSPropertyOp6
 70
     1
102
RTVSPropertyOp7
 70
     1
102
RTVSPropertyOp8
 70
     1
102
RTVSPropertyOp9
 70
     1
102
RTVSPropertyOp10
 70
     1
102
RTVSPropertyOp11
 70
     1
102
RTVSPropertyOp12
 70
     1
102
RTVSPropertyOp13
 70
     1
102
RTVSPropertyOp14
 70
     1
102
RTVSPropertyOp15
 70
     1
102
RTVSPropertyOp16
 70
     1
102
RTVSPropertyOp17
 70
     1
102
RTVSPropertyOp18
 70
     1
102
RTVSPropertyOp19
 70
     1
102
RTVSPropertyOp20
 70
     1
102
RTVSPropertyOp21
 70
     1
102
RTVSPropertyOp22
 70
     1
102
RTVSPropertyOp23
 70
     1
102
RTVSPropertyOp24
 70
     1
102
RTVSPropertyOp25
 70
     1
102
RTVSPropertyOp26
 70
     1
102
RTVSPropertyOp27
 70
     1
  0
XRECORD
  5
58A
102
{ACAD_REACTORS
330
589
102
}
330
589
100
AcDbXrecord
280
     1
102
RTVSPropertyOp0
 70
     1
102
RTVSPropertyOp1
 70
     1
102
RTVSPropertyOp2
 70
     1
102
RTVSPropertyOp3
 70
     1
102
RTVSPropertyOp4
 70
     1
102
RTVSPropertyOp5
 70
     1
102
RTVSPropertyOp6
 70
     1
102
RTVSPropertyOp7
 70
     1
102
RTVSPropertyOp8
 70
     1
102
RTVSPropertyOp9
 70
     1
102
RTVSPropertyOp10
 70
     1
102
RTVSPropertyOp11
 70
     1
102
RTVSPropertyOp12
 70
     1
102
RTVSPropertyOp13
 70
     1
102
RTVSPropertyOp14
 70
     1
102
RTVSPropertyOp15
 70
     1
102
RTVSPropertyOp16
 70
     1
102
RTVSPropertyOp17
 70
     1
102
RTVSPropertyOp18
 70
     1
102
RTVSPropertyOp19
 70
     1
102
RTVSPropertyOp20
 70
     1
102
RTVSPropertyOp21
 70
     1
102
RTVSPropertyOp22
 70
     1
102
RTVSPropertyOp23
 70
     1
102
RTVSPropertyOp24
 70
     1
102
RTVSPropertyOp25
 70
     1
102
RTVSPropertyOp26
 70
     1
102
RTVSPropertyOp27
 70
     1
  0
XRECORD
  5
58C
102
{ACAD_REACTORS
330
58B
102
}
330
58B
100
AcDbXrecord
280
     1
102
RTVSPropertyOp0
 70
     1
102
RTVSPropertyOp1
 70
     1
102
RTVSPropertyOp2
 70
     1
102
RTVSPropertyOp3
 70
     1
102
RTVSPropertyOp4
 70
     1
102
RTVSPropertyOp5
 70
     1
102
RTVSPropertyOp6
 70
     1
102
RTVSPropertyOp7
 70
     1
102
RTVSPropertyOp8
 70
     1
102
RTVSPropertyOp9
 70
     1
102
RTVSPropertyOp10
 70
     1
102
RTVSPropertyOp11
 70
     1
102
RTVSPropertyOp12
 70
     1
102
RTVSPropertyOp13
 70
     1
102
RTVSPropertyOp14
 70
     1
102
RTVSPropertyOp15
 70
     1
102
RTVSPropertyOp16
 70
     1
102
RTVSPropertyOp17
 70
     1
102
RTVSPropertyOp18
 70
     1
102
RTVSPropertyOp19
 70
     1
102
RTVSPropertyOp20
 70
     1
102
RTVSPropertyOp21
 70
     1
102
RTVSPropertyOp22
 70
     1
102
RTVSPropertyOp23
 70
     1
102
RTVSPropertyOp24
 70
     1
102
RTVSPropertyOp25
 70
     1
102
RTVSPropertyOp26
 70
     1
102
RTVSPropertyOp27
 70
     1
  0
XRECORD
  5
58E
102
{ACAD_REACTORS
330
58D
102
}
330
58D
100
AcDbXrecord
280
     1
102
RTVSPropertyOp0
 70
     1
102
RTVSPropertyOp1
 70
     1
102
RTVSPropertyOp2
 70
     1
102
RTVSPropertyOp3
 70
     1
102
RTVSPropertyOp4
 70
     1
102
RTVSPropertyOp5
 70
     1
102
RTVSPropertyOp6
 70
     1
102
RTVSPropertyOp7
 70
     1
102
RTVSPropertyOp8
 70
     1
102
RTVSPropertyOp9
 70
     1
102
RTVSPropertyOp10
 70
     1
102
RTVSPropertyOp11
 70
     1
102
RTVSPropertyOp12
 70
     1
102
RTVSPropertyOp13
 70
     1
102
RTVSPropertyOp14
 70
     1
102
RTVSPropertyOp15
 70
     1
102
RTVSPropertyOp16
 70
     1
102
RTVSPropertyOp17
 70
     1
102
RTVSPropertyOp18
 70
     1
102
RTVSPropertyOp19
 70
     1
102
RTVSPropertyOp20
 70
     1
102
RTVSPropertyOp21
 70
     1
102
RTVSPropertyOp22
 70
     1
102
RTVSPropertyOp23
 70
     1
102
RTVSPropertyOp24
 70
     1
102
RTVSPropertyOp25
 70
     1
102
RTVSPropertyOp26
 70
     1
102
RTVSPropertyOp27
 70
     1
  0
XRECORD
  5
5A2
102
{ACAD_REACTORS
330
5A1
102
}
330
5A1
100
AcDbXrecord
280
     1
102
RTVSPropertyOp0
 70
     1
102
RTVSPropertyOp1
 70
     1
102
RTVSPropertyOp2
 70
     1
102
RTVSPropertyOp3
 70
     1
102
RTVSPropertyOp4
 70
     1
102
RTVSPropertyOp5
 70
     1
102
RTVSPropertyOp6
 70
     1
102
RTVSPropertyOp7
 70
     1
102
RTVSPropertyOp8
 70
     1
102
RTVSPropertyOp9
 70
     1
102
RTVSPropertyOp10
 70
     1
102
RTVSPropertyOp11
 70
     1
102
RTVSPropertyOp12
 70
     1
102
RTVSPropertyOp13
 70
     1
102
RTVSPropertyOp14
 70
     1
102
RTVSPropertyOp15
 70
     1
102
RTVSPropertyOp16
 70
     1
102
RTVSPropertyOp17
 70
     1
102
RTVSPropertyOp18
 70
     1
102
RTVSPropertyOp19
 70
     1
102
RTVSPropertyOp20
 70
     1
102
RTVSPropertyOp21
 70
     1
102
RTVSPropertyOp22
 70
     1
102
RTVSPropertyOp23
 70
     1
102
RTVSPropertyOp24
 70
     1
102
RTVSPropertyOp25
 70
     1
102
RTVSPropertyOp26
 70
     1
102
RTVSPropertyOp27
 70
     1
  0
XRECORD
  5
598
102
{ACAD_REACTORS
330
597
102
}
330
597
100
AcDbXrecord
280
     1
102
RTVSPropertyOp0
 70
     1
102
RTVSPropertyOp1
 70
     1
102
RTVSPropertyOp2
 70
     1
102
RTVSPropertyOp3
 70
     1
102
RTVSPropertyOp4
 70
     1
102
RTVSPropertyOp5
 70
     1
102
RTVSPropertyOp6
 70
     1
102
RTVSPropertyOp7
 70
     1
102
RTVSPropertyOp8
 70
     1
102
RTVSPropertyOp9
 70
     1
102
RTVSPropertyOp10
 70
     1
102
RTVSPropertyOp11
 70
     1
102
RTVSPropertyOp12
 70
     1
102
RTVSPropertyOp13
 70
     1
102
RTVSPropertyOp14
 70
     1
102
RTVSPropertyOp15
 70
     1
102
RTVSPropertyOp16
 70
     1
102
RTVSPropertyOp17
 70
     1
102
RTVSPropertyOp18
 70
     1
102
RTVSPropertyOp19
 70
     1
102
RTVSPropertyOp20
 70
     1
102
RTVSPropertyOp21
 70
     1
102
RTVSPropertyOp22
 70
     1
102
RTVSPropertyOp23
 70
     1
102
RTVSPropertyOp24
 70
     1
102
RTVSPropertyOp25
 70
     1
102
RTVSPropertyOp26
 70
     1
102
RTVSPropertyOp27
 70
     1
  0
XRECORD
  5
5A0
102
{ACAD_REACTORS
330
59F
102
}
330
59F
100
AcDbXrecord
280
     1
102
RTVSPropertyOp0
 70
     1
102
RTVSPropertyOp1
 70
     1
102
RTVSPropertyOp2
 70
     1
102
RTVSPropertyOp3
 70
     1
102
RTVSPropertyOp4
 70
     1
102
RTVSPropertyOp5
 70
     1
102
RTVSPropertyOp6
 70
     1
102
RTVSPropertyOp7
 70
     1
102
RTVSPropertyOp8
 70
     1
102
RTVSPropertyOp9
 70
     1
102
RTVSPropertyOp10
 70
     1
102
RTVSPropertyOp11
 70
     1
102
RTVSPropertyOp12
 70
     1
102
RTVSPropertyOp13
 70
     1
102
RTVSPropertyOp14
 70
     1
102
RTVSPropertyOp15
 70
     1
102
RTVSPropertyOp16
 70
     1
102
RTVSPropertyOp17
 70
     1
102
RTVSPropertyOp18
 70
     1
102
RTVSPropertyOp19
 70
     1
102
RTVSPropertyOp20
 70
     1
102
RTVSPropertyOp21
 70
     1
102
RTVSPropertyOp22
 70
     1
102
RTVSPropertyOp23
 70
     1
102
RTVSPropertyOp24
 70
     1
102
RTVSPropertyOp25
 70
     1
102
RTVSPropertyOp26
 70
     1
102
RTVSPropertyOp27
 70
     1
  0
ENDSEC
  0
EOF
