  0
SECTION
  2
HEADER
  9
$ACADVER
  1
AC1015
  9
$ACADMAINTVER
 70
     6
  9
$DWGCODEPAGE
  3
ANSI_1252
  9
$INSBASE
 10
0.0
 20
0.0
 30
0.0
  9
$EXTMIN
 10
0.0
 20
0.0
 30
0.0
  9
$EXTMAX
 10
25.5
 20
16.5
 30
0.0
  9
$LIMMIN
 10
0.0
 20
0.0
  9
$LIMMAX
 10
25.5
 20
16.5
  9
$ORTHOMODE
 70
     0
  9
$REGENMODE
 70
     1
  9
$FILLMODE
 70
     1
  9
$QTEXTMODE
 70
     0
  9
$MIRRTEXT
 70
     1
  9
$LTSCALE
 40
1.5
  9
$ATTMODE
 70
     1
  9
$TEXTSIZE
 40
0.1875
  9
$TRACEWID
 40
0.05
  9
$TEXTSTYLE
  7
Standard
  9
$CLAYER
  8
0
  9
$CELTYPE
  6
ByLayer
  9
$CECOLOR
 62
   256
  9
$CELTSCALE
 40
1.0
  9
$DISPSILH
 70
     0
  9
$DIMSCALE
 40
1.0
  9
$DIMASZ
 40
0.195
  9
$DIMEXO
 40
0.075
  9
$DIMDLI
 40
0.38
  9
$DIMRND
 40
0.0
  9
$DIMDLE
 40
0.0
  9
$DIMEXE
 40
0.1875
  9
$DIMTP
 40
0.0
  9
$DIMTM
 40
0.0
  9
$DIMTXT
 40
0.1875
  9
$DIMCEN
 40
0.09
  9
$DIMTSZ
 40
0.0
  9
$DIMTOL
 70
     0
  9
$DIMLIM
 70
     0
  9
$DIMTIH
 70
     1
  9
$DIMTOH
 70
     1
  9
$DIMSE1
 70
     0
  9
$DIMSE2
 70
     0
  9
$DIMTAD
 70
     1
  9
$DIMZIN
 70
     0
  9
$DIMBLK
  1

  9
$DIMASO
 70
     1
  9
$DIMSHO
 70
     1
  9
$DIMPOST
  1

  9
$DIMAPOST
  1

  9
$DIMALT
 70
     0
  9
$DIMALTD
 70
     2
  9
$DIMALTF
 40
25.4
  9
$DIMLFAC
 40
1.0
  9
$DIMTOFL
 70
     0
  9
$DIMTVP
 40
0.0
  9
$DIMTIX
 70
     0
  9
$DIMSOXD
 70
     0
  9
$DIMSAH
 70
     0
  9
$DIMBLK1
  1

  9
$DIMBLK2
  1

  9
$DIMSTYLE
  2
Standard
  9
$DIMCLRD
 70
     0
  9
$DIMCLRE
 70
     0
  9
$DIMCLRT
 70
     0
  9
$DIMTFAC
 40
1.0
  9
$DIMGAP
 40
0.09
  9
$DIMJUST
 70
     0
  9
$DIMSD1
 70
     0
  9
$DIMSD2
 70
     0
  9
$DIMTOLJ
 70
     1
  9
$DIMTZIN
 70
     0
  9
$DIMALTZ
 70
     0
  9
$DIMALTTZ
 70
     0
  9
$DIMUPT
 70
     0
  9
$DIMDEC
 70
     2
  9
$DIMTDEC
 70
     2
  9
$DIMALTU
 70
     2
  9
$DIMALTTD
 70
     2
  9
$DIMTXSTY
  7
Standard
  9
$DIMAUNIT
 70
     0
  9
$DIMADEC
 70
     2
  9
$DIMALTRND
 40
0.0
  9
$DIMAZIN
 70
     0
  9
$DIMDSEP
 70
    46
  9
$DIMATFIT
 70
     3
  9
$DIMFRAC
 70
     0
  9
$DIMLDRBLK
  1

  9
$DIMLUNIT
 70
     2
  9
$DIMLWD
 70
    -2
  9
$DIMLWE
 70
    -2
  9
$DIMTMOVE
 70
     0
  9
$LUNITS
 70
     2
  9
$LUPREC
 70
     2
  9
$SKETCHINC
 40
0.1
  9
$FILLETRAD
 40
0.5
  9
$AUNITS
 70
     0
  9
$AUPREC
 70
     2
  9
$MENU
  1
.
  9
$ELEVATION
 40
0.0
  9
$PELEVATION
 40
0.0
  9
$THICKNESS
 40
0.0
  9
$LIMCHECK
 70
     0
  9
$CHAMFERA
 40
0.5
  9
$CHAMFERB
 40
0.5
  9
$CHAMFERC
 40
1.0
  9
$CHAMFERD
 40
0.0
  9
$SKPOLY
 70
     0
  9
$TDCREATE
 40
2455705.414482234
  9
$TDUCREATE
 40
2455705.581148901
  9
$TDUPDATE
 40
2455705.414482245
  9
$TDUUPDATE
 40
2455705.581148912
  9
$TDINDWG
 40
0.0000000116
  9
$TDUSRTIMER
 40
0.0000000116
  9
$USRTIMER
 70
     1
  9
$ANGBASE
 50
0.0
  9
$ANGDIR
 70
     0
  9
$PDMODE
 70
     0
  9
$PDSIZE
 40
-1.0
  9
$PLINEWID
 40
0.0
  9
$SPLFRAME
 70
     0
  9
$SPLINETYPE
 70
     6
  9
$SPLINESEGS
 70
     8
  9
$HANDSEED
  5
544
  9
$SURFTAB1
 70
     6
  9
$SURFTAB2
 70
     6
  9
$SURFTYPE
 70
     6
  9
$SURFU
 70
     6
  9
$SURFV
 70
     6
  9
$UCSBASE
  2

  9
$UCSNAME
  2

  9
$UCSORG
 10
0.0
 20
0.0
 30
0.0
  9
$UCSXDIR
 10
1.0
 20
0.0
 30
0.0
  9
$UCSYDIR
 10
0.0
 20
1.0
 30
0.0
  9
$UCSORTHOREF
  2

  9
$UCSORTHOVIEW
 70
     0
  9
$UCSORGTOP
 10
0.0
 20
0.0
 30
0.0
  9
$UCSORGBOTTOM
 10
0.0
 20
0.0
 30
0.0
  9
$UCSORGLEFT
 10
0.0
 20
0.0
 30
0.0
  9
$UCSORGRIGHT
 10
0.0
 20
0.0
 30
0.0
  9
$UCSORGFRONT
 10
0.0
 20
0.0
 30
0.0
  9
$UCSORGBACK
 10
0.0
 20
0.0
 30
0.0
  9
$PUCSBASE
  2

  9
$PUCSNAME
  2

  9
$PUCSORG
 10
0.0
 20
0.0
 30
0.0
  9
$PUCSXDIR
 10
1.0
 20
0.0
 30
0.0
  9
$PUCSYDIR
 10
0.0
 20
1.0
 30
0.0
  9
$PUCSORTHOREF
  2

  9
$PUCSORTHOVIEW
 70
     0
  9
$PUCSORGTOP
 10
0.0
 20
0.0
 30
0.0
  9
$PUCSORGBOTTOM
 10
0.0
 20
0.0
 30
0.0
  9
$PUCSORGLEFT
 10
0.0
 20
0.0
 30
0.0
  9
$PUCSORGRIGHT
 10
0.0
 20
0.0
 30
0.0
  9
$PUCSORGFRONT
 10
0.0
 20
0.0
 30
0.0
  9
$PUCSORGBACK
 10
0.0
 20
0.0
 30
0.0
  9
$USERI1
 70
     0
  9
$USERI2
 70
     0
  9
$USERI3
 70
     0
  9
$USERI4
 70
     0
  9
$USERI5
 70
     0
  9
$USERR1
 40
0.0
  9
$USERR2
 40
0.0
  9
$USERR3
 40
0.0
  9
$USERR4
 40
0.0
  9
$USERR5
 40
0.0
  9
$WORLDVIEW
 70
     1
  9
$SHADEDGE
 70
     3
  9
$SHADEDIF
 70
    70
  9
$TILEMODE
 70
     1
  9
$MAXACTVP
 70
    64
  9
$PINSBASE
 10
0.0
 20
0.0
 30
0.0
  9
$PLIMCHECK
 70
     0
  9
$PEXTMIN
 10
1.0000000000E+20
 20
1.0000000000E+20
 30
1.0000000000E+20
  9
$PEXTMAX
 10
-1.0000000000E+20
 20
-1.0000000000E+20
 30
-1.0000000000E+20
  9
$PLIMMIN
 10
0.0
 20
0.0
  9
$PLIMMAX
 10
12.0
 20
9.0
  9
$UNITMODE
 70
     0
  9
$VISRETAIN
 70
     1
  9
$PLINEGEN
 70
     0
  9
$PSLTSCALE
 70
     1
  9
$TREEDEPTH
 70
  3020
  9
$CMLSTYLE
  2
Standard
  9
$CMLJUST
 70
     0
  9
$CMLSCALE
 40
1.0
  9
$PROXYGRAPHICS
 70
     1
  9
$MEASUREMENT
 70
     0
  9
$CELWEIGHT
370
    -1
  9
$ENDCAPS
280
     0
  9
$JOINSTYLE
280
     0
  9
$LWDISPLAY
290
     1
  9
$INSUNITS
 70
     1
  9
$HYPERLINKBASE
  1

  9
$STYLESHEET
  1

  9
$XEDIT
290
     1
  9
$CEPSNTYPE
380
     0
  9
$PSTYLEMODE
290
     1
  9
$FINGERPRINTGUID
  2
{94CE3D64-63CC-4CA5-AB1E-0D150CB5E939}
  9
$VERSIONGUID
  2
{FAEB1C32-E019-11D5-929B-00C0DF256EC4}
  9
$EXTNAMES
290
     1
  9
$PSVPSCALE
 40
0.0
  9
$OLESTARTUP
290
     0
  0
ENDSEC
  0
SECTION
  2
CLASSES
  0
CLASS
  1
ACDBDICTIONARYWDFLT
  2
AcDbDictionaryWithDefault
  3
ObjectDBX Classes
 90
        0
280
     0
281
     0
  0
CLASS
  1
VISUALSTYLE
  2
AcDbVisualStyle
  3
ObjectDBX Classes
 90
     4095
280
     0
281
     0
  0
CLASS
  1
MATERIAL
  2
AcDbMaterial
  3
ObjectDBX Classes
 90
     1153
280
     0
281
     0
  0
CLASS
  1
SCALE
  2
AcDbScale
  3
ObjectDBX Classes
 90
     1153
280
     0
281
     0
  0
CLASS
  1
DICTIONARYVAR
  2
AcDbDictionaryVar
  3
ObjectDBX Classes
 90
        0
280
     0
281
     0
  0
CLASS
  1
ACDBPLACEHOLDER
  2
AcDbPlaceHolder
  3
ObjectDBX Classes
 90
        0
280
     0
281
     0
  0
CLASS
  1
LAYOUT
  2
AcDbLayout
  3
ObjectDBX Classes
 90
        0
280
     0
281
     0
  0
ENDSEC
  0
SECTION
  2
TABLES
  0
TABLE
  2
VPORT
  5
8
330
0
100
AcDbSymbolTable
 70
     1
  0
VPORT
  5
29
330
8
100
AcDbSymbolTableRecord
100
AcDbViewportTableRecord
  2
*Active
 70
     0
 10
0.0
 20
0.0
 11
1.0
 21
1.0
 12
12.75
 22
8.25
 13
0.0
 23
0.0
 14
0.5
 24
0.5
 15
0.5
 25
0.5
 16
0.0
 26
0.0
 36
1.0
 17
0.0
 27
0.0
 37
0.0
 40
16.5
 41
1.5454545455
 42
50.0
 43
0.0
 44
0.0
 50
0.0
 51
0.0
 71
     0
 72
  2000
 73
     1
 74
     3
 75
     0
 76
     0
 77
     0
 78
     0
281
     0
 65
     1
110
0.0
120
0.0
130
0.0
111
1.0
121
0.0
131
0.0
112
0.0
122
1.0
132
0.0
 79
     0
146
0.0
  0
ENDTAB
  0
TABLE
  2
LTYPE
  5
5
330
0
100
AcDbSymbolTable
 70
     6
  0
LTYPE
  5
14
330
5
100
AcDbSymbolTableRecord
100
AcDbLinetypeTableRecord
  2
ByBlock
 70
     0
  3

 72
    65
 73
     0
 40
0.0
  0
LTYPE
  5
15
330
5
100
AcDbSymbolTableRecord
100
AcDbLinetypeTableRecord
  2
ByLayer
 70
     0
  3

 72
    65
 73
     0
 40
0.0
  0
LTYPE
  5
16
330
5
100
AcDbSymbolTableRecord
100
AcDbLinetypeTableRecord
  2
Continuous
 70
     0
  3
Solid line
 72
    65
 73
     0
 40
0.0
  0
LTYPE
  5
3F
330
5
100
AcDbSymbolTableRecord
100
AcDbLinetypeTableRecord
  2
HIDDEN
 70
     0
  3
Hidden __ __ __ __ __ __ __ __ __ __ __ __ __ __
 72
    65
 73
     2
 40
0.075
 49
0.05
 74
     0
 49
-0.025
 74
     0
  0
LTYPE
  5
40
330
5
100
AcDbSymbolTableRecord
100
AcDbLinetypeTableRecord
  2
PHANTOM
 70
     0
  3
Phantom ______  __  __  ______  __  __  ______
 72
    65
 73
     6
 40
0.5
 49
0.25
 74
     0
 49
-0.05
 74
     0
 49
0.05
 74
     0
 49
-0.05
 74
     0
 49
0.05
 74
     0
 49
-0.05
 74
     0
  0
LTYPE
  5
41
330
5
100
AcDbSymbolTableRecord
100
AcDbLinetypeTableRecord
  2
CENTER
 70
     0
  3
Center ____ _ ____ _ ____ _ ____ _ ____ _ ____
 72
    65
 73
     4
 40
0.4
 49
0.25
 74
     0
 49
-0.05
 74
     0
 49
0.05
 74
     0
 49
-0.05
 74
     0
  0
LTYPE
  5
42
330
5
100
AcDbSymbolTableRecord
100
AcDbLinetypeTableRecord
  2
CENTERX2
 70
     0
  3
Center (2x) ________  __  ________  __  _____
 72
    65
 73
     4
 40
0.8
 49
0.5
 74
     0
 49
-0.1
 74
     0
 49
0.1
 74
     0
 49
-0.1
 74
     0
  0
LTYPE
  5
43
330
5
100
AcDbSymbolTableRecord
100
AcDbLinetypeTableRecord
  2
DOT2
 70
     0
  3
Dot (.5x) ........................................
 72
    65
 73
     2
 40
0.025
 49
0.0
 74
     0
 49
-0.025
 74
     0
  0
ENDTAB
  0
TABLE
  2
LAYER
  5
2
330
0
100
AcDbSymbolTable
 70
     1
  0
LAYER
  5
10
330
2
100
AcDbSymbolTableRecord
100
AcDbLayerTableRecord
  2
0
 70
     0
 62
     7
  6
Continuous
370
    -3
390
F
  0
ENDTAB
  0
TABLE
  2
STYLE
  5
3
330
0
100
AcDbSymbolTable
 70
     2
  0
STYLE
  5
11
330
3
100
AcDbSymbolTableRecord
100
AcDbTextStyleTableRecord
  2
Standard
 70
     0
 40
0.0
 41
1.0
 50
0.0
 71
     0
 42
0.2
  3
txt
  4

  0
STYLE
  5
77
330
3
100
AcDbSymbolTableRecord
100
AcDbTextStyleTableRecord
  2
SLDTEXTSTYLE0
 70
     0
 40
0.0
 41
0.75
 50
0.0
 71
     0
 42
0.2
  3
TXT
  4

  0
ENDTAB
  0
TABLE
  2
VIEW
  5
6
330
0
100
AcDbSymbolTable
 70
     0
  0
ENDTAB
  0
TABLE
  2
UCS
  5
7
330
0
100
AcDbSymbolTable
 70
     0
  0
ENDTAB
  0
TABLE
  2
APPID
  5
9
330
0
100
AcDbSymbolTable
 70
     1
  0
APPID
  5
12
330
9
100
AcDbSymbolTableRecord
100
AcDbRegAppTableRecord
  2
ACAD
 70
     0
  0
ENDTAB
  0
TABLE
  2
DIMSTYLE
  5
A
330
0
100
AcDbSymbolTable
 70
     6
100
AcDbDimStyleTable
  0
DIMSTYLE
105
27
330
A
100
AcDbSymbolTableRecord
100
AcDbDimStyleTableRecord
  2
Standard
 70
     0
340
11
  0
DIMSTYLE
105
78
102
{ACAD_REACTORS
330
54
330
327
330
339
330
4BC
102
}
330
A
100
AcDbSymbolTableRecord
100
AcDbDimStyleTableRecord
  2
SLDDIMSTYLE0
 70
     0
 41
0.195
 44
0.0
 45
0.000000001
 78
     4
140
0.1875
147
0.046875
148
0.000000001
170
     1
173
     1
271
     2
272
     2
284
    12
340
77
  0
DIMSTYLE
105
11B
102
{ACAD_REACTORS
330
11A
102
}
330
A
100
AcDbSymbolTableRecord
100
AcDbDimStyleTableRecord
  2
SLDDIMSTYLE1
 70
     0
 41
0.195
 44
0.0
 45
0.000000001
 78
    12
140
0.1875
147
0.046875
148
0.000000001
170
     1
172
     1
173
     1
271
     2
272
     2
284
    12
340
77
  0
DIMSTYLE
105
12C
102
{ACAD_REACTORS
330
12B
102
}
330
A
100
AcDbSymbolTableRecord
100
AcDbDimStyleTableRecord
  2
SLDDIMSTYLE2
 70
     0
 41
0.195
 44
0.0
 45
0.000000001
 78
    12
140
0.1875
147
0.046875
148
0.000000001
170
     1
173
     1
271
     2
272
     2
284
    12
340
77
  0
DIMSTYLE
105
13F
102
{ACAD_REACTORS
330
13E
330
2AF
330
315
330
4AA
102
}
330
A
100
AcDbSymbolTableRecord
100
AcDbDimStyleTableRecord
  2
SLDDIMSTYLE3
 70
     0
 41
0.195
 44
0.0
 45
0.000000001
 78
    12
140
0.1875
147
0.046875
148
0.000000001
170
     1
173
     1
271
     2
272
     2
284
    12
340
77
  0
DIMSTYLE
105
15A
330
A
100
AcDbSymbolTableRecord
100
AcDbDimStyleTableRecord
  2
SLDDIMSTYLE4
 70
     0
 41
0.195
 44
0.0
 45
0.000000001
140
0.0
146
0.195
147
0.0
173
     1
271
     0
272
     0
340
11
  0
ENDTAB
  0
TABLE
  2
BLOCK_RECORD
  5
1
330
0
100
AcDbSymbolTable
 70
    19
  0
BLOCK_RECORD
  5
1F
330
1
100
AcDbSymbolTableRecord
100
AcDbBlockTableRecord
  2
*Model_Space
340
22
  0
BLOCK_RECORD
  5
1B
330
1
100
AcDbSymbolTableRecord
100
AcDbBlockTableRecord
  2
*Paper_Space
340
1E
  0
BLOCK_RECORD
  5
23
330
1
100
AcDbSymbolTableRecord
100
AcDbBlockTableRecord
  2
*Paper_Space0
340
26
  0
BLOCK_RECORD
  5
79
330
1
100
AcDbSymbolTableRecord
100
AcDbBlockTableRecord
  2
*D1
340
0
  0
BLOCK_RECORD
  5
8A
330
1
100
AcDbSymbolTableRecord
100
AcDbBlockTableRecord
  2
SW_NOTE_0
340
0
102
{BLKREFS
331
90
102
}
  0
BLOCK_RECORD
  5
94
330
1
100
AcDbSymbolTableRecord
100
AcDbBlockTableRecord
  2
SW_NOTE_1
340
0
102
{BLKREFS
331
99
102
}
  0
BLOCK_RECORD
  5
9A
330
1
100
AcDbSymbolTableRecord
100
AcDbBlockTableRecord
  2
SW_NOTE_2
340
0
102
{BLKREFS
331
9F
102
}
  0
BLOCK_RECORD
  5
A0
330
1
100
AcDbSymbolTableRecord
100
AcDbBlockTableRecord
  2
SW_NOTE_3
340
0
102
{BLKREFS
331
A5
102
}
  0
BLOCK_RECORD
  5
11C
330
1
100
AcDbSymbolTableRecord
100
AcDbBlockTableRecord
  2
*D6
340
0
  0
BLOCK_RECORD
  5
12D
330
1
100
AcDbSymbolTableRecord
100
AcDbBlockTableRecord
  2
*D7
340
0
  0
BLOCK_RECORD
  5
140
330
1
100
AcDbSymbolTableRecord
100
AcDbBlockTableRecord
  2
*D8
340
0
  0
BLOCK_RECORD
  5
151
330
1
100
AcDbSymbolTableRecord
100
AcDbBlockTableRecord
  2
SW_NOTE_4
340
0
102
{BLKREFS
331
159
102
}
  0
BLOCK_RECORD
  5
15C
330
1
100
AcDbSymbolTableRecord
100
AcDbBlockTableRecord
  2
SW_CENTERMARKSYMBOL_0
340
0
102
{BLKREFS
331
163
102
}
  0
BLOCK_RECORD
  5
2B0
330
1
100
AcDbSymbolTableRecord
100
AcDbBlockTableRecord
  2
*D11
340
0
  0
BLOCK_RECORD
  5
2C1
330
1
100
AcDbSymbolTableRecord
100
AcDbBlockTableRecord
  2
SW_NOTE_5
340
0
102
{BLKREFS
331
2C7
102
}
  0
BLOCK_RECORD
  5
316
330
1
100
AcDbSymbolTableRecord
100
AcDbBlockTableRecord
  2
*D13
340
0
  0
BLOCK_RECORD
  5
328
330
1
100
AcDbSymbolTableRecord
100
AcDbBlockTableRecord
  2
*D14
340
0
  0
BLOCK_RECORD
  5
33A
330
1
100
AcDbSymbolTableRecord
100
AcDbBlockTableRecord
  2
*D15
340
0
  0
BLOCK_RECORD
  5
4AB
330
1
100
AcDbSymbolTableRecord
100
AcDbBlockTableRecord
  2
*D16
340
0
  0
BLOCK_RECORD
  5
4BD
330
1
100
AcDbSymbolTableRecord
100
AcDbBlockTableRecord
  2
*D17
340
0
  0
BLOCK_RECORD
  5
4CE
330
1
100
AcDbSymbolTableRecord
100
AcDbBlockTableRecord
  2
SW_NOTE_6
340
0
102
{BLKREFS
331
4D7
102
}
  0
ENDTAB
  0
ENDSEC
  0
SECTION
  2
BLOCKS
  0
BLOCK
  5
20
330
1F
100
AcDbEntity
  8
0
100
AcDbBlockBegin
  2
*Model_Space
 70
     0
 10
0.0
 20
0.0
 30
0.0
  3
*Model_Space
  1

  0
ENDBLK
  5
21
330
1F
100
AcDbEntity
  8
0
100
AcDbBlockEnd
  0
BLOCK
  5
1C
330
1B
100
AcDbEntity
 67
     1
  8
0
100
AcDbBlockBegin
  2
*Paper_Space
 70
     0
 10
0.0
 20
0.0
 30
0.0
  3
*Paper_Space
  1

  0
ENDBLK
  5
1D
330
1B
100
AcDbEntity
 67
     1
  8
0
100
AcDbBlockEnd
  0
BLOCK
  5
24
330
23
100
AcDbEntity
  8
0
100
AcDbBlockBegin
  2
*Paper_Space0
 70
     0
 10
0.0
 20
0.0
 30
0.0
  3
*Paper_Space0
  1

  0
ENDBLK
  5
25
330
23
100
AcDbEntity
  8
0
100
AcDbBlockEnd
  0
BLOCK
  5
7A
330
79
100
AcDbEntity
  8
0
100
AcDbBlockBegin
  2
*D1
 70
     1
 10
0.0
 20
0.0
 30
0.0
  3
*D1
  1

  0
SOLID
  5
7C
330
79
100
AcDbEntity
  8
0
  6
Continuous
 62
     7
 48
1.5
370
     0
100
AcDbTrace
 10
20.4886593921
 20
9.313833372
 30
0.0
 11
20.4586593921
 21
9.118833372
 31
0.0
 12
20.5186593921
 22
9.118833372
 32
0.0
 13
20.5186593921
 23
9.118833372
 33
0.0
  0
SOLID
  5
7D
330
79
100
AcDbEntity
  8
0
  6
Continuous
 62
     7
 48
1.5
370
     0
100
AcDbTrace
 10
20.4886593921
 20
5.313833372
 30
0.0
 11
20.5186593921
 21
5.508833372
 31
0.0
 12
20.4586593921
 22
5.508833372
 32
0.0
 13
20.4586593921
 23
5.508833372
 33
0.0
  0
LINE
  5
7E
330
79
100
AcDbEntity
  8
0
  6
Continuous
 62
     7
 48
1.5
370
     0
100
AcDbLine
 10
20.1008757303
 20
7.2915158455
 30
0.0
 11
20.1008757303
 21
7.0385838781
 31
0.0
  0
LINE
  5
7F
330
79
100
AcDbEntity
  8
0
  6
Continuous
 62
     7
 48
1.5
370
     0
100
AcDbLine
 10
20.1008757303
 20
7.0385838781
 30
0.0
 11
20.1389343353
 21
7.0385838781
 31
0.0
  0
LINE
  5
80
330
79
100
AcDbEntity
  8
0
  6
Continuous
 62
     7
 48
1.5
370
     0
100
AcDbLine
 10
20.1008757303
 20
7.2915158455
 30
0.0
 11
20.1389343353
 21
7.2915158455
 31
0.0
  0
LINE
  5
81
330
79
100
AcDbEntity
  8
0
  6
Continuous
 62
     7
 48
1.5
370
     0
100
AcDbLine
 10
20.876443054
 20
7.2915158455
 30
0.0
 11
20.876443054
 21
7.0385838781
 31
0.0
  0
LINE
  5
82
330
79
100
AcDbEntity
  8
0
  6
Continuous
 62
     7
 48
1.5
370
     0
100
AcDbLine
 10
20.876443054
 20
7.0385838781
 30
0.0
 11
20.838384449
 21
7.0385838781
 31
0.0
  0
LINE
  5
83
330
79
100
AcDbEntity
  8
0
  6
Continuous
 62
     7
 48
1.5
370
     0
100
AcDbLine
 10
20.876443054
 20
7.2915158455
 30
0.0
 11
20.838384449
 21
7.2915158455
 31
0.0
  0
LINE
  5
84
330
79
100
AcDbEntity
  8
0
  6
Continuous
 62
     7
 48
1.5
370
     0
100
AcDbLine
 10
19.4365492661
 20
9.313833372
 30
0.0
 11
20.6761593921
 21
9.313833372
 31
0.0
  0
LINE
  5
85
330
79
100
AcDbEntity
  8
0
  6
Continuous
 62
     7
 48
1.5
370
     0
100
AcDbLine
 10
19.4365492661
 20
5.313833372
 30
0.0
 11
20.6761593921
 21
5.313833372
 31
0.0
  0
LINE
  5
86
330
79
100
AcDbEntity
  8
0
  6
Continuous
 62
     7
 48
1.5
370
     0
100
AcDbLine
 10
20.4886593921
 20
9.313833372
 30
0.0
 11
20.4886593921
 21
7.6114003925
 31
0.0
  0
LINE
  5
87
330
79
100
AcDbEntity
  8
0
  6
Continuous
 62
     7
 48
1.5
370
     0
100
AcDbLine
 10
20.4886593921
 20
5.313833372
 30
0.0
 11
20.4886593921
 21
7.0162663515
 31
0.0
  0
MTEXT
  5
88
330
79
100
AcDbEntity
  8
0
  6
Continuous
 62
     7
 48
1.5
370
     0
100
AcDbMText
 10
20.2463069282
 20
7.5555335629
 30
0.0
 40
0.1875
 41
0.0
 71
     1
 72
     1
  1
4.00
  7
SLDTEXTSTYLE0
 73
     1
 44
1.0
  0
MTEXT
  5
89
330
79
100
AcDbEntity
  8
0
  6
Continuous
 62
     7
 48
1.5
370
     0
100
AcDbMText
 10
20.1769929403
 20
7.2579665424
 30
0.0
 40
0.1875
 41
0.0
 71
     1
 72
     1
  1
101.6
  7
SLDTEXTSTYLE0
 73
     1
 44
1.0
  0
ENDBLK
  5
7B
330
79
100
AcDbEntity
  8
0
100
AcDbBlockEnd
  0
BLOCK
  5
8B
330
8A
100
AcDbEntity
  8
0
100
AcDbBlockBegin
  2
SW_NOTE_0
 70
     0
 10
0.0
 20
0.0
 30
0.0
  3
SW_NOTE_0
  1

  0
MTEXT
  5
8D
330
8A
100
AcDbEntity
  8
0
  6
Continuous
 62
     0
 48
1.5
370
     0
100
AcDbMText
 10
0.0
 20
0.2417002012
 30
0.0
 40
0.1875
 41
0.0
 71
     1
 72
     1
  1
MATERIAL - 14 GA. [2.0mm] STEEL
  7
SLDTEXTSTYLE0
 73
     1
 44
1.0
  0
MTEXT
  5
8E
330
8A
100
AcDbEntity
  8
0
  6
Continuous
 62
     0
 48
1.5
370
     0
100
AcDbMText
 10
0.0
 20
-0.2514100223
 30
0.0
 40
0.1875
 41
0.0
 71
     1
 72
     1
  1
FINISH - SMOOTH GRAY POWDERCOAT
  7
SLDTEXTSTYLE0
 73
     1
 44
1.0
  0
MTEXT
  5
8F
330
8A
100
AcDbEntity
  8
0
  6
Continuous
 62
     0
 48
1.5
370
     0
100
AcDbMText
 10
0.0
 20
-0.4979651341
 30
0.0
 40
0.1875
 41
0.0
 71
     1
 72
     1
  1
              UL LISTED TYPE DTOV2
  7
SLDTEXTSTYLE0
 73
     1
 44
1.0
  0
ENDBLK
  5
8C
330
8A
100
AcDbEntity
  8
0
100
AcDbBlockEnd
  0
BLOCK
  5
95
330
94
100
AcDbEntity
  8
0
100
AcDbBlockBegin
  2
SW_NOTE_1
 70
     0
 10
0.0
 20
0.0
 30
0.0
  3
SW_NOTE_1
  1

  0
MTEXT
  5
97
330
94
100
AcDbEntity
  8
0
  6
Continuous
 62
     0
 48
1.5
370
     0
100
AcDbMText
 10
0.0
 20
0.2417002012
 30
0.0
 40
0.1875
 41
0.0
 71
     1
 72
     1
  1
PART
  7
SLDTEXTSTYLE0
 73
     1
 44
1.0
  0
MTEXT
  5
98
330
94
100
AcDbEntity
  8
0
  6
Continuous
 62
     0
 48
1.5
370
     0
100
AcDbMText
 10
-0.0699055949
 20
-0.0048549106
 30
0.0
 40
0.1875
 41
0.0
 71
     1
 72
     1
  1
NAME
  7
SLDTEXTSTYLE0
 73
     1
 44
1.0
  0
ENDBLK
  5
96
330
94
100
AcDbEntity
  8
0
100
AcDbBlockEnd
  0
BLOCK
  5
9B
330
9A
100
AcDbEntity
  8
0
100
AcDbBlockBegin
  2
SW_NOTE_2
 70
     0
 10
0.0
 20
0.0
 30
0.0
  3
SW_NOTE_2
  1

  0
MTEXT
  5
9D
330
9A
100
AcDbEntity
  8
0
  6
Continuous
 62
     0
 48
1.5
370
     0
100
AcDbMText
 10
0.0
 20
0.2417002012
 30
0.0
 40
0.1875
 41
0.0
 71
     1
 72
     1
  1
PART
  7
SLDTEXTSTYLE0
 73
     1
 44
1.0
  0
MTEXT
  5
9E
330
9A
100
AcDbEntity
  8
0
  6
Continuous
 62
     0
 48
1.5
370
     0
100
AcDbMText
 10
0.0875651072
 20
-0.0048549106
 30
0.0
 40
0.1875
 41
0.0
 71
     1
 72
     1
  1
No.
  7
SLDTEXTSTYLE0
 73
     1
 44
1.0
  0
ENDBLK
  5
9C
330
9A
100
AcDbEntity
  8
0
100
AcDbBlockEnd
  0
BLOCK
  5
A1
330
A0
100
AcDbEntity
  8
0
100
AcDbBlockBegin
  2
SW_NOTE_3
 70
     0
 10
0.0
 20
0.0
 30
0.0
  3
SW_NOTE_3
  1

  0
MTEXT
  5
A3
330
A0
100
AcDbEntity
  8
0
  6
Continuous
 62
     0
 48
1.5
370
     0
100
AcDbMText
 10
0.0
 20
0.2417002012
 30
0.0
 40
0.1875
 41
0.0
 71
     1
 72
     1
  1
REVISION
  7
SLDTEXTSTYLE0
 73
     1
 44
1.0
  0
MTEXT
  5
A4
330
A0
100
AcDbEntity
  8
0
  6
Continuous
 62
     0
 48
1.5
370
     0
100
AcDbMText
 10
0.2343424479
 20
-0.0048549106
 30
0.0
 40
0.1875
 41
0.0
 71
     1
 72
     1
  1
DATE
  7
SLDTEXTSTYLE0
 73
     1
 44
1.0
  0
ENDBLK
  5
A2
330
A0
100
AcDbEntity
  8
0
100
AcDbBlockEnd
  0
BLOCK
  5
11D
330
11C
100
AcDbEntity
  8
0
100
AcDbBlockBegin
  2
*D6
 70
     1
 10
0.0
 20
0.0
 30
0.0
  3
*D6
  1

  0
SOLID
  5
11F
330
11C
100
AcDbEntity
  8
0
  6
Continuous
 62
     7
 48
1.5
370
     0
100
AcDbTrace
 10
3.1682167678
 20
7.8626583228
 30
0.0
 11
3.1100941867
 21
8.0511968217
 31
0.0
 12
3.0561114046
 22
8.0250079072
 32
0.0
 13
3.0561114046
 23
8.0250079072
 33
0.0
  0
LINE
  5
120
330
11C
100
AcDbEntity
  8
0
  6
Continuous
 62
     7
 48
1.5
370
     0
100
AcDbLine
 10
1.2483887872
 20
10.0304198738
 30
0.0
 11
1.2483887872
 21
9.7774879064
 31
0.0
  0
LINE
  5
121
330
11C
100
AcDbEntity
  8
0
  6
Continuous
 62
     7
 48
1.5
370
     0
100
AcDbLine
 10
1.2483887872
 20
9.7774879064
 30
0.0
 11
1.2864473922
 21
9.7774879064
 31
0.0
  0
LINE
  5
122
330
11C
100
AcDbEntity
  8
0
  6
Continuous
 62
     7
 48
1.5
370
     0
100
AcDbLine
 10
1.2483887872
 20
10.0304198738
 30
0.0
 11
1.2864473922
 21
10.0304198738
 31
0.0
  0
LINE
  5
123
330
11C
100
AcDbEntity
  8
0
  6
Continuous
 62
     7
 48
1.5
370
     0
100
AcDbLine
 10
1.6776819639
 20
10.0304198738
 30
0.0
 11
1.6776819639
 21
9.7774879064
 31
0.0
  0
LINE
  5
124
330
11C
100
AcDbEntity
  8
0
  6
Continuous
 62
     7
 48
1.5
370
     0
100
AcDbLine
 10
1.6776819639
 20
9.7774879064
 30
0.0
 11
1.6396233589
 21
9.7774879064
 31
0.0
  0
LINE
  5
125
330
11C
100
AcDbEntity
  8
0
  6
Continuous
 62
     7
 48
1.5
370
     0
100
AcDbLine
 10
1.6776819639
 20
10.0304198738
 30
0.0
 11
1.6396233589
 21
10.0304198738
 31
0.0
  0
LINE
  5
126
330
11C
100
AcDbEntity
  8
0
  6
Continuous
 62
     7
 48
1.5
370
     0
100
AcDbLine
 10
3.1682167678
 20
7.8626583228
 30
0.0
 11
2.1057336659
 21
10.0527374004
 31
0.0
  0
LINE
  5
127
330
11C
100
AcDbEntity
  8
0
  6
Continuous
 62
     7
 48
1.5
370
     0
100
AcDbLine
 10
2.1057336659
 20
10.0527374004
 30
0.0
 11
1.9182336659
 21
10.0527374004
 31
0.0
  0
MTEXT
  5
128
330
11C
100
AcDbEntity
  8
0
  6
Continuous
 62
     7
 48
1.5
370
     0
100
AcDbMText
 10
1.0867777523
 20
10.2944375947
 30
0.0
 40
0.1875
 41
0.0
 71
     1
 72
     1
  1
%%c
  7
SLDTEXTSTYLE0
 73
     1
 44
1.0
  0
MTEXT
  5
129
330
11C
100
AcDbEntity
  8
0
  6
Continuous
 62
     7
 48
1.5
370
     0
100
AcDbMText
 10
1.3545880708
 20
10.2944375912
 30
0.0
 40
0.1875
 41
0.0
 71
     1
 72
     1
  1
1.22
  7
SLDTEXTSTYLE0
 73
     1
 44
1.0
  0
MTEXT
  5
12A
330
11C
100
AcDbEntity
  8
0
  6
Continuous
 62
     7
 48
1.5
370
     0
100
AcDbMText
 10
1.3245059972
 20
9.9968705708
 30
0.0
 40
0.1875
 41
0.0
 71
     1
 72
     1
  1
31
  7
SLDTEXTSTYLE0
 73
     1
 44
1.0
  0
ENDBLK
  5
11E
330
11C
100
AcDbEntity
  8
0
100
AcDbBlockEnd
  0
BLOCK
  5
12E
330
12D
100
AcDbEntity
  8
0
100
AcDbBlockBegin
  2
*D7
 70
     1
 10
0.0
 20
0.0
 30
0.0
  3
*D7
  1

  0
SOLID
  5
130
330
12D
100
AcDbEntity
  8
0
  6
Continuous
 62
     7
 48
1.5
370
     0
100
AcDbTrace
 10
3.3394707319
 20
10.1543845531
 30
0.0
 11
3.1444707319
 21
10.1843845531
 31
0.0
 12
3.1444707319
 22
10.1243845531
 32
0.0
 13
3.1444707319
 23
10.1243845531
 33
0.0
  0
SOLID
  5
131
330
12D
100
AcDbEntity
  8
0
  6
Continuous
 62
     7
 48
1.5
370
     0
100
AcDbTrace
 10
3.5294707319
 20
10.1543845531
 30
0.0
 11
3.7244707319
 21
10.1243845531
 31
0.0
 12
3.7244707319
 22
10.1843845531
 32
0.0
 13
3.7244707319
 23
10.1843845531
 33
0.0
  0
LINE
  5
132
330
12D
100
AcDbEntity
  8
0
  6
Continuous
 62
     7
 48
1.5
370
     0
100
AcDbLine
 10
4.1622861965
 20
10.1320670266
 30
0.0
 11
4.1622861965
 21
9.8791350592
 31
0.0
  0
LINE
  5
133
330
12D
100
AcDbEntity
  8
0
  6
Continuous
 62
     7
 48
1.5
370
     0
100
AcDbLine
 10
4.1622861965
 20
9.8791350592
 30
0.0
 11
4.2003448015
 21
9.8791350592
 31
0.0
  0
LINE
  5
134
330
12D
100
AcDbEntity
  8
0
  6
Continuous
 62
     7
 48
1.5
370
     0
100
AcDbLine
 10
4.1622861965
 20
10.1320670266
 30
0.0
 11
4.2003448015
 21
10.1320670266
 31
0.0
  0
LINE
  5
135
330
12D
100
AcDbEntity
  8
0
  6
Continuous
 62
     7
 48
1.5
370
     0
100
AcDbLine
 10
4.6607947636
 20
10.1320670266
 30
0.0
 11
4.6607947636
 21
9.8791350592
 31
0.0
  0
LINE
  5
136
330
12D
100
AcDbEntity
  8
0
  6
Continuous
 62
     7
 48
1.5
370
     0
100
AcDbLine
 10
4.6607947636
 20
9.8791350592
 30
0.0
 11
4.6227361586
 21
9.8791350592
 31
0.0
  0
LINE
  5
137
330
12D
100
AcDbEntity
  8
0
  6
Continuous
 62
     7
 48
1.5
370
     0
100
AcDbLine
 10
4.6607947636
 20
10.1320670266
 30
0.0
 11
4.6227361586
 21
10.1320670266
 31
0.0
  0
LINE
  5
138
330
12D
100
AcDbEntity
  8
0
  6
Continuous
 62
     7
 48
1.5
370
     0
100
AcDbLine
 10
3.3394707319
 20
8.068833372
 30
0.0
 11
3.3394707319
 21
10.3418845531
 31
0.0
  0
LINE
  5
139
330
12D
100
AcDbEntity
  8
0
  6
Continuous
 62
     7
 48
1.5
370
     0
100
AcDbLine
 10
3.5294707319
 20
8.068833372
 30
0.0
 11
3.5294707319
 21
10.3418845531
 31
0.0
  0
LINE
  5
13A
330
12D
100
AcDbEntity
  8
0
  6
Continuous
 62
     7
 48
1.5
370
     0
100
AcDbLine
 10
3.3394707319
 20
10.1543845531
 30
0.0
 11
2.9644707319
 21
10.1543845531
 31
0.0
  0
LINE
  5
13B
330
12D
100
AcDbEntity
  8
0
  6
Continuous
 62
     7
 48
1.5
370
     0
100
AcDbLine
 10
3.5294707319
 20
10.1543845531
 30
0.0
 11
3.9544096802
 21
10.1543845531
 31
0.0
  0
MTEXT
  5
13C
330
12D
100
AcDbEntity
  8
0
  6
Continuous
 62
     7
 48
1.5
370
     0
100
AcDbMText
 10
4.2384034065
 20
10.396084744
 30
0.0
 40
0.1875
 41
0.0
 71
     1
 72
     1
  1
.19
  7
SLDTEXTSTYLE0
 73
     1
 44
1.0
  0
MTEXT
  5
13D
330
12D
100
AcDbEntity
  8
0
  6
Continuous
 62
     7
 48
1.5
370
     0
100
AcDbMText
 10
4.2384034065
 20
10.0985177235
 30
0.0
 40
0.1875
 41
0.0
 71
     1
 72
     1
  1
4.8
  7
SLDTEXTSTYLE0
 73
     1
 44
1.0
  0
ENDBLK
  5
12F
330
12D
100
AcDbEntity
  8
0
100
AcDbBlockEnd
  0
BLOCK
  5
141
330
140
100
AcDbEntity
  8
0
100
AcDbBlockBegin
  2
*D8
 70
     1
 10
0.0
 20
0.0
 30
0.0
  3
*D8
  1

  0
SOLID
  5
143
330
140
100
AcDbEntity
  8
0
  6
Continuous
 62
     7
 48
1.5
370
     0
100
AcDbTrace
 10
5.775021913
 20
7.993833372
 30
0.0
 11
5.745021913
 21
7.798833372
 31
0.0
 12
5.805021913
 22
7.798833372
 32
0.0
 13
5.805021913
 23
7.798833372
 33
0.0
  0
SOLID
  5
144
330
140
100
AcDbEntity
  8
0
  6
Continuous
 62
     7
 48
1.5
370
     0
100
AcDbTrace
 10
5.775021913
 20
6.633833372
 30
0.0
 11
5.805021913
 21
6.828833372
 31
0.0
 12
5.745021913
 22
6.828833372
 32
0.0
 13
5.745021913
 23
6.828833372
 33
0.0
  0
LINE
  5
145
330
140
100
AcDbEntity
  8
0
  6
Continuous
 62
     7
 48
1.5
370
     0
100
AcDbLine
 10
5.456552239
 20
7.2915158455
 30
0.0
 11
5.456552239
 21
7.0385838781
 31
0.0
  0
LINE
  5
146
330
140
100
AcDbEntity
  8
0
  6
Continuous
 62
     7
 48
1.5
370
     0
100
AcDbLine
 10
5.456552239
 20
7.0385838781
 30
0.0
 11
5.494610844
 21
7.0385838781
 31
0.0
  0
LINE
  5
147
330
140
100
AcDbEntity
  8
0
  6
Continuous
 62
     7
 48
1.5
370
     0
100
AcDbLine
 10
5.456552239
 20
7.2915158455
 30
0.0
 11
5.494610844
 21
7.2915158455
 31
0.0
  0
LINE
  5
148
330
140
100
AcDbEntity
  8
0
  6
Continuous
 62
     7
 48
1.5
370
     0
100
AcDbLine
 10
6.093491587
 20
7.2915158455
 30
0.0
 11
6.093491587
 21
7.0385838781
 31
0.0
  0
LINE
  5
149
330
140
100
AcDbEntity
  8
0
  6
Continuous
 62
     7
 48
1.5
370
     0
100
AcDbLine
 10
6.093491587
 20
7.0385838781
 30
0.0
 11
6.055432982
 21
7.0385838781
 31
0.0
  0
LINE
  5
14A
330
140
100
AcDbEntity
  8
0
  6
Continuous
 62
     7
 48
1.5
370
     0
100
AcDbLine
 10
6.093491587
 20
7.2915158455
 30
0.0
 11
6.055432982
 21
7.2915158455
 31
0.0
  0
LINE
  5
14B
330
140
100
AcDbEntity
  8
0
  6
Continuous
 62
     7
 48
1.5
370
     0
100
AcDbLine
 10
3.6044707319
 20
7.993833372
 30
0.0
 11
5.962521913
 21
7.993833372
 31
0.0
  0
LINE
  5
14C
330
140
100
AcDbEntity
  8
0
  6
Continuous
 62
     7
 48
1.5
370
     0
100
AcDbLine
 10
3.6044707319
 20
6.633833372
 30
0.0
 11
5.962521913
 21
6.633833372
 31
0.0
  0
LINE
  5
14D
330
140
100
AcDbEntity
  8
0
  6
Continuous
 62
     7
 48
1.5
370
     0
100
AcDbLine
 10
5.775021913
 20
7.993833372
 30
0.0
 11
5.775021913
 21
7.6114003925
 31
0.0
  0
LINE
  5
14E
330
140
100
AcDbEntity
  8
0
  6
Continuous
 62
     7
 48
1.5
370
     0
100
AcDbLine
 10
5.775021913
 20
6.633833372
 30
0.0
 11
5.775021913
 21
7.0162663515
 31
0.0
  0
MTEXT
  5
14F
330
140
100
AcDbEntity
  8
0
  6
Continuous
 62
     7
 48
1.5
370
     0
100
AcDbMText
 10
5.532669449
 20
7.5555335629
 30
0.0
 40
0.1875
 41
0.0
 71
     1
 72
     1
  1
1.36
  7
SLDTEXTSTYLE0
 73
     1
 44
1.0
  0
MTEXT
  5
150
330
140
100
AcDbEntity
  8
0
  6
Continuous
 62
     7
 48
1.5
370
     0
100
AcDbMText
 10
5.532669449
 20
7.2579665424
 30
0.0
 40
0.1875
 41
0.0
 71
     1
 72
     1
  1
34.5
  7
SLDTEXTSTYLE0
 73
     1
 44
1.0
  0
ENDBLK
  5
142
330
140
100
AcDbEntity
  8
0
100
AcDbBlockEnd
  0
BLOCK
  5
152
330
151
100
AcDbEntity
  8
0
100
AcDbBlockBegin
  2
SW_NOTE_4
 70
     0
 10
0.0
 20
0.0
 30
0.0
  3
SW_NOTE_4
  1

  0
MTEXT
  5
154
330
151
100
AcDbEntity
  8
0
  6
Continuous
 62
     0
 48
1.5
370
     0
100
AcDbMText
 10
0.0295317448
 20
0.0909128679
 30
0.0
 40
0.1875
 41
0.0
 71
     1
 72
     1
  1
CAPTIVE SCREW M5x0.8 x 16mm LG.,
  7
SLDTEXTSTYLE0
 73
     1
 44
1.0
  0
MTEXT
  5
155
330
151
100
AcDbEntity
  8
0
  6
Continuous
 62
     0
 48
1.5
370
     0
100
AcDbMText
 10
0.0295317448
 20
-0.1556422438
 30
0.0
 40
0.1875
 41
0.0
 71
     1
 72
     1
  1
WASHER HEAD, PHILLIPS DRIVE, STEEL,
  7
SLDTEXTSTYLE0
 73
     1
 44
1.0
  0
MTEXT
  5
156
330
151
100
AcDbEntity
  8
0
  6
Continuous
 62
     0
 48
1.5
370
     0
100
AcDbMText
 10
0.0295317448
 20
-0.4021973556
 30
0.0
 40
0.1875
 41
0.0
 71
     1
 72
     1
  1
ZINC PLATED, WITH SEALING WASHER,
  7
SLDTEXTSTYLE0
 73
     1
 44
1.0
  0
MTEXT
  5
157
330
151
100
AcDbEntity
  8
0
  6
Continuous
 62
     0
 48
1.5
370
     0
100
AcDbMText
 10
0.0295317448
 20
-0.6487524674
 30
0.0
 40
0.1875
 41
0.0
 71
     1
 72
     1
  1
NEOPRENE, BLACK AND O-RING,
  7
SLDTEXTSTYLE0
 73
     1
 44
1.0
  0
MTEXT
  5
158
330
151
100
AcDbEntity
  8
0
  6
Continuous
 62
     0
 48
1.5
370
     0
100
AcDbMText
 10
0.0295317448
 20
-0.8953075792
 30
0.0
 40
0.1875
 41
0.0
 71
     1
 72
     1
  1
BUNA-N, BLACK
  7
SLDTEXTSTYLE0
 73
     1
 44
1.0
  0
ENDBLK
  5
153
330
151
100
AcDbEntity
  8
0
100
AcDbBlockEnd
  0
BLOCK
  5
15D
330
15C
100
AcDbEntity
  8
0
100
AcDbBlockBegin
  2
SW_CENTERMARKSYMBOL_0
 70
     0
 10
0.0
 20
0.0
 30
0.0
  3
SW_CENTERMARKSYMBOL_0
  1

  0
LINE
  5
15F
330
15C
100
AcDbEntity
  8
0
  6
Continuous
 62
     0
 48
1.5
370
     0
100
AcDbLine
 10
0.0
 20
0.0
 30
0.0
 11
0.0
 21
0.05
 31
0.0
  0
LINE
  5
160
330
15C
100
AcDbEntity
  8
0
  6
Continuous
 62
     0
 48
1.5
370
     0
100
AcDbLine
 10
0.0
 20
0.0
 30
0.0
 11
-0.05
 21
0.0
 31
0.0
  0
LINE
  5
161
330
15C
100
AcDbEntity
  8
0
  6
Continuous
 62
     0
 48
1.5
370
     0
100
AcDbLine
 10
0.0
 20
0.0
 30
0.0
 11
0.0
 21
-0.05
 31
0.0
  0
LINE
  5
162
330
15C
100
AcDbEntity
  8
0
  6
Continuous
 62
     0
 48
1.5
370
     0
100
AcDbLine
 10
0.0
 20
0.0
 30
0.0
 11
0.05
 21
0.0
 31
0.0
  0
ENDBLK
  5
15E
330
15C
100
AcDbEntity
  8
0
100
AcDbBlockEnd
  0
BLOCK
  5
2B1
330
2B0
100
AcDbEntity
  8
0
100
AcDbBlockBegin
  2
*D11
 70
     1
 10
0.0
 20
0.0
 30
0.0
  3
*D11
  1

  0
SOLID
  5
2B3
330
2B0
100
AcDbEntity
  8
0
  6
Continuous
 62
     7
 48
1.5
370
     0
100
AcDbTrace
 10
14.6674026738
 20
10.1543845531
 30
0.0
 11
14.4724026738
 21
10.1843845531
 31
0.0
 12
14.4724026738
 22
10.1243845531
 32
0.0
 13
14.4724026738
 23
10.1243845531
 33
0.0
  0
SOLID
  5
2B4
330
2B0
100
AcDbEntity
  8
0
  6
Continuous
 62
     7
 48
1.5
370
     0
100
AcDbTrace
 10
11.9174026738
 20
10.1543845531
 30
0.0
 11
12.1124026738
 21
10.1243845531
 31
0.0
 12
12.1124026738
 22
10.1843845531
 32
0.0
 13
12.1124026738
 23
10.1843845531
 33
0.0
  0
LINE
  5
2B5
330
2B0
100
AcDbEntity
  8
0
  6
Continuous
 62
     7
 48
1.5
370
     0
100
AcDbLine
 10
12.9739329998
 20
10.1320670266
 30
0.0
 11
12.9739329998
 21
9.8791350592
 31
0.0
  0
LINE
  5
2B6
330
2B0
100
AcDbEntity
  8
0
  6
Continuous
 62
     7
 48
1.5
370
     0
100
AcDbLine
 10
12.9739329998
 20
9.8791350592
 30
0.0
 11
13.0119916048
 21
9.8791350592
 31
0.0
  0
LINE
  5
2B7
330
2B0
100
AcDbEntity
  8
0
  6
Continuous
 62
     7
 48
1.5
370
     0
100
AcDbLine
 10
12.9739329998
 20
10.1320670266
 30
0.0
 11
13.0119916048
 21
10.1320670266
 31
0.0
  0
LINE
  5
2B8
330
2B0
100
AcDbEntity
  8
0
  6
Continuous
 62
     7
 48
1.5
370
     0
100
AcDbLine
 10
13.6108723478
 20
10.1320670266
 30
0.0
 11
13.6108723478
 21
9.8791350592
 31
0.0
  0
LINE
  5
2B9
330
2B0
100
AcDbEntity
  8
0
  6
Continuous
 62
     7
 48
1.5
370
     0
100
AcDbLine
 10
13.6108723478
 20
9.8791350592
 30
0.0
 11
13.5728137428
 21
9.8791350592
 31
0.0
  0
LINE
  5
2BA
330
2B0
100
AcDbEntity
  8
0
  6
Continuous
 62
     7
 48
1.5
370
     0
100
AcDbLine
 10
13.6108723478
 20
10.1320670266
 30
0.0
 11
13.5728137428
 21
10.1320670266
 31
0.0
  0
LINE
  5
2BB
330
2B0
100
AcDbEntity
  8
0
  6
Continuous
 62
     7
 48
1.5
370
     0
100
AcDbLine
 10
14.6674026738
 20
9.638833372
 30
0.0
 11
14.6674026738
 21
10.3418845531
 31
0.0
  0
LINE
  5
2BC
330
2B0
100
AcDbEntity
  8
0
  6
Continuous
 62
     7
 48
1.5
370
     0
100
AcDbLine
 10
11.9174026738
 20
9.169833372
 30
0.0
 11
11.9174026738
 21
10.3418845531
 31
0.0
  0
LINE
  5
2BD
330
2B0
100
AcDbEntity
  8
0
  6
Continuous
 62
     7
 48
1.5
370
     0
100
AcDbLine
 10
14.6674026738
 20
10.1543845531
 30
0.0
 11
13.8187488641
 21
10.1543845531
 31
0.0
  0
LINE
  5
2BE
330
2B0
100
AcDbEntity
  8
0
  6
Continuous
 62
     7
 48
1.5
370
     0
100
AcDbLine
 10
11.9174026738
 20
10.1543845531
 30
0.0
 11
12.7660564835
 21
10.1543845531
 31
0.0
  0
MTEXT
  5
2BF
330
2B0
100
AcDbEntity
  8
0
  6
Continuous
 62
     7
 48
1.5
370
     0
100
AcDbMText
 10
13.0500502098
 20
10.396084744
 30
0.0
 40
0.1875
 41
0.0
 71
     1
 72
     1
  1
2.75
  7
SLDTEXTSTYLE0
 73
     1
 44
1.0
  0
MTEXT
  5
2C0
330
2B0
100
AcDbEntity
  8
0
  6
Continuous
 62
     7
 48
1.5
370
     0
100
AcDbMText
 10
13.0500502098
 20
10.0985177235
 30
0.0
 40
0.1875
 41
0.0
 71
     1
 72
     1
  1
69.9
  7
SLDTEXTSTYLE0
 73
     1
 44
1.0
  0
ENDBLK
  5
2B2
330
2B0
100
AcDbEntity
  8
0
100
AcDbBlockEnd
  0
BLOCK
  5
2C2
330
2C1
100
AcDbEntity
  8
0
100
AcDbBlockBegin
  2
SW_NOTE_5
 70
     0
 10
0.0
 20
0.0
 30
0.0
  3
SW_NOTE_5
  1

  0
MTEXT
  5
2C4
330
2C1
100
AcDbEntity
  8
0
  6
Continuous
 62
     0
 48
1.5
370
     0
100
AcDbMText
 10
0.0296372607
 20
0.0909253361
 30
0.0
 40
0.1875
 41
0.0
 71
     1
 72
     1
  1
ONE-PIECE DIE-CUT GASKET
  7
SLDTEXTSTYLE0
 73
     1
 44
1.0
  0
MTEXT
  5
2C5
330
2C1
100
AcDbEntity
  8
0
  6
Continuous
 62
     0
 48
1.5
370
     0
100
AcDbMText
 10
0.0296372607
 20
-0.1556297757
 30
0.0
 40
0.1875
 41
0.0
 71
     1
 72
     1
  1
(.25[6.3] THK. PORON #4701-41-15250-04
  7
SLDTEXTSTYLE0
 73
     1
 44
1.0
  0
MTEXT
  5
2C6
330
2C1
100
AcDbEntity
  8
0
  6
Continuous
 62
     0
 48
1.5
370
     0
100
AcDbMText
 10
0.0296372607
 20
-0.4021848875
 30
0.0
 40
0.1875
 41
0.0
 71
     1
 72
     1
  1
- BLACK) INSIDE COVER.
  7
SLDTEXTSTYLE0
 73
     1
 44
1.0
  0
ENDBLK
  5
2C3
330
2C1
100
AcDbEntity
  8
0
100
AcDbBlockEnd
  0
BLOCK
  5
317
330
316
100
AcDbEntity
  8
0
100
AcDbBlockBegin
  2
*D13
 70
     1
 10
0.0
 20
0.0
 30
0.0
  3
*D13
  1

  0
SOLID
  5
319
330
316
100
AcDbEntity
  8
0
  6
Continuous
 62
     7
 48
1.5
370
     0
100
AcDbTrace
 10
16.8770492661
 20
4.4732821909
 30
0.0
 11
17.0720492661
 21
4.4432821909
 31
0.0
 12
17.0720492661
 22
4.5032821909
 32
0.0
 13
17.0720492661
 23
4.5032821909
 33
0.0
  0
SOLID
  5
31A
330
316
100
AcDbEntity
  8
0
  6
Continuous
 62
     7
 48
1.5
370
     0
100
AcDbTrace
 10
19.2520492661
 20
4.4732821909
 30
0.0
 11
19.0570492661
 21
4.5032821909
 31
0.0
 12
19.0570492661
 22
4.4432821909
 32
0.0
 13
19.0570492661
 23
4.4432821909
 33
0.0
  0
LINE
  5
31B
330
316
100
AcDbEntity
  8
0
  6
Continuous
 62
     7
 48
1.5
370
     0
100
AcDbLine
 10
17.784927396
 20
4.4509646644
 30
0.0
 11
17.784927396
 21
4.198032697
 31
0.0
  0
LINE
  5
31C
330
316
100
AcDbEntity
  8
0
  6
Continuous
 62
     7
 48
1.5
370
     0
100
AcDbLine
 10
17.784927396
 20
4.198032697
 30
0.0
 11
17.822986001
 21
4.198032697
 31
0.0
  0
LINE
  5
31D
330
316
100
AcDbEntity
  8
0
  6
Continuous
 62
     7
 48
1.5
370
     0
100
AcDbLine
 10
17.784927396
 20
4.4509646644
 30
0.0
 11
17.822986001
 21
4.4509646644
 31
0.0
  0
LINE
  5
31E
330
316
100
AcDbEntity
  8
0
  6
Continuous
 62
     7
 48
1.5
370
     0
100
AcDbLine
 10
18.4218667439
 20
4.4509646644
 30
0.0
 11
18.4218667439
 21
4.198032697
 31
0.0
  0
LINE
  5
31F
330
316
100
AcDbEntity
  8
0
  6
Continuous
 62
     7
 48
1.5
370
     0
100
AcDbLine
 10
18.4218667439
 20
4.198032697
 30
0.0
 11
18.3838081389
 21
4.198032697
 31
0.0
  0
LINE
  5
320
330
316
100
AcDbEntity
  8
0
  6
Continuous
 62
     7
 48
1.5
370
     0
100
AcDbLine
 10
18.4218667439
 20
4.4509646644
 30
0.0
 11
18.3838081389
 21
4.4509646644
 31
0.0
  0
LINE
  5
321
330
316
100
AcDbEntity
  8
0
  6
Continuous
 62
     7
 48
1.5
370
     0
100
AcDbLine
 10
16.8770492661
 20
5.207833372
 30
0.0
 11
16.8770492661
 21
4.2857821909
 31
0.0
  0
LINE
  5
322
330
316
100
AcDbEntity
  8
0
  6
Continuous
 62
     7
 48
1.5
370
     0
100
AcDbLine
 10
19.2520492661
 20
5.207833372
 30
0.0
 11
19.2520492661
 21
4.2857821909
 31
0.0
  0
LINE
  5
323
330
316
100
AcDbEntity
  8
0
  6
Continuous
 62
     7
 48
1.5
370
     0
100
AcDbLine
 10
16.8770492661
 20
4.4732821909
 30
0.0
 11
17.5770508797
 21
4.4732821909
 31
0.0
  0
LINE
  5
324
330
316
100
AcDbEntity
  8
0
  6
Continuous
 62
     7
 48
1.5
370
     0
100
AcDbLine
 10
19.2520492661
 20
4.4732821909
 30
0.0
 11
18.6297432602
 21
4.4732821909
 31
0.0
  0
MTEXT
  5
325
330
316
100
AcDbEntity
  8
0
  6
Continuous
 62
     7
 48
1.5
370
     0
100
AcDbMText
 10
17.861044606
 20
4.7149823818
 30
0.0
 40
0.1875
 41
0.0
 71
     1
 72
     1
  1
2.38
  7
SLDTEXTSTYLE0
 73
     1
 44
1.0
  0
MTEXT
  5
326
330
316
100
AcDbEntity
  8
0
  6
Continuous
 62
     7
 48
1.5
370
     0
100
AcDbMText
 10
17.861044606
 20
4.4174153613
 30
0.0
 40
0.1875
 41
0.0
 71
     1
 72
     1
  1
60.3
  7
SLDTEXTSTYLE0
 73
     1
 44
1.0
  0
ENDBLK
  5
318
330
316
100
AcDbEntity
  8
0
100
AcDbBlockEnd
  0
BLOCK
  5
329
330
328
100
AcDbEntity
  8
0
100
AcDbBlockBegin
  2
*D14
 70
     1
 10
0.0
 20
0.0
 30
0.0
  3
*D14
  1

  0
SOLID
  5
32B
330
328
100
AcDbEntity
  8
0
  6
Continuous
 62
     7
 48
1.5
370
     0
100
AcDbTrace
 10
15.723998085
 20
9.563833372
 30
0.0
 11
15.693998085
 21
9.368833372
 31
0.0
 12
15.753998085
 22
9.368833372
 32
0.0
 13
15.753998085
 23
9.368833372
 33
0.0
  0
SOLID
  5
32C
330
328
100
AcDbEntity
  8
0
  6
Continuous
 62
     7
 48
1.5
370
     0
100
AcDbTrace
 10
15.723998085
 20
5.063833372
 30
0.0
 11
15.753998085
 21
5.258833372
 31
0.0
 12
15.693998085
 22
5.258833372
 32
0.0
 13
15.693998085
 23
5.258833372
 33
0.0
  0
LINE
  5
32D
330
328
100
AcDbEntity
  8
0
  6
Continuous
 62
     7
 48
1.5
370
     0
100
AcDbLine
 10
15.3362144231
 20
7.2915158455
 30
0.0
 11
15.3362144231
 21
7.0385838781
 31
0.0
  0
LINE
  5
32E
330
328
100
AcDbEntity
  8
0
  6
Continuous
 62
     7
 48
1.5
370
     0
100
AcDbLine
 10
15.3362144231
 20
7.0385838781
 30
0.0
 11
15.3742730281
 21
7.0385838781
 31
0.0
  0
LINE
  5
32F
330
328
100
AcDbEntity
  8
0
  6
Continuous
 62
     7
 48
1.5
370
     0
100
AcDbLine
 10
15.3362144231
 20
7.2915158455
 30
0.0
 11
15.3742730281
 21
7.2915158455
 31
0.0
  0
LINE
  5
330
330
328
100
AcDbEntity
  8
0
  6
Continuous
 62
     7
 48
1.5
370
     0
100
AcDbLine
 10
16.1117817468
 20
7.2915158455
 30
0.0
 11
16.1117817468
 21
7.0385838781
 31
0.0
  0
LINE
  5
331
330
328
100
AcDbEntity
  8
0
  6
Continuous
 62
     7
 48
1.5
370
     0
100
AcDbLine
 10
16.1117817468
 20
7.0385838781
 30
0.0
 11
16.0737231418
 21
7.0385838781
 31
0.0
  0
LINE
  5
332
330
328
100
AcDbEntity
  8
0
  6
Continuous
 62
     7
 48
1.5
370
     0
100
AcDbLine
 10
16.1117817468
 20
7.2915158455
 30
0.0
 11
16.0737231418
 21
7.2915158455
 31
0.0
  0
LINE
  5
333
330
328
100
AcDbEntity
  8
0
  6
Continuous
 62
     7
 48
1.5
370
     0
100
AcDbLine
 10
16.7395492661
 20
9.563833372
 30
0.0
 11
15.536498085
 21
9.563833372
 31
0.0
  0
LINE
  5
334
330
328
100
AcDbEntity
  8
0
  6
Continuous
 62
     7
 48
1.5
370
     0
100
AcDbLine
 10
16.7395492661
 20
5.063833372
 30
0.0
 11
15.536498085
 21
5.063833372
 31
0.0
  0
LINE
  5
335
330
328
100
AcDbEntity
  8
0
  6
Continuous
 62
     7
 48
1.5
370
     0
100
AcDbLine
 10
15.723998085
 20
9.563833372
 30
0.0
 11
15.723998085
 21
7.6114003925
 31
0.0
  0
LINE
  5
336
330
328
100
AcDbEntity
  8
0
  6
Continuous
 62
     7
 48
1.5
370
     0
100
AcDbLine
 10
15.723998085
 20
5.063833372
 30
0.0
 11
15.723998085
 21
7.0162663515
 31
0.0
  0
MTEXT
  5
337
330
328
100
AcDbEntity
  8
0
  6
Continuous
 62
     7
 48
1.5
370
     0
100
AcDbMText
 10
15.481645621
 20
7.5555335629
 30
0.0
 40
0.1875
 41
0.0
 71
     1
 72
     1
  1
4.50
  7
SLDTEXTSTYLE0
 73
     1
 44
1.0
  0
MTEXT
  5
338
330
328
100
AcDbEntity
  8
0
  6
Continuous
 62
     7
 48
1.5
370
     0
100
AcDbMText
 10
15.4123316331
 20
7.2579665424
 30
0.0
 40
0.1875
 41
0.0
 71
     1
 72
     1
  1
114.3
  7
SLDTEXTSTYLE0
 73
     1
 44
1.0
  0
ENDBLK
  5
32A
330
328
100
AcDbEntity
  8
0
100
AcDbBlockEnd
  0
BLOCK
  5
33B
330
33A
100
AcDbEntity
  8
0
100
AcDbBlockBegin
  2
*D15
 70
     1
 10
0.0
 20
0.0
 30
0.0
  3
*D15
  1

  0
SOLID
  5
33D
330
33A
100
AcDbEntity
  8
0
  6
Continuous
 62
     7
 48
1.5
370
     0
100
AcDbTrace
 10
16.5645492661
 20
10.1543845531
 30
0.0
 11
16.7595492661
 21
10.1243845531
 31
0.0
 12
16.7595492661
 22
10.1843845531
 32
0.0
 13
16.7595492661
 23
10.1843845531
 33
0.0
  0
SOLID
  5
33E
330
33A
100
AcDbEntity
  8
0
  6
Continuous
 62
     7
 48
1.5
370
     0
100
AcDbTrace
 10
19.5645492661
 20
10.1543845531
 30
0.0
 11
19.3695492661
 21
10.1843845531
 31
0.0
 12
19.3695492661
 22
10.1243845531
 32
0.0
 13
19.3695492661
 23
10.1243845531
 33
0.0
  0
LINE
  5
33F
330
33A
100
AcDbEntity
  8
0
  6
Continuous
 62
     7
 48
1.5
370
     0
100
AcDbLine
 10
17.7460795921
 20
10.1320670266
 30
0.0
 11
17.7460795921
 21
9.8791350592
 31
0.0
  0
LINE
  5
340
330
33A
100
AcDbEntity
  8
0
  6
Continuous
 62
     7
 48
1.5
370
     0
100
AcDbLine
 10
17.7460795921
 20
9.8791350592
 30
0.0
 11
17.7841381971
 21
9.8791350592
 31
0.0
  0
LINE
  5
341
330
33A
100
AcDbEntity
  8
0
  6
Continuous
 62
     7
 48
1.5
370
     0
100
AcDbLine
 10
17.7460795921
 20
10.1320670266
 30
0.0
 11
17.7841381971
 21
10.1320670266
 31
0.0
  0
LINE
  5
342
330
33A
100
AcDbEntity
  8
0
  6
Continuous
 62
     7
 48
1.5
370
     0
100
AcDbLine
 10
18.3830189401
 20
10.1320670266
 30
0.0
 11
18.3830189401
 21
9.8791350592
 31
0.0
  0
LINE
  5
343
330
33A
100
AcDbEntity
  8
0
  6
Continuous
 62
     7
 48
1.5
370
     0
100
AcDbLine
 10
18.3830189401
 20
9.8791350592
 30
0.0
 11
18.3449603351
 21
9.8791350592
 31
0.0
  0
LINE
  5
344
330
33A
100
AcDbEntity
  8
0
  6
Continuous
 62
     7
 48
1.5
370
     0
100
AcDbLine
 10
18.3830189401
 20
10.1320670266
 30
0.0
 11
18.3449603351
 21
10.1320670266
 31
0.0
  0
LINE
  5
345
330
33A
100
AcDbEntity
  8
0
  6
Continuous
 62
     7
 48
1.5
370
     0
100
AcDbLine
 10
16.5645492661
 20
9.388833372
 30
0.0
 11
16.5645492661
 21
10.3418845531
 31
0.0
  0
LINE
  5
346
330
33A
100
AcDbEntity
  8
0
  6
Continuous
 62
     7
 48
1.5
370
     0
100
AcDbLine
 10
19.5645492661
 20
9.388833372
 30
0.0
 11
19.5645492661
 21
10.3418845531
 31
0.0
  0
LINE
  5
347
330
33A
100
AcDbEntity
  8
0
  6
Continuous
 62
     7
 48
1.5
370
     0
100
AcDbLine
 10
16.5645492661
 20
10.1543845531
 30
0.0
 11
17.5382030758
 21
10.1543845531
 31
0.0
  0
LINE
  5
348
330
33A
100
AcDbEntity
  8
0
  6
Continuous
 62
     7
 48
1.5
370
     0
100
AcDbLine
 10
19.5645492661
 20
10.1543845531
 30
0.0
 11
18.5908954564
 21
10.1543845531
 31
0.0
  0
MTEXT
  5
349
330
33A
100
AcDbEntity
  8
0
  6
Continuous
 62
     7
 48
1.5
370
     0
100
AcDbMText
 10
17.8221968021
 20
10.396084744
 30
0.0
 40
0.1875
 41
0.0
 71
     1
 72
     1
  1
3.00
  7
SLDTEXTSTYLE0
 73
     1
 44
1.0
  0
MTEXT
  5
34A
330
33A
100
AcDbEntity
  8
0
  6
Continuous
 62
     7
 48
1.5
370
     0
100
AcDbMText
 10
17.8221968021
 20
10.0985177235
 30
0.0
 40
0.1875
 41
0.0
 71
     1
 72
     1
  1
76.2
  7
SLDTEXTSTYLE0
 73
     1
 44
1.0
  0
ENDBLK
  5
33C
330
33A
100
AcDbEntity
  8
0
100
AcDbBlockEnd
  0
BLOCK
  5
4AC
330
4AB
100
AcDbEntity
  8
0
100
AcDbBlockBegin
  2
*D16
 70
     1
 10
0.0
 20
0.0
 30
0.0
  3
*D16
  1

  0
SOLID
  5
4AE
330
4AB
100
AcDbEntity
  8
0
  6
Continuous
 62
     7
 48
1.5
370
     0
100
AcDbTrace
 10
6.4547512656
 20
10.1543845531
 30
0.0
 11
6.6497512656
 21
10.1243845531
 31
0.0
 12
6.6497512656
 22
10.1843845531
 32
0.0
 13
6.6497512656
 23
10.1843845531
 33
0.0
  0
SOLID
  5
4AF
330
4AB
100
AcDbEntity
  8
0
  6
Continuous
 62
     7
 48
1.5
370
     0
100
AcDbTrace
 10
9.7047512656
 20
10.1543845531
 30
0.0
 11
9.5097512656
 21
10.1843845531
 31
0.0
 12
9.5097512656
 22
10.1243845531
 32
0.0
 13
9.5097512656
 23
10.1243845531
 33
0.0
  0
LINE
  5
4B0
330
4AB
100
AcDbEntity
  8
0
  6
Continuous
 62
     7
 48
1.5
370
     0
100
AcDbLine
 10
7.7612815916
 20
10.1320670266
 30
0.0
 11
7.7612815916
 21
9.8791350592
 31
0.0
  0
LINE
  5
4B1
330
4AB
100
AcDbEntity
  8
0
  6
Continuous
 62
     7
 48
1.5
370
     0
100
AcDbLine
 10
7.7612815916
 20
9.8791350592
 30
0.0
 11
7.7993401966
 21
9.8791350592
 31
0.0
  0
LINE
  5
4B2
330
4AB
100
AcDbEntity
  8
0
  6
Continuous
 62
     7
 48
1.5
370
     0
100
AcDbLine
 10
7.7612815916
 20
10.1320670266
 30
0.0
 11
7.7993401966
 21
10.1320670266
 31
0.0
  0
LINE
  5
4B3
330
4AB
100
AcDbEntity
  8
0
  6
Continuous
 62
     7
 48
1.5
370
     0
100
AcDbLine
 10
8.3982209396
 20
10.1320670266
 30
0.0
 11
8.3982209396
 21
9.8791350592
 31
0.0
  0
LINE
  5
4B4
330
4AB
100
AcDbEntity
  8
0
  6
Continuous
 62
     7
 48
1.5
370
     0
100
AcDbLine
 10
8.3982209396
 20
9.8791350592
 30
0.0
 11
8.3601623346
 21
9.8791350592
 31
0.0
  0
LINE
  5
4B5
330
4AB
100
AcDbEntity
  8
0
  6
Continuous
 62
     7
 48
1.5
370
     0
100
AcDbLine
 10
8.3982209396
 20
10.1320670266
 30
0.0
 11
8.3601623346
 21
10.1320670266
 31
0.0
  0
LINE
  5
4B6
330
4AB
100
AcDbEntity
  8
0
  6
Continuous
 62
     7
 48
1.5
370
     0
100
AcDbLine
 10
6.4547512656
 20
9.045833372
 30
0.0
 11
6.4547512656
 21
10.3418845531
 31
0.0
  0
LINE
  5
4B7
330
4AB
100
AcDbEntity
  8
0
  6
Continuous
 62
     7
 48
1.5
370
     0
100
AcDbLine
 10
9.7047512656
 20
9.045833372
 30
0.0
 11
9.7047512656
 21
10.3418845531
 31
0.0
  0
LINE
  5
4B8
330
4AB
100
AcDbEntity
  8
0
  6
Continuous
 62
     7
 48
1.5
370
     0
100
AcDbLine
 10
6.4547512656
 20
10.1543845531
 30
0.0
 11
7.5534050753
 21
10.1543845531
 31
0.0
  0
LINE
  5
4B9
330
4AB
100
AcDbEntity
  8
0
  6
Continuous
 62
     7
 48
1.5
370
     0
100
AcDbLine
 10
9.7047512656
 20
10.1543845531
 30
0.0
 11
8.6060974559
 21
10.1543845531
 31
0.0
  0
MTEXT
  5
4BA
330
4AB
100
AcDbEntity
  8
0
  6
Continuous
 62
     7
 48
1.5
370
     0
100
AcDbMText
 10
7.8373988016
 20
10.396084744
 30
0.0
 40
0.1875
 41
0.0
 71
     1
 72
     1
  1
3.25
  7
SLDTEXTSTYLE0
 73
     1
 44
1.0
  0
MTEXT
  5
4BB
330
4AB
100
AcDbEntity
  8
0
  6
Continuous
 62
     7
 48
1.5
370
     0
100
AcDbMText
 10
7.8373988016
 20
10.0985177235
 30
0.0
 40
0.1875
 41
0.0
 71
     1
 72
     1
  1
82.6
  7
SLDTEXTSTYLE0
 73
     1
 44
1.0
  0
ENDBLK
  5
4AD
330
4AB
100
AcDbEntity
  8
0
100
AcDbBlockEnd
  0
BLOCK
  5
4BE
330
4BD
100
AcDbEntity
  8
0
100
AcDbBlockBegin
  2
*D17
 70
     1
 10
0.0
 20
0.0
 30
0.0
  3
*D17
  1

  0
SOLID
  5
4C0
330
4BD
100
AcDbEntity
  8
0
  6
Continuous
 62
     7
 48
1.5
370
     0
100
AcDbTrace
 10
10.3339845885
 20
9.063833372
 30
0.0
 11
10.3039845885
 21
8.868833372
 31
0.0
 12
10.3639845885
 22
8.868833372
 32
0.0
 13
10.3639845885
 23
8.868833372
 33
0.0
  0
SOLID
  5
4C1
330
4BD
100
AcDbEntity
  8
0
  6
Continuous
 62
     7
 48
1.5
370
     0
100
AcDbTrace
 10
10.3339845885
 20
5.563833372
 30
0.0
 11
10.3639845885
 21
5.758833372
 31
0.0
 12
10.3039845885
 22
5.758833372
 32
0.0
 13
10.3039845885
 23
5.758833372
 33
0.0
  0
LINE
  5
4C2
330
4BD
100
AcDbEntity
  8
0
  6
Continuous
 62
     7
 48
1.5
370
     0
100
AcDbLine
 10
10.0155149145
 20
7.2915158455
 30
0.0
 11
10.0155149145
 21
7.0385838781
 31
0.0
  0
LINE
  5
4C3
330
4BD
100
AcDbEntity
  8
0
  6
Continuous
 62
     7
 48
1.5
370
     0
100
AcDbLine
 10
10.0155149145
 20
7.0385838781
 30
0.0
 11
10.0535735195
 21
7.0385838781
 31
0.0
  0
LINE
  5
4C4
330
4BD
100
AcDbEntity
  8
0
  6
Continuous
 62
     7
 48
1.5
370
     0
100
AcDbLine
 10
10.0155149145
 20
7.2915158455
 30
0.0
 11
10.0535735195
 21
7.2915158455
 31
0.0
  0
LINE
  5
4C5
330
4BD
100
AcDbEntity
  8
0
  6
Continuous
 62
     7
 48
1.5
370
     0
100
AcDbLine
 10
10.6524542625
 20
7.2915158455
 30
0.0
 11
10.6524542625
 21
7.0385838781
 31
0.0
  0
LINE
  5
4C6
330
4BD
100
AcDbEntity
  8
0
  6
Continuous
 62
     7
 48
1.5
370
     0
100
AcDbLine
 10
10.6524542625
 20
7.0385838781
 30
0.0
 11
10.6143956575
 21
7.0385838781
 31
0.0
  0
LINE
  5
4C7
330
4BD
100
AcDbEntity
  8
0
  6
Continuous
 62
     7
 48
1.5
370
     0
100
AcDbLine
 10
10.6524542625
 20
7.2915158455
 30
0.0
 11
10.6143956575
 21
7.2915158455
 31
0.0
  0
LINE
  5
4C8
330
4BD
100
AcDbEntity
  8
0
  6
Continuous
 62
     7
 48
1.5
370
     0
100
AcDbLine
 10
9.6867512656
 20
9.063833372
 30
0.0
 11
10.5214845885
 21
9.063833372
 31
0.0
  0
LINE
  5
4C9
330
4BD
100
AcDbEntity
  8
0
  6
Continuous
 62
     7
 48
1.5
370
     0
100
AcDbLine
 10
9.6867512656
 20
5.563833372
 30
0.0
 11
10.5214845885
 21
5.563833372
 31
0.0
  0
LINE
  5
4CA
330
4BD
100
AcDbEntity
  8
0
  6
Continuous
 62
     7
 48
1.5
370
     0
100
AcDbLine
 10
10.3339845885
 20
9.063833372
 30
0.0
 11
10.3339845885
 21
7.6114003925
 31
0.0
  0
LINE
  5
4CB
330
4BD
100
AcDbEntity
  8
0
  6
Continuous
 62
     7
 48
1.5
370
     0
100
AcDbLine
 10
10.3339845885
 20
5.563833372
 30
0.0
 11
10.3339845885
 21
7.0162663515
 31
0.0
  0
MTEXT
  5
4CC
330
4BD
100
AcDbEntity
  8
0
  6
Continuous
 62
     7
 48
1.5
370
     0
100
AcDbMText
 10
10.0916321245
 20
7.5555335629
 30
0.0
 40
0.1875
 41
0.0
 71
     1
 72
     1
  1
3.50
  7
SLDTEXTSTYLE0
 73
     1
 44
1.0
  0
MTEXT
  5
4CD
330
4BD
100
AcDbEntity
  8
0
  6
Continuous
 62
     7
 48
1.5
370
     0
100
AcDbMText
 10
10.0916321245
 20
7.2579665424
 30
0.0
 40
0.1875
 41
0.0
 71
     1
 72
     1
  1
88.9
  7
SLDTEXTSTYLE0
 73
     1
 44
1.0
  0
ENDBLK
  5
4BF
330
4BD
100
AcDbEntity
  8
0
100
AcDbBlockEnd
  0
BLOCK
  5
4CF
330
4CE
100
AcDbEntity
  8
0
100
AcDbBlockBegin
  2
SW_NOTE_6
 70
     0
 10
0.0
 20
0.0
 30
0.0
  3
SW_NOTE_6
  1

  0
MTEXT
  5
4D1
330
4CE
100
AcDbEntity
  8
0
  6
Continuous
 62
     0
 48
1.5
370
     0
100
AcDbMText
 10
0.0295987794
 20
0.090798737
 30
0.0
 40
0.1875
 41
0.0
 71
     1
 72
     1
  1
WELD STANDOFF M5x0.8 x 12mm LG.
  7
SLDTEXTSTYLE0
 73
     1
 44
1.0
  0
MTEXT
  5
4D2
330
4CE
100
AcDbEntity
  8
0
  6
Continuous
 62
     0
 48
1.5
370
     0
100
AcDbMText
 10
0.0295987794
 20
-0.1557563748
 30
0.0
 40
0.1875
 41
0.0
 71
     1
 72
     1
  1
FOR GROUNDING [SUPPLIED WITH
  7
SLDTEXTSTYLE0
 73
     1
 44
1.0
  0
MTEXT
  5
4D3
330
4CE
100
AcDbEntity
  8
0
  6
Continuous
 62
     0
 48
1.5
370
     0
100
AcDbMText
 10
0.0295987794
 20
-0.4023114866
 30
0.0
 40
0.1875
 41
0.0
 71
     1
 72
     1
  1
(1) SCREW M5x0.8 x 10mm LG., PAN HEAD,
  7
SLDTEXTSTYLE0
 73
     1
 44
1.0
  0
MTEXT
  5
4D4
330
4CE
100
AcDbEntity
  8
0
  6
Continuous
 62
     0
 48
1.5
370
     0
100
AcDbMText
 10
0.0295987794
 20
-0.6488665984
 30
0.0
 40
0.1875
 41
0.0
 71
     1
 72
     1
  1
PHILLIPS DRIVE, STEEL, ZINC PLATED
  7
SLDTEXTSTYLE0
 73
     1
 44
1.0
  0
MTEXT
  5
4D5
330
4CE
100
AcDbEntity
  8
0
  6
Continuous
 62
     0
 48
1.5
370
     0
100
AcDbMText
 10
0.0295987794
 20
-0.8954217101
 30
0.0
 40
0.1875
 41
0.0
 71
     1
 72
     1
  1
AND (1) LOCKWASHER, INTERNAL TOOTH,
  7
SLDTEXTSTYLE0
 73
     1
 44
1.0
  0
MTEXT
  5
4D6
330
4CE
100
AcDbEntity
  8
0
  6
Continuous
 62
     0
 48
1.5
370
     0
100
AcDbMText
 10
0.0295987794
 20
-1.1419768219
 30
0.0
 40
0.1875
 41
0.0
 71
     1
 72
     1
  1
STEEL, ZINC PLATED]
  7
SLDTEXTSTYLE0
 73
     1
 44
1.0
  0
ENDBLK
  5
4D0
330
4CE
100
AcDbEntity
  8
0
100
AcDbBlockEnd
  0
ENDSEC
  0
SECTION
  2
ENTITIES
  0
LINE
  5
44
330
1F
100
AcDbEntity
  8
0
  6
Continuous
 62
     7
 48
1.5
370
     0
100
AcDbLine
 10
0.4698774069
 20
16.0576097561
 30
0.0
 11
25.0338774069
 21
16.0576097561
 31
0.0
  0
LINE
  5
45
330
1F
100
AcDbEntity
  8
0
  6
Continuous
 62
     7
 48
1.5
370
     0
100
AcDbLine
 10
25.0338774069
 20
0.4936097561
 30
0.0
 11
25.0338774069
 21
16.0576097561
 31
0.0
  0
LINE
  5
46
330
1F
100
AcDbEntity
  8
0
  6
Continuous
 62
     7
 48
1.5
370
     0
100
AcDbLine
 10
25.0338774069
 20
0.4936097561
 30
0.0
 11
0.4698774069
 21
0.4936097561
 31
0.0
  0
LINE
  5
47
330
1F
100
AcDbEntity
  8
0
  6
Continuous
 62
     7
 48
1.5
370
     0
100
AcDbLine
 10
0.4698774069
 20
16.0576097561
 30
0.0
 11
0.4698774069
 21
0.4936097561
 31
0.0
  0
LINE
  5
48
330
1F
100
AcDbEntity
  8
0
  6
Continuous
 62
     7
 48
1.5
370
     0
100
AcDbLine
 10
0.3768774069
 20
16.1506097561
 30
0.0
 11
25.1268774069
 21
16.1506097561
 31
0.0
  0
LINE
  5
49
330
1F
100
AcDbEntity
  8
0
  6
Continuous
 62
     7
 48
1.5
370
     0
100
AcDbLine
 10
25.1268774069
 20
0.4006097561
 30
0.0
 11
0.3768774069
 21
0.4006097561
 31
0.0
  0
LINE
  5
4A
330
1F
100
AcDbEntity
  8
0
  6
Continuous
 62
     7
 48
1.5
370
     0
100
AcDbLine
 10
0.3768774069
 20
16.1506097561
 30
0.0
 11
0.3768774069
 21
0.4006097561
 31
0.0
  0
LINE
  5
4B
330
1F
100
AcDbEntity
  8
0
  6
Continuous
 62
     7
 48
1.5
370
     0
100
AcDbLine
 10
25.1268774069
 20
0.4006097561
 30
0.0
 11
25.1268774069
 21
16.1506097561
 31
0.0
  0
LINE
  5
4C
330
1F
100
AcDbEntity
  8
0
  6
Continuous
 62
     7
 48
1.5
370
     0
100
AcDbLine
 10
0.4698774069
 20
15.4486097561
 30
0.0
 11
25.0338774069
 21
15.4486097561
 31
0.0
  0
LINE
  5
4D
330
1F
100
AcDbEntity
  8
0
  6
Continuous
 62
     7
 48
1.5
370
     0
100
AcDbLine
 10
1.5948774069
 20
16.0576097561
 30
0.0
 11
1.5948774069
 21
15.4486097561
 31
0.0
  0
LINE
  5
4E
330
1F
100
AcDbEntity
  8
0
  6
Continuous
 62
     7
 48
1.5
370
     0
100
AcDbLine
 10
11.1588774069
 20
15.4486097561
 30
0.0
 11
11.1588774069
 21
16.0576097561
 31
0.0
  0
LINE
  5
4F
330
1F
100
AcDbEntity
  8
0
  6
Continuous
 62
     7
 48
1.5
370
     0
100
AcDbLine
 10
11.2518774069
 20
15.4486097561
 30
0.0
 11
11.2518774069
 21
16.0576097561
 31
0.0
  0
LINE
  5
50
330
1F
100
AcDbEntity
  8
0
  6
Continuous
 62
     7
 48
1.5
370
     0
100
AcDbLine
 10
23.1588774069
 20
15.4486097561
 30
0.0
 11
23.1588774069
 21
16.0576097561
 31
0.0
  0
LINE
  5
51
330
1F
100
AcDbEntity
  8
0
  6
Continuous
 62
     7
 48
1.5
370
     0
100
AcDbLine
 10
12.3768774069
 20
15.4486097561
 30
0.0
 11
12.3768774069
 21
16.0576097561
 31
0.0
  0
LINE
  5
52
330
1F
100
AcDbEntity
  8
0
  6
Continuous
 62
     7
 48
1.5
370
     0
100
AcDbLine
 10
22.0338774069
 20
15.4486097561
 30
0.0
 11
22.0338774069
 21
16.0576097561
 31
0.0
  0
LINE
  5
53
330
1F
100
AcDbEntity
  8
0
  6
Continuous
 62
     7
 48
1.5
370
     0
100
AcDbLine
 10
21.9408774069
 20
15.4486097561
 30
0.0
 11
21.9408774069
 21
16.0576097561
 31
0.0
  0
DIMENSION
  5
54
330
1F
100
AcDbEntity
  8
0
  6
Continuous
 62
     7
 48
1.5
370
     0
100
AcDbDimension
  2
*D1
 10
20.4886593921
 20
5.313833372
 30
0.0
 11
20.4886593921
 21
7.313833372
 31
0.0
 70
   160
 71
     2
 42
-1.0
  3
SLDDIMSTYLE0
100
AcDbAlignedDimension
 13
19.3615492661
 23
9.313833372
 33
0.0
 14
19.3615492661
 24
5.313833372
 34
0.0
 50
90.0
100
AcDbRotatedDimension
  0
INSERT
  5
90
330
1F
100
AcDbEntity
  8
0
  6
Continuous
 62
     7
 48
1.5
370
     0
100
AcDbBlockReference
  2
SW_NOTE_0
 10
7.968025019
 20
13.672796663
 30
0.0
  0
MTEXT
  5
91
330
1F
100
AcDbEntity
  8
0
  6
Continuous
 62
     7
 48
1.5
370
     0
100
AcDbMText
 10
23.4949870082
 20
15.9139745161
 30
0.0
 40
0.28125
 41
0.0
 71
     1
 72
     1
  1
1-31-11
  7
SLDTEXTSTYLE0
 73
     1
 44
1.0
  0
MTEXT
  5
92
330
1F
100
AcDbEntity
  8
0
  6
Continuous
 62
     7
 48
1.5
370
     0
100
AcDbMText
 10
3.3712995443
 20
15.8911328105
 30
0.0
 40
0.28125
 41
0.0
 71
     1
 72
     1
  1
30.5mm PUSHBUTTON ENCLOSURE
  7
SLDTEXTSTYLE0
 73
     1
 44
1.0
  0
MTEXT
  5
93
330
1F
100
AcDbEntity
  8
0
  6
Continuous
 62
     7
 48
1.5
370
     0
100
AcDbMText
 10
16.4067912856
 20
15.8899172663
 30
0.0
 40
0.28125
 41
0.0
 71
     1
 72
     1
  1
SPB-3921
  7
SLDTEXTSTYLE0
 73
     1
 44
1.0
  0
INSERT
  5
99
330
1F
100
AcDbEntity
  8
0
  6
Continuous
 62
     7
 48
1.5
370
     0
100
AcDbBlockReference
  2
SW_NOTE_1
 10
0.7314587803
 20
15.7571400398
 30
0.0
  0
INSERT
  5
9F
330
1F
100
AcDbEntity
  8
0
  6
Continuous
 62
     7
 48
1.5
370
     0
100
AcDbBlockReference
  2
SW_NOTE_2
 10
11.5276723347
 20
15.7502973596
 30
0.0
  0
INSERT
  5
A5
330
1F
100
AcDbEntity
  8
0
  6
Continuous
 62
     7
 48
1.5
370
     0
100
AcDbBlockReference
  2
SW_NOTE_3
 10
22.0629579411
 20
15.7550752909
 30
0.0
  0
CIRCLE
  5
A6
330
1F
100
AcDbEntity
  8
0
  6
Continuous
 62
     7
 48
2.25
370
    15
100
AcDbCircle
 10
2.1844707319
 20
8.688833372
 30
0.0
 40
0.25
  0
CIRCLE
  5
A7
330
1F
100
AcDbEntity
  8
0
  6
Continuous
 62
     7
 48
2.25
370
    15
100
AcDbCircle
 10
4.6844707319
 20
5.938833372
 30
0.0
 40
0.2499999999999991
  0
LINE
  5
A8
330
1F
100
AcDbEntity
  8
0
  6
Continuous
 62
     7
 48
1.5
370
    15
100
AcDbLine
 10
4.7329187587
 20
5.862151982
 30
0.0
 11
4.7071080702
 21
5.9288307183
 31
0.0
  0
LINE
  5
A9
330
1F
100
AcDbEntity
  8
0
  6
Continuous
 62
     7
 48
1.5
370
    15
100
AcDbLine
 10
4.7071080702
 20
5.9288307183
 30
0.0
 11
4.7737868066
 21
5.9546414068
 31
0.0
  0
LINE
  5
AA
330
1F
100
AcDbEntity
  8
0
  6
Continuous
 62
     7
 48
1.5
370
    15
100
AcDbLine
 10
4.7737868066
 20
5.9546414068
 30
0.0
 11
4.7611522059
 21
5.9872814031
 31
0.0
  0
LINE
  5
AB
330
1F
100
AcDbEntity
  8
0
  6
Continuous
 62
     7
 48
1.5
370
    15
100
AcDbLine
 10
4.7611522059
 20
5.9872814031
 30
0.0
 11
4.6944733229
 21
5.9614707146
 31
0.0
  0
LINE
  5
AC
330
1F
100
AcDbEntity
  8
0
  6
Continuous
 62
     7
 48
1.5
370
    15
100
AcDbLine
 10
4.6944733229
 20
5.9614707146
 30
0.0
 11
4.6686626344
 21
6.028149451
 31
0.0
  0
LINE
  5
AD
330
1F
100
AcDbEntity
  8
0
  6
Continuous
 62
     7
 48
1.5
370
    15
100
AcDbLine
 10
4.6686626344
 20
6.028149451
 30
0.0
 11
4.6360227114
 21
6.0155148503
 31
0.0
  0
LINE
  5
AE
330
1F
100
AcDbEntity
  8
0
  6
Continuous
 62
     7
 48
1.5
370
    15
100
AcDbLine
 10
4.6360227114
 20
6.0155148503
 30
0.0
 11
4.6618334733
 21
5.9488359672
 31
0.0
  0
LINE
  5
AF
330
1F
100
AcDbEntity
  8
0
  6
Continuous
 62
     7
 48
1.5
370
    15
100
AcDbLine
 10
4.6618334733
 20
5.9488359672
 30
0.0
 11
4.5951546635
 21
5.9230252787
 31
0.0
  0
LINE
  5
B0
330
1F
100
AcDbEntity
  8
0
  6
Continuous
 62
     7
 48
1.5
370
    15
100
AcDbLine
 10
4.5951546635
 20
5.9230252787
 30
0.0
 11
4.6077893376
 21
5.8903852825
 31
0.0
  0
LINE
  5
B1
330
1F
100
AcDbEntity
  8
0
  6
Continuous
 62
     7
 48
1.5
370
    15
100
AcDbLine
 10
4.6077893376
 20
5.8903852825
 30
0.0
 11
4.674468074
 21
5.9161961176
 31
0.0
  0
LINE
  5
B2
330
1F
100
AcDbEntity
  8
0
  6
Continuous
 62
     7
 48
1.5
370
    15
100
AcDbLine
 10
4.674468074
 20
5.9161961176
 30
0.0
 11
4.7002787625
 21
5.8495173812
 31
0.0
  0
LINE
  5
B3
330
1F
100
AcDbEntity
  8
0
  6
Continuous
 62
     7
 48
1.5
370
    15
100
AcDbLine
 10
4.7002787625
 20
5.8495173812
 30
0.0
 11
4.7329187587
 21
5.862151982
 31
0.0
  0
CIRCLE
  5
B4
330
1F
100
AcDbEntity
  8
0
  6
Continuous
 62
     7
 48
2.25
370
    15
100
AcDbCircle
 10
4.6844707319
 20
5.938833372
 30
0.0
 40
0.1792913385826767
  0
CIRCLE
  5
B5
330
1F
100
AcDbEntity
  8
0
  6
Continuous
 62
     7
 48
2.25
370
    15
100
AcDbCircle
 10
4.6844707319
 20
5.938833372
 30
0.0
 40
0.2100000000000002
  0
CIRCLE
  5
B6
330
1F
100
AcDbEntity
  8
0
  6
Continuous
 62
     7
 48
2.25
370
    15
100
AcDbCircle
 10
4.6844707319
 20
5.938833372
 30
0.0
 40
0.2071135629907588
  0
LINE
  5
B7
330
1F
100
AcDbEntity
  8
0
  6
Continuous
 62
     7
 48
1.5
370
    15
100
AcDbLine
 10
2.1727179877
 20
8.7787729822
 30
0.0
 11
2.1395400243
 21
8.7676273243
 31
0.0
  0
LINE
  5
B8
330
1F
100
AcDbEntity
  8
0
  6
Continuous
 62
     7
 48
1.5
370
    15
100
AcDbLine
 10
2.1954868447
 20
8.7109951385
 30
0.0
 11
2.1727179877
 21
8.7787729822
 31
0.0
  0
LINE
  5
B9
330
1F
100
AcDbEntity
  8
0
  6
Continuous
 62
     7
 48
1.5
370
    15
100
AcDbLine
 10
2.2066325026
 20
8.6778171752
 30
0.0
 11
2.274410273
 21
8.7005860321
 31
0.0
  0
LINE
  5
BA
330
1F
100
AcDbEntity
  8
0
  6
Continuous
 62
     7
 48
1.5
370
    15
100
AcDbLine
 10
2.274410273
 20
8.7005860321
 30
0.0
 11
2.2632646884
 21
8.7337639955
 31
0.0
  0
LINE
  5
BB
330
1F
100
AcDbEntity
  8
0
  6
Continuous
 62
     7
 48
1.5
370
    15
100
AcDbLine
 10
2.2632646884
 20
8.7337639955
 30
0.0
 11
2.1954868447
 21
8.7109951385
 31
0.0
  0
LINE
  5
BC
330
1F
100
AcDbEntity
  8
0
  6
Continuous
 62
     7
 48
1.5
370
    15
100
AcDbLine
 10
2.1056768422
 20
8.6439028069
 30
0.0
 11
2.1734545392
 21
8.6666716639
 31
0.0
  0
LINE
  5
BD
330
1F
100
AcDbEntity
  8
0
  6
Continuous
 62
     7
 48
1.5
370
    15
100
AcDbLine
 10
2.1734545392
 20
8.6666716639
 30
0.0
 11
2.1962233962
 21
8.5988938202
 31
0.0
  0
LINE
  5
BE
330
1F
100
AcDbEntity
  8
0
  6
Continuous
 62
     7
 48
1.5
370
    15
100
AcDbLine
 10
2.1395400243
 20
8.7676273243
 30
0.0
 11
2.162309028
 21
8.6998494806
 31
0.0
  0
LINE
  5
BF
330
1F
100
AcDbEntity
  8
0
  6
Continuous
 62
     7
 48
1.5
370
    15
100
AcDbLine
 10
2.162309028
 20
8.6998494806
 30
0.0
 11
2.0945311843
 21
8.6770806237
 31
0.0
  0
LINE
  5
C0
330
1F
100
AcDbEntity
  8
0
  6
Continuous
 62
     7
 48
1.5
370
    15
100
AcDbLine
 10
2.0945311843
 20
8.6770806237
 30
0.0
 11
2.1056768422
 21
8.6439028069
 31
0.0
  0
LINE
  5
C1
330
1F
100
AcDbEntity
  8
0
  6
Continuous
 62
     7
 48
1.5
370
    15
100
AcDbLine
 10
2.1962233962
 20
8.5988938202
 30
0.0
 11
2.2294013596
 21
8.6100394781
 31
0.0
  0
LINE
  5
C2
330
1F
100
AcDbEntity
  8
0
  6
Continuous
 62
     7
 48
1.5
370
    15
100
AcDbLine
 10
2.2294013596
 20
8.6100394781
 30
0.0
 11
2.2066325026
 21
8.6778171752
 31
0.0
  0
CIRCLE
  5
C3
330
1F
100
AcDbEntity
  8
0
  6
Continuous
 62
     7
 48
2.25
370
    15
100
AcDbCircle
 10
2.1844707319
 20
8.688833372
 30
0.0
 40
0.1792913385826767
  0
CIRCLE
  5
C4
330
1F
100
AcDbEntity
  8
0
  6
Continuous
 62
     7
 48
2.25
370
    15
100
AcDbCircle
 10
2.1844707319
 20
8.688833372
 30
0.0
 40
0.2100000000000001
  0
CIRCLE
  5
C5
330
1F
100
AcDbEntity
  8
0
  6
Continuous
 62
     7
 48
2.25
370
    15
100
AcDbCircle
 10
2.1844707319
 20
8.688833372
 30
0.0
 40
0.2071135629907591
  0
CIRCLE
  5
C6
330
1F
100
AcDbEntity
  8
0
  6
Continuous
 62
     7
 48
2.25
370
    15
100
AcDbCircle
 10
2.1844707319
 20
5.938833372
 30
0.0
 40
0.1792913385826767
  0
LINE
  5
C7
330
1F
100
AcDbEntity
  8
0
  6
Continuous
 62
     7
 48
1.5
370
    15
100
AcDbLine
 10
2.2632646884
 20
5.9837639371
 30
0.0
 11
2.1954868447
 21
5.9609950801
 31
0.0
  0
LINE
  5
C8
330
1F
100
AcDbEntity
  8
0
  6
Continuous
 62
     7
 48
1.5
370
    15
100
AcDbLine
 10
2.1954868447
 20
5.9609950801
 30
0.0
 11
2.1727179877
 21
6.0287729238
 31
0.0
  0
LINE
  5
C9
330
1F
100
AcDbEntity
  8
0
  6
Continuous
 62
     7
 48
1.5
370
    15
100
AcDbLine
 10
2.1727179877
 20
6.0287729238
 30
0.0
 11
2.1395400243
 21
6.0176272659
 31
0.0
  0
LINE
  5
CA
330
1F
100
AcDbEntity
  8
0
  6
Continuous
 62
     7
 48
1.5
370
    15
100
AcDbLine
 10
2.274410273
 20
5.9505861204
 30
0.0
 11
2.2632646884
 21
5.9837639371
 31
0.0
  0
LINE
  5
CB
330
1F
100
AcDbEntity
  8
0
  6
Continuous
 62
     7
 48
1.5
370
    15
100
AcDbLine
 10
2.0945311843
 20
5.9270807119
 30
0.0
 11
2.1056768422
 21
5.8939027485
 31
0.0
  0
LINE
  5
CC
330
1F
100
AcDbEntity
  8
0
  6
Continuous
 62
     7
 48
1.5
370
    15
100
AcDbLine
 10
2.1056768422
 20
5.8939027485
 30
0.0
 11
2.1734545392
 21
5.9166716055
 31
0.0
  0
LINE
  5
CD
330
1F
100
AcDbEntity
  8
0
  6
Continuous
 62
     7
 48
1.5
370
    15
100
AcDbLine
 10
2.1395400243
 20
6.0176272659
 30
0.0
 11
2.162309028
 21
5.9498495689
 31
0.0
  0
LINE
  5
CE
330
1F
100
AcDbEntity
  8
0
  6
Continuous
 62
     7
 48
1.5
370
    15
100
AcDbLine
 10
2.2066325026
 20
5.9278172634
 30
0.0
 11
2.274410273
 21
5.9505861204
 31
0.0
  0
LINE
  5
CF
330
1F
100
AcDbEntity
  8
0
  6
Continuous
 62
     7
 48
1.5
370
    15
100
AcDbLine
 10
2.1734545392
 20
5.9166716055
 30
0.0
 11
2.1962233962
 21
5.8488937618
 31
0.0
  0
LINE
  5
D0
330
1F
100
AcDbEntity
  8
0
  6
Continuous
 62
     7
 48
1.5
370
    15
100
AcDbLine
 10
2.1962233962
 20
5.8488937618
 30
0.0
 11
2.2294013596
 21
5.8600394197
 31
0.0
  0
LINE
  5
D1
330
1F
100
AcDbEntity
  8
0
  6
Continuous
 62
     7
 48
1.5
370
    15
100
AcDbLine
 10
2.162309028
 20
5.9498495689
 30
0.0
 11
2.0945311843
 21
5.9270807119
 31
0.0
  0
LINE
  5
D2
330
1F
100
AcDbEntity
  8
0
  6
Continuous
 62
     7
 48
1.5
370
    15
100
AcDbLine
 10
2.2294013596
 20
5.8600394197
 30
0.0
 11
2.2066325026
 21
5.9278172634
 31
0.0
  0
CIRCLE
  5
D3
330
1F
100
AcDbEntity
  8
0
  6
Continuous
 62
     7
 48
2.25
370
    15
100
AcDbCircle
 10
2.1844707319
 20
5.938833372
 30
0.0
 40
0.2100000000000002
  0
CIRCLE
  5
D4
330
1F
100
AcDbEntity
  8
0
  6
Continuous
 62
     7
 48
2.25
370
    15
100
AcDbCircle
 10
2.1844707319
 20
5.938833372
 30
0.0
 40
0.2071135629907591
  0
CIRCLE
  5
D5
330
1F
100
AcDbEntity
  8
0
  6
Continuous
 62
     7
 48
2.25
370
    15
100
AcDbCircle
 10
4.6844707319
 20
8.688833372
 30
0.0
 40
0.1792913385826782
  0
LINE
  5
D6
330
1F
100
AcDbEntity
  8
0
  6
Continuous
 62
     7
 48
1.5
370
    15
100
AcDbLine
 10
4.6727180675
 20
8.7787729822
 30
0.0
 11
4.6395401041
 21
8.7676273243
 31
0.0
  0
LINE
  5
D7
330
1F
100
AcDbEntity
  8
0
  6
Continuous
 62
     7
 48
1.5
370
    15
100
AcDbLine
 10
4.6395401041
 20
8.7676273243
 30
0.0
 11
4.6623089611
 21
8.6998494806
 31
0.0
  0
LINE
  5
D8
330
1F
100
AcDbEntity
  8
0
  6
Continuous
 62
     7
 48
1.5
370
    15
100
AcDbLine
 10
4.6623089611
 20
8.6998494806
 30
0.0
 11
4.5945311907
 21
8.6770806237
 31
0.0
  0
LINE
  5
D9
330
1F
100
AcDbEntity
  8
0
  6
Continuous
 62
     7
 48
1.5
370
    15
100
AcDbLine
 10
4.7632646215
 20
8.7337639955
 30
0.0
 11
4.6954869245
 21
8.7109951385
 31
0.0
  0
LINE
  5
DA
330
1F
100
AcDbEntity
  8
0
  6
Continuous
 62
     7
 48
1.5
370
    15
100
AcDbLine
 10
4.6954869245
 20
8.7109951385
 30
0.0
 11
4.6727180675
 21
8.7787729822
 31
0.0
  0
LINE
  5
DB
330
1F
100
AcDbEntity
  8
0
  6
Continuous
 62
     7
 48
1.5
370
    15
100
AcDbLine
 10
4.6056767753
 20
8.6439028069
 30
0.0
 11
4.673454619
 21
8.6666716639
 31
0.0
  0
LINE
  5
DC
330
1F
100
AcDbEntity
  8
0
  6
Continuous
 62
     7
 48
1.5
370
    15
100
AcDbLine
 10
4.673454619
 20
8.6666716639
 30
0.0
 11
4.696223476
 21
8.5988938202
 31
0.0
  0
LINE
  5
DD
330
1F
100
AcDbEntity
  8
0
  6
Continuous
 62
     7
 48
1.5
370
    15
100
AcDbLine
 10
4.696223476
 20
8.5988938202
 30
0.0
 11
4.7294014394
 21
8.6100394781
 31
0.0
  0
LINE
  5
DE
330
1F
100
AcDbEntity
  8
0
  6
Continuous
 62
     7
 48
1.5
370
    15
100
AcDbLine
 10
4.5945311907
 20
8.6770806237
 30
0.0
 11
4.6056767753
 21
8.6439028069
 31
0.0
  0
LINE
  5
DF
330
1F
100
AcDbEntity
  8
0
  6
Continuous
 62
     7
 48
1.5
370
    15
100
AcDbLine
 10
4.7744102794
 20
8.7005860321
 30
0.0
 11
4.7632646215
 21
8.7337639955
 31
0.0
  0
LINE
  5
E0
330
1F
100
AcDbEntity
  8
0
  6
Continuous
 62
     7
 48
1.5
370
    15
100
AcDbLine
 10
4.7066324357
 20
8.6778171752
 30
0.0
 11
4.7744102794
 21
8.7005860321
 31
0.0
  0
LINE
  5
E1
330
1F
100
AcDbEntity
  8
0
  6
Continuous
 62
     7
 48
1.5
370
    15
100
AcDbLine
 10
4.7294014394
 20
8.6100394781
 30
0.0
 11
4.7066324357
 21
8.6778171752
 31
0.0
  0
CIRCLE
  5
E2
330
1F
100
AcDbEntity
  8
0
  6
Continuous
 62
     7
 48
2.25
370
    15
100
AcDbCircle
 10
4.6844707319
 20
8.688833372
 30
0.0
 40
0.2071135629907588
  0
CIRCLE
  5
E3
330
1F
100
AcDbEntity
  8
0
  6
Continuous
 62
     7
 48
2.25
370
    15
100
AcDbCircle
 10
4.6844707319
 20
8.688833372
 30
0.0
 40
0.2100000000000017
  0
ARC
  5
E4
330
1F
100
AcDbEntity
  8
0
  6
Continuous
 62
     7
 48
2.25
370
    15
100
AcDbCircle
 10
5.0914707319
 20
5.531833372
 30
0.0
 40
0.0930000000000009
100
AcDbArc
 50
270.0
 51
0.0
  0
LINE
  5
E5
330
1F
100
AcDbEntity
  8
0
  6
Continuous
 62
     7
 48
1.5
370
    15
100
AcDbLine
 10
5.184470729
 20
5.5318334245
 30
0.0
 11
5.184470729
 21
9.0958333195
 31
0.0
  0
ARC
  5
E6
330
1F
100
AcDbEntity
  8
0
  6
Continuous
 62
     7
 48
2.25
370
    15
100
AcDbCircle
 10
1.7774707319
 20
5.531833372
 30
0.0
 40
0.093
100
AcDbArc
 50
180.0
 51
270.0
  0
LINE
  5
E7
330
1F
100
AcDbEntity
  8
0
  6
Continuous
 62
     7
 48
1.5
370
    15
100
AcDbLine
 10
1.6844707347
 20
9.0958333195
 30
0.0
 11
1.6844707347
 21
5.5318334245
 31
0.0
  0
LINE
  5
E8
330
1F
100
AcDbEntity
  8
0
  6
Continuous
 62
     7
 48
1.5
370
    15
100
AcDbLine
 10
1.7774707003
 20
5.4388333122
 30
0.0
 11
5.0914707634
 21
5.4388333122
 31
0.0
  0
ARC
  5
E9
330
1F
100
AcDbEntity
  8
0
  6
Continuous
 62
     7
 48
2.25
370
    15
100
AcDbCircle
 10
3.4344707319
 20
7.313833372
 30
0.0
 40
0.6100000000000007
100
AcDbArc
 50
188.9595832147
 51
261.0404167853
  0
LINE
  5
EA
330
1F
100
AcDbEntity
  8
0
  6
Continuous
 62
     7
 48
1.5
370
    15
100
AcDbLine
 10
3.3394707326
 20
6.7112763195
 30
0.0
 11
3.3394707326
 21
6.6338334008
 31
0.0
  0
LINE
  5
EB
330
1F
100
AcDbEntity
  8
0
  6
Continuous
 62
     7
 48
1.5
370
    15
100
AcDbLine
 10
3.3394707326
 20
6.6338334008
 30
0.0
 11
3.5294707311
 21
6.6338334008
 31
0.0
  0
LINE
  5
EC
330
1F
100
AcDbEntity
  8
0
  6
Continuous
 62
     7
 48
1.5
370
    15
100
AcDbLine
 10
3.5294707311
 20
6.6338334008
 30
0.0
 11
3.5294707311
 21
6.7112763195
 31
0.0
  0
ARC
  5
ED
330
1F
100
AcDbEntity
  8
0
  6
Continuous
 62
     7
 48
2.25
370
    15
100
AcDbCircle
 10
3.4344707319
 20
7.313833372
 30
0.0
 40
0.6100000000000004
100
AcDbArc
 50
278.9595832147
 51
351.0404167853
  0
LINE
  5
EE
330
1F
100
AcDbEntity
  8
0
  6
Continuous
 62
     7
 48
1.5
370
    15
100
AcDbLine
 10
4.0370277844
 20
7.2188333728
 30
0.0
 11
4.1144707031
 21
7.2188333728
 31
0.0
  0
LINE
  5
EF
330
1F
100
AcDbEntity
  8
0
  6
Continuous
 62
     7
 48
1.5
370
    15
100
AcDbLine
 10
4.1144707031
 20
7.2188333728
 30
0.0
 11
4.1144707031
 21
7.4088333712
 31
0.0
  0
LINE
  5
F0
330
1F
100
AcDbEntity
  8
0
  6
Continuous
 62
     7
 48
1.5
370
    15
100
AcDbLine
 10
4.1144707031
 20
7.4088333712
 30
0.0
 11
4.0370277844
 21
7.4088333712
 31
0.0
  0
ARC
  5
F1
330
1F
100
AcDbEntity
  8
0
  6
Continuous
 62
     7
 48
2.25
370
    15
100
AcDbCircle
 10
3.4344707319
 20
7.313833372
 30
0.0
 40
0.61
100
AcDbArc
 50
8.9595832147
 51
81.0404167853
  0
LINE
  5
F2
330
1F
100
AcDbEntity
  8
0
  6
Continuous
 62
     7
 48
1.5
370
    15
100
AcDbLine
 10
3.5294707311
 20
7.9163904246
 30
0.0
 11
3.5294707311
 21
7.9938333433
 31
0.0
  0
LINE
  5
F3
330
1F
100
AcDbEntity
  8
0
  6
Continuous
 62
     7
 48
1.5
370
    15
100
AcDbLine
 10
3.5294707311
 20
7.9938333433
 30
0.0
 11
3.3394707326
 21
7.9938333433
 31
0.0
  0
LINE
  5
F4
330
1F
100
AcDbEntity
  8
0
  6
Continuous
 62
     7
 48
1.5
370
    15
100
AcDbLine
 10
3.3394707326
 20
7.9938333433
 30
0.0
 11
3.3394707326
 21
7.9163904246
 31
0.0
  0
ARC
  5
F5
330
1F
100
AcDbEntity
  8
0
  6
Continuous
 62
     7
 48
2.25
370
    15
100
AcDbCircle
 10
3.4344707319
 20
7.313833372
 30
0.0
 40
0.6100000000000005
100
AcDbArc
 50
98.9595832147
 51
171.0404167853
  0
LINE
  5
F6
330
1F
100
AcDbEntity
  8
0
  6
Continuous
 62
     7
 48
1.5
370
    15
100
AcDbLine
 10
2.8319136793
 20
7.4088333712
 30
0.0
 11
2.7544707606
 21
7.4088333712
 31
0.0
  0
LINE
  5
F7
330
1F
100
AcDbEntity
  8
0
  6
Continuous
 62
     7
 48
1.5
370
    15
100
AcDbLine
 10
2.7544707606
 20
7.4088333712
 30
0.0
 11
2.7544707606
 21
7.2188333728
 31
0.0
  0
LINE
  5
F8
330
1F
100
AcDbEntity
  8
0
  6
Continuous
 62
     7
 48
1.5
370
    15
100
AcDbLine
 10
2.7544707606
 20
7.2188333728
 30
0.0
 11
2.8319136793
 21
7.2188333728
 31
0.0
  0
ARC
  5
F9
330
1F
100
AcDbEntity
  8
0
  6
Continuous
 62
     7
 48
2.25
370
    15
100
AcDbCircle
 10
1.7774707319
 20
9.095833372
 30
0.0
 40
0.0930000000000002
100
AcDbArc
 50
90.0
 51
180.0
  0
ARC
  5
FA
330
1F
100
AcDbEntity
  8
0
  6
Continuous
 62
     7
 48
2.25
370
    15
100
AcDbCircle
 10
5.0914707319
 20
9.095833372
 30
0.0
 40
0.093
100
AcDbArc
 50
0.0
 51
90.0
  0
LINE
  5
FB
330
1F
100
AcDbEntity
  8
0
  6
Continuous
 62
     7
 48
1.5
370
    15
100
AcDbLine
 10
5.0914707634
 20
9.1888334318
 30
0.0
 11
1.7774707003
 21
9.1888334318
 31
0.0
  0
ARC
  5
FC
330
1F
100
AcDbEntity
  8
0
  6
Continuous
 62
     7
 48
2.25
370
    15
100
AcDbCircle
 10
4.6219707319
 20
5.282833372
 30
0.0
 40
0.1095000000000006
100
AcDbArc
 50
180.0
 51
0.0
  0
ARC
  5
FD
330
1F
100
AcDbEntity
  8
0
  6
Continuous
 62
     7
 48
2.25
370
    15
100
AcDbCircle
 10
4.6219707319
 20
5.344833372
 30
0.0
 40
0.1095000000000006
100
AcDbArc
 50
0.0
 51
59.1427113602
  0
ARC
  5
FE
330
1F
100
AcDbEntity
  8
0
  6
Continuous
 62
     7
 48
2.25
370
    15
100
AcDbCircle
 10
4.6219707319
 20
5.344833372
 30
0.0
 40
0.1095000000000005
100
AcDbArc
 50
120.8572886398
 51
180.0
  0
LINE
  5
FF
330
1F
100
AcDbEntity
  8
0
  6
Continuous
 62
     7
 48
1.5
370
    15
100
AcDbLine
 10
2.184470692
 20
5.0638334175
 30
0.0
 11
4.6844707718
 21
5.0638334175
 31
0.0
  0
ARC
  5
100
330
1F
100
AcDbEntity
  8
0
  6
Continuous
 62
     7
 48
2.25
370
    15
100
AcDbCircle
 10
4.6844707319
 20
5.313833372
 30
0.0
 40
0.2499999999999991
100
AcDbArc
 50
270.0
 51
0.0
  0
LINE
  5
101
330
1F
100
AcDbEntity
  8
0
  6
Continuous
 62
     7
 48
1.5
370
    15
100
AcDbLine
 10
4.9344707504
 20
5.3138333962
 30
0.0
 11
4.9344707504
 21
5.4388333122
 31
0.0
  0
LINE
  5
102
330
1F
100
AcDbEntity
  8
0
  6
Continuous
 62
     7
 48
1.5
370
    15
100
AcDbLine
 10
4.7314707355
 20
5.2828334076
 30
0.0
 11
4.7314707355
 21
5.3448333847
 31
0.0
  0
LINE
  5
103
330
1F
100
AcDbEntity
  8
0
  6
Continuous
 62
     7
 48
1.5
370
    15
100
AcDbLine
 10
2.3564707183
 20
5.3448333847
 30
0.0
 11
2.3564707183
 21
5.2828334076
 31
0.0
  0
ARC
  5
104
330
1F
100
AcDbEntity
  8
0
  6
Continuous
 62
     7
 48
2.25
370
    15
100
AcDbCircle
 10
2.2469707319
 20
5.282833372
 30
0.0
 40
0.1095000000000006
100
AcDbArc
 50
180.0
 51
0.0
  0
LINE
  5
105
330
1F
100
AcDbEntity
  8
0
  6
Continuous
 62
     7
 48
1.5
370
    15
100
AcDbLine
 10
2.1374707283
 20
5.2828334076
 30
0.0
 11
2.1374707283
 21
5.3448333847
 31
0.0
  0
ARC
  5
106
330
1F
100
AcDbEntity
  8
0
  6
Continuous
 62
     7
 48
2.25
370
    15
100
AcDbCircle
 10
2.2469707319
 20
5.344833372
 30
0.0
 40
0.1095000000000007
100
AcDbArc
 50
120.8572886398
 51
180.0
  0
ARC
  5
107
330
1F
100
AcDbEntity
  8
0
  6
Continuous
 62
     7
 48
2.25
370
    15
100
AcDbCircle
 10
2.2469707319
 20
5.344833372
 30
0.0
 40
0.1095000000000007
100
AcDbArc
 50
0.0
 51
59.1427113602
  0
ARC
  5
108
330
1F
100
AcDbEntity
  8
0
  6
Continuous
 62
     7
 48
2.25
370
    15
100
AcDbCircle
 10
2.1844707319
 20
5.313833372
 30
0.0
 40
0.2499999999999993
100
AcDbArc
 50
180.0
 51
270.0
  0
LINE
  5
109
330
1F
100
AcDbEntity
  8
0
  6
Continuous
 62
     7
 48
1.5
370
    15
100
AcDbLine
 10
1.9344707133
 20
5.3138333962
 30
0.0
 11
1.9344707133
 21
5.4388333122
 31
0.0
  0
LINE
  5
10A
330
1F
100
AcDbEntity
  8
0
  6
Continuous
 62
     7
 48
1.5
370
    15
100
AcDbLine
 10
4.5124707454
 20
5.3448333847
 30
0.0
 11
4.5124707454
 21
5.2828334076
 31
0.0
  0
LINE
  5
10B
330
1F
100
AcDbEntity
  8
0
  6
Continuous
 62
     7
 48
1.5
370
    15
100
AcDbLine
 10
2.1374707283
 20
9.3448333364
 30
0.0
 11
2.1374707283
 21
9.2828333593
 31
0.0
  0
ARC
  5
10C
330
1F
100
AcDbEntity
  8
0
  6
Continuous
 62
     7
 48
2.25
370
    15
100
AcDbCircle
 10
2.2469707319
 20
9.282833372
 30
0.0
 40
0.1095000000000003
100
AcDbArc
 50
180.0
 51
239.1427113602
  0
ARC
  5
10D
330
1F
100
AcDbEntity
  8
0
  6
Continuous
 62
     7
 48
2.25
370
    15
100
AcDbCircle
 10
2.2469707319
 20
9.282833372
 30
0.0
 40
0.1095000000000006
100
AcDbArc
 50
300.8572886398
 51
0.0
  0
LINE
  5
10E
330
1F
100
AcDbEntity
  8
0
  6
Continuous
 62
     7
 48
1.5
370
    15
100
AcDbLine
 10
4.6844707718
 20
9.5638333265
 30
0.0
 11
2.184470692
 21
9.5638333265
 31
0.0
  0
ARC
  5
10F
330
1F
100
AcDbEntity
  8
0
  6
Continuous
 62
     7
 48
2.25
370
    15
100
AcDbCircle
 10
2.1844707319
 20
9.313833372
 30
0.0
 40
0.2499999999999998
100
AcDbArc
 50
90.0
 51
180.0
  0
LINE
  5
110
330
1F
100
AcDbEntity
  8
0
  6
Continuous
 62
     7
 48
1.5
370
    15
100
AcDbLine
 10
1.9344707133
 20
9.3138333478
 30
0.0
 11
1.9344707133
 21
9.1888334318
 31
0.0
  0
LINE
  5
111
330
1F
100
AcDbEntity
  8
0
  6
Continuous
 62
     7
 48
1.5
370
    15
100
AcDbLine
 10
4.5124707454
 20
9.2828333593
 30
0.0
 11
4.5124707454
 21
9.3448333364
 31
0.0
  0
ARC
  5
112
330
1F
100
AcDbEntity
  8
0
  6
Continuous
 62
     7
 48
2.25
370
    15
100
AcDbCircle
 10
4.6219707319
 20
9.344833372
 30
0.0
 40
0.1094999999999997
100
AcDbArc
 50
0.0
 51
180.0
  0
LINE
  5
113
330
1F
100
AcDbEntity
  8
0
  6
Continuous
 62
     7
 48
1.5
370
    15
100
AcDbLine
 10
4.7314707355
 20
9.3448333364
 30
0.0
 11
4.7314707355
 21
9.2828333593
 31
0.0
  0
ARC
  5
114
330
1F
100
AcDbEntity
  8
0
  6
Continuous
 62
     7
 48
2.25
370
    15
100
AcDbCircle
 10
4.6219707319
 20
9.282833372
 30
0.0
 40
0.109500000000002
100
AcDbArc
 50
300.8572886398
 51
0.0
  0
ARC
  5
115
330
1F
100
AcDbEntity
  8
0
  6
Continuous
 62
     7
 48
2.25
370
    15
100
AcDbCircle
 10
4.6219707319
 20
9.282833372
 30
0.0
 40
0.1095
100
AcDbArc
 50
180.0
 51
239.1427113602
  0
ARC
  5
116
330
1F
100
AcDbEntity
  8
0
  6
Continuous
 62
     7
 48
2.25
370
    15
100
AcDbCircle
 10
4.6844707319
 20
9.313833372
 30
0.0
 40
0.25
100
AcDbArc
 50
0.0
 51
90.0
  0
LINE
  5
117
330
1F
100
AcDbEntity
  8
0
  6
Continuous
 62
     7
 48
1.5
370
    15
100
AcDbLine
 10
4.9344707504
 20
9.3138333478
 30
0.0
 11
4.9344707504
 21
9.1888334318
 31
0.0
  0
LINE
  5
118
330
1F
100
AcDbEntity
  8
0
  6
Continuous
 62
     7
 48
1.5
370
    15
100
AcDbLine
 10
2.3564707183
 20
9.2828333593
 30
0.0
 11
2.3564707183
 21
9.3448333364
 31
0.0
  0
ARC
  5
119
330
1F
100
AcDbEntity
  8
0
  6
Continuous
 62
     7
 48
2.25
370
    15
100
AcDbCircle
 10
2.2469707319
 20
9.344833372
 30
0.0
 40
0.1095000000000006
100
AcDbArc
 50
0.0
 51
180.0
  0
DIMENSION
  5
11A
330
1F
100
AcDbEntity
  8
0
  6
Continuous
 62
     7
 48
1.5
370
     0
100
AcDbDimension
  2
*D6
 10
3.700724696
 20
6.7650084212
 30
0.0
 11
1.4482359025
 21
10.0527374004
 31
0.0
 70
   163
  1
<>
 71
     1
 42
-1.0
  3
SLDDIMSTYLE1
100
AcDbDiametricDimension
 15
3.1682167678
 25
7.8626583228
 35
0.0
 40
0.0
  0
DIMENSION
  5
12B
330
1F
100
AcDbEntity
  8
0
  6
Continuous
 62
     7
 48
1.5
370
     0
100
AcDbDimension
  2
*D7
 10
3.5294707319
 20
10.1543845531
 30
0.0
 11
4.4115404801
 21
10.1543845531
 31
0.0
 70
   160
 71
     2
 42
-1.0
  3
SLDDIMSTYLE2
100
AcDbAlignedDimension
 13
3.3394707319
 23
7.993833372
 33
0.0
 14
3.5294707319
 24
7.993833372
 34
0.0
100
AcDbRotatedDimension
  0
DIMENSION
  5
13E
330
1F
100
AcDbEntity
  8
0
  6
Continuous
 62
     7
 48
1.5
370
     0
100
AcDbDimension
  2
*D8
 10
5.775021913
 20
6.633833372
 30
0.0
 11
5.775021913
 21
7.313833372
 31
0.0
 70
   160
 71
     2
 42
-1.0
  3
SLDDIMSTYLE3
100
AcDbAlignedDimension
 13
3.5294707319
 23
7.993833372
 33
0.0
 14
3.5294707319
 24
6.633833372
 34
0.0
 50
90.0
100
AcDbRotatedDimension
  0
INSERT
  5
159
102
{ACAD_REACTORS
330
15B
102
}
330
1F
100
AcDbEntity
  8
0
  6
Continuous
 62
     7
 48
1.5
370
     0
100
AcDbBlockReference
  2
SW_NOTE_4
 10
1.5507648594
 20
3.8463085292
 30
0.0
  0
LEADER
  5
15B
330
1F
100
AcDbEntity
  8
0
  6
Continuous
 62
     7
 48
1.5
370
     0
100
AcDbLeader
  3
SLDDIMSTYLE4
 73
     2
 76
     3
 10
2.0800740209
 20
5.7599553277
 30
0.0
 10
1.1757648594
 20
3.8463085292
 30
0.0
 10
1.5507648594
 20
3.8463085292
 30
0.0
340
159
  0
INSERT
  5
163
330
1F
100
AcDbEntity
  8
0
  6
Continuous
 62
     7
 48
1.5
370
     0
100
AcDbBlockReference
  2
SW_CENTERMARKSYMBOL_0
 10
3.4344707319
 20
7.313833372
 30
0.0
  0
ARC
  5
164
330
1F
100
AcDbEntity
  8
0
  6
Continuous
 62
     7
 48
2.25
370
    15
100
AcDbCircle
 10
11.7244026738
 20
8.453833372
 30
0.0
 40
0.0150000000000006
100
AcDbArc
 50
270.0
 51
0.0
  0
ARC
  5
165
330
1F
100
AcDbEntity
  8
0
  6
Continuous
 62
     7
 48
2.25
370
    15
100
AcDbCircle
 10
11.7244026738
 20
8.923833372
 30
0.0
 40
0.0150000000000006
100
AcDbArc
 50
0.0
 51
90.0
  0
LINE
  5
166
330
1F
100
AcDbEntity
  8
0
  6
Continuous
 62
     7
 48
1.5
370
    15
100
AcDbLine
 10
11.7244028049
 20
8.9388333065
 30
0.0
 11
11.6844025737
 21
8.9388333065
 31
0.0
  0
LINE
  5
167
330
1F
100
AcDbEntity
  8
0
  6
Continuous
 62
     7
 48
1.5
370
    15
100
AcDbLine
 10
11.6844025737
 20
8.4388333492
 30
0.0
 11
11.7244028049
 21
8.4388333492
 31
0.0
  0
ARC
  5
168
330
1F
100
AcDbEntity
  8
0
  6
Continuous
 62
     7
 48
2.25
370
    15
100
AcDbCircle
 10
11.6844026738
 20
8.453833372
 30
0.0
 40
0.0150000000000006
100
AcDbArc
 50
180.0
 51
270.0
  0
ARC
  5
169
330
1F
100
AcDbEntity
  8
0
  6
Continuous
 62
     7
 48
2.25
370
    15
100
AcDbCircle
 10
11.6844026738
 20
8.923833372
 30
0.0
 40
0.0150000000000006
100
AcDbArc
 50
90.0
 51
180.0
  0
ARC
  5
16A
330
1F
100
AcDbEntity
  8
0
  6
Continuous
 62
     7
 48
2.25
370
    15
100
AcDbCircle
 10
11.7244026738
 20
5.703833372
 30
0.0
 40
0.0150000000000006
100
AcDbArc
 50
270.0
 51
0.0
  0
ARC
  5
16B
330
1F
100
AcDbEntity
  8
0
  6
Continuous
 62
     7
 48
2.25
370
    15
100
AcDbCircle
 10
11.7244026738
 20
6.173833372
 30
0.0
 40
0.0150000000000006
100
AcDbArc
 50
0.0
 51
90.0
  0
ARC
  5
16C
330
1F
100
AcDbEntity
  8
0
  6
Continuous
 62
     7
 48
2.25
370
    15
100
AcDbCircle
 10
11.6844026738
 20
5.703833372
 30
0.0
 40
0.0150000000000006
100
AcDbArc
 50
180.0
 51
270.0
  0
ARC
  5
16D
330
1F
100
AcDbEntity
  8
0
  6
Continuous
 62
     7
 48
2.25
370
    15
100
AcDbCircle
 10
11.6844026738
 20
6.173833372
 30
0.0
 40
0.0150000000000006
100
AcDbArc
 50
90.0
 51
180.0
  0
LINE
  5
16E
330
1F
100
AcDbEntity
  8
0
  6
Continuous
 62
     7
 48
1.5
370
    15
100
AcDbLine
 10
11.7244028049
 20
6.1888333948
 30
0.0
 11
11.6844025737
 21
6.1888333948
 31
0.0
  0
LINE
  5
16F
330
1F
100
AcDbEntity
  8
0
  6
Continuous
 62
     7
 48
1.5
370
    15
100
AcDbLine
 10
11.6844025737
 20
5.6888334375
 30
0.0
 11
11.7244028049
 21
5.6888334375
 31
0.0
  0
LINE
  5
170
330
1F
100
AcDbEntity
  8
0
  6
Continuous
 62
     7
 48
1.5
370
    15
100
AcDbLine
 10
11.6694025603
 20
6.1488333835
 30
0.0
 11
11.6364105681
 21
6.1459469435
 31
0.0
  0
LINE
  5
171
330
1F
100
AcDbEntity
  8
0
  6
Continuous
 62
     7
 48
1.5
370
    15
100
AcDbLine
 10
11.6364105681
 20
5.7317197421
 30
0.0
 11
11.6694025603
 21
5.7288333754
 31
0.0
  0
ARC
  5
172
330
1F
100
AcDbEntity
  8
0
  6
Continuous
 62
     7
 48
2.25
370
    15
100
AcDbCircle
 10
11.6321585793
 20
5.8382821909
 30
0.0
 40
0.0787401574803166
100
AcDbArc
 50
180.0
 51
270.0
  0
ARC
  5
173
330
1F
100
AcDbEntity
  8
0
  6
Continuous
 62
     7
 48
2.25
370
    15
100
AcDbCircle
 10
11.6321585793
 20
6.0393845531
 30
0.0
 40
0.0787401574803166
100
AcDbArc
 50
90.0
 51
180.0
  0
LINE
  5
174
330
1F
100
AcDbEntity
  8
0
  6
Continuous
 62
     7
 48
1.5
370
    15
100
AcDbLine
 10
11.6364105681
 20
6.1181247449
 30
0.0
 11
11.6321584572
 21
6.1181247449
 31
0.0
  0
LINE
  5
175
330
1F
100
AcDbEntity
  8
0
  6
Continuous
 62
     7
 48
1.5
370
    15
100
AcDbLine
 10
11.6321584572
 20
5.7595420873
 30
0.0
 11
11.6364105681
 21
5.7595420873
 31
0.0
  0
LINE
  5
176
330
1F
100
AcDbEntity
  8
0
  6
Continuous
 62
     7
 48
1.5
370
    15
100
AcDbLine
 10
11.6694025603
 20
8.8988333686
 30
0.0
 11
11.6364105681
 21
8.895947002
 31
0.0
  0
LINE
  5
177
330
1F
100
AcDbEntity
  8
0
  6
Continuous
 62
     7
 48
1.5
370
    15
100
AcDbLine
 10
11.6364105681
 20
8.4817198005
 30
0.0
 11
11.6694025603
 21
8.4788333605
 31
0.0
  0
LINE
  5
178
330
1F
100
AcDbEntity
  8
0
  6
Continuous
 62
     7
 48
1.5
370
    15
100
AcDbLine
 10
11.6364105681
 20
8.8681246567
 30
0.0
 11
11.6321584572
 21
8.8681246567
 31
0.0
  0
LINE
  5
179
330
1F
100
AcDbEntity
  8
0
  6
Continuous
 62
     7
 48
1.5
370
    15
100
AcDbLine
 10
11.6321584572
 20
8.5095419991
 30
0.0
 11
11.6364105681
 21
8.5095419991
 31
0.0
  0
ARC
  5
17A
330
1F
100
AcDbEntity
  8
0
  6
Continuous
 62
     7
 48
2.25
370
    15
100
AcDbCircle
 10
11.6321585793
 20
8.5882821909
 30
0.0
 40
0.0787401574803148
100
AcDbArc
 50
180.0
 51
270.0
  0
ARC
  5
17B
330
1F
100
AcDbEntity
  8
0
  6
Continuous
 62
     7
 48
2.25
370
    15
100
AcDbCircle
 10
11.6321585793
 20
8.7893845531
 30
0.0
 40
0.0787401574803148
100
AcDbArc
 50
90.0
 51
180.0
  0
LINE
  5
17C
330
1F
100
AcDbEntity
  8
0
  6
Continuous
 62
     7
 48
1.5
370
    15
100
AcDbLine
 10
11.7394028183
 20
8.8988333686
 30
0.0
 11
11.7064105328
 21
8.895947002
 31
0.0
  0
LINE
  5
17D
330
1F
100
AcDbEntity
  8
0
  6
Continuous
 62
     7
 48
1.5
370
    15
100
AcDbLine
 10
11.7064105328
 20
8.4817198005
 30
0.0
 11
11.7394028183
 21
8.4788333605
 31
0.0
  0
ARC
  5
17E
330
1F
100
AcDbEntity
  8
0
  6
Continuous
 62
     7
 48
2.25
370
    15
100
AcDbCircle
 10
11.7021585793
 20
8.5882821909
 30
0.0
 40
0.0787401574803148
100
AcDbArc
 50
180.0
 51
270.0
  0
ARC
  5
17F
330
1F
100
AcDbEntity
  8
0
  6
Continuous
 62
     7
 48
2.25
370
    15
100
AcDbCircle
 10
11.7021585793
 20
8.7893845531
 30
0.0
 40
0.0787401574803148
100
AcDbArc
 50
90.0
 51
180.0
  0
LINE
  5
180
330
1F
100
AcDbEntity
  8
0
  6
Continuous
 62
     7
 48
1.5
370
    15
100
AcDbLine
 10
11.7064105328
 20
8.8681246567
 30
0.0
 11
11.7021587152
 21
8.8681246567
 31
0.0
  0
LINE
  5
181
330
1F
100
AcDbEntity
  8
0
  6
Continuous
 62
     7
 48
1.5
370
    15
100
AcDbLine
 10
11.7021587152
 20
8.5095419991
 30
0.0
 11
11.7064105328
 21
8.5095419991
 31
0.0
  0
LINE
  5
182
330
1F
100
AcDbEntity
  8
0
  6
Continuous
 62
     7
 48
1.5
370
    15
100
AcDbLine
 10
11.6694025603
 20
8.4538333626
 30
0.0
 11
11.6694025603
 21
8.5166786433
 31
0.0
  0
LINE
  5
183
330
1F
100
AcDbEntity
  8
0
  6
Continuous
 62
     7
 48
1.5
370
    15
100
AcDbLine
 10
11.6694025603
 20
8.8609880858
 30
0.0
 11
11.6694025603
 21
8.9238334398
 31
0.0
  0
LINE
  5
184
330
1F
100
AcDbEntity
  8
0
  6
Continuous
 62
     7
 48
1.5
370
    15
100
AcDbLine
 10
11.6694025603
 20
5.7038333042
 30
0.0
 11
11.6694025603
 21
6.1738333814
 31
0.0
  0
LINE
  5
185
330
1F
100
AcDbEntity
  8
0
  6
Continuous
 62
     7
 48
1.5
370
    15
100
AcDbLine
 10
11.6364105681
 20
5.7456854741
 30
0.0
 11
11.6364105681
 21
6.1459469435
 31
0.0
  0
LINE
  5
186
330
1F
100
AcDbEntity
  8
0
  6
Continuous
 62
     7
 48
1.5
370
    15
100
AcDbLine
 10
11.6364105681
 20
5.7317197421
 30
0.0
 11
11.6364105681
 21
5.7456854741
 31
0.0
  0
LINE
  5
187
330
1F
100
AcDbEntity
  8
0
  6
Continuous
 62
     7
 48
1.5
370
    15
100
AcDbLine
 10
11.5534184335
 20
5.8450624327
 30
0.0
 11
11.5534184335
 21
6.0393845746
 31
0.0
  0
LINE
  5
188
330
1F
100
AcDbEntity
  8
0
  6
Continuous
 62
     7
 48
1.5
370
    15
100
AcDbLine
 10
11.5534184335
 20
5.8382822577
 30
0.0
 11
11.5534184335
 21
5.8450624327
 31
0.0
  0
LINE
  5
189
330
1F
100
AcDbEntity
  8
0
  6
Continuous
 62
     7
 48
1.5
370
    15
100
AcDbLine
 10
11.6364105681
 20
8.4925018759
 30
0.0
 11
11.6364105681
 21
8.54495543
 31
0.0
  0
LINE
  5
18A
330
1F
100
AcDbEntity
  8
0
  6
Continuous
 62
     7
 48
1.5
370
    15
100
AcDbLine
 10
11.6364105681
 20
8.8327113725
 30
0.0
 11
11.6364105681
 21
8.895947002
 31
0.0
  0
LINE
  5
18B
330
1F
100
AcDbEntity
  8
0
  6
Continuous
 62
     7
 48
1.5
370
    15
100
AcDbLine
 10
11.6364105681
 20
8.4817198005
 30
0.0
 11
11.6364105681
 21
8.4925018759
 31
0.0
  0
LINE
  5
18C
330
1F
100
AcDbEntity
  8
0
  6
Continuous
 62
     7
 48
1.5
370
    15
100
AcDbLine
 10
11.5534184335
 20
8.593516789
 30
0.0
 11
11.5534184335
 21
8.7893844863
 31
0.0
  0
LINE
  5
18D
330
1F
100
AcDbEntity
  8
0
  6
Continuous
 62
     7
 48
1.5
370
    15
100
AcDbLine
 10
11.5534184335
 20
8.5882821695
 30
0.0
 11
11.5534184335
 21
8.593516789
 31
0.0
  0
LINE
  5
18E
330
1F
100
AcDbEntity
  8
0
  6
Continuous
 62
     7
 48
1.5
370
    15
100
AcDbLine
 10
11.7064105328
 20
8.4925018759
 30
0.0
 11
11.7064105328
 21
8.895947002
 31
0.0
  0
LINE
  5
18F
330
1F
100
AcDbEntity
  8
0
  6
Continuous
 62
     7
 48
1.5
370
    15
100
AcDbLine
 10
11.7064105328
 20
8.4817198005
 30
0.0
 11
11.7064105328
 21
8.4925018759
 31
0.0
  0
LINE
  5
190
330
1F
100
AcDbEntity
  8
0
  6
Continuous
 62
     7
 48
1.5
370
    15
100
AcDbLine
 10
11.6234183982
 20
8.593516789
 30
0.0
 11
11.6234183982
 21
8.7893844863
 31
0.0
  0
LINE
  5
191
330
1F
100
AcDbEntity
  8
0
  6
Continuous
 62
     7
 48
1.5
370
    15
100
AcDbLine
 10
11.6234183982
 20
8.5882821695
 30
0.0
 11
11.6234183982
 21
8.593516789
 31
0.0
  0
LINE
  5
192
330
1F
100
AcDbEntity
  8
0
  6
Continuous
 62
     7
 48
1.5
370
    15
100
AcDbLine
 10
11.832402784
 20
9.1888334318
 30
0.0
 11
12.239402629
 21
9.1888334318
 31
0.0
  0
LINE
  5
193
330
1F
100
AcDbEntity
  8
0
  6
Continuous
 62
     7
 48
1.5
370
    15
100
AcDbLine
 10
12.239402629
 20
9.1888334318
 30
0.0
 11
12.239402629
 21
9.0958333195
 31
0.0
  0
LINE
  5
194
330
1F
100
AcDbEntity
  8
0
  6
Continuous
 62
     7
 48
1.5
370
    15
100
AcDbLine
 10
12.239402629
 20
5.5318334245
 30
0.0
 11
12.239402629
 21
9.0958333195
 31
0.0
  0
ARC
  5
195
330
1F
100
AcDbEntity
  8
0
  6
Continuous
 62
     7
 48
2.25
370
    15
100
AcDbCircle
 10
11.8324026738
 20
9.095833372
 30
0.0
 40
0.0929999999999982
100
AcDbArc
 50
90.0
 51
180.0
  0
LINE
  5
196
330
1F
100
AcDbEntity
  8
0
  6
Continuous
 62
     7
 48
1.5
370
    15
100
AcDbLine
 10
12.239402629
 20
5.4388333122
 30
0.0
 11
11.832402784
 21
5.4388333122
 31
0.0
  0
LINE
  5
197
330
1F
100
AcDbEntity
  8
0
  6
Continuous
 62
     7
 48
1.5
370
    15
100
AcDbLine
 10
12.239402629
 20
5.5318334245
 30
0.0
 11
12.239402629
 21
5.4388333122
 31
0.0
  0
LINE
  5
198
330
1F
100
AcDbEntity
  8
0
  6
Continuous
 62
     7
 48
1.5
370
    15
100
AcDbLine
 10
11.7394028183
 20
9.0958333195
 30
0.0
 11
11.7394028183
 21
5.5318334245
 31
0.0
  0
ARC
  5
199
330
1F
100
AcDbEntity
  8
0
  6
Continuous
 62
     7
 48
2.25
370
    15
100
AcDbCircle
 10
11.8324026738
 20
5.531833372
 30
0.0
 40
0.0930000000000009
100
AcDbArc
 50
180.0
 51
270.0
  0
LINE
  5
19A
330
1F
100
AcDbEntity
  8
0
  6
Continuous
 62
     7
 48
1.5
370
    15
100
AcDbLine
 10
14.7454026719
 20
5.0638334175
 30
0.0
 11
14.7454026719
 21
5.3138333962
 31
0.0
  0
LINE
  5
19B
330
1F
100
AcDbEntity
  8
0
  6
Continuous
 62
     7
 48
1.5
370
    15
100
AcDbLine
 10
14.7454026719
 20
5.0638334175
 30
0.0
 11
14.6674026738
 21
5.0638334175
 31
0.0
  0
LINE
  5
19C
330
1F
100
AcDbEntity
  8
0
  6
Continuous
 62
     7
 48
1.5
370
    15
100
AcDbLine
 10
14.6674026738
 20
5.0638334175
 30
0.0
 11
14.6674026738
 21
5.3138333962
 31
0.0
  0
LINE
  5
19D
330
1F
100
AcDbEntity
  8
0
  6
Continuous
 62
     7
 48
1.5
370
    15
100
AcDbLine
 10
14.7454026719
 20
6.5638333627
 30
0.0
 11
14.6674026738
 21
6.5638333627
 31
0.0
  0
LINE
  5
19E
330
1F
100
AcDbEntity
  8
0
  6
Continuous
 62
     7
 48
1.5
370
    15
100
AcDbLine
 10
14.7454026719
 20
5.3138333962
 30
0.0
 11
14.7454026719
 21
6.5638333627
 31
0.0
  0
LINE
  5
19F
330
1F
100
AcDbEntity
  8
0
  6
Continuous
 62
     7
 48
1.5
370
    15
100
AcDbLine
 10
14.6674026738
 20
5.3138333962
 30
0.0
 11
14.6674026738
 21
5.6568333405
 31
0.0
  0
LINE
  5
1A0
330
1F
100
AcDbEntity
  8
0
  6
Continuous
 62
     7
 48
1.5
370
    15
100
AcDbLine
 10
14.7454026719
 20
9.5638333265
 30
0.0
 11
14.6674026738
 21
9.5638333265
 31
0.0
  0
LINE
  5
1A1
330
1F
100
AcDbEntity
  8
0
  6
Continuous
 62
     7
 48
1.5
370
    15
100
AcDbLine
 10
14.7454026719
 20
9.5638333265
 30
0.0
 11
14.7454026719
 21
9.3138333478
 31
0.0
  0
LINE
  5
1A2
330
1F
100
AcDbEntity
  8
0
  6
Continuous
 62
     7
 48
1.5
370
    15
100
AcDbLine
 10
14.6674026738
 20
9.5638333265
 30
0.0
 11
14.6674026738
 21
9.3138333478
 31
0.0
  0
LINE
  5
1A3
330
1F
100
AcDbEntity
  8
0
  6
Continuous
 62
     7
 48
1.5
370
    15
100
AcDbLine
 10
14.7454026719
 20
9.3138333478
 30
0.0
 11
14.7454026719
 21
8.0638333813
 31
0.0
  0
LINE
  5
1A4
330
1F
100
AcDbEntity
  8
0
  6
Continuous
 62
     7
 48
1.5
370
    15
100
AcDbLine
 10
14.6674026738
 20
9.3138333478
 30
0.0
 11
14.6674026738
 21
8.9708334035
 31
0.0
  0
LINE
  5
1A5
330
1F
100
AcDbEntity
  8
0
  6
Continuous
 62
     7
 48
1.5
370
    15
100
AcDbLine
 10
14.7454026719
 20
8.0638333813
 30
0.0
 11
14.6674026738
 21
8.0638333813
 31
0.0
  0
LINE
  5
1A6
330
1F
100
AcDbEntity
  8
0
  6
Continuous
 62
     7
 48
1.5
370
    15
100
AcDbLine
 10
14.5744026715
 20
5.5638333748
 30
0.0
 11
12.239402629
 21
5.5638333748
 31
0.0
  0
LINE
  5
1A7
330
1F
100
AcDbEntity
  8
0
  6
Continuous
 62
     7
 48
1.5
370
    15
100
AcDbLine
 10
12.239402629
 20
9.0638333692
 30
0.0
 11
14.5744026715
 21
9.0638333692
 31
0.0
  0
ARC
  5
1A8
330
1F
100
AcDbEntity
  8
0
  6
Continuous
 62
     7
 48
2.25
370
    15
100
AcDbCircle
 10
14.5744026738
 20
5.656833372
 30
0.0
 40
0.0930000000000017
100
AcDbArc
 50
270.0
 51
0.0
  0
ARC
  5
1A9
330
1F
100
AcDbEntity
  8
0
  6
Continuous
 62
     7
 48
2.25
370
    15
100
AcDbCircle
 10
14.5744026738
 20
8.970833372
 30
0.0
 40
0.0930000000000017
100
AcDbArc
 50
0.0
 51
90.0
  0
LINE
  5
1AA
330
1F
100
AcDbEntity
  8
0
  6
Continuous
 62
     7
 48
1.5
370
    15
100
AcDbLine
 10
14.6674026738
 20
5.6568333405
 30
0.0
 11
14.6674026738
 21
8.9708334035
 31
0.0
  0
LINE
  5
1AB
330
1F
100
AcDbEntity
  8
0
  6
HIDDEN
 62
     7
 48
1.5
370
     0
100
AcDbLine
 10
11.809402783
 20
6.1738333814
 30
0.0
 11
11.809402783
 21
5.7038333042
 31
0.0
  0
LINE
  5
1AC
330
1F
100
AcDbEntity
  8
0
  6
HIDDEN
 62
     7
 48
1.5
370
     0
100
AcDbLine
 10
11.809402783
 20
8.9238334398
 30
0.0
 11
11.809402783
 21
8.4538333626
 31
0.0
  0
LINE
  5
1AD
330
1F
100
AcDbEntity
  8
0
  6
HIDDEN
 62
     7
 48
1.5
370
     0
100
AcDbLine
 10
11.6694025603
 20
8.5166786433
 30
0.0
 11
11.6694025603
 21
8.8609880858
 31
0.0
  0
LINE
  5
1AE
330
1F
100
AcDbEntity
  8
0
  6
HIDDEN
 62
     7
 48
1.5
370
     0
100
AcDbLine
 10
12.217582841
 20
5.8474414852
 30
0.0
 11
12.217582841
 21
6.0368333374
 31
0.0
  0
LINE
  5
1AF
330
1F
100
AcDbEntity
  8
0
  6
HIDDEN
 62
     7
 48
1.5
370
     0
100
AcDbLine
 10
12.217582841
 20
5.8408333482
 30
0.0
 11
12.217582841
 21
5.8474414852
 31
0.0
  0
LINE
  5
1B0
330
1F
100
AcDbEntity
  8
0
  6
HIDDEN
 62
     7
 48
1.5
370
     0
100
AcDbLine
 10
12.2993239234
 20
5.8790166938
 30
0.0
 11
12.2993239234
 21
6.0029751418
 31
0.0
  0
LINE
  5
1B1
330
1F
100
AcDbEntity
  8
0
  6
HIDDEN
 62
     7
 48
1.5
370
     0
100
AcDbLine
 10
12.2993239234
 20
5.8746916904
 30
0.0
 11
12.2993239234
 21
5.8790166938
 31
0.0
  0
LINE
  5
1B2
330
1F
100
AcDbEntity
  8
0
  6
HIDDEN
 62
     7
 48
1.5
370
     0
100
AcDbLine
 10
11.9449930833
 20
6.0368333374
 30
0.0
 11
11.9449930833
 21
5.8408333482
 31
0.0
  0
LINE
  5
1B3
330
1F
100
AcDbEntity
  8
0
  6
HIDDEN
 62
     7
 48
1.5
370
     0
100
AcDbLine
 10
11.5764025947
 20
5.9288307183
 30
0.0
 11
11.5764025947
 21
5.9546414068
 31
0.0
  0
LINE
  5
1B4
330
1F
100
AcDbEntity
  8
0
  6
HIDDEN
 62
     7
 48
1.5
370
     0
100
AcDbLine
 10
11.5764025947
 20
5.9546414068
 30
0.0
 11
11.5534184335
 21
5.9546414068
 31
0.0
  0
LINE
  5
1B5
330
1F
100
AcDbEntity
  8
0
  6
HIDDEN
 62
     7
 48
1.5
370
     0
100
AcDbLine
 10
11.5764025947
 20
5.9546414068
 30
0.0
 11
11.5764025947
 21
5.9872814031
 31
0.0
  0
LINE
  5
1B6
330
1F
100
AcDbEntity
  8
0
  6
HIDDEN
 62
     7
 48
1.5
370
     0
100
AcDbLine
 10
11.5764025947
 20
5.9614707146
 30
0.0
 11
11.5534184335
 21
5.9614707146
 31
0.0
  0
LINE
  5
1B7
330
1F
100
AcDbEntity
  8
0
  6
HIDDEN
 62
     7
 48
1.5
370
     0
100
AcDbLine
 10
11.5764025947
 20
5.9872814031
 30
0.0
 11
11.5534184335
 21
5.9872814031
 31
0.0
  0
LINE
  5
1B8
330
1F
100
AcDbEntity
  8
0
  6
HIDDEN
 62
     7
 48
1.5
370
     0
100
AcDbLine
 10
11.5764025947
 20
5.8495173812
 30
0.0
 11
11.5764025947
 21
5.862151982
 31
0.0
  0
LINE
  5
1B9
330
1F
100
AcDbEntity
  8
0
  6
HIDDEN
 62
     7
 48
1.5
370
     0
100
AcDbLine
 10
11.5764025947
 20
5.862151982
 30
0.0
 11
11.5534184335
 21
5.862151982
 31
0.0
  0
LINE
  5
1BA
330
1F
100
AcDbEntity
  8
0
  6
HIDDEN
 62
     7
 48
1.5
370
     0
100
AcDbLine
 10
11.5764025947
 20
5.9288307183
 30
0.0
 11
11.5534184335
 21
5.9288307183
 31
0.0
  0
LINE
  5
1BB
330
1F
100
AcDbEntity
  8
0
  6
HIDDEN
 62
     7
 48
1.5
370
     0
100
AcDbLine
 10
11.5764025947
 20
5.862151982
 30
0.0
 11
11.5764025947
 21
5.9288307183
 31
0.0
  0
LINE
  5
1BC
330
1F
100
AcDbEntity
  8
0
  6
HIDDEN
 62
     7
 48
1.5
370
     0
100
AcDbLine
 10
11.5764025947
 20
5.9161961176
 30
0.0
 11
11.5534184335
 21
5.9161961176
 31
0.0
  0
LINE
  5
1BD
330
1F
100
AcDbEntity
  8
0
  6
HIDDEN
 62
     7
 48
1.5
370
     0
100
AcDbLine
 10
11.5764025947
 20
5.8495173812
 30
0.0
 11
11.5534184335
 21
5.8495173812
 31
0.0
  0
LINE
  5
1BE
330
1F
100
AcDbEntity
  8
0
  6
HIDDEN
 62
     7
 48
1.5
370
     0
100
AcDbLine
 10
11.5764025947
 20
5.9872814031
 30
0.0
 11
11.5764025947
 21
6.028149451
 31
0.0
  0
LINE
  5
1BF
330
1F
100
AcDbEntity
  8
0
  6
HIDDEN
 62
     7
 48
1.5
370
     0
100
AcDbLine
 10
11.5764025947
 20
6.0155148503
 30
0.0
 11
11.5534184335
 21
6.0155148503
 31
0.0
  0
LINE
  5
1C0
330
1F
100
AcDbEntity
  8
0
  6
HIDDEN
 62
     7
 48
1.5
370
     0
100
AcDbLine
 10
11.5764025947
 20
6.028149451
 30
0.0
 11
11.5534184335
 21
6.028149451
 31
0.0
  0
LINE
  5
1C1
330
1F
100
AcDbEntity
  8
0
  6
HIDDEN
 62
     7
 48
1.5
370
     0
100
AcDbLine
 10
11.5764025947
 20
5.9488359672
 30
0.0
 11
11.5534184335
 21
5.9488359672
 31
0.0
  0
LINE
  5
1C2
330
1F
100
AcDbEntity
  8
0
  6
HIDDEN
 62
     7
 48
1.5
370
     0
100
AcDbLine
 10
11.5764025947
 20
5.9230252787
 30
0.0
 11
11.5534184335
 21
5.9230252787
 31
0.0
  0
LINE
  5
1C3
330
1F
100
AcDbEntity
  8
0
  6
HIDDEN
 62
     7
 48
1.5
370
     0
100
AcDbLine
 10
11.5764025947
 20
5.8903852825
 30
0.0
 11
11.5534184335
 21
5.8903852825
 31
0.0
  0
LINE
  5
1C4
330
1F
100
AcDbEntity
  8
0
  6
HIDDEN
 62
     7
 48
1.5
370
     0
100
AcDbLine
 10
11.6364105681
 20
8.54495543
 30
0.0
 11
11.6364105681
 21
8.8327113725
 31
0.0
  0
LINE
  5
1C5
330
1F
100
AcDbEntity
  8
0
  6
HIDDEN
 62
     7
 48
1.5
370
     0
100
AcDbLine
 10
12.217582841
 20
8.5959351477
 30
0.0
 11
12.217582841
 21
8.7868333958
 31
0.0
  0
LINE
  5
1C6
330
1F
100
AcDbEntity
  8
0
  6
HIDDEN
 62
     7
 48
1.5
370
     0
100
AcDbLine
 10
12.217582841
 20
8.5908334067
 30
0.0
 11
12.217582841
 21
8.5959351477
 31
0.0
  0
LINE
  5
1C7
330
1F
100
AcDbEntity
  8
0
  6
HIDDEN
 62
     7
 48
1.5
370
     0
100
AcDbLine
 10
12.2993239234
 20
8.6280307236
 30
0.0
 11
12.2993239234
 21
8.7529750536
 31
0.0
  0
LINE
  5
1C8
330
1F
100
AcDbEntity
  8
0
  6
HIDDEN
 62
     7
 48
1.5
370
     0
100
AcDbLine
 10
12.2993239234
 20
8.6246916022
 30
0.0
 11
12.2993239234
 21
8.6280307236
 31
0.0
  0
LINE
  5
1C9
330
1F
100
AcDbEntity
  8
0
  6
HIDDEN
 62
     7
 48
1.5
370
     0
100
AcDbLine
 10
11.9449930833
 20
8.7868333958
 30
0.0
 11
11.9449930833
 21
8.5908334067
 31
0.0
  0
LINE
  5
1CA
330
1F
100
AcDbEntity
  8
0
  6
HIDDEN
 62
     7
 48
1.5
370
     0
100
AcDbLine
 10
11.5764025947
 20
8.6778171752
 30
0.0
 11
11.5764025947
 21
8.7005860321
 31
0.0
  0
LINE
  5
1CB
330
1F
100
AcDbEntity
  8
0
  6
HIDDEN
 62
     7
 48
1.5
370
     0
100
AcDbLine
 10
11.5764025947
 20
8.7005860321
 30
0.0
 11
11.5534184335
 21
8.7005860321
 31
0.0
  0
LINE
  5
1CC
330
1F
100
AcDbEntity
  8
0
  6
HIDDEN
 62
     7
 48
1.5
370
     0
100
AcDbLine
 10
11.5764025947
 20
8.7005860321
 30
0.0
 11
11.5764025947
 21
8.7337639955
 31
0.0
  0
LINE
  5
1CD
330
1F
100
AcDbEntity
  8
0
  6
HIDDEN
 62
     7
 48
1.5
370
     0
100
AcDbLine
 10
11.5764025947
 20
8.7109951385
 30
0.0
 11
11.5534184335
 21
8.7109951385
 31
0.0
  0
LINE
  5
1CE
330
1F
100
AcDbEntity
  8
0
  6
HIDDEN
 62
     7
 48
1.5
370
     0
100
AcDbLine
 10
11.5764025947
 20
8.7337639955
 30
0.0
 11
11.5534184335
 21
8.7337639955
 31
0.0
  0
LINE
  5
1CF
330
1F
100
AcDbEntity
  8
0
  6
HIDDEN
 62
     7
 48
1.5
370
     0
100
AcDbLine
 10
11.5764025947
 20
8.5988938202
 30
0.0
 11
11.5764025947
 21
8.6100394781
 31
0.0
  0
LINE
  5
1D0
330
1F
100
AcDbEntity
  8
0
  6
HIDDEN
 62
     7
 48
1.5
370
     0
100
AcDbLine
 10
11.5764025947
 20
8.6100394781
 30
0.0
 11
11.5534184335
 21
8.6100394781
 31
0.0
  0
LINE
  5
1D1
330
1F
100
AcDbEntity
  8
0
  6
HIDDEN
 62
     7
 48
1.5
370
     0
100
AcDbLine
 10
11.5764025947
 20
8.6778171752
 30
0.0
 11
11.5534184335
 21
8.6778171752
 31
0.0
  0
LINE
  5
1D2
330
1F
100
AcDbEntity
  8
0
  6
HIDDEN
 62
     7
 48
1.5
370
     0
100
AcDbLine
 10
11.5764025947
 20
8.6100394781
 30
0.0
 11
11.5764025947
 21
8.6778171752
 31
0.0
  0
LINE
  5
1D3
330
1F
100
AcDbEntity
  8
0
  6
HIDDEN
 62
     7
 48
1.5
370
     0
100
AcDbLine
 10
11.5764025947
 20
8.6666716639
 30
0.0
 11
11.5534184335
 21
8.6666716639
 31
0.0
  0
LINE
  5
1D4
330
1F
100
AcDbEntity
  8
0
  6
HIDDEN
 62
     7
 48
1.5
370
     0
100
AcDbLine
 10
11.5764025947
 20
8.5988938202
 30
0.0
 11
11.5534184335
 21
8.5988938202
 31
0.0
  0
LINE
  5
1D5
330
1F
100
AcDbEntity
  8
0
  6
HIDDEN
 62
     7
 48
1.5
370
     0
100
AcDbLine
 10
11.5764025947
 20
8.7337639955
 30
0.0
 11
11.5764025947
 21
8.7787729822
 31
0.0
  0
LINE
  5
1D6
330
1F
100
AcDbEntity
  8
0
  6
HIDDEN
 62
     7
 48
1.5
370
     0
100
AcDbLine
 10
11.5764025947
 20
8.7676273243
 30
0.0
 11
11.5534184335
 21
8.7676273243
 31
0.0
  0
LINE
  5
1D7
330
1F
100
AcDbEntity
  8
0
  6
HIDDEN
 62
     7
 48
1.5
370
     0
100
AcDbLine
 10
11.5764025947
 20
8.7787729822
 30
0.0
 11
11.5534184335
 21
8.7787729822
 31
0.0
  0
LINE
  5
1D8
330
1F
100
AcDbEntity
  8
0
  6
HIDDEN
 62
     7
 48
1.5
370
     0
100
AcDbLine
 10
11.5764025947
 20
8.6998494806
 30
0.0
 11
11.5534184335
 21
8.6998494806
 31
0.0
  0
LINE
  5
1D9
330
1F
100
AcDbEntity
  8
0
  6
HIDDEN
 62
     7
 48
1.5
370
     0
100
AcDbLine
 10
11.5764025947
 20
8.6770806237
 30
0.0
 11
11.5534184335
 21
8.6770806237
 31
0.0
  0
LINE
  5
1DA
330
1F
100
AcDbEntity
  8
0
  6
HIDDEN
 62
     7
 48
1.5
370
     0
100
AcDbLine
 10
11.5764025947
 20
8.6439028069
 30
0.0
 11
11.5534184335
 21
8.6439028069
 31
0.0
  0
LINE
  5
1DB
330
1F
100
AcDbEntity
  8
0
  6
HIDDEN
 62
     7
 48
1.5
370
     0
100
AcDbLine
 10
11.7064105328
 20
5.7425019642
 30
0.0
 11
11.7064105328
 21
6.1459469435
 31
0.0
  0
LINE
  5
1DC
330
1F
100
AcDbEntity
  8
0
  6
HIDDEN
 62
     7
 48
1.5
370
     0
100
AcDbLine
 10
11.7064105328
 20
5.7317197421
 30
0.0
 11
11.7064105328
 21
5.7425019642
 31
0.0
  0
LINE
  5
1DD
330
1F
100
AcDbEntity
  8
0
  6
HIDDEN
 62
     7
 48
1.5
370
     0
100
AcDbLine
 10
11.6234183982
 20
5.8435167306
 30
0.0
 11
11.6234183982
 21
6.0393845746
 31
0.0
  0
LINE
  5
1DE
330
1F
100
AcDbEntity
  8
0
  6
HIDDEN
 62
     7
 48
1.5
370
     0
100
AcDbLine
 10
11.6234183982
 20
5.8382822577
 30
0.0
 11
11.6234183982
 21
5.8435167306
 31
0.0
  0
LINE
  5
1DF
330
1F
100
AcDbEntity
  8
0
  6
HIDDEN
 62
     7
 48
1.5
370
     0
100
AcDbLine
 10
12.2875828057
 20
5.8459350893
 30
0.0
 11
12.2875828057
 21
6.0368333374
 31
0.0
  0
LINE
  5
1E0
330
1F
100
AcDbEntity
  8
0
  6
HIDDEN
 62
     7
 48
1.5
370
     0
100
AcDbLine
 10
12.2875828057
 20
5.8408333482
 30
0.0
 11
12.2875828057
 21
5.8459350893
 31
0.0
  0
LINE
  5
1E1
330
1F
100
AcDbEntity
  8
0
  6
HIDDEN
 62
     7
 48
1.5
370
     0
100
AcDbLine
 10
12.3693238881
 20
5.8780308119
 30
0.0
 11
12.3693238881
 21
6.0029751418
 31
0.0
  0
LINE
  5
1E2
330
1F
100
AcDbEntity
  8
0
  6
HIDDEN
 62
     7
 48
1.5
370
     0
100
AcDbLine
 10
12.3693238881
 20
5.8746916904
 30
0.0
 11
12.3693238881
 21
5.8780308119
 31
0.0
  0
LINE
  5
1E3
330
1F
100
AcDbEntity
  8
0
  6
HIDDEN
 62
     7
 48
1.5
370
     0
100
AcDbLine
 10
12.0149933414
 20
6.0368333374
 30
0.0
 11
12.0149933414
 21
5.8408333482
 31
0.0
  0
LINE
  5
1E4
330
1F
100
AcDbEntity
  8
0
  6
HIDDEN
 62
     7
 48
1.5
370
     0
100
AcDbLine
 10
11.6464025593
 20
5.9278172634
 30
0.0
 11
11.6464025593
 21
5.9505861204
 31
0.0
  0
LINE
  5
1E5
330
1F
100
AcDbEntity
  8
0
  6
HIDDEN
 62
     7
 48
1.5
370
     0
100
AcDbLine
 10
11.6464025593
 20
5.9505861204
 30
0.0
 11
11.6234183982
 21
5.9505861204
 31
0.0
  0
LINE
  5
1E6
330
1F
100
AcDbEntity
  8
0
  6
HIDDEN
 62
     7
 48
1.5
370
     0
100
AcDbLine
 10
11.6464025593
 20
5.9505861204
 30
0.0
 11
11.6464025593
 21
5.9837639371
 31
0.0
  0
LINE
  5
1E7
330
1F
100
AcDbEntity
  8
0
  6
HIDDEN
 62
     7
 48
1.5
370
     0
100
AcDbLine
 10
11.6464025593
 20
5.9609950801
 30
0.0
 11
11.6234183982
 21
5.9609950801
 31
0.0
  0
LINE
  5
1E8
330
1F
100
AcDbEntity
  8
0
  6
HIDDEN
 62
     7
 48
1.5
370
     0
100
AcDbLine
 10
11.6464025593
 20
5.9837639371
 30
0.0
 11
11.6234183982
 21
5.9837639371
 31
0.0
  0
LINE
  5
1E9
330
1F
100
AcDbEntity
  8
0
  6
HIDDEN
 62
     7
 48
1.5
370
     0
100
AcDbLine
 10
11.6464025593
 20
5.8488937618
 30
0.0
 11
11.6464025593
 21
5.8600394197
 31
0.0
  0
LINE
  5
1EA
330
1F
100
AcDbEntity
  8
0
  6
HIDDEN
 62
     7
 48
1.5
370
     0
100
AcDbLine
 10
11.6464025593
 20
5.8600394197
 30
0.0
 11
11.6234183982
 21
5.8600394197
 31
0.0
  0
LINE
  5
1EB
330
1F
100
AcDbEntity
  8
0
  6
HIDDEN
 62
     7
 48
1.5
370
     0
100
AcDbLine
 10
11.6464025593
 20
5.9278172634
 30
0.0
 11
11.6234183982
 21
5.9278172634
 31
0.0
  0
LINE
  5
1EC
330
1F
100
AcDbEntity
  8
0
  6
HIDDEN
 62
     7
 48
1.5
370
     0
100
AcDbLine
 10
11.6464025593
 20
5.8600394197
 30
0.0
 11
11.6464025593
 21
5.9278172634
 31
0.0
  0
LINE
  5
1ED
330
1F
100
AcDbEntity
  8
0
  6
HIDDEN
 62
     7
 48
1.5
370
     0
100
AcDbLine
 10
11.6464025593
 20
5.9166716055
 30
0.0
 11
11.6234183982
 21
5.9166716055
 31
0.0
  0
LINE
  5
1EE
330
1F
100
AcDbEntity
  8
0
  6
HIDDEN
 62
     7
 48
1.5
370
     0
100
AcDbLine
 10
11.6464025593
 20
5.8488937618
 30
0.0
 11
11.6234183982
 21
5.8488937618
 31
0.0
  0
LINE
  5
1EF
330
1F
100
AcDbEntity
  8
0
  6
HIDDEN
 62
     7
 48
1.5
370
     0
100
AcDbLine
 10
11.6464025593
 20
5.9837639371
 30
0.0
 11
11.6464025593
 21
6.0287729238
 31
0.0
  0
LINE
  5
1F0
330
1F
100
AcDbEntity
  8
0
  6
HIDDEN
 62
     7
 48
1.5
370
     0
100
AcDbLine
 10
11.6464025593
 20
6.0176272659
 30
0.0
 11
11.6234183982
 21
6.0176272659
 31
0.0
  0
LINE
  5
1F1
330
1F
100
AcDbEntity
  8
0
  6
HIDDEN
 62
     7
 48
1.5
370
     0
100
AcDbLine
 10
11.6464025593
 20
6.0287729238
 30
0.0
 11
11.6234183982
 21
6.0287729238
 31
0.0
  0
LINE
  5
1F2
330
1F
100
AcDbEntity
  8
0
  6
HIDDEN
 62
     7
 48
1.5
370
     0
100
AcDbLine
 10
11.6464025593
 20
5.9498495689
 30
0.0
 11
11.6234183982
 21
5.9498495689
 31
0.0
  0
LINE
  5
1F3
330
1F
100
AcDbEntity
  8
0
  6
HIDDEN
 62
     7
 48
1.5
370
     0
100
AcDbLine
 10
11.6464025593
 20
5.9270807119
 30
0.0
 11
11.6234183982
 21
5.9270807119
 31
0.0
  0
LINE
  5
1F4
330
1F
100
AcDbEntity
  8
0
  6
HIDDEN
 62
     7
 48
1.5
370
     0
100
AcDbLine
 10
11.6464025593
 20
5.8939027485
 30
0.0
 11
11.6234183982
 21
5.8939027485
 31
0.0
  0
LINE
  5
1F5
330
1F
100
AcDbEntity
  8
0
  6
HIDDEN
 62
     7
 48
1.5
370
     0
100
AcDbLine
 10
12.2875828057
 20
8.5959351477
 30
0.0
 11
12.2875828057
 21
8.7868333958
 31
0.0
  0
LINE
  5
1F6
330
1F
100
AcDbEntity
  8
0
  6
HIDDEN
 62
     7
 48
1.5
370
     0
100
AcDbLine
 10
12.2875828057
 20
8.5908334067
 30
0.0
 11
12.2875828057
 21
8.5959351477
 31
0.0
  0
LINE
  5
1F7
330
1F
100
AcDbEntity
  8
0
  6
HIDDEN
 62
     7
 48
1.5
370
     0
100
AcDbLine
 10
12.3693238881
 20
8.6280307236
 30
0.0
 11
12.3693238881
 21
8.7529750536
 31
0.0
  0
LINE
  5
1F8
330
1F
100
AcDbEntity
  8
0
  6
HIDDEN
 62
     7
 48
1.5
370
     0
100
AcDbLine
 10
12.3693238881
 20
8.6246916022
 30
0.0
 11
12.3693238881
 21
8.6280307236
 31
0.0
  0
LINE
  5
1F9
330
1F
100
AcDbEntity
  8
0
  6
HIDDEN
 62
     7
 48
1.5
370
     0
100
AcDbLine
 10
12.0149933414
 20
8.7868333958
 30
0.0
 11
12.0149933414
 21
8.5908334067
 31
0.0
  0
LINE
  5
1FA
330
1F
100
AcDbEntity
  8
0
  6
HIDDEN
 62
     7
 48
1.5
370
     0
100
AcDbLine
 10
11.6464025593
 20
8.7005860321
 30
0.0
 11
11.6464025593
 21
8.7337639955
 31
0.0
  0
LINE
  5
1FB
330
1F
100
AcDbEntity
  8
0
  6
HIDDEN
 62
     7
 48
1.5
370
     0
100
AcDbLine
 10
11.6464025593
 20
8.7005860321
 30
0.0
 11
11.6234183982
 21
8.7005860321
 31
0.0
  0
LINE
  5
1FC
330
1F
100
AcDbEntity
  8
0
  6
HIDDEN
 62
     7
 48
1.5
370
     0
100
AcDbLine
 10
11.6464025593
 20
8.6778171752
 30
0.0
 11
11.6464025593
 21
8.7005860321
 31
0.0
  0
LINE
  5
1FD
330
1F
100
AcDbEntity
  8
0
  6
HIDDEN
 62
     7
 48
1.5
370
     0
100
AcDbLine
 10
11.6464025593
 20
8.7109951385
 30
0.0
 11
11.6234183982
 21
8.7109951385
 31
0.0
  0
LINE
  5
1FE
330
1F
100
AcDbEntity
  8
0
  6
HIDDEN
 62
     7
 48
1.5
370
     0
100
AcDbLine
 10
11.6464025593
 20
8.7337639955
 30
0.0
 11
11.6234183982
 21
8.7337639955
 31
0.0
  0
LINE
  5
1FF
330
1F
100
AcDbEntity
  8
0
  6
HIDDEN
 62
     7
 48
1.5
370
     0
100
AcDbLine
 10
11.6464025593
 20
8.5988938202
 30
0.0
 11
11.6464025593
 21
8.6100394781
 31
0.0
  0
LINE
  5
200
330
1F
100
AcDbEntity
  8
0
  6
HIDDEN
 62
     7
 48
1.5
370
     0
100
AcDbLine
 10
11.6464025593
 20
8.6100394781
 30
0.0
 11
11.6234183982
 21
8.6100394781
 31
0.0
  0
LINE
  5
201
330
1F
100
AcDbEntity
  8
0
  6
HIDDEN
 62
     7
 48
1.5
370
     0
100
AcDbLine
 10
11.6464025593
 20
8.6778171752
 30
0.0
 11
11.6234183982
 21
8.6778171752
 31
0.0
  0
LINE
  5
202
330
1F
100
AcDbEntity
  8
0
  6
HIDDEN
 62
     7
 48
1.5
370
     0
100
AcDbLine
 10
11.6464025593
 20
8.6100394781
 30
0.0
 11
11.6464025593
 21
8.6778171752
 31
0.0
  0
LINE
  5
203
330
1F
100
AcDbEntity
  8
0
  6
HIDDEN
 62
     7
 48
1.5
370
     0
100
AcDbLine
 10
11.6464025593
 20
8.6666716639
 30
0.0
 11
11.6234183982
 21
8.6666716639
 31
0.0
  0
LINE
  5
204
330
1F
100
AcDbEntity
  8
0
  6
HIDDEN
 62
     7
 48
1.5
370
     0
100
AcDbLine
 10
11.6464025593
 20
8.5988938202
 30
0.0
 11
11.6234183982
 21
8.5988938202
 31
0.0
  0
LINE
  5
205
330
1F
100
AcDbEntity
  8
0
  6
HIDDEN
 62
     7
 48
1.5
370
     0
100
AcDbLine
 10
11.6464025593
 20
8.7337639955
 30
0.0
 11
11.6464025593
 21
8.7787729822
 31
0.0
  0
LINE
  5
206
330
1F
100
AcDbEntity
  8
0
  6
HIDDEN
 62
     7
 48
1.5
370
     0
100
AcDbLine
 10
11.6464025593
 20
8.7676273243
 30
0.0
 11
11.6234183982
 21
8.7676273243
 31
0.0
  0
LINE
  5
207
330
1F
100
AcDbEntity
  8
0
  6
HIDDEN
 62
     7
 48
1.5
370
     0
100
AcDbLine
 10
11.6464025593
 20
8.7787729822
 30
0.0
 11
11.6234183982
 21
8.7787729822
 31
0.0
  0
LINE
  5
208
330
1F
100
AcDbEntity
  8
0
  6
HIDDEN
 62
     7
 48
1.5
370
     0
100
AcDbLine
 10
11.6464025593
 20
8.6998494806
 30
0.0
 11
11.6234183982
 21
8.6998494806
 31
0.0
  0
LINE
  5
209
330
1F
100
AcDbEntity
  8
0
  6
HIDDEN
 62
     7
 48
1.5
370
     0
100
AcDbLine
 10
11.6464025593
 20
8.6770806237
 30
0.0
 11
11.6234183982
 21
8.6770806237
 31
0.0
  0
LINE
  5
20A
330
1F
100
AcDbEntity
  8
0
  6
HIDDEN
 62
     7
 48
1.5
370
     0
100
AcDbLine
 10
11.6464025593
 20
8.6439028069
 30
0.0
 11
11.6234183982
 21
8.6439028069
 31
0.0
  0
LINE
  5
20B
330
1F
100
AcDbEntity
  8
0
  6
HIDDEN
 62
     7
 48
1.5
370
     0
100
AcDbLine
 10
11.8174027706
 20
5.5328333863
 30
0.0
 11
11.9174027621
 21
5.5328333863
 31
0.0
  0
LINE
  5
20C
330
1F
100
AcDbEntity
  8
0
  6
HIDDEN
 62
     7
 48
1.5
370
     0
100
AcDbLine
 10
11.8174027706
 20
9.0948333577
 30
0.0
 11
11.9174027621
 21
9.0948333577
 31
0.0
  0
LINE
  5
20D
330
1F
100
AcDbEntity
  8
0
  6
HIDDEN
 62
     7
 48
1.5
370
     0
100
AcDbLine
 10
11.9174027621
 20
9.0948333577
 30
0.0
 11
11.9174027621
 21
5.5328333863
 31
0.0
  0
LINE
  5
20E
330
1F
100
AcDbEntity
  8
0
  6
HIDDEN
 62
     7
 48
1.5
370
     0
100
AcDbLine
 10
11.8174027706
 20
8.2828333714
 30
0.0
 11
11.9174027621
 21
8.2828333714
 31
0.0
  0
LINE
  5
20F
330
1F
100
AcDbEntity
  8
0
  6
HIDDEN
 62
     7
 48
1.5
370
     0
100
AcDbLine
 10
11.8174027706
 20
6.3448333726
 30
0.0
 11
11.9174027621
 21
6.3448333726
 31
0.0
  0
LINE
  5
210
330
1F
100
AcDbEntity
  8
0
  6
HIDDEN
 62
     7
 48
1.5
370
     0
100
AcDbLine
 10
11.8174027706
 20
8.7198333164
 30
0.0
 11
11.9174027621
 21
8.7198333164
 31
0.0
  0
LINE
  5
211
330
1F
100
AcDbEntity
  8
0
  6
HIDDEN
 62
     7
 48
1.5
370
     0
100
AcDbLine
 10
11.8174027706
 20
5.9078334276
 30
0.0
 11
11.9174027621
 21
5.9078334276
 31
0.0
  0
LINE
  5
212
330
1F
100
AcDbEntity
  8
0
  6
HIDDEN
 62
     7
 48
1.5
370
     0
100
AcDbLine
 10
11.832402784
 20
9.1108333329
 30
0.0
 11
12.239402629
 21
9.1108333329
 31
0.0
  0
ARC
  5
213
330
1F
100
AcDbEntity
  8
0
  6
HIDDEN
 62
     7
 48
2.25
370
     0
100
AcDbCircle
 10
11.8324026738
 20
9.095833372
 30
0.0
 40
0.0150000000000006
100
AcDbArc
 50
90.0
 51
180.0
  0
LINE
  5
214
330
1F
100
AcDbEntity
  8
0
  6
HIDDEN
 62
     7
 48
1.5
370
     0
100
AcDbLine
 10
11.8174027706
 20
9.0958333195
 30
0.0
 11
11.8174027706
 21
5.5318334245
 31
0.0
  0
LINE
  5
215
330
1F
100
AcDbEntity
  8
0
  6
HIDDEN
 62
     7
 48
1.5
370
     0
100
AcDbLine
 10
12.239402629
 20
5.5168334111
 30
0.0
 11
11.832402784
 21
5.5168334111
 31
0.0
  0
ARC
  5
216
330
1F
100
AcDbEntity
  8
0
  6
HIDDEN
 62
     7
 48
2.25
370
     0
100
AcDbCircle
 10
11.8324026738
 20
5.531833372
 30
0.0
 40
0.0150000000000015
100
AcDbArc
 50
180.0
 51
270.0
  0
LINE
  5
217
330
1F
100
AcDbEntity
  8
0
  6
HIDDEN
 62
     7
 48
1.5
370
     0
100
AcDbLine
 10
11.8174027706
 20
7.2188333728
 30
0.0
 11
11.7394028183
 21
7.2188333728
 31
0.0
  0
LINE
  5
218
330
1F
100
AcDbEntity
  8
0
  6
HIDDEN
 62
     7
 48
1.5
370
     0
100
AcDbLine
 10
11.8174027706
 20
7.4088333712
 30
0.0
 11
11.7394028183
 21
7.4088333712
 31
0.0
  0
LINE
  5
219
330
1F
100
AcDbEntity
  8
0
  6
HIDDEN
 62
     7
 48
1.5
370
     0
100
AcDbLine
 10
11.8174027706
 20
7.9163904246
 30
0.0
 11
11.7394028183
 21
7.9163904246
 31
0.0
  0
LINE
  5
21A
330
1F
100
AcDbEntity
  8
0
  6
HIDDEN
 62
     7
 48
1.5
370
     0
100
AcDbLine
 10
11.8174027706
 20
7.9938333433
 30
0.0
 11
11.7394028183
 21
7.9938333433
 31
0.0
  0
LINE
  5
21B
330
1F
100
AcDbEntity
  8
0
  6
HIDDEN
 62
     7
 48
1.5
370
     0
100
AcDbLine
 10
11.8174027706
 20
6.7112763195
 30
0.0
 11
11.7394028183
 21
6.7112763195
 31
0.0
  0
LINE
  5
21C
330
1F
100
AcDbEntity
  8
0
  6
HIDDEN
 62
     7
 48
1.5
370
     0
100
AcDbLine
 10
11.8174027706
 20
6.6338334008
 30
0.0
 11
11.7394028183
 21
6.6338334008
 31
0.0
  0
LINE
  5
21D
330
1F
100
AcDbEntity
  8
0
  6
HIDDEN
 62
     7
 48
1.5
370
     0
100
AcDbLine
 10
14.4909774719
 20
7.0165892691
 30
0.0
 11
14.4909774719
 21
6.6110774503
 31
0.0
  0
LINE
  5
21E
330
1F
100
AcDbEntity
  8
0
  6
HIDDEN
 62
     7
 48
1.5
370
     0
100
AcDbLine
 10
14.1169617359
 20
6.9909987248
 30
0.0
 11
14.1169617359
 21
6.6366679947
 31
0.0
  0
LINE
  5
21F
330
1F
100
AcDbEntity
  8
0
  6
HIDDEN
 62
     7
 48
1.5
370
     0
100
AcDbLine
 10
11.8780326035
 20
8.8856838272
 30
0.0
 11
11.8780326035
 21
8.4919829753
 31
0.0
  0
LINE
  5
220
330
1F
100
AcDbEntity
  8
0
  6
HIDDEN
 62
     7
 48
1.5
370
     0
100
AcDbLine
 10
12.50795382
 20
8.8266285894
 30
0.0
 11
12.50795382
 21
8.5510380664
 31
0.0
  0
LINE
  5
221
330
1F
100
AcDbEntity
  8
0
  6
HIDDEN
 62
     7
 48
1.5
370
     0
100
AcDbLine
 10
12.0355129443
 20
8.8068333647
 30
0.0
 11
12.0355129443
 21
8.5708334377
 31
0.0
  0
LINE
  5
222
330
1F
100
AcDbEntity
  8
0
  6
HIDDEN
 62
     7
 48
1.5
370
     0
100
AcDbLine
 10
12.372387866
 20
8.7872585775
 30
0.0
 11
12.372387866
 21
8.5904082249
 31
0.0
  0
LINE
  5
223
330
1F
100
AcDbEntity
  8
0
  6
HIDDEN
 62
     7
 48
1.5
370
     0
100
AcDbLine
 10
11.8780326035
 20
6.1356837688
 30
0.0
 11
11.8780326035
 21
5.7419829168
 31
0.0
  0
LINE
  5
224
330
1F
100
AcDbEntity
  8
0
  6
HIDDEN
 62
     7
 48
1.5
370
     0
100
AcDbLine
 10
12.50795382
 20
6.0766286776
 30
0.0
 11
12.50795382
 21
5.8010381546
 31
0.0
  0
LINE
  5
225
330
1F
100
AcDbEntity
  8
0
  6
HIDDEN
 62
     7
 48
1.5
370
     0
100
AcDbLine
 10
12.0355129443
 20
6.0568333063
 30
0.0
 11
12.0355129443
 21
5.8208333793
 31
0.0
  0
LINE
  5
226
330
1F
100
AcDbEntity
  8
0
  6
HIDDEN
 62
     7
 48
1.5
370
     0
100
AcDbLine
 10
12.372387866
 20
6.0372585191
 30
0.0
 11
12.372387866
 21
5.8404081665
 31
0.0
  0
LINE
  5
227
330
1F
100
AcDbEntity
  8
0
  6
HIDDEN
 62
     7
 48
1.5
370
     0
100
AcDbLine
 10
12.239402629
 20
5.5638333748
 30
0.0
 11
12.0104027277
 21
5.5638333748
 31
0.0
  0
LINE
  5
228
330
1F
100
AcDbEntity
  8
0
  6
HIDDEN
 62
     7
 48
1.5
370
     0
100
AcDbLine
 10
12.0104027277
 20
9.0638333692
 30
0.0
 11
12.239402629
 21
9.0638333692
 31
0.0
  0
ARC
  5
229
330
1F
100
AcDbEntity
  8
0
  6
HIDDEN
 62
     7
 48
2.25
370
     0
100
AcDbCircle
 10
12.0104026738
 20
5.656833372
 30
0.0
 40
0.0930000000000017
100
AcDbArc
 50
180.0
 51
270.0
  0
ARC
  5
22A
330
1F
100
AcDbEntity
  8
0
  6
HIDDEN
 62
     7
 48
2.25
370
     0
100
AcDbCircle
 10
12.0104026738
 20
8.970833372
 30
0.0
 40
0.093
100
AcDbArc
 50
90.0
 51
180.0
  0
LINE
  5
22B
330
1F
100
AcDbEntity
  8
0
  6
HIDDEN
 62
     7
 48
1.5
370
     0
100
AcDbLine
 10
14.5744026715
 20
5.6418333271
 30
0.0
 11
12.0104027277
 21
5.6418333271
 31
0.0
  0
LINE
  5
22C
330
1F
100
AcDbEntity
  8
0
  6
HIDDEN
 62
     7
 48
1.5
370
     0
100
AcDbLine
 10
12.0104027277
 20
8.9858334169
 30
0.0
 11
14.5744026715
 21
8.9858334169
 31
0.0
  0
ARC
  5
22D
330
1F
100
AcDbEntity
  8
0
  6
HIDDEN
 62
     7
 48
2.25
370
     0
100
AcDbCircle
 10
14.5744026738
 20
5.656833372
 30
0.0
 40
0.0150000000000006
100
AcDbArc
 50
270.0
 51
0.0
  0
LINE
  5
22E
330
1F
100
AcDbEntity
  8
0
  6
HIDDEN
 62
     7
 48
1.5
370
     0
100
AcDbLine
 10
11.9954027143
 20
5.6418333271
 30
0.0
 11
11.9954027143
 21
5.6568333405
 31
0.0
  0
LINE
  5
22F
330
1F
100
AcDbEntity
  8
0
  6
HIDDEN
 62
     7
 48
1.5
370
     0
100
AcDbLine
 10
11.9954027143
 20
8.9858334169
 30
0.0
 11
11.9954027143
 21
8.9708334035
 31
0.0
  0
LINE
  5
230
330
1F
100
AcDbEntity
  8
0
  6
HIDDEN
 62
     7
 48
1.5
370
     0
100
AcDbLine
 10
11.9954027143
 20
8.9708334035
 30
0.0
 11
11.9954027143
 21
5.6568333405
 31
0.0
  0
LINE
  5
231
330
1F
100
AcDbEntity
  8
0
  6
HIDDEN
 62
     7
 48
1.5
370
     0
100
AcDbLine
 10
11.9954027143
 20
5.6418333271
 30
0.0
 11
12.0104027277
 21
5.6418333271
 31
0.0
  0
LINE
  5
232
330
1F
100
AcDbEntity
  8
0
  6
HIDDEN
 62
     7
 48
1.5
370
     0
100
AcDbLine
 10
11.9954027143
 20
8.9858334169
 30
0.0
 11
12.0104027277
 21
8.9858334169
 31
0.0
  0
LINE
  5
233
330
1F
100
AcDbEntity
  8
0
  6
HIDDEN
 62
     7
 48
1.5
370
     0
100
AcDbLine
 10
14.5894026757
 20
5.6568333405
 30
0.0
 11
14.5894026757
 21
8.9708334035
 31
0.0
  0
ARC
  5
234
330
1F
100
AcDbEntity
  8
0
  6
HIDDEN
 62
     7
 48
2.25
370
     0
100
AcDbCircle
 10
14.5744026738
 20
8.970833372
 30
0.0
 40
0.0150000000000041
100
AcDbArc
 50
0.0
 51
90.0
  0
ARC
  5
235
330
1F
100
AcDbEntity
  8
0
  6
HIDDEN
 62
     7
 48
2.25
370
     0
100
AcDbCircle
 10
12.0104026738
 20
5.656833372
 30
0.0
 40
0.0150000000000006
100
AcDbArc
 50
180.0
 51
270.0
  0
ARC
  5
236
330
1F
100
AcDbEntity
  8
0
  6
HIDDEN
 62
     7
 48
2.25
370
     0
100
AcDbCircle
 10
12.0104026738
 20
8.970833372
 30
0.0
 40
0.0150000000000023
100
AcDbArc
 50
90.0
 51
180.0
  0
LINE
  5
237
330
1F
100
AcDbEntity
  8
0
  6
HIDDEN
 62
     7
 48
1.5
370
     0
100
AcDbLine
 10
11.9954027143
 20
8.375833337
 30
0.0
 11
11.9174027621
 21
8.375833337
 31
0.0
  0
LINE
  5
238
330
1F
100
AcDbEntity
  8
0
  6
HIDDEN
 62
     7
 48
1.5
370
     0
100
AcDbLine
 10
11.9954027143
 20
6.251833407
 30
0.0
 11
11.9174027621
 21
6.251833407
 31
0.0
  0
ARC
  5
239
330
1F
100
AcDbEntity
  8
0
  6
HIDDEN
 62
     7
 48
2.25
370
     0
100
AcDbCircle
 10
11.8484026738
 20
8.813833372
 30
0.0
 40
0.0310000000000006
100
AcDbArc
 50
0.0
 51
180.0
  0
ARC
  5
23A
330
1F
100
AcDbEntity
  8
0
  6
HIDDEN
 62
     7
 48
2.25
370
     0
100
AcDbCircle
 10
11.8484026738
 20
8.813833372
 30
0.0
 40
0.0310000000000006
100
AcDbArc
 50
180.0
 51
0.0
  0
ARC
  5
23B
330
1F
100
AcDbEntity
  8
0
  6
HIDDEN
 62
     7
 48
2.25
370
     0
100
AcDbCircle
 10
11.8484026738
 20
8.563833372
 30
0.0
 40
0.0310000000000006
100
AcDbArc
 50
180.0
 51
0.0
  0
ARC
  5
23C
330
1F
100
AcDbEntity
  8
0
  6
HIDDEN
 62
     7
 48
2.25
370
     0
100
AcDbCircle
 10
11.8484026738
 20
8.563833372
 30
0.0
 40
0.0310000000000006
100
AcDbArc
 50
0.0
 51
180.0
  0
LINE
  5
23D
330
1F
100
AcDbEntity
  8
0
  6
HIDDEN
 62
     7
 48
1.5
370
     0
100
AcDbLine
 10
11.8794027477
 20
8.5638334119
 30
0.0
 11
11.8794027477
 21
8.8138333905
 31
0.0
  0
ARC
  5
23E
330
1F
100
AcDbEntity
  8
0
  6
HIDDEN
 62
     7
 48
2.25
370
     0
100
AcDbCircle
 10
11.8484026738
 20
6.063833372
 30
0.0
 40
0.0310000000000006
100
AcDbArc
 50
0.0
 51
180.0
  0
ARC
  5
23F
330
1F
100
AcDbEntity
  8
0
  6
HIDDEN
 62
     7
 48
2.25
370
     0
100
AcDbCircle
 10
11.8484026738
 20
6.063833372
 30
0.0
 40
0.0310000000000006
100
AcDbArc
 50
180.0
 51
0.0
  0
ARC
  5
240
330
1F
100
AcDbEntity
  8
0
  6
HIDDEN
 62
     7
 48
2.25
370
     0
100
AcDbCircle
 10
11.8484026738
 20
5.813833372
 30
0.0
 40
0.0310000000000006
100
AcDbArc
 50
180.0
 51
0.0
  0
ARC
  5
241
330
1F
100
AcDbEntity
  8
0
  6
HIDDEN
 62
     7
 48
2.25
370
     0
100
AcDbCircle
 10
11.8484026738
 20
5.813833372
 30
0.0
 40
0.0310000000000006
100
AcDbArc
 50
0.0
 51
180.0
  0
LINE
  5
242
330
1F
100
AcDbEntity
  8
0
  6
HIDDEN
 62
     7
 48
1.5
370
     0
100
AcDbLine
 10
11.8794027477
 20
5.8138333535
 30
0.0
 11
11.8794027477
 21
6.0638333321
 31
0.0
  0
LINE
  5
243
330
1F
100
AcDbEntity
  8
0
  6
HIDDEN
 62
     7
 48
1.5
370
     0
100
AcDbLine
 10
11.7944027696
 20
6.1888333948
 30
0.0
 11
11.7544025384
 21
6.1888333948
 31
0.0
  0
LINE
  5
244
330
1F
100
AcDbEntity
  8
0
  6
HIDDEN
 62
     7
 48
1.5
370
     0
100
AcDbLine
 10
11.7544025384
 20
5.6888334375
 30
0.0
 11
11.7944027696
 21
5.6888334375
 31
0.0
  0
ARC
  5
245
330
1F
100
AcDbEntity
  8
0
  6
HIDDEN
 62
     7
 48
2.25
370
     0
100
AcDbCircle
 10
11.7944026738
 20
5.703833372
 30
0.0
 40
0.0149999999999997
100
AcDbArc
 50
270.0
 51
0.0
  0
ARC
  5
246
330
1F
100
AcDbEntity
  8
0
  6
HIDDEN
 62
     7
 48
2.25
370
     0
100
AcDbCircle
 10
11.7944026738
 20
6.173833372
 30
0.0
 40
0.0149999999999997
100
AcDbArc
 50
0.0
 51
90.0
  0
ARC
  5
247
330
1F
100
AcDbEntity
  8
0
  6
HIDDEN
 62
     7
 48
2.25
370
     0
100
AcDbCircle
 10
11.7544026738
 20
5.703833372
 30
0.0
 40
0.0150000000000006
100
AcDbArc
 50
180.0
 51
270.0
  0
ARC
  5
248
330
1F
100
AcDbEntity
  8
0
  6
HIDDEN
 62
     7
 48
2.25
370
     0
100
AcDbCircle
 10
11.7544026738
 20
6.173833372
 30
0.0
 40
0.0150000000000006
100
AcDbArc
 50
90.0
 51
180.0
  0
ARC
  5
249
330
1F
100
AcDbEntity
  8
0
  6
HIDDEN
 62
     7
 48
2.25
370
     0
100
AcDbCircle
 10
11.7944026738
 20
5.838833372
 30
0.0
 40
0.0150000000000006
100
AcDbArc
 50
0.0
 51
90.0
  0
ARC
  5
24A
330
1F
100
AcDbEntity
  8
0
  6
HIDDEN
 62
     7
 48
2.25
370
     0
100
AcDbCircle
 10
11.7944026738
 20
6.038833372
 30
0.0
 40
0.0150000000000006
100
AcDbArc
 50
270.0
 51
0.0
  0
ARC
  5
24B
330
1F
100
AcDbEntity
  8
0
  6
HIDDEN
 62
     7
 48
2.25
370
     0
100
AcDbCircle
 10
11.7544026738
 20
5.838833372
 30
0.0
 40
0.0150000000000006
100
AcDbArc
 50
90.0
 51
180.0
  0
ARC
  5
24C
330
1F
100
AcDbEntity
  8
0
  6
HIDDEN
 62
     7
 48
2.25
370
     0
100
AcDbCircle
 10
11.7544026738
 20
6.038833372
 30
0.0
 40
0.0150000000000006
100
AcDbArc
 50
180.0
 51
270.0
  0
LINE
  5
24D
330
1F
100
AcDbEntity
  8
0
  6
HIDDEN
 62
     7
 48
1.5
370
     0
100
AcDbLine
 10
11.7944027696
 20
6.0238333942
 30
0.0
 11
11.7544025384
 21
6.0238333942
 31
0.0
  0
LINE
  5
24E
330
1F
100
AcDbEntity
  8
0
  6
HIDDEN
 62
     7
 48
1.5
370
     0
100
AcDbLine
 10
11.7544025384
 20
5.8538334381
 30
0.0
 11
11.7944027696
 21
5.8538334381
 31
0.0
  0
ARC
  5
24F
330
1F
100
AcDbEntity
  8
0
  6
HIDDEN
 62
     7
 48
2.25
370
     0
100
AcDbCircle
 10
11.7944026738
 20
8.453833372
 30
0.0
 40
0.0150000000000006
100
AcDbArc
 50
270.0
 51
0.0
  0
ARC
  5
250
330
1F
100
AcDbEntity
  8
0
  6
HIDDEN
 62
     7
 48
2.25
370
     0
100
AcDbCircle
 10
11.7944026738
 20
8.923833372
 30
0.0
 40
0.0150000000000006
100
AcDbArc
 50
0.0
 51
90.0
  0
LINE
  5
251
330
1F
100
AcDbEntity
  8
0
  6
HIDDEN
 62
     7
 48
1.5
370
     0
100
AcDbLine
 10
11.7944027696
 20
8.9388333065
 30
0.0
 11
11.7544025384
 21
8.9388333065
 31
0.0
  0
LINE
  5
252
330
1F
100
AcDbEntity
  8
0
  6
HIDDEN
 62
     7
 48
1.5
370
     0
100
AcDbLine
 10
11.7544025384
 20
8.4388333492
 30
0.0
 11
11.7944027696
 21
8.4388333492
 31
0.0
  0
ARC
  5
253
330
1F
100
AcDbEntity
  8
0
  6
HIDDEN
 62
     7
 48
2.25
370
     0
100
AcDbCircle
 10
11.7544026738
 20
8.453833372
 30
0.0
 40
0.0150000000000006
100
AcDbArc
 50
180.0
 51
270.0
  0
ARC
  5
254
330
1F
100
AcDbEntity
  8
0
  6
HIDDEN
 62
     7
 48
2.25
370
     0
100
AcDbCircle
 10
11.7544026738
 20
8.923833372
 30
0.0
 40
0.0150000000000006
100
AcDbArc
 50
90.0
 51
180.0
  0
ARC
  5
255
330
1F
100
AcDbEntity
  8
0
  6
HIDDEN
 62
     7
 48
2.25
370
     0
100
AcDbCircle
 10
11.7544026738
 20
8.588833372
 30
0.0
 40
0.0150000000000006
100
AcDbArc
 50
90.0
 51
180.0
  0
ARC
  5
256
330
1F
100
AcDbEntity
  8
0
  6
HIDDEN
 62
     7
 48
2.25
370
     0
100
AcDbCircle
 10
11.7544026738
 20
8.788833372
 30
0.0
 40
0.0150000000000006
100
AcDbArc
 50
180.0
 51
270.0
  0
ARC
  5
257
330
1F
100
AcDbEntity
  8
0
  6
HIDDEN
 62
     7
 48
2.25
370
     0
100
AcDbCircle
 10
11.7944026738
 20
8.588833372
 30
0.0
 40
0.0150000000000006
100
AcDbArc
 50
0.0
 51
90.0
  0
ARC
  5
258
330
1F
100
AcDbEntity
  8
0
  6
HIDDEN
 62
     7
 48
2.25
370
     0
100
AcDbCircle
 10
11.7944026738
 20
8.788833372
 30
0.0
 40
0.0150000000000006
100
AcDbArc
 50
270.0
 51
0.0
  0
LINE
  5
259
330
1F
100
AcDbEntity
  8
0
  6
HIDDEN
 62
     7
 48
1.5
370
     0
100
AcDbLine
 10
11.7944027696
 20
8.773833306
 30
0.0
 11
11.7544025384
 21
8.773833306
 31
0.0
  0
LINE
  5
25A
330
1F
100
AcDbEntity
  8
0
  6
HIDDEN
 62
     7
 48
1.5
370
     0
100
AcDbLine
 10
11.7544025384
 20
8.6038333498
 30
0.0
 11
11.7944027696
 21
8.6038333498
 31
0.0
  0
ARC
  5
25B
330
1F
100
AcDbEntity
  8
0
  6
HIDDEN
 62
     7
 48
2.25
370
     0
100
AcDbCircle
 10
11.7244026738
 20
8.588833372
 30
0.0
 40
0.0150000000000006
100
AcDbArc
 50
0.0
 51
90.0
  0
ARC
  5
25C
330
1F
100
AcDbEntity
  8
0
  6
HIDDEN
 62
     7
 48
2.25
370
     0
100
AcDbCircle
 10
11.7244026738
 20
8.788833372
 30
0.0
 40
0.0150000000000006
100
AcDbArc
 50
270.0
 51
0.0
  0
ARC
  5
25D
330
1F
100
AcDbEntity
  8
0
  6
HIDDEN
 62
     7
 48
2.25
370
     0
100
AcDbCircle
 10
11.6844026738
 20
8.588833372
 30
0.0
 40
0.0150000000000006
100
AcDbArc
 50
90.0
 51
180.0
  0
ARC
  5
25E
330
1F
100
AcDbEntity
  8
0
  6
HIDDEN
 62
     7
 48
2.25
370
     0
100
AcDbCircle
 10
11.6844026738
 20
8.788833372
 30
0.0
 40
0.0150000000000006
100
AcDbArc
 50
180.0
 51
270.0
  0
LINE
  5
25F
330
1F
100
AcDbEntity
  8
0
  6
HIDDEN
 62
     7
 48
1.5
370
     0
100
AcDbLine
 10
11.7244028049
 20
8.773833306
 30
0.0
 11
11.6844025737
 21
8.773833306
 31
0.0
  0
LINE
  5
260
330
1F
100
AcDbEntity
  8
0
  6
HIDDEN
 62
     7
 48
1.5
370
     0
100
AcDbLine
 10
11.6844025737
 20
8.6038333498
 30
0.0
 11
11.7244028049
 21
8.6038333498
 31
0.0
  0
ARC
  5
261
330
1F
100
AcDbEntity
  8
0
  6
HIDDEN
 62
     7
 48
2.25
370
     0
100
AcDbCircle
 10
11.7244026738
 20
5.838833372
 30
0.0
 40
0.0150000000000006
100
AcDbArc
 50
0.0
 51
90.0
  0
ARC
  5
262
330
1F
100
AcDbEntity
  8
0
  6
HIDDEN
 62
     7
 48
2.25
370
     0
100
AcDbCircle
 10
11.7244026738
 20
6.038833372
 30
0.0
 40
0.0150000000000006
100
AcDbArc
 50
270.0
 51
0.0
  0
ARC
  5
263
330
1F
100
AcDbEntity
  8
0
  6
HIDDEN
 62
     7
 48
2.25
370
     0
100
AcDbCircle
 10
11.6844026738
 20
5.838833372
 30
0.0
 40
0.0150000000000006
100
AcDbArc
 50
90.0
 51
180.0
  0
ARC
  5
264
330
1F
100
AcDbEntity
  8
0
  6
HIDDEN
 62
     7
 48
2.25
370
     0
100
AcDbCircle
 10
11.6844026738
 20
6.038833372
 30
0.0
 40
0.0150000000000006
100
AcDbArc
 50
180.0
 51
270.0
  0
LINE
  5
265
330
1F
100
AcDbEntity
  8
0
  6
HIDDEN
 62
     7
 48
1.5
370
     0
100
AcDbLine
 10
11.7244028049
 20
6.0238333942
 30
0.0
 11
11.6844025737
 21
6.0238333942
 31
0.0
  0
LINE
  5
266
330
1F
100
AcDbEntity
  8
0
  6
HIDDEN
 62
     7
 48
1.5
370
     0
100
AcDbLine
 10
11.6844025737
 20
5.8538334381
 30
0.0
 11
11.7244028049
 21
5.8538334381
 31
0.0
  0
LINE
  5
267
330
1F
100
AcDbEntity
  8
0
  6
HIDDEN
 62
     7
 48
1.5
370
     0
100
AcDbLine
 10
12.217582841
 20
5.8408333482
 30
0.0
 11
12.2993239234
 21
5.8746916904
 31
0.0
  0
LINE
  5
268
330
1F
100
AcDbEntity
  8
0
  6
HIDDEN
 62
     7
 48
1.5
370
     0
100
AcDbLine
 10
12.2993239234
 20
6.0029751418
 30
0.0
 11
12.217582841
 21
6.0368333374
 31
0.0
  0
LINE
  5
269
330
1F
100
AcDbEntity
  8
0
  6
HIDDEN
 62
     7
 48
1.5
370
     0
100
AcDbLine
 10
11.9449930833
 20
5.8408333482
 30
0.0
 11
12.217582841
 21
5.8408333482
 31
0.0
  0
LINE
  5
26A
330
1F
100
AcDbEntity
  8
0
  6
HIDDEN
 62
     7
 48
1.5
370
     0
100
AcDbLine
 10
12.217582841
 20
6.0368333374
 30
0.0
 11
11.9449930833
 21
6.0368333374
 31
0.0
  0
LINE
  5
26B
330
1F
100
AcDbEntity
  8
0
  6
HIDDEN
 62
     7
 48
1.5
370
     0
100
AcDbLine
 10
11.9449930833
 20
6.0128490678
 30
0.0
 11
11.6694025603
 21
6.0128490678
 31
0.0
  0
LINE
  5
26C
330
1F
100
AcDbEntity
  8
0
  6
HIDDEN
 62
     7
 48
1.5
370
     0
100
AcDbLine
 10
11.6694025603
 20
5.8648176178
 30
0.0
 11
11.9449930833
 21
5.8648176178
 31
0.0
  0
LINE
  5
26D
330
1F
100
AcDbEntity
  8
0
  6
HIDDEN
 62
     7
 48
1.5
370
     0
100
AcDbLine
 10
12.217582841
 20
8.5908334067
 30
0.0
 11
12.2993239234
 21
8.6246916022
 31
0.0
  0
LINE
  5
26E
330
1F
100
AcDbEntity
  8
0
  6
HIDDEN
 62
     7
 48
1.5
370
     0
100
AcDbLine
 10
12.2993239234
 20
8.7529750536
 30
0.0
 11
12.217582841
 21
8.7868333958
 31
0.0
  0
LINE
  5
26F
330
1F
100
AcDbEntity
  8
0
  6
HIDDEN
 62
     7
 48
1.5
370
     0
100
AcDbLine
 10
11.9449930833
 20
8.5908334067
 30
0.0
 11
12.0149933414
 21
8.5908334067
 31
0.0
  0
LINE
  5
270
330
1F
100
AcDbEntity
  8
0
  6
HIDDEN
 62
     7
 48
1.5
370
     0
100
AcDbLine
 10
12.0149933414
 20
8.7868333958
 30
0.0
 11
11.9449930833
 21
8.7868333958
 31
0.0
  0
LINE
  5
271
330
1F
100
AcDbEntity
  8
0
  6
HIDDEN
 62
     7
 48
1.5
370
     0
100
AcDbLine
 10
11.7394028183
 20
8.7628491262
 30
0.0
 11
11.6694025603
 21
8.7628491262
 31
0.0
  0
LINE
  5
272
330
1F
100
AcDbEntity
  8
0
  6
HIDDEN
 62
     7
 48
1.5
370
     0
100
AcDbLine
 10
11.6694025603
 20
8.6148176763
 30
0.0
 11
11.7394028183
 21
8.6148176763
 31
0.0
  0
LINE
  5
273
330
1F
100
AcDbEntity
  8
0
  6
HIDDEN
 62
     7
 48
1.5
370
     0
100
AcDbLine
 10
11.7394028183
 20
6.1488333835
 30
0.0
 11
11.7064105328
 21
6.1459469435
 31
0.0
  0
LINE
  5
274
330
1F
100
AcDbEntity
  8
0
  6
HIDDEN
 62
     7
 48
1.5
370
     0
100
AcDbLine
 10
11.7064105328
 20
5.7317197421
 30
0.0
 11
11.7394028183
 21
5.7288333754
 31
0.0
  0
LINE
  5
275
330
1F
100
AcDbEntity
  8
0
  6
HIDDEN
 62
     7
 48
1.5
370
     0
100
AcDbLine
 10
11.7064105328
 20
6.1181247449
 30
0.0
 11
11.7021587152
 21
6.1181247449
 31
0.0
  0
LINE
  5
276
330
1F
100
AcDbEntity
  8
0
  6
HIDDEN
 62
     7
 48
1.5
370
     0
100
AcDbLine
 10
11.7021587152
 20
5.7595420873
 30
0.0
 11
11.7064105328
 21
5.7595420873
 31
0.0
  0
ARC
  5
277
330
1F
100
AcDbEntity
  8
0
  6
HIDDEN
 62
     7
 48
2.25
370
     0
100
AcDbCircle
 10
11.7021585793
 20
5.8382821909
 30
0.0
 40
0.0787401574803148
100
AcDbArc
 50
180.0
 51
270.0
  0
ARC
  5
278
330
1F
100
AcDbEntity
  8
0
  6
HIDDEN
 62
     7
 48
2.25
370
     0
100
AcDbCircle
 10
11.7021585793
 20
6.0393845531
 30
0.0
 40
0.0787401574803148
100
AcDbArc
 50
90.0
 51
180.0
  0
LINE
  5
279
330
1F
100
AcDbEntity
  8
0
  6
HIDDEN
 62
     7
 48
1.5
370
     0
100
AcDbLine
 10
12.2875828057
 20
5.8408333482
 30
0.0
 11
12.3693238881
 21
5.8746916904
 31
0.0
  0
LINE
  5
27A
330
1F
100
AcDbEntity
  8
0
  6
HIDDEN
 62
     7
 48
1.5
370
     0
100
AcDbLine
 10
12.3693238881
 20
6.0029751418
 30
0.0
 11
12.2875828057
 21
6.0368333374
 31
0.0
  0
LINE
  5
27B
330
1F
100
AcDbEntity
  8
0
  6
HIDDEN
 62
     7
 48
1.5
370
     0
100
AcDbLine
 10
12.217582841
 20
5.8408333482
 30
0.0
 11
12.2875828057
 21
5.8408333482
 31
0.0
  0
LINE
  5
27C
330
1F
100
AcDbEntity
  8
0
  6
HIDDEN
 62
     7
 48
1.5
370
     0
100
AcDbLine
 10
12.2875828057
 20
6.0368333374
 30
0.0
 11
12.217582841
 21
6.0368333374
 31
0.0
  0
LINE
  5
27D
330
1F
100
AcDbEntity
  8
0
  6
HIDDEN
 62
     7
 48
1.5
370
     0
100
AcDbLine
 10
12.0149933414
 20
6.0128490678
 30
0.0
 11
11.9449930833
 21
6.0128490678
 31
0.0
  0
LINE
  5
27E
330
1F
100
AcDbEntity
  8
0
  6
HIDDEN
 62
     7
 48
1.5
370
     0
100
AcDbLine
 10
11.9449930833
 20
5.8648176178
 30
0.0
 11
12.0149933414
 21
5.8648176178
 31
0.0
  0
LINE
  5
27F
330
1F
100
AcDbEntity
  8
0
  6
HIDDEN
 62
     7
 48
1.5
370
     0
100
AcDbLine
 10
12.2875828057
 20
8.5908334067
 30
0.0
 11
12.3693238881
 21
8.6246916022
 31
0.0
  0
LINE
  5
280
330
1F
100
AcDbEntity
  8
0
  6
HIDDEN
 62
     7
 48
1.5
370
     0
100
AcDbLine
 10
12.3693238881
 20
8.7529750536
 30
0.0
 11
12.2875828057
 21
8.7868333958
 31
0.0
  0
LINE
  5
281
330
1F
100
AcDbEntity
  8
0
  6
HIDDEN
 62
     7
 48
1.5
370
     0
100
AcDbLine
 10
12.0149933414
 20
8.5908334067
 30
0.0
 11
12.2875828057
 21
8.5908334067
 31
0.0
  0
LINE
  5
282
330
1F
100
AcDbEntity
  8
0
  6
HIDDEN
 62
     7
 48
1.5
370
     0
100
AcDbLine
 10
12.2875828057
 20
8.7868333958
 30
0.0
 11
12.0149933414
 21
8.7868333958
 31
0.0
  0
LINE
  5
283
330
1F
100
AcDbEntity
  8
0
  6
HIDDEN
 62
     7
 48
1.5
370
     0
100
AcDbLine
 10
12.0149933414
 20
8.7628491262
 30
0.0
 11
11.7394028183
 21
8.7628491262
 31
0.0
  0
LINE
  5
284
330
1F
100
AcDbEntity
  8
0
  6
HIDDEN
 62
     7
 48
1.5
370
     0
100
AcDbLine
 10
11.7394028183
 20
8.6148176763
 30
0.0
 11
12.0149933414
 21
8.6148176763
 31
0.0
  0
LINE
  5
285
330
1F
100
AcDbEntity
  8
0
  6
HIDDEN
 62
     7
 48
1.5
370
     0
100
AcDbLine
 10
11.9174027621
 20
8.9248334016
 30
0.0
 11
11.8174027706
 21
8.9248334016
 31
0.0
  0
LINE
  5
286
330
1F
100
AcDbEntity
  8
0
  6
HIDDEN
 62
     7
 48
1.5
370
     0
100
AcDbLine
 10
11.8174027706
 20
8.4528334009
 30
0.0
 11
11.9174027621
 21
8.4528334009
 31
0.0
  0
LINE
  5
287
330
1F
100
AcDbEntity
  8
0
  6
HIDDEN
 62
     7
 48
1.5
370
     0
100
AcDbLine
 10
11.9174027621
 20
6.1748333432
 30
0.0
 11
11.8174027706
 21
6.1748333432
 31
0.0
  0
LINE
  5
288
330
1F
100
AcDbEntity
  8
0
  6
HIDDEN
 62
     7
 48
1.5
370
     0
100
AcDbLine
 10
11.8174027706
 20
5.7028333424
 30
0.0
 11
11.9174027621
 21
5.7028333424
 31
0.0
  0
LINE
  5
289
330
1F
100
AcDbEntity
  8
0
  6
HIDDEN
 62
     7
 48
1.5
370
     0
100
AcDbLine
 10
11.8174027706
 20
8.8038333327
 30
0.0
 11
11.7394028183
 21
8.8038333327
 31
0.0
  0
LINE
  5
28A
330
1F
100
AcDbEntity
  8
0
  6
HIDDEN
 62
     7
 48
1.5
370
     0
100
AcDbLine
 10
11.7394028183
 20
8.573833323
 30
0.0
 11
11.8174027706
 21
8.573833323
 31
0.0
  0
LINE
  5
28B
330
1F
100
AcDbEntity
  8
0
  6
HIDDEN
 62
     7
 48
1.5
370
     0
100
AcDbLine
 10
11.8174027706
 20
6.053833421
 30
0.0
 11
11.7394028183
 21
6.053833421
 31
0.0
  0
LINE
  5
28C
330
1F
100
AcDbEntity
  8
0
  6
HIDDEN
 62
     7
 48
1.5
370
     0
100
AcDbLine
 10
11.7394028183
 20
5.8238334113
 30
0.0
 11
11.8174027706
 21
5.8238334113
 31
0.0
  0
LINE
  5
28D
330
1F
100
AcDbEntity
  8
0
  6
HIDDEN
 62
     7
 48
1.5
370
     0
100
AcDbLine
 10
14.5894026757
 20
7.0165892691
 30
0.0
 11
14.4909774719
 21
7.0165892691
 31
0.0
  0
LINE
  5
28E
330
1F
100
AcDbEntity
  8
0
  6
HIDDEN
 62
     7
 48
1.5
370
     0
100
AcDbLine
 10
14.4909774719
 20
6.6110774503
 30
0.0
 11
14.5894026757
 21
6.6110774503
 31
0.0
  0
LINE
  5
28F
330
1F
100
AcDbEntity
  8
0
  6
HIDDEN
 62
     7
 48
1.5
370
     0
100
AcDbLine
 10
14.4909774719
 20
6.9909987248
 30
0.0
 11
14.1169617359
 21
6.9909987248
 31
0.0
  0
LINE
  5
290
330
1F
100
AcDbEntity
  8
0
  6
HIDDEN
 62
     7
 48
1.5
370
     0
100
AcDbLine
 10
14.1169617359
 20
6.6366679947
 30
0.0
 11
14.4909774719
 21
6.6366679947
 31
0.0
  0
LINE
  5
291
330
1F
100
AcDbEntity
  8
0
  6
HIDDEN
 62
     7
 48
1.5
370
     0
100
AcDbLine
 10
14.5894026757
 20
6.9122585544
 30
0.0
 11
14.1169617359
 21
6.9122585544
 31
0.0
  0
LINE
  5
292
330
1F
100
AcDbEntity
  8
0
  6
HIDDEN
 62
     7
 48
1.5
370
     0
100
AcDbLine
 10
14.1169617359
 20
6.7154081651
 30
0.0
 11
14.5894026757
 21
6.7154081651
 31
0.0
  0
LINE
  5
293
330
1F
100
AcDbEntity
  8
0
  6
HIDDEN
 62
     7
 48
1.5
370
     0
100
AcDbLine
 10
11.9174027621
 20
8.8856838272
 30
0.0
 11
11.8780326035
 21
8.8856838272
 31
0.0
  0
LINE
  5
294
330
1F
100
AcDbEntity
  8
0
  6
HIDDEN
 62
     7
 48
1.5
370
     0
100
AcDbLine
 10
11.8780326035
 20
8.4919829753
 30
0.0
 11
11.9174027621
 21
8.4919829753
 31
0.0
  0
LINE
  5
295
330
1F
100
AcDbEntity
  8
0
  6
HIDDEN
 62
     7
 48
1.5
370
     0
100
AcDbLine
 10
12.50795382
 20
8.8266285894
 30
0.0
 11
11.9174027621
 21
8.8266285894
 31
0.0
  0
LINE
  5
296
330
1F
100
AcDbEntity
  8
0
  6
HIDDEN
 62
     7
 48
1.5
370
     0
100
AcDbLine
 10
11.9174027621
 20
8.5510380664
 30
0.0
 11
12.50795382
 21
8.5510380664
 31
0.0
  0
LINE
  5
297
330
1F
100
AcDbEntity
  8
0
  6
HIDDEN
 62
     7
 48
1.5
370
     0
100
AcDbLine
 10
12.0355129443
 20
8.8068333647
 30
0.0
 11
11.8780326035
 21
8.8068333647
 31
0.0
  0
LINE
  5
298
330
1F
100
AcDbEntity
  8
0
  6
HIDDEN
 62
     7
 48
1.5
370
     0
100
AcDbLine
 10
11.8780326035
 20
8.5708334377
 30
0.0
 11
12.0355129443
 21
8.5708334377
 31
0.0
  0
LINE
  5
299
330
1F
100
AcDbEntity
  8
0
  6
HIDDEN
 62
     7
 48
1.5
370
     0
100
AcDbLine
 10
12.372387866
 20
8.5904082249
 30
0.0
 11
12.4292136496
 21
8.6888333279
 31
0.0
  0
LINE
  5
29A
330
1F
100
AcDbEntity
  8
0
  6
HIDDEN
 62
     7
 48
1.5
370
     0
100
AcDbLine
 10
12.4292136496
 20
8.6888333279
 30
0.0
 11
12.372387866
 21
8.7872585775
 31
0.0
  0
LINE
  5
29B
330
1F
100
AcDbEntity
  8
0
  6
HIDDEN
 62
     7
 48
1.5
370
     0
100
AcDbLine
 10
12.372387866
 20
8.7872585775
 30
0.0
 11
12.0355129443
 21
8.7872585775
 31
0.0
  0
LINE
  5
29C
330
1F
100
AcDbEntity
  8
0
  6
HIDDEN
 62
     7
 48
1.5
370
     0
100
AcDbLine
 10
12.0355129443
 20
8.5904082249
 30
0.0
 11
12.372387866
 21
8.5904082249
 31
0.0
  0
LINE
  5
29D
330
1F
100
AcDbEntity
  8
0
  6
HIDDEN
 62
     7
 48
1.5
370
     0
100
AcDbLine
 10
11.9174027621
 20
6.1356837688
 30
0.0
 11
11.8780326035
 21
6.1356837688
 31
0.0
  0
LINE
  5
29E
330
1F
100
AcDbEntity
  8
0
  6
HIDDEN
 62
     7
 48
1.5
370
     0
100
AcDbLine
 10
11.8780326035
 20
5.7419829168
 30
0.0
 11
11.9174027621
 21
5.7419829168
 31
0.0
  0
LINE
  5
29F
330
1F
100
AcDbEntity
  8
0
  6
HIDDEN
 62
     7
 48
1.5
370
     0
100
AcDbLine
 10
12.50795382
 20
6.0766286776
 30
0.0
 11
11.9174027621
 21
6.0766286776
 31
0.0
  0
LINE
  5
2A0
330
1F
100
AcDbEntity
  8
0
  6
HIDDEN
 62
     7
 48
1.5
370
     0
100
AcDbLine
 10
11.9174027621
 20
5.8010381546
 30
0.0
 11
12.50795382
 21
5.8010381546
 31
0.0
  0
LINE
  5
2A1
330
1F
100
AcDbEntity
  8
0
  6
HIDDEN
 62
     7
 48
1.5
370
     0
100
AcDbLine
 10
12.0355129443
 20
6.0568333063
 30
0.0
 11
11.8780326035
 21
6.0568333063
 31
0.0
  0
LINE
  5
2A2
330
1F
100
AcDbEntity
  8
0
  6
HIDDEN
 62
     7
 48
1.5
370
     0
100
AcDbLine
 10
11.8780326035
 20
5.8208333793
 30
0.0
 11
12.0355129443
 21
5.8208333793
 31
0.0
  0
LINE
  5
2A3
330
1F
100
AcDbEntity
  8
0
  6
HIDDEN
 62
     7
 48
1.5
370
     0
100
AcDbLine
 10
12.372387866
 20
6.0372585191
 30
0.0
 11
12.0355129443
 21
6.0372585191
 31
0.0
  0
LINE
  5
2A4
330
1F
100
AcDbEntity
  8
0
  6
HIDDEN
 62
     7
 48
1.5
370
     0
100
AcDbLine
 10
12.0355129443
 20
5.8404081665
 30
0.0
 11
12.372387866
 21
5.8404081665
 31
0.0
  0
LINE
  5
2A5
330
1F
100
AcDbEntity
  8
0
  6
HIDDEN
 62
     7
 48
1.5
370
     0
100
AcDbLine
 10
12.372387866
 20
5.8404081665
 30
0.0
 11
12.4292136496
 21
5.9388334161
 31
0.0
  0
LINE
  5
2A6
330
1F
100
AcDbEntity
  8
0
  6
HIDDEN
 62
     7
 48
1.5
370
     0
100
AcDbLine
 10
12.4292136496
 20
5.9388334161
 30
0.0
 11
12.372387866
 21
6.0372585191
 31
0.0
  0
LINE
  5
2A7
330
1F
100
AcDbEntity
  8
0
  6
HIDDEN
 62
     7
 48
1.5
370
     0
100
AcDbLine
 10
14.7454026719
 20
5.4543333064
 30
0.0
 11
14.6674026738
 21
5.4543333064
 31
0.0
  0
LINE
  5
2A8
330
1F
100
AcDbEntity
  8
0
  6
HIDDEN
 62
     7
 48
1.5
370
     0
100
AcDbLine
 10
14.6674026738
 20
5.1733333392
 30
0.0
 11
14.7454026719
 21
5.1733333392
 31
0.0
  0
LINE
  5
2A9
330
1F
100
AcDbEntity
  8
0
  6
HIDDEN
 62
     7
 48
1.5
370
     0
100
AcDbLine
 10
14.6674026738
 20
9.1733334376
 30
0.0
 11
14.7454026719
 21
9.1733334376
 31
0.0
  0
LINE
  5
2AA
330
1F
100
AcDbEntity
  8
0
  6
HIDDEN
 62
     7
 48
1.5
370
     0
100
AcDbLine
 10
14.7454026719
 20
9.4543334048
 30
0.0
 11
14.6674026738
 21
9.4543334048
 31
0.0
  0
LINE
  5
2AB
330
1F
100
AcDbEntity
  8
0
  6
HIDDEN
 62
     7
 48
1.5
370
     0
100
AcDbLine
 10
11.9954027143
 20
8.8263333528
 30
0.0
 11
11.9174027621
 21
8.8263333528
 31
0.0
  0
LINE
  5
2AC
330
1F
100
AcDbEntity
  8
0
  6
HIDDEN
 62
     7
 48
1.5
370
     0
100
AcDbLine
 10
11.9174027621
 20
8.551333303
 30
0.0
 11
11.9954027143
 21
8.551333303
 31
0.0
  0
LINE
  5
2AD
330
1F
100
AcDbEntity
  8
0
  6
HIDDEN
 62
     7
 48
1.5
370
     0
100
AcDbLine
 10
11.9954027143
 20
6.076333441
 30
0.0
 11
11.9174027621
 21
6.076333441
 31
0.0
  0
LINE
  5
2AE
330
1F
100
AcDbEntity
  8
0
  6
HIDDEN
 62
     7
 48
1.5
370
     0
100
AcDbLine
 10
11.9174027621
 20
5.8013333912
 30
0.0
 11
11.9954027143
 21
5.8013333912
 31
0.0
  0
DIMENSION
  5
2AF
330
1F
100
AcDbEntity
  8
0
  6
Continuous
 62
     7
 48
1.5
370
     0
100
AcDbDimension
  2
*D11
 10
11.9174026738
 20
10.1543845531
 30
0.0
 11
13.2924026738
 21
10.1543845531
 31
0.0
 70
   160
 71
     2
 42
-1.0
  3
SLDDIMSTYLE3
100
AcDbAlignedDimension
 13
14.6674026738
 23
9.563833372
 33
0.0
 14
11.9174026738
 24
9.094833372
 34
0.0
 50
0.0
100
AcDbRotatedDimension
  0
INSERT
  5
2C7
102
{ACAD_REACTORS
330
2C8
102
}
330
1F
100
AcDbEntity
  8
0
  6
Continuous
 62
     7
 48
1.5
370
     0
100
AcDbBlockReference
  2
SW_NOTE_5
 10
12.8928207351
 20
4.0823507582
 30
0.0
  0
LEADER
  5
2C8
330
1F
100
AcDbEntity
  8
0
  6
Continuous
 62
     7
 48
1.5
370
     0
100
AcDbLeader
  3
SLDDIMSTYLE4
 73
     2
 76
     3
 10
11.8747377781
 20
5.531833372
 30
0.0
 10
12.5178207351
 20
4.0823507582
 30
0.0
 10
12.8928207351
 20
4.0823507582
 30
0.0
340
2C7
  0
LINE
  5
2C9
330
1F
100
AcDbEntity
  8
0
  6
Continuous
 62
     7
 48
1.5
370
    15
100
AcDbLine
 10
19.7205493358
 20
9.0948333577
 30
0.0
 11
19.5645492846
 21
9.0948333577
 31
0.0
  0
LINE
  5
2CA
330
1F
100
AcDbEntity
  8
0
  6
Continuous
 62
     7
 48
1.5
370
    15
100
AcDbLine
 10
16.5645492475
 20
9.0948333577
 30
0.0
 11
16.4085491963
 21
9.0948333577
 31
0.0
  0
LINE
  5
2CB
330
1F
100
AcDbEntity
  8
0
  6
Continuous
 62
     7
 48
1.5
370
    15
100
AcDbLine
 10
19.7205493358
 20
9.0948333577
 30
0.0
 11
19.7205493358
 21
5.5328333863
 31
0.0
  0
LINE
  5
2CC
330
1F
100
AcDbEntity
  8
0
  6
Continuous
 62
     7
 48
1.5
370
    15
100
AcDbLine
 10
19.7205493358
 20
5.5328333863
 30
0.0
 11
19.5645492846
 21
5.5328333863
 31
0.0
  0
LINE
  5
2CD
330
1F
100
AcDbEntity
  8
0
  6
Continuous
 62
     7
 48
1.5
370
    15
100
AcDbLine
 10
16.5645492475
 20
5.5328333863
 30
0.0
 11
16.4085491963
 21
5.5328333863
 31
0.0
  0
LINE
  5
2CE
330
1F
100
AcDbEntity
  8
0
  6
Continuous
 62
     7
 48
1.5
370
    15
100
AcDbLine
 10
16.4085491963
 20
9.0948333577
 30
0.0
 11
16.4085491963
 21
5.5328333863
 31
0.0
  0
LINE
  5
2CF
330
1F
100
AcDbEntity
  8
0
  6
Continuous
 62
     7
 48
1.5
370
    15
100
AcDbLine
 10
19.736549311
 20
9.0958333195
 30
0.0
 11
19.736549311
 21
9.1108333329
 31
0.0
  0
LINE
  5
2D0
330
1F
100
AcDbEntity
  8
0
  6
Continuous
 62
     7
 48
1.5
370
    15
100
AcDbLine
 10
19.7215492976
 20
9.1108333329
 30
0.0
 11
19.736549311
 21
9.1108333329
 31
0.0
  0
ARC
  5
2D1
330
1F
100
AcDbEntity
  8
0
  6
Continuous
 62
     7
 48
2.25
370
    15
100
AcDbCircle
 10
19.7215492661
 20
9.095833372
 30
0.0
 40
0.093
100
AcDbArc
 50
0.0
 51
90.0
  0
LINE
  5
2D2
330
1F
100
AcDbEntity
  8
0
  6
Continuous
 62
     7
 48
1.5
370
    15
100
AcDbLine
 10
19.8145492633
 20
9.0958333195
 30
0.0
 11
19.8145492633
 21
5.5318334245
 31
0.0
  0
LINE
  5
2D3
330
1F
100
AcDbEntity
  8
0
  6
Continuous
 62
     7
 48
1.5
370
    15
100
AcDbLine
 10
19.736549311
 20
9.0958333195
 30
0.0
 11
19.736549311
 21
5.5318334245
 31
0.0
  0
LINE
  5
2D4
330
1F
100
AcDbEntity
  8
0
  6
Continuous
 62
     7
 48
1.5
370
    15
100
AcDbLine
 10
16.4075492346
 20
9.1108333329
 30
0.0
 11
16.5645492475
 21
9.1108333329
 31
0.0
  0
LINE
  5
2D5
330
1F
100
AcDbEntity
  8
0
  6
Continuous
 62
     7
 48
1.5
370
    15
100
AcDbLine
 10
19.5645492846
 20
9.1108333329
 30
0.0
 11
19.7215492976
 21
9.1108333329
 31
0.0
  0
LINE
  5
2D6
330
1F
100
AcDbEntity
  8
0
  6
Continuous
 62
     7
 48
1.5
370
    15
100
AcDbLine
 10
16.4075492346
 20
9.1888334318
 30
0.0
 11
16.5645492475
 21
9.1888334318
 31
0.0
  0
LINE
  5
2D7
330
1F
100
AcDbEntity
  8
0
  6
Continuous
 62
     7
 48
1.5
370
    15
100
AcDbLine
 10
16.8208866196
 20
9.1888334318
 30
0.0
 11
16.9332119687
 21
9.1888334318
 31
0.0
  0
LINE
  5
2D8
330
1F
100
AcDbEntity
  8
0
  6
Continuous
 62
     7
 48
1.5
370
    15
100
AcDbLine
 10
19.1958865634
 20
9.1888334318
 30
0.0
 11
19.3082119125
 21
9.1888334318
 31
0.0
  0
LINE
  5
2D9
330
1F
100
AcDbEntity
  8
0
  6
Continuous
 62
     7
 48
1.5
370
    15
100
AcDbLine
 10
19.5645492846
 20
9.1888334318
 30
0.0
 11
19.7215492976
 21
9.1888334318
 31
0.0
  0
LINE
  5
2DA
330
1F
100
AcDbEntity
  8
0
  6
Continuous
 62
     7
 48
1.5
370
    15
100
AcDbLine
 10
19.7215492976
 20
5.5168334111
 30
0.0
 11
19.736549311
 21
5.5168334111
 31
0.0
  0
LINE
  5
2DB
330
1F
100
AcDbEntity
  8
0
  6
Continuous
 62
     7
 48
1.5
370
    15
100
AcDbLine
 10
19.736549311
 20
5.5318334245
 30
0.0
 11
19.736549311
 21
5.5168334111
 31
0.0
  0
ARC
  5
2DC
330
1F
100
AcDbEntity
  8
0
  6
Continuous
 62
     7
 48
2.25
370
    15
100
AcDbCircle
 10
19.7215492661
 20
5.531833372
 30
0.0
 40
0.093
100
AcDbArc
 50
270.0
 51
0.0
  0
LINE
  5
2DD
330
1F
100
AcDbEntity
  8
0
  6
Continuous
 62
     7
 48
1.5
370
    15
100
AcDbLine
 10
19.7215492976
 20
5.4388333122
 30
0.0
 11
19.5645492846
 21
5.4388333122
 31
0.0
  0
LINE
  5
2DE
330
1F
100
AcDbEntity
  8
0
  6
Continuous
 62
     7
 48
1.5
370
    15
100
AcDbLine
 10
19.3082119125
 20
5.4388333122
 30
0.0
 11
19.1958865634
 21
5.4388333122
 31
0.0
  0
LINE
  5
2DF
330
1F
100
AcDbEntity
  8
0
  6
Continuous
 62
     7
 48
1.5
370
    15
100
AcDbLine
 10
16.9332119687
 20
5.4388333122
 30
0.0
 11
16.8208866196
 21
5.4388333122
 31
0.0
  0
LINE
  5
2E0
330
1F
100
AcDbEntity
  8
0
  6
Continuous
 62
     7
 48
1.5
370
    15
100
AcDbLine
 10
16.5645492475
 20
5.4388333122
 30
0.0
 11
16.4075492346
 21
5.4388333122
 31
0.0
  0
LINE
  5
2E1
330
1F
100
AcDbEntity
  8
0
  6
Continuous
 62
     7
 48
1.5
370
    15
100
AcDbLine
 10
19.7215492976
 20
5.5168334111
 30
0.0
 11
19.5645492846
 21
5.5168334111
 31
0.0
  0
LINE
  5
2E2
330
1F
100
AcDbEntity
  8
0
  6
Continuous
 62
     7
 48
1.5
370
    15
100
AcDbLine
 10
16.5645492475
 20
5.5168334111
 30
0.0
 11
16.4075492346
 21
5.5168334111
 31
0.0
  0
LINE
  5
2E3
330
1F
100
AcDbEntity
  8
0
  6
Continuous
 62
     7
 48
1.5
370
    15
100
AcDbLine
 10
16.4075492346
 20
9.1108333329
 30
0.0
 11
16.3925492212
 21
9.1108333329
 31
0.0
  0
LINE
  5
2E4
330
1F
100
AcDbEntity
  8
0
  6
Continuous
 62
     7
 48
1.5
370
    15
100
AcDbLine
 10
16.3925492212
 20
9.0958333195
 30
0.0
 11
16.3925492212
 21
9.1108333329
 31
0.0
  0
ARC
  5
2E5
330
1F
100
AcDbEntity
  8
0
  6
Continuous
 62
     7
 48
2.25
370
    15
100
AcDbCircle
 10
16.4075492661
 20
9.095833372
 30
0.0
 40
0.093
100
AcDbArc
 50
90.0
 51
180.0
  0
LINE
  5
2E6
330
1F
100
AcDbEntity
  8
0
  6
Continuous
 62
     7
 48
1.5
370
    15
100
AcDbLine
 10
16.3145492689
 20
5.5318334245
 30
0.0
 11
16.3145492689
 21
9.0958333195
 31
0.0
  0
LINE
  5
2E7
330
1F
100
AcDbEntity
  8
0
  6
Continuous
 62
     7
 48
1.5
370
    15
100
AcDbLine
 10
16.3925492212
 20
5.5318334245
 30
0.0
 11
16.3925492212
 21
9.0958333195
 31
0.0
  0
LINE
  5
2E8
330
1F
100
AcDbEntity
  8
0
  6
Continuous
 62
     7
 48
1.5
370
    15
100
AcDbLine
 10
16.3925492212
 20
5.5318334245
 30
0.0
 11
16.3925492212
 21
5.5168334111
 31
0.0
  0
LINE
  5
2E9
330
1F
100
AcDbEntity
  8
0
  6
Continuous
 62
     7
 48
1.5
370
    15
100
AcDbLine
 10
16.4075492346
 20
5.5168334111
 30
0.0
 11
16.3925492212
 21
5.5168334111
 31
0.0
  0
ARC
  5
2EA
330
1F
100
AcDbEntity
  8
0
  6
Continuous
 62
     7
 48
2.25
370
    15
100
AcDbCircle
 10
16.4075492661
 20
5.531833372
 30
0.0
 40
0.093
100
AcDbArc
 50
180.0
 51
270.0
  0
LWPOLYLINE
  5
2EB
330
1F
100
AcDbEntity
  8
0
  6
Continuous
 62
     7
 48
1.5
370
    15
100
AcDbPolyline
 90
       10
 70
   128
 43
0.0
 10
19.736549311
 20
9.1108333329
 10
19.7363213936
 20
9.1106054155
 10
19.7356446814
 20
9.1099287034
 10
19.7345397075
 20
9.1088237295
 10
19.7330399115
 20
9.1073240801
 10
19.7311910529
 20
9.1054752215
 10
19.7290493043
 20
9.1033333262
 10
19.7266796383
 20
9.1009636603
 10
19.7241539209
 20
9.0984380894
 10
19.7215492976
 20
9.0958333195
  0
LWPOLYLINE
  5
2EC
330
1F
100
AcDbEntity
  8
0
  6
Continuous
 62
     7
 48
1.5
370
    15
100
AcDbPolyline
 90
       10
 70
   128
 43
0.0
 10
19.7215492976
 20
5.5318334245
 10
19.7241539209
 20
5.5292286546
 10
19.7266796383
 20
5.5267030838
 10
19.7290493043
 20
5.5243334178
 10
19.7311910529
 20
5.5221915225
 10
19.7330399115
 20
5.5203426639
 10
19.7345397075
 20
5.5188430146
 10
19.7356446814
 20
5.5177380407
 10
19.7363213936
 20
5.5170613285
 10
19.736549311
 20
5.5168334111
  0
LWPOLYLINE
  5
2ED
330
1F
100
AcDbEntity
  8
0
  6
Continuous
 62
     7
 48
1.5
370
    15
100
AcDbPolyline
 90
        9
 70
   128
 43
0.0
 10
16.4075492346
 20
9.0958333195
 10
16.404622975
 20
9.0987597257
 10
16.4018090609
 20
9.1015736399
 10
16.3992157308
 20
9.1041669699
 10
16.3969427171
 20
9.1064399837
 10
16.3950772853
 20
9.1083054154
 10
16.393691008
 20
9.1096915461
 10
16.3928374178
 20
9.1105451362
 10
16.3925492212
 20
9.1108333329
  0
LWPOLYLINE
  5
2EE
330
1F
100
AcDbEntity
  8
0
  6
Continuous
 62
     7
 48
1.5
370
    15
100
AcDbPolyline
 90
        9
 70
   128
 43
0.0
 10
16.3925492212
 20
5.5168334111
 10
16.3928374178
 20
5.5171216078
 10
16.393691008
 20
5.5179751979
 10
16.3950772853
 20
5.5193613286
 10
16.3969427171
 20
5.5212267604
 10
16.3992157308
 20
5.5234997741
 10
16.4018090609
 20
5.5260931041
 10
16.404622975
 20
5.5289070183
 10
16.4075492346
 20
5.5318334245
  0
LINE
  5
2EF
330
1F
100
AcDbEntity
  8
0
  6
Continuous
 62
     7
 48
1.5
370
    15
100
AcDbLine
 10
19.1425492796
 20
5.3448333847
 30
0.0
 11
19.1425492796
 21
5.2828334076
 31
0.0
  0
ARC
  5
2F0
330
1F
100
AcDbEntity
  8
0
  6
Continuous
 62
     7
 48
2.25
370
    15
100
AcDbCircle
 10
19.2520492661
 20
5.282833372
 30
0.0
 40
0.1095000000000006
100
AcDbArc
 50
180.0
 51
0.0
  0
LINE
  5
2F1
330
1F
100
AcDbEntity
  8
0
  6
Continuous
 62
     7
 48
1.5
370
    15
100
AcDbLine
 10
19.3615492697
 20
5.2828334076
 30
0.0
 11
19.3615492697
 21
5.3448333847
 31
0.0
  0
ARC
  5
2F2
330
1F
100
AcDbEntity
  8
0
  6
Continuous
 62
     7
 48
2.25
370
    15
100
AcDbCircle
 10
19.2520492661
 20
5.344833372
 30
0.0
 40
0.1095000000000006
100
AcDbArc
 50
0.0
 51
180.0
  0
ARC
  5
2F3
330
1F
100
AcDbEntity
  8
0
  6
Continuous
 62
     7
 48
2.25
370
    15
100
AcDbCircle
 10
16.8145492661
 20
5.313833372
 30
0.0
 40
0.25
100
AcDbArc
 50
180.0
 51
270.0
  0
LINE
  5
2F4
330
1F
100
AcDbEntity
  8
0
  6
Continuous
 62
     7
 48
1.5
370
    15
100
AcDbLine
 10
16.5645492475
 20
5.3138333962
 30
0.0
 11
16.5645492475
 21
6.5638333627
 31
0.0
  0
LINE
  5
2F5
330
1F
100
AcDbEntity
  8
0
  6
Continuous
 62
     7
 48
1.5
370
    15
100
AcDbLine
 10
19.314549306
 20
5.0638334175
 30
0.0
 11
16.8145492262
 21
5.0638334175
 31
0.0
  0
LINE
  5
2F6
330
1F
100
AcDbEntity
  8
0
  6
Continuous
 62
     7
 48
1.5
370
    15
100
AcDbLine
 10
16.7675492625
 20
5.2828334076
 30
0.0
 11
16.7675492625
 21
5.3448333847
 31
0.0
  0
ARC
  5
2F7
330
1F
100
AcDbEntity
  8
0
  6
Continuous
 62
     7
 48
2.25
370
    15
100
AcDbCircle
 10
16.8770492661
 20
5.282833372
 30
0.0
 40
0.1095000000000006
100
AcDbArc
 50
180.0
 51
0.0
  0
LINE
  5
2F8
330
1F
100
AcDbEntity
  8
0
  6
Continuous
 62
     7
 48
1.5
370
    15
100
AcDbLine
 10
16.9865492526
 20
5.3448333847
 30
0.0
 11
16.9865492526
 21
5.2828334076
 31
0.0
  0
ARC
  5
2F9
330
1F
100
AcDbEntity
  8
0
  6
Continuous
 62
     7
 48
2.25
370
    15
100
AcDbCircle
 10
16.8770492661
 20
5.344833372
 30
0.0
 40
0.1095000000000006
100
AcDbArc
 50
0.0
 51
180.0
  0
ARC
  5
2FA
330
1F
100
AcDbEntity
  8
0
  6
Continuous
 62
     7
 48
2.25
370
    15
100
AcDbCircle
 10
19.3145492661
 20
5.313833372
 30
0.0
 40
0.2499999999999991
100
AcDbArc
 50
270.0
 51
0.0
  0
LINE
  5
2FB
330
1F
100
AcDbEntity
  8
0
  6
Continuous
 62
     7
 48
1.5
370
    15
100
AcDbLine
 10
19.5645492846
 20
5.3138333962
 30
0.0
 11
19.5645492846
 21
6.5638333627
 31
0.0
  0
LINE
  5
2FC
330
1F
100
AcDbEntity
  8
0
  6
Continuous
 62
     7
 48
1.5
370
    15
100
AcDbLine
 10
16.5645492475
 20
6.5638333627
 30
0.0
 11
19.5645492846
 21
6.5638333627
 31
0.0
  0
LINE
  5
2FD
330
1F
100
AcDbEntity
  8
0
  6
Continuous
 62
     7
 48
1.5
370
    15
100
AcDbLine
 10
16.9865492526
 20
9.2828333593
 30
0.0
 11
16.9865492526
 21
9.3448333364
 31
0.0
  0
ARC
  5
2FE
330
1F
100
AcDbEntity
  8
0
  6
Continuous
 62
     7
 48
2.25
370
    15
100
AcDbCircle
 10
16.8770492661
 20
9.344833372
 30
0.0
 40
0.1095000000000006
100
AcDbArc
 50
0.0
 51
180.0
  0
LINE
  5
2FF
330
1F
100
AcDbEntity
  8
0
  6
Continuous
 62
     7
 48
1.5
370
    15
100
AcDbLine
 10
16.7675492625
 20
9.3448333364
 30
0.0
 11
16.7675492625
 21
9.2828333593
 31
0.0
  0
ARC
  5
300
330
1F
100
AcDbEntity
  8
0
  6
Continuous
 62
     7
 48
2.25
370
    15
100
AcDbCircle
 10
16.8770492661
 20
9.282833372
 30
0.0
 40
0.1095000000000006
100
AcDbArc
 50
180.0
 51
0.0
  0
ARC
  5
301
330
1F
100
AcDbEntity
  8
0
  6
Continuous
 62
     7
 48
2.25
370
    15
100
AcDbCircle
 10
19.3145492661
 20
9.313833372
 30
0.0
 40
0.2499999999999982
100
AcDbArc
 50
0.0
 51
90.0
  0
LINE
  5
302
330
1F
100
AcDbEntity
  8
0
  6
Continuous
 62
     7
 48
1.5
370
    15
100
AcDbLine
 10
19.5645492846
 20
9.3138333478
 30
0.0
 11
19.5645492846
 21
8.0638333813
 31
0.0
  0
LINE
  5
303
330
1F
100
AcDbEntity
  8
0
  6
Continuous
 62
     7
 48
1.5
370
    15
100
AcDbLine
 10
19.5645492846
 20
8.0638333813
 30
0.0
 11
16.5645492475
 21
8.0638333813
 31
0.0
  0
LINE
  5
304
330
1F
100
AcDbEntity
  8
0
  6
Continuous
 62
     7
 48
1.5
370
    15
100
AcDbLine
 10
16.5645492475
 20
9.3138333478
 30
0.0
 11
16.5645492475
 21
8.0638333813
 31
0.0
  0
ARC
  5
305
330
1F
100
AcDbEntity
  8
0
  6
Continuous
 62
     7
 48
2.25
370
    15
100
AcDbCircle
 10
16.8145492661
 20
9.313833372
 30
0.0
 40
0.25
100
AcDbArc
 50
90.0
 51
180.0
  0
LINE
  5
306
330
1F
100
AcDbEntity
  8
0
  6
Continuous
 62
     7
 48
1.5
370
    15
100
AcDbLine
 10
16.8145492262
 20
9.5638333265
 30
0.0
 11
19.314549306
 21
9.5638333265
 31
0.0
  0
LINE
  5
307
330
1F
100
AcDbEntity
  8
0
  6
Continuous
 62
     7
 48
1.5
370
    15
100
AcDbLine
 10
19.3615492697
 20
9.3448333364
 30
0.0
 11
19.3615492697
 21
9.2828333593
 31
0.0
  0
ARC
  5
308
330
1F
100
AcDbEntity
  8
0
  6
Continuous
 62
     7
 48
2.25
370
    15
100
AcDbCircle
 10
19.2520492661
 20
9.344833372
 30
0.0
 40
0.1095000000000006
100
AcDbArc
 50
0.0
 51
180.0
  0
LINE
  5
309
330
1F
100
AcDbEntity
  8
0
  6
Continuous
 62
     7
 48
1.5
370
    15
100
AcDbLine
 10
19.1425492796
 20
9.2828333593
 30
0.0
 11
19.1425492796
 21
9.3448333364
 31
0.0
  0
ARC
  5
30A
330
1F
100
AcDbEntity
  8
0
  6
Continuous
 62
     7
 48
2.25
370
    15
100
AcDbCircle
 10
19.2520492661
 20
9.282833372
 30
0.0
 40
0.1095000000000006
100
AcDbArc
 50
180.0
 51
0.0
  0
ARC
  5
30B
330
1F
100
AcDbEntity
  8
0
  6
Continuous
 62
     7
 48
2.25
370
    15
100
AcDbCircle
 10
19.5965492661
 20
8.970833372
 30
0.0
 40
0.093
100
AcDbArc
 50
0.0
 51
90.0
  0
LINE
  5
30C
330
1F
100
AcDbEntity
  8
0
  6
Continuous
 62
     7
 48
1.5
370
    15
100
AcDbLine
 10
19.6895492006
 20
5.6568333405
 30
0.0
 11
19.6895492006
 21
8.9708334035
 31
0.0
  0
ARC
  5
30D
330
1F
100
AcDbEntity
  8
0
  6
Continuous
 62
     7
 48
2.25
370
    15
100
AcDbCircle
 10
19.5965492661
 20
5.656833372
 30
0.0
 40
0.093
100
AcDbArc
 50
270.0
 51
0.0
  0
LINE
  5
30E
330
1F
100
AcDbEntity
  8
0
  6
Continuous
 62
     7
 48
1.5
370
    15
100
AcDbLine
 10
19.596549235
 20
9.0638333692
 30
0.0
 11
19.5645492846
 21
9.0638333692
 31
0.0
  0
LINE
  5
30F
330
1F
100
AcDbEntity
  8
0
  6
Continuous
 62
     7
 48
1.5
370
    15
100
AcDbLine
 10
16.5645492475
 20
9.0638333692
 30
0.0
 11
16.5325492972
 21
9.0638333692
 31
0.0
  0
LINE
  5
310
330
1F
100
AcDbEntity
  8
0
  6
Continuous
 62
     7
 48
1.5
370
    15
100
AcDbLine
 10
16.5325492972
 20
5.5638333748
 30
0.0
 11
16.5645492475
 21
5.5638333748
 31
0.0
  0
LINE
  5
311
330
1F
100
AcDbEntity
  8
0
  6
Continuous
 62
     7
 48
1.5
370
    15
100
AcDbLine
 10
19.5645492846
 20
5.5638333748
 30
0.0
 11
19.596549235
 21
5.5638333748
 31
0.0
  0
ARC
  5
312
330
1F
100
AcDbEntity
  8
0
  6
Continuous
 62
     7
 48
2.25
370
    15
100
AcDbCircle
 10
16.5325492661
 20
8.970833372
 30
0.0
 40
0.093
100
AcDbArc
 50
90.0
 51
180.0
  0
LINE
  5
313
330
1F
100
AcDbEntity
  8
0
  6
Continuous
 62
     7
 48
1.5
370
    15
100
AcDbLine
 10
16.4395493316
 20
8.9708334035
 30
0.0
 11
16.4395493316
 21
5.6568333405
 31
0.0
  0
ARC
  5
314
330
1F
100
AcDbEntity
  8
0
  6
Continuous
 62
     7
 48
2.25
370
    15
100
AcDbCircle
 10
16.5325492661
 20
5.656833372
 30
0.0
 40
0.093
100
AcDbArc
 50
180.0
 51
270.0
  0
DIMENSION
  5
315
330
1F
100
AcDbEntity
  8
0
  6
Continuous
 62
     7
 48
1.5
370
     0
100
AcDbDimension
  2
*D13
 10
19.2520492661
 20
4.4732821909
 30
0.0
 11
18.1033970699
 21
4.4732821909
 31
0.0
 70
   160
 71
     2
 42
-1.0
  3
SLDDIMSTYLE3
100
AcDbAlignedDimension
 13
16.8770492661
 23
5.282833372
 33
0.0
 14
19.2520492661
 24
5.282833372
 34
0.0
100
AcDbRotatedDimension
  0
DIMENSION
  5
327
330
1F
100
AcDbEntity
  8
0
  6
Continuous
 62
     7
 48
1.5
370
     0
100
AcDbDimension
  2
*D14
 10
15.723998085
 20
5.063833372
 30
0.0
 11
15.723998085
 21
7.313833372
 31
0.0
 70
   160
 71
     2
 42
-1.0
  3
SLDDIMSTYLE0
100
AcDbAlignedDimension
 13
16.8145492661
 23
9.563833372
 33
0.0
 14
16.8145492661
 24
5.063833372
 34
0.0
 50
90.0
100
AcDbRotatedDimension
  0
DIMENSION
  5
339
330
1F
100
AcDbEntity
  8
0
  6
Continuous
 62
     7
 48
1.5
370
     0
100
AcDbDimension
  2
*D15
 10
19.5645492661
 20
10.1543845531
 30
0.0
 11
18.0645492661
 21
10.1543845531
 31
0.0
 70
   160
 71
     2
 42
-1.0
  3
SLDDIMSTYLE0
100
AcDbAlignedDimension
 13
16.5645492661
 23
9.313833372
 33
0.0
 14
19.5645492661
 24
9.313833372
 34
0.0
100
AcDbRotatedDimension
  0
MTEXT
  5
34B
330
1F
100
AcDbEntity
  8
0
  6
Continuous
 62
     7
 48
1.5
370
     0
100
AcDbMText
 10
20.1612788221
 20
4.5867255611
 30
0.0
 40
0.1875
 41
0.0
 71
     1
 72
     1
  1
.22 [5.6] x .28 [7.1] OBLONG
  7
SLDTEXTSTYLE0
 73
     1
 44
1.0
  0
LEADER
  5
34C
330
1F
100
AcDbEntity
  8
0
  6
Continuous
 62
     7
 48
1.5
370
     0
100
AcDbLeader
  3
SLDDIMSTYLE4
 76
     3
 10
19.3346997285
 20
5.2110061414
 30
0.0
 10
19.7566462848
 20
4.4958683472
 30
0.0
 10
20.1316462848
 20
4.4958683472
 30
0.0
  0
SPLINE
  5
34D
330
1F
100
AcDbEntity
  8
0
  6
Continuous
 62
     7
 48
1.5
370
    15
100
AcDbSpline
210
0.0
220
0.0
230
1.0
 70
     8
 71
     3
 72
    13
 73
     9
 74
     0
 42
0.00000001
 43
0.00000001
 40
0.0
 40
0.0
 40
0.0
 40
0.0
 40
0.1568355258158165
 40
0.3236734564875689
 40
0.4927001502221745
 40
0.6652501566004272
 40
0.840539814814469
 40
0.9999999999999999
 40
0.9999999999999999
 40
0.9999999999999999
 40
0.9999999999999999
 10
20.14790441475719
 20
13.43378594426737
 30
0.0
 10
20.14158742912705
 20
13.42949497233942
 30
0.0
 10
20.12855058327944
 20
13.42063936575164
 30
0.0
 10
20.11335309640448
 20
13.40090788234535
 30
0.0
 10
20.1016228642534
 20
13.376853585619
 30
0.0
 10
20.09434584100114
 20
13.34863457361495
 30
0.0
 10
20.09123662212749
 20
13.31817581760565
 30
0.0
 10
20.09290739846271
 20
13.29627764563988
 30
0.0
 10
20.09370328323779
 20
13.28584631422707
 30
0.0
  0
SPLINE
  5
34E
330
1F
100
AcDbEntity
  8
0
  6
Continuous
 62
     7
 48
1.5
370
    15
100
AcDbSpline
210
0.0
220
0.0
230
1.0
 70
     8
 71
     3
 72
     9
 73
     5
 74
     0
 42
0.00000001
 43
0.00000001
 40
0.0
 40
0.0
 40
0.0
 40
0.0
 40
0.1859870490084542
 40
0.9999999999999999
 40
0.9999999999999999
 40
0.9999999999999999
 40
0.9999999999999999
 10
20.23840965178361
 20
13.02910216118934
 30
0.0
 10
20.23997277509747
 20
13.02779513782228
 30
0.0
 10
20.24837724907669
 20
13.02076764115499
 30
0.0
 10
20.25712226238581
 20
13.01565596277015
 30
0.0
 10
20.26424081647604
 20
13.01149499036358
 30
0.0
  0
SPLINE
  5
34F
330
1F
100
AcDbEntity
  8
0
  6
Continuous
 62
     7
 48
1.5
370
    15
100
AcDbSpline
210
0.0
220
0.0
230
1.0
 70
     8
 71
     3
 72
    13
 73
     9
 74
     0
 42
0.00000001
 43
0.00000001
 40
0.0
 40
0.0
 40
0.0
 40
0.0
 40
0.1022502780093312
 40
0.2962671348335726
 40
0.4901816451307509
 40
0.6818756950203718
 40
0.8694069145613642
 40
1.0
 40
1.0
 40
1.0
 40
1.0
 10
20.26424081647604
 20
13.01149499036358
 30
0.0
 10
20.26931629243403
 20
13.00870251873385
 30
0.0
 10
20.28402233284062
 20
13.00061141536523
 30
0.0
 10
20.30844687138781
 20
12.99142541833707
 30
0.0
 10
20.33677983466594
 20
12.98616283541031
 30
0.0
 10
20.36349016884853
 20
12.98741600181385
 30
0.0
 10
20.38588672914135
 20
12.99346911645424
 30
0.0
 10
20.39760201019454
 20
13.00147897584618
 30
0.0
 10
20.40241124569012
 20
13.00476710012826
 30
0.0
  0
LINE
  5
350
330
1F
100
AcDbEntity
  8
0
  6
Continuous
 62
     7
 48
1.5
370
    15
100
AcDbLine
 10
20.1780610258
 20
13.4510265083
 30
0.0
 11
20.1496255388
 21
13.4349957468
 31
0.0
  0
LINE
  5
351
330
1F
100
AcDbEntity
  8
0
  6
Continuous
 62
     7
 48
1.5
370
    15
100
AcDbLine
 10
20.3951726415
 20
12.9994424241
 30
0.0
 11
20.4236081285
 21
13.0154731856
 31
0.0
  0
LWPOLYLINE
  5
352
330
1F
100
AcDbEntity
  8
0
  6
Continuous
 62
     7
 48
1.5
370
    15
100
AcDbPolyline
 90
       22
 70
   128
 43
0.0
 10
20.4209144351
 20
13.0146600852
 10
20.4368390756
 20
13.0245009226
 10
20.4538910199
 20
13.0423601162
 10
20.4669853779
 20
13.0647432124
 10
20.4759606801
 20
13.0913778889
 10
20.4805395191
 20
13.1217728223
 10
20.4805286908
 20
13.1551195779
 10
20.4759296037
 20
13.1904527281
 10
20.466911018
 20
13.2268102109
 10
20.4537435877
 20
13.2632883393
 10
20.4367809454
 20
13.2989979993
 10
20.4164506955
 20
13.3330704509
 10
20.3932475981
 20
13.3646701781
 10
20.3677235458
 20
13.3930119204
 10
20.3404616391
 20
13.4173869609
 10
20.3120623863
 20
13.4371609716
 10
20.2831373481
 20
13.4517701767
 10
20.2543399759
 20
13.4607058835
 10
20.2264853719
 20
13.4635450739
 10
20.2005594392
 20
13.4601277284
 10
20.1819194527
 20
13.452520469
 10
20.1819194527
 20
13.452520469
  0
SPLINE
  5
353
330
1F
100
AcDbEntity
  8
0
  6
Continuous
 62
     7
 48
1.5
370
    15
100
AcDbSpline
210
0.0
220
0.0
230
1.0
 70
     8
 71
     3
 72
    13
 73
     9
 74
     0
 42
0.00000001
 43
0.00000001
 40
0.0
 40
0.0
 40
0.0
 40
0.0
 40
0.1560337891969769
 40
0.3220172219146712
 40
0.4901798240370346
 40
0.6618464362609695
 40
0.8362398366077047
 40
1.0
 40
1.0
 40
1.0
 40
1.0
 10
21.89881217010401
 20
10.15767986778405
 30
0.0
 10
21.89249518827042
 20
10.15338885998121
 30
0.0
 10
21.87945841622632
 20
10.14453322416669
 30
0.0
 10
21.86426055857974
 20
10.12480183857901
 30
0.0
 10
21.85253181785538
 20
10.10074688428568
 30
0.0
 10
21.84524908441892
 20
10.07253062072702
 30
0.0
 10
21.84212915022665
 20
10.04175304571936
 30
0.0
 10
21.84383476370578
 20
10.01951398476988
 30
0.0
 10
21.8446607539421
 20
10.00874410786984
 30
0.0
  0
LINE
  5
354
330
1F
100
AcDbEntity
  8
0
  6
Continuous
 62
     7
 48
1.5
370
    15
100
AcDbLine
 10
21.9985148997
 20
9.7462147279
 30
0.0
 11
22.015148623
 21
9.7353887636
 31
0.0
  0
SPLINE
  5
355
330
1F
100
AcDbEntity
  8
0
  6
Continuous
 62
     7
 48
1.5
370
    15
100
AcDbSpline
210
0.0
220
0.0
230
1.0
 70
     8
 71
     3
 72
    13
 73
     9
 74
     0
 42
0.00000001
 43
0.00000001
 40
0.0
 40
0.0
 40
0.0
 40
0.0
 40
0.1022503360791267
 40
0.2962669388237805
 40
0.4901815459345507
 40
0.6818755330942027
 40
0.8694073403871353
 40
1.0
 40
1.0
 40
1.0
 40
1.0
 10
22.0151486230057
 20
9.735388763648583
 30
0.0
 10
22.02022409888526
 20
9.732596315483027
 30
0.0
 10
22.0349301209833
 20
9.724505290049208
 30
0.0
 10
22.05935464621901
 20
9.715319265125666
 30
0.0
 10
22.08768757452423
 20
9.710056721202978
 30
0.0
 10
22.11439795951541
 20
9.711309795564292
 30
0.0
 10
22.13679451157202
 20
9.7173628992413
 30
0.0
 10
22.14850974957286
 20
9.725372845772743
 30
0.0
 10
22.1533189492657
 20
9.728660993431022
 30
0.0
  0
LINE
  5
356
330
1F
100
AcDbEntity
  8
0
  6
Continuous
 62
     7
 48
1.5
370
    15
100
AcDbLine
 10
21.9289687807
 20
10.1749203116
 30
0.0
 11
21.9005332938
 21
10.15888955
 31
0.0
  0
LINE
  5
357
330
1F
100
AcDbEntity
  8
0
  6
Continuous
 62
     7
 48
1.5
370
    15
100
AcDbLine
 10
22.1460803965
 20
9.7233362273
 30
0.0
 11
22.1745158834
 21
9.7393669889
 31
0.0
  0
LWPOLYLINE
  5
358
330
1F
100
AcDbEntity
  8
0
  6
Continuous
 62
     7
 48
1.5
370
    15
100
AcDbPolyline
 90
       22
 70
   128
 43
0.0
 10
22.1718221902
 20
9.7385539486
 10
22.1877468822
 20
9.7483946958
 10
22.2047988265
 20
9.7662538895
 10
22.2178930813
 20
9.7886370456
 10
22.226868435
 20
9.8152716921
 10
22.2314472228
 20
9.8456667758
 10
22.2314363942
 20
9.8790134111
 10
22.2268373587
 20
9.9143465313
 10
22.2178188245
 20
9.9507039842
 10
22.2046513427
 20
9.9871821425
 10
22.1876887004
 20
10.0228918025
 10
22.1673584506
 20
10.0569643143
 10
22.1441553532
 20
10.0885640414
 10
22.118631301
 20
10.1169057838
 10
22.0913693425
 20
10.141280794
 10
22.0629700897
 20
10.1610548048
 10
22.0340450515
 20
10.1756640099
 10
22.0052476793
 20
10.1845997167
 10
21.9773931272
 20
10.1874389974
 10
21.9514672457
 20
10.1840215017
 10
21.9328271561
 20
10.1764143022
 10
21.9328271561
 20
10.1764143022
  0
SPLINE
  5
359
330
1F
100
AcDbEntity
  8
0
  6
Continuous
 62
     7
 48
1.5
370
    15
100
AcDbSpline
210
0.0
220
0.0
230
1.0
 70
     8
 71
     3
 72
    22
 73
    18
 74
     0
 42
0.00000001
 43
0.00000001
 40
0.0
 40
0.0
 40
0.0
 40
0.0
 40
0.0570479152326467
 40
0.1196241457222438
 40
0.1815082546887425
 40
0.2446582408549841
 40
0.3108383011664301
 40
0.3810894095964944
 40
0.4548067747857022
 40
0.5297801225846825
 40
0.6048765827498956
 40
0.6805102657108749
 40
0.7574447094436183
 40
0.8367081272358261
 40
0.9080246260770288
 40
0.9748397403852481
 40
1.0
 40
1.0
 40
1.0
 40
1.0
 10
21.89840422440628
 20
10.07613088965674
 30
0.0
 10
21.89169958162557
 20
10.07196622388781
 30
0.0
 10
21.87764057242698
 20
10.06323330906007
 30
0.0
 10
21.86100753858289
 20
10.04419786926499
 30
0.0
 10
21.84811887866503
 20
10.02185661354046
 30
0.0
 10
21.83986526365909
 20
9.996869961901087
 30
0.0
 10
21.8361146637575
 20
9.969524660688016
 30
0.0
 10
21.83711165157543
 20
9.939950332298594
 30
0.0
 10
21.84309501187471
 20
9.908868178806397
 30
0.0
 10
21.85399126764146
 20
9.877527157693164
 30
0.0
 10
21.86936912475764
 20
9.847290284361486
 30
0.0
 10
21.88875880647253
 20
9.819220402766065
 30
0.0
 10
21.91187981200899
 20
9.79417941329463
 30
0.0
 10
21.93742513205886
 20
9.774035492766847
 30
0.0
 10
21.96411835795369
 20
9.759756407937484
 30
0.0
 10
21.98554751797477
 20
9.752787880430217
 30
0.0
 10
21.99798553140753
 20
9.750874014901147
 30
0.0
 10
22.00138800354449
 20
9.750350468743896
 30
0.0
  0
SPLINE
  5
35A
330
1F
100
AcDbEntity
  8
0
  6
Continuous
 62
     7
 48
1.5
370
    15
100
AcDbSpline
210
0.0
220
0.0
230
1.0
 70
     8
 71
     3
 72
    10
 73
     6
 74
     0
 42
0.00000001
 43
0.00000001
 40
0.0
 40
0.0
 40
0.0
 40
0.0
 40
0.3100648100481934
 40
0.6534452293274458
 40
1.0
 40
1.0
 40
1.0
 40
1.0
 10
22.00138800354449
 20
9.750350468743896
 30
0.0
 10
22.0090137574289
 20
9.749787174898742
 30
0.0
 10
22.0250846314343
 20
9.748600062837335
 30
0.0
 10
22.04990400703477
 20
9.75252929324433
 30
0.0
 10
22.06538723923868
 20
9.759967680739068
 30
0.0
 10
22.07316447406282
 20
9.763703986279003
 30
0.0
  0
LINE
  5
35B
330
1F
100
AcDbEntity
  8
0
  6
Continuous
 62
     7
 48
1.5
370
    15
100
AcDbLine
 10
21.9031610336
 20
10.1139891535
 30
0.0
 11
21.8812124414
 21
10.0983082476
 31
0.0
  0
LINE
  5
35C
330
1F
100
AcDbEntity
  8
0
  6
Continuous
 62
     7
 48
1.5
370
    15
100
AcDbLine
 10
22.0842461091
 20
9.7381655619
 30
0.0
 11
22.1090242622
 21
9.7488274259
 31
0.0
  0
LINE
  5
35D
330
1F
100
AcDbEntity
  8
0
  6
Continuous
 62
     7
 48
1.5
370
    15
100
AcDbLine
 10
21.901141232
 20
10.0780611022
 30
0.0
 11
21.8981184784
 21
10.0763569977
 31
0.0
  0
LINE
  5
35E
330
1F
100
AcDbEntity
  8
0
  6
Continuous
 62
     7
 48
1.5
370
    15
100
AcDbLine
 10
22.0742162967
 20
9.7639933731
 30
0.0
 11
22.0772390503
 21
9.7656974776
 31
0.0
  0
SPLINE
  5
35F
330
1F
100
AcDbEntity
  8
0
  6
Continuous
 62
     7
 48
1.5
370
    15
100
AcDbSpline
210
0.0
220
0.0
230
1.0
 70
     8
 71
     3
 72
    22
 73
    18
 74
     0
 42
0.00000001
 43
0.00000001
 40
0.0
 40
0.0
 40
0.0
 40
0.0
 40
0.0334035183008643
 40
0.0979324606062257
 40
0.160960922177026
 40
0.2245108596475298
 40
0.2904847103432002
 40
0.3603369931319246
 40
0.4341937957070539
 40
0.510329210442571
 40
0.5867277487950948
 40
0.6634070196116552
 40
0.7411105547744895
 40
0.8207430462466023
 40
0.8945364702542375
 40
0.9634884915829212
 40
1.0
 40
1.0
 40
1.0
 40
1.0
 10
20.14804366981299
 20
13.3519752525989
 30
0.0
 10
20.14400722442236
 20
13.34991062790467
 30
0.0
 10
20.13217317072638
 20
13.3438575596406
 30
0.0
 10
20.11646501447577
 20
13.32823984355403
 30
0.0
 10
20.10167029622329
 20
13.30709413042427
 30
0.0
 10
20.09166641109116
 20
13.28303508592269
 30
0.0
 10
20.08612447761823
 20
13.25662982031859
 30
0.0
 10
20.08522972542946
 20
13.22787691634568
 30
0.0
 10
20.08924411155012
 20
13.19725558419684
 30
0.0
 10
20.09825517468724
 20
13.16584175686764
 30
0.0
 10
20.11194379165709
 20
13.13502033009748
 30
0.0
 10
20.12980909384398
 20
13.10599515389406
 30
0.0
 10
20.15149054709992
 20
13.07967164124815
 30
0.0
 10
20.17591046035764
 20
13.0577109694578
 30
0.0
 10
20.20182803700261
 20
13.04127726334244
 30
0.0
 10
20.22430835858285
 20
13.03181026904004
 30
0.0
 10
20.23815393403958
 20
13.02872097757477
 30
0.0
 10
20.24294727678135
 20
13.02765146386128
 30
0.0
  0
SPLINE
  5
360
330
1F
100
AcDbEntity
  8
0
  6
Continuous
 62
     7
 48
1.5
370
    15
100
AcDbSpline
210
0.0
220
0.0
230
1.0
 70
     8
 71
     3
 72
    11
 73
     7
 74
     0
 42
0.00000001
 43
0.00000001
 40
0.0
 40
0.0
 40
0.0
 40
0.0
 40
0.2727753200388354
 40
0.5831428302287117
 40
0.8884485305136243
 40
1.0
 40
1.0
 40
1.0
 40
1.0
 10
20.24294727678135
 20
13.02765146386128
 30
0.0
 10
20.2503875224043
 20
13.0266110795643
 30
0.0
 10
20.26629338181102
 20
13.02438693170745
 30
0.0
 10
20.29070550932615
 20
13.02722423452045
 30
0.0
 10
20.31042847086599
 20
13.03261622964362
 30
0.0
 10
20.32010611827466
 20
13.03891372672914
 30
0.0
 10
20.3226958681168
 20
13.04059894436463
 30
0.0
  0
LINE
  5
361
330
1F
100
AcDbEntity
  8
0
  6
Continuous
 62
     7
 48
1.5
370
    15
100
AcDbLine
 10
20.1522533302
 20
13.3900953203
 30
0.0
 11
20.1303046349
 21
13.3744144743
 31
0.0
  0
LINE
  5
362
330
1F
100
AcDbEntity
  8
0
  6
Continuous
 62
     7
 48
1.5
370
    15
100
AcDbLine
 10
20.3333383026
 20
13.0142717886
 30
0.0
 11
20.358116507
 21
13.0249335625
 31
0.0
  0
LINE
  5
363
330
1F
100
AcDbEntity
  8
0
  6
Continuous
 62
     7
 48
1.5
370
    15
100
AcDbLine
 10
20.150233477
 20
13.354167299
 30
0.0
 11
20.1472107234
 21
13.3524631945
 31
0.0
  0
LINE
  5
364
330
1F
100
AcDbEntity
  8
0
  6
Continuous
 62
     7
 48
1.5
370
    15
100
AcDbLine
 10
20.3233085417
 20
13.0400995699
 30
0.0
 11
20.3263312953
 21
13.0418036744
 31
0.0
  0
SPLINE
  5
365
330
1F
100
AcDbEntity
  8
0
  6
Continuous
 62
     7
 48
1.5
370
    15
100
AcDbSpline
210
0.0
220
0.0
230
1.0
 70
     8
 71
     3
 72
    22
 73
    18
 74
     0
 42
0.00000001
 43
0.00000001
 40
0.0
 40
0.0
 40
0.0
 40
0.0
 40
0.0334033639454921
 40
0.0979326379329074
 40
0.1609608140743146
 40
0.2245107485475531
 40
0.2904844186972394
 40
0.3603368206438418
 40
0.4341936197355934
 40
0.5103293271165078
 40
0.5867278453066851
 40
0.6634071059079408
 40
0.7411106374059704
 40
0.8207430637154837
 40
0.8945364842427305
 40
0.963488502319365
 40
1.0
 40
1.0
 40
1.0
 40
1.0
 10
20.19045036804312
 20
11.12443297489307
 30
0.0
 10
20.18641400661692
 20
11.12236834712917
 30
0.0
 10
20.17458012297685
 20
11.11631523093411
 30
0.0
 10
20.1588717151031
 20
11.10069749330348
 30
0.0
 10
20.14407699453794
 20
11.07955183589947
 30
0.0
 10
20.13407303339986
 20
11.0554928047707
 30
0.0
 10
20.12853152778493
 20
11.02908766309097
 30
0.0
 10
20.12763631005385
 20
11.00033462029119
 30
0.0
 10
20.13165088370811
 20
10.96971328705752
 30
0.0
 10
20.14066173792616
 20
10.93829934790324
 30
0.0
 10
20.15435085646289
 20
10.90747813202622
 30
0.0
 10
20.17221569478062
 20
10.87845270375508
 30
0.0
 10
20.1938972595936
 20
10.85212924890526
 30
0.0
 10
20.21831716490988
 20
10.83016864090383
 30
0.0
 10
20.24423473580026
 20
10.81373491114012
 30
0.0
 10
20.26671505364846
 20
10.80426796489719
 30
0.0
 10
20.28056063173926
 20
10.80117860358148
 30
0.0
 10
20.28535397461921
 20
10.80010906585838
 30
0.0
  0
SPLINE
  5
366
330
1F
100
AcDbEntity
  8
0
  6
Continuous
 62
     7
 48
1.5
370
    15
100
AcDbSpline
210
0.0
220
0.0
230
1.0
 70
     8
 71
     3
 72
    11
 73
     7
 74
     0
 42
0.00000001
 43
0.00000001
 40
0.0
 40
0.0
 40
0.0
 40
0.0
 40
0.2727755312466563
 40
0.5831431340642451
 40
0.888450209405238
 40
1.0
 40
1.0
 40
1.0
 40
1.0
 10
20.28535397461921
 20
10.80010906585838
 30
0.0
 10
20.29279422441038
 20
10.79906870787246
 30
0.0
 10
20.30870008869965
 20
10.79684461682705
 30
0.0
 10
20.3331121712704
 20
10.79968187612716
 30
0.0
 10
20.35283538601205
 20
10.80507395095919
 30
0.0
 10
20.36251289124698
 20
10.81137137295494
 30
0.0
 10
20.36510256595466
 20
10.81305654636173
 30
0.0
  0
LINE
  5
367
330
1F
100
AcDbEntity
  8
0
  6
Continuous
 62
     7
 48
1.5
370
    15
100
AcDbLine
 10
20.1946602366
 20
11.1625530399
 30
0.0
 11
20.1727113327
 21
11.1468720763
 31
0.0
  0
LINE
  5
368
330
1F
100
AcDbEntity
  8
0
  6
Continuous
 62
     7
 48
1.5
370
    15
100
AcDbLine
 10
20.3757450004
 20
10.7867293906
 30
0.0
 11
20.4005234136
 21
10.7973913422
 31
0.0
  0
LINE
  5
369
330
1F
100
AcDbEntity
  8
0
  6
Continuous
 62
     7
 48
1.5
370
    15
100
AcDbLine
 10
20.1926401749
 20
11.126624901
 30
0.0
 11
20.1896176298
 21
11.124920914
 31
0.0
  0
LINE
  5
36A
330
1F
100
AcDbEntity
  8
0
  6
Continuous
 62
     7
 48
1.5
370
    15
100
AcDbLine
 10
20.3657154481
 20
10.8125572894
 30
0.0
 11
20.3687379931
 21
10.8142612764
 31
0.0
  0
SPLINE
  5
36B
330
1F
100
AcDbEntity
  8
0
  6
Continuous
 62
     7
 48
1.5
370
    15
100
AcDbSpline
210
0.0
220
0.0
230
1.0
 70
     8
 71
     3
 72
    22
 73
    18
 74
     0
 42
0.00000001
 43
0.00000001
 40
0.0
 40
0.0
 40
0.0
 40
0.0
 40
0.0334030718816299
 40
0.0979324335343031
 40
0.160960904676408
 40
0.2245108517974062
 40
0.290484535077226
 40
0.3603369268569527
 40
0.4341938387479451
 40
0.5103292650451475
 40
0.5867277984402202
 40
0.6634069515976746
 40
0.7411103576520169
 40
0.8207430150268492
 40
0.894536289753778
 40
0.9634886438628886
 40
1.0
 40
1.0
 40
1.0
 40
1.0
 10
21.95606830573404
 20
12.35951876655111
 30
0.0
 10
21.95203196150984
 20
12.35745416647847
 30
0.0
 10
21.94019804953137
 20
12.35140109117733
 30
0.0
 10
21.9244896083709
 20
12.33578340687471
 30
0.0
 10
21.90969497450864
 20
12.31463764812288
 30
0.0
 10
21.89969095759481
 20
12.29057860249244
 30
0.0
 10
21.89414949308033
 20
12.2641734484284
 30
0.0
 10
21.89325414557715
 20
12.23542043950853
 30
0.0
 10
21.89726889360871
 20
12.2047990951708
 30
0.0
 10
21.90627974252518
 20
12.17338519015179
 30
0.0
 10
21.91996884634179
 20
12.14256403508312
 30
0.0
 10
21.937833625738
 20
12.11353861543711
 30
0.0
 10
21.95951518641224
 20
12.08721516087576
 30
0.0
 10
21.98393505124192
 20
12.06525451119666
 30
0.0
 10
22.00985269173028
 20
12.04882078126625
 30
0.0
 10
22.03233297524698
 20
12.0393537614817
 30
0.0
 10
22.04617858595293
 20
12.03626448132191
 30
0.0
 10
22.05097191270239
 20
12.03519497781348
 30
0.0
  0
SPLINE
  5
36C
330
1F
100
AcDbEntity
  8
0
  6
Continuous
 62
     7
 48
1.5
370
    15
100
AcDbSpline
210
0.0
220
0.0
230
1.0
 70
     8
 71
     3
 72
    11
 73
     7
 74
     0
 42
0.00000001
 43
0.00000001
 40
0.0
 40
0.0
 40
0.0
 40
0.0
 40
0.2727753590935653
 40
0.583142231050071
 40
0.8884502267255474
 40
1.0
 40
1.0
 40
1.0
 40
1.0
 10
22.05097191270239
 20
12.03519497781348
 30
0.0
 10
22.0584121622092
 20
12.03415459117319
 30
0.0
 10
22.07431801129833
 20
12.03193044091056
 30
0.0
 10
22.09873011323604
 20
12.03476778276282
 30
0.0
 10
22.11845329851262
 20
12.04015984841523
 30
0.0
 10
22.12813082867233
 20
12.04645728493548
 30
0.0
 10
22.13072050403784
 20
12.04814245831683
 30
0.0
  0
LINE
  5
36D
330
1F
100
AcDbEntity
  8
0
  6
Continuous
 62
     7
 48
1.5
370
    15
100
AcDbLine
 10
21.9602781231
 20
12.3976389817
 30
0.0
 11
21.9383293224
 21
12.3819579583
 31
0.0
  0
LINE
  5
36E
330
1F
100
AcDbEntity
  8
0
  6
Continuous
 62
     7
 48
1.5
370
    15
100
AcDbLine
 10
22.1413629901
 20
12.0218152726
 30
0.0
 11
22.1661413515
 21
12.032477194
 31
0.0
  0
LINE
  5
36F
330
1F
100
AcDbEntity
  8
0
  6
Continuous
 62
     7
 48
1.5
370
    15
100
AcDbLine
 10
21.9582581129
 20
12.361710813
 30
0.0
 11
21.9552355679
 21
12.360006826
 31
0.0
  0
LINE
  5
370
330
1F
100
AcDbEntity
  8
0
  6
Continuous
 62
     7
 48
1.5
370
    15
100
AcDbLine
 10
22.1313333861
 20
12.0476432014
 30
0.0
 11
22.1343559312
 21
12.0493471883
 31
0.0
  0
ARC
  5
371
330
1F
100
AcDbEntity
  8
0
  6
Continuous
 62
     7
 48
2.25
370
    15
100
AcDbCircle
 10
20.0924532199
 20
13.7764998348
 30
0.0
 40
0.0929999999999996
100
AcDbArc
 50
119.4125210371
 51
179.8131694679
  0
LINE
  5
372
330
1F
100
AcDbEntity
  8
0
  6
Continuous
 62
     7
 48
1.5
370
    15
100
AcDbLine
 10
19.9994536504
 20
13.7768030115
 30
0.0
 11
19.9899214522
 21
10.8535506733
 31
0.0
  0
LINE
  5
373
330
1F
100
AcDbEntity
  8
0
  6
Continuous
 62
     7
 48
1.5
370
    15
100
AcDbLine
 10
20.3361108251
 20
14.0206247601
 30
0.0
 11
20.0467815281
 21
13.8575127665
 31
0.0
  0
ARC
  5
374
330
1F
100
AcDbEntity
  8
0
  6
Continuous
 62
     7
 48
2.25
370
    15
100
AcDbCircle
 10
22.4136742448
 20
9.5004591692
 30
0.0
 40
0.0929999999999995
100
AcDbArc
 50
239.8687698654
 51
299.4125210371
  0
LINE
  5
375
330
1F
100
AcDbEntity
  8
0
  6
Continuous
 62
     7
 48
1.5
370
    15
100
AcDbLine
 10
22.4593460932
 20
9.4194463257
 30
0.0
 11
22.7486753902
 21
9.5825583193
 31
0.0
  0
LINE
  5
376
330
1F
100
AcDbEntity
  8
0
  6
Continuous
 62
     7
 48
1.5
370
    15
100
AcDbLine
 10
20.0362367186
 20
10.7728138081
 30
0.0
 11
22.3669899863
 21
9.4200255411
 31
0.0
  0
ARC
  5
377
330
1F
100
AcDbEntity
  8
0
  6
Continuous
 62
     7
 48
2.25
370
    15
100
AcDbCircle
 10
20.0829210215
 20
10.8532474105
 30
0.0
 40
0.0929999999999994
100
AcDbArc
 50
179.8131694679
 51
239.8687698654
  0
LINE
  5
378
330
1F
100
AcDbEntity
  8
0
  6
Continuous
 62
     7
 48
1.5
370
    15
100
AcDbLine
 10
24.2649730373
 20
10.4061880461
 30
0.0
 11
24.320421915
 21
10.4374478496
 31
0.0
  0
LINE
  5
379
330
1F
100
AcDbEntity
  8
0
  6
Continuous
 62
     7
 48
1.5
370
    15
100
AcDbLine
 10
22.32731028
 20
15.1743780733
 30
0.0
 11
22.2718614023
 21
15.1431182697
 31
0.0
  0
ARC
  5
37A
330
1F
100
AcDbEntity
  8
0
  6
Continuous
 62
     7
 48
2.25
370
    15
100
AcDbCircle
 10
24.2842003413
 20
13.4711123601
 30
0.0
 40
0.0930000000000011
100
AcDbArc
 50
359.8131694679
 51
59.8687698654
  0
LINE
  5
37B
330
1F
100
AcDbEntity
  8
0
  6
Continuous
 62
     7
 48
1.5
370
    15
100
AcDbLine
 10
24.3683362493
 20
10.7526108624
 30
0.0
 11
24.3771998032
 21
13.470809156
 31
0.0
  0
LINE
  5
37C
330
1F
100
AcDbEntity
  8
0
  6
Continuous
 62
     7
 48
1.5
370
    15
100
AcDbLine
 10
24.3308846667
 20
13.5515459744
 30
0.0
 11
22.1759577714
 21
14.8022831763
 31
0.0
  0
LINE
  5
37D
330
1F
100
AcDbEntity
  8
0
  6
Continuous
 62
     7
 48
1.5
370
    15
100
AcDbLine
 10
22.0836016747
 20
14.8028625174
 30
0.0
 11
20.5326256965
 21
13.9284858592
 31
0.0
  0
LINE
  5
37E
330
1F
100
AcDbEntity
  8
0
  6
Continuous
 62
     7
 48
1.5
370
    15
100
AcDbLine
 10
22.768969586
 20
9.796925282
 30
0.0
 11
24.3210085116
 21
10.6719011863
 31
0.0
  0
ARC
  5
37F
330
1F
100
AcDbEntity
  8
0
  6
Continuous
 62
     7
 48
2.25
370
    15
100
AcDbCircle
 10
22.1292734021
 20
14.7218495874
 30
0.0
 40
0.0930000000000029
100
AcDbArc
 50
59.8687698654
 51
119.4125210371
  0
ARC
  5
380
330
1F
100
AcDbEntity
  8
0
  6
Continuous
 62
     7
 48
2.25
370
    15
100
AcDbCircle
 10
24.2753367875
 20
10.7529141182
 30
0.0
 40
0.0930000000000029
100
AcDbArc
 50
299.4125210371
 51
359.8131694679
  0
LINE
  5
381
330
1F
100
AcDbEntity
  8
0
  6
Continuous
 62
     7
 48
1.5
370
    15
100
AcDbLine
 10
20.4019605429
 20
13.0037104053
 30
0.0
 11
20.3951726415
 21
12.9994424241
 31
0.0
  0
LWPOLYLINE
  5
382
330
1F
100
AcDbEntity
  8
0
  6
Continuous
 62
     7
 48
1.5
370
    15
100
AcDbPolyline
 90
        3
 70
   128
 43
0.0
 10
20.1812886598
 20
13.4527539602
 10
20.1796562305
 20
13.4519029654
 10
20.1780610258
 20
13.4510265083
  0
LINE
  5
383
330
1F
100
AcDbEntity
  8
0
  6
Continuous
 62
     7
 48
1.5
370
    15
100
AcDbLine
 10
22.1528682979
 20
9.7276042085
 30
0.0
 11
22.1460803965
 21
9.7233362273
 31
0.0
  0
LWPOLYLINE
  5
384
330
1F
100
AcDbEntity
  8
0
  6
Continuous
 62
     7
 48
1.5
370
    15
100
AcDbPolyline
 90
        3
 70
   128
 43
0.0
 10
21.9321964667
 20
10.1766478538
 10
21.9305640374
 20
10.175796859
 10
21.9289687807
 20
10.1749203116
  0
LWPOLYLINE
  5
385
330
1F
100
AcDbEntity
  8
0
  6
Continuous
 62
     7
 48
1.5
370
    15
100
AcDbPolyline
 90
       24
 70
   128
 43
0.0
 10
21.95547011
 20
9.7968894024
 10
21.9723519945
 20
9.7979960969
 10
21.9861069631
 20
9.8058240001
 10
21.9957151692
 20
9.8197923334
 10
22.0004637689
 20
9.8388652865
 10
22.0000005984
 20
9.8616282491
 10
21.9943601477
 20
9.8863930201
 10
21.9839606602
 20
9.9113227873
 10
21.9695734716
 20
9.9345686408
 10
21.9522654796
 20
9.9544067349
 10
21.9333205004
 20
9.9693655298
 10
21.9141435156
 20
9.9783358438
 10
21.8961568169
 20
9.9806521035
 10
21.8806943449
 20
9.9761428231
 10
21.868902929
 20
9.9651422466
 10
21.861657103
 20
9.9484661491
 10
21.8594942151
 20
9.9273516333
 10
21.862574699
 20
9.9033643641
 10
21.8706700722
 20
9.8782835636
 10
21.883179917
 20
9.8539692199
 10
21.8991764911
 20
9.8322247093
 10
21.9174733767
 20
9.8146627017
 10
21.9367136064
 20
9.8025856738
 10
21.95547011
 20
9.7968894024
  0
LWPOLYLINE
  5
386
330
1F
100
AcDbEntity
  8
0
  6
Continuous
 62
     7
 48
1.5
370
    15
100
AcDbPolyline
 90
       20
 70
   128
 43
0.0
 10
22.1090242622
 20
9.7488274259
 10
22.1116997126
 20
9.7500450747
 10
22.1301433227
 20
9.7628687305
 10
22.14458561
 20
9.7815576115
 10
22.1545347454
 20
9.8054752855
 10
22.159651993
 20
9.8338071552
 10
22.1597629638
 20
9.8655885165
 10
22.154864025
 20
9.8997369964
 10
22.1451219053
 20
9.9350899033
 10
22.1308684474
 20
9.9704430689
 10
22.1125889636
 20
10.0045927395
 10
22.0909059349
 20
10.0363759516
 10
22.0665577495
 20
10.0647104729
 10
22.0403736048
 20
10.088631244
 10
22.0132451962
 20
10.1073237447
 10
21.9860962683
 20
10.120151429
 10
21.9598513719
 20
10.1266774142
 10
21.9354042374
 20
10.1266795833
 10
21.9135874151
 20
10.1201577202
 10
21.9031610336
 20
10.1139891535
  0
LWPOLYLINE
  5
387
330
1F
100
AcDbEntity
  8
0
  6
Continuous
 62
     7
 48
1.5
370
    15
100
AcDbPolyline
 90
       25
 70
   128
 43
0.0
 10
22.041256676
 20
9.7329365013
 10
22.065367783
 20
9.7329344165
 10
22.0868848177
 20
9.7393665707
 10
22.1050748635
 20
9.7520140294
 10
22.1193186132
 20
9.7704459628
 10
22.129130984
 20
9.7940349194
 10
22.1341779269
 20
9.8219773212
 10
22.1342873699
 20
9.8533218234
 10
22.1294557291
 20
9.8870010901
 10
22.1198476135
 20
9.9218678822
 10
22.1057899613
 20
9.9567352202
 10
22.0877617298
 20
9.9904155132
 10
22.0663767719
 20
10.021761894
 10
22.0423632924
 20
10.0497068991
 10
22.0165390611
 20
10.0732988514
 10
21.9897835119
 20
10.0917344452
 10
21.9630077063
 20
10.1043858215
 10
21.9371235549
 20
10.1108221687
 10
21.9130124478
 20
10.1108242534
 10
21.8914955163
 20
10.1043920393
 10
21.8733054191
 20
10.0917446707
 10
21.8590616691
 20
10.073312617
 10
21.8492492466
 20
10.0497236904
 10
21.8442024069
 20
10.0217812288
 10
21.8436842465
 20
10.0136403001
  0
ARC
  5
388
330
1F
100
AcDbEntity
  8
0
  6
Continuous
 62
     7
 48
2.25
370
    15
100
AcDbCircle
 10
22.0655976434
 20
9.8824626432
 30
0.0
 40
0.1514943887899108
100
AcDbArc
 50
238.4493544909
 51
260.7540729778
  0
LWPOLYLINE
  5
389
330
1F
100
AcDbEntity
  8
0
  6
Continuous
 62
     7
 48
1.5
370
    15
100
AcDbPolyline
 90
       17
 70
   128
 43
0.0
 10
22.0772390503
 20
9.7656974776
 10
22.0934603368
 20
9.778970087
 10
22.1056000903
 20
9.7981985884
 10
22.1129740439
 20
9.8224905211
 10
22.1152801834
 20
9.8508514839
 10
22.1124241921
 20
9.8821203657
 10
22.1045230162
 20
9.9150169314
 10
22.0919000761
 20
9.9481944993
 10
22.0750722167
 20
9.9802946402
 10
22.0547282914
 20
10.0100033578
 10
22.0317013279
 20
10.0361041245
 10
22.0069338669
 20
10.0575286124
 10
21.9814399673
 20
10.0733995968
 10
21.9562633663
 20
10.0830673528
 10
21.9324347807
 20
10.0861360049
 10
21.9109297955
 20
10.0824799541
 10
21.901141232
 20
10.0780611022
  0
LINE
  5
38A
330
1F
100
AcDbEntity
  8
0
  6
Continuous
 62
     7
 48
1.5
370
    15
100
AcDbLine
 10
21.99305117
 20
9.8651256601
 30
0.0
 11
21.9842524886
 21
9.8970550264
 31
0.0
  0
LINE
  5
38B
330
1F
100
AcDbEntity
  8
0
  6
Continuous
 62
     7
 48
1.5
370
    15
100
AcDbLine
 10
21.9842524886
 20
9.8970550264
 30
0.0
 11
21.937287855
 21
9.9031032584
 31
0.0
  0
LINE
  5
38C
330
1F
100
AcDbEntity
  8
0
  6
Continuous
 62
     7
 48
1.5
370
    15
100
AcDbLine
 10
21.937287855
 20
9.9031032584
 30
0.0
 11
21.9193134027
 21
9.9683303012
 31
0.0
  0
LINE
  5
38D
330
1F
100
AcDbEntity
  8
0
  6
Continuous
 62
     7
 48
1.5
370
    15
100
AcDbLine
 10
21.9193134027
 20
9.9683303012
 30
0.0
 11
21.896323785
 21
9.9712909393
 31
0.0
  0
LINE
  5
38E
330
1F
100
AcDbEntity
  8
0
  6
Continuous
 62
     7
 48
1.5
370
    15
100
AcDbLine
 10
21.896323785
 20
9.9712909393
 30
0.0
 11
21.9142982884
 21
9.9060637462
 31
0.0
  0
LINE
  5
38F
330
1F
100
AcDbEntity
  8
0
  6
Continuous
 62
     7
 48
1.5
370
    15
100
AcDbLine
 10
21.9142982884
 20
9.9060637462
 30
0.0
 11
21.8673337063
 21
9.9121119483
 31
0.0
  0
LINE
  5
390
330
1F
100
AcDbEntity
  8
0
  6
Continuous
 62
     7
 48
1.5
370
    15
100
AcDbLine
 10
21.8673337063
 20
9.9121119483
 30
0.0
 11
21.8761324392
 21
9.8801825521
 31
0.0
  0
LINE
  5
391
330
1F
100
AcDbEntity
  8
0
  6
Continuous
 62
     7
 48
1.5
370
    15
100
AcDbLine
 10
21.8761324392
 20
9.8801825521
 30
0.0
 11
21.9230969702
 21
9.8741345003
 31
0.0
  0
LINE
  5
392
330
1F
100
AcDbEntity
  8
0
  6
Continuous
 62
     7
 48
1.5
370
    15
100
AcDbLine
 10
21.9230969702
 20
9.8741345003
 30
0.0
 11
21.9410714225
 21
9.8089074574
 31
0.0
  0
LINE
  5
393
330
1F
100
AcDbEntity
  8
0
  6
Continuous
 62
     7
 48
1.5
370
    15
100
AcDbLine
 10
21.9410714225
 20
9.8089074574
 30
0.0
 11
21.9640610917
 21
9.8059467894
 31
0.0
  0
LINE
  5
394
330
1F
100
AcDbEntity
  8
0
  6
Continuous
 62
     7
 48
1.5
370
    15
100
AcDbLine
 10
21.9640610917
 20
9.8059467894
 30
0.0
 11
21.9460866395
 21
9.8711738323
 31
0.0
  0
LINE
  5
395
330
1F
100
AcDbEntity
  8
0
  6
Continuous
 62
     7
 48
1.5
370
    15
100
AcDbLine
 10
21.9460866395
 20
9.8711738323
 30
0.0
 11
21.99305117
 21
9.8651256601
 31
0.0
  0
LINE
  5
396
330
1F
100
AcDbEntity
  8
0
  6
Continuous
 62
     7
 48
1.5
370
    15
100
AcDbLine
 10
21.9574104734
 20
9.8181187444
 30
0.0
 11
21.9608281189
 21
9.8176785547
 31
0.0
  0
LINE
  5
397
330
1F
100
AcDbEntity
  8
0
  6
Continuous
 62
     7
 48
1.5
370
    15
100
AcDbLine
 10
21.9394360211
 20
9.8833457872
 30
0.0
 11
21.9574104734
 21
9.8181187444
 31
0.0
  0
LINE
  5
398
330
1F
100
AcDbEntity
  8
0
  6
Continuous
 62
     7
 48
1.5
370
    15
100
AcDbLine
 10
21.8924714902
 20
9.889393839
 30
0.0
 11
21.9394360211
 21
9.8833457872
 31
0.0
  0
LINE
  5
399
330
1F
100
AcDbEntity
  8
0
  6
Continuous
 62
     7
 48
1.5
370
    15
100
AcDbLine
 10
21.8869056954
 20
9.909591383
 30
0.0
 11
21.8924714902
 21
9.889393839
 31
0.0
  0
LINE
  5
39A
330
1F
100
AcDbEntity
  8
0
  6
Continuous
 62
     7
 48
1.5
370
    15
100
AcDbLine
 10
21.9158957224
 20
9.968770404
 30
0.0
 11
21.9306373394
 21
9.9152750331
 31
0.0
  0
LINE
  5
39B
330
1F
100
AcDbEntity
  8
0
  6
Continuous
 62
     7
 48
1.5
370
    15
100
AcDbLine
 10
21.9624256904
 20
9.8803851192
 30
0.0
 11
21.9898181975
 21
9.8768575457
 31
0.0
  0
LINE
  5
39C
330
1F
100
AcDbEntity
  8
0
  6
Continuous
 62
     7
 48
1.5
370
    15
100
AcDbLine
 10
21.9624256904
 20
9.8803851192
 30
0.0
 11
21.9460866395
 21
9.8711738323
 31
0.0
  0
LINE
  5
39D
330
1F
100
AcDbEntity
  8
0
  6
Continuous
 62
     7
 48
1.5
370
    15
100
AcDbLine
 10
21.9306373394
 20
9.9152750331
 30
0.0
 11
21.9142982884
 21
9.9060637462
 31
0.0
  0
LINE
  5
39E
330
1F
100
AcDbEntity
  8
0
  6
Continuous
 62
     7
 48
1.5
370
    15
100
AcDbLine
 10
21.9574104734
 20
9.8181187444
 30
0.0
 11
21.9410714225
 21
9.8089074574
 31
0.0
  0
LINE
  5
39F
330
1F
100
AcDbEntity
  8
0
  6
Continuous
 62
     7
 48
1.5
370
    15
100
AcDbLine
 10
21.9394360211
 20
9.8833457872
 30
0.0
 11
21.9230969702
 21
9.8741345003
 31
0.0
  0
LINE
  5
3A0
330
1F
100
AcDbEntity
  8
0
  6
Continuous
 62
     7
 48
1.5
370
    15
100
AcDbLine
 10
21.8924714902
 20
9.889393839
 30
0.0
 11
21.8761324392
 21
9.8801825521
 31
0.0
  0
LWPOLYLINE
  5
3A1
330
1F
100
AcDbEntity
  8
0
  6
Continuous
 62
     7
 48
1.5
370
    15
100
AcDbPolyline
 90
       24
 70
   128
 43
0.0
 10
20.2015496382
 20
13.0734739945
 10
20.2188334024
 20
13.0734461507
 10
20.2331839751
 20
13.0801880974
 10
20.2435370763
 20
13.093199805
 10
20.2491249055
 20
13.1115160485
 10
20.2495330111
 20
13.1337787389
 10
20.2447311018
 20
13.158336431
 10
20.2350753101
 20
13.1833679937
 10
20.2212818118
 20
13.2070168794
 10
20.2043735882
 20
13.2275291702
 10
20.1856046329
 20
13.2433835032
 10
20.1663668958
 20
13.2534042581
 10
20.1480873233
 20
13.2568478322
 10
20.1321213896
 20
13.2534592521
 10
20.1196534257
 20
13.2434896486
 10
20.1116079941
 20
13.2276783935
 10
20.1085819148
 20
13.2071981814
 10
20.1107994397
 20
13.1835678741
 10
20.1180962807
 20
13.1585401615
 10
20.1299311724
 20
13.1339710714
 10
20.1454263499
 20
13.1116828212
 10
20.1634326287
 20
13.093328661
 10
20.1826145724
 20
13.0802694391
 10
20.2015496382
 20
13.0734739945
  0
LWPOLYLINE
  5
3A2
330
1F
100
AcDbEntity
  8
0
  6
Continuous
 62
     7
 48
1.5
370
    15
100
AcDbPolyline
 90
       19
 70
   128
 43
0.0
 10
20.358116507
 20
13.0249335625
 10
20.3750684934
 20
13.0352732851
 10
20.3905412716
 20
13.0525778778
 10
20.4016278046
 20
13.0752843579
 10
20.4079504272
 20
13.1026195246
 10
20.4092938842
 20
13.133652517
 10
20.4056124614
 20
13.1673265918
 10
20.397031498
 20
13.2024950051
 10
20.3838431733
 20
13.2379600976
 10
20.3664966674
 20
13.2725141985
 10
20.3455826376
 20
13.3049804545
 10
20.321813302
 20
13.3342535557
 10
20.2959980661
 20
13.3593364209
 10
20.2690160949
 20
13.3793749184
 10
20.2417862807
 20
13.3936865059
 10
20.2152357494
 20
13.4017841745
 10
20.1902687008
 20
13.4033920029
 10
20.1677353858
 20
13.3984552085
 10
20.1522533302
 20
13.3900953203
  0
LWPOLYLINE
  5
3A3
330
1F
100
AcDbEntity
  8
0
  6
Continuous
 62
     7
 48
1.5
370
    15
100
AcDbPolyline
 90
       25
 70
   128
 43
0.0
 10
20.2841433467
 20
13.0100282337
 10
20.3087672056
 20
13.0084425445
 10
20.3309907799
 20
13.0133115572
 10
20.3500572982
 20
13.0244693532
 10
20.3653174424
 20
13.0415360273
 10
20.3762515052
 20
13.0639304986
 10
20.3824872808
 20
13.0908898965
 10
20.3838122953
 20
13.12149645
 10
20.3801814492
 20
13.1547076421
 10
20.3717184284
 20
13.1893926339
 10
20.3587113842
 20
13.2243703257
 10
20.3416032975
 20
13.2584494206
 10
20.320976715
 20
13.2904694635
 10
20.2975340858
 20
13.3193402155
 10
20.2720736989
 20
13.3440782789
 10
20.2454626145
 20
13.3638412482
 10
20.2186069937
 20
13.3779563811
 10
20.1924214253
 20
13.3859426194
 10
20.1677975148
 20
13.3875283385
 10
20.145574044
 20
13.3826593863
 10
20.1265075257
 20
13.3715015902
 10
20.1112473812
 20
13.3544347958
 10
20.1003132671
 20
13.3320404748
 10
20.0940775427
 20
13.3050809266
 10
20.0926527038
 20
13.2856167313
  0
LWPOLYLINE
  5
3A4
330
1F
100
AcDbEntity
  8
0
  6
Continuous
 62
     7
 48
1.5
370
    15
100
AcDbPolyline
 90
        3
 70
   128
 43
0.0
 10
20.2425644068
 20
13.0253944429
 10
20.2579577786
 20
13.0180145923
 10
20.2841433467
 20
13.0100282337
  0
LWPOLYLINE
  5
3A5
330
1F
100
AcDbEntity
  8
0
  6
Continuous
 62
     7
 48
1.5
370
    15
100
AcDbPolyline
 90
       17
 70
   128
 43
0.0
 10
20.3263312953
 20
13.0418036744
 10
20.3392390728
 20
13.051559708
 10
20.3523812457
 20
13.0695425467
 10
20.3608522475
 20
13.0927838617
 10
20.3643051965
 20
13.1203320462
 10
20.3625987078
 20
13.1510594545
 10
20.3558027776
 20
13.1837079194
 10
20.344195491
 20
13.2169410421
 10
20.3282521404
 20
13.2493979954
 10
20.3086254123
 20
13.2797502199
 10
20.2861187954
 20
13.3067549437
 10
20.2616537818
 20
13.3293066406
 10
20.23623193
 20
13.3464819487
 10
20.2108940134
 20
13.3575779642
 10
20.1866774817
 20
13.3621400653
 10
20.1645735329
 20
13.3599817652
 10
20.150233477
 20
13.354167299
  0
LINE
  5
3A6
330
1F
100
AcDbEntity
  8
0
  6
Continuous
 62
     7
 48
1.5
370
    15
100
AcDbLine
 10
20.2425710601
 20
13.1376510187
 30
0.0
 11
20.2348210503
 21
13.1694138121
 31
0.0
  0
LINE
  5
3A7
330
1F
100
AcDbEntity
  8
0
  6
Continuous
 62
     7
 48
1.5
370
    15
100
AcDbLine
 10
20.2348210503
 20
13.1694138121
 30
0.0
 11
20.1870916475
 21
13.1784056054
 31
0.0
  0
LINE
  5
3A8
330
1F
100
AcDbEntity
  8
0
  6
Continuous
 62
     7
 48
1.5
370
    15
100
AcDbLine
 10
20.1870916475
 20
13.1784056054
 30
0.0
 11
20.1712594706
 21
13.2432924665
 31
0.0
  0
LINE
  5
3A9
330
1F
100
AcDbEntity
  8
0
  6
Continuous
 62
     7
 48
1.5
370
    15
100
AcDbLine
 10
20.1712594706
 20
13.2432924665
 30
0.0
 11
20.1478954286
 21
13.2476939906
 31
0.0
  0
LINE
  5
3AA
330
1F
100
AcDbEntity
  8
0
  6
Continuous
 62
     7
 48
1.5
370
    15
100
AcDbLine
 10
20.1478954286
 20
13.2476939906
 30
0.0
 11
20.1637277087
 21
13.1828070697
 31
0.0
  0
LINE
  5
3AB
330
1F
100
AcDbEntity
  8
0
  6
Continuous
 62
     7
 48
1.5
370
    15
100
AcDbLine
 10
20.1637277087
 20
13.1828070697
 30
0.0
 11
20.1159983059
 21
13.191798863
 31
0.0
  0
LINE
  5
3AC
330
1F
100
AcDbEntity
  8
0
  6
Continuous
 62
     7
 48
1.5
370
    15
100
AcDbLine
 10
20.1159983059
 20
13.191798863
 30
0.0
 11
20.1237483677
 21
13.1600361599
 31
0.0
  0
LINE
  5
3AD
330
1F
100
AcDbEntity
  8
0
  6
Continuous
 62
     7
 48
1.5
370
    15
100
AcDbLine
 10
20.1237483677
 20
13.1600361599
 30
0.0
 11
20.1714776673
 21
13.1510444265
 31
0.0
  0
LINE
  5
3AE
330
1F
100
AcDbEntity
  8
0
  6
Continuous
 62
     7
 48
1.5
370
    15
100
AcDbLine
 10
20.1714776673
 20
13.1510444265
 30
0.0
 11
20.1873098442
 21
13.0861575654
 31
0.0
  0
LINE
  5
3AF
330
1F
100
AcDbEntity
  8
0
  6
Continuous
 62
     7
 48
1.5
370
    15
100
AcDbLine
 10
20.1873098442
 20
13.0861575654
 30
0.0
 11
20.2106738862
 21
13.0817560413
 31
0.0
  0
LINE
  5
3B0
330
1F
100
AcDbEntity
  8
0
  6
Continuous
 62
     7
 48
1.5
370
    15
100
AcDbLine
 10
20.2106738862
 20
13.0817560413
 30
0.0
 11
20.1948417089
 21
13.146642782
 31
0.0
  0
LINE
  5
3B1
330
1F
100
AcDbEntity
  8
0
  6
Continuous
 62
     7
 48
1.5
370
    15
100
AcDbLine
 10
20.1948417089
 20
13.146642782
 30
0.0
 11
20.2425710601
 21
13.1376510187
 31
0.0
  0
LINE
  5
3B2
330
1F
100
AcDbEntity
  8
0
  6
Continuous
 62
     7
 48
1.5
370
    15
100
AcDbLine
 10
20.2036488951
 20
13.0953688523
 30
0.0
 11
20.2075307492
 21
13.0946375378
 31
0.0
  0
LINE
  5
3B3
330
1F
100
AcDbEntity
  8
0
  6
Continuous
 62
     7
 48
1.5
370
    15
100
AcDbLine
 10
20.1878167182
 20
13.1602557134
 30
0.0
 11
20.2036488951
 21
13.0953688523
 31
0.0
  0
LINE
  5
3B4
330
1F
100
AcDbEntity
  8
0
  6
Continuous
 62
     7
 48
1.5
370
    15
100
AcDbLine
 10
20.1400874186
 20
13.1692474468
 30
0.0
 11
20.1878167182
 21
13.1602557134
 31
0.0
  0
LINE
  5
3B5
330
1F
100
AcDbEntity
  8
0
  6
Continuous
 62
     7
 48
1.5
370
    15
100
AcDbLine
 10
20.1354804591
 20
13.1881285665
 30
0.0
 11
20.1400874186
 21
13.1692474468
 31
0.0
  0
LINE
  5
3B6
330
1F
100
AcDbEntity
  8
0
  6
Continuous
 62
     7
 48
1.5
370
    15
100
AcDbLine
 10
20.1673775818
 20
13.2440236941
 30
0.0
 11
20.1800667596
 21
13.1920183566
 31
0.0
  0
LINE
  5
3B7
330
1F
100
AcDbEntity
  8
0
  6
Continuous
 62
     7
 48
1.5
370
    15
100
AcDbLine
 10
20.2111807598
 20
13.155854069
 30
0.0
 11
20.2394279235
 21
13.1505326355
 31
0.0
  0
LINE
  5
3B8
330
1F
100
AcDbEntity
  8
0
  6
Continuous
 62
     7
 48
1.5
370
    15
100
AcDbLine
 10
20.2111807598
 20
13.155854069
 30
0.0
 11
20.1948417089
 21
13.146642782
 31
0.0
  0
LINE
  5
3B9
330
1F
100
AcDbEntity
  8
0
  6
Continuous
 62
     7
 48
1.5
370
    15
100
AcDbLine
 10
20.1800667596
 20
13.1920183566
 30
0.0
 11
20.1637277087
 21
13.1828070697
 31
0.0
  0
LINE
  5
3BA
330
1F
100
AcDbEntity
  8
0
  6
Continuous
 62
     7
 48
1.5
370
    15
100
AcDbLine
 10
20.2036488951
 20
13.0953688523
 30
0.0
 11
20.1873098442
 21
13.0861575654
 31
0.0
  0
LINE
  5
3BB
330
1F
100
AcDbEntity
  8
0
  6
Continuous
 62
     7
 48
1.5
370
    15
100
AcDbLine
 10
20.1878167182
 20
13.1602557134
 30
0.0
 11
20.1714776673
 21
13.1510444265
 31
0.0
  0
LINE
  5
3BC
330
1F
100
AcDbEntity
  8
0
  6
Continuous
 62
     7
 48
1.5
370
    15
100
AcDbLine
 10
20.1400874186
 20
13.1692474468
 30
0.0
 11
20.1237483677
 21
13.1600361599
 31
0.0
  0
LWPOLYLINE
  5
3BD
330
1F
100
AcDbEntity
  8
0
  6
Continuous
 62
     7
 48
1.5
370
    15
100
AcDbPolyline
 90
       24
 70
   128
 43
0.0
 10
20.2439563361
 20
10.8459315965
 10
20.2612401003
 20
10.8459037527
 10
20.275590673
 20
10.8526456994
 10
20.2859437741
 20
10.865657407
 10
20.2915316037
 20
10.8839737708
 10
20.2919397089
 20
10.9062363409
 10
20.2871377997
 20
10.930794033
 10
20.277482008
 20
10.9558255957
 10
20.2636885096
 20
10.9794744814
 10
20.2467802861
 20
10.9999867722
 10
20.2280113311
 20
11.0158412255
 10
20.2087735937
 20
11.0258618601
 10
20.1904940215
 20
11.0293055545
 10
20.1745280879
 20
11.0259169744
 10
20.1620601236
 20
11.0159472506
 10
20.1540146919
 20
11.0001359955
 10
20.1509886127
 20
10.9796557834
 10
20.1532061379
 20
10.9560255964
 10
20.1605029785
 20
10.9309977635
 10
20.1723378703
 20
10.9064286734
 10
20.1878330481
 20
10.8841405435
 10
20.2058393265
 20
10.865786263
 10
20.2250212707
 20
10.8527271614
 10
20.2439563361
 20
10.8459315965
  0
LWPOLYLINE
  5
3BE
330
1F
100
AcDbEntity
  8
0
  6
Continuous
 62
     7
 48
1.5
370
    15
100
AcDbPolyline
 90
       19
 70
   128
 43
0.0
 10
20.4005234136
 20
10.7973913422
 10
20.4174753998
 20
10.8077310046
 10
20.432948178
 20
10.8250355974
 10
20.444034711
 20
10.8477420774
 10
20.4503573336
 20
10.8750772441
 10
20.451700791
 20
10.9061103569
 10
20.4480193682
 20
10.9397844317
 10
20.4394384047
 20
10.974952845
 10
20.42625008
 20
11.0104179374
 10
20.4089035738
 20
11.0449719181
 10
20.3879895444
 20
11.0774382943
 10
20.3642202083
 20
11.1067112753
 10
20.3384049725
 20
11.1317941405
 10
20.3114230012
 20
11.1518326379
 10
20.2841931875
 20
11.1661443458
 10
20.257642656
 20
11.1742419542
 10
20.2326756073
 20
11.1758497826
 10
20.2101422924
 20
11.1709129882
 10
20.1946602366
 20
11.1625530399
  0
LWPOLYLINE
  5
3BF
330
1F
100
AcDbEntity
  8
0
  6
Continuous
 62
     7
 48
1.5
370
    15
100
AcDbPolyline
 90
       25
 70
   128
 43
0.0
 10
20.3265500449
 20
10.782485956
 10
20.3511739038
 20
10.7809002668
 10
20.3733974777
 20
10.7857691592
 10
20.392463996
 20
10.7969269552
 10
20.4077241406
 20
10.8139937496
 10
20.4186582031
 20
10.8363881006
 10
20.4248939791
 20
10.8633476188
 10
20.4262189931
 20
10.893954052
 10
20.4225881474
 20
10.9271653644
 10
20.4141251267
 20
10.9618503562
 10
20.401118082
 20
10.9968279277
 10
20.3840099956
 20
11.0309070827
 10
20.3633834132
 20
11.0629271858
 10
20.3399407836
 20
11.0917978175
 10
20.3144803968
 20
11.1165358808
 10
20.2878693128
 20
11.1362989705
 10
20.2610136916
 20
11.1504139831
 10
20.2348281235
 20
11.1584003417
 10
20.210204213
 20
11.1599860608
 10
20.1879807418
 20
11.1551169883
 10
20.1689142235
 20
11.1439591922
 10
20.1536540794
 20
11.1268925181
 10
20.142719965
 20
11.1044980768
 10
20.1364842409
 20
11.0775386489
 10
20.1351050704
 20
11.0599728479
  0
LWPOLYLINE
  5
3C0
330
1F
100
AcDbEntity
  8
0
  6
Continuous
 62
     7
 48
1.5
370
    15
100
AcDbPolyline
 90
        3
 70
   128
 43
0.0
 10
20.2849711049
 20
10.797852105
 10
20.3003644764
 20
10.7904721943
 10
20.3265500449
 20
10.782485956
  0
LWPOLYLINE
  5
3C1
330
1F
100
AcDbEntity
  8
0
  6
Continuous
 62
     7
 48
1.5
370
    15
100
AcDbPolyline
 90
       17
 70
   128
 43
0.0
 10
20.3687379931
 20
10.8142612764
 10
20.381645771
 20
10.8240174303
 10
20.3947879439
 20
10.842000269
 10
20.4032589453
 20
10.8652414637
 10
20.4067118943
 20
10.8927896482
 10
20.4050054057
 20
10.9235170565
 10
20.3982094758
 20
10.9561656417
 10
20.3866021889
 20
10.9893986441
 10
20.3706588387
 20
11.0218557177
 10
20.3510321101
 20
11.0522078219
 10
20.3285254933
 20
11.0792125457
 10
20.3040604796
 20
11.1017642426
 10
20.278638628
 20
11.1189396109
 10
20.2533007113
 20
11.1300355662
 10
20.2290841795
 20
11.1345976673
 10
20.2069802307
 20
11.1324393672
 10
20.1926401749
 20
11.126624901
  0
LINE
  5
3C2
330
1F
100
AcDbEntity
  8
0
  6
Continuous
 62
     7
 48
1.5
370
    15
100
AcDbLine
 10
20.2849777583
 20
10.910108741
 30
0.0
 11
20.2772277481
 21
10.9418714141
 31
0.0
  0
LINE
  5
3C3
330
1F
100
AcDbEntity
  8
0
  6
Continuous
 62
     7
 48
1.5
370
    15
100
AcDbLine
 10
20.2772277481
 20
10.9418714141
 30
0.0
 11
20.2294983454
 21
10.9508632074
 31
0.0
  0
LINE
  5
3C4
330
1F
100
AcDbEntity
  8
0
  6
Continuous
 62
     7
 48
1.5
370
    15
100
AcDbLine
 10
20.2294983454
 20
10.9508632074
 30
0.0
 11
20.2136661685
 21
11.0157500685
 31
0.0
  0
LINE
  5
3C5
330
1F
100
AcDbEntity
  8
0
  6
Continuous
 62
     7
 48
1.5
370
    15
100
AcDbLine
 10
20.2136661685
 20
11.0157500685
 30
0.0
 11
20.1903021265
 21
11.0201515926
 31
0.0
  0
LINE
  5
3C6
330
1F
100
AcDbEntity
  8
0
  6
Continuous
 62
     7
 48
1.5
370
    15
100
AcDbLine
 10
20.1903021265
 20
11.0201515926
 30
0.0
 11
20.2061344069
 21
10.955264792
 31
0.0
  0
LINE
  5
3C7
330
1F
100
AcDbEntity
  8
0
  6
Continuous
 62
     7
 48
1.5
370
    15
100
AcDbLine
 10
20.2061344069
 20
10.955264792
 30
0.0
 11
20.1584050042
 21
10.9642565853
 31
0.0
  0
LINE
  5
3C8
330
1F
100
AcDbEntity
  8
0
  6
Continuous
 62
     7
 48
1.5
370
    15
100
AcDbLine
 10
20.1584050042
 20
10.9642565853
 30
0.0
 11
20.1661550656
 21
10.9324937619
 31
0.0
  0
LINE
  5
3C9
330
1F
100
AcDbEntity
  8
0
  6
Continuous
 62
     7
 48
1.5
370
    15
100
AcDbLine
 10
20.1661550656
 20
10.9324937619
 30
0.0
 11
20.2138843651
 21
10.9235020285
 31
0.0
  0
LINE
  5
3CA
330
1F
100
AcDbEntity
  8
0
  6
Continuous
 62
     7
 48
1.5
370
    15
100
AcDbLine
 10
20.2138843651
 20
10.9235020285
 30
0.0
 11
20.229716542
 21
10.8586151674
 31
0.0
  0
LINE
  5
3CB
330
1F
100
AcDbEntity
  8
0
  6
Continuous
 62
     7
 48
1.5
370
    15
100
AcDbLine
 10
20.229716542
 20
10.8586151674
 30
0.0
 11
20.253080584
 21
10.8542136433
 31
0.0
  0
LINE
  5
3CC
330
1F
100
AcDbEntity
  8
0
  6
Continuous
 62
     7
 48
1.5
370
    15
100
AcDbLine
 10
20.253080584
 20
10.8542136433
 30
0.0
 11
20.2372484072
 21
10.9191005043
 31
0.0
  0
LINE
  5
3CD
330
1F
100
AcDbEntity
  8
0
  6
Continuous
 62
     7
 48
1.5
370
    15
100
AcDbLine
 10
20.2372484072
 20
10.9191005043
 30
0.0
 11
20.2849777583
 21
10.910108741
 31
0.0
  0
LINE
  5
3CE
330
1F
100
AcDbEntity
  8
0
  6
Continuous
 62
     7
 48
1.5
370
    15
100
AcDbLine
 10
20.2460555929
 20
10.8678264543
 30
0.0
 11
20.249937447
 21
10.8670951398
 31
0.0
  0
LINE
  5
3CF
330
1F
100
AcDbEntity
  8
0
  6
Continuous
 62
     7
 48
1.5
370
    15
100
AcDbLine
 10
20.230223416
 20
10.9327133154
 30
0.0
 11
20.2460555929
 21
10.8678264543
 31
0.0
  0
LINE
  5
3D0
330
1F
100
AcDbEntity
  8
0
  6
Continuous
 62
     7
 48
1.5
370
    15
100
AcDbLine
 10
20.1824941165
 20
10.9417050488
 30
0.0
 11
20.230223416
 21
10.9327133154
 31
0.0
  0
LINE
  5
3D1
330
1F
100
AcDbEntity
  8
0
  6
Continuous
 62
     7
 48
1.5
370
    15
100
AcDbLine
 10
20.1778871574
 20
10.9605862888
 30
0.0
 11
20.1824941165
 21
10.9417050488
 31
0.0
  0
LINE
  5
3D2
330
1F
100
AcDbEntity
  8
0
  6
Continuous
 62
     7
 48
1.5
370
    15
100
AcDbLine
 10
20.2097842797
 20
11.0164812961
 30
0.0
 11
20.2224734578
 21
10.9644760789
 31
0.0
  0
LINE
  5
3D3
330
1F
100
AcDbEntity
  8
0
  6
Continuous
 62
     7
 48
1.5
370
    15
100
AcDbLine
 10
20.2535874581
 20
10.9283117913
 30
0.0
 11
20.2818346213
 21
10.9229902375
 31
0.0
  0
LINE
  5
3D4
330
1F
100
AcDbEntity
  8
0
  6
Continuous
 62
     7
 48
1.5
370
    15
100
AcDbLine
 10
20.2535874581
 20
10.9283117913
 30
0.0
 11
20.2372484072
 21
10.9191005043
 31
0.0
  0
LINE
  5
3D5
330
1F
100
AcDbEntity
  8
0
  6
Continuous
 62
     7
 48
1.5
370
    15
100
AcDbLine
 10
20.2224734578
 20
10.9644760789
 30
0.0
 11
20.2061344069
 21
10.955264792
 31
0.0
  0
LINE
  5
3D6
330
1F
100
AcDbEntity
  8
0
  6
Continuous
 62
     7
 48
1.5
370
    15
100
AcDbLine
 10
20.2460555929
 20
10.8678264543
 30
0.0
 11
20.229716542
 21
10.8586151674
 31
0.0
  0
LINE
  5
3D7
330
1F
100
AcDbEntity
  8
0
  6
Continuous
 62
     7
 48
1.5
370
    15
100
AcDbLine
 10
20.1824941165
 20
10.9417050488
 30
0.0
 11
20.1661550656
 21
10.9324937619
 31
0.0
  0
LINE
  5
3D8
330
1F
100
AcDbEntity
  8
0
  6
Continuous
 62
     7
 48
1.5
370
    15
100
AcDbLine
 10
20.230223416
 20
10.9327133154
 30
0.0
 11
20.2138843651
 21
10.9235020285
 31
0.0
  0
LWPOLYLINE
  5
3D9
330
1F
100
AcDbEntity
  8
0
  6
Continuous
 62
     7
 48
1.5
370
    15
100
AcDbPolyline
 90
       24
 70
   128
 43
0.0
 10
22.0095742742
 20
12.0810175084
 10
22.0268579868
 20
12.0809896946
 10
22.0412086111
 20
12.0877316113
 10
22.0515617122
 20
12.1007433189
 10
22.0571494898
 20
12.1190595924
 10
22.057557647
 20
12.1413222529
 10
22.0527556862
 20
12.1658799749
 10
22.0430999976
 20
12.1909114777
 10
22.0293063962
 20
12.2145604232
 10
22.0123981726
 20
12.235072714
 10
21.9936292172
 20
12.2509270471
 10
21.9743915833
 20
12.2609477421
 10
21.9561119077
 20
12.2643913761
 10
21.9401460255
 20
12.261002766
 10
21.9276780617
 20
12.2510331625
 10
21.9196326816
 20
12.2352218775
 10
21.9166064992
 20
12.2147417253
 10
21.9188240756
 20
12.1911113881
 10
21.926120865
 20
12.1660837054
 10
21.9379557568
 20
12.1415146153
 10
21.9534509343
 20
12.1192263651
 10
21.9714572646
 20
12.100872175
 10
21.9906392599
 20
12.0878129231
 10
22.0095742742
 20
12.0810175084
  0
LWPOLYLINE
  5
3DA
330
1F
100
AcDbEntity
  8
0
  6
Continuous
 62
     7
 48
1.5
370
    15
100
AcDbPolyline
 90
       19
 70
   128
 43
0.0
 10
22.1661413515
 20
12.032477194
 10
22.1830933379
 20
12.0428169166
 10
22.198566116
 20
12.0601215093
 10
22.2096526491
 20
12.0828279894
 10
22.2159752717
 20
12.1101631561
 10
22.2173187802
 20
12.1411961186
 10
22.2136373574
 20
12.1748701934
 10
22.2050563424
 20
12.2100386366
 10
22.1918680177
 20
12.2455037291
 10
22.1745215119
 20
12.28005783
 10
22.1536074305
 20
12.3125241159
 10
22.1298381464
 20
12.3417971873
 10
22.1040229105
 20
12.3668800524
 10
22.0770409909
 20
12.38691852
 10
22.0498110736
 20
12.4012301674
 10
22.0232605423
 20
12.409327836
 10
21.9982935452
 20
12.4109356344
 10
21.9757602303
 20
12.40599884
 10
21.9602781231
 20
12.3976389817
  0
LWPOLYLINE
  5
3DB
330
1F
100
AcDbEntity
  8
0
  6
Continuous
 62
     7
 48
1.5
370
    15
100
AcDbPolyline
 90
       25
 70
   128
 43
0.0
 10
22.0921679826
 20
12.0175717476
 10
22.1167918931
 20
12.0159860286
 10
22.1390153643
 20
12.0208551011
 10
22.1580818825
 20
12.0320128971
 10
22.1733420267
 20
12.0490795712
 10
22.1842761411
 20
12.0714740126
 10
22.1905118652
 20
12.0984334404
 10
22.1918369312
 20
12.1290399639
 10
22.1882060851
 20
12.1622511561
 10
22.1797430643
 20
12.1969361478
 10
22.1667359685
 20
12.2319138696
 10
22.1496278819
 20
12.2659929645
 10
22.1290012993
 20
12.2980130074
 10
22.1055587217
 20
12.3268837294
 10
22.0800982833
 20
12.3516218227
 10
22.0534871989
 20
12.3713847921
 10
22.0266316296
 20
12.3854998951
 10
22.0004460612
 20
12.3934861334
 10
21.9758222023
 20
12.3950718225
 10
21.9535986284
 20
12.3902029302
 10
21.9345321101
 20
12.3790451341
 10
21.9192719655
 20
12.3619783397
 10
21.908337903
 20
12.3395839887
 10
21.902102127
 20
12.3126244705
 10
21.9007230084
 20
12.2950587599
  0
LWPOLYLINE
  5
3DC
330
1F
100
AcDbEntity
  8
0
  6
Continuous
 62
     7
 48
1.5
370
    15
100
AcDbPolyline
 90
        3
 70
   128
 43
0.0
 10
22.0505890943
 20
12.0329379269
 10
22.0659824145
 20
12.0255581062
 10
22.0921679826
 20
12.0175717476
  0
LWPOLYLINE
  5
3DD
330
1F
100
AcDbEntity
  8
0
  6
Continuous
 62
     7
 48
1.5
370
    15
100
AcDbPolyline
 90
       17
 70
   128
 43
0.0
 10
22.1343559312
 20
12.0493471883
 10
22.1472636571
 20
12.0591032519
 10
22.1604059332
 20
12.0770860307
 10
22.1688768834
 20
12.1003273756
 10
22.1723297808
 20
12.1278755901
 10
22.1706233953
 20
12.1586029386
 10
22.1638274135
 20
12.1912514333
 10
22.152220127
 20
12.224484556
 10
22.1362767248
 20
12.2569415393
 10
22.1166500482
 20
12.2872937339
 10
22.0941434829
 20
12.3142984277
 10
22.0696784693
 20
12.3368501246
 10
22.0442566174
 20
12.3540254327
 10
22.0189187009
 20
12.3651214482
 10
21.994702066
 20
12.3696836092
 10
21.9725981688
 20
12.3675252791
 10
21.9582581129
 20
12.361710813
  0
LINE
  5
3DE
330
1F
100
AcDbEntity
  8
0
  6
Continuous
 62
     7
 48
1.5
370
    15
100
AcDbLine
 10
22.050595696
 20
12.1451945326
 30
0.0
 11
22.0428456346
 21
12.176957356
 31
0.0
  0
LINE
  5
3DF
330
1F
100
AcDbEntity
  8
0
  6
Continuous
 62
     7
 48
1.5
370
    15
100
AcDbLine
 10
22.0428456346
 20
12.176957356
 30
0.0
 11
21.995116335
 21
12.1859490895
 31
0.0
  0
LINE
  5
3E0
330
1F
100
AcDbEntity
  8
0
  6
Continuous
 62
     7
 48
1.5
370
    15
100
AcDbLine
 10
21.995116335
 20
12.1859490895
 30
0.0
 11
21.9792841581
 21
12.2508359505
 31
0.0
  0
LINE
  5
3E1
330
1F
100
AcDbEntity
  8
0
  6
Continuous
 62
     7
 48
1.5
370
    15
100
AcDbLine
 10
21.9792841581
 20
12.2508359505
 30
0.0
 11
21.9559201161
 21
12.2552374747
 31
0.0
  0
LINE
  5
3E2
330
1F
100
AcDbEntity
  8
0
  6
Continuous
 62
     7
 48
1.5
370
    15
100
AcDbLine
 10
21.9559201161
 20
12.2552374747
 30
0.0
 11
21.971752293
 21
12.1903506136
 31
0.0
  0
LINE
  5
3E3
330
1F
100
AcDbEntity
  8
0
  6
Continuous
 62
     7
 48
1.5
370
    15
100
AcDbLine
 10
21.971752293
 20
12.1903506136
 30
0.0
 11
21.9240229419
 21
12.199342377
 31
0.0
  0
LINE
  5
3E4
330
1F
100
AcDbEntity
  8
0
  6
Continuous
 62
     7
 48
1.5
370
    15
100
AcDbLine
 10
21.9240229419
 20
12.199342377
 30
0.0
 11
21.9317729521
 21
12.1675797038
 31
0.0
  0
LINE
  5
3E5
330
1F
100
AcDbEntity
  8
0
  6
Continuous
 62
     7
 48
1.5
370
    15
100
AcDbLine
 10
21.9317729521
 20
12.1675797038
 30
0.0
 11
21.9795023548
 21
12.1585879105
 31
0.0
  0
LINE
  5
3E6
330
1F
100
AcDbEntity
  8
0
  6
Continuous
 62
     7
 48
1.5
370
    15
100
AcDbLine
 10
21.9795023548
 20
12.1585879105
 30
0.0
 11
21.9953345317
 21
12.0937010494
 31
0.0
  0
LINE
  5
3E7
330
1F
100
AcDbEntity
  8
0
  6
Continuous
 62
     7
 48
1.5
370
    15
100
AcDbLine
 10
21.9953345317
 20
12.0937010494
 30
0.0
 11
22.0186985737
 21
12.0892995253
 31
0.0
  0
LINE
  5
3E8
330
1F
100
AcDbEntity
  8
0
  6
Continuous
 62
     7
 48
1.5
370
    15
100
AcDbLine
 10
22.0186985737
 20
12.0892995253
 30
0.0
 11
22.0028662933
 21
12.1541863259
 31
0.0
  0
LINE
  5
3E9
330
1F
100
AcDbEntity
  8
0
  6
Continuous
 62
     7
 48
1.5
370
    15
100
AcDbLine
 10
22.0028662933
 20
12.1541863259
 30
0.0
 11
22.050595696
 21
12.1451945326
 31
0.0
  0
LINE
  5
3EA
330
1F
100
AcDbEntity
  8
0
  6
Continuous
 62
     7
 48
1.5
370
    15
100
AcDbLine
 10
22.0116735826
 20
12.1029123364
 30
0.0
 11
22.0155554367
 21
12.1021810218
 31
0.0
  0
LINE
  5
3EB
330
1F
100
AcDbEntity
  8
0
  6
Continuous
 62
     7
 48
1.5
370
    15
100
AcDbLine
 10
21.9958414057
 20
12.1677991974
 30
0.0
 11
22.0116735826
 21
12.1029123364
 31
0.0
  0
LINE
  5
3EC
330
1F
100
AcDbEntity
  8
0
  6
Continuous
 62
     7
 48
1.5
370
    15
100
AcDbLine
 10
21.948112003
 20
12.1767909907
 30
0.0
 11
21.9958414057
 21
12.1677991974
 31
0.0
  0
LINE
  5
3ED
330
1F
100
AcDbEntity
  8
0
  6
Continuous
 62
     7
 48
1.5
370
    15
100
AcDbLine
 10
21.9435050435
 20
12.1956721104
 30
0.0
 11
21.948112003
 21
12.1767909907
 31
0.0
  0
LINE
  5
3EE
330
1F
100
AcDbEntity
  8
0
  6
Continuous
 62
     7
 48
1.5
370
    15
100
AcDbLine
 10
21.9754022177
 20
12.2515672081
 30
0.0
 11
21.9880913439
 21
12.1995619005
 31
0.0
  0
LINE
  5
3EF
330
1F
100
AcDbEntity
  8
0
  6
Continuous
 62
     7
 48
1.5
370
    15
100
AcDbLine
 10
22.0192053442
 20
12.1633976128
 30
0.0
 11
22.0474525594
 21
12.1580761495
 31
0.0
  0
LINE
  5
3F0
330
1F
100
AcDbEntity
  8
0
  6
Continuous
 62
     7
 48
1.5
370
    15
100
AcDbLine
 10
22.0192053442
 20
12.1633976128
 30
0.0
 11
22.0028662933
 21
12.1541863259
 31
0.0
  0
LINE
  5
3F1
330
1F
100
AcDbEntity
  8
0
  6
Continuous
 62
     7
 48
1.5
370
    15
100
AcDbLine
 10
21.9880913439
 20
12.1995619005
 30
0.0
 11
21.971752293
 21
12.1903506136
 31
0.0
  0
LINE
  5
3F2
330
1F
100
AcDbEntity
  8
0
  6
Continuous
 62
     7
 48
1.5
370
    15
100
AcDbLine
 10
22.0116735826
 20
12.1029123364
 30
0.0
 11
21.9953345317
 21
12.0937010494
 31
0.0
  0
LINE
  5
3F3
330
1F
100
AcDbEntity
  8
0
  6
Continuous
 62
     7
 48
1.5
370
    15
100
AcDbLine
 10
21.948112003
 20
12.1767909907
 30
0.0
 11
21.9317729521
 21
12.1675797038
 31
0.0
  0
LINE
  5
3F4
330
1F
100
AcDbEntity
  8
0
  6
Continuous
 62
     7
 48
1.5
370
    15
100
AcDbLine
 10
21.9958414057
 20
12.1677991974
 30
0.0
 11
21.9795023548
 21
12.1585879105
 31
0.0
  0
ARC
  5
3F5
330
1F
100
AcDbEntity
  8
0
  6
Continuous
 62
     7
 48
2.25
370
    15
100
AcDbCircle
 10
22.345937056
 20
12.3800760946
 30
0.0
 40
0.1427895603453855
100
AcDbArc
 50
2.2767577017
 51
57.1197913364
  0
ARC
  5
3F6
330
1F
100
AcDbEntity
  8
0
  6
Continuous
 62
     7
 48
2.25
370
    15
100
AcDbCircle
 10
22.4235283581
 20
12.5142894121
 30
0.0
 40
0.1440793635343895
100
AcDbArc
 50
242.5423724541
 51
296.8549864915
  0
ARC
  5
3F7
330
1F
100
AcDbEntity
  8
0
  6
Continuous
 62
     7
 48
2.25
370
    15
100
AcDbCircle
 10
22.4988688223
 20
12.3797524897
 30
0.0
 40
0.141932030607096
100
AcDbArc
 50
122.0957413793
 51
177.2992375914
  0
LINE
  5
3F8
330
1F
100
AcDbEntity
  8
0
  6
Continuous
 62
     7
 48
1.5
370
    15
100
AcDbLine
 10
22.479081699
 20
9.4624962803
 30
0.0
 11
22.4886138972
 21
12.3857486186
 31
0.0
  0
ARC
  5
3F9
330
1F
100
AcDbEntity
  8
0
  6
Continuous
 62
     7
 48
2.25
370
    15
100
AcDbCircle
 10
22.4139961599
 20
9.5910370739
 30
0.0
 40
0.1440793635344117
100
AcDbArc
 50
242.5423724541
 51
296.8549864915
  0
LINE
  5
3FA
330
1F
100
AcDbEntity
  8
0
  6
Continuous
 62
     7
 48
1.5
370
    15
100
AcDbLine
 10
22.357094443
 20
12.3864402904
 30
0.0
 11
22.3475622448
 21
9.4631879522
 31
0.0
  0
LINE
  5
3FB
330
1F
100
AcDbEntity
  8
0
  6
Continuous
 62
     7
 48
1.5
370
    15
100
AcDbLine
 10
22.7779431941
 20
12.5488606122
 30
0.0
 11
22.4886138972
 21
12.3857486186
 31
0.0
  0
LINE
  5
3FC
330
1F
100
AcDbEntity
  8
0
  6
Continuous
 62
     7
 48
1.5
370
    15
100
AcDbLine
 10
22.4234552797
 20
12.4999918297
 30
0.0
 11
22.7127845767
 21
12.6631038233
 31
0.0
  0
ARC
  5
3FD
330
1F
100
AcDbEntity
  8
0
  6
Continuous
 62
     7
 48
2.25
370
    15
100
AcDbCircle
 10
22.6352663529
 20
12.5431880882
 30
0.0
 40
0.1427895603453824
100
AcDbArc
 50
2.2767577017
 51
57.1197913364
  0
ARC
  5
3FE
330
1F
100
AcDbEntity
  8
0
  6
Continuous
 62
     7
 48
2.25
370
    15
100
AcDbCircle
 10
20.1681155547
 20
13.7325407567
 30
0.0
 40
0.1419320306071265
100
AcDbArc
 50
122.0957413793
 51
177.2992375914
  0
LINE
  5
3FF
330
1F
100
AcDbEntity
  8
0
  6
Continuous
 62
     7
 48
1.5
370
    15
100
AcDbLine
 10
22.4234552797
 20
12.4999918297
 30
0.0
 11
20.092702012
 21
13.8527800968
 31
0.0
  0
LINE
  5
400
330
1F
100
AcDbEntity
  8
0
  6
Continuous
 62
     7
 48
1.5
370
    15
100
AcDbLine
 10
20.0263411753
 20
13.7392285574
 30
0.0
 11
22.357094443
 21
12.3864402904
 31
0.0
  0
LINE
  5
401
330
1F
100
AcDbEntity
  8
0
  6
Continuous
 62
     7
 48
1.5
370
    15
100
AcDbLine
 10
22.768410996
 20
9.6256082739
 30
0.0
 11
22.7779431941
 21
12.5488606122
 31
0.0
  0
LINE
  5
402
330
1F
100
AcDbEntity
  8
0
  6
Continuous
 62
     7
 48
1.5
370
    15
100
AcDbLine
 10
22.479081699
 20
9.4624962803
 30
0.0
 11
22.768410996
 21
9.6256082739
 31
0.0
  0
LINE
  5
403
330
1F
100
AcDbEntity
  8
0
  6
Continuous
 62
     7
 48
1.5
370
    15
100
AcDbLine
 10
22.3475622448
 20
9.4631879522
 30
0.0
 11
20.0168089772
 21
10.8159762192
 31
0.0
  0
LINE
  5
404
330
1F
100
AcDbEntity
  8
0
  6
Continuous
 62
     7
 48
1.5
370
    15
100
AcDbLine
 10
20.0168089772
 20
10.8159762192
 30
0.0
 11
20.0263411753
 21
13.7392285574
 31
0.0
  0
ARC
  5
405
330
1F
100
AcDbEntity
  8
0
  6
Continuous
 62
     7
 48
2.25
370
    15
100
AcDbCircle
 10
21.7277915236
 20
11.9064131608
 30
0.0
 40
0.9745753641680428
100
AcDbArc
 50
188.0905221516
 51
231.3060791118
  0
LINE
  5
406
330
1F
100
AcDbEntity
  8
0
  6
Continuous
 62
     7
 48
1.5
370
    15
100
AcDbLine
 10
21.1185261364
 20
11.1457602647
 30
0.0
 11
21.1183190092
 21
11.0822402872
 31
0.0
  0
LINE
  5
407
330
1F
100
AcDbEntity
  8
0
  6
Continuous
 62
     7
 48
1.5
370
    15
100
AcDbLine
 10
21.1183190092
 20
11.0822402872
 30
0.0
 11
21.2519469841
 21
11.0046815172
 31
0.0
  0
LINE
  5
408
330
1F
100
AcDbEntity
  8
0
  6
Continuous
 62
     7
 48
1.5
370
    15
100
AcDbLine
 10
21.2519469841
 20
11.0046815172
 30
0.0
 11
21.2521541113
 21
11.0682014948
 31
0.0
  0
ARC
  5
409
330
1F
100
AcDbEntity
  8
0
  6
Continuous
 62
     7
 48
2.25
370
    15
100
AcDbCircle
 10
21.3636099281
 20
11.2887761946
 30
0.0
 40
0.247134775622366
100
AcDbArc
 50
243.1926499149
 51
357.3433738774
  0
LINE
  5
40A
330
1F
100
AcDbEntity
  8
0
  6
Continuous
 62
     7
 48
1.5
370
    15
100
AcDbLine
 10
21.6104790954
 20
11.2773214334
 30
0.0
 11
21.6649450979
 21
11.2457089198
 31
0.0
  0
LINE
  5
40B
330
1F
100
AcDbEntity
  8
0
  6
Continuous
 62
     7
 48
1.5
370
    15
100
AcDbLine
 10
21.6649450979
 20
11.2457089198
 30
0.0
 11
21.6654532679
 21
11.4015500972
 31
0.0
  0
LINE
  5
40C
330
1F
100
AcDbEntity
  8
0
  6
Continuous
 62
     7
 48
1.5
370
    15
100
AcDbLine
 10
21.6654532679
 20
11.4015500972
 30
0.0
 11
21.6109872653
 21
11.4331626107
 31
0.0
  0
ARC
  5
40D
330
1F
100
AcDbEntity
  8
0
  6
Continuous
 62
     7
 48
2.25
370
    15
100
AcDbCircle
 10
20.6461118965
 20
11.2960033488
 30
0.0
 40
0.9745753641679985
100
AcDbArc
 50
8.0905221516
 51
51.3060791118
  0
LINE
  5
40E
330
1F
100
AcDbEntity
  8
0
  6
Continuous
 62
     7
 48
1.5
370
    15
100
AcDbLine
 10
21.2553772838
 20
12.0566562448
 30
0.0
 11
21.255584411
 21
12.1201762224
 31
0.0
  0
LINE
  5
40F
330
1F
100
AcDbEntity
  8
0
  6
Continuous
 62
     7
 48
1.5
370
    15
100
AcDbLine
 10
21.255584411
 20
12.1201762224
 30
0.0
 11
21.1219564361
 21
12.1977349923
 31
0.0
  0
LINE
  5
410
330
1F
100
AcDbEntity
  8
0
  6
Continuous
 62
     7
 48
1.5
370
    15
100
AcDbLine
 10
21.1219564361
 20
12.1977349923
 30
0.0
 11
21.1217493089
 21
12.1342150148
 31
0.0
  0
ARC
  5
411
330
1F
100
AcDbEntity
  8
0
  6
Continuous
 62
     7
 48
2.25
370
    15
100
AcDbCircle
 10
21.0102934921
 20
11.913640315
 30
0.0
 40
0.2471347756223713
100
AcDbArc
 50
63.1926499149
 51
177.3433738774
  0
LINE
  5
412
330
1F
100
AcDbEntity
  8
0
  6
Continuous
 62
     7
 48
1.5
370
    15
100
AcDbLine
 10
20.7634243248
 20
11.9250950762
 30
0.0
 11
20.7089583223
 21
11.9567075897
 31
0.0
  0
LINE
  5
413
330
1F
100
AcDbEntity
  8
0
  6
Continuous
 62
     7
 48
1.5
370
    15
100
AcDbLine
 10
20.7089583223
 20
11.9567075897
 30
0.0
 11
20.7084501523
 21
11.8008664124
 31
0.0
  0
LINE
  5
414
330
1F
100
AcDbEntity
  8
0
  6
Continuous
 62
     7
 48
1.5
370
    15
100
AcDbLine
 10
20.7084501523
 20
11.8008664124
 30
0.0
 11
20.7629161549
 21
11.7692538989
 31
0.0
  0
LINE
  5
415
330
1F
100
AcDbEntity
  8
0
  6
Continuous
 62
     7
 48
1.5
370
    15
100
AcDbLine
 10
20.382031309
 20
14.0158920904
 30
0.0
 11
20.092702012
 21
13.8527800968
 31
0.0
  0
LINE
  5
416
330
1F
100
AcDbEntity
  8
0
  6
Continuous
 62
     7
 48
1.5
370
    15
100
AcDbLine
 10
22.7127845767
 20
12.6631038233
 30
0.0
 11
20.382031309
 21
14.0158920904
 31
0.0
  0
LINE
  5
417
330
1F
100
AcDbEntity
  8
0
  6
Continuous
 62
     7
 48
1.5
370
    15
100
AcDbLine
 10
21.6651486889
 20
11.3081419085
 30
0.0
 11
21.6104790954
 21
11.2773214334
 31
0.0
  0
LINE
  5
418
330
1F
100
AcDbEntity
  8
0
  6
Continuous
 62
     7
 48
1.5
370
    15
100
AcDbLine
 10
21.177198154
 20
12.1654748
 30
0.0
 11
21.1217493089
 21
12.1342150148
 31
0.0
  0
LINE
  5
419
330
1F
100
AcDbEntity
  8
0
  6
Continuous
 62
     7
 48
1.5
370
    15
100
AcDbLine
 10
21.1771987965
 20
12.1656718466
 30
0.0
 11
21.177198154
 21
12.1654748
 31
0.0
  0
LINE
  5
41A
330
1F
100
AcDbEntity
  8
0
  6
Continuous
 62
     7
 48
1.5
370
    15
100
AcDbLine
 10
21.3076029564
 20
11.0994612799
 30
0.0
 11
21.2521541113
 21
11.0682014948
 31
0.0
  0
ARC
  5
41B
330
1F
100
AcDbEntity
  8
0
  6
Continuous
 62
     7
 48
2.25
370
    15
100
AcDbCircle
 10
21.4253738784
 20
11.3551238562
 30
0.0
 40
0.2814841789599432
100
AcDbArc
 50
245.2668473642
 51
288.1419741301
  0
LINE
  5
41C
330
1F
100
AcDbEntity
  8
0
  6
Continuous
 62
     7
 48
1.5
370
    15
100
AcDbLine
 10
20.8188731699
 20
11.9563548614
 30
0.0
 11
20.7634243248
 21
11.9250950762
 31
0.0
  0
ARC
  5
41D
330
1F
100
AcDbEntity
  8
0
  6
Continuous
 62
     7
 48
2.25
370
    15
100
AcDbCircle
 10
21.1091129679
 20
11.9271152571
 30
0.0
 40
0.2917089213824119
100
AcDbArc
 50
131.366105376
 51
174.2472653268
  0
ARC
  5
41E
330
1F
100
AcDbEntity
  8
0
  6
Continuous
 62
     7
 48
2.25
370
    15
100
AcDbCircle
 10
20.3549419969
 20
13.9781945907
 30
0.0
 40
0.0464212485103534
100
AcDbArc
 50
54.2990873131
 51
113.9323957009
  0
ARC
  5
41F
330
1F
100
AcDbEntity
  8
0
  6
Continuous
 62
     7
 48
2.25
370
    15
100
AcDbCircle
 10
22.7237555512
 20
9.6200311691
 30
0.0
 40
0.045002364843964
100
AcDbArc
 50
303.6243236773
 51
7.118919748
  0
LINE
  5
420
330
1F
100
AcDbEntity
  8
0
  6
Continuous
 62
     7
 48
1.5
370
    15
100
AcDbLine
 10
20.8183649999
 20
11.800513684
 30
0.0
 11
20.7629161549
 21
11.7692538989
 31
0.0
  0
LINE
  5
421
330
1F
100
AcDbEntity
  8
0
  6
Continuous
 62
     7
 48
1.5
370
    15
100
AcDbLine
 10
21.1739749815
 20
11.1770200499
 30
0.0
 11
21.1185261364
 21
11.1457602647
 31
0.0
  0
ARC
  5
422
330
1F
100
AcDbEntity
  8
0
  6
Continuous
 62
     7
 48
2.25
370
    15
100
AcDbCircle
 10
21.7832403687
 20
11.937672946
 30
0.0
 40
0.9745753641680309
100
AcDbArc
 50
188.0905221516
 51
231.3060791118
  0
LINE
  5
423
330
1F
100
AcDbEntity
  8
0
  6
Continuous
 62
     7
 48
1.5
370
    15
100
AcDbLine
 10
21.1737678543
 20
11.1135000724
 30
0.0
 11
21.1183190092
 21
11.0822402872
 31
0.0
  0
LINE
  5
424
330
1F
100
AcDbEntity
  8
0
  6
Continuous
 62
     7
 48
1.5
370
    15
100
AcDbLine
 10
21.1737678543
 20
11.1135000724
 30
0.0
 11
21.252153435
 21
11.06800444
 31
0.0
  0
LINE
  5
425
330
1F
100
AcDbEntity
  8
0
  6
Continuous
 62
     7
 48
1.5
370
    15
100
AcDbLine
 10
20.7638989974
 20
11.8321261976
 30
0.0
 11
20.7084501523
 21
11.8008664124
 31
0.0
  0
LINE
  5
426
330
1F
100
AcDbEntity
  8
0
  6
Continuous
 62
     7
 48
1.5
370
    15
100
AcDbLine
 10
20.7642035846
 20
11.9255343678
 30
0.0
 11
20.7638989974
 21
11.8321261976
 31
0.0
  0
LINE
  5
427
330
1F
100
AcDbEntity
  8
0
  6
Continuous
 62
     7
 48
1.5
370
    15
100
AcDbLine
 10
21.1739749815
 20
11.1770200499
 30
0.0
 11
21.1737678543
 21
11.1135000724
 31
0.0
  0
LINE
  5
428
330
1F
100
AcDbEntity
  8
0
  6
Continuous
 62
     7
 48
1.5
370
    15
100
AcDbLine
 10
20.7638989974
 20
11.8321261976
 30
0.0
 11
20.8183649999
 21
11.800513684
 31
0.0
  0
LINE
  5
429
330
1F
100
AcDbEntity
  8
0
  6
Continuous
 62
     7
 48
1.5
370
    15
100
AcDbLine
 10
24.3768178817
 20
11.5784443152
 30
0.0
 11
24.3710185394
 21
11.5751748839
 31
0.0
  0
LINE
  5
42A
330
1F
100
AcDbEntity
  8
0
  6
Continuous
 62
     7
 48
1.5
370
    15
100
AcDbLine
 10
24.3734746584
 20
10.5531734306
 30
0.0
 11
24.3768178817
 21
11.5784443152
 31
0.0
  0
LINE
  5
42B
330
1F
100
AcDbEntity
  8
0
  6
Continuous
 62
     7
 48
1.5
370
    15
100
AcDbLine
 10
24.3734746584
 20
10.5531734306
 30
0.0
 11
24.3180257807
 21
10.5219136271
 31
0.0
  0
LINE
  5
42C
330
1F
100
AcDbEntity
  8
0
  6
Continuous
 62
     7
 48
1.5
370
    15
100
AcDbLine
 10
24.3180257807
 20
10.5219136271
 30
0.0
 11
24.3185102705
 21
10.6704927714
 31
0.0
  0
LWPOLYLINE
  5
42D
330
1F
100
AcDbEntity
  8
0
  6
Continuous
 62
     7
 48
1.5
370
    15
100
AcDbPolyline
 90
       10
 70
   128
 43
0.0
 10
24.1415308669
 20
10.4189104675
 10
24.1720728738
 20
10.4043047454
 10
24.2017072586
 20
10.3963732995
 10
24.2295335312
 20
10.3953569947
 10
24.2547062201
 20
10.4012868681
 10
24.2764603949
 20
10.4139826943
 10
24.2941351437
 20
10.4330587622
 10
24.3071934534
 20
10.4579353577
 10
24.3152384933
 20
10.4878566714
 10
24.3180257807
 20
10.5219136271
  0
LINE
  5
42E
330
1F
100
AcDbEntity
  8
0
  6
Continuous
 62
     7
 48
1.5
370
    15
100
AcDbLine
 10
24.00885043
 20
10.4959192786
 30
0.0
 11
24.1415308669
 21
10.4189104675
 31
0.0
  0
LWPOLYLINE
  5
42F
330
1F
100
AcDbEntity
  8
0
  6
Continuous
 62
     7
 48
1.5
370
    15
100
AcDbPolyline
 90
        8
 70
   128
 43
0.0
 10
24.0881277789
 20
10.5406126137
 10
24.09786714
 20
10.5342369014
 10
24.1178092505
 20
10.5257284867
 10
24.1364123056
 20
10.5239205795
 10
24.1524085545
 20
10.5289362449
 10
24.1647078807
 20
10.5404338737
 10
24.1724719744
 20
10.5576299378
 10
24.1751719155
 20
10.5793523473
  0
LINE
  5
430
330
1F
100
AcDbEntity
  8
0
  6
Continuous
 62
     7
 48
1.5
370
    15
100
AcDbLine
 10
24.1751719155
 20
10.5793523473
 30
0.0
 11
24.1752056689
 21
10.5897035488
 31
0.0
  0
LINE
  5
431
330
1F
100
AcDbEntity
  8
0
  6
Continuous
 62
     7
 48
1.5
370
    15
100
AcDbLine
 10
24.3768178817
 20
11.5784443152
 30
0.0
 11
24.3710401279
 21
11.5817977708
 31
0.0
  0
ARC
  5
432
330
1F
100
AcDbEntity
  8
0
  6
Continuous
 62
     7
 48
2.25
370
    15
100
AcDbCircle
 10
24.2472606326
 20
10.5410110245
 30
0.0
 40
0.1267986767337261
100
AcDbArc
 50
305.2389542517
 51
5.5042179399
  0
LWPOLYLINE
  5
433
330
1F
100
AcDbEntity
  8
0
  6
Continuous
 62
     7
 48
1.5
370
    15
100
AcDbPolyline
 90
        3
 70
   128
 43
0.0
 10
24.1435766566
 20
10.5718724172
 10
24.1533160177
 20
10.565496705
 10
24.1723643201
 20
10.5572341957
  0
LINE
  5
434
330
1F
100
AcDbEntity
  8
0
  6
Continuous
 62
     7
 48
1.5
370
    15
100
AcDbLine
 10
24.2090153485
 20
14.1411454796
 30
0.0
 11
24.1535664708
 21
14.109885676
 31
0.0
  0
ARC
  5
435
330
1F
100
AcDbEntity
  8
0
  6
Continuous
 62
     7
 48
2.25
370
    15
100
AcDbCircle
 10
24.0021946022
 20
13.8196819234
 30
0.0
 40
0.3822481379960649
100
AcDbArc
 50
2.1527076845
 51
57.2438935789
  0
LINE
  5
436
330
1F
100
AcDbEntity
  8
0
  6
Continuous
 62
     7
 48
1.5
370
    15
100
AcDbLine
 10
24.384172973
 20
13.8340403094
 30
0.0
 11
24.3287240954
 21
13.8027805059
 31
0.0
  0
ARC
  5
437
330
1F
100
AcDbEntity
  8
0
  6
Continuous
 62
     7
 48
2.25
370
    15
100
AcDbCircle
 10
23.9467457246
 20
13.7884221199
 30
0.0
 40
0.3822481379960354
100
AcDbArc
 50
2.1527076845
 51
57.2438935789
  0
LWPOLYLINE
  5
438
330
1F
100
AcDbEntity
  8
0
  6
Continuous
 62
     7
 48
1.5
370
    15
100
AcDbPolyline
 90
       13
 70
   128
 43
0.0
 10
24.1858702302
 20
13.8602192261
 10
24.183170289
 20
13.8384968166
 10
24.1754061953
 20
13.8213007525
 10
24.1631068692
 20
13.8098031237
 10
24.1471106202
 20
13.8047874583
 10
24.1285075652
 20
13.8065953655
 10
24.108565455
 20
13.8151039005
 10
24.0886433027
 20
13.8297329096
 10
24.0700987112
 20
13.8494858004
 10
24.0541955973
 20
13.8730161171
 10
24.0420176321
 20
13.898720566
 10
24.0343947031
 20
13.924847384
 10
24.0318464122
 20
13.9496159103
  0
LINE
  5
439
330
1F
100
AcDbEntity
  8
0
  6
Continuous
 62
     7
 48
1.5
370
    15
100
AcDbLine
 10
24.186036054
 20
13.9110726446
 30
0.0
 11
24.1858702302
 21
13.8602192261
 31
0.0
  0
LWPOLYLINE
  5
43A
330
1F
100
AcDbEntity
  8
0
  6
Continuous
 62
     7
 48
1.5
370
    15
100
AcDbPolyline
 90
       13
 70
   128
 43
0.0
 10
24.032012236
 20
14.0004693288
 10
24.0347121256
 20
14.0221917682
 10
24.0424763225
 20
14.0393877724
 10
24.054775597
 20
14.0508854311
 10
24.0707717944
 20
14.0559011265
 10
24.089374901
 20
14.0540931894
 10
24.1093170116
 20
14.0455847746
 10
24.1292391635
 20
14.0309556453
 10
24.1477837034
 20
14.0112027844
 10
24.1636868689
 20
13.9876724378
 10
24.1758648857
 20
13.9619679589
 10
24.1834877115
 20
13.9358412008
 10
24.186036054
 20
13.9110726446
  0
LINE
  5
43B
330
1F
100
AcDbEntity
  8
0
  6
Continuous
 62
     7
 48
1.5
370
    15
100
AcDbLine
 10
24.0318464122
 20
13.9496159103
 30
0.0
 11
24.032012236
 21
14.0004693288
 31
0.0
  0
LINE
  5
43C
330
1F
100
AcDbEntity
  8
0
  6
Continuous
 62
     7
 48
1.5
370
    15
100
AcDbLine
 10
22.2188086589
 20
15.0273926888
 30
0.0
 11
22.2179950575
 21
14.777884428
 31
0.0
  0
LWPOLYLINE
  5
43D
330
1F
100
AcDbEntity
  8
0
  6
Continuous
 62
     7
 48
1.5
370
    15
100
AcDbPolyline
 90
       10
 70
   128
 43
0.0
 10
22.3953035727
 20
15.1303958484
 10
22.3647615658
 20
15.1450015704
 10
22.335127181
 20
15.1529330164
 10
22.3073009084
 20
15.1539493212
 10
22.2821282195
 20
15.1480194477
 10
22.2603740447
 20
15.1353236216
 10
22.2426992959
 20
15.1162475537
 10
22.2296409862
 20
15.0913709581
 10
22.2215959463
 20
15.0614496445
 10
22.2188086589
 20
15.0273926888
  0
LINE
  5
43E
330
1F
100
AcDbEntity
  8
0
  6
Continuous
 62
     7
 48
1.5
370
    15
100
AcDbLine
 10
24.1535664708
 20
14.109885676
 30
0.0
 11
22.3953035727
 21
15.1303958484
 31
0.0
  0
LINE
  5
43F
330
1F
100
AcDbEntity
  8
0
  6
Continuous
 62
     7
 48
1.5
370
    15
100
AcDbLine
 10
24.3287240954
 20
13.8027805059
 30
0.0
 11
24.327910494
 21
13.5532722452
 31
0.0
  0
LWPOLYLINE
  5
440
330
1F
100
AcDbEntity
  8
0
  6
Continuous
 62
     7
 48
1.5
370
    15
100
AcDbPolyline
 90
       13
 70
   128
 43
0.0
 10
22.5156863421
 20
14.8805572844
 10
22.5131380512
 20
14.9053258107
 10
22.5055151222
 20
14.9314526287
 10
22.493337157
 20
14.9571570776
 10
22.477434043
 20
14.9806873943
 10
22.4588894516
 20
15.0004402851
 10
22.4389672996
 20
15.0150694144
 10
22.4190251891
 20
15.0235778292
 10
22.400422134
 20
15.0253857364
 10
22.3844258851
 20
15.0203700709
 10
22.372126559
 20
15.0088724422
 10
22.3643624652
 20
14.991676378
 10
22.3616625241
 20
14.9699539686
  0
LINE
  5
441
330
1F
100
AcDbEntity
  8
0
  6
Continuous
 62
     7
 48
1.5
370
    15
100
AcDbLine
 10
22.3616625241
 20
14.9699539686
 30
0.0
 11
22.3614967003
 21
14.9191005501
 31
0.0
  0
LWPOLYLINE
  5
442
330
1F
100
AcDbEntity
  8
0
  6
Continuous
 62
     7
 48
1.5
370
    15
100
AcDbPolyline
 90
       13
 70
   128
 43
0.0
 10
22.3614967003
 20
14.9191005501
 10
22.3640450427
 20
14.8943319939
 10
22.3716678686
 20
14.8682052357
 10
22.3838458854
 20
14.8425007568
 10
22.3997490509
 20
14.8189704102
 10
22.4182935907
 20
14.7992175494
 10
22.4382157431
 20
14.7845885403
 10
22.4581578532
 20
14.7760800053
 10
22.4767609599
 20
14.7742720681
 10
22.4927571572
 20
14.7792877635
 10
22.5050564318
 20
14.7907854222
 10
22.5128206287
 20
14.8079814265
 10
22.5155205182
 20
14.8297038659
  0
LINE
  5
443
330
1F
100
AcDbEntity
  8
0
  6
Continuous
 62
     7
 48
1.5
370
    15
100
AcDbLine
 10
22.5155205182
 20
14.8297038659
 30
0.0
 11
22.5156863421
 21
14.8805572844
 31
0.0
  0
LINE
  5
444
330
1F
100
AcDbEntity
  8
0
  6
Continuous
 62
     7
 48
1.5
370
    15
100
AcDbLine
 10
24.3808297497
 20
12.8087694248
 30
0.0
 11
24.3750304075
 21
12.8054999935
 31
0.0
  0
LINE
  5
445
330
1F
100
AcDbEntity
  8
0
  6
Continuous
 62
     7
 48
1.5
370
    15
100
AcDbLine
 10
24.384172973
 20
13.8340403094
 30
0.0
 11
24.3808297497
 21
12.8087694248
 31
0.0
  0
LINE
  5
446
330
1F
100
AcDbEntity
  8
0
  6
Continuous
 62
     7
 48
1.5
370
    15
100
AcDbLine
 10
22.4507524504
 20
15.1616556519
 30
0.0
 11
22.3953035727
 21
15.1303958484
 31
0.0
  0
LINE
  5
447
330
1F
100
AcDbEntity
  8
0
  6
Continuous
 62
     7
 48
1.5
370
    15
100
AcDbLine
 10
24.2090153485
 20
14.1411454796
 30
0.0
 11
22.4507524504
 21
15.1616556519
 31
0.0
  0
LINE
  5
448
330
1F
100
AcDbEntity
  8
0
  6
Continuous
 62
     7
 48
1.5
370
    15
100
AcDbLine
 10
24.0874611137
 20
14.0317291323
 30
0.0
 11
24.032012236
 21
14.0004693288
 31
0.0
  0
LWPOLYLINE
  5
449
330
1F
100
AcDbEntity
  8
0
  6
Continuous
 62
     7
 48
1.5
370
    15
100
AcDbPolyline
 90
        3
 70
   128
 43
0.0
 10
24.0874611137
 20
14.0317291323
 10
24.0901610032
 20
14.0534515717
 10
24.0902686878
 20
14.0538473058
  0
LINE
  5
44A
330
1F
100
AcDbEntity
  8
0
  6
Continuous
 62
     7
 48
1.5
370
    15
100
AcDbLine
 10
24.0872952899
 20
13.9808757138
 30
0.0
 11
24.0318464122
 21
13.9496159103
 31
0.0
  0
ARC
  5
44B
330
1F
100
AcDbEntity
  8
0
  6
Continuous
 62
     7
 48
2.25
370
    15
100
AcDbCircle
 10
24.2461377626
 20
13.9839149853
 30
0.0
 40
0.1588715465998936
100
AcDbArc
 50
181.096156308
 51
246.6080050845
  0
LINE
  5
44C
330
1F
100
AcDbEntity
  8
0
  6
Continuous
 62
     7
 48
1.5
370
    15
100
AcDbLine
 10
24.0872952899
 20
13.9808757138
 30
0.0
 11
24.0874611137
 21
14.0317291323
 31
0.0
  0
LINE
  5
44D
330
1F
100
AcDbEntity
  8
0
  6
Continuous
 62
     7
 48
1.5
370
    15
100
AcDbLine
 10
22.4171114017
 20
15.0012137721
 30
0.0
 11
22.3616625241
 21
14.9699539686
 31
0.0
  0
LWPOLYLINE
  5
44E
330
1F
100
AcDbEntity
  8
0
  6
Continuous
 62
     7
 48
1.5
370
    15
100
AcDbPolyline
 90
        3
 70
   128
 43
0.0
 10
22.4199189759
 20
15.0233319456
 10
22.4198113429
 20
15.0229361816
 10
22.4171114017
 20
15.0012137721
  0
ARC
  5
44F
330
1F
100
AcDbEntity
  8
0
  6
Continuous
 62
     7
 48
2.25
370
    15
100
AcDbCircle
 10
22.3783224227
 20
15.0641109265
 30
0.0
 40
0.1214951948497067
100
AcDbArc
 50
53.4049515971
 51
114.8263570771
  0
LINE
  5
450
330
1F
100
AcDbEntity
  8
0
  6
Continuous
 62
     7
 48
1.5
370
    15
100
AcDbLine
 10
22.4169455779
 20
14.9503603536
 30
0.0
 11
22.3614967003
 21
14.9191005501
 31
0.0
  0
ARC
  5
451
330
1F
100
AcDbEntity
  8
0
  6
Continuous
 62
     7
 48
2.25
370
    15
100
AcDbCircle
 10
22.5724491658
 20
14.9511600386
 30
0.0
 40
0.1555056440278464
100
AcDbArc
 50
180.2946438196
 51
247.4095175729
  0
LINE
  5
452
330
1F
100
AcDbEntity
  8
0
  6
Continuous
 62
     7
 48
1.5
370
    15
100
AcDbLine
 10
22.4171114017
 20
15.0012137721
 30
0.0
 11
22.4169455779
 21
14.9503603536
 31
0.0
  0
ARC
  5
453
330
1F
100
AcDbEntity
  8
0
  6
Continuous
 62
     7
 48
2.25
370
    15
100
AcDbCircle
 10
24.206931216
 20
13.4274770041
 30
0.0
 40
0.1427891711508088
100
AcDbArc
 50
2.2767263646
 51
57.1198748988
  0
LINE
  5
454
330
1F
100
AcDbEntity
  8
0
  6
Continuous
 62
     7
 48
1.5
370
    15
100
AcDbLine
 10
24.3496076714
 20
13.4331494346
 30
0.0
 11
24.3407441174
 21
10.7149511409
 31
0.0
  0
LINE
  5
455
330
1F
100
AcDbEntity
  8
0
  6
Continuous
 62
     7
 48
1.5
370
    15
100
AcDbLine
 10
22.1295221582
 20
14.7981297273
 30
0.0
 11
24.2844490535
 21
13.5473925254
 31
0.0
  0
LINE
  5
456
330
1F
100
AcDbEntity
  8
0
  6
Continuous
 62
     7
 48
1.5
370
    15
100
AcDbLine
 10
20.9931962172
 20
11.3679643171
 30
0.0
 11
21.5422598305
 21
11.6775038677
 31
0.0
  0
LWPOLYLINE
  5
457
330
1F
100
AcDbEntity
  8
0
  6
Continuous
 62
     8
 48
1.5
370
    15
100
AcDbPolyline
 90
       28
 70
   128
 43
0.0
 10
20.3122699474
 20
10.7861036176
 10
20.3322237419
 20
10.7771850251
 10
20.3600800695
 20
10.7697293564
 10
20.3862367889
 20
10.7687741611
 10
20.4098990606
 20
10.7743482071
 10
20.4303480306
 20
10.7862823704
 10
20.4469622881
 20
10.8042138129
 10
20.4592370746
 20
10.8275978535
 10
20.4667993729
 20
10.8557239183
 10
20.4694194497
 20
10.887737405
 10
20.4670176577
 20
10.9226656255
 10
20.4596670118
 20
10.9594472852
 10
20.447590814
 20
10.9969647158
 10
20.4311560479
 20
11.0340781423
 10
20.4108620184
 20
11.0696598156
 10
20.3873254277
 20
11.1026285278
 10
20.3612613122
 20
11.131982672
 10
20.3334616964
 20
11.1568302286
 10
20.3047712414
 20
11.1764162769
 10
20.2760616888
 20
11.1901456627
 10
20.248205361
 20
11.1976012712
 10
20.222048745
 20
11.1985564668
 10
20.1983863699
 20
11.1929824204
 10
20.1779374517
 20
11.1810482874
 10
20.1613231424
 20
11.1631168147
 10
20.1490484079
 20
11.1397328644
 10
20.141486058
 20
11.1116068295
 10
20.1393179066
 20
11.0928873027
  0
LWPOLYLINE
  5
458
330
1F
100
AcDbEntity
  8
0
  6
Continuous
 62
     8
 48
1.5
370
    15
100
AcDbPolyline
 90
       28
 70
   128
 43
0.0
 10
22.0778878337
 20
12.0211894993
 10
22.0978417314
 20
12.0122708469
 10
22.1256980592
 20
12.0048152384
 10
22.1518546752
 20
12.0038600428
 10
22.1755170502
 20
12.0094340891
 10
22.1959659685
 20
12.0213682222
 10
22.2125802777
 20
12.0392996949
 10
22.2248550123
 20
12.0626836452
 10
22.2324173622
 20
12.0908096801
 10
22.2350373874
 20
12.1228231967
 10
22.232635647
 20
12.1577513873
 10
22.2252849495
 20
12.1945330769
 10
22.2132088036
 20
12.2320505979
 10
22.1967739858
 20
12.2691639941
 10
22.1764800081
 20
12.3047456976
 10
22.152943314
 20
12.3377144095
 10
22.1268793019
 20
12.3670685541
 10
22.0990796859
 20
12.3919160504
 10
22.070389231
 20
12.4115021589
 10
22.0416796782
 20
12.4252314845
 10
22.0138233507
 20
12.4326871532
 10
21.9876666313
 20
12.4336423485
 10
21.9640043596
 20
12.4280683025
 10
21.9435553896
 20
12.4161341392
 10
21.9269411321
 20
12.3982026967
 10
21.9146663456
 20
12.374818656
 10
21.9071040473
 20
12.3466925913
 10
21.9049357927
 20
12.3279731243
  0
LWPOLYLINE
  5
459
330
1F
100
AcDbEntity
  8
0
  6
Continuous
 62
     8
 48
1.5
370
    15
100
AcDbPolyline
 90
       28
 70
   128
 43
0.0
 10
20.2698630408
 20
13.0136458379
 10
20.2898168354
 20
13.0047272454
 10
20.3176731632
 20
12.9972716369
 10
20.3438298823
 20
12.9963163814
 10
20.3674921542
 20
13.0018904876
 10
20.3879411241
 20
13.0138245907
 10
20.4045553817
 20
13.0317560933
 10
20.4168301678
 20
13.0551400137
 10
20.4243924661
 20
13.0832660785
 10
20.427012543
 20
13.1152795652
 10
20.424610751
 20
13.1502077857
 10
20.417260105
 20
13.1869894453
 10
20.4051839076
 20
13.2245069963
 10
20.3887491413
 20
13.2616203626
 10
20.3684551121
 20
13.297202096
 10
20.3449185211
 20
13.3301707481
 10
20.3188544058
 20
13.3595249525
 10
20.2910547899
 20
13.3843724489
 10
20.262364335
 20
13.4039585573
 10
20.2336547822
 20
13.417687883
 10
20.2057984546
 20
13.4251435516
 10
20.1796418384
 20
13.4260986871
 10
20.1559794636
 20
13.4205247009
 10
20.1355305451
 20
13.4085905077
 10
20.1189162361
 20
13.3906590951
 10
20.1066415012
 20
13.3672750245
 10
20.0990791513
 20
13.3391489897
 10
20.0969109999
 20
13.3204294628
  0
LWPOLYLINE
  5
45A
330
1F
100
AcDbEntity
  8
0
  6
Continuous
 62
     8
 48
1.5
370
    15
100
AcDbPolyline
 90
       21
 70
   128
 43
0.0
 10
20.1480106128
 20
13.4340613139
 10
20.1512207435
 20
13.4358722039
 10
20.1744948089
 20
13.4442544132
 10
20.2005853393
 20
13.4461052441
 10
20.2287417696
 20
13.4413713618
 10
20.2581542127
 20
13.4301890984
 10
20.2879764394
 20
13.412880034
 10
20.3173505494
 20
13.389942101
 10
20.3454314689
 20
13.3620353653
 10
20.37141138
 20
13.3299624241
 10
20.3945428489
 20
13.294646063
 10
20.4141605435
 20
13.2571023085
 10
20.4296999475
 20
13.2184112463
 10
20.4407141555
 20
13.1796858202
 10
20.446886171
 20
13.142040107
 10
20.4480385684
 20
13.1065573137
 10
20.4441381426
 20
13.0742579118
 10
20.4352970567
 20
13.0460712505
 10
20.4217697045
 20
13.0228082108
 10
20.4039452454
 20
13.0051380587
 10
20.4019605429
 20
13.0037104053
  0
LWPOLYLINE
  5
45B
330
1F
100
AcDbEntity
  8
0
  6
Continuous
 62
     8
 48
1.5
370
    15
100
AcDbPolyline
 90
       20
 70
   128
 43
0.0
 10
20.4236081285
 20
13.0154731856
 10
20.4323807324
 20
13.0211688203
 10
20.4502051915
 20
13.0388389724
 10
20.4637325437
 20
13.062102012
 10
20.4725736295
 20
13.0902886734
 10
20.4764740554
 20
13.1225880753
 10
20.475321658
 20
13.1580708686
 10
20.4691496424
 20
13.1957165818
 10
20.4581354344
 20
13.2344420078
 10
20.4425960305
 20
13.27313307
 10
20.4229783359
 20
13.3106768246
 10
20.399846867
 20
13.3459931857
 10
20.3738669558
 20
13.3780661269
 10
20.3457860363
 20
13.4059728625
 10
20.3164119264
 20
13.4289107956
 10
20.2865896997
 20
13.44621986
 10
20.2571772566
 20
13.4574021233
 10
20.2290208263
 20
13.4621360056
 10
20.2029302958
 20
13.4602851748
 10
20.1812886598
 20
13.4527539602
  0
LWPOLYLINE
  5
45C
330
1F
100
AcDbEntity
  8
0
  6
Continuous
 62
     8
 48
1.5
370
    15
100
AcDbPolyline
 90
       28
 70
   128
 43
0.0
 10
22.0207707444
 20
9.7375397312
 10
22.0407246421
 20
9.7286210788
 10
22.0685809697
 20
9.7211654101
 10
22.0947375859
 20
9.7202102747
 10
22.1183999608
 20
9.7257842608
 10
22.1388488792
 20
9.7377184541
 10
22.1554631882
 20
9.7556498666
 10
22.1677379232
 20
9.7790339372
 10
22.1753002731
 20
9.8071599721
 10
22.1779202983
 20
9.8391734887
 10
22.1755185579
 20
9.8741016793
 10
22.1681678604
 20
9.9108833689
 10
22.1560917141
 20
9.9484007696
 10
22.1396568965
 20
9.9855142259
 10
22.1193629186
 20
10.0210958693
 10
22.0958262247
 20
10.0540646414
 10
22.0697622124
 20
10.0834187258
 10
22.0419625966
 20
10.1082662823
 10
22.0132721415
 20
10.1278523306
 10
21.9845625889
 20
10.1415817164
 10
21.9567062612
 20
10.1490373249
 10
21.930549542
 20
10.1499925804
 10
21.9068872701
 20
10.1444184742
 10
21.8864383003
 20
10.132484371
 10
21.8698240426
 20
10.1145528684
 10
21.8575492565
 20
10.091168948
 10
21.8499869582
 20
10.0630428833
 10
21.8478187036
 20
10.0443234163
  0
LWPOLYLINE
  5
45D
330
1F
100
AcDbEntity
  8
0
  6
Continuous
 62
     8
 48
1.5
370
    15
100
AcDbPolyline
 90
       21
 70
   128
 43
0.0
 10
21.8989183679
 20
10.1579551772
 10
21.9021285504
 20
10.1597660975
 10
21.9254025124
 20
10.1681483065
 10
21.9514930427
 20
10.1699990772
 10
21.9796495248
 20
10.1652652251
 10
22.0090619677
 20
10.1540829016
 10
22.0388841944
 20
10.1367738372
 10
22.0682583045
 20
10.1138359644
 10
22.0963391723
 20
10.0859291985
 10
22.1223190836
 20
10.0538563174
 10
22.1454506558
 20
10.0185399566
 10
22.1650682471
 20
9.9809962018
 10
22.1806077024
 20
9.9423050495
 10
22.1916218589
 20
9.9035796534
 10
22.197793978
 20
9.8659340006
 10
22.1989463234
 20
9.8304511169
 10
22.1950458459
 20
9.798151745
 10
22.1862048121
 20
9.769965174
 10
22.1726775115
 20
9.7467021044
 10
22.1548530523
 20
9.7290319523
 10
22.1528682979
 20
9.7276042085
  0
LWPOLYLINE
  5
45E
330
1F
100
AcDbEntity
  8
0
  6
Continuous
 62
     8
 48
1.5
370
    15
100
AcDbPolyline
 90
       20
 70
   128
 43
0.0
 10
22.1745158834
 20
9.7393669889
 10
22.1832885393
 20
9.7450627139
 10
22.2011129984
 20
9.7627328659
 10
22.214640299
 20
9.7859959356
 10
22.2234813329
 20
9.8141825065
 10
22.2273818103
 20
9.8464818785
 10
22.2262294649
 20
9.8819647621
 10
22.2200573458
 20
9.9196104149
 10
22.2090431894
 20
9.9583358111
 10
22.193503734
 20
9.9970269633
 10
22.1738861428
 20
10.0345707181
 10
22.1507545706
 20
10.069887079
 10
22.1247746592
 20
10.10195996
 10
22.0966937915
 20
10.1298667259
 10
22.0673196814
 20
10.1528045988
 10
22.0374974546
 20
10.1701136632
 10
22.0080850118
 20
10.1812959867
 10
21.9799285297
 20
10.1860298388
 10
21.9538379994
 20
10.1841790681
 10
21.9321964667
 20
10.1766478538
  0
LWPOLYLINE
  5
45F
330
1F
100
AcDbEntity
  8
0
  6
Continuous
 62
     8
 48
1.5
370
    15
100
AcDbPolyline
 90
       18
 70
   128
 43
0.0
 10
21.8981814799
 20
10.0763925049
 10
21.9079070419
 20
10.0807758495
 10
21.9294120271
 20
10.0844319003
 10
21.9532406127
 20
10.0813632482
 10
21.9784172137
 20
10.0716954923
 10
22.0039111133
 20
10.0558245078
 10
22.0286785743
 20
10.0344000199
 10
22.0517055378
 20
10.0082992533
 10
22.0720494631
 20
9.9785905357
 10
22.0888773225
 20
9.9464903948
 10
22.1015002626
 20
9.9133128269
 10
22.1094014385
 20
9.8804162612
 10
22.1122574298
 20
9.8491473794
 10
22.1099512903
 20
9.8207864165
 10
22.1025773367
 20
9.7964944839
 10
22.0904375832
 20
9.7772659825
 10
22.074029002
 20
9.7638882695
 10
22.0736959368
 20
9.7637033767
  0
LWPOLYLINE
  5
460
330
1F
100
AcDbEntity
  8
0
  6
Continuous
 62
     8
 48
1.5
370
    15
100
AcDbPolyline
 90
       17
 70
   128
 43
0.0
 10
20.1474335304
 20
13.3525881827
 10
20.1615507792
 20
13.3582776606
 10
20.1836547281
 20
13.3604359607
 10
20.2078712598
 20
13.3558738597
 10
20.2332091763
 20
13.3447778442
 10
20.2586310282
 20
13.3276025361
 10
20.2830960418
 20
13.3050508391
 10
20.3056026587
 20
13.2780461154
 10
20.3252293868
 20
13.2476938909
 10
20.3411727374
 20
13.2152369375
 10
20.3527800239
 20
13.1820038148
 10
20.3595759542
 20
13.14935535
 10
20.3612824429
 20
13.1186279417
 10
20.3578294939
 20
13.0910797571
 10
20.3493584921
 20
13.0678384422
 10
20.3362163191
 20
13.0498556035
 10
20.3231698042
 20
13.0400214837
  0
LWPOLYLINE
  5
461
330
1F
100
AcDbEntity
  8
0
  6
Continuous
 62
     8
 48
1.5
370
    15
100
AcDbPolyline
 90
       17
 70
   128
 43
0.0
 10
20.1898404368
 20
11.1250459022
 10
20.2039576856
 20
11.1307353802
 10
20.2260616344
 20
11.1328936803
 10
20.2502781662
 20
11.1283315792
 10
20.2756160829
 20
11.1172356239
 10
20.3010379346
 20
11.1000602556
 10
20.3255029482
 20
11.0775085587
 10
20.348009565
 20
11.050503835
 10
20.3676362936
 20
11.0201517307
 10
20.3835796438
 20
10.9876946571
 10
20.3951869307
 20
10.9544616547
 10
20.4019828606
 20
10.9218130696
 10
20.4036893492
 20
10.8910856613
 10
20.4002364002
 20
10.8635374767
 10
20.3917653988
 20
10.840296282
 10
20.3786232259
 20
10.8223134434
 10
20.3655767109
 20
10.8124793235
  0
LWPOLYLINE
  5
462
330
1F
100
AcDbEntity
  8
0
  6
Continuous
 62
     8
 48
1.5
370
    15
100
AcDbPolyline
 90
       17
 70
   128
 43
0.0
 10
21.9554583748
 20
12.3601318142
 10
21.9695756237
 20
12.3658212921
 10
21.9916795209
 20
12.3679796222
 10
22.0158961559
 20
12.3634174612
 10
22.0412340724
 20
12.3523214457
 10
22.0666559242
 20
12.3351461376
 10
22.0911209378
 20
12.3125944407
 10
22.1136275031
 20
12.2855897469
 10
22.1332541797
 20
12.2552375523
 10
22.1491975819
 20
12.222780569
 10
22.1608048684
 20
12.1895474464
 10
22.1676008502
 20
12.1568989516
 10
22.1693072357
 20
12.1261716032
 10
22.1658543383
 20
12.0986233887
 10
22.1573833881
 20
12.0753820437
 10
22.144241112
 20
12.057399265
 10
22.1311946486
 20
12.0475651152
  0
ARC
  5
463
330
1F
100
AcDbEntity
  8
0
  6
Continuous
 62
     8
 48
2.25
370
    15
100
AcDbCircle
 10
20.0454326976
 20
13.781297381
 30
0.0
 40
0.046198183277189
100
AcDbArc
 50
185.5828240889
 51
245.5906735816
  0
ARC
  5
464
330
1F
100
AcDbEntity
  8
0
  6
Continuous
 62
     8
 48
2.25
370
    15
100
AcDbCircle
 10
20.0656126999
 20
13.8150825971
 30
0.0
 40
0.0464212485103476
100
AcDbArc
 50
54.2990873131
 51
113.9323957009
  0
ARC
  5
465
330
1F
100
AcDbEntity
  8
0
  6
Continuous
 62
     8
 48
2.25
370
    15
100
AcDbCircle
 10
20.0359004994
 20
10.8580450428
 30
0.0
 40
0.0461981832771704
100
AcDbArc
 50
185.5828240889
 51
245.5906735816
  0
ARC
  5
466
330
1F
100
AcDbEntity
  8
0
  6
Continuous
 62
     8
 48
2.25
370
    15
100
AcDbCircle
 10
22.3923751038
 20
9.4574050779
 30
0.0
 40
0.0451844438498128
100
AcDbArc
 50
172.646904012
 51
235.8188668905
  0
ARC
  5
467
330
1F
100
AcDbEntity
  8
0
  6
Continuous
 62
     8
 48
2.25
370
    15
100
AcDbCircle
 10
22.4330759235
 20
9.4575382144
 30
0.0
 40
0.0462721708553423
100
AcDbArc
 50
304.5921884484
 51
6.1510549769
  0
ARC
  5
468
330
1F
100
AcDbEntity
  8
0
  6
Continuous
 62
     8
 48
2.25
370
    15
100
AcDbCircle
 10
20.0629537437
 20
10.8107928471
 30
0.0
 40
0.0464349742055493
100
AcDbArc
 50
173.5909172374
 51
234.8748536652
  0
LINE
  5
469
330
1F
100
AcDbEntity
  8
0
  6
Continuous
 62
     8
 48
1.5
370
    15
100
AcDbLine
 10
24.3496076714
 20
13.4331494346
 30
0.0
 11
22.7779374249
 21
12.5471061965
 31
0.0
  0
LINE
  5
46A
330
1F
100
AcDbEntity
  8
0
  6
Continuous
 62
     8
 48
1.5
370
    15
100
AcDbLine
 10
22.7142972736
 20
12.6622053366
 30
0.0
 11
24.2844490535
 21
13.5473925254
 31
0.0
  0
LINE
  5
46B
330
1F
100
AcDbEntity
  8
0
  6
Continuous
 62
     8
 48
1.5
370
    15
100
AcDbLine
 10
22.7690738709
 20
9.8289079028
 30
0.0
 11
24.3407441174
 21
10.7149511409
 31
0.0
  0
LINE
  5
46C
330
1F
100
AcDbEntity
  8
0
  6
Continuous
 62
     8
 48
1.5
370
    15
100
AcDbLine
 10
22.1295221582
 20
14.7981297273
 30
0.0
 11
20.5593883113
 21
13.9129526483
 31
0.0
  0
ARC
  5
46D
330
1F
100
AcDbEntity
  8
0
  6
Continuous
 62
     8
 48
2.25
370
    15
100
AcDbCircle
 10
24.3112931387
 20
13.5089274082
 30
0.0
 40
0.0469059714366342
100
AcDbArc
 50
65.3120099685
 51
124.9104666596
  0
ARC
  5
46E
330
1F
100
AcDbEntity
  8
0
  6
Continuous
 62
     8
 48
2.25
370
    15
100
AcDbCircle
 10
24.333032616
 20
13.4742312917
 30
0.0
 40
0.0442995648516992
100
AcDbArc
 50
291.9723079462
 51
355.5694944189
  0
ARC
  5
46F
330
1F
100
AcDbEntity
  8
0
  6
Continuous
 62
     8
 48
2.25
370
    15
100
AcDbCircle
 10
24.3229670229
 20
10.7569136955
 30
0.0
 40
0.0455728107471338
100
AcDbArc
 50
292.959549073
 51
354.5822532921
  0
ARC
  5
470
330
1F
100
AcDbEntity
  8
0
  6
Continuous
 62
     8
 48
2.25
370
    15
100
AcDbCircle
 10
22.1563662434
 20
14.7596646101
 30
0.0
 40
0.0469059714366516
100
AcDbArc
 50
65.3120099685
 51
124.9104666596
  0
ARC
  5
471
330
1F
100
AcDbEntity
  8
0
  6
Continuous
 62
     8
 48
2.25
370
    15
100
AcDbCircle
 10
22.1024326906
 20
14.7604317956
 30
0.0
 40
0.046421690084758
100
AcDbArc
 50
54.2992425903
 51
113.9319432856
  0
LINE
  5
472
330
1F
100
AcDbEntity
  8
0
  6
Continuous
 62
     8
 48
1.5
370
    15
100
AcDbLine
 10
21.5379259647
 20
11.6873412565
 30
0.0
 11
20.9870228632
 21
11.3767646779
 31
0.0
  0
ARC
  5
473
330
1F
100
AcDbEntity
  8
0
  6
Continuous
 62
     8
 48
2.25
370
    15
100
AcDbCircle
 10
24.2947338028
 20
10.7099951559
 30
0.0
 40
0.0462764609429912
100
AcDbArc
 50
304.5953521859
 51
6.1478912394
  0
LINE
  5
474
330
1F
100
AcDbEntity
  8
0
  6
Continuous
 62
     8
 48
1.5
370
    15
100
AcDbLine
 10
20.9993604547
 20
11.3593689709
 30
0.0
 11
21.5464229742
 21
11.6677803869
 31
0.0
  0
CIRCLE
  5
475
330
1F
100
AcDbEntity
  8
0
  6
Continuous
 62
     7
 48
2.25
370
    15
100
AcDbCircle
 10
9.3297512656
 20
5.938833372
 30
0.0
 40
0.0939999999999998
  0
CIRCLE
  5
476
330
1F
100
AcDbEntity
  8
0
  6
Continuous
 62
     7
 48
2.25
370
    15
100
AcDbCircle
 10
9.3297512656
 20
5.938833372
 30
0.0
 40
0.1560000000000004
  0
CIRCLE
  5
477
330
1F
100
AcDbEntity
  8
0
  6
Continuous
 62
     7
 48
2.25
370
    15
100
AcDbCircle
 10
6.8297512656
 20
8.688833372
 30
0.0
 40
0.0940000000000008
  0
CIRCLE
  5
478
330
1F
100
AcDbEntity
  8
0
  6
Continuous
 62
     7
 48
2.25
370
    15
100
AcDbCircle
 10
6.8297512656
 20
8.688833372
 30
0.0
 40
0.1560000000000004
  0
CIRCLE
  5
479
330
1F
100
AcDbEntity
  8
0
  6
Continuous
 62
     7
 48
2.25
370
    15
100
AcDbCircle
 10
9.3297512656
 20
8.688833372
 30
0.0
 40
0.0939999999999993
  0
CIRCLE
  5
47A
330
1F
100
AcDbEntity
  8
0
  6
Continuous
 62
     7
 48
2.25
370
    15
100
AcDbCircle
 10
9.3297512656
 20
8.688833372
 30
0.0
 40
0.1559999999999994
  0
CIRCLE
  5
47B
330
1F
100
AcDbEntity
  8
0
  6
Continuous
 62
     7
 48
2.25
370
    15
100
AcDbCircle
 10
6.8297512656
 20
5.938833372
 30
0.0
 40
0.0939999999999995
  0
CIRCLE
  5
47C
330
1F
100
AcDbEntity
  8
0
  6
Continuous
 62
     7
 48
2.25
370
    15
100
AcDbCircle
 10
6.8297512656
 20
5.938833372
 30
0.0
 40
0.1559999999999999
  0
CIRCLE
  5
47D
330
1F
100
AcDbEntity
  8
0
  6
Continuous
 62
     7
 48
2.25
370
    15
100
AcDbCircle
 10
8.9547512656
 20
6.813833372
 30
0.0
 40
0.1771653543307083
  0
CIRCLE
  5
47E
330
1F
100
AcDbEntity
  8
0
  6
Continuous
 62
     7
 48
2.25
370
    15
100
AcDbCircle
 10
8.9547512656
 20
6.813833372
 30
0.0
 40
0.0984251968503944
  0
CIRCLE
  5
47F
330
1F
100
AcDbEntity
  8
0
  6
Continuous
 62
     7
 48
2.25
370
    15
100
AcDbCircle
 10
8.9547512656
 20
6.813833372
 30
0.0
 40
0.2027559055118111
  0
CIRCLE
  5
480
330
1F
100
AcDbEntity
  8
0
  6
Continuous
 62
     7
 48
2.25
370
    15
100
AcDbCircle
 10
9.3297512656
 20
5.938833372
 30
0.0
 40
0.1968503937007858
  0
CIRCLE
  5
481
330
1F
100
AcDbEntity
  8
0
  6
Continuous
 62
     7
 48
2.25
370
    15
100
AcDbCircle
 10
9.3297512656
 20
8.688833372
 30
0.0
 40
0.1968503937007858
  0
CIRCLE
  5
482
330
1F
100
AcDbEntity
  8
0
  6
Continuous
 62
     7
 48
2.25
370
    15
100
AcDbCircle
 10
6.8297512656
 20
8.688833372
 30
0.0
 40
0.1968503937007875
  0
CIRCLE
  5
483
330
1F
100
AcDbEntity
  8
0
  6
Continuous
 62
     7
 48
2.25
370
    15
100
AcDbCircle
 10
6.8297512656
 20
5.938833372
 30
0.0
 40
0.1968503937007875
  0
ARC
  5
484
330
1F
100
AcDbEntity
  8
0
  6
Continuous
 62
     7
 48
2.25
370
    15
100
AcDbCircle
 10
9.2672512656
 20
9.282833372
 30
0.0
 40
0.1095000000000006
100
AcDbArc
 50
180.0
 51
0.0
  0
LINE
  5
485
330
1F
100
AcDbEntity
  8
0
  6
Continuous
 62
     7
 48
1.5
370
    15
100
AcDbLine
 10
9.3767512692
 20
9.3448333364
 30
0.0
 11
9.3767512692
 21
9.2828333593
 31
0.0
  0
ARC
  5
486
330
1F
100
AcDbEntity
  8
0
  6
Continuous
 62
     7
 48
2.25
370
    15
100
AcDbCircle
 10
9.2672512656
 20
9.344833372
 30
0.0
 40
0.1095000000000006
100
AcDbArc
 50
0.0
 51
180.0
  0
LINE
  5
487
330
1F
100
AcDbEntity
  8
0
  6
Continuous
 62
     7
 48
1.5
370
    15
100
AcDbLine
 10
9.1577512791
 20
9.2828333593
 30
0.0
 11
9.1577512791
 21
9.3448333364
 31
0.0
  0
ARC
  5
488
330
1F
100
AcDbEntity
  8
0
  6
Continuous
 62
     7
 48
2.25
370
    15
100
AcDbCircle
 10
9.3297512656
 20
9.313833372
 30
0.0
 40
0.2499999999999982
100
AcDbArc
 50
0.0
 51
90.0
  0
LINE
  5
489
330
1F
100
AcDbEntity
  8
0
  6
Continuous
 62
     7
 48
1.5
370
    15
100
AcDbLine
 10
9.5797512841
 20
9.3138333478
 30
0.0
 11
9.5797512841
 21
9.0638333692
 31
0.0
  0
ARC
  5
48A
330
1F
100
AcDbEntity
  8
0
  6
Continuous
 62
     7
 48
2.25
370
    15
100
AcDbCircle
 10
6.8922512656
 20
9.344833372
 30
0.0
 40
0.1095000000000015
100
AcDbArc
 50
0.0
 51
180.0
  0
LINE
  5
48B
330
1F
100
AcDbEntity
  8
0
  6
Continuous
 62
     7
 48
1.5
370
    15
100
AcDbLine
 10
6.782751262
 20
9.3448333364
 30
0.0
 11
6.782751262
 21
9.2828333593
 31
0.0
  0
ARC
  5
48C
330
1F
100
AcDbEntity
  8
0
  6
Continuous
 62
     7
 48
2.25
370
    15
100
AcDbCircle
 10
6.8922512656
 20
9.282833372
 30
0.0
 40
0.1095000000000015
100
AcDbArc
 50
180.0
 51
0.0
  0
LINE
  5
48D
330
1F
100
AcDbEntity
  8
0
  6
Continuous
 62
     7
 48
1.5
370
    15
100
AcDbLine
 10
7.0017512521
 20
9.2828333593
 30
0.0
 11
7.0017512521
 21
9.3448333364
 31
0.0
  0
LINE
  5
48E
330
1F
100
AcDbEntity
  8
0
  6
Continuous
 62
     7
 48
1.5
370
    15
100
AcDbLine
 10
9.3297513055
 20
9.5638333265
 30
0.0
 11
6.8297512257
 21
9.5638333265
 31
0.0
  0
ARC
  5
48F
330
1F
100
AcDbEntity
  8
0
  6
Continuous
 62
     7
 48
2.25
370
    15
100
AcDbCircle
 10
6.8297512656
 20
9.313833372
 30
0.0
 40
0.2499999999999991
100
AcDbArc
 50
90.0
 51
180.0
  0
LINE
  5
490
330
1F
100
AcDbEntity
  8
0
  6
Continuous
 62
     7
 48
1.5
370
    15
100
AcDbLine
 10
6.579751247
 20
9.3138333478
 30
0.0
 11
6.579751247
 21
9.0638333692
 31
0.0
  0
LINE
  5
491
330
1F
100
AcDbEntity
  8
0
  6
Continuous
 62
     7
 48
1.5
370
    15
100
AcDbLine
 10
6.579751247
 20
5.3138333962
 30
0.0
 11
6.579751247
 21
5.5638333748
 31
0.0
  0
LINE
  5
492
330
1F
100
AcDbEntity
  8
0
  6
Continuous
 62
     7
 48
1.5
370
    15
100
AcDbLine
 10
9.3767512692
 20
5.2828334076
 30
0.0
 11
9.3767512692
 21
5.3448333847
 31
0.0
  0
LINE
  5
493
330
1F
100
AcDbEntity
  8
0
  6
Continuous
 62
     7
 48
1.5
370
    15
100
AcDbLine
 10
9.1577512791
 20
5.3448333847
 30
0.0
 11
9.1577512791
 21
5.2828334076
 31
0.0
  0
ARC
  5
494
330
1F
100
AcDbEntity
  8
0
  6
Continuous
 62
     7
 48
2.25
370
    15
100
AcDbCircle
 10
9.2672512656
 20
5.282833372
 30
0.0
 40
0.1095000000000006
100
AcDbArc
 50
180.0
 51
0.0
  0
LINE
  5
495
330
1F
100
AcDbEntity
  8
0
  6
Continuous
 62
     7
 48
1.5
370
    15
100
AcDbLine
 10
6.8297512257
 20
5.0638334175
 30
0.0
 11
9.3297513055
 21
5.0638334175
 31
0.0
  0
ARC
  5
496
330
1F
100
AcDbEntity
  8
0
  6
Continuous
 62
     7
 48
2.25
370
    15
100
AcDbCircle
 10
9.3297512656
 20
5.313833372
 30
0.0
 40
0.25
100
AcDbArc
 50
270.0
 51
0.0
  0
LINE
  5
497
330
1F
100
AcDbEntity
  8
0
  6
Continuous
 62
     7
 48
1.5
370
    15
100
AcDbLine
 10
9.5797512841
 20
5.3138333962
 30
0.0
 11
9.5797512841
 21
5.5638333748
 31
0.0
  0
ARC
  5
498
330
1F
100
AcDbEntity
  8
0
  6
Continuous
 62
     7
 48
2.25
370
    15
100
AcDbCircle
 10
9.2672512656
 20
5.344833372
 30
0.0
 40
0.1095000000000006
100
AcDbArc
 50
0.0
 51
180.0
  0
ARC
  5
499
330
1F
100
AcDbEntity
  8
0
  6
Continuous
 62
     7
 48
2.25
370
    15
100
AcDbCircle
 10
6.8297512656
 20
5.313833372
 30
0.0
 40
0.2499999999999991
100
AcDbArc
 50
180.0
 51
270.0
  0
LINE
  5
49A
330
1F
100
AcDbEntity
  8
0
  6
Continuous
 62
     7
 48
1.5
370
    15
100
AcDbLine
 10
7.0017512521
 20
5.3448333847
 30
0.0
 11
7.0017512521
 21
5.2828334076
 31
0.0
  0
ARC
  5
49B
330
1F
100
AcDbEntity
  8
0
  6
Continuous
 62
     7
 48
2.25
370
    15
100
AcDbCircle
 10
6.8922512656
 20
5.282833372
 30
0.0
 40
0.1095000000000015
100
AcDbArc
 50
180.0
 51
0.0
  0
LINE
  5
49C
330
1F
100
AcDbEntity
  8
0
  6
Continuous
 62
     7
 48
1.5
370
    15
100
AcDbLine
 10
6.782751262
 20
5.2828334076
 30
0.0
 11
6.782751262
 21
5.3448333847
 31
0.0
  0
ARC
  5
49D
330
1F
100
AcDbEntity
  8
0
  6
Continuous
 62
     7
 48
2.25
370
    15
100
AcDbCircle
 10
6.8922512656
 20
5.344833372
 30
0.0
 40
0.1095000000000015
100
AcDbArc
 50
0.0
 51
180.0
  0
LINE
  5
49E
330
1F
100
AcDbEntity
  8
0
  6
Continuous
 62
     7
 48
1.5
370
    15
100
AcDbLine
 10
9.4547512215
 20
6.251833407
 30
0.0
 11
9.4547512215
 21
8.375833337
 31
0.0
  0
LINE
  5
49F
330
1F
100
AcDbEntity
  8
0
  6
Continuous
 62
     7
 48
1.5
370
    15
100
AcDbLine
 10
9.4547512215
 20
8.375833337
 30
0.0
 11
6.7047513097
 21
8.375833337
 31
0.0
  0
LINE
  5
4A0
330
1F
100
AcDbEntity
  8
0
  6
Continuous
 62
     7
 48
1.5
370
    15
100
AcDbLine
 10
6.7047513097
 20
8.375833337
 30
0.0
 11
6.7047513097
 21
6.251833407
 31
0.0
  0
LINE
  5
4A1
330
1F
100
AcDbEntity
  8
0
  6
Continuous
 62
     7
 48
1.5
370
    15
100
AcDbLine
 10
6.7047513097
 20
6.251833407
 30
0.0
 11
9.4547512215
 21
6.251833407
 31
0.0
  0
ARC
  5
4A2
330
1F
100
AcDbEntity
  8
0
  6
Continuous
 62
     7
 48
2.25
370
    15
100
AcDbCircle
 10
6.5477512656
 20
5.656833372
 30
0.0
 40
0.0930000000000009
100
AcDbArc
 50
180.0
 51
270.0
  0
LINE
  5
4A3
330
1F
100
AcDbEntity
  8
0
  6
Continuous
 62
     7
 48
1.5
370
    15
100
AcDbLine
 10
9.7047512001
 20
8.9708334035
 30
0.0
 11
9.7047512001
 21
5.6568333405
 31
0.0
  0
LINE
  5
4A4
330
1F
100
AcDbEntity
  8
0
  6
Continuous
 62
     7
 48
1.5
370
    15
100
AcDbLine
 10
6.4547513311
 20
5.6568333405
 30
0.0
 11
6.4547513311
 21
8.9708334035
 31
0.0
  0
LINE
  5
4A5
330
1F
100
AcDbEntity
  8
0
  6
Continuous
 62
     7
 48
1.5
370
    15
100
AcDbLine
 10
9.6117512345
 20
5.5638333748
 30
0.0
 11
6.5477512967
 21
5.5638333748
 31
0.0
  0
ARC
  5
4A6
330
1F
100
AcDbEntity
  8
0
  6
Continuous
 62
     7
 48
2.25
370
    15
100
AcDbCircle
 10
9.6117512656
 20
5.656833372
 30
0.0
 40
0.093
100
AcDbArc
 50
270.0
 51
0.0
  0
ARC
  5
4A7
330
1F
100
AcDbEntity
  8
0
  6
Continuous
 62
     7
 48
2.25
370
    15
100
AcDbCircle
 10
9.6117512656
 20
8.970833372
 30
0.0
 40
0.093
100
AcDbArc
 50
360.0
 51
90.0
  0
ARC
  5
4A8
330
1F
100
AcDbEntity
  8
0
  6
Continuous
 62
     7
 48
2.25
370
    15
100
AcDbCircle
 10
6.5477512656
 20
8.970833372
 30
0.0
 40
0.0930000000000009
100
AcDbArc
 50
90.0
 51
180.0
  0
LINE
  5
4A9
330
1F
100
AcDbEntity
  8
0
  6
Continuous
 62
     7
 48
1.5
370
    15
100
AcDbLine
 10
6.5477512967
 20
9.0638333692
 30
0.0
 11
9.6117512345
 21
9.0638333692
 31
0.0
  0
DIMENSION
  5
4AA
330
1F
100
AcDbEntity
  8
0
  6
Continuous
 62
     7
 48
1.5
370
     0
100
AcDbDimension
  2
*D16
 10
9.7047512656
 20
10.1543845531
 30
0.0
 11
8.0797512656
 21
10.1543845531
 31
0.0
 70
   160
 71
     2
 42
-1.0
  3
SLDDIMSTYLE3
100
AcDbAlignedDimension
 13
6.4547512656
 23
8.970833372
 33
0.0
 14
9.7047512656
 24
8.970833372
 34
0.0
100
AcDbRotatedDimension
  0
DIMENSION
  5
4BC
330
1F
100
AcDbEntity
  8
0
  6
Continuous
 62
     7
 48
1.5
370
     0
100
AcDbDimension
  2
*D17
 10
10.3339845885
 20
5.563833372
 30
0.0
 11
10.3339845885
 21
7.313833372
 31
0.0
 70
   160
 71
     2
 42
-1.0
  3
SLDDIMSTYLE0
100
AcDbAlignedDimension
 13
9.6117512656
 23
9.063833372
 33
0.0
 14
9.6117512656
 24
5.563833372
 34
0.0
 50
90.0
100
AcDbRotatedDimension
  0
INSERT
  5
4D7
102
{ACAD_REACTORS
330
4D8
102
}
330
1F
100
AcDbEntity
  8
0
  6
Continuous
 62
     7
 48
1.5
370
     0
100
AcDbBlockReference
  2
SW_NOTE_6
 10
9.7276462848
 20
2.9094358226
 30
0.0
  0
LEADER
  5
4D8
330
1F
100
AcDbEntity
  8
0
  6
Continuous
 62
     7
 48
1.5
370
     0
100
AcDbLeader
  3
SLDDIMSTYLE4
 73
     2
 76
     3
 10
8.9791549667
 20
6.6383568148
 30
0.0
 10
9.3526462848
 20
2.9094358226
 30
0.0
 10
9.7276462848
 20
2.9094358226
 30
0.0
340
4D7
  0
MTEXT
  5
4D9
330
1F
100
AcDbEntity
  8
0
  6
Continuous
 62
     7
 48
1.5
370
     0
100
AcDbMText
 10
7.022329411
 20
4.4861015386
 30
0.0
 40
0.1875
 41
0.0
 71
     1
 72
     1
  1
\LCOVER REMOVED
  7
SLDTEXTSTYLE0
 73
     1
 44
1.0
  0
ARC
  5
4DA
330
1F
100
AcDbEntity
  8
0
  6
Continuous
 62
     7
 48
2.25
370
    15
100
AcDbCircle
 10
2.4194707319
 20
11.1120103748
 30
0.0
 40
0.0150000000000006
100
AcDbArc
 50
0.0
 51
90.0
  0
ARC
  5
4DB
330
1F
100
AcDbEntity
  8
0
  6
Continuous
 62
     7
 48
2.25
370
    15
100
AcDbCircle
 10
1.9494707319
 20
11.1120103748
 30
0.0
 40
0.0150000000000006
100
AcDbArc
 50
90.0
 51
180.0
  0
LINE
  5
4DC
330
1F
100
AcDbEntity
  8
0
  6
Continuous
 62
     7
 48
1.5
370
    15
100
AcDbLine
 10
1.9344707133
 20
11.1120105059
 30
0.0
 11
1.9344707133
 21
11.0720102746
 31
0.0
  0
LINE
  5
4DD
330
1F
100
AcDbEntity
  8
0
  6
Continuous
 62
     7
 48
1.5
370
    15
100
AcDbLine
 10
2.4344707439
 20
11.0720102746
 30
0.0
 11
2.4344707439
 21
11.1120105059
 31
0.0
  0
ARC
  5
4DE
330
1F
100
AcDbEntity
  8
0
  6
Continuous
 62
     7
 48
2.25
370
    15
100
AcDbCircle
 10
2.4194707319
 20
11.0720103748
 30
0.0
 40
0.0150000000000006
100
AcDbArc
 50
270.0
 51
0.0
  0
ARC
  5
4DF
330
1F
100
AcDbEntity
  8
0
  6
Continuous
 62
     7
 48
2.25
370
    15
100
AcDbCircle
 10
1.9494707319
 20
11.0720103748
 30
0.0
 40
0.0150000000000003
100
AcDbArc
 50
180.0
 51
270.0
  0
ARC
  5
4E0
330
1F
100
AcDbEntity
  8
0
  6
Continuous
 62
     7
 48
2.25
370
    15
100
AcDbCircle
 10
4.9194707319
 20
11.1120103748
 30
0.0
 40
0.0150000000000006
100
AcDbArc
 50
0.0
 51
90.0
  0
ARC
  5
4E1
330
1F
100
AcDbEntity
  8
0
  6
Continuous
 62
     7
 48
2.25
370
    15
100
AcDbCircle
 10
4.4494707319
 20
11.1120103748
 30
0.0
 40
0.0150000000000006
100
AcDbArc
 50
90.0
 51
180.0
  0
LINE
  5
4E2
330
1F
100
AcDbEntity
  8
0
  6
Continuous
 62
     7
 48
1.5
370
    15
100
AcDbLine
 10
4.4344707198
 20
11.1120105059
 30
0.0
 11
4.4344707198
 21
11.0720102746
 31
0.0
  0
LINE
  5
4E3
330
1F
100
AcDbEntity
  8
0
  6
Continuous
 62
     7
 48
1.5
370
    15
100
AcDbLine
 10
4.9344707504
 20
11.0720102746
 30
0.0
 11
4.9344707504
 21
11.1120105059
 31
0.0
  0
ARC
  5
4E4
330
1F
100
AcDbEntity
  8
0
  6
Continuous
 62
     7
 48
2.25
370
    15
100
AcDbCircle
 10
4.9194707319
 20
11.0720103748
 30
0.0
 40
0.0150000000000006
100
AcDbArc
 50
270.0
 51
0.0
  0
ARC
  5
4E5
330
1F
100
AcDbEntity
  8
0
  6
Continuous
 62
     7
 48
2.25
370
    15
100
AcDbCircle
 10
4.4494707319
 20
11.0720103748
 30
0.0
 40
0.0150000000000006
100
AcDbArc
 50
180.0
 51
270.0
  0
LINE
  5
4E6
330
1F
100
AcDbEntity
  8
0
  6
Continuous
 62
     7
 48
1.5
370
    15
100
AcDbLine
 10
4.474470731
 20
11.0570102613
 30
0.0
 11
4.477357171
 21
11.024018269
 31
0.0
  0
LINE
  5
4E7
330
1F
100
AcDbEntity
  8
0
  6
Continuous
 62
     7
 48
1.5
370
    15
100
AcDbLine
 10
4.8915842992
 20
11.024018269
 30
0.0
 11
4.8944706658
 21
11.0570102613
 31
0.0
  0
LINE
  5
4E8
330
1F
100
AcDbEntity
  8
0
  6
Continuous
 62
     7
 48
1.5
370
    15
100
AcDbLine
 10
4.5051793696
 20
11.024018269
 30
0.0
 11
4.5051793696
 21
11.0197661582
 31
0.0
  0
LINE
  5
4E9
330
1F
100
AcDbEntity
  8
0
  6
Continuous
 62
     7
 48
1.5
370
    15
100
AcDbLine
 10
4.8637621006
 20
11.0197661582
 30
0.0
 11
4.8637621006
 21
11.024018269
 31
0.0
  0
ARC
  5
4EA
330
1F
100
AcDbEntity
  8
0
  6
Continuous
 62
     7
 48
2.25
370
    15
100
AcDbCircle
 10
4.785021913
 20
11.0197662803
 30
0.0
 40
0.0787401574803148
100
AcDbArc
 50
270.0
 51
0.0
  0
ARC
  5
4EB
330
1F
100
AcDbEntity
  8
0
  6
Continuous
 62
     7
 48
2.25
370
    15
100
AcDbCircle
 10
4.5839195508
 20
11.0197662803
 30
0.0
 40
0.0787401574803148
100
AcDbArc
 50
180.0
 51
270.0
  0
LINE
  5
4EC
330
1F
100
AcDbEntity
  8
0
  6
Continuous
 62
     7
 48
1.5
370
    15
100
AcDbLine
 10
1.9744707979
 20
11.0570102613
 30
0.0
 11
1.9773571646
 21
11.024018269
 31
0.0
  0
LINE
  5
4ED
330
1F
100
AcDbEntity
  8
0
  6
Continuous
 62
     7
 48
1.5
370
    15
100
AcDbLine
 10
2.3915842927
 20
11.024018269
 30
0.0
 11
2.3944707327
 21
11.0570102613
 31
0.0
  0
ARC
  5
4EE
330
1F
100
AcDbEntity
  8
0
  6
Continuous
 62
     7
 48
2.25
370
    15
100
AcDbCircle
 10
2.285021913
 20
11.0197662803
 30
0.0
 40
0.0787401574803166
100
AcDbArc
 50
270.0
 51
0.0
  0
ARC
  5
4EF
330
1F
100
AcDbEntity
  8
0
  6
Continuous
 62
     7
 48
2.25
370
    15
100
AcDbCircle
 10
2.0839195508
 20
11.0197662803
 30
0.0
 40
0.0787401574803166
100
AcDbArc
 50
180.0
 51
270.0
  0
LINE
  5
4F0
330
1F
100
AcDbEntity
  8
0
  6
Continuous
 62
     7
 48
1.5
370
    15
100
AcDbLine
 10
2.0051793632
 20
11.024018269
 30
0.0
 11
2.0051793632
 21
11.0197661582
 31
0.0
  0
LINE
  5
4F1
330
1F
100
AcDbEntity
  8
0
  6
Continuous
 62
     7
 48
1.5
370
    15
100
AcDbLine
 10
2.3637620941
 20
11.0197661582
 30
0.0
 11
2.3637620941
 21
11.024018269
 31
0.0
  0
LINE
  5
4F2
330
1F
100
AcDbEntity
  8
0
  6
Continuous
 62
     7
 48
1.5
370
    15
100
AcDbLine
 10
4.474470731
 20
11.1270105193
 30
0.0
 11
4.477357171
 21
11.0940182337
 31
0.0
  0
LINE
  5
4F3
330
1F
100
AcDbEntity
  8
0
  6
Continuous
 62
     7
 48
1.5
370
    15
100
AcDbLine
 10
4.8915842992
 20
11.0940182337
 30
0.0
 11
4.8944706658
 21
11.1270105193
 31
0.0
  0
LINE
  5
4F4
330
1F
100
AcDbEntity
  8
0
  6
Continuous
 62
     7
 48
1.5
370
    15
100
AcDbLine
 10
4.5051793696
 20
11.0940182337
 30
0.0
 11
4.5051793696
 21
11.0897664162
 31
0.0
  0
LINE
  5
4F5
330
1F
100
AcDbEntity
  8
0
  6
Continuous
 62
     7
 48
1.5
370
    15
100
AcDbLine
 10
4.8637621006
 20
11.0897664162
 30
0.0
 11
4.8637621006
 21
11.0940182337
 31
0.0
  0
ARC
  5
4F6
330
1F
100
AcDbEntity
  8
0
  6
Continuous
 62
     7
 48
2.25
370
    15
100
AcDbCircle
 10
4.785021913
 20
11.0897662803
 30
0.0
 40
0.0787401574803157
100
AcDbArc
 50
270.0
 51
0.0
  0
ARC
  5
4F7
330
1F
100
AcDbEntity
  8
0
  6
Continuous
 62
     7
 48
2.25
370
    15
100
AcDbCircle
 10
4.5839195508
 20
11.0897662803
 30
0.0
 40
0.0787401574803157
100
AcDbArc
 50
180.0
 51
270.0
  0
LINE
  5
4F8
330
1F
100
AcDbEntity
  8
0
  6
Continuous
 62
     7
 48
1.5
370
    15
100
AcDbLine
 10
2.4194707306
 20
11.0570102613
 30
0.0
 11
1.9494707267
 21
11.0570102613
 31
0.0
  0
LINE
  5
4F9
330
1F
100
AcDbEntity
  8
0
  6
Continuous
 62
     7
 48
1.5
370
    15
100
AcDbLine
 10
4.919470737
 20
11.0570102613
 30
0.0
 11
4.856625383
 21
11.0570102613
 31
0.0
  0
LINE
  5
4FA
330
1F
100
AcDbEntity
  8
0
  6
Continuous
 62
     7
 48
1.5
370
    15
100
AcDbLine
 10
4.5123160138
 20
11.0570102613
 30
0.0
 11
4.4494707332
 21
11.0570102613
 31
0.0
  0
LINE
  5
4FB
330
1F
100
AcDbEntity
  8
0
  6
Continuous
 62
     7
 48
1.5
370
    15
100
AcDbLine
 10
4.8915842992
 20
11.024018269
 30
0.0
 11
4.8283486697
 21
11.024018269
 31
0.0
  0
LINE
  5
4FC
330
1F
100
AcDbEntity
  8
0
  6
Continuous
 62
     7
 48
1.5
370
    15
100
AcDbLine
 10
4.5405928005
 20
11.024018269
 30
0.0
 11
4.477357171
 21
11.024018269
 31
0.0
  0
LINE
  5
4FD
330
1F
100
AcDbEntity
  8
0
  6
Continuous
 62
     7
 48
1.5
370
    15
100
AcDbLine
 10
4.7850219302
 20
10.9410261344
 30
0.0
 11
4.58391954
 21
10.9410261344
 31
0.0
  0
LINE
  5
4FE
330
1F
100
AcDbEntity
  8
0
  6
Continuous
 62
     7
 48
1.5
370
    15
100
AcDbLine
 10
2.3915842927
 20
11.024018269
 30
0.0
 11
1.9773571646
 21
11.024018269
 31
0.0
  0
LINE
  5
4FF
330
1F
100
AcDbEntity
  8
0
  6
Continuous
 62
     7
 48
1.5
370
    15
100
AcDbLine
 10
2.2850219237
 20
10.9410261344
 30
0.0
 11
2.0839195335
 21
10.9410261344
 31
0.0
  0
LINE
  5
500
330
1F
100
AcDbEntity
  8
0
  6
Continuous
 62
     7
 48
1.5
370
    15
100
AcDbLine
 10
4.8915842992
 20
11.0940182337
 30
0.0
 11
4.477357171
 21
11.0940182337
 31
0.0
  0
LINE
  5
501
330
1F
100
AcDbEntity
  8
0
  6
Continuous
 62
     7
 48
1.5
370
    15
100
AcDbLine
 10
4.7850219302
 20
11.0110260991
 30
0.0
 11
4.58391954
 21
11.0110260991
 31
0.0
  0
LINE
  5
502
330
1F
100
AcDbEntity
  8
0
  6
Continuous
 62
     7
 48
1.5
370
    15
100
AcDbLine
 10
1.6844707347
 20
11.2200104849
 30
0.0
 11
1.6844707347
 21
11.6270103299
 31
0.0
  0
LINE
  5
503
330
1F
100
AcDbEntity
  8
0
  6
Continuous
 62
     7
 48
1.5
370
    15
100
AcDbLine
 10
1.6844707347
 20
11.6270103299
 30
0.0
 11
1.7774707003
 21
11.6270103299
 31
0.0
  0
LINE
  5
504
330
1F
100
AcDbEntity
  8
0
  6
Continuous
 62
     7
 48
1.5
370
    15
100
AcDbLine
 10
5.0914707634
 20
11.6270103299
 30
0.0
 11
1.7774707003
 21
11.6270103299
 31
0.0
  0
ARC
  5
505
330
1F
100
AcDbEntity
  8
0
  6
Continuous
 62
     7
 48
2.25
370
    15
100
AcDbCircle
 10
1.7774707319
 20
11.2200103748
 30
0.0
 40
0.093
100
AcDbArc
 50
180.0
 51
270.0
  0
LINE
  5
506
330
1F
100
AcDbEntity
  8
0
  6
Continuous
 62
     7
 48
1.5
370
    15
100
AcDbLine
 10
1.7774707003
 20
11.1270105193
 30
0.0
 11
5.0914707634
 21
11.1270105193
 31
0.0
  0
LINE
  5
507
330
1F
100
AcDbEntity
  8
0
  6
Continuous
 62
     7
 48
1.5
370
    15
100
AcDbLine
 10
5.184470729
 20
11.6270103299
 30
0.0
 11
5.184470729
 21
11.2200104849
 31
0.0
  0
LINE
  5
508
330
1F
100
AcDbEntity
  8
0
  6
Continuous
 62
     7
 48
1.5
370
    15
100
AcDbLine
 10
5.0914707634
 20
11.6270103299
 30
0.0
 11
5.184470729
 21
11.6270103299
 31
0.0
  0
ARC
  5
509
330
1F
100
AcDbEntity
  8
0
  6
Continuous
 62
     7
 48
2.25
370
    15
100
AcDbCircle
 10
5.0914707319
 20
11.2200103748
 30
0.0
 40
0.093
100
AcDbArc
 50
270.0
 51
0.0
  0
LINE
  5
50A
330
1F
100
AcDbEntity
  8
0
  6
Continuous
 62
     7
 48
1.5
370
    15
100
AcDbLine
 10
4.9344707504
 20
14.1330103729
 30
0.0
 11
4.9344707504
 21
14.0550103748
 31
0.0
  0
LINE
  5
50B
330
1F
100
AcDbEntity
  8
0
  6
Continuous
 62
     7
 48
1.5
370
    15
100
AcDbLine
 10
4.6844707718
 20
14.0550103748
 30
0.0
 11
4.9344707504
 21
14.0550103748
 31
0.0
  0
LINE
  5
50C
330
1F
100
AcDbEntity
  8
0
  6
Continuous
 62
     7
 48
1.5
370
    15
100
AcDbLine
 10
4.6844707718
 20
14.1330103729
 30
0.0
 11
4.9344707504
 21
14.1330103729
 31
0.0
  0
LINE
  5
50D
330
1F
100
AcDbEntity
  8
0
  6
Continuous
 62
     7
 48
1.5
370
    15
100
AcDbLine
 10
4.6844707718
 20
14.0550103748
 30
0.0
 11
2.184470692
 21
14.0550103748
 31
0.0
  0
LINE
  5
50E
330
1F
100
AcDbEntity
  8
0
  6
Continuous
 62
     7
 48
1.5
370
    15
100
AcDbLine
 10
4.6844707718
 20
14.1330103729
 30
0.0
 11
2.184470692
 21
14.1330103729
 31
0.0
  0
LINE
  5
50F
330
1F
100
AcDbEntity
  8
0
  6
Continuous
 62
     7
 48
1.5
370
    15
100
AcDbLine
 10
1.9344707133
 20
14.1330103729
 30
0.0
 11
1.9344707133
 21
14.0550103748
 31
0.0
  0
LINE
  5
510
330
1F
100
AcDbEntity
  8
0
  6
Continuous
 62
     7
 48
1.5
370
    15
100
AcDbLine
 10
2.184470692
 20
14.0550103748
 30
0.0
 11
1.9344707133
 21
14.0550103748
 31
0.0
  0
LINE
  5
511
330
1F
100
AcDbEntity
  8
0
  6
Continuous
 62
     7
 48
1.5
370
    15
100
AcDbLine
 10
2.184470692
 20
14.1330103729
 30
0.0
 11
1.9344707133
 21
14.1330103729
 31
0.0
  0
LINE
  5
512
330
1F
100
AcDbEntity
  8
0
  6
Continuous
 62
     7
 48
1.5
370
    15
100
AcDbLine
 10
1.8094707973
 20
11.6270103299
 30
0.0
 11
1.8094707973
 21
13.9620103724
 31
0.0
  0
LINE
  5
513
330
1F
100
AcDbEntity
  8
0
  6
Continuous
 62
     7
 48
1.5
370
    15
100
AcDbLine
 10
5.0594706664
 20
13.9620103724
 30
0.0
 11
5.0594706664
 21
11.6270103299
 31
0.0
  0
ARC
  5
514
330
1F
100
AcDbEntity
  8
0
  6
Continuous
 62
     7
 48
2.25
370
    15
100
AcDbCircle
 10
4.9664707319
 20
13.9620103748
 30
0.0
 40
0.0929999999999991
100
AcDbArc
 50
0.0
 51
90.0
  0
ARC
  5
515
330
1F
100
AcDbEntity
  8
0
  6
Continuous
 62
     7
 48
2.25
370
    15
100
AcDbCircle
 10
1.9024707319
 20
13.9620103748
 30
0.0
 40
0.093
100
AcDbArc
 50
90.0
 51
180.0
  0
LINE
  5
516
330
1F
100
AcDbEntity
  8
0
  6
Continuous
 62
     7
 48
1.5
370
    15
100
AcDbLine
 10
4.9664707007
 20
14.0550103748
 30
0.0
 11
4.9344707504
 21
14.0550103748
 31
0.0
  0
LINE
  5
517
330
1F
100
AcDbEntity
  8
0
  6
Continuous
 62
     7
 48
1.5
370
    15
100
AcDbLine
 10
1.9344707133
 20
14.0550103748
 30
0.0
 11
1.902470763
 21
14.0550103748
 31
0.0
  0
ENDSEC
  0
SECTION
  2
OBJECTS
  0
DICTIONARY
  5
C
330
0
100
AcDbDictionary
281
     1
  3
ACAD_GROUP
350
D
  3
ACAD_LAYOUT
350
1A
  3
ACAD_MATERIAL
350
3B
  3
ACAD_MLEADERSTYLE
350
51A
  3
ACAD_MLINESTYLE
350
17
  3
ACAD_PLOTSETTINGS
350
19
  3
ACAD_PLOTSTYLENAME
350
E
  3
ACAD_SCALELIST
350
55
  3
ACAD_VISUALSTYLE
350
2A
  3
AcDbVariableDictionary
350
518
  0
DICTIONARY
  5
D
102
{ACAD_REACTORS
330
C
102
}
330
C
100
AcDbDictionary
281
     1
  0
DICTIONARY
  5
1A
102
{ACAD_REACTORS
330
C
102
}
330
C
100
AcDbDictionary
281
     1
  3
Layout1
350
1E
  3
Layout2
350
26
  3
Model
350
22
  0
DICTIONARY
  5
3B
102
{ACAD_REACTORS
330
C
102
}
330
C
100
AcDbDictionary
281
     1
  3
ByBlock
350
3D
  3
ByLayer
350
3C
  3
Global
350
3E
  0
DICTIONARY
  5
51A
102
{ACAD_REACTORS
330
C
102
}
330
C
100
AcDbDictionary
281
     1
  0
DICTIONARY
  5
17
102
{ACAD_REACTORS
330
C
102
}
330
C
100
AcDbDictionary
281
     1
  3
Standard
350
18
  0
DICTIONARY
  5
19
102
{ACAD_REACTORS
330
C
102
}
330
C
100
AcDbDictionary
281
     1
  0
ACDBDICTIONARYWDFLT
  5
E
102
{ACAD_REACTORS
330
C
102
}
330
C
100
AcDbDictionary
281
     1
  3
Normal
350
F
100
AcDbDictionaryWithDefault
340
F
  0
DICTIONARY
  5
55
102
{ACAD_REACTORS
330
C
102
}
330
C
100
AcDbDictionary
281
     1
  3
A0
350
56
  3
A1
350
57
  3
A2
350
58
  3
A3
350
59
  3
A4
350
5A
  3
A5
350
5B
  3
A6
350
5C
  3
A7
350
5D
  3
A8
350
5E
  3
A9
350
5F
  3
B0
350
60
  3
B1
350
61
  3
B2
350
62
  3
B3
350
63
  3
B4
350
64
  3
B5
350
65
  3
B6
350
66
  3
B7
350
67
  3
B8
350
68
  3
B9
350
69
  3
C0
350
6A
  3
C1
350
6B
  3
C2
350
6C
  3
C3
350
6D
  3
C4
350
6E
  3
C5
350
6F
  3
C6
350
70
  3
C7
350
71
  3
C8
350
72
  3
C9
350
73
  3
D0
350
74
  3
D1
350
75
  3
D2
350
76
  0
DICTIONARY
  5
2A
102
{ACAD_REACTORS
330
C
102
}
330
C
100
AcDbDictionary
281
     1
  3
2dWireframe
350
2F
  3
3D Hidden
350
31
  3
3dWireframe
350
30
  3
Basic
350
32
  3
Brighten
350
36
  3
ColorChange
350
3A
  3
Conceptual
350
34
  3
Dim
350
35
  3
Facepattern
350
39
  3
Flat
350
2B
  3
FlatWithEdges
350
2C
  3
Gouraud
350
2D
  3
GouraudWithEdges
350
2E
  3
Linepattern
350
38
  3
Realistic
350
33
  3
Thicken
350
37
  0
DICTIONARY
  5
518
102
{ACAD_REACTORS
330
C
102
}
330
C
100
AcDbDictionary
281
     1
  3
CANNOSCALE
350
51B
  3
DIMASSOC
350
51C
  3
HIDETEXT
350
51D
  0
LAYOUT
  5
1E
102
{ACAD_REACTORS
330
1A
102
}
330
1A
100
AcDbPlotSettings
  1

  2
none_device
  4

  6

 40
0.0
 41
0.0
 42
0.0
 43
0.0
 44
0.0
 45
0.0
 46
0.0
 47
0.0
 48
0.0
 49
0.0
140
0.0
141
0.0
142
1.0
143
1.0
 70
   688
 72
     0
 73
     0
 74
     5
  7

 75
    16
147
1.0
148
0.0
149
0.0
100
AcDbLayout
  1
Layout1
 70
     1
 71
     1
 10
0.0
 20
0.0
 11
12.0
 21
9.0
 12
0.0
 22
0.0
 32
0.0
 14
1.0000000000E+20
 24
1.0000000000E+20
 34
1.0000000000E+20
 15
-1.0000000000E+20
 25
-1.0000000000E+20
 35
-1.0000000000E+20
146
0.0
 13
0.0
 23
0.0
 33
0.0
 16
1.0
 26
0.0
 36
0.0
 17
0.0
 27
1.0
 37
0.0
 76
     0
330
1B
  0
LAYOUT
  5
26
102
{ACAD_REACTORS
330
1A
102
}
330
1A
100
AcDbPlotSettings
  1

  2
none_device
  4

  6

 40
0.0
 41
0.0
 42
0.0
 43
0.0
 44
0.0
 45
0.0
 46
0.0
 47
0.0
 48
0.0
 49
0.0
140
0.0
141
0.0
142
1.0
143
1.0
 70
   688
 72
     0
 73
     0
 74
     5
  7

 75
    16
147
1.0
148
0.0
149
0.0
100
AcDbLayout
  1
Layout2
 70
     1
 71
     2
 10
0.0
 20
0.0
 11
0.0
 21
0.0
 12
0.0
 22
0.0
 32
0.0
 14
0.0
 24
0.0
 34
0.0
 15
0.0
 25
0.0
 35
0.0
146
0.0
 13
0.0
 23
0.0
 33
0.0
 16
1.0
 26
0.0
 36
0.0
 17
0.0
 27
1.0
 37
0.0
 76
     0
330
23
  0
LAYOUT
  5
22
102
{ACAD_REACTORS
330
1A
102
}
330
1A
100
AcDbPlotSettings
  1

  2
none_device
  4

  6

 40
0.0
 41
0.0
 42
0.0
 43
0.0
 44
0.0
 45
0.0
 46
0.0
 47
0.0
 48
0.0
 49
0.0
140
0.0
141
0.0
142
1.0
143
1.0
 70
  1712
 72
     0
 73
     0
 74
     0
  7

 75
     0
147
1.0
148
0.0
149
0.0
100
AcDbLayout
  1
Model
 70
     1
 71
     0
 10
0.0
 20
0.0
 11
25.5
 21
16.5
 12
0.0
 22
0.0
 32
0.0
 14
0.0
 24
0.0
 34
0.0
 15
25.5
 25
16.5
 35
0.0
146
0.0
 13
0.0
 23
0.0
 33
0.0
 16
1.0
 26
0.0
 36
0.0
 17
0.0
 27
1.0
 37
0.0
 76
     0
330
1F
331
29
  0
MATERIAL
  5
3D
102
{ACAD_REACTORS
330
3B
102
}
102
{ACAD_XDICTIONARY
360
540
102
}
330
3B
100
AcDbMaterial
  1
ByBlock
  0
MATERIAL
  5
3C
102
{ACAD_REACTORS
330
3B
102
}
102
{ACAD_XDICTIONARY
360
53E
102
}
330
3B
100
AcDbMaterial
  1
ByLayer
  0
MATERIAL
  5
3E
102
{ACAD_REACTORS
330
3B
102
}
102
{ACAD_XDICTIONARY
360
542
102
}
330
3B
100
AcDbMaterial
  1
Global
  0
MLINESTYLE
  5
18
102
{ACAD_REACTORS
330
17
102
}
330
17
100
AcDbMlineStyle
  2
Standard
 70
     0
  3

 62
   256
 51
90.0
 52
90.0
 71
     2
 49
0.5
 62
   256
  6
BYLAYER
 49
-0.5
 62
   256
  6
BYLAYER
  0
ACDBPLACEHOLDER
  5
F
102
{ACAD_REACTORS
330
E
102
}
330
E
  0
SCALE
  5
56
102
{ACAD_REACTORS
330
55
102
}
330
55
100
AcDbScale
 70
     0
300
1:1
140
1.0
141
1.0
290
     1
  0
SCALE
  5
57
102
{ACAD_REACTORS
330
55
102
}
330
55
100
AcDbScale
 70
     0
300
1:2
140
1.0
141
2.0
290
     0
  0
SCALE
  5
58
102
{ACAD_REACTORS
330
55
102
}
330
55
100
AcDbScale
 70
     0
300
1:4
140
1.0
141
4.0
290
     0
  0
SCALE
  5
59
102
{ACAD_REACTORS
330
55
102
}
330
55
100
AcDbScale
 70
     0
300
1:5
140
1.0
141
5.0
290
     0
  0
SCALE
  5
5A
102
{ACAD_REACTORS
330
55
102
}
330
55
100
AcDbScale
 70
     0
300
1:8
140
1.0
141
8.0
290
     0
  0
SCALE
  5
5B
102
{ACAD_REACTORS
330
55
102
}
330
55
100
AcDbScale
 70
     0
300
1:10
140
1.0
141
10.0
290
     0
  0
SCALE
  5
5C
102
{ACAD_REACTORS
330
55
102
}
330
55
100
AcDbScale
 70
     0
300
1:16
140
1.0
141
16.0
290
     0
  0
SCALE
  5
5D
102
{ACAD_REACTORS
330
55
102
}
330
55
100
AcDbScale
 70
     0
300
1:20
140
1.0
141
20.0
290
     0
  0
SCALE
  5
5E
102
{ACAD_REACTORS
330
55
102
}
330
55
100
AcDbScale
 70
     0
300
1:30
140
1.0
141
30.0
290
     0
  0
SCALE
  5
5F
102
{ACAD_REACTORS
330
55
102
}
330
55
100
AcDbScale
 70
     0
300
1:40
140
1.0
141
40.0
290
     0
  0
SCALE
  5
60
102
{ACAD_REACTORS
330
55
102
}
330
55
100
AcDbScale
 70
     0
300
1:50
140
1.0
141
50.0
290
     0
  0
SCALE
  5
61
102
{ACAD_REACTORS
330
55
102
}
330
55
100
AcDbScale
 70
     0
300
1:100
140
1.0
141
100.0
290
     0
  0
SCALE
  5
62
102
{ACAD_REACTORS
330
55
102
}
330
55
100
AcDbScale
 70
     0
300
2:1
140
2.0
141
1.0
290
     0
  0
SCALE
  5
63
102
{ACAD_REACTORS
330
55
102
}
330
55
100
AcDbScale
 70
     0
300
4:1
140
4.0
141
1.0
290
     0
  0
SCALE
  5
64
102
{ACAD_REACTORS
330
55
102
}
330
55
100
AcDbScale
 70
     0
300
8:1
140
8.0
141
1.0
290
     0
  0
SCALE
  5
65
102
{ACAD_REACTORS
330
55
102
}
330
55
100
AcDbScale
 70
     0
300
10:1
140
10.0
141
1.0
290
     0
  0
SCALE
  5
66
102
{ACAD_REACTORS
330
55
102
}
330
55
100
AcDbScale
 70
     0
300
100:1
140
100.0
141
1.0
290
     0
  0
SCALE
  5
67
102
{ACAD_REACTORS
330
55
102
}
330
55
100
AcDbScale
 70
     0
300
1/128" = 1'-0"
140
0.0078125
141
12.0
290
     0
  0
SCALE
  5
68
102
{ACAD_REACTORS
330
55
102
}
330
55
100
AcDbScale
 70
     0
300
1/64" = 1'-0"
140
0.015625
141
12.0
290
     0
  0
SCALE
  5
69
102
{ACAD_REACTORS
330
55
102
}
330
55
100
AcDbScale
 70
     0
300
1/32" = 1'-0"
140
0.03125
141
12.0
290
     0
  0
SCALE
  5
6A
102
{ACAD_REACTORS
330
55
102
}
330
55
100
AcDbScale
 70
     0
300
1/16" = 1'-0"
140
0.0625
141
12.0
290
     0
  0
SCALE
  5
6B
102
{ACAD_REACTORS
330
55
102
}
330
55
100
AcDbScale
 70
     0
300
3/32" = 1'-0"
140
0.09375
141
12.0
290
     0
  0
SCALE
  5
6C
102
{ACAD_REACTORS
330
55
102
}
330
55
100
AcDbScale
 70
     0
300
1/8" = 1'-0"
140
0.125
141
12.0
290
     0
  0
SCALE
  5
6D
102
{ACAD_REACTORS
330
55
102
}
330
55
100
AcDbScale
 70
     0
300
3/16" = 1'-0"
140
0.1875
141
12.0
290
     0
  0
SCALE
  5
6E
102
{ACAD_REACTORS
330
55
102
}
330
55
100
AcDbScale
 70
     0
300
1/4" = 1'-0"
140
0.25
141
12.0
290
     0
  0
SCALE
  5
6F
102
{ACAD_REACTORS
330
55
102
}
330
55
100
AcDbScale
 70
     0
300
3/8" = 1'-0"
140
0.375
141
12.0
290
     0
  0
SCALE
  5
70
102
{ACAD_REACTORS
330
55
102
}
330
55
100
AcDbScale
 70
     0
300
1/2" = 1'-0"
140
0.5
141
12.0
290
     0
  0
SCALE
  5
71
102
{ACAD_REACTORS
330
55
102
}
330
55
100
AcDbScale
 70
     0
300
3/4" = 1'-0"
140
0.75
141
12.0
290
     0
  0
SCALE
  5
72
102
{ACAD_REACTORS
330
55
102
}
330
55
100
AcDbScale
 70
     0
300
1" = 1'-0"
140
1.0
141
12.0
290
     0
  0
SCALE
  5
73
102
{ACAD_REACTORS
330
55
102
}
330
55
100
AcDbScale
 70
     0
300
1-1/2" = 1'-0"
140
1.5
141
12.0
290
     0
  0
SCALE
  5
74
102
{ACAD_REACTORS
330
55
102
}
330
55
100
AcDbScale
 70
     0
300
3" = 1'-0"
140
3.0
141
12.0
290
     0
  0
SCALE
  5
75
102
{ACAD_REACTORS
330
55
102
}
330
55
100
AcDbScale
 70
     0
300
6" = 1'-0"
140
6.0
141
12.0
290
     0
  0
SCALE
  5
76
102
{ACAD_REACTORS
330
55
102
}
330
55
100
AcDbScale
 70
     0
300
1'-0" = 1'-0"
140
12.0
141
12.0
290
     0
  0
VISUALSTYLE
  5
2F
102
{ACAD_REACTORS
330
2A
102
}
102
{ACAD_XDICTIONARY
360
526
102
}
330
2A
100
AcDbVisualStyle
  2
2dWireframe
 70
     4
 71
     0
 72
     2
 73
     0
 90
        0
 40
-0.6
 41
-30.0
 62
     5
 63
     7
 74
     1
 91
        4
 64
     7
 65
   257
 75
     1
175
     1
 42
1.0
 92
        0
 66
   257
 43
1.0
 76
     1
 77
     6
 78
     2
 67
     7
 79
     5
170
     0
171
     0
290
     0
174
     0
 93
        1
 44
0.0
173
     0
291
     0
 45
0.0
1001
ACAD
1000
AcDbSavedByObjectVersion
1070
     0
  0
VISUALSTYLE
  5
31
102
{ACAD_REACTORS
330
2A
102
}
102
{ACAD_XDICTIONARY
360
52A
102
}
330
2A
100
AcDbVisualStyle
  2
3D Hidden
 70
     6
 71
     1
 72
     2
 73
     2
 90
        0
 40
-0.6
 41
-30.0
 62
     5
 63
     7
 74
     2
 91
        2
 64
     7
 65
   257
 75
     2
175
     1
 42
40.0
 92
        0
 66
   257
 43
1.0
 76
     1
 77
     6
 78
     2
 67
     7
 79
     3
170
     0
171
     0
290
     0
174
     0
 93
        1
 44
0.0
173
     0
291
     0
 45
0.0
1001
ACAD
1000
AcDbSavedByObjectVersion
1070
     0
  0
VISUALSTYLE
  5
30
102
{ACAD_REACTORS
330
2A
102
}
102
{ACAD_XDICTIONARY
360
528
102
}
330
2A
100
AcDbVisualStyle
  2
3dWireframe
 70
     5
 71
     0
 72
     2
 73
     0
 90
        0
 40
-0.6
 41
-30.0
 62
     5
 63
     7
 74
     1
 91
        4
 64
     7
 65
   257
 75
     1
175
     1
 42
1.0
 92
        0
 66
   257
 43
1.0
 76
     1
 77
     6
 78
     2
 67
     7
 79
     5
170
     0
171
     0
290
     0
174
     0
 93
        1
 44
0.0
173
     0
291
     0
 45
0.0
1001
ACAD
1000
AcDbSavedByObjectVersion
1070
     0
  0
VISUALSTYLE
  5
32
102
{ACAD_REACTORS
330
2A
102
}
102
{ACAD_XDICTIONARY
360
52C
102
}
330
2A
100
AcDbVisualStyle
  2
Basic
 70
     7
 71
     1
 72
     0
 73
     1
 90
        0
 40
-0.6
 41
-30.0
 62
     5
 63
     7
 74
     0
 91
        4
 64
     7
 65
   257
 75
     1
175
     1
 42
1.0
 92
        8
 66
     7
 43
1.0
 76
     1
 77
     6
 78
     2
 67
     7
 79
     5
170
     0
171
     0
290
     0
174
     0
 93
        1
 44
0.0
173
     0
291
     1
 45
0.0
1001
ACAD
1000
AcDbSavedByObjectVersion
1070
     0
  0
VISUALSTYLE
  5
36
102
{ACAD_REACTORS
330
2A
102
}
102
{ACAD_XDICTIONARY
360
534
102
}
330
2A
100
AcDbVisualStyle
  2
Brighten
 70
    12
 71
     2
 72
     2
 73
     0
 90
        0
 40
-0.6
 41
-30.0
 62
     5
 63
     7
 74
     1
 91
        4
 64
     7
 65
   257
 75
     1
175
     1
 42
1.0
 92
        8
 66
     7
 43
1.0
 76
     1
 77
     6
 78
     2
 67
     7
 79
     5
170
     0
171
     0
290
     0
174
     0
 93
        1
 44
50.0
173
     0
291
     1
 45
0.0
1001
ACAD
1000
AcDbSavedByObjectVersion
1070
     0
  0
VISUALSTYLE
  5
3A
102
{ACAD_REACTORS
330
2A
102
}
102
{ACAD_XDICTIONARY
360
53C
102
}
330
2A
100
AcDbVisualStyle
  2
ColorChange
 70
    16
 71
     2
 72
     2
 73
     3
 90
        0
 40
-0.6
 41
-30.0
 62
     5
 63
     8
 74
     1
 91
        4
 64
     7
 65
   257
 75
     1
175
     1
 42
1.0
 92
        8
 66
     8
 43
1.0
 76
     1
 77
     6
 78
     2
 67
     7
 79
     5
170
     0
171
     0
290
     0
174
     0
 93
        1
 44
0.0
173
     0
291
     1
 45
0.0
1001
ACAD
1000
AcDbSavedByObjectVersion
1070
     0
  0
VISUALSTYLE
  5
34
102
{ACAD_REACTORS
330
2A
102
}
102
{ACAD_XDICTIONARY
360
530
102
}
330
2A
100
AcDbVisualStyle
  2
Conceptual
 70
     9
 71
     3
 72
     2
 73
     0
 90
        0
 40
-0.6
 41
-30.0
 62
     5
 63
     7
 74
     2
 91
        2
 64
     7
 65
   257
 75
     1
175
     1
 42
40.0
 92
        8
 66
     7
 43
1.0
 76
     1
 77
     6
 78
     2
 67
     7
 79
     3
170
     0
171
     0
290
     0
174
     0
 93
        1
 44
0.0
173
     0
291
     0
 45
0.0
1001
ACAD
1000
AcDbSavedByObjectVersion
1070
     0
  0
VISUALSTYLE
  5
35
102
{ACAD_REACTORS
330
2A
102
}
102
{ACAD_XDICTIONARY
360
532
102
}
330
2A
100
AcDbVisualStyle
  2
Dim
 70
    11
 71
     2
 72
     2
 73
     0
 90
        0
 40
-0.6
 41
-30.0
 62
     5
 63
     7
 74
     1
 91
        4
 64
     7
 65
   257
 75
     1
175
     1
 42
1.0
 92
        8
 66
     7
 43
1.0
 76
     1
 77
     6
 78
     2
 67
     7
 79
     5
170
     0
171
     0
290
     0
174
     0
 93
        1
 44
-50.0
173
     0
291
     1
 45
0.0
1001
ACAD
1000
AcDbSavedByObjectVersion
1070
     0
  0
VISUALSTYLE
  5
39
102
{ACAD_REACTORS
330
2A
102
}
102
{ACAD_XDICTIONARY
360
53A
102
}
330
2A
100
AcDbVisualStyle
  2
Facepattern
 70
    15
 71
     2
 72
     2
 73
     0
 90
        0
 40
-0.6
 41
-30.0
 62
     5
 63
     7
 74
     1
 91
        4
 64
     7
 65
   257
 75
     1
175
     1
 42
1.0
 92
        8
 66
     7
 43
1.0
 76
     1
 77
     6
 78
     2
 67
     7
 79
     5
170
     0
171
     0
290
     0
174
     0
 93
        1
 44
0.0
173
     0
291
     1
 45
0.0
1001
ACAD
1000
AcDbSavedByObjectVersion
1070
     0
  0
VISUALSTYLE
  5
2B
102
{ACAD_REACTORS
330
2A
102
}
102
{ACAD_XDICTIONARY
360
51E
102
}
330
2A
100
AcDbVisualStyle
  2
Flat
 70
     0
 71
     2
 72
     1
 73
     1
 90
        2
 40
-0.6
 41
30.0
 62
     5
 63
     7
 74
     0
 91
        4
 64
     7
 65
   257
 75
     1
175
     1
 42
1.0
 92
        8
 66
     7
 43
1.0
 76
     1
 77
     6
 78
     2
 67
     7
 79
     5
170
     0
171
     0
290
     0
174
     0
 93
       13
 44
0.0
173
     0
291
     1
 45
0.0
1001
ACAD
1000
AcDbSavedByObjectVersion
1070
     0
  0
VISUALSTYLE
  5
2C
102
{ACAD_REACTORS
330
2A
102
}
102
{ACAD_XDICTIONARY
360
520
102
}
330
2A
100
AcDbVisualStyle
  2
FlatWithEdges
 70
     1
 71
     2
 72
     1
 73
     1
 90
        2
 40
-0.6
 41
30.0
 62
     5
 63
     7
 74
     1
 91
        4
 64
     7
 65
   257
 75
     1
175
     1
 42
1.0
 92
        0
 66
   257
 43
1.0
 76
     1
 77
     6
 78
     2
 67
     7
 79
     5
170
     0
171
     0
290
     0
174
     0
 93
       13
 44
0.0
173
     0
291
     1
 45
0.0
1001
ACAD
1000
AcDbSavedByObjectVersion
1070
     0
  0
VISUALSTYLE
  5
2D
102
{ACAD_REACTORS
330
2A
102
}
102
{ACAD_XDICTIONARY
360
522
102
}
330
2A
100
AcDbVisualStyle
  2
Gouraud
 70
     2
 71
     2
 72
     2
 73
     1
 90
        2
 40
-0.6
 41
30.0
 62
     5
 63
     7
 74
     0
 91
        4
 64
     7
 65
   257
 75
     1
175
     1
 42
1.0
 92
        0
 66
     7
 43
1.0
 76
     1
 77
     6
 78
     2
 67
     7
 79
     5
170
     0
171
     0
290
     0
174
     0
 93
       13
 44
0.0
173
     0
291
     1
 45
0.0
1001
ACAD
1000
AcDbSavedByObjectVersion
1070
     0
  0
VISUALSTYLE
  5
2E
102
{ACAD_REACTORS
330
2A
102
}
102
{ACAD_XDICTIONARY
360
524
102
}
330
2A
100
AcDbVisualStyle
  2
GouraudWithEdges
 70
     3
 71
     2
 72
     2
 73
     1
 90
        2
 40
-0.6
 41
30.0
 62
     5
 63
     7
 74
     1
 91
        4
 64
     7
 65
   257
 75
     1
175
     1
 42
1.0
 92
        0
 66
   257
 43
1.0
 76
     1
 77
     6
 78
     2
 67
     7
 79
     5
170
     0
171
     0
290
     0
174
     0
 93
       13
 44
0.0
173
     0
291
     1
 45
0.0
1001
ACAD
1000
AcDbSavedByObjectVersion
1070
     0
  0
VISUALSTYLE
  5
38
102
{ACAD_REACTORS
330
2A
102
}
102
{ACAD_XDICTIONARY
360
538
102
}
330
2A
100
AcDbVisualStyle
  2
Linepattern
 70
    14
 71
     2
 72
     2
 73
     0
 90
        0
 40
-0.6
 41
-30.0
 62
     5
 63
     7
 74
     1
 91
        4
 64
     7
 65
   257
 75
     7
175
     7
 42
1.0
 92
        8
 66
     7
 43
1.0
 76
     1
 77
     6
 78
     2
 67
     7
 79
     5
170
     0
171
     0
290
     0
174
     0
 93
        1
 44
0.0
173
     0
291
     1
 45
0.0
1001
ACAD
1000
AcDbSavedByObjectVersion
1070
     0
  0
VISUALSTYLE
  5
33
102
{ACAD_REACTORS
330
2A
102
}
102
{ACAD_XDICTIONARY
360
52E
102
}
330
2A
100
AcDbVisualStyle
  2
Realistic
 70
     8
 71
     2
 72
     2
 73
     0
 90
        0
 40
-0.6
 41
-30.0
 62
     5
 63
     7
 74
     1
 91
        0
 64
     7
 65
   257
 75
     1
175
     1
 42
1.0
 92
        8
 66
     8
 43
1.0
 76
     1
 77
     6
 78
     2
 67
     7
 79
     5
170
     0
171
     0
290
     0
174
     0
 93
       13
 44
0.0
173
     0
291
     0
 45
0.0
1001
ACAD
1000
AcDbSavedByObjectVersion
1070
     0
  0
VISUALSTYLE
  5
37
102
{ACAD_REACTORS
330
2A
102
}
102
{ACAD_XDICTIONARY
360
536
102
}
330
2A
100
AcDbVisualStyle
  2
Thicken
 70
    13
 71
     2
 72
     2
 73
     0
 90
        0
 40
-0.6
 41
-30.0
 62
     5
 63
     7
 74
     1
 91
        4
 64
     7
 65
   257
 75
     1
175
     1
 42
1.0
 92
       12
 66
     7
 43
1.0
 76
     1
 77
     6
 78
     2
 67
     7
 79
     5
170
     0
171
     0
290
     0
174
     0
 93
        1
 44
0.0
173
     0
291
     1
 45
0.0
1001
ACAD
1000
AcDbSavedByObjectVersion
1070
     0
  0
DICTIONARYVAR
  5
51B
102
{ACAD_REACTORS
330
518
102
}
330
518
100
DictionaryVariables
280
     0
  1
1:1
  0
DICTIONARYVAR
  5
51C
102
{ACAD_REACTORS
330
518
102
}
330
518
100
DictionaryVariables
280
     0
  1
2
  0
DICTIONARYVAR
  5
51D
102
{ACAD_REACTORS
330
518
102
}
330
518
100
DictionaryVariables
280
     0
  1
1
  0
DICTIONARY
  5
540
330
3D
100
AcDbDictionary
280
     1
281
     1
  3
ACAD_XREC_ROUNDTRIP
360
541
  0
DICTIONARY
  5
53E
330
3C
100
AcDbDictionary
280
     1
281
     1
  3
ACAD_XREC_ROUNDTRIP
360
53F
  0
DICTIONARY
  5
542
330
3E
100
AcDbDictionary
280
     1
281
     1
  3
ACAD_XREC_ROUNDTRIP
360
543
  0
DICTIONARY
  5
526
330
2F
100
AcDbDictionary
280
     1
281
     1
  3
ACAD_XREC_ROUNDTRIP
360
527
  0
DICTIONARY
  5
52A
330
31
100
AcDbDictionary
280
     1
281
     1
  3
ACAD_XREC_ROUNDTRIP
360
52B
  0
DICTIONARY
  5
528
330
30
100
AcDbDictionary
280
     1
281
     1
  3
ACAD_XREC_ROUNDTRIP
360
529
  0
DICTIONARY
  5
52C
330
32
100
AcDbDictionary
280
     1
281
     1
  3
ACAD_XREC_ROUNDTRIP
360
52D
  0
DICTIONARY
  5
534
330
36
100
AcDbDictionary
280
     1
281
     1
  3
ACAD_XREC_ROUNDTRIP
360
535
  0
DICTIONARY
  5
53C
330
3A
100
AcDbDictionary
280
     1
281
     1
  3
ACAD_XREC_ROUNDTRIP
360
53D
  0
DICTIONARY
  5
530
330
34
100
AcDbDictionary
280
     1
281
     1
  3
ACAD_XREC_ROUNDTRIP
360
531
  0
DICTIONARY
  5
532
330
35
100
AcDbDictionary
280
     1
281
     1
  3
ACAD_XREC_ROUNDTRIP
360
533
  0
DICTIONARY
  5
53A
330
39
100
AcDbDictionary
280
     1
281
     1
  3
ACAD_XREC_ROUNDTRIP
360
53B
  0
DICTIONARY
  5
51E
330
2B
100
AcDbDictionary
280
     1
281
     1
  3
ACAD_XREC_ROUNDTRIP
360
51F
  0
DICTIONARY
  5
520
330
2C
100
AcDbDictionary
280
     1
281
     1
  3
ACAD_XREC_ROUNDTRIP
360
521
  0
DICTIONARY
  5
522
330
2D
100
AcDbDictionary
280
     1
281
     1
  3
ACAD_XREC_ROUNDTRIP
360
523
  0
DICTIONARY
  5
524
330
2E
100
AcDbDictionary
280
     1
281
     1
  3
ACAD_XREC_ROUNDTRIP
360
525
  0
DICTIONARY
  5
538
330
38
100
AcDbDictionary
280
     1
281
     1
  3
ACAD_XREC_ROUNDTRIP
360
539
  0
DICTIONARY
  5
52E
330
33
100
AcDbDictionary
280
     1
281
     1
  3
ACAD_XREC_ROUNDTRIP
360
52F
  0
DICTIONARY
  5
536
330
37
100
AcDbDictionary
280
     1
281
     1
  3
ACAD_XREC_ROUNDTRIP
360
537
  0
XRECORD
  5
541
102
{ACAD_REACTORS
330
540
102
}
330
540
100
AcDbXrecord
280
     1
102
MATERIAL
148
0.0
149
0.0
149
0.0
 93
        0
 94
      127
282
     0
 72
     1
 77
     1
171
     1
175
     1
179
     1
273
     0
  0
XRECORD
  5
53F
102
{ACAD_REACTORS
330
53E
102
}
330
53E
100
AcDbXrecord
280
     1
102
MATERIAL
148
0.0
149
0.0
149
0.0
 93
        0
 94
      127
282
     0
 72
     1
 77
     1
171
     1
175
     1
179
     1
273
     0
  0
XRECORD
  5
543
102
{ACAD_REACTORS
330
542
102
}
330
542
100
AcDbXrecord
280
     1
102
MATERIAL
148
0.0
149
0.0
149
0.0
 93
        0
 94
      127
282
     0
 72
     1
 77
     1
171
     1
175
     1
179
     1
273
     0
  0
XRECORD
  5
527
102
{ACAD_REACTORS
330
526
102
}
330
526
100
AcDbXrecord
280
     1
102
RTVSPropertyOp0
 70
     1
102
RTVSPropertyOp1
 70
     1
102
RTVSPropertyOp2
 70
     1
102
RTVSPropertyOp3
 70
     1
102
RTVSPropertyOp4
 70
     1
102
RTVSPropertyOp5
 70
     1
102
RTVSPropertyOp6
 70
     1
102
RTVSPropertyOp7
 70
     1
102
RTVSPropertyOp8
 70
     1
102
RTVSPropertyOp9
 70
     1
102
RTVSPropertyOp10
 70
     1
102
RTVSPropertyOp11
 70
     1
102
RTVSPropertyOp12
 70
     1
102
RTVSPropertyOp13
 70
     1
102
RTVSPropertyOp14
 70
     1
102
RTVSPropertyOp15
 70
     1
102
RTVSPropertyOp16
 70
     1
102
RTVSPropertyOp17
 70
     1
102
RTVSPropertyOp18
 70
     1
102
RTVSPropertyOp19
 70
     1
102
RTVSPropertyOp20
 70
     1
102
RTVSPropertyOp21
 70
     1
102
RTVSPropertyOp22
 70
     1
102
RTVSPropertyOp23
 70
     1
102
RTVSPropertyOp24
 70
     1
102
RTVSPropertyOp25
 70
     1
102
RTVSPropertyOp26
 70
     1
102
RTVSPropertyOp27
 70
     1
  0
XRECORD
  5
52B
102
{ACAD_REACTORS
330
52A
102
}
330
52A
100
AcDbXrecord
280
     1
102
RTVSPropertyOp0
 70
     1
102
RTVSPropertyOp1
 70
     1
102
RTVSPropertyOp2
 70
     1
102
RTVSPropertyOp3
 70
     1
102
RTVSPropertyOp4
 70
     1
102
RTVSPropertyOp5
 70
     1
102
RTVSPropertyOp6
 70
     1
102
RTVSPropertyOp7
 70
     1
102
RTVSPropertyOp8
 70
     1
102
RTVSPropertyOp9
 70
     1
102
RTVSPropertyOp10
 70
     1
102
RTVSPropertyOp11
 70
     1
102
RTVSPropertyOp12
 70
     1
102
RTVSPropertyOp13
 70
     1
102
RTVSPropertyOp14
 70
     1
102
RTVSPropertyOp15
 70
     1
102
RTVSPropertyOp16
 70
     1
102
RTVSPropertyOp17
 70
     1
102
RTVSPropertyOp18
 70
     1
102
RTVSPropertyOp19
 70
     1
102
RTVSPropertyOp20
 70
     1
102
RTVSPropertyOp21
 70
     1
102
RTVSPropertyOp22
 70
     1
102
RTVSPropertyOp23
 70
     1
102
RTVSPropertyOp24
 70
     1
102
RTVSPropertyOp25
 70
     1
102
RTVSPropertyOp26
 70
     1
102
RTVSPropertyOp27
 70
     1
  0
XRECORD
  5
529
102
{ACAD_REACTORS
330
528
102
}
330
528
100
AcDbXrecord
280
     1
102
RTVSPropertyOp0
 70
     1
102
RTVSPropertyOp1
 70
     1
102
RTVSPropertyOp2
 70
     1
102
RTVSPropertyOp3
 70
     1
102
RTVSPropertyOp4
 70
     1
102
RTVSPropertyOp5
 70
     1
102
RTVSPropertyOp6
 70
     1
102
RTVSPropertyOp7
 70
     1
102
RTVSPropertyOp8
 70
     1
102
RTVSPropertyOp9
 70
     1
102
RTVSPropertyOp10
 70
     1
102
RTVSPropertyOp11
 70
     1
102
RTVSPropertyOp12
 70
     1
102
RTVSPropertyOp13
 70
     1
102
RTVSPropertyOp14
 70
     1
102
RTVSPropertyOp15
 70
     1
102
RTVSPropertyOp16
 70
     1
102
RTVSPropertyOp17
 70
     1
102
RTVSPropertyOp18
 70
     1
102
RTVSPropertyOp19
 70
     1
102
RTVSPropertyOp20
 70
     1
102
RTVSPropertyOp21
 70
     1
102
RTVSPropertyOp22
 70
     1
102
RTVSPropertyOp23
 70
     1
102
RTVSPropertyOp24
 70
     1
102
RTVSPropertyOp25
 70
     1
102
RTVSPropertyOp26
 70
     1
102
RTVSPropertyOp27
 70
     1
  0
XRECORD
  5
52D
102
{ACAD_REACTORS
330
52C
102
}
330
52C
100
AcDbXrecord
280
     1
102
RTVSPropertyOp0
 70
     1
102
RTVSPropertyOp1
 70
     1
102
RTVSPropertyOp2
 70
     1
102
RTVSPropertyOp3
 70
     1
102
RTVSPropertyOp4
 70
     1
102
RTVSPropertyOp5
 70
     1
102
RTVSPropertyOp6
 70
     1
102
RTVSPropertyOp7
 70
     1
102
RTVSPropertyOp8
 70
     1
102
RTVSPropertyOp9
 70
     1
102
RTVSPropertyOp10
 70
     1
102
RTVSPropertyOp11
 70
     1
102
RTVSPropertyOp12
 70
     1
102
RTVSPropertyOp13
 70
     1
102
RTVSPropertyOp14
 70
     1
102
RTVSPropertyOp15
 70
     1
102
RTVSPropertyOp16
 70
     1
102
RTVSPropertyOp17
 70
     1
102
RTVSPropertyOp18
 70
     1
102
RTVSPropertyOp19
 70
     1
102
RTVSPropertyOp20
 70
     1
102
RTVSPropertyOp21
 70
     1
102
RTVSPropertyOp22
 70
     1
102
RTVSPropertyOp23
 70
     1
102
RTVSPropertyOp24
 70
     1
102
RTVSPropertyOp25
 70
     1
102
RTVSPropertyOp26
 70
     1
102
RTVSPropertyOp27
 70
     1
  0
XRECORD
  5
535
102
{ACAD_REACTORS
330
534
102
}
330
534
100
AcDbXrecord
280
     1
102
RTVSPropertyOp0
 70
     1
102
RTVSPropertyOp1
 70
     1
102
RTVSPropertyOp2
 70
     1
102
RTVSPropertyOp3
 70
     1
102
RTVSPropertyOp4
 70
     1
102
RTVSPropertyOp5
 70
     1
102
RTVSPropertyOp6
 70
     1
102
RTVSPropertyOp7
 70
     1
102
RTVSPropertyOp8
 70
     1
102
RTVSPropertyOp9
 70
     1
102
RTVSPropertyOp10
 70
     1
102
RTVSPropertyOp11
 70
     1
102
RTVSPropertyOp12
 70
     1
102
RTVSPropertyOp13
 70
     1
102
RTVSPropertyOp14
 70
     1
102
RTVSPropertyOp15
 70
     1
102
RTVSPropertyOp16
 70
     1
102
RTVSPropertyOp17
 70
     1
102
RTVSPropertyOp18
 70
     1
102
RTVSPropertyOp19
 70
     1
102
RTVSPropertyOp20
 70
     1
102
RTVSPropertyOp21
 70
     1
102
RTVSPropertyOp22
 70
     1
102
RTVSPropertyOp23
 70
     1
102
RTVSPropertyOp24
 70
     1
102
RTVSPropertyOp25
 70
     1
102
RTVSPropertyOp26
 70
     1
102
RTVSPropertyOp27
 70
     1
  0
XRECORD
  5
53D
102
{ACAD_REACTORS
330
53C
102
}
330
53C
100
AcDbXrecord
280
     1
102
RTVSPropertyOp0
 70
     1
102
RTVSPropertyOp1
 70
     1
102
RTVSPropertyOp2
 70
     1
102
RTVSPropertyOp3
 70
     1
102
RTVSPropertyOp4
 70
     1
102
RTVSPropertyOp5
 70
     1
102
RTVSPropertyOp6
 70
     1
102
RTVSPropertyOp7
 70
     1
102
RTVSPropertyOp8
 70
     1
102
RTVSPropertyOp9
 70
     1
102
RTVSPropertyOp10
 70
     1
102
RTVSPropertyOp11
 70
     1
102
RTVSPropertyOp12
 70
     1
102
RTVSPropertyOp13
 70
     1
102
RTVSPropertyOp14
 70
     1
102
RTVSPropertyOp15
 70
     1
102
RTVSPropertyOp16
 70
     1
102
RTVSPropertyOp17
 70
     1
102
RTVSPropertyOp18
 70
     1
102
RTVSPropertyOp19
 70
     1
102
RTVSPropertyOp20
 70
     1
102
RTVSPropertyOp21
 70
     1
102
RTVSPropertyOp22
 70
     1
102
RTVSPropertyOp23
 70
     1
102
RTVSPropertyOp24
 70
     1
102
RTVSPropertyOp25
 70
     1
102
RTVSPropertyOp26
 70
     1
102
RTVSPropertyOp27
 70
     1
  0
XRECORD
  5
531
102
{ACAD_REACTORS
330
530
102
}
330
530
100
AcDbXrecord
280
     1
102
RTVSPropertyOp0
 70
     1
102
RTVSPropertyOp1
 70
     1
102
RTVSPropertyOp2
 70
     1
102
RTVSPropertyOp3
 70
     1
102
RTVSPropertyOp4
 70
     1
102
RTVSPropertyOp5
 70
     1
102
RTVSPropertyOp6
 70
     1
102
RTVSPropertyOp7
 70
     1
102
RTVSPropertyOp8
 70
     1
102
RTVSPropertyOp9
 70
     1
102
RTVSPropertyOp10
 70
     1
102
RTVSPropertyOp11
 70
     1
102
RTVSPropertyOp12
 70
     1
102
RTVSPropertyOp13
 70
     1
102
RTVSPropertyOp14
 70
     1
102
RTVSPropertyOp15
 70
     1
102
RTVSPropertyOp16
 70
     1
102
RTVSPropertyOp17
 70
     1
102
RTVSPropertyOp18
 70
     1
102
RTVSPropertyOp19
 70
     1
102
RTVSPropertyOp20
 70
     1
102
RTVSPropertyOp21
 70
     1
102
RTVSPropertyOp22
 70
     1
102
RTVSPropertyOp23
 70
     1
102
RTVSPropertyOp24
 70
     1
102
RTVSPropertyOp25
 70
     1
102
RTVSPropertyOp26
 70
     1
102
RTVSPropertyOp27
 70
     1
  0
XRECORD
  5
533
102
{ACAD_REACTORS
330
532
102
}
330
532
100
AcDbXrecord
280
     1
102
RTVSPropertyOp0
 70
     1
102
RTVSPropertyOp1
 70
     1
102
RTVSPropertyOp2
 70
     1
102
RTVSPropertyOp3
 70
     1
102
RTVSPropertyOp4
 70
     1
102
RTVSPropertyOp5
 70
     1
102
RTVSPropertyOp6
 70
     1
102
RTVSPropertyOp7
 70
     1
102
RTVSPropertyOp8
 70
     1
102
RTVSPropertyOp9
 70
     1
102
RTVSPropertyOp10
 70
     1
102
RTVSPropertyOp11
 70
     1
102
RTVSPropertyOp12
 70
     1
102
RTVSPropertyOp13
 70
     1
102
RTVSPropertyOp14
 70
     1
102
RTVSPropertyOp15
 70
     1
102
RTVSPropertyOp16
 70
     1
102
RTVSPropertyOp17
 70
     1
102
RTVSPropertyOp18
 70
     1
102
RTVSPropertyOp19
 70
     1
102
RTVSPropertyOp20
 70
     1
102
RTVSPropertyOp21
 70
     1
102
RTVSPropertyOp22
 70
     1
102
RTVSPropertyOp23
 70
     1
102
RTVSPropertyOp24
 70
     1
102
RTVSPropertyOp25
 70
     1
102
RTVSPropertyOp26
 70
     1
102
RTVSPropertyOp27
 70
     1
  0
XRECORD
  5
53B
102
{ACAD_REACTORS
330
53A
102
}
330
53A
100
AcDbXrecord
280
     1
102
RTVSPropertyOp0
 70
     1
102
RTVSPropertyOp1
 70
     1
102
RTVSPropertyOp2
 70
     1
102
RTVSPropertyOp3
 70
     1
102
RTVSPropertyOp4
 70
     1
102
RTVSPropertyOp5
 70
     1
102
RTVSPropertyOp6
 70
     1
102
RTVSPropertyOp7
 70
     1
102
RTVSPropertyOp8
 70
     1
102
RTVSPropertyOp9
 70
     1
102
RTVSPropertyOp10
 70
     1
102
RTVSPropertyOp11
 70
     1
102
RTVSPropertyOp12
 70
     1
102
RTVSPropertyOp13
 70
     1
102
RTVSPropertyOp14
 70
     1
102
RTVSPropertyOp15
 70
     1
102
RTVSPropertyOp16
 70
     1
102
RTVSPropertyOp17
 70
     1
102
RTVSPropertyOp18
 70
     1
102
RTVSPropertyOp19
 70
     1
102
RTVSPropertyOp20
 70
     1
102
RTVSPropertyOp21
 70
     1
102
RTVSPropertyOp22
 70
     1
102
RTVSPropertyOp23
 70
     1
102
RTVSPropertyOp24
 70
     1
102
RTVSPropertyOp25
 70
     1
102
RTVSPropertyOp26
 70
     1
102
RTVSPropertyOp27
 70
     1
  0
XRECORD
  5
51F
102
{ACAD_REACTORS
330
51E
102
}
330
51E
100
AcDbXrecord
280
     1
102
RTVSPropertyOp0
 70
     1
102
RTVSPropertyOp1
 70
     1
102
RTVSPropertyOp2
 70
     1
102
RTVSPropertyOp3
 70
     1
102
RTVSPropertyOp4
 70
     1
102
RTVSPropertyOp5
 70
     1
102
RTVSPropertyOp6
 70
     1
102
RTVSPropertyOp7
 70
     1
102
RTVSPropertyOp8
 70
     1
102
RTVSPropertyOp9
 70
     1
102
RTVSPropertyOp10
 70
     1
102
RTVSPropertyOp11
 70
     1
102
RTVSPropertyOp12
 70
     1
102
RTVSPropertyOp13
 70
     1
102
RTVSPropertyOp14
 70
     1
102
RTVSPropertyOp15
 70
     1
102
RTVSPropertyOp16
 70
     1
102
RTVSPropertyOp17
 70
     1
102
RTVSPropertyOp18
 70
     1
102
RTVSPropertyOp19
 70
     1
102
RTVSPropertyOp20
 70
     1
102
RTVSPropertyOp21
 70
     1
102
RTVSPropertyOp22
 70
     1
102
RTVSPropertyOp23
 70
     1
102
RTVSPropertyOp24
 70
     1
102
RTVSPropertyOp25
 70
     1
102
RTVSPropertyOp26
 70
     1
102
RTVSPropertyOp27
 70
     1
  0
XRECORD
  5
521
102
{ACAD_REACTORS
330
520
102
}
330
520
100
AcDbXrecord
280
     1
102
RTVSPropertyOp0
 70
     1
102
RTVSPropertyOp1
 70
     1
102
RTVSPropertyOp2
 70
     1
102
RTVSPropertyOp3
 70
     1
102
RTVSPropertyOp4
 70
     1
102
RTVSPropertyOp5
 70
     1
102
RTVSPropertyOp6
 70
     1
102
RTVSPropertyOp7
 70
     1
102
RTVSPropertyOp8
 70
     1
102
RTVSPropertyOp9
 70
     1
102
RTVSPropertyOp10
 70
     1
102
RTVSPropertyOp11
 70
     1
102
RTVSPropertyOp12
 70
     1
102
RTVSPropertyOp13
 70
     1
102
RTVSPropertyOp14
 70
     1
102
RTVSPropertyOp15
 70
     1
102
RTVSPropertyOp16
 70
     1
102
RTVSPropertyOp17
 70
     1
102
RTVSPropertyOp18
 70
     1
102
RTVSPropertyOp19
 70
     1
102
RTVSPropertyOp20
 70
     1
102
RTVSPropertyOp21
 70
     1
102
RTVSPropertyOp22
 70
     1
102
RTVSPropertyOp23
 70
     1
102
RTVSPropertyOp24
 70
     1
102
RTVSPropertyOp25
 70
     1
102
RTVSPropertyOp26
 70
     1
102
RTVSPropertyOp27
 70
     1
  0
XRECORD
  5
523
102
{ACAD_REACTORS
330
522
102
}
330
522
100
AcDbXrecord
280
     1
102
RTVSPropertyOp0
 70
     1
102
RTVSPropertyOp1
 70
     1
102
RTVSPropertyOp2
 70
     1
102
RTVSPropertyOp3
 70
     1
102
RTVSPropertyOp4
 70
     1
102
RTVSPropertyOp5
 70
     1
102
RTVSPropertyOp6
 70
     1
102
RTVSPropertyOp7
 70
     1
102
RTVSPropertyOp8
 70
     1
102
RTVSPropertyOp9
 70
     1
102
RTVSPropertyOp10
 70
     1
102
RTVSPropertyOp11
 70
     1
102
RTVSPropertyOp12
 70
     1
102
RTVSPropertyOp13
 70
     1
102
RTVSPropertyOp14
 70
     1
102
RTVSPropertyOp15
 70
     1
102
RTVSPropertyOp16
 70
     1
102
RTVSPropertyOp17
 70
     1
102
RTVSPropertyOp18
 70
     1
102
RTVSPropertyOp19
 70
     1
102
RTVSPropertyOp20
 70
     1
102
RTVSPropertyOp21
 70
     1
102
RTVSPropertyOp22
 70
     1
102
RTVSPropertyOp23
 70
     1
102
RTVSPropertyOp24
 70
     1
102
RTVSPropertyOp25
 70
     1
102
RTVSPropertyOp26
 70
     1
102
RTVSPropertyOp27
 70
     1
  0
XRECORD
  5
525
102
{ACAD_REACTORS
330
524
102
}
330
524
100
AcDbXrecord
280
     1
102
RTVSPropertyOp0
 70
     1
102
RTVSPropertyOp1
 70
     1
102
RTVSPropertyOp2
 70
     1
102
RTVSPropertyOp3
 70
     1
102
RTVSPropertyOp4
 70
     1
102
RTVSPropertyOp5
 70
     1
102
RTVSPropertyOp6
 70
     1
102
RTVSPropertyOp7
 70
     1
102
RTVSPropertyOp8
 70
     1
102
RTVSPropertyOp9
 70
     1
102
RTVSPropertyOp10
 70
     1
102
RTVSPropertyOp11
 70
     1
102
RTVSPropertyOp12
 70
     1
102
RTVSPropertyOp13
 70
     1
102
RTVSPropertyOp14
 70
     1
102
RTVSPropertyOp15
 70
     1
102
RTVSPropertyOp16
 70
     1
102
RTVSPropertyOp17
 70
     1
102
RTVSPropertyOp18
 70
     1
102
RTVSPropertyOp19
 70
     1
102
RTVSPropertyOp20
 70
     1
102
RTVSPropertyOp21
 70
     1
102
RTVSPropertyOp22
 70
     1
102
RTVSPropertyOp23
 70
     1
102
RTVSPropertyOp24
 70
     1
102
RTVSPropertyOp25
 70
     1
102
RTVSPropertyOp26
 70
     1
102
RTVSPropertyOp27
 70
     1
  0
XRECORD
  5
539
102
{ACAD_REACTORS
330
538
102
}
330
538
100
AcDbXrecord
280
     1
102
RTVSPropertyOp0
 70
     1
102
RTVSPropertyOp1
 70
     1
102
RTVSPropertyOp2
 70
     1
102
RTVSPropertyOp3
 70
     1
102
RTVSPropertyOp4
 70
     1
102
RTVSPropertyOp5
 70
     1
102
RTVSPropertyOp6
 70
     1
102
RTVSPropertyOp7
 70
     1
102
RTVSPropertyOp8
 70
     1
102
RTVSPropertyOp9
 70
     1
102
RTVSPropertyOp10
 70
     1
102
RTVSPropertyOp11
 70
     1
102
RTVSPropertyOp12
 70
     1
102
RTVSPropertyOp13
 70
     1
102
RTVSPropertyOp14
 70
     1
102
RTVSPropertyOp15
 70
     1
102
RTVSPropertyOp16
 70
     1
102
RTVSPropertyOp17
 70
     1
102
RTVSPropertyOp18
 70
     1
102
RTVSPropertyOp19
 70
     1
102
RTVSPropertyOp20
 70
     1
102
RTVSPropertyOp21
 70
     1
102
RTVSPropertyOp22
 70
     1
102
RTVSPropertyOp23
 70
     1
102
RTVSPropertyOp24
 70
     1
102
RTVSPropertyOp25
 70
     1
102
RTVSPropertyOp26
 70
     1
102
RTVSPropertyOp27
 70
     1
  0
XRECORD
  5
52F
102
{ACAD_REACTORS
330
52E
102
}
330
52E
100
AcDbXrecord
280
     1
102
RTVSPropertyOp0
 70
     1
102
RTVSPropertyOp1
 70
     1
102
RTVSPropertyOp2
 70
     1
102
RTVSPropertyOp3
 70
     1
102
RTVSPropertyOp4
 70
     1
102
RTVSPropertyOp5
 70
     1
102
RTVSPropertyOp6
 70
     1
102
RTVSPropertyOp7
 70
     1
102
RTVSPropertyOp8
 70
     1
102
RTVSPropertyOp9
 70
     1
102
RTVSPropertyOp10
 70
     1
102
RTVSPropertyOp11
 70
     1
102
RTVSPropertyOp12
 70
     1
102
RTVSPropertyOp13
 70
     1
102
RTVSPropertyOp14
 70
     1
102
RTVSPropertyOp15
 70
     1
102
RTVSPropertyOp16
 70
     1
102
RTVSPropertyOp17
 70
     1
102
RTVSPropertyOp18
 70
     1
102
RTVSPropertyOp19
 70
     1
102
RTVSPropertyOp20
 70
     1
102
RTVSPropertyOp21
 70
     1
102
RTVSPropertyOp22
 70
     1
102
RTVSPropertyOp23
 70
     1
102
RTVSPropertyOp24
 70
     1
102
RTVSPropertyOp25
 70
     1
102
RTVSPropertyOp26
 70
     1
102
RTVSPropertyOp27
 70
     1
  0
XRECORD
  5
537
102
{ACAD_REACTORS
330
536
102
}
330
536
100
AcDbXrecord
280
     1
102
RTVSPropertyOp0
 70
     1
102
RTVSPropertyOp1
 70
     1
102
RTVSPropertyOp2
 70
     1
102
RTVSPropertyOp3
 70
     1
102
RTVSPropertyOp4
 70
     1
102
RTVSPropertyOp5
 70
     1
102
RTVSPropertyOp6
 70
     1
102
RTVSPropertyOp7
 70
     1
102
RTVSPropertyOp8
 70
     1
102
RTVSPropertyOp9
 70
     1
102
RTVSPropertyOp10
 70
     1
102
RTVSPropertyOp11
 70
     1
102
RTVSPropertyOp12
 70
     1
102
RTVSPropertyOp13
 70
     1
102
RTVSPropertyOp14
 70
     1
102
RTVSPropertyOp15
 70
     1
102
RTVSPropertyOp16
 70
     1
102
RTVSPropertyOp17
 70
     1
102
RTVSPropertyOp18
 70
     1
102
RTVSPropertyOp19
 70
     1
102
RTVSPropertyOp20
 70
     1
102
RTVSPropertyOp21
 70
     1
102
RTVSPropertyOp22
 70
     1
102
RTVSPropertyOp23
 70
     1
102
RTVSPropertyOp24
 70
     1
102
RTVSPropertyOp25
 70
     1
102
RTVSPropertyOp26
 70
     1
102
RTVSPropertyOp27
 70
     1
  0
ENDSEC
  0
EOF
