  0
SECTION
  2
HEADER
  9
$ACADVER
  1
AC1015
  9
$ACADMAINTVER
 70
     6
  9
$DWGCODEPAGE
  3
ANSI_1252
  9
$INSBASE
 10
0.0
 20
0.0
 30
0.0
  9
$EXTMIN
 10
0.0
 20
0.0
 30
0.0
  9
$EXTMAX
 10
29.75
 20
19.25
 30
0.0
  9
$LIMMIN
 10
0.0
 20
0.0
  9
$LIMMAX
 10
29.75
 20
19.25
  9
$ORTHOMODE
 70
     0
  9
$REGENMODE
 70
     1
  9
$FILLMODE
 70
     1
  9
$QTEXTMODE
 70
     0
  9
$MIRRTEXT
 70
     1
  9
$LTSCALE
 40
1.75
  9
$ATTMODE
 70
     1
  9
$TEXTSIZE
 40
0.21875
  9
$TRACEWID
 40
0.05
  9
$TEXTSTYLE
  7
Standard
  9
$CLAYER
  8
0
  9
$CELTYPE
  6
ByLayer
  9
$CECOLOR
 62
   256
  9
$CELTSCALE
 40
1.0
  9
$DISPSILH
 70
     0
  9
$DIMSCALE
 40
1.0
  9
$DIMASZ
 40
0.2275
  9
$DIMEXO
 40
0.0875
  9
$DIMDLI
 40
0.38
  9
$DIMRND
 40
0.0
  9
$DIMDLE
 40
0.0
  9
$DIMEXE
 40
0.21875
  9
$DIMTP
 40
0.0
  9
$DIMTM
 40
0.0
  9
$DIMTXT
 40
0.21875
  9
$DIMCEN
 40
0.09
  9
$DIMTSZ
 40
0.0
  9
$DIMTOL
 70
     0
  9
$DIMLIM
 70
     0
  9
$DIMTIH
 70
     1
  9
$DIMTOH
 70
     1
  9
$DIMSE1
 70
     0
  9
$DIMSE2
 70
     0
  9
$DIMTAD
 70
     1
  9
$DIMZIN
 70
     0
  9
$DIMBLK
  1

  9
$DIMASO
 70
     1
  9
$DIMSHO
 70
     1
  9
$DIMPOST
  1

  9
$DIMAPOST
  1

  9
$DIMALT
 70
     0
  9
$DIMALTD
 70
     2
  9
$DIMALTF
 40
25.4
  9
$DIMLFAC
 40
1.0
  9
$DIMTOFL
 70
     0
  9
$DIMTVP
 40
0.0
  9
$DIMTIX
 70
     0
  9
$DIMSOXD
 70
     0
  9
$DIMSAH
 70
     0
  9
$DIMBLK1
  1

  9
$DIMBLK2
  1

  9
$DIMSTYLE
  2
Standard
  9
$DIMCLRD
 70
     0
  9
$DIMCLRE
 70
     0
  9
$DIMCLRT
 70
     0
  9
$DIMTFAC
 40
1.0
  9
$DIMGAP
 40
0.105
  9
$DIMJUST
 70
     0
  9
$DIMSD1
 70
     0
  9
$DIMSD2
 70
     0
  9
$DIMTOLJ
 70
     1
  9
$DIMTZIN
 70
     0
  9
$DIMALTZ
 70
     0
  9
$DIMALTTZ
 70
     0
  9
$DIMUPT
 70
     0
  9
$DIMDEC
 70
     2
  9
$DIMTDEC
 70
     2
  9
$DIMALTU
 70
     2
  9
$DIMALTTD
 70
     2
  9
$DIMTXSTY
  7
Standard
  9
$DIMAUNIT
 70
     0
  9
$DIMADEC
 70
     2
  9
$DIMALTRND
 40
0.0
  9
$DIMAZIN
 70
     0
  9
$DIMDSEP
 70
    46
  9
$DIMATFIT
 70
     3
  9
$DIMFRAC
 70
     0
  9
$DIMLDRBLK
  1

  9
$DIMLUNIT
 70
     2
  9
$DIMLWD
 70
    -2
  9
$DIMLWE
 70
    -2
  9
$DIMTMOVE
 70
     0
  9
$LUNITS
 70
     2
  9
$LUPREC
 70
     2
  9
$SKETCHINC
 40
0.1
  9
$FILLETRAD
 40
0.5
  9
$AUNITS
 70
     0
  9
$AUPREC
 70
     2
  9
$MENU
  1
.
  9
$ELEVATION
 40
0.0
  9
$PELEVATION
 40
0.0
  9
$THICKNESS
 40
0.0
  9
$LIMCHECK
 70
     0
  9
$CHAMFERA
 40
0.5
  9
$CHAMFERB
 40
0.5
  9
$CHAMFERC
 40
1.0
  9
$CHAMFERD
 40
0.0
  9
$SKPOLY
 70
     0
  9
$TDCREATE
 40
2455705.41607853
  9
$TDUCREATE
 40
2455705.582745197
  9
$TDUPDATE
 40
2455705.416078542
  9
$TDUUPDATE
 40
2455705.582745208
  9
$TDINDWG
 40
0.0000000116
  9
$TDUSRTIMER
 40
0.0000000116
  9
$USRTIMER
 70
     1
  9
$ANGBASE
 50
0.0
  9
$ANGDIR
 70
     0
  9
$PDMODE
 70
     0
  9
$PDSIZE
 40
-1.0
  9
$PLINEWID
 40
0.0
  9
$SPLFRAME
 70
     0
  9
$SPLINETYPE
 70
     6
  9
$SPLINESEGS
 70
     8
  9
$HANDSEED
  5
577
  9
$SURFTAB1
 70
     6
  9
$SURFTAB2
 70
     6
  9
$SURFTYPE
 70
     6
  9
$SURFU
 70
     6
  9
$SURFV
 70
     6
  9
$UCSBASE
  2

  9
$UCSNAME
  2

  9
$UCSORG
 10
0.0
 20
0.0
 30
0.0
  9
$UCSXDIR
 10
1.0
 20
0.0
 30
0.0
  9
$UCSYDIR
 10
0.0
 20
1.0
 30
0.0
  9
$UCSORTHOREF
  2

  9
$UCSORTHOVIEW
 70
     0
  9
$UCSORGTOP
 10
0.0
 20
0.0
 30
0.0
  9
$UCSORGBOTTOM
 10
0.0
 20
0.0
 30
0.0
  9
$UCSORGLEFT
 10
0.0
 20
0.0
 30
0.0
  9
$UCSORGRIGHT
 10
0.0
 20
0.0
 30
0.0
  9
$UCSORGFRONT
 10
0.0
 20
0.0
 30
0.0
  9
$UCSORGBACK
 10
0.0
 20
0.0
 30
0.0
  9
$PUCSBASE
  2

  9
$PUCSNAME
  2

  9
$PUCSORG
 10
0.0
 20
0.0
 30
0.0
  9
$PUCSXDIR
 10
1.0
 20
0.0
 30
0.0
  9
$PUCSYDIR
 10
0.0
 20
1.0
 30
0.0
  9
$PUCSORTHOREF
  2

  9
$PUCSORTHOVIEW
 70
     0
  9
$PUCSORGTOP
 10
0.0
 20
0.0
 30
0.0
  9
$PUCSORGBOTTOM
 10
0.0
 20
0.0
 30
0.0
  9
$PUCSORGLEFT
 10
0.0
 20
0.0
 30
0.0
  9
$PUCSORGRIGHT
 10
0.0
 20
0.0
 30
0.0
  9
$PUCSORGFRONT
 10
0.0
 20
0.0
 30
0.0
  9
$PUCSORGBACK
 10
0.0
 20
0.0
 30
0.0
  9
$USERI1
 70
     0
  9
$USERI2
 70
     0
  9
$USERI3
 70
     0
  9
$USERI4
 70
     0
  9
$USERI5
 70
     0
  9
$USERR1
 40
0.0
  9
$USERR2
 40
0.0
  9
$USERR3
 40
0.0
  9
$USERR4
 40
0.0
  9
$USERR5
 40
0.0
  9
$WORLDVIEW
 70
     1
  9
$SHADEDGE
 70
     3
  9
$SHADEDIF
 70
    70
  9
$TILEMODE
 70
     1
  9
$MAXACTVP
 70
    64
  9
$PINSBASE
 10
0.0
 20
0.0
 30
0.0
  9
$PLIMCHECK
 70
     0
  9
$PEXTMIN
 10
1.0000000000E+20
 20
1.0000000000E+20
 30
1.0000000000E+20
  9
$PEXTMAX
 10
-1.0000000000E+20
 20
-1.0000000000E+20
 30
-1.0000000000E+20
  9
$PLIMMIN
 10
0.0
 20
0.0
  9
$PLIMMAX
 10
12.0
 20
9.0
  9
$UNITMODE
 70
     0
  9
$VISRETAIN
 70
     1
  9
$PLINEGEN
 70
     0
  9
$PSLTSCALE
 70
     1
  9
$TREEDEPTH
 70
  3020
  9
$CMLSTYLE
  2
Standard
  9
$CMLJUST
 70
     0
  9
$CMLSCALE
 40
1.0
  9
$PROXYGRAPHICS
 70
     1
  9
$MEASUREMENT
 70
     0
  9
$CELWEIGHT
370
    -1
  9
$ENDCAPS
280
     0
  9
$JOINSTYLE
280
     0
  9
$LWDISPLAY
290
     1
  9
$INSUNITS
 70
     1
  9
$HYPERLINKBASE
  1

  9
$STYLESHEET
  1

  9
$XEDIT
290
     1
  9
$CEPSNTYPE
380
     0
  9
$PSTYLEMODE
290
     1
  9
$FINGERPRINTGUID
  2
{ED41C434-92F3-41B2-B83C-DB49FF5D05FD}
  9
$VERSIONGUID
  2
{FAEB1C32-E019-11D5-929B-00C0DF256EC4}
  9
$EXTNAMES
290
     1
  9
$PSVPSCALE
 40
0.0
  9
$OLESTARTUP
290
     0
  0
ENDSEC
  0
SECTION
  2
CLASSES
  0
CLASS
  1
ACDBDICTIONARYWDFLT
  2
AcDbDictionaryWithDefault
  3
ObjectDBX Classes
 90
        0
280
     0
281
     0
  0
CLASS
  1
VISUALSTYLE
  2
AcDbVisualStyle
  3
ObjectDBX Classes
 90
     4095
280
     0
281
     0
  0
CLASS
  1
MATERIAL
  2
AcDbMaterial
  3
ObjectDBX Classes
 90
     1153
280
     0
281
     0
  0
CLASS
  1
SCALE
  2
AcDbScale
  3
ObjectDBX Classes
 90
     1153
280
     0
281
     0
  0
CLASS
  1
DICTIONARYVAR
  2
AcDbDictionaryVar
  3
ObjectDBX Classes
 90
        0
280
     0
281
     0
  0
CLASS
  1
ACDBPLACEHOLDER
  2
AcDbPlaceHolder
  3
ObjectDBX Classes
 90
        0
280
     0
281
     0
  0
CLASS
  1
LAYOUT
  2
AcDbLayout
  3
ObjectDBX Classes
 90
        0
280
     0
281
     0
  0
ENDSEC
  0
SECTION
  2
TABLES
  0
TABLE
  2
VPORT
  5
8
330
0
100
AcDbSymbolTable
 70
     1
  0
VPORT
  5
29
330
8
100
AcDbSymbolTableRecord
100
AcDbViewportTableRecord
  2
*Active
 70
     0
 10
0.0
 20
0.0
 11
1.0
 21
1.0
 12
14.875
 22
9.625
 13
0.0
 23
0.0
 14
0.5
 24
0.5
 15
0.5
 25
0.5
 16
0.0
 26
0.0
 36
1.0
 17
0.0
 27
0.0
 37
0.0
 40
19.25
 41
1.5454545455
 42
50.0
 43
0.0
 44
0.0
 50
0.0
 51
0.0
 71
     0
 72
  2000
 73
     1
 74
     3
 75
     0
 76
     0
 77
     0
 78
     0
281
     0
 65
     1
110
0.0
120
0.0
130
0.0
111
1.0
121
0.0
131
0.0
112
0.0
122
1.0
132
0.0
 79
     0
146
0.0
  0
ENDTAB
  0
TABLE
  2
LTYPE
  5
5
330
0
100
AcDbSymbolTable
 70
     6
  0
LTYPE
  5
14
330
5
100
AcDbSymbolTableRecord
100
AcDbLinetypeTableRecord
  2
ByBlock
 70
     0
  3

 72
    65
 73
     0
 40
0.0
  0
LTYPE
  5
15
330
5
100
AcDbSymbolTableRecord
100
AcDbLinetypeTableRecord
  2
ByLayer
 70
     0
  3

 72
    65
 73
     0
 40
0.0
  0
LTYPE
  5
16
330
5
100
AcDbSymbolTableRecord
100
AcDbLinetypeTableRecord
  2
Continuous
 70
     0
  3
Solid line
 72
    65
 73
     0
 40
0.0
  0
LTYPE
  5
3F
330
5
100
AcDbSymbolTableRecord
100
AcDbLinetypeTableRecord
  2
HIDDEN
 70
     0
  3
Hidden __ __ __ __ __ __ __ __ __ __ __ __ __ __
 72
    65
 73
     2
 40
0.075
 49
0.05
 74
     0
 49
-0.025
 74
     0
  0
LTYPE
  5
40
330
5
100
AcDbSymbolTableRecord
100
AcDbLinetypeTableRecord
  2
PHANTOM
 70
     0
  3
Phantom ______  __  __  ______  __  __  ______
 72
    65
 73
     6
 40
0.5
 49
0.25
 74
     0
 49
-0.05
 74
     0
 49
0.05
 74
     0
 49
-0.05
 74
     0
 49
0.05
 74
     0
 49
-0.05
 74
     0
  0
LTYPE
  5
41
330
5
100
AcDbSymbolTableRecord
100
AcDbLinetypeTableRecord
  2
CENTER
 70
     0
  3
Center ____ _ ____ _ ____ _ ____ _ ____ _ ____
 72
    65
 73
     4
 40
0.4
 49
0.25
 74
     0
 49
-0.05
 74
     0
 49
0.05
 74
     0
 49
-0.05
 74
     0
  0
LTYPE
  5
42
330
5
100
AcDbSymbolTableRecord
100
AcDbLinetypeTableRecord
  2
CENTERX2
 70
     0
  3
Center (2x) ________  __  ________  __  _____
 72
    65
 73
     4
 40
0.8
 49
0.5
 74
     0
 49
-0.1
 74
     0
 49
0.1
 74
     0
 49
-0.1
 74
     0
  0
LTYPE
  5
43
330
5
100
AcDbSymbolTableRecord
100
AcDbLinetypeTableRecord
  2
DOT2
 70
     0
  3
Dot (.5x) ........................................
 72
    65
 73
     2
 40
0.025
 49
0.0
 74
     0
 49
-0.025
 74
     0
  0
ENDTAB
  0
TABLE
  2
LAYER
  5
2
330
0
100
AcDbSymbolTable
 70
     1
  0
LAYER
  5
10
330
2
100
AcDbSymbolTableRecord
100
AcDbLayerTableRecord
  2
0
 70
     0
 62
     7
  6
Continuous
370
    -3
390
F
  0
ENDTAB
  0
TABLE
  2
STYLE
  5
3
330
0
100
AcDbSymbolTable
 70
     2
  0
STYLE
  5
11
330
3
100
AcDbSymbolTableRecord
100
AcDbTextStyleTableRecord
  2
Standard
 70
     0
 40
0.0
 41
1.0
 50
0.0
 71
     0
 42
0.2
  3
txt
  4

  0
STYLE
  5
77
330
3
100
AcDbSymbolTableRecord
100
AcDbTextStyleTableRecord
  2
SLDTEXTSTYLE0
 70
     0
 40
0.0
 41
0.75
 50
0.0
 71
     0
 42
0.2
  3
TXT
  4

  0
ENDTAB
  0
TABLE
  2
VIEW
  5
6
330
0
100
AcDbSymbolTable
 70
     0
  0
ENDTAB
  0
TABLE
  2
UCS
  5
7
330
0
100
AcDbSymbolTable
 70
     0
  0
ENDTAB
  0
TABLE
  2
APPID
  5
9
330
0
100
AcDbSymbolTable
 70
     1
  0
APPID
  5
12
330
9
100
AcDbSymbolTableRecord
100
AcDbRegAppTableRecord
  2
ACAD
 70
     0
  0
ENDTAB
  0
TABLE
  2
DIMSTYLE
  5
A
330
0
100
AcDbSymbolTable
 70
     6
100
AcDbDimStyleTable
  0
DIMSTYLE
105
27
330
A
100
AcDbSymbolTableRecord
100
AcDbDimStyleTableRecord
  2
Standard
 70
     0
340
11
  0
DIMSTYLE
105
78
102
{ACAD_REACTORS
330
54
330
313
330
325
330
4F4
102
}
330
A
100
AcDbSymbolTableRecord
100
AcDbDimStyleTableRecord
  2
SLDDIMSTYLE0
 70
     0
 41
0.2275
 44
0.0
 45
0.000000001
 78
     4
140
0.21875
147
0.0546875
148
0.000000001
170
     1
173
     1
271
     2
272
     2
284
    12
340
77
  0
DIMSTYLE
105
13D
102
{ACAD_REACTORS
330
13C
330
163
330
29B
330
301
330
4E2
102
}
330
A
100
AcDbSymbolTableRecord
100
AcDbDimStyleTableRecord
  2
SLDDIMSTYLE1
 70
     0
 41
0.2275
 44
0.0
 45
0.000000001
 78
    12
140
0.21875
147
0.0546875
148
0.000000001
170
     1
173
     1
271
     2
272
     2
284
    12
340
77
  0
DIMSTYLE
105
151
102
{ACAD_REACTORS
330
150
102
}
330
A
100
AcDbSymbolTableRecord
100
AcDbDimStyleTableRecord
  2
SLDDIMSTYLE2
 70
     0
 41
0.2275
 44
0.0
 45
0.000000001
 78
    12
140
0.21875
147
0.0546875
148
0.000000001
170
     1
173
     1
271
     2
272
     2
284
    12
340
77
  0
DIMSTYLE
105
176
102
{ACAD_REACTORS
330
175
102
}
330
A
100
AcDbSymbolTableRecord
100
AcDbDimStyleTableRecord
  2
SLDDIMSTYLE3
 70
     0
 41
0.2275
 44
0.0
 45
0.000000001
 78
    12
140
0.21875
147
0.0546875
148
0.000000001
170
     1
172
     1
173
     1
271
     2
272
     2
284
    12
340
77
  0
DIMSTYLE
105
18F
330
A
100
AcDbSymbolTableRecord
100
AcDbDimStyleTableRecord
  2
SLDDIMSTYLE4
 70
     0
 41
0.2275
 44
0.0
 45
0.000000001
140
0.0
146
0.2275
147
0.0
173
     1
271
     0
272
     0
340
11
  0
ENDTAB
  0
TABLE
  2
BLOCK_RECORD
  5
1
330
0
100
AcDbSymbolTable
 70
    22
  0
BLOCK_RECORD
  5
1F
330
1
100
AcDbSymbolTableRecord
100
AcDbBlockTableRecord
  2
*Model_Space
340
22
  0
BLOCK_RECORD
  5
1B
330
1
100
AcDbSymbolTableRecord
100
AcDbBlockTableRecord
  2
*Paper_Space
340
1E
  0
BLOCK_RECORD
  5
23
330
1
100
AcDbSymbolTableRecord
100
AcDbBlockTableRecord
  2
*Paper_Space0
340
26
  0
BLOCK_RECORD
  5
79
330
1
100
AcDbSymbolTableRecord
100
AcDbBlockTableRecord
  2
*D1
340
0
  0
BLOCK_RECORD
  5
8A
330
1
100
AcDbSymbolTableRecord
100
AcDbBlockTableRecord
  2
SW_NOTE_0
340
0
102
{BLKREFS
331
90
102
}
  0
BLOCK_RECORD
  5
94
330
1
100
AcDbSymbolTableRecord
100
AcDbBlockTableRecord
  2
SW_NOTE_1
340
0
102
{BLKREFS
331
99
102
}
  0
BLOCK_RECORD
  5
9A
330
1
100
AcDbSymbolTableRecord
100
AcDbBlockTableRecord
  2
SW_NOTE_2
340
0
102
{BLKREFS
331
9F
102
}
  0
BLOCK_RECORD
  5
A0
330
1
100
AcDbSymbolTableRecord
100
AcDbBlockTableRecord
  2
SW_NOTE_3
340
0
102
{BLKREFS
331
A5
102
}
  0
BLOCK_RECORD
  5
13E
330
1
100
AcDbSymbolTableRecord
100
AcDbBlockTableRecord
  2
*D6
340
0
  0
BLOCK_RECORD
  5
152
330
1
100
AcDbSymbolTableRecord
100
AcDbBlockTableRecord
  2
*D7
340
0
  0
BLOCK_RECORD
  5
164
330
1
100
AcDbSymbolTableRecord
100
AcDbBlockTableRecord
  2
*D8
340
0
  0
BLOCK_RECORD
  5
177
330
1
100
AcDbSymbolTableRecord
100
AcDbBlockTableRecord
  2
*D9
340
0
  0
BLOCK_RECORD
  5
186
330
1
100
AcDbSymbolTableRecord
100
AcDbBlockTableRecord
  2
SW_NOTE_4
340
0
102
{BLKREFS
331
18E
102
}
  0
BLOCK_RECORD
  5
191
330
1
100
AcDbSymbolTableRecord
100
AcDbBlockTableRecord
  2
SW_CENTERMARKSYMBOL_0
340
0
102
{BLKREFS
331
198
102
}
  0
BLOCK_RECORD
  5
199
330
1
100
AcDbSymbolTableRecord
100
AcDbBlockTableRecord
  2
SW_CENTERMARKSYMBOL_1
340
0
102
{BLKREFS
331
1A0
102
}
  0
BLOCK_RECORD
  5
29C
330
1
100
AcDbSymbolTableRecord
100
AcDbBlockTableRecord
  2
*D13
340
0
  0
BLOCK_RECORD
  5
2AD
330
1
100
AcDbSymbolTableRecord
100
AcDbBlockTableRecord
  2
SW_NOTE_5
340
0
102
{BLKREFS
331
2B3
102
}
  0
BLOCK_RECORD
  5
302
330
1
100
AcDbSymbolTableRecord
100
AcDbBlockTableRecord
  2
*D15
340
0
  0
BLOCK_RECORD
  5
314
330
1
100
AcDbSymbolTableRecord
100
AcDbBlockTableRecord
  2
*D16
340
0
  0
BLOCK_RECORD
  5
326
330
1
100
AcDbSymbolTableRecord
100
AcDbBlockTableRecord
  2
*D17
340
0
  0
BLOCK_RECORD
  5
4E3
330
1
100
AcDbSymbolTableRecord
100
AcDbBlockTableRecord
  2
*D18
340
0
  0
BLOCK_RECORD
  5
4F5
330
1
100
AcDbSymbolTableRecord
100
AcDbBlockTableRecord
  2
*D19
340
0
  0
BLOCK_RECORD
  5
506
330
1
100
AcDbSymbolTableRecord
100
AcDbBlockTableRecord
  2
SW_NOTE_6
340
0
102
{BLKREFS
331
50F
102
}
  0
BLOCK_RECORD
  5
511
330
1
100
AcDbSymbolTableRecord
100
AcDbBlockTableRecord
  2
SW_NOTE_7
340
0
102
{BLKREFS
331
516
102
}
  0
ENDTAB
  0
ENDSEC
  0
SECTION
  2
BLOCKS
  0
BLOCK
  5
20
330
1F
100
AcDbEntity
  8
0
100
AcDbBlockBegin
  2
*Model_Space
 70
     0
 10
0.0
 20
0.0
 30
0.0
  3
*Model_Space
  1

  0
ENDBLK
  5
21
330
1F
100
AcDbEntity
  8
0
100
AcDbBlockEnd
  0
BLOCK
  5
1C
330
1B
100
AcDbEntity
 67
     1
  8
0
100
AcDbBlockBegin
  2
*Paper_Space
 70
     0
 10
0.0
 20
0.0
 30
0.0
  3
*Paper_Space
  1

  0
ENDBLK
  5
1D
330
1B
100
AcDbEntity
 67
     1
  8
0
100
AcDbBlockEnd
  0
BLOCK
  5
24
330
23
100
AcDbEntity
  8
0
100
AcDbBlockBegin
  2
*Paper_Space0
 70
     0
 10
0.0
 20
0.0
 30
0.0
  3
*Paper_Space0
  1

  0
ENDBLK
  5
25
330
23
100
AcDbEntity
  8
0
100
AcDbBlockEnd
  0
BLOCK
  5
7A
330
79
100
AcDbEntity
  8
0
100
AcDbBlockBegin
  2
*D1
 70
     1
 10
0.0
 20
0.0
 30
0.0
  3
*D1
  1

  0
SOLID
  5
7C
330
79
100
AcDbEntity
  8
0
  6
Continuous
 62
     7
 48
1.75
370
     0
100
AcDbTrace
 10
23.0392962991
 20
12.8748298615
 30
0.0
 11
23.0042962991
 21
12.6473298615
 31
0.0
 12
23.0742962991
 22
12.6473298615
 32
0.0
 13
23.0742962991
 23
12.6473298615
 33
0.0
  0
SOLID
  5
7D
330
79
100
AcDbEntity
  8
0
  6
Continuous
 62
     7
 48
1.75
370
     0
100
AcDbTrace
 10
23.0392962991
 20
4.3748298615
 30
0.0
 11
23.0742962991
 21
4.6023298615
 31
0.0
 12
23.0042962991
 22
4.6023298615
 32
0.0
 13
23.0042962991
 23
4.6023298615
 33
0.0
  0
LINE
  5
7E
330
79
100
AcDbEntity
  8
0
  6
Continuous
 62
     7
 48
1.75
370
     0
100
AcDbLine
 10
22.586882027
 20
8.5987927472
 30
0.0
 11
22.586882027
 21
8.3037054519
 31
0.0
  0
LINE
  5
7F
330
79
100
AcDbEntity
  8
0
  6
Continuous
 62
     7
 48
1.75
370
     0
100
AcDbLine
 10
22.586882027
 20
8.3037054519
 30
0.0
 11
22.6312837328
 21
8.3037054519
 31
0.0
  0
LINE
  5
80
330
79
100
AcDbEntity
  8
0
  6
Continuous
 62
     7
 48
1.75
370
     0
100
AcDbLine
 10
22.586882027
 20
8.5987927472
 30
0.0
 11
22.6312837328
 21
8.5987927472
 31
0.0
  0
LINE
  5
81
330
79
100
AcDbEntity
  8
0
  6
Continuous
 62
     7
 48
1.75
370
     0
100
AcDbLine
 10
23.4917105713
 20
8.5987927472
 30
0.0
 11
23.4917105713
 21
8.3037054519
 31
0.0
  0
LINE
  5
82
330
79
100
AcDbEntity
  8
0
  6
Continuous
 62
     7
 48
1.75
370
     0
100
AcDbLine
 10
23.4917105713
 20
8.3037054519
 30
0.0
 11
23.4473088655
 21
8.3037054519
 31
0.0
  0
LINE
  5
83
330
79
100
AcDbEntity
  8
0
  6
Continuous
 62
     7
 48
1.75
370
     0
100
AcDbLine
 10
23.4917105713
 20
8.5987927472
 30
0.0
 11
23.4473088655
 21
8.5987927472
 31
0.0
  0
LINE
  5
84
330
79
100
AcDbEntity
  8
0
  6
Continuous
 62
     7
 48
1.75
370
     0
100
AcDbLine
 10
21.9996861731
 20
12.8748298615
 30
0.0
 11
23.2580462991
 21
12.8748298615
 31
0.0
  0
LINE
  5
85
330
79
100
AcDbEntity
  8
0
  6
Continuous
 62
     7
 48
1.75
370
     0
100
AcDbLine
 10
21.9996861731
 20
4.3748298615
 30
0.0
 11
23.2580462991
 21
4.3748298615
 31
0.0
  0
LINE
  5
86
330
79
100
AcDbEntity
  8
0
  6
Continuous
 62
     7
 48
1.75
370
     0
100
AcDbLine
 10
23.0392962991
 20
12.8748298615
 30
0.0
 11
23.0392962991
 21
8.9719913854
 31
0.0
  0
LINE
  5
87
330
79
100
AcDbEntity
  8
0
  6
Continuous
 62
     7
 48
1.75
370
     0
100
AcDbLine
 10
23.0392962991
 20
4.3748298615
 30
0.0
 11
23.0392962991
 21
8.2776683376
 31
0.0
  0
MTEXT
  5
88
330
79
100
AcDbEntity
  8
0
  6
Continuous
 62
     7
 48
1.75
370
     0
100
AcDbMText
 10
22.7565517578
 20
8.9068134175
 30
0.0
 40
0.21875
 41
0.0
 71
     1
 72
     1
  1
8.50
  7
SLDTEXTSTYLE0
 73
     1
 44
1.0
  0
MTEXT
  5
89
330
79
100
AcDbEntity
  8
0
  6
Continuous
 62
     7
 48
1.75
370
     0
100
AcDbMText
 10
22.6756854386
 20
8.5596518936
 30
0.0
 40
0.21875
 41
0.0
 71
     1
 72
     1
  1
215.9
  7
SLDTEXTSTYLE0
 73
     1
 44
1.0
  0
ENDBLK
  5
7B
330
79
100
AcDbEntity
  8
0
100
AcDbBlockEnd
  0
BLOCK
  5
8B
330
8A
100
AcDbEntity
  8
0
100
AcDbBlockBegin
  2
SW_NOTE_0
 70
     0
 10
0.0
 20
0.0
 30
0.0
  3
SW_NOTE_0
  1

  0
MTEXT
  5
8D
330
8A
100
AcDbEntity
  8
0
  6
Continuous
 62
     0
 48
1.75
370
     0
100
AcDbMText
 10
0.0
 20
0.2819835681
 30
0.0
 40
0.21875
 41
0.0
 71
     1
 72
     1
  1
MATERIAL - 14 GA. [2.0mm] STEEL
  7
SLDTEXTSTYLE0
 73
     1
 44
1.0
  0
MTEXT
  5
8E
330
8A
100
AcDbEntity
  8
0
  6
Continuous
 62
     0
 48
1.75
370
     0
100
AcDbMText
 10
0.0
 20
-0.2933116927
 30
0.0
 40
0.21875
 41
0.0
 71
     1
 72
     1
  1
FINISH - SMOOTH GRAY POWDERCOAT
  7
SLDTEXTSTYLE0
 73
     1
 44
1.0
  0
MTEXT
  5
8F
330
8A
100
AcDbEntity
  8
0
  6
Continuous
 62
     0
 48
1.75
370
     0
100
AcDbMText
 10
0.0
 20
-0.5809593231
 30
0.0
 40
0.21875
 41
0.0
 71
     1
 72
     1
  1
              UL LISTED TYPE DTOV2
  7
SLDTEXTSTYLE0
 73
     1
 44
1.0
  0
ENDBLK
  5
8C
330
8A
100
AcDbEntity
  8
0
100
AcDbBlockEnd
  0
BLOCK
  5
95
330
94
100
AcDbEntity
  8
0
100
AcDbBlockBegin
  2
SW_NOTE_1
 70
     0
 10
0.0
 20
0.0
 30
0.0
  3
SW_NOTE_1
  1

  0
MTEXT
  5
97
330
94
100
AcDbEntity
  8
0
  6
Continuous
 62
     0
 48
1.75
370
     0
100
AcDbMText
 10
0.0
 20
0.2819835681
 30
0.0
 40
0.21875
 41
0.0
 71
     1
 72
     1
  1
PART
  7
SLDTEXTSTYLE0
 73
     1
 44
1.0
  0
MTEXT
  5
98
330
94
100
AcDbEntity
  8
0
  6
Continuous
 62
     0
 48
1.75
370
     0
100
AcDbMText
 10
-0.0815565274
 20
-0.0056640623
 30
0.0
 40
0.21875
 41
0.0
 71
     1
 72
     1
  1
NAME
  7
SLDTEXTSTYLE0
 73
     1
 44
1.0
  0
ENDBLK
  5
96
330
94
100
AcDbEntity
  8
0
100
AcDbBlockEnd
  0
BLOCK
  5
9B
330
9A
100
AcDbEntity
  8
0
100
AcDbBlockBegin
  2
SW_NOTE_2
 70
     0
 10
0.0
 20
0.0
 30
0.0
  3
SW_NOTE_2
  1

  0
MTEXT
  5
9D
330
9A
100
AcDbEntity
  8
0
  6
Continuous
 62
     0
 48
1.75
370
     0
100
AcDbMText
 10
0.0
 20
0.2819835681
 30
0.0
 40
0.21875
 41
0.0
 71
     1
 72
     1
  1
PART
  7
SLDTEXTSTYLE0
 73
     1
 44
1.0
  0
MTEXT
  5
9E
330
9A
100
AcDbEntity
  8
0
  6
Continuous
 62
     0
 48
1.75
370
     0
100
AcDbMText
 10
0.1021592917
 20
-0.0056640623
 30
0.0
 40
0.21875
 41
0.0
 71
     1
 72
     1
  1
No.
  7
SLDTEXTSTYLE0
 73
     1
 44
1.0
  0
ENDBLK
  5
9C
330
9A
100
AcDbEntity
  8
0
100
AcDbBlockEnd
  0
BLOCK
  5
A1
330
A0
100
AcDbEntity
  8
0
100
AcDbBlockBegin
  2
SW_NOTE_3
 70
     0
 10
0.0
 20
0.0
 30
0.0
  3
SW_NOTE_3
  1

  0
MTEXT
  5
A3
330
A0
100
AcDbEntity
  8
0
  6
Continuous
 62
     0
 48
1.75
370
     0
100
AcDbMText
 10
0.0
 20
0.2819835681
 30
0.0
 40
0.21875
 41
0.0
 71
     1
 72
     1
  1
REVISION
  7
SLDTEXTSTYLE0
 73
     1
 44
1.0
  0
MTEXT
  5
A4
330
A0
100
AcDbEntity
  8
0
  6
Continuous
 62
     0
 48
1.75
370
     0
100
AcDbMText
 10
0.2733995225
 20
-0.0056640623
 30
0.0
 40
0.21875
 41
0.0
 71
     1
 72
     1
  1
DATE
  7
SLDTEXTSTYLE0
 73
     1
 44
1.0
  0
ENDBLK
  5
A2
330
A0
100
AcDbEntity
  8
0
100
AcDbBlockEnd
  0
BLOCK
  5
13F
330
13E
100
AcDbEntity
  8
0
100
AcDbBlockBegin
  2
*D6
 70
     1
 10
0.0
 20
0.0
 30
0.0
  3
*D6
  1

  0
SOLID
  5
141
330
13E
100
AcDbEntity
  8
0
  6
Continuous
 62
     7
 48
1.75
370
     0
100
AcDbTrace
 10
1.9957852804
 20
10.8748298615
 30
0.0
 11
1.9607852804
 21
10.6473298615
 31
0.0
 12
2.0307852804
 22
10.6473298615
 32
0.0
 13
2.0307852804
 23
10.6473298615
 33
0.0
  0
SOLID
  5
142
330
13E
100
AcDbEntity
  8
0
  6
Continuous
 62
     7
 48
1.75
370
     0
100
AcDbTrace
 10
1.9957852804
 20
8.6248298615
 30
0.0
 11
2.0307852804
 21
8.8523298615
 31
0.0
 12
1.9607852804
 22
8.8523298615
 32
0.0
 13
1.9607852804
 23
8.8523298615
 33
0.0
  0
LINE
  5
143
330
13E
100
AcDbEntity
  8
0
  6
Continuous
 62
     7
 48
1.75
370
     0
100
AcDbLine
 10
1.3088241735
 20
9.7237927472
 30
0.0
 11
1.3088241735
 21
9.4287054519
 31
0.0
  0
LINE
  5
144
330
13E
100
AcDbEntity
  8
0
  6
Continuous
 62
     7
 48
1.75
370
     0
100
AcDbLine
 10
1.3088241735
 20
9.4287054519
 30
0.0
 11
1.3532258793
 21
9.4287054519
 31
0.0
  0
LINE
  5
145
330
13E
100
AcDbEntity
  8
0
  6
Continuous
 62
     7
 48
1.75
370
     0
100
AcDbLine
 10
1.3088241735
 20
9.7237927472
 30
0.0
 11
1.3532258793
 21
9.7237927472
 31
0.0
  0
LINE
  5
146
330
13E
100
AcDbEntity
  8
0
  6
Continuous
 62
     7
 48
1.75
370
     0
100
AcDbLine
 10
2.0519200794
 20
9.7237927472
 30
0.0
 11
2.0519200794
 21
9.4287054519
 31
0.0
  0
LINE
  5
147
330
13E
100
AcDbEntity
  8
0
  6
Continuous
 62
     7
 48
1.75
370
     0
100
AcDbLine
 10
2.0519200794
 20
9.4287054519
 30
0.0
 11
2.0075183736
 21
9.4287054519
 31
0.0
  0
LINE
  5
148
330
13E
100
AcDbEntity
  8
0
  6
Continuous
 62
     7
 48
1.75
370
     0
100
AcDbLine
 10
2.0519200794
 20
9.7237927472
 30
0.0
 11
2.0075183736
 21
9.7237927472
 31
0.0
  0
LINE
  5
149
330
13E
100
AcDbEntity
  8
0
  6
Continuous
 62
     7
 48
1.75
370
     0
100
AcDbLine
 10
4.5175402157
 20
10.8748298615
 30
0.0
 11
1.7770352804
 21
10.8748298615
 31
0.0
  0
LINE
  5
14A
330
13E
100
AcDbEntity
  8
0
  6
Continuous
 62
     7
 48
1.75
370
     0
100
AcDbLine
 10
4.5175402157
 20
8.6248298615
 30
0.0
 11
1.7770352804
 21
8.6248298615
 31
0.0
  0
LINE
  5
14B
330
13E
100
AcDbEntity
  8
0
  6
Continuous
 62
     7
 48
1.75
370
     0
100
AcDbLine
 10
1.9957852804
 20
10.8748298615
 30
0.0
 11
1.9957852804
 21
10.0969913854
 31
0.0
  0
LINE
  5
14C
330
13E
100
AcDbEntity
  8
0
  6
Continuous
 62
     7
 48
1.75
370
     0
100
AcDbLine
 10
1.9957852804
 20
8.6248298615
 30
0.0
 11
1.9957852804
 21
9.4026683376
 31
0.0
  0
MTEXT
  5
14D
330
13E
100
AcDbEntity
  8
0
  6
Continuous
 62
     7
 48
1.75
370
     0
100
AcDbMText
 10
1.3976275851
 20
10.0318134175
 30
0.0
 40
0.21875
 41
0.0
 71
     1
 72
     1
  1
2.25
  7
SLDTEXTSTYLE0
 73
     1
 44
1.0
  0
MTEXT
  5
14E
330
13E
100
AcDbEntity
  8
0
  6
Continuous
 62
     7
 48
1.75
370
     0
100
AcDbMText
 10
2.1407234911
 20
10.0318134175
 30
0.0
 40
0.21875
 41
0.0
 71
     1
 72
     1
  1
 TYP.
  7
SLDTEXTSTYLE0
 73
     1
 44
1.0
  0
MTEXT
  5
14F
330
13E
100
AcDbEntity
  8
0
  6
Continuous
 62
     7
 48
1.75
370
     0
100
AcDbMText
 10
1.3976275851
 20
9.6846518936
 30
0.0
 40
0.21875
 41
0.0
 71
     1
 72
     1
  1
57.2
  7
SLDTEXTSTYLE0
 73
     1
 44
1.0
  0
ENDBLK
  5
140
330
13E
100
AcDbEntity
  8
0
100
AcDbBlockEnd
  0
BLOCK
  5
153
330
152
100
AcDbEntity
  8
0
100
AcDbBlockBegin
  2
*D7
 70
     1
 10
0.0
 20
0.0
 30
0.0
  3
*D7
  1

  0
SOLID
  5
155
330
152
100
AcDbEntity
  8
0
  6
Continuous
 62
     7
 48
1.75
370
     0
100
AcDbTrace
 10
4.7000402157
 20
13.5586276563
 30
0.0
 11
4.9275402157
 21
13.5236276563
 31
0.0
 12
4.9275402157
 22
13.5936276563
 32
0.0
 13
4.9275402157
 23
13.5936276563
 33
0.0
  0
SOLID
  5
156
330
152
100
AcDbEntity
  8
0
  6
Continuous
 62
     7
 48
1.75
370
     0
100
AcDbTrace
 10
4.5100402157
 20
13.5586276563
 30
0.0
 11
4.2825402157
 21
13.5936276563
 31
0.0
 12
4.2825402157
 22
13.5236276563
 32
0.0
 13
4.2825402157
 23
13.5236276563
 33
0.0
  0
LINE
  5
157
330
152
100
AcDbEntity
  8
0
  6
Continuous
 62
     7
 48
1.75
370
     0
100
AcDbLine
 10
5.4051928138
 20
13.532590542
 30
0.0
 11
5.4051928138
 21
13.2375032467
 31
0.0
  0
LINE
  5
158
330
152
100
AcDbEntity
  8
0
  6
Continuous
 62
     7
 48
1.75
370
     0
100
AcDbLine
 10
5.4051928138
 20
13.2375032467
 30
0.0
 11
5.4495945196
 21
13.2375032467
 31
0.0
  0
LINE
  5
159
330
152
100
AcDbEntity
  8
0
  6
Continuous
 62
     7
 48
1.75
370
     0
100
AcDbLine
 10
5.4051928138
 20
13.532590542
 30
0.0
 11
5.4495945196
 21
13.532590542
 31
0.0
  0
LINE
  5
15A
330
152
100
AcDbEntity
  8
0
  6
Continuous
 62
     7
 48
1.75
370
     0
100
AcDbLine
 10
5.986786142
 20
13.532590542
 30
0.0
 11
5.986786142
 21
13.2375032467
 31
0.0
  0
LINE
  5
15B
330
152
100
AcDbEntity
  8
0
  6
Continuous
 62
     7
 48
1.75
370
     0
100
AcDbLine
 10
5.986786142
 20
13.2375032467
 30
0.0
 11
5.9423844362
 21
13.2375032467
 31
0.0
  0
LINE
  5
15C
330
152
100
AcDbEntity
  8
0
  6
Continuous
 62
     7
 48
1.75
370
     0
100
AcDbLine
 10
5.986786142
 20
13.532590542
 30
0.0
 11
5.9423844362
 21
13.532590542
 31
0.0
  0
LINE
  5
15D
330
152
100
AcDbEntity
  8
0
  6
Continuous
 62
     7
 48
1.75
370
     0
100
AcDbLine
 10
4.7000402157
 20
11.6423298615
 30
0.0
 11
4.7000402157
 21
13.7773776563
 31
0.0
  0
LINE
  5
15E
330
152
100
AcDbEntity
  8
0
  6
Continuous
 62
     7
 48
1.75
370
     0
100
AcDbLine
 10
4.5100402157
 20
11.6423298615
 30
0.0
 11
4.5100402157
 21
13.7773776563
 31
0.0
  0
LINE
  5
15F
330
152
100
AcDbEntity
  8
0
  6
Continuous
 62
     7
 48
1.75
370
     0
100
AcDbLine
 10
4.7000402157
 20
13.5586276563
 30
0.0
 11
5.1626702114
 21
13.5586276563
 31
0.0
  0
LINE
  5
160
330
152
100
AcDbEntity
  8
0
  6
Continuous
 62
     7
 48
1.75
370
     0
100
AcDbLine
 10
4.5100402157
 20
13.5586276563
 30
0.0
 11
4.0725402157
 21
13.5586276563
 31
0.0
  0
MTEXT
  5
161
330
152
100
AcDbEntity
  8
0
  6
Continuous
 62
     7
 48
1.75
370
     0
100
AcDbMText
 10
5.4939962254
 20
13.8406112123
 30
0.0
 40
0.21875
 41
0.0
 71
     1
 72
     1
  1
.19
  7
SLDTEXTSTYLE0
 73
     1
 44
1.0
  0
MTEXT
  5
162
330
152
100
AcDbEntity
  8
0
  6
Continuous
 62
     7
 48
1.75
370
     0
100
AcDbMText
 10
5.4939962254
 20
13.4934496884
 30
0.0
 40
0.21875
 41
0.0
 71
     1
 72
     1
  1
4.8
  7
SLDTEXTSTYLE0
 73
     1
 44
1.0
  0
ENDBLK
  5
154
330
152
100
AcDbEntity
  8
0
100
AcDbBlockEnd
  0
BLOCK
  5
165
330
164
100
AcDbEntity
  8
0
100
AcDbBlockBegin
  2
*D8
 70
     1
 10
0.0
 20
0.0
 30
0.0
  3
*D8
  1

  0
SOLID
  5
167
330
164
100
AcDbEntity
  8
0
  6
Continuous
 62
     7
 48
1.75
370
     0
100
AcDbTrace
 10
6.8996012903
 20
11.5548298615
 30
0.0
 11
6.8646012903
 21
11.3273298615
 31
0.0
 12
6.9346012903
 22
11.3273298615
 32
0.0
 13
6.9346012903
 23
11.3273298615
 33
0.0
  0
SOLID
  5
168
330
164
100
AcDbEntity
  8
0
  6
Continuous
 62
     7
 48
1.75
370
     0
100
AcDbTrace
 10
6.8996012903
 20
10.1948298615
 30
0.0
 11
6.9346012903
 21
10.4223298615
 31
0.0
 12
6.8646012903
 22
10.4223298615
 32
0.0
 13
6.8646012903
 23
10.4223298615
 33
0.0
  0
LINE
  5
169
330
164
100
AcDbEntity
  8
0
  6
Continuous
 62
     7
 48
1.75
370
     0
100
AcDbLine
 10
6.5280533373
 20
10.8487927472
 30
0.0
 11
6.5280533373
 21
10.5537054519
 31
0.0
  0
LINE
  5
16A
330
164
100
AcDbEntity
  8
0
  6
Continuous
 62
     7
 48
1.75
370
     0
100
AcDbLine
 10
6.5280533373
 20
10.5537054519
 30
0.0
 11
6.5724550432
 21
10.5537054519
 31
0.0
  0
LINE
  5
16B
330
164
100
AcDbEntity
  8
0
  6
Continuous
 62
     7
 48
1.75
370
     0
100
AcDbLine
 10
6.5280533373
 20
10.8487927472
 30
0.0
 11
6.5724550432
 21
10.8487927472
 31
0.0
  0
LINE
  5
16C
330
164
100
AcDbEntity
  8
0
  6
Continuous
 62
     7
 48
1.75
370
     0
100
AcDbLine
 10
7.2711492433
 20
10.8487927472
 30
0.0
 11
7.2711492433
 21
10.5537054519
 31
0.0
  0
LINE
  5
16D
330
164
100
AcDbEntity
  8
0
  6
Continuous
 62
     7
 48
1.75
370
     0
100
AcDbLine
 10
7.2711492433
 20
10.5537054519
 30
0.0
 11
7.2267475375
 21
10.5537054519
 31
0.0
  0
LINE
  5
16E
330
164
100
AcDbEntity
  8
0
  6
Continuous
 62
     7
 48
1.75
370
     0
100
AcDbLine
 10
7.2711492433
 20
10.8487927472
 30
0.0
 11
7.2267475375
 21
10.8487927472
 31
0.0
  0
LINE
  5
16F
330
164
100
AcDbEntity
  8
0
  6
Continuous
 62
     7
 48
1.75
370
     0
100
AcDbLine
 10
4.7875402157
 20
11.5548298615
 30
0.0
 11
7.1183512903
 21
11.5548298615
 31
0.0
  0
LINE
  5
170
330
164
100
AcDbEntity
  8
0
  6
Continuous
 62
     7
 48
1.75
370
     0
100
AcDbLine
 10
4.7875402157
 20
10.1948298615
 30
0.0
 11
7.1183512903
 21
10.1948298615
 31
0.0
  0
LINE
  5
171
330
164
100
AcDbEntity
  8
0
  6
Continuous
 62
     7
 48
1.75
370
     0
100
AcDbLine
 10
6.8996012903
 20
11.5548298615
 30
0.0
 11
6.8996012903
 21
11.2219913854
 31
0.0
  0
LINE
  5
172
330
164
100
AcDbEntity
  8
0
  6
Continuous
 62
     7
 48
1.75
370
     0
100
AcDbLine
 10
6.8996012903
 20
10.1948298615
 30
0.0
 11
6.8996012903
 21
10.5276683376
 31
0.0
  0
MTEXT
  5
173
330
164
100
AcDbEntity
  8
0
  6
Continuous
 62
     7
 48
1.75
370
     0
100
AcDbMText
 10
6.616856749
 20
11.1568134175
 30
0.0
 40
0.21875
 41
0.0
 71
     1
 72
     1
  1
1.36
  7
SLDTEXTSTYLE0
 73
     1
 44
1.0
  0
MTEXT
  5
174
330
164
100
AcDbEntity
  8
0
  6
Continuous
 62
     7
 48
1.75
370
     0
100
AcDbMText
 10
6.616856749
 20
10.8096518936
 30
0.0
 40
0.21875
 41
0.0
 71
     1
 72
     1
  1
34.5
  7
SLDTEXTSTYLE0
 73
     1
 44
1.0
  0
ENDBLK
  5
166
330
164
100
AcDbEntity
  8
0
100
AcDbBlockEnd
  0
BLOCK
  5
178
330
177
100
AcDbEntity
  8
0
100
AcDbBlockBegin
  2
*D9
 70
     1
 10
0.0
 20
0.0
 30
0.0
  3
*D9
  1

  0
SOLID
  5
17A
330
177
100
AcDbEntity
  8
0
  6
Continuous
 62
     7
 48
1.75
370
     0
100
AcDbTrace
 10
4.0672427815
 20
11.1627081686
 30
0.0
 11
3.8831883953
 21
11.300929849
 31
0.0
 12
3.8501531798
 22
11.2392153894
 32
0.0
 13
3.8501531798
 23
11.2392153894
 33
0.0
  0
LINE
  5
17B
330
177
100
AcDbEntity
  8
0
  6
Continuous
 62
     7
 48
1.75
370
     0
100
AcDbLine
 10
1.5255958695
 20
11.9617751258
 30
0.0
 11
1.5255958695
 21
11.6666878305
 31
0.0
  0
LINE
  5
17C
330
177
100
AcDbEntity
  8
0
  6
Continuous
 62
     7
 48
1.75
370
     0
100
AcDbLine
 10
1.5255958695
 20
11.6666878305
 30
0.0
 11
1.5699975753
 21
11.6666878305
 31
0.0
  0
LINE
  5
17D
330
177
100
AcDbEntity
  8
0
  6
Continuous
 62
     7
 48
1.75
370
     0
100
AcDbLine
 10
1.5255958695
 20
11.9617751258
 30
0.0
 11
1.5699975753
 21
11.9617751258
 31
0.0
  0
LINE
  5
17E
330
177
100
AcDbEntity
  8
0
  6
Continuous
 62
     7
 48
1.75
370
     0
100
AcDbLine
 10
2.0264379089
 20
11.9617751258
 30
0.0
 11
2.0264379089
 21
11.6666878305
 31
0.0
  0
LINE
  5
17F
330
177
100
AcDbEntity
  8
0
  6
Continuous
 62
     7
 48
1.75
370
     0
100
AcDbLine
 10
2.0264379089
 20
11.6666878305
 30
0.0
 11
1.9820362031
 21
11.6666878305
 31
0.0
  0
LINE
  5
180
330
177
100
AcDbEntity
  8
0
  6
Continuous
 62
     7
 48
1.75
370
     0
100
AcDbLine
 10
2.0264379089
 20
11.9617751258
 30
0.0
 11
1.9820362031
 21
11.9617751258
 31
0.0
  0
LINE
  5
181
330
177
100
AcDbEntity
  8
0
  6
Continuous
 62
     7
 48
1.75
370
     0
100
AcDbLine
 10
4.0672427815
 20
11.1627081686
 30
0.0
 11
2.5258315613
 21
11.9878122401
 31
0.0
  0
LINE
  5
182
330
177
100
AcDbEntity
  8
0
  6
Continuous
 62
     7
 48
1.75
370
     0
100
AcDbLine
 10
2.5258315613
 20
11.9878122401
 30
0.0
 11
2.3070815613
 21
11.9878122401
 31
0.0
  0
MTEXT
  5
183
330
177
100
AcDbEntity
  8
0
  6
Continuous
 62
     7
 48
1.75
370
     0
100
AcDbMText
 10
1.3370496621
 20
12.2697958001
 30
0.0
 40
0.21875
 41
0.0
 71
     1
 72
     1
  1
%%c
  7
SLDTEXTSTYLE0
 73
     1
 44
1.0
  0
MTEXT
  5
184
330
177
100
AcDbEntity
  8
0
  6
Continuous
 62
     7
 48
1.75
370
     0
100
AcDbMText
 10
1.6494950336
 20
12.2697957961
 30
0.0
 40
0.21875
 41
0.0
 71
     1
 72
     1
  1
1.22
  7
SLDTEXTSTYLE0
 73
     1
 44
1.0
  0
MTEXT
  5
185
330
177
100
AcDbEntity
  8
0
  6
Continuous
 62
     7
 48
1.75
370
     0
100
AcDbMText
 10
1.6143992812
 20
11.9226342722
 30
0.0
 40
0.21875
 41
0.0
 71
     1
 72
     1
  1
31
  7
SLDTEXTSTYLE0
 73
     1
 44
1.0
  0
ENDBLK
  5
179
330
177
100
AcDbEntity
  8
0
100
AcDbBlockEnd
  0
BLOCK
  5
187
330
186
100
AcDbEntity
  8
0
100
AcDbBlockBegin
  2
SW_NOTE_4
 70
     0
 10
0.0
 20
0.0
 30
0.0
  3
SW_NOTE_4
  1

  0
MTEXT
  5
189
330
186
100
AcDbEntity
  8
0
  6
Continuous
 62
     0
 48
1.75
370
     0
100
AcDbMText
 10
0.0345491395
 20
0.1059895691
 30
0.0
 40
0.21875
 41
0.0
 71
     1
 72
     1
  1
CAPTIVE SCREW M5x0.8 x 16mm LG.,
  7
SLDTEXTSTYLE0
 73
     1
 44
1.0
  0
MTEXT
  5
18A
330
186
100
AcDbEntity
  8
0
  6
Continuous
 62
     0
 48
1.75
370
     0
100
AcDbMText
 10
0.0345491395
 20
-0.1816580613
 30
0.0
 40
0.21875
 41
0.0
 71
     1
 72
     1
  1
WASHER HEAD, PHILLIPS DRIVE, STEEL,
  7
SLDTEXTSTYLE0
 73
     1
 44
1.0
  0
MTEXT
  5
18B
330
186
100
AcDbEntity
  8
0
  6
Continuous
 62
     0
 48
1.75
370
     0
100
AcDbMText
 10
0.0345491395
 20
-0.4693056917
 30
0.0
 40
0.21875
 41
0.0
 71
     1
 72
     1
  1
ZINC PLATED, WITH SEALING WASHER,
  7
SLDTEXTSTYLE0
 73
     1
 44
1.0
  0
MTEXT
  5
18C
330
186
100
AcDbEntity
  8
0
  6
Continuous
 62
     0
 48
1.75
370
     0
100
AcDbMText
 10
0.0345491395
 20
-0.7569533221
 30
0.0
 40
0.21875
 41
0.0
 71
     1
 72
     1
  1
NEOPRENE, BLACK AND O-RING,
  7
SLDTEXTSTYLE0
 73
     1
 44
1.0
  0
MTEXT
  5
18D
330
186
100
AcDbEntity
  8
0
  6
Continuous
 62
     0
 48
1.75
370
     0
100
AcDbMText
 10
0.0345491395
 20
-1.0446009525
 30
0.0
 40
0.21875
 41
0.0
 71
     1
 72
     1
  1
BUNA-N, BLACK
  7
SLDTEXTSTYLE0
 73
     1
 44
1.0
  0
ENDBLK
  5
188
330
186
100
AcDbEntity
  8
0
100
AcDbBlockEnd
  0
BLOCK
  5
192
330
191
100
AcDbEntity
  8
0
100
AcDbBlockBegin
  2
SW_CENTERMARKSYMBOL_0
 70
     0
 10
0.0
 20
0.0
 30
0.0
  3
SW_CENTERMARKSYMBOL_0
  1

  0
LINE
  5
194
330
191
100
AcDbEntity
  8
0
  6
Continuous
 62
     0
 48
1.75
370
     0
100
AcDbLine
 10
0.0
 20
0.0
 30
0.0
 11
0.0
 21
0.05
 31
0.0
  0
LINE
  5
195
330
191
100
AcDbEntity
  8
0
  6
Continuous
 62
     0
 48
1.75
370
     0
100
AcDbLine
 10
0.0
 20
0.0
 30
0.0
 11
-0.05
 21
0.0
 31
0.0
  0
LINE
  5
196
330
191
100
AcDbEntity
  8
0
  6
Continuous
 62
     0
 48
1.75
370
     0
100
AcDbLine
 10
0.0
 20
0.0
 30
0.0
 11
0.0
 21
-0.05
 31
0.0
  0
LINE
  5
197
330
191
100
AcDbEntity
  8
0
  6
Continuous
 62
     0
 48
1.75
370
     0
100
AcDbLine
 10
0.0
 20
0.0
 30
0.0
 11
0.05
 21
0.0
 31
0.0
  0
ENDBLK
  5
193
330
191
100
AcDbEntity
  8
0
100
AcDbBlockEnd
  0
BLOCK
  5
19A
330
199
100
AcDbEntity
  8
0
100
AcDbBlockBegin
  2
SW_CENTERMARKSYMBOL_1
 70
     0
 10
0.0
 20
0.0
 30
0.0
  3
SW_CENTERMARKSYMBOL_1
  1

  0
LINE
  5
19C
330
199
100
AcDbEntity
  8
0
  6
Continuous
 62
     0
 48
1.75
370
     0
100
AcDbLine
 10
0.0
 20
0.0
 30
0.0
 11
0.0
 21
0.05
 31
0.0
  0
LINE
  5
19D
330
199
100
AcDbEntity
  8
0
  6
Continuous
 62
     0
 48
1.75
370
     0
100
AcDbLine
 10
0.0
 20
0.0
 30
0.0
 11
-0.05
 21
0.0
 31
0.0
  0
LINE
  5
19E
330
199
100
AcDbEntity
  8
0
  6
Continuous
 62
     0
 48
1.75
370
     0
100
AcDbLine
 10
0.0
 20
0.0
 30
0.0
 11
0.0
 21
-0.05
 31
0.0
  0
LINE
  5
19F
330
199
100
AcDbEntity
  8
0
  6
Continuous
 62
     0
 48
1.75
370
     0
100
AcDbLine
 10
0.0
 20
0.0
 30
0.0
 11
0.05
 21
0.0
 31
0.0
  0
ENDBLK
  5
19B
330
199
100
AcDbEntity
  8
0
100
AcDbBlockEnd
  0
BLOCK
  5
29D
330
29C
100
AcDbEntity
  8
0
100
AcDbBlockBegin
  2
*D13
 70
     1
 10
0.0
 20
0.0
 30
0.0
  3
*D13
  1

  0
SOLID
  5
29F
330
29C
100
AcDbEntity
  8
0
  6
Continuous
 62
     7
 48
1.75
370
     0
100
AcDbTrace
 10
16.6289104465
 20
13.8138062394
 30
0.0
 11
16.4014104465
 21
13.8488062394
 31
0.0
 12
16.4014104465
 22
13.7788062394
 32
0.0
 13
16.4014104465
 23
13.7788062394
 33
0.0
  0
SOLID
  5
2A0
330
29C
100
AcDbEntity
  8
0
  6
Continuous
 62
     7
 48
1.75
370
     0
100
AcDbTrace
 10
13.8789104465
 20
13.8138062394
 30
0.0
 11
14.1064104465
 21
13.7788062394
 31
0.0
 12
14.1064104465
 22
13.8488062394
 32
0.0
 13
14.1064104465
 23
13.8488062394
 33
0.0
  0
LINE
  5
2A1
330
29C
100
AcDbEntity
  8
0
  6
Continuous
 62
     7
 48
1.75
370
     0
100
AcDbLine
 10
14.8823624935
 20
13.7877691251
 30
0.0
 11
14.8823624935
 21
13.4926818298
 31
0.0
  0
LINE
  5
2A2
330
29C
100
AcDbEntity
  8
0
  6
Continuous
 62
     7
 48
1.75
370
     0
100
AcDbLine
 10
14.8823624935
 20
13.4926818298
 30
0.0
 11
14.9267641993
 21
13.4926818298
 31
0.0
  0
LINE
  5
2A3
330
29C
100
AcDbEntity
  8
0
  6
Continuous
 62
     7
 48
1.75
370
     0
100
AcDbLine
 10
14.8823624935
 20
13.7877691251
 30
0.0
 11
14.9267641993
 21
13.7877691251
 31
0.0
  0
LINE
  5
2A4
330
29C
100
AcDbEntity
  8
0
  6
Continuous
 62
     7
 48
1.75
370
     0
100
AcDbLine
 10
15.6254583995
 20
13.7877691251
 30
0.0
 11
15.6254583995
 21
13.4926818298
 31
0.0
  0
LINE
  5
2A5
330
29C
100
AcDbEntity
  8
0
  6
Continuous
 62
     7
 48
1.75
370
     0
100
AcDbLine
 10
15.6254583995
 20
13.4926818298
 30
0.0
 11
15.5810566936
 21
13.4926818298
 31
0.0
  0
LINE
  5
2A6
330
29C
100
AcDbEntity
  8
0
  6
Continuous
 62
     7
 48
1.75
370
     0
100
AcDbLine
 10
15.6254583995
 20
13.7877691251
 30
0.0
 11
15.5810566936
 21
13.7877691251
 31
0.0
  0
LINE
  5
2A7
330
29C
100
AcDbEntity
  8
0
  6
Continuous
 62
     7
 48
1.75
370
     0
100
AcDbLine
 10
16.6289104465
 20
13.2123298615
 30
0.0
 11
16.6289104465
 21
14.0325562394
 31
0.0
  0
LINE
  5
2A8
330
29C
100
AcDbEntity
  8
0
  6
Continuous
 62
     7
 48
1.75
370
     0
100
AcDbLine
 10
13.8789104465
 20
12.7433298615
 30
0.0
 11
13.8789104465
 21
14.0325562394
 31
0.0
  0
LINE
  5
2A9
330
29C
100
AcDbEntity
  8
0
  6
Continuous
 62
     7
 48
1.75
370
     0
100
AcDbLine
 10
16.6289104465
 20
13.8138062394
 30
0.0
 11
15.8679810018
 21
13.8138062394
 31
0.0
  0
LINE
  5
2AA
330
29C
100
AcDbEntity
  8
0
  6
Continuous
 62
     7
 48
1.75
370
     0
100
AcDbLine
 10
13.8789104465
 20
13.8138062394
 30
0.0
 11
14.6398398911
 21
13.8138062394
 31
0.0
  0
MTEXT
  5
2AB
330
29C
100
AcDbEntity
  8
0
  6
Continuous
 62
     7
 48
1.75
370
     0
100
AcDbMText
 10
14.9711659051
 20
14.0957897955
 30
0.0
 40
0.21875
 41
0.0
 71
     1
 72
     1
  1
2.75
  7
SLDTEXTSTYLE0
 73
     1
 44
1.0
  0
MTEXT
  5
2AC
330
29C
100
AcDbEntity
  8
0
  6
Continuous
 62
     7
 48
1.75
370
     0
100
AcDbMText
 10
14.9711659051
 20
13.7486282716
 30
0.0
 40
0.21875
 41
0.0
 71
     1
 72
     1
  1
69.9
  7
SLDTEXTSTYLE0
 73
     1
 44
1.0
  0
ENDBLK
  5
29E
330
29C
100
AcDbEntity
  8
0
100
AcDbBlockEnd
  0
BLOCK
  5
2AE
330
2AD
100
AcDbEntity
  8
0
100
AcDbBlockBegin
  2
SW_NOTE_5
 70
     0
 10
0.0
 20
0.0
 30
0.0
  3
SW_NOTE_5
  1

  0
MTEXT
  5
2B0
330
2AD
100
AcDbEntity
  8
0
  6
Continuous
 62
     0
 48
1.75
370
     0
100
AcDbMText
 10
0.0346762839
 20
0.1060644337
 30
0.0
 40
0.21875
 41
0.0
 71
     1
 72
     1
  1
ONE-PIECE DIE-CUT GASKET
  7
SLDTEXTSTYLE0
 73
     1
 44
1.0
  0
MTEXT
  5
2B1
330
2AD
100
AcDbEntity
  8
0
  6
Continuous
 62
     0
 48
1.75
370
     0
100
AcDbMText
 10
0.0346762839
 20
-0.1815831967
 30
0.0
 40
0.21875
 41
0.0
 71
     1
 72
     1
  1
(.25[6.3] THK. PORON #4701-41-15250-04
  7
SLDTEXTSTYLE0
 73
     1
 44
1.0
  0
MTEXT
  5
2B2
330
2AD
100
AcDbEntity
  8
0
  6
Continuous
 62
     0
 48
1.75
370
     0
100
AcDbMText
 10
0.0346762839
 20
-0.4692308271
 30
0.0
 40
0.21875
 41
0.0
 71
     1
 72
     1
  1
- BLACK) INSIDE COVER.
  7
SLDTEXTSTYLE0
 73
     1
 44
1.0
  0
ENDBLK
  5
2AF
330
2AD
100
AcDbEntity
  8
0
100
AcDbBlockEnd
  0
BLOCK
  5
303
330
302
100
AcDbEntity
  8
0
100
AcDbBlockBegin
  2
*D15
 70
     1
 10
0.0
 20
0.0
 30
0.0
  3
*D15
  1

  0
SOLID
  5
305
330
302
100
AcDbEntity
  8
0
  6
Continuous
 62
     7
 48
1.75
370
     0
100
AcDbTrace
 10
19.4276861731
 20
3.4926853549
 30
0.0
 11
19.6551861731
 21
3.4576853549
 31
0.0
 12
19.6551861731
 22
3.5276853549
 32
0.0
 13
19.6551861731
 23
3.5276853549
 33
0.0
  0
SOLID
  5
306
330
302
100
AcDbEntity
  8
0
  6
Continuous
 62
     7
 48
1.75
370
     0
100
AcDbTrace
 10
21.8026861731
 20
3.4926853549
 30
0.0
 11
21.5751861731
 21
3.5276853549
 31
0.0
 12
21.5751861731
 22
3.4576853549
 32
0.0
 13
21.5751861731
 23
3.4576853549
 33
0.0
  0
LINE
  5
307
330
302
100
AcDbEntity
  8
0
  6
Continuous
 62
     7
 48
1.75
370
     0
100
AcDbLine
 10
20.2938523982
 20
3.4666482406
 30
0.0
 11
20.2938523982
 21
3.1715609453
 31
0.0
  0
LINE
  5
308
330
302
100
AcDbEntity
  8
0
  6
Continuous
 62
     7
 48
1.75
370
     0
100
AcDbLine
 10
20.2938523982
 20
3.1715609453
 30
0.0
 11
20.3382541041
 21
3.1715609453
 31
0.0
  0
LINE
  5
309
330
302
100
AcDbEntity
  8
0
  6
Continuous
 62
     7
 48
1.75
370
     0
100
AcDbLine
 10
20.2938523982
 20
3.4666482406
 30
0.0
 11
20.3382541041
 21
3.4666482406
 31
0.0
  0
LINE
  5
30A
330
302
100
AcDbEntity
  8
0
  6
Continuous
 62
     7
 48
1.75
370
     0
100
AcDbLine
 10
21.0369483042
 20
3.4666482406
 30
0.0
 11
21.0369483042
 21
3.1715609453
 31
0.0
  0
LINE
  5
30B
330
302
100
AcDbEntity
  8
0
  6
Continuous
 62
     7
 48
1.75
370
     0
100
AcDbLine
 10
21.0369483042
 20
3.1715609453
 30
0.0
 11
20.9925465984
 21
3.1715609453
 31
0.0
  0
LINE
  5
30C
330
302
100
AcDbEntity
  8
0
  6
Continuous
 62
     7
 48
1.75
370
     0
100
AcDbLine
 10
21.0369483042
 20
3.4666482406
 30
0.0
 11
20.9925465984
 21
3.4666482406
 31
0.0
  0
LINE
  5
30D
330
302
100
AcDbEntity
  8
0
  6
Continuous
 62
     7
 48
1.75
370
     0
100
AcDbLine
 10
19.4276861731
 20
4.2563298615
 30
0.0
 11
19.4276861731
 21
3.2739353549
 31
0.0
  0
LINE
  5
30E
330
302
100
AcDbEntity
  8
0
  6
Continuous
 62
     7
 48
1.75
370
     0
100
AcDbLine
 10
21.8026861731
 20
4.2563298615
 30
0.0
 11
21.8026861731
 21
3.2739353549
 31
0.0
  0
LINE
  5
30F
330
302
100
AcDbEntity
  8
0
  6
Continuous
 62
     7
 48
1.75
370
     0
100
AcDbLine
 10
19.4276861731
 20
3.4926853549
 30
0.0
 11
20.0513297959
 21
3.4926853549
 31
0.0
  0
LINE
  5
310
330
302
100
AcDbEntity
  8
0
  6
Continuous
 62
     7
 48
1.75
370
     0
100
AcDbLine
 10
21.8026861731
 20
3.4926853549
 30
0.0
 11
21.2794709066
 21
3.4926853549
 31
0.0
  0
MTEXT
  5
311
330
302
100
AcDbEntity
  8
0
  6
Continuous
 62
     7
 48
1.75
370
     0
100
AcDbMText
 10
20.3826558099
 20
3.774668911
 30
0.0
 40
0.21875
 41
0.0
 71
     1
 72
     1
  1
2.38
  7
SLDTEXTSTYLE0
 73
     1
 44
1.0
  0
MTEXT
  5
312
330
302
100
AcDbEntity
  8
0
  6
Continuous
 62
     7
 48
1.75
370
     0
100
AcDbMText
 10
20.3826558099
 20
3.4275073871
 30
0.0
 40
0.21875
 41
0.0
 71
     1
 72
     1
  1
60.3
  7
SLDTEXTSTYLE0
 73
     1
 44
1.0
  0
ENDBLK
  5
304
330
302
100
AcDbEntity
  8
0
100
AcDbBlockEnd
  0
BLOCK
  5
315
330
314
100
AcDbEntity
  8
0
100
AcDbBlockBegin
  2
*D16
 70
     1
 10
0.0
 20
0.0
 30
0.0
  3
*D16
  1

  0
SOLID
  5
317
330
314
100
AcDbEntity
  8
0
  6
Continuous
 62
     7
 48
1.75
370
     0
100
AcDbTrace
 10
18.1762097951
 20
13.1248298615
 30
0.0
 11
18.1412097951
 21
12.8973298615
 31
0.0
 12
18.2112097951
 22
12.8973298615
 32
0.0
 13
18.2112097951
 23
12.8973298615
 33
0.0
  0
SOLID
  5
318
330
314
100
AcDbEntity
  8
0
  6
Continuous
 62
     7
 48
1.75
370
     0
100
AcDbTrace
 10
18.1762097951
 20
4.1248298615
 30
0.0
 11
18.2112097951
 21
4.3523298615
 31
0.0
 12
18.1412097951
 22
4.3523298615
 32
0.0
 13
18.1412097951
 23
4.3523298615
 33
0.0
  0
LINE
  5
319
330
314
100
AcDbEntity
  8
0
  6
Continuous
 62
     7
 48
1.75
370
     0
100
AcDbLine
 10
17.7237955229
 20
8.5987927472
 30
0.0
 11
17.7237955229
 21
8.3037054519
 31
0.0
  0
LINE
  5
31A
330
314
100
AcDbEntity
  8
0
  6
Continuous
 62
     7
 48
1.75
370
     0
100
AcDbLine
 10
17.7237955229
 20
8.3037054519
 30
0.0
 11
17.7681972288
 21
8.3037054519
 31
0.0
  0
LINE
  5
31B
330
314
100
AcDbEntity
  8
0
  6
Continuous
 62
     7
 48
1.75
370
     0
100
AcDbLine
 10
17.7237955229
 20
8.5987927472
 30
0.0
 11
17.7681972288
 21
8.5987927472
 31
0.0
  0
LINE
  5
31C
330
314
100
AcDbEntity
  8
0
  6
Continuous
 62
     7
 48
1.75
370
     0
100
AcDbLine
 10
18.6286240673
 20
8.5987927472
 30
0.0
 11
18.6286240673
 21
8.3037054519
 31
0.0
  0
LINE
  5
31D
330
314
100
AcDbEntity
  8
0
  6
Continuous
 62
     7
 48
1.75
370
     0
100
AcDbLine
 10
18.6286240673
 20
8.3037054519
 30
0.0
 11
18.5842223615
 21
8.3037054519
 31
0.0
  0
LINE
  5
31E
330
314
100
AcDbEntity
  8
0
  6
Continuous
 62
     7
 48
1.75
370
     0
100
AcDbLine
 10
18.6286240673
 20
8.5987927472
 30
0.0
 11
18.5842223615
 21
8.5987927472
 31
0.0
  0
LINE
  5
31F
330
314
100
AcDbEntity
  8
0
  6
Continuous
 62
     7
 48
1.75
370
     0
100
AcDbLine
 10
19.2776861731
 20
13.1248298615
 30
0.0
 11
17.9574597951
 21
13.1248298615
 31
0.0
  0
LINE
  5
320
330
314
100
AcDbEntity
  8
0
  6
Continuous
 62
     7
 48
1.75
370
     0
100
AcDbLine
 10
19.2776861731
 20
4.1248298615
 30
0.0
 11
17.9574597951
 21
4.1248298615
 31
0.0
  0
LINE
  5
321
330
314
100
AcDbEntity
  8
0
  6
Continuous
 62
     7
 48
1.75
370
     0
100
AcDbLine
 10
18.1762097951
 20
13.1248298615
 30
0.0
 11
18.1762097951
 21
8.9719913854
 31
0.0
  0
LINE
  5
322
330
314
100
AcDbEntity
  8
0
  6
Continuous
 62
     7
 48
1.75
370
     0
100
AcDbLine
 10
18.1762097951
 20
4.1248298615
 30
0.0
 11
18.1762097951
 21
8.2776683376
 31
0.0
  0
MTEXT
  5
323
330
314
100
AcDbEntity
  8
0
  6
Continuous
 62
     7
 48
1.75
370
     0
100
AcDbMText
 10
17.8934652538
 20
8.9068134175
 30
0.0
 40
0.21875
 41
0.0
 71
     1
 72
     1
  1
9.00
  7
SLDTEXTSTYLE0
 73
     1
 44
1.0
  0
MTEXT
  5
324
330
314
100
AcDbEntity
  8
0
  6
Continuous
 62
     7
 48
1.75
370
     0
100
AcDbMText
 10
17.8125989346
 20
8.5596518936
 30
0.0
 40
0.21875
 41
0.0
 71
     1
 72
     1
  1
228.6
  7
SLDTEXTSTYLE0
 73
     1
 44
1.0
  0
ENDBLK
  5
316
330
314
100
AcDbEntity
  8
0
100
AcDbBlockEnd
  0
BLOCK
  5
327
330
326
100
AcDbEntity
  8
0
100
AcDbBlockBegin
  2
*D17
 70
     1
 10
0.0
 20
0.0
 30
0.0
  3
*D17
  1

  0
SOLID
  5
329
330
326
100
AcDbEntity
  8
0
  6
Continuous
 62
     7
 48
1.75
370
     0
100
AcDbTrace
 10
19.1151861731
 20
13.8138062394
 30
0.0
 11
19.3426861731
 21
13.7788062394
 31
0.0
 12
19.3426861731
 22
13.8488062394
 32
0.0
 13
19.3426861731
 23
13.8488062394
 33
0.0
  0
SOLID
  5
32A
330
326
100
AcDbEntity
  8
0
  6
Continuous
 62
     7
 48
1.75
370
     0
100
AcDbTrace
 10
22.1151861731
 20
13.8138062394
 30
0.0
 11
21.8876861731
 21
13.8488062394
 31
0.0
 12
21.8876861731
 22
13.7788062394
 32
0.0
 13
21.8876861731
 23
13.7788062394
 33
0.0
  0
LINE
  5
32B
330
326
100
AcDbEntity
  8
0
  6
Continuous
 62
     7
 48
1.75
370
     0
100
AcDbLine
 10
20.2436382201
 20
13.7877691251
 30
0.0
 11
20.2436382201
 21
13.4926818298
 31
0.0
  0
LINE
  5
32C
330
326
100
AcDbEntity
  8
0
  6
Continuous
 62
     7
 48
1.75
370
     0
100
AcDbLine
 10
20.2436382201
 20
13.4926818298
 30
0.0
 11
20.2880399259
 21
13.4926818298
 31
0.0
  0
LINE
  5
32D
330
326
100
AcDbEntity
  8
0
  6
Continuous
 62
     7
 48
1.75
370
     0
100
AcDbLine
 10
20.2436382201
 20
13.7877691251
 30
0.0
 11
20.2880399259
 21
13.7877691251
 31
0.0
  0
LINE
  5
32E
330
326
100
AcDbEntity
  8
0
  6
Continuous
 62
     7
 48
1.75
370
     0
100
AcDbLine
 10
20.9867341261
 20
13.7877691251
 30
0.0
 11
20.9867341261
 21
13.4926818298
 31
0.0
  0
LINE
  5
32F
330
326
100
AcDbEntity
  8
0
  6
Continuous
 62
     7
 48
1.75
370
     0
100
AcDbLine
 10
20.9867341261
 20
13.4926818298
 30
0.0
 11
20.9423324202
 21
13.4926818298
 31
0.0
  0
LINE
  5
330
330
326
100
AcDbEntity
  8
0
  6
Continuous
 62
     7
 48
1.75
370
     0
100
AcDbLine
 10
20.9867341261
 20
13.7877691251
 30
0.0
 11
20.9423324202
 21
13.7877691251
 31
0.0
  0
LINE
  5
331
330
326
100
AcDbEntity
  8
0
  6
Continuous
 62
     7
 48
1.75
370
     0
100
AcDbLine
 10
19.1151861731
 20
12.9623298615
 30
0.0
 11
19.1151861731
 21
14.0325562394
 31
0.0
  0
LINE
  5
332
330
326
100
AcDbEntity
  8
0
  6
Continuous
 62
     7
 48
1.75
370
     0
100
AcDbLine
 10
22.1151861731
 20
12.9623298615
 30
0.0
 11
22.1151861731
 21
14.0325562394
 31
0.0
  0
LINE
  5
333
330
326
100
AcDbEntity
  8
0
  6
Continuous
 62
     7
 48
1.75
370
     0
100
AcDbLine
 10
19.1151861731
 20
13.8138062394
 30
0.0
 11
20.0011156177
 21
13.8138062394
 31
0.0
  0
LINE
  5
334
330
326
100
AcDbEntity
  8
0
  6
Continuous
 62
     7
 48
1.75
370
     0
100
AcDbLine
 10
22.1151861731
 20
13.8138062394
 30
0.0
 11
21.2292567284
 21
13.8138062394
 31
0.0
  0
MTEXT
  5
335
330
326
100
AcDbEntity
  8
0
  6
Continuous
 62
     7
 48
1.75
370
     0
100
AcDbMText
 10
20.3324416318
 20
14.0957897955
 30
0.0
 40
0.21875
 41
0.0
 71
     1
 72
     1
  1
3.00
  7
SLDTEXTSTYLE0
 73
     1
 44
1.0
  0
MTEXT
  5
336
330
326
100
AcDbEntity
  8
0
  6
Continuous
 62
     7
 48
1.75
370
     0
100
AcDbMText
 10
20.3324416318
 20
13.7486282716
 30
0.0
 40
0.21875
 41
0.0
 71
     1
 72
     1
  1
76.2
  7
SLDTEXTSTYLE0
 73
     1
 44
1.0
  0
ENDBLK
  5
328
330
326
100
AcDbEntity
  8
0
100
AcDbBlockEnd
  0
BLOCK
  5
4E4
330
4E3
100
AcDbEntity
  8
0
100
AcDbBlockBegin
  2
*D18
 70
     1
 10
0.0
 20
0.0
 30
0.0
  3
*D18
  1

  0
SOLID
  5
4E6
330
4E3
100
AcDbEntity
  8
0
  6
Continuous
 62
     7
 48
1.75
370
     0
100
AcDbTrace
 10
8.0774492589
 20
13.8138062394
 30
0.0
 11
8.3049492589
 21
13.7788062394
 31
0.0
 12
8.3049492589
 22
13.8488062394
 32
0.0
 13
8.3049492589
 23
13.8488062394
 33
0.0
  0
SOLID
  5
4E7
330
4E3
100
AcDbEntity
  8
0
  6
Continuous
 62
     7
 48
1.75
370
     0
100
AcDbTrace
 10
11.3274492589
 20
13.8138062394
 30
0.0
 11
11.0999492589
 21
13.8488062394
 31
0.0
 12
11.0999492589
 22
13.7788062394
 32
0.0
 13
11.0999492589
 23
13.7788062394
 33
0.0
  0
LINE
  5
4E8
330
4E3
100
AcDbEntity
  8
0
  6
Continuous
 62
     7
 48
1.75
370
     0
100
AcDbLine
 10
9.3309013059
 20
13.7877691251
 30
0.0
 11
9.3309013059
 21
13.4926818298
 31
0.0
  0
LINE
  5
4E9
330
4E3
100
AcDbEntity
  8
0
  6
Continuous
 62
     7
 48
1.75
370
     0
100
AcDbLine
 10
9.3309013059
 20
13.4926818298
 30
0.0
 11
9.3753030118
 21
13.4926818298
 31
0.0
  0
LINE
  5
4EA
330
4E3
100
AcDbEntity
  8
0
  6
Continuous
 62
     7
 48
1.75
370
     0
100
AcDbLine
 10
9.3309013059
 20
13.7877691251
 30
0.0
 11
9.3753030118
 21
13.7877691251
 31
0.0
  0
LINE
  5
4EB
330
4E3
100
AcDbEntity
  8
0
  6
Continuous
 62
     7
 48
1.75
370
     0
100
AcDbLine
 10
10.0739972119
 20
13.7877691251
 30
0.0
 11
10.0739972119
 21
13.4926818298
 31
0.0
  0
LINE
  5
4EC
330
4E3
100
AcDbEntity
  8
0
  6
Continuous
 62
     7
 48
1.75
370
     0
100
AcDbLine
 10
10.0739972119
 20
13.4926818298
 30
0.0
 11
10.0295955061
 21
13.4926818298
 31
0.0
  0
LINE
  5
4ED
330
4E3
100
AcDbEntity
  8
0
  6
Continuous
 62
     7
 48
1.75
370
     0
100
AcDbLine
 10
10.0739972119
 20
13.7877691251
 30
0.0
 11
10.0295955061
 21
13.7877691251
 31
0.0
  0
LINE
  5
4EE
330
4E3
100
AcDbEntity
  8
0
  6
Continuous
 62
     7
 48
1.75
370
     0
100
AcDbLine
 10
8.0774492589
 20
12.6193298615
 30
0.0
 11
8.0774492589
 21
14.0325562394
 31
0.0
  0
LINE
  5
4EF
330
4E3
100
AcDbEntity
  8
0
  6
Continuous
 62
     7
 48
1.75
370
     0
100
AcDbLine
 10
11.3274492589
 20
12.6193298615
 30
0.0
 11
11.3274492589
 21
14.0325562394
 31
0.0
  0
LINE
  5
4F0
330
4E3
100
AcDbEntity
  8
0
  6
Continuous
 62
     7
 48
1.75
370
     0
100
AcDbLine
 10
8.0774492589
 20
13.8138062394
 30
0.0
 11
9.0883787036
 21
13.8138062394
 31
0.0
  0
LINE
  5
4F1
330
4E3
100
AcDbEntity
  8
0
  6
Continuous
 62
     7
 48
1.75
370
     0
100
AcDbLine
 10
11.3274492589
 20
13.8138062394
 30
0.0
 11
10.3165198143
 21
13.8138062394
 31
0.0
  0
MTEXT
  5
4F2
330
4E3
100
AcDbEntity
  8
0
  6
Continuous
 62
     7
 48
1.75
370
     0
100
AcDbMText
 10
9.4197047176
 20
14.0957897955
 30
0.0
 40
0.21875
 41
0.0
 71
     1
 72
     1
  1
3.25
  7
SLDTEXTSTYLE0
 73
     1
 44
1.0
  0
MTEXT
  5
4F3
330
4E3
100
AcDbEntity
  8
0
  6
Continuous
 62
     7
 48
1.75
370
     0
100
AcDbMText
 10
9.4197047176
 20
13.7486282716
 30
0.0
 40
0.21875
 41
0.0
 71
     1
 72
     1
  1
82.6
  7
SLDTEXTSTYLE0
 73
     1
 44
1.0
  0
ENDBLK
  5
4E5
330
4E3
100
AcDbEntity
  8
0
100
AcDbBlockEnd
  0
BLOCK
  5
4F6
330
4F5
100
AcDbEntity
  8
0
100
AcDbBlockBegin
  2
*D19
 70
     1
 10
0.0
 20
0.0
 30
0.0
  3
*D19
  1

  0
SOLID
  5
4F8
330
4F5
100
AcDbEntity
  8
0
  6
Continuous
 62
     7
 48
1.75
370
     0
100
AcDbTrace
 10
12.040721469
 20
12.6248298615
 30
0.0
 11
12.005721469
 21
12.3973298615
 31
0.0
 12
12.075721469
 22
12.3973298615
 32
0.0
 13
12.075721469
 23
12.3973298615
 33
0.0
  0
SOLID
  5
4F9
330
4F5
100
AcDbEntity
  8
0
  6
Continuous
 62
     7
 48
1.75
370
     0
100
AcDbTrace
 10
12.040721469
 20
4.6248298615
 30
0.0
 11
12.075721469
 21
4.8523298615
 31
0.0
 12
12.005721469
 22
4.8523298615
 32
0.0
 13
12.005721469
 23
4.8523298615
 33
0.0
  0
LINE
  5
4FA
330
4F5
100
AcDbEntity
  8
0
  6
Continuous
 62
     7
 48
1.75
370
     0
100
AcDbLine
 10
11.5883071968
 20
8.5987927472
 30
0.0
 11
11.5883071968
 21
8.3037054519
 31
0.0
  0
LINE
  5
4FB
330
4F5
100
AcDbEntity
  8
0
  6
Continuous
 62
     7
 48
1.75
370
     0
100
AcDbLine
 10
11.5883071968
 20
8.3037054519
 30
0.0
 11
11.6327089027
 21
8.3037054519
 31
0.0
  0
LINE
  5
4FC
330
4F5
100
AcDbEntity
  8
0
  6
Continuous
 62
     7
 48
1.75
370
     0
100
AcDbLine
 10
11.5883071968
 20
8.5987927472
 30
0.0
 11
11.6327089027
 21
8.5987927472
 31
0.0
  0
LINE
  5
4FD
330
4F5
100
AcDbEntity
  8
0
  6
Continuous
 62
     7
 48
1.75
370
     0
100
AcDbLine
 10
12.4931357412
 20
8.5987927472
 30
0.0
 11
12.4931357412
 21
8.3037054519
 31
0.0
  0
LINE
  5
4FE
330
4F5
100
AcDbEntity
  8
0
  6
Continuous
 62
     7
 48
1.75
370
     0
100
AcDbLine
 10
12.4931357412
 20
8.3037054519
 30
0.0
 11
12.4487340354
 21
8.3037054519
 31
0.0
  0
LINE
  5
4FF
330
4F5
100
AcDbEntity
  8
0
  6
Continuous
 62
     7
 48
1.75
370
     0
100
AcDbLine
 10
12.4931357412
 20
8.5987927472
 30
0.0
 11
12.4487340354
 21
8.5987927472
 31
0.0
  0
LINE
  5
500
330
4F5
100
AcDbEntity
  8
0
  6
Continuous
 62
     7
 48
1.75
370
     0
100
AcDbLine
 10
11.3219492589
 20
12.6248298615
 30
0.0
 11
12.259471469
 21
12.6248298615
 31
0.0
  0
LINE
  5
501
330
4F5
100
AcDbEntity
  8
0
  6
Continuous
 62
     7
 48
1.75
370
     0
100
AcDbLine
 10
11.3219492589
 20
4.6248298615
 30
0.0
 11
12.259471469
 21
4.6248298615
 31
0.0
  0
LINE
  5
502
330
4F5
100
AcDbEntity
  8
0
  6
Continuous
 62
     7
 48
1.75
370
     0
100
AcDbLine
 10
12.040721469
 20
12.6248298615
 30
0.0
 11
12.040721469
 21
8.9719913854
 31
0.0
  0
LINE
  5
503
330
4F5
100
AcDbEntity
  8
0
  6
Continuous
 62
     7
 48
1.75
370
     0
100
AcDbLine
 10
12.040721469
 20
4.6248298615
 30
0.0
 11
12.040721469
 21
8.2776683376
 31
0.0
  0
MTEXT
  5
504
330
4F5
100
AcDbEntity
  8
0
  6
Continuous
 62
     7
 48
1.75
370
     0
100
AcDbMText
 10
11.7579769277
 20
8.9068134175
 30
0.0
 40
0.21875
 41
0.0
 71
     1
 72
     1
  1
8.00
  7
SLDTEXTSTYLE0
 73
     1
 44
1.0
  0
MTEXT
  5
505
330
4F5
100
AcDbEntity
  8
0
  6
Continuous
 62
     7
 48
1.75
370
     0
100
AcDbMText
 10
11.6771106085
 20
8.5596518936
 30
0.0
 40
0.21875
 41
0.0
 71
     1
 72
     1
  1
203.2
  7
SLDTEXTSTYLE0
 73
     1
 44
1.0
  0
ENDBLK
  5
4F7
330
4F5
100
AcDbEntity
  8
0
100
AcDbBlockEnd
  0
BLOCK
  5
507
330
506
100
AcDbEntity
  8
0
100
AcDbBlockBegin
  2
SW_NOTE_6
 70
     0
 10
0.0
 20
0.0
 30
0.0
  3
SW_NOTE_6
  1

  0
MTEXT
  5
509
330
506
100
AcDbEntity
  8
0
  6
Continuous
 62
     0
 48
1.75
370
     0
100
AcDbMText
 10
0.0346498443
 20
0.1060151747
 30
0.0
 40
0.21875
 41
0.0
 71
     1
 72
     1
  1
WELD STANDOFF M5x0.8 x 12mm LG.
  7
SLDTEXTSTYLE0
 73
     1
 44
1.0
  0
MTEXT
  5
50A
330
506
100
AcDbEntity
  8
0
  6
Continuous
 62
     0
 48
1.75
370
     0
100
AcDbMText
 10
0.0346498443
 20
-0.1816324557
 30
0.0
 40
0.21875
 41
0.0
 71
     1
 72
     1
  1
FOR GROUNDING [SUPPLIED WITH
  7
SLDTEXTSTYLE0
 73
     1
 44
1.0
  0
MTEXT
  5
50B
330
506
100
AcDbEntity
  8
0
  6
Continuous
 62
     0
 48
1.75
370
     0
100
AcDbMText
 10
0.0346498443
 20
-0.4692800861
 30
0.0
 40
0.21875
 41
0.0
 71
     1
 72
     1
  1
(1) SCREW M5x0.8 x 10mm LG., PAN HEAD,
  7
SLDTEXTSTYLE0
 73
     1
 44
1.0
  0
MTEXT
  5
50C
330
506
100
AcDbEntity
  8
0
  6
Continuous
 62
     0
 48
1.75
370
     0
100
AcDbMText
 10
0.0346498443
 20
-0.7569277165
 30
0.0
 40
0.21875
 41
0.0
 71
     1
 72
     1
  1
PHILLIPS DRIVE, STEEL, ZINC PLATED
  7
SLDTEXTSTYLE0
 73
     1
 44
1.0
  0
MTEXT
  5
50D
330
506
100
AcDbEntity
  8
0
  6
Continuous
 62
     0
 48
1.75
370
     0
100
AcDbMText
 10
0.0346498443
 20
-1.0445753469
 30
0.0
 40
0.21875
 41
0.0
 71
     1
 72
     1
  1
AND (1) LOCKWASHER, INTERNAL TOOTH,
  7
SLDTEXTSTYLE0
 73
     1
 44
1.0
  0
MTEXT
  5
50E
330
506
100
AcDbEntity
  8
0
  6
Continuous
 62
     0
 48
1.75
370
     0
100
AcDbMText
 10
0.0346498443
 20
-1.3322229773
 30
0.0
 40
0.21875
 41
0.0
 71
     1
 72
     1
  1
STEEL, ZINC PLATED]
  7
SLDTEXTSTYLE0
 73
     1
 44
1.0
  0
ENDBLK
  5
508
330
506
100
AcDbEntity
  8
0
100
AcDbBlockEnd
  0
BLOCK
  5
512
330
511
100
AcDbEntity
  8
0
100
AcDbBlockBegin
  2
SW_NOTE_7
 70
     0
 10
0.0
 20
0.0
 30
0.0
  3
SW_NOTE_7
  1

  0
MTEXT
  5
514
330
511
100
AcDbEntity
  8
0
  6
Continuous
 62
     0
 48
1.75
370
     0
100
AcDbMText
 10
0.0
 20
0.2819835681
 30
0.0
 40
0.21875
 41
0.0
 71
     1
 72
     1
  1
\LCOVER
  7
SLDTEXTSTYLE0
 73
     1
 44
1.0
  0
MTEXT
  5
515
330
511
100
AcDbEntity
  8
0
  6
Continuous
 62
     0
 48
1.75
370
     0
100
AcDbMText
 10
-0.1953558549
 20
-0.0056640623
 30
0.0
 40
0.21875
 41
0.0
 71
     1
 72
     1
  1
\LREMOVED
  7
SLDTEXTSTYLE0
 73
     1
 44
1.0
  0
ENDBLK
  5
513
330
511
100
AcDbEntity
  8
0
100
AcDbBlockEnd
  0
ENDSEC
  0
SECTION
  2
ENTITIES
  0
LINE
  5
44
330
1F
100
AcDbEntity
  8
0
  6
Continuous
 62
     7
 48
1.75
370
     0
100
AcDbLine
 10
0.5481903081
 20
18.7338780488
 30
0.0
 11
29.2061903081
 21
18.7338780488
 31
0.0
  0
LINE
  5
45
330
1F
100
AcDbEntity
  8
0
  6
Continuous
 62
     7
 48
1.75
370
     0
100
AcDbLine
 10
29.2061903081
 20
0.5758780488
 30
0.0
 11
29.2061903081
 21
18.7338780488
 31
0.0
  0
LINE
  5
46
330
1F
100
AcDbEntity
  8
0
  6
Continuous
 62
     7
 48
1.75
370
     0
100
AcDbLine
 10
29.2061903081
 20
0.5758780488
 30
0.0
 11
0.5481903081
 21
0.5758780488
 31
0.0
  0
LINE
  5
47
330
1F
100
AcDbEntity
  8
0
  6
Continuous
 62
     7
 48
1.75
370
     0
100
AcDbLine
 10
0.5481903081
 20
18.7338780488
 30
0.0
 11
0.5481903081
 21
0.5758780488
 31
0.0
  0
LINE
  5
48
330
1F
100
AcDbEntity
  8
0
  6
Continuous
 62
     7
 48
1.75
370
     0
100
AcDbLine
 10
0.4396903081
 20
18.8423780488
 30
0.0
 11
29.3146903081
 21
18.8423780488
 31
0.0
  0
LINE
  5
49
330
1F
100
AcDbEntity
  8
0
  6
Continuous
 62
     7
 48
1.75
370
     0
100
AcDbLine
 10
29.3146903081
 20
0.4673780488
 30
0.0
 11
0.4396903081
 21
0.4673780488
 31
0.0
  0
LINE
  5
4A
330
1F
100
AcDbEntity
  8
0
  6
Continuous
 62
     7
 48
1.75
370
     0
100
AcDbLine
 10
0.4396903081
 20
18.8423780488
 30
0.0
 11
0.4396903081
 21
0.4673780488
 31
0.0
  0
LINE
  5
4B
330
1F
100
AcDbEntity
  8
0
  6
Continuous
 62
     7
 48
1.75
370
     0
100
AcDbLine
 10
29.3146903081
 20
0.4673780488
 30
0.0
 11
29.3146903081
 21
18.8423780488
 31
0.0
  0
LINE
  5
4C
330
1F
100
AcDbEntity
  8
0
  6
Continuous
 62
     7
 48
1.75
370
     0
100
AcDbLine
 10
0.5481903081
 20
18.0233780488
 30
0.0
 11
29.2061903081
 21
18.0233780488
 31
0.0
  0
LINE
  5
4D
330
1F
100
AcDbEntity
  8
0
  6
Continuous
 62
     7
 48
1.75
370
     0
100
AcDbLine
 10
1.8606903081
 20
18.7338780488
 30
0.0
 11
1.8606903081
 21
18.0233780488
 31
0.0
  0
LINE
  5
4E
330
1F
100
AcDbEntity
  8
0
  6
Continuous
 62
     7
 48
1.75
370
     0
100
AcDbLine
 10
13.0186903081
 20
18.0233780488
 30
0.0
 11
13.0186903081
 21
18.7338780488
 31
0.0
  0
LINE
  5
4F
330
1F
100
AcDbEntity
  8
0
  6
Continuous
 62
     7
 48
1.75
370
     0
100
AcDbLine
 10
13.1271903081
 20
18.0233780488
 30
0.0
 11
13.1271903081
 21
18.7338780488
 31
0.0
  0
LINE
  5
50
330
1F
100
AcDbEntity
  8
0
  6
Continuous
 62
     7
 48
1.75
370
     0
100
AcDbLine
 10
27.0186903081
 20
18.0233780488
 30
0.0
 11
27.0186903081
 21
18.7338780488
 31
0.0
  0
LINE
  5
51
330
1F
100
AcDbEntity
  8
0
  6
Continuous
 62
     7
 48
1.75
370
     0
100
AcDbLine
 10
14.4396903081
 20
18.0233780488
 30
0.0
 11
14.4396903081
 21
18.7338780488
 31
0.0
  0
LINE
  5
52
330
1F
100
AcDbEntity
  8
0
  6
Continuous
 62
     7
 48
1.75
370
     0
100
AcDbLine
 10
25.7061903081
 20
18.0233780488
 30
0.0
 11
25.7061903081
 21
18.7338780488
 31
0.0
  0
LINE
  5
53
330
1F
100
AcDbEntity
  8
0
  6
Continuous
 62
     7
 48
1.75
370
     0
100
AcDbLine
 10
25.5976903081
 20
18.0233780488
 30
0.0
 11
25.5976903081
 21
18.7338780488
 31
0.0
  0
DIMENSION
  5
54
330
1F
100
AcDbEntity
  8
0
  6
Continuous
 62
     7
 48
1.75
370
     0
100
AcDbDimension
  2
*D1
 10
23.0392962991
 20
4.3748298615
 30
0.0
 11
23.0392962991
 21
8.6248298615
 31
0.0
 70
   160
 71
     2
 42
-1.0
  3
SLDDIMSTYLE0
100
AcDbAlignedDimension
 13
21.9121861731
 23
12.8748298615
 33
0.0
 14
21.9121861731
 24
4.3748298615
 34
0.0
 50
90.0
100
AcDbRotatedDimension
  0
INSERT
  5
90
330
1F
100
AcDbEntity
  8
0
  6
Continuous
 62
     7
 48
1.75
370
     0
100
AcDbBlockReference
  2
SW_NOTE_0
 10
12.0107448825
 20
16.4117174109
 30
0.0
  0
MTEXT
  5
91
330
1F
100
AcDbEntity
  8
0
  6
Continuous
 62
     7
 48
1.75
370
     0
100
AcDbMText
 10
27.4108181763
 20
18.5663036022
 30
0.0
 40
0.328125
 41
0.0
 71
     1
 72
     1
  1
1-31-11
  7
SLDTEXTSTYLE0
 73
     1
 44
1.0
  0
MTEXT
  5
92
330
1F
100
AcDbEntity
  8
0
  6
Continuous
 62
     7
 48
1.75
370
     0
100
AcDbMText
 10
3.9331828017
 20
18.5396549456
 30
0.0
 40
0.328125
 41
0.0
 71
     1
 72
     1
  1
30.5mm PUSHBUTTON ENCLOSURE
  7
SLDTEXTSTYLE0
 73
     1
 44
1.0
  0
MTEXT
  5
93
330
1F
100
AcDbEntity
  8
0
  6
Continuous
 62
     7
 48
1.75
370
     0
100
AcDbMText
 10
19.1331672941
 20
18.5382367946
 30
0.0
 40
0.328125
 41
0.0
 71
     1
 72
     1
  1
SPB-3923
  7
SLDTEXTSTYLE0
 73
     1
 44
1.0
  0
INSERT
  5
99
330
1F
100
AcDbEntity
  8
0
  6
Continuous
 62
     7
 48
1.75
370
     0
100
AcDbBlockReference
  2
SW_NOTE_1
 10
0.853368577
 20
18.3833300464
 30
0.0
  0
INSERT
  5
9F
330
1F
100
AcDbEntity
  8
0
  6
Continuous
 62
     7
 48
1.75
370
     0
100
AcDbBlockReference
  2
SW_NOTE_2
 10
13.4489510572
 20
18.3753469195
 30
0.0
  0
INSERT
  5
A5
330
1F
100
AcDbEntity
  8
0
  6
Continuous
 62
     7
 48
1.75
370
     0
100
AcDbBlockReference
  2
SW_NOTE_3
 10
25.740117598
 20
18.3809211727
 30
0.0
  0
LINE
  5
A6
330
1F
100
AcDbEntity
  8
0
  6
Continuous
 62
     7
 48
1.75
370
    15
100
AcDbLine
 10
2.9480401842
 20
4.4998299938
 30
0.0
 11
6.2620402473
 21
4.4998299938
 31
0.0
  0
LINE
  5
A7
330
1F
100
AcDbEntity
  8
0
  6
Continuous
 62
     7
 48
1.75
370
    15
100
AcDbLine
 10
3.9250402445
 20
10.7798299267
 30
0.0
 11
4.0024831632
 21
10.7798299267
 31
0.0
  0
ARC
  5
A8
330
1F
100
AcDbEntity
  8
0
  6
Continuous
 62
     7
 48
3.0625
370
    15
100
AcDbCircle
 10
4.6050402157
 20
10.8748298615
 30
0.0
 40
0.6099999999999995
100
AcDbArc
 50
188.9595832147
 51
261.0404167853
  0
LINE
  5
A9
330
1F
100
AcDbEntity
  8
0
  6
Continuous
 62
     7
 48
1.75
370
    15
100
AcDbLine
 10
4.5100402165
 20
10.2722727634
 30
0.0
 11
4.5100402165
 21
10.1948298447
 31
0.0
  0
LINE
  5
AA
330
1F
100
AcDbEntity
  8
0
  6
Continuous
 62
     7
 48
1.75
370
    15
100
AcDbLine
 10
4.5100402165
 20
10.1948298447
 30
0.0
 11
4.700040215
 21
10.1948298447
 31
0.0
  0
LINE
  5
AB
330
1F
100
AcDbEntity
  8
0
  6
Continuous
 62
     7
 48
1.75
370
    15
100
AcDbLine
 10
4.700040215
 20
10.1948298447
 30
0.0
 11
4.700040215
 21
10.2722727634
 31
0.0
  0
ARC
  5
AC
330
1F
100
AcDbEntity
  8
0
  6
Continuous
 62
     7
 48
3.0625
370
    15
100
AcDbCircle
 10
4.6050402157
 20
10.8748298615
 30
0.0
 40
0.6100000000000015
100
AcDbArc
 50
278.9595832147
 51
351.0404167853
  0
LINE
  5
AD
330
1F
100
AcDbEntity
  8
0
  6
Continuous
 62
     7
 48
1.75
370
    15
100
AcDbLine
 10
5.2075972683
 20
10.7798299267
 30
0.0
 11
5.285040187
 21
10.7798299267
 31
0.0
  0
LINE
  5
AE
330
1F
100
AcDbEntity
  8
0
  6
Continuous
 62
     7
 48
1.75
370
    15
100
AcDbLine
 10
5.285040187
 20
10.7798299267
 30
0.0
 11
5.285040187
 21
10.9698298518
 31
0.0
  0
LINE
  5
AF
330
1F
100
AcDbEntity
  8
0
  6
Continuous
 62
     7
 48
1.75
370
    15
100
AcDbLine
 10
5.285040187
 20
10.9698298518
 30
0.0
 11
5.2075972683
 21
10.9698298518
 31
0.0
  0
ARC
  5
B0
330
1F
100
AcDbEntity
  8
0
  6
Continuous
 62
     7
 48
3.0625
370
    15
100
AcDbCircle
 10
4.6050402157
 20
10.8748298615
 30
0.0
 40
0.6100000000000015
100
AcDbArc
 50
8.9595832147
 51
81.0404167853
  0
LINE
  5
B1
330
1F
100
AcDbEntity
  8
0
  6
Continuous
 62
     7
 48
1.75
370
    15
100
AcDbLine
 10
4.700040215
 20
11.4773870152
 30
0.0
 11
4.700040215
 21
11.5548299339
 31
0.0
  0
LINE
  5
B2
330
1F
100
AcDbEntity
  8
0
  6
Continuous
 62
     7
 48
1.75
370
    15
100
AcDbLine
 10
4.700040215
 20
11.5548299339
 30
0.0
 11
4.5100402165
 21
11.5548299339
 31
0.0
  0
LINE
  5
B3
330
1F
100
AcDbEntity
  8
0
  6
Continuous
 62
     7
 48
1.75
370
    15
100
AcDbLine
 10
4.5100402165
 20
11.5548299339
 30
0.0
 11
4.5100402165
 21
11.4773870152
 31
0.0
  0
ARC
  5
B4
330
1F
100
AcDbEntity
  8
0
  6
Continuous
 62
     7
 48
3.0625
370
    15
100
AcDbCircle
 10
4.6050402157
 20
10.8748298615
 30
0.0
 40
0.6100000000000005
100
AcDbArc
 50
98.9595832147
 51
171.0404167853
  0
LINE
  5
B5
330
1F
100
AcDbEntity
  8
0
  6
Continuous
 62
     7
 48
1.75
370
    15
100
AcDbLine
 10
4.0024831632
 20
10.9698298518
 30
0.0
 11
3.9250402445
 21
10.9698298518
 31
0.0
  0
LINE
  5
B6
330
1F
100
AcDbEntity
  8
0
  6
Continuous
 62
     7
 48
1.75
370
    15
100
AcDbLine
 10
3.9250402445
 20
10.9698298518
 30
0.0
 11
3.9250402445
 21
10.7798299267
 31
0.0
  0
ARC
  5
B7
330
1F
100
AcDbEntity
  8
0
  6
Continuous
 62
     7
 48
3.0625
370
    15
100
AcDbCircle
 10
4.6050402157
 20
6.3748298615
 30
0.0
 40
0.6100000000000007
100
AcDbArc
 50
188.9595832147
 51
261.0404167853
  0
LINE
  5
B8
330
1F
100
AcDbEntity
  8
0
  6
Continuous
 62
     7
 48
1.75
370
    15
100
AcDbLine
 10
4.5100402165
 20
5.7722727078
 30
0.0
 11
4.5100402165
 21
5.6948297891
 31
0.0
  0
LINE
  5
B9
330
1F
100
AcDbEntity
  8
0
  6
Continuous
 62
     7
 48
1.75
370
    15
100
AcDbLine
 10
4.5100402165
 20
5.6948297891
 30
0.0
 11
4.700040215
 21
5.6948297891
 31
0.0
  0
LINE
  5
BA
330
1F
100
AcDbEntity
  8
0
  6
Continuous
 62
     7
 48
1.75
370
    15
100
AcDbLine
 10
4.700040215
 20
5.6948297891
 30
0.0
 11
4.700040215
 21
5.7722727078
 31
0.0
  0
ARC
  5
BB
330
1F
100
AcDbEntity
  8
0
  6
Continuous
 62
     7
 48
3.0625
370
    15
100
AcDbCircle
 10
4.6050402157
 20
6.3748298615
 30
0.0
 40
0.6100000000000007
100
AcDbArc
 50
278.9595832147
 51
351.0404167853
  0
LINE
  5
BC
330
1F
100
AcDbEntity
  8
0
  6
Continuous
 62
     7
 48
1.75
370
    15
100
AcDbLine
 10
5.2075972683
 20
6.2798298711
 30
0.0
 11
5.285040187
 21
6.2798298711
 31
0.0
  0
LINE
  5
BD
330
1F
100
AcDbEntity
  8
0
  6
Continuous
 62
     7
 48
1.75
370
    15
100
AcDbLine
 10
5.285040187
 20
6.2798298711
 30
0.0
 11
5.285040187
 21
6.4698297962
 31
0.0
  0
LINE
  5
BE
330
1F
100
AcDbEntity
  8
0
  6
Continuous
 62
     7
 48
1.75
370
    15
100
AcDbLine
 10
5.285040187
 20
6.4698297962
 30
0.0
 11
5.2075972683
 21
6.4698297962
 31
0.0
  0
ARC
  5
BF
330
1F
100
AcDbEntity
  8
0
  6
Continuous
 62
     7
 48
3.0625
370
    15
100
AcDbCircle
 10
4.6050402157
 20
6.3748298615
 30
0.0
 40
0.6100000000000003
100
AcDbArc
 50
8.9595832147
 51
81.0404167853
  0
LINE
  5
C0
330
1F
100
AcDbEntity
  8
0
  6
Continuous
 62
     7
 48
1.75
370
    15
100
AcDbLine
 10
4.700040215
 20
6.9773869595
 30
0.0
 11
4.700040215
 21
7.0548298783
 31
0.0
  0
LINE
  5
C1
330
1F
100
AcDbEntity
  8
0
  6
Continuous
 62
     7
 48
1.75
370
    15
100
AcDbLine
 10
4.700040215
 20
7.0548298783
 30
0.0
 11
4.5100402165
 21
7.0548298783
 31
0.0
  0
LINE
  5
C2
330
1F
100
AcDbEntity
  8
0
  6
Continuous
 62
     7
 48
1.75
370
    15
100
AcDbLine
 10
4.5100402165
 20
7.0548298783
 30
0.0
 11
4.5100402165
 21
6.9773869595
 31
0.0
  0
ARC
  5
C3
330
1F
100
AcDbEntity
  8
0
  6
Continuous
 62
     7
 48
3.0625
370
    15
100
AcDbCircle
 10
4.6050402157
 20
6.3748298615
 30
0.0
 40
0.6100000000000007
100
AcDbArc
 50
98.9595832147
 51
171.0404167853
  0
LINE
  5
C4
330
1F
100
AcDbEntity
  8
0
  6
Continuous
 62
     7
 48
1.75
370
    15
100
AcDbLine
 10
4.0024831632
 20
6.4698297962
 30
0.0
 11
3.9250402445
 21
6.4698297962
 31
0.0
  0
LINE
  5
C5
330
1F
100
AcDbEntity
  8
0
  6
Continuous
 62
     7
 48
1.75
370
    15
100
AcDbLine
 10
3.9250402445
 20
6.4698297962
 30
0.0
 11
3.9250402445
 21
6.2798298711
 31
0.0
  0
LINE
  5
C6
330
1F
100
AcDbEntity
  8
0
  6
Continuous
 62
     7
 48
1.75
370
    15
100
AcDbLine
 10
3.9250402445
 20
6.2798298711
 30
0.0
 11
4.0024831632
 21
6.2798298711
 31
0.0
  0
ARC
  5
C7
330
1F
100
AcDbEntity
  8
0
  6
Continuous
 62
     7
 48
3.0625
370
    15
100
AcDbCircle
 10
4.6050402157
 20
8.6248298615
 30
0.0
 40
0.6100000000000007
100
AcDbArc
 50
188.9595832147
 51
261.0404167853
  0
LINE
  5
C8
330
1F
100
AcDbEntity
  8
0
  6
Continuous
 62
     7
 48
1.75
370
    15
100
AcDbLine
 10
4.5100402165
 20
8.0222728089
 30
0.0
 11
4.5100402165
 21
7.9448298902
 31
0.0
  0
LINE
  5
C9
330
1F
100
AcDbEntity
  8
0
  6
Continuous
 62
     7
 48
1.75
370
    15
100
AcDbLine
 10
4.5100402165
 20
7.9448298902
 30
0.0
 11
4.700040215
 21
7.9448298902
 31
0.0
  0
LINE
  5
CA
330
1F
100
AcDbEntity
  8
0
  6
Continuous
 62
     7
 48
1.75
370
    15
100
AcDbLine
 10
4.700040215
 20
7.9448298902
 30
0.0
 11
4.700040215
 21
8.0222728089
 31
0.0
  0
ARC
  5
CB
330
1F
100
AcDbEntity
  8
0
  6
Continuous
 62
     7
 48
3.0625
370
    15
100
AcDbCircle
 10
4.6050402157
 20
8.6248298615
 30
0.0
 40
0.6100000000000007
100
AcDbArc
 50
278.9595832147
 51
351.0404167853
  0
LINE
  5
CC
330
1F
100
AcDbEntity
  8
0
  6
Continuous
 62
     7
 48
1.75
370
    15
100
AcDbLine
 10
5.2075972683
 20
8.5298298623
 30
0.0
 11
5.285040187
 21
8.5298298623
 31
0.0
  0
LINE
  5
CD
330
1F
100
AcDbEntity
  8
0
  6
Continuous
 62
     7
 48
1.75
370
    15
100
AcDbLine
 10
5.285040187
 20
8.5298298623
 30
0.0
 11
5.285040187
 21
8.7198298607
 31
0.0
  0
LINE
  5
CE
330
1F
100
AcDbEntity
  8
0
  6
Continuous
 62
     7
 48
1.75
370
    15
100
AcDbLine
 10
5.285040187
 20
8.7198298607
 30
0.0
 11
5.2075972683
 21
8.7198298607
 31
0.0
  0
ARC
  5
CF
330
1F
100
AcDbEntity
  8
0
  6
Continuous
 62
     7
 48
3.0625
370
    15
100
AcDbCircle
 10
4.6050402157
 20
8.6248298615
 30
0.0
 40
0.6100000000000003
100
AcDbArc
 50
8.9595832147
 51
81.0404167853
  0
LINE
  5
D0
330
1F
100
AcDbEntity
  8
0
  6
Continuous
 62
     7
 48
1.75
370
    15
100
AcDbLine
 10
4.700040215
 20
9.227386914
 30
0.0
 11
4.700040215
 21
9.3048298327
 31
0.0
  0
LINE
  5
D1
330
1F
100
AcDbEntity
  8
0
  6
Continuous
 62
     7
 48
1.75
370
    15
100
AcDbLine
 10
4.700040215
 20
9.3048298327
 30
0.0
 11
4.5100402165
 21
9.3048298327
 31
0.0
  0
LINE
  5
D2
330
1F
100
AcDbEntity
  8
0
  6
Continuous
 62
     7
 48
1.75
370
    15
100
AcDbLine
 10
4.5100402165
 20
9.3048298327
 30
0.0
 11
4.5100402165
 21
9.227386914
 31
0.0
  0
ARC
  5
D3
330
1F
100
AcDbEntity
  8
0
  6
Continuous
 62
     7
 48
3.0625
370
    15
100
AcDbCircle
 10
4.6050402157
 20
8.6248298615
 30
0.0
 40
0.6099999999999995
100
AcDbArc
 50
98.9595832147
 51
171.0404167853
  0
LINE
  5
D4
330
1F
100
AcDbEntity
  8
0
  6
Continuous
 62
     7
 48
1.75
370
    15
100
AcDbLine
 10
4.0024831632
 20
8.7198298607
 30
0.0
 11
3.9250402445
 21
8.7198298607
 31
0.0
  0
LINE
  5
D5
330
1F
100
AcDbEntity
  8
0
  6
Continuous
 62
     7
 48
1.75
370
    15
100
AcDbLine
 10
3.9250402445
 20
8.7198298607
 30
0.0
 11
3.9250402445
 21
8.5298298623
 31
0.0
  0
LINE
  5
D6
330
1F
100
AcDbEntity
  8
0
  6
Continuous
 62
     7
 48
1.75
370
    15
100
AcDbLine
 10
3.9250402445
 20
8.5298298623
 30
0.0
 11
4.0024831632
 21
8.5298298623
 31
0.0
  0
ARC
  5
D7
330
1F
100
AcDbEntity
  8
0
  6
Continuous
 62
     7
 48
3.0625
370
    15
100
AcDbCircle
 10
6.2620402157
 20
4.5928298615
 30
0.0
 40
0.093
100
AcDbArc
 50
270.0
 51
0.0
  0
ARC
  5
D8
330
1F
100
AcDbEntity
  8
0
  6
Continuous
 62
     7
 48
3.0625
370
    15
100
AcDbCircle
 10
2.9480402157
 20
4.5928298615
 30
0.0
 40
0.0930000000000004
100
AcDbArc
 50
180.0
 51
270.0
  0
LINE
  5
D9
330
1F
100
AcDbEntity
  8
0
  6
Continuous
 62
     7
 48
1.75
370
    15
100
AcDbLine
 10
6.3550402129
 20
4.5928299595
 30
0.0
 11
6.3550402129
 21
12.6568297635
 31
0.0
  0
LINE
  5
DA
330
1F
100
AcDbEntity
  8
0
  6
Continuous
 62
     7
 48
1.75
370
    15
100
AcDbLine
 10
2.8550402185
 20
12.6568297635
 30
0.0
 11
2.8550402185
 21
4.5928299595
 31
0.0
  0
LINE
  5
DB
330
1F
100
AcDbEntity
  8
0
  6
Continuous
 62
     7
 48
1.75
370
    15
100
AcDbLine
 10
6.2620402473
 20
12.7498297291
 30
0.0
 11
2.9480401842
 21
12.7498297291
 31
0.0
  0
ARC
  5
DC
330
1F
100
AcDbEntity
  8
0
  6
Continuous
 62
     7
 48
3.0625
370
    15
100
AcDbCircle
 10
6.2620402157
 20
12.6568298615
 30
0.0
 40
0.0930000000000009
100
AcDbArc
 50
0.0
 51
90.0
  0
ARC
  5
DD
330
1F
100
AcDbEntity
  8
0
  6
Continuous
 62
     7
 48
3.0625
370
    15
100
AcDbCircle
 10
2.9480402157
 20
12.6568298615
 30
0.0
 40
0.093
100
AcDbArc
 50
90.0
 51
180.0
  0
CIRCLE
  5
DE
330
1F
100
AcDbEntity
  8
0
  6
Continuous
 62
     7
 48
3.0625
370
    15
100
AcDbCircle
 10
5.8550402157
 20
12.2498298615
 30
0.0
 40
0.25
  0
CIRCLE
  5
DF
330
1F
100
AcDbEntity
  8
0
  6
Continuous
 62
     7
 48
3.0625
370
    15
100
AcDbCircle
 10
3.3550402157
 20
12.2498298615
 30
0.0
 40
0.25
  0
CIRCLE
  5
E0
330
1F
100
AcDbEntity
  8
0
  6
Continuous
 62
     7
 48
3.0625
370
    15
100
AcDbCircle
 10
5.8550402157
 20
4.9998298615
 30
0.0
 40
0.2499999999999991
  0
CIRCLE
  5
E1
330
1F
100
AcDbEntity
  8
0
  6
Continuous
 62
     7
 48
3.0625
370
    15
100
AcDbCircle
 10
3.3550402157
 20
4.9998298615
 30
0.0
 40
0.25
  0
CIRCLE
  5
E2
330
1F
100
AcDbEntity
  8
0
  6
Continuous
 62
     7
 48
3.0625
370
    15
100
AcDbCircle
 10
3.3550402157
 20
12.2498298615
 30
0.0
 40
0.1792913385826768
  0
LINE
  5
E3
330
1F
100
AcDbEntity
  8
0
  6
Continuous
 62
     7
 48
1.75
370
    15
100
AcDbLine
 10
3.3660563286
 20
12.2719917292
 30
0.0
 11
3.3432874716
 21
12.3397694262
 31
0.0
  0
LINE
  5
E4
330
1F
100
AcDbEntity
  8
0
  6
Continuous
 62
     7
 48
1.75
370
    15
100
AcDbLine
 10
3.3432874716
 20
12.3397694262
 30
0.0
 11
3.3101095082
 21
12.3286237683
 31
0.0
  0
LINE
  5
E5
330
1F
100
AcDbEntity
  8
0
  6
Continuous
 62
     7
 48
1.75
370
    15
100
AcDbLine
 10
3.3101095082
 20
12.3286237683
 30
0.0
 11
3.3328785119
 21
12.2608460712
 31
0.0
  0
LINE
  5
E6
330
1F
100
AcDbEntity
  8
0
  6
Continuous
 62
     7
 48
1.75
370
    15
100
AcDbLine
 10
3.3328785119
 20
12.2608460712
 30
0.0
 11
3.2651006682
 21
12.2380772143
 31
0.0
  0
LINE
  5
E7
330
1F
100
AcDbEntity
  8
0
  6
Continuous
 62
     7
 48
1.75
370
    15
100
AcDbLine
 10
3.4338341723
 20
12.2947605861
 30
0.0
 11
3.3660563286
 21
12.2719917292
 31
0.0
  0
LINE
  5
E8
330
1F
100
AcDbEntity
  8
0
  6
Continuous
 62
     7
 48
1.75
370
    15
100
AcDbLine
 10
3.2651006682
 20
12.2380772143
 30
0.0
 11
3.2762463261
 21
12.2048992509
 31
0.0
  0
LINE
  5
E9
330
1F
100
AcDbEntity
  8
0
  6
Continuous
 62
     7
 48
1.75
370
    15
100
AcDbLine
 10
3.2762463261
 20
12.2048992509
 30
0.0
 11
3.3440240231
 21
12.2276681079
 31
0.0
  0
LINE
  5
EA
330
1F
100
AcDbEntity
  8
0
  6
Continuous
 62
     7
 48
1.75
370
    15
100
AcDbLine
 10
3.3440240231
 20
12.2276681079
 30
0.0
 11
3.3667928801
 21
12.1598904108
 31
0.0
  0
LINE
  5
EB
330
1F
100
AcDbEntity
  8
0
  6
Continuous
 62
     7
 48
1.75
370
    15
100
AcDbLine
 10
3.3667928801
 20
12.1598904108
 30
0.0
 11
3.3999708435
 21
12.1710357754
 31
0.0
  0
LINE
  5
EC
330
1F
100
AcDbEntity
  8
0
  6
Continuous
 62
     7
 48
1.75
370
    15
100
AcDbLine
 10
3.3999708435
 20
12.1710357754
 30
0.0
 11
3.3772019865
 21
12.2388137658
 31
0.0
  0
LINE
  5
ED
330
1F
100
AcDbEntity
  8
0
  6
Continuous
 62
     7
 48
1.75
370
    15
100
AcDbLine
 10
3.3772019865
 20
12.2388137658
 30
0.0
 11
3.4449797568
 21
12.2615826227
 31
0.0
  0
LINE
  5
EE
330
1F
100
AcDbEntity
  8
0
  6
Continuous
 62
     7
 48
1.75
370
    15
100
AcDbLine
 10
3.4449797568
 20
12.2615826227
 30
0.0
 11
3.4338341723
 21
12.2947605861
 31
0.0
  0
CIRCLE
  5
EF
330
1F
100
AcDbEntity
  8
0
  6
Continuous
 62
     7
 48
3.0625
370
    15
100
AcDbCircle
 10
3.3550402157
 20
12.2498298615
 30
0.0
 40
0.2099999999999986
  0
CIRCLE
  5
F0
330
1F
100
AcDbEntity
  8
0
  6
Continuous
 62
     7
 48
3.0625
370
    15
100
AcDbCircle
 10
3.3550402157
 20
12.2498298615
 30
0.0
 40
0.2071135629907593
  0
LINE
  5
F1
330
1F
100
AcDbEntity
  8
0
  6
Continuous
 62
     7
 48
1.75
370
    15
100
AcDbLine
 10
5.8660564084
 20
12.2719917292
 30
0.0
 11
5.8432875514
 21
12.3397694262
 31
0.0
  0
LINE
  5
F2
330
1F
100
AcDbEntity
  8
0
  6
Continuous
 62
     7
 48
1.75
370
    15
100
AcDbLine
 10
5.9449797633
 20
12.2615826227
 30
0.0
 11
5.9338341054
 21
12.2947605861
 31
0.0
  0
LINE
  5
F3
330
1F
100
AcDbEntity
  8
0
  6
Continuous
 62
     7
 48
1.75
370
    15
100
AcDbLine
 10
5.9338341054
 20
12.2947605861
 30
0.0
 11
5.8660564084
 21
12.2719917292
 31
0.0
  0
LINE
  5
F4
330
1F
100
AcDbEntity
  8
0
  6
Continuous
 62
     7
 48
1.75
370
    15
100
AcDbLine
 10
5.8432875514
 20
12.3397694262
 30
0.0
 11
5.810109588
 21
12.3286237683
 31
0.0
  0
LINE
  5
F5
330
1F
100
AcDbEntity
  8
0
  6
Continuous
 62
     7
 48
1.75
370
    15
100
AcDbLine
 10
5.810109588
 20
12.3286237683
 30
0.0
 11
5.832878445
 21
12.2608460712
 31
0.0
  0
LINE
  5
F6
330
1F
100
AcDbEntity
  8
0
  6
Continuous
 62
     7
 48
1.75
370
    15
100
AcDbLine
 10
5.7762462592
 20
12.2048992509
 30
0.0
 11
5.8440241029
 21
12.2276681079
 31
0.0
  0
LINE
  5
F7
330
1F
100
AcDbEntity
  8
0
  6
Continuous
 62
     7
 48
1.75
370
    15
100
AcDbLine
 10
5.8440241029
 20
12.2276681079
 30
0.0
 11
5.8667929599
 21
12.1598904108
 31
0.0
  0
LINE
  5
F8
330
1F
100
AcDbEntity
  8
0
  6
Continuous
 62
     7
 48
1.75
370
    15
100
AcDbLine
 10
5.8667929599
 20
12.1598904108
 30
0.0
 11
5.8999709232
 21
12.1710357754
 31
0.0
  0
LINE
  5
F9
330
1F
100
AcDbEntity
  8
0
  6
Continuous
 62
     7
 48
1.75
370
    15
100
AcDbLine
 10
5.8999709232
 20
12.1710357754
 30
0.0
 11
5.8772019196
 21
12.2388137658
 31
0.0
  0
LINE
  5
FA
330
1F
100
AcDbEntity
  8
0
  6
Continuous
 62
     7
 48
1.75
370
    15
100
AcDbLine
 10
5.832878445
 20
12.2608460712
 30
0.0
 11
5.7651006746
 21
12.2380772143
 31
0.0
  0
LINE
  5
FB
330
1F
100
AcDbEntity
  8
0
  6
Continuous
 62
     7
 48
1.75
370
    15
100
AcDbLine
 10
5.7651006746
 20
12.2380772143
 30
0.0
 11
5.7762462592
 21
12.2048992509
 31
0.0
  0
LINE
  5
FC
330
1F
100
AcDbEntity
  8
0
  6
Continuous
 62
     7
 48
1.75
370
    15
100
AcDbLine
 10
5.8772019196
 20
12.2388137658
 30
0.0
 11
5.9449797633
 21
12.2615826227
 31
0.0
  0
CIRCLE
  5
FD
330
1F
100
AcDbEntity
  8
0
  6
Continuous
 62
     7
 48
3.0625
370
    15
100
AcDbCircle
 10
5.8550402157
 20
12.2498298615
 30
0.0
 40
0.1792913385826782
  0
CIRCLE
  5
FE
330
1F
100
AcDbEntity
  8
0
  6
Continuous
 62
     7
 48
3.0625
370
    15
100
AcDbCircle
 10
5.8550402157
 20
12.2498298615
 30
0.0
 40
0.2071135629907588
  0
CIRCLE
  5
FF
330
1F
100
AcDbEntity
  8
0
  6
Continuous
 62
     7
 48
3.0625
370
    15
100
AcDbCircle
 10
5.8550402157
 20
12.2498298615
 30
0.0
 40
0.2099999999999986
  0
LINE
  5
100
330
1F
100
AcDbEntity
  8
0
  6
Continuous
 62
     7
 48
1.75
370
    15
100
AcDbLine
 10
5.8650428067
 20
5.022467103
 30
0.0
 11
5.8392321182
 21
5.089145986
 31
0.0
  0
LINE
  5
101
330
1F
100
AcDbEntity
  8
0
  6
Continuous
 62
     7
 48
1.75
370
    15
100
AcDbLine
 10
5.8392321182
 20
5.089145986
 30
0.0
 11
5.8065921953
 21
5.0765113853
 31
0.0
  0
LINE
  5
102
330
1F
100
AcDbEntity
  8
0
  6
Continuous
 62
     7
 48
1.75
370
    15
100
AcDbLine
 10
5.8776775541
 20
4.9898271067
 30
0.0
 11
5.9443562905
 21
5.0156380885
 31
0.0
  0
LINE
  5
103
330
1F
100
AcDbEntity
  8
0
  6
Continuous
 62
     7
 48
1.75
370
    15
100
AcDbLine
 10
5.9443562905
 20
5.0156380885
 30
0.0
 11
5.9317216898
 21
5.0482777914
 31
0.0
  0
LINE
  5
104
330
1F
100
AcDbEntity
  8
0
  6
Continuous
 62
     7
 48
1.75
370
    15
100
AcDbLine
 10
5.9317216898
 20
5.0482777914
 30
0.0
 11
5.8650428067
 21
5.022467103
 31
0.0
  0
LINE
  5
105
330
1F
100
AcDbEntity
  8
0
  6
Continuous
 62
     7
 48
1.75
370
    15
100
AcDbLine
 10
5.8065921953
 20
5.0765113853
 30
0.0
 11
5.8324029571
 21
5.0098325022
 31
0.0
  0
LINE
  5
106
330
1F
100
AcDbEntity
  8
0
  6
Continuous
 62
     7
 48
1.75
370
    15
100
AcDbLine
 10
5.8324029571
 20
5.0098325022
 30
0.0
 11
5.7657241474
 21
4.9840218137
 31
0.0
  0
LINE
  5
107
330
1F
100
AcDbEntity
  8
0
  6
Continuous
 62
     7
 48
1.75
370
    15
100
AcDbLine
 10
5.7657241474
 20
4.9840218137
 30
0.0
 11
5.7783588215
 21
4.9513818175
 31
0.0
  0
LINE
  5
108
330
1F
100
AcDbEntity
  8
0
  6
Continuous
 62
     7
 48
1.75
370
    15
100
AcDbLine
 10
5.7783588215
 20
4.9513818175
 30
0.0
 11
5.8450375578
 21
4.977192506
 31
0.0
  0
LINE
  5
109
330
1F
100
AcDbEntity
  8
0
  6
Continuous
 62
     7
 48
1.75
370
    15
100
AcDbLine
 10
5.8450375578
 20
4.977192506
 30
0.0
 11
5.8708482463
 21
4.9105139162
 31
0.0
  0
LINE
  5
10A
330
1F
100
AcDbEntity
  8
0
  6
Continuous
 62
     7
 48
1.75
370
    15
100
AcDbLine
 10
5.8708482463
 20
4.9105139162
 30
0.0
 11
5.9034882426
 21
4.923148517
 31
0.0
  0
LINE
  5
10B
330
1F
100
AcDbEntity
  8
0
  6
Continuous
 62
     7
 48
1.75
370
    15
100
AcDbLine
 10
5.9034882426
 20
4.923148517
 30
0.0
 11
5.8776775541
 21
4.9898271067
 31
0.0
  0
CIRCLE
  5
10C
330
1F
100
AcDbEntity
  8
0
  6
Continuous
 62
     7
 48
3.0625
370
    15
100
AcDbCircle
 10
5.8550402157
 20
4.9998298615
 30
0.0
 40
0.179291338582677
  0
CIRCLE
  5
10D
330
1F
100
AcDbEntity
  8
0
  6
Continuous
 62
     7
 48
3.0625
370
    15
100
AcDbCircle
 10
5.8550402157
 20
4.9998298615
 30
0.0
 40
0.2071135629907579
  0
CIRCLE
  5
10E
330
1F
100
AcDbEntity
  8
0
  6
Continuous
 62
     7
 48
3.0625
370
    15
100
AcDbCircle
 10
5.8550402157
 20
4.9998298615
 30
0.0
 40
0.2099999999999997
  0
LINE
  5
10F
330
1F
100
AcDbEntity
  8
0
  6
Continuous
 62
     7
 48
1.75
370
    15
100
AcDbLine
 10
3.4449797568
 20
5.0115825087
 30
0.0
 11
3.4338341723
 21
5.0447604721
 31
0.0
  0
LINE
  5
110
330
1F
100
AcDbEntity
  8
0
  6
Continuous
 62
     7
 48
1.75
370
    15
100
AcDbLine
 10
3.4338341723
 20
5.0447604721
 30
0.0
 11
3.3660563286
 21
5.0219916151
 31
0.0
  0
LINE
  5
111
330
1F
100
AcDbEntity
  8
0
  6
Continuous
 62
     7
 48
1.75
370
    15
100
AcDbLine
 10
3.3667928801
 20
4.9098902968
 30
0.0
 11
3.3999708435
 21
4.9210359547
 31
0.0
  0
LINE
  5
112
330
1F
100
AcDbEntity
  8
0
  6
Continuous
 62
     7
 48
1.75
370
    15
100
AcDbLine
 10
3.3999708435
 20
4.9210359547
 30
0.0
 11
3.3772019865
 21
4.9888136517
 31
0.0
  0
LINE
  5
113
330
1F
100
AcDbEntity
  8
0
  6
Continuous
 62
     7
 48
1.75
370
    15
100
AcDbLine
 10
3.3772019865
 20
4.9888136517
 30
0.0
 11
3.4449797568
 21
5.0115825087
 31
0.0
  0
LINE
  5
114
330
1F
100
AcDbEntity
  8
0
  6
Continuous
 62
     7
 48
1.75
370
    15
100
AcDbLine
 10
3.3660563286
 20
5.0219916151
 30
0.0
 11
3.3432874716
 21
5.0897693121
 31
0.0
  0
LINE
  5
115
330
1F
100
AcDbEntity
  8
0
  6
Continuous
 62
     7
 48
1.75
370
    15
100
AcDbLine
 10
3.3432874716
 20
5.0897693121
 30
0.0
 11
3.3101095082
 21
5.0786239476
 31
0.0
  0
LINE
  5
116
330
1F
100
AcDbEntity
  8
0
  6
Continuous
 62
     7
 48
1.75
370
    15
100
AcDbLine
 10
3.3101095082
 20
5.0786239476
 30
0.0
 11
3.3328785119
 21
5.0108459572
 31
0.0
  0
LINE
  5
117
330
1F
100
AcDbEntity
  8
0
  6
Continuous
 62
     7
 48
1.75
370
    15
100
AcDbLine
 10
3.3328785119
 20
5.0108459572
 30
0.0
 11
3.2651006682
 21
4.9880771002
 31
0.0
  0
LINE
  5
118
330
1F
100
AcDbEntity
  8
0
  6
Continuous
 62
     7
 48
1.75
370
    15
100
AcDbLine
 10
3.2651006682
 20
4.9880771002
 30
0.0
 11
3.2762463261
 21
4.9548991368
 31
0.0
  0
LINE
  5
119
330
1F
100
AcDbEntity
  8
0
  6
Continuous
 62
     7
 48
1.75
370
    15
100
AcDbLine
 10
3.2762463261
 20
4.9548991368
 30
0.0
 11
3.3440240231
 21
4.9776679938
 31
0.0
  0
LINE
  5
11A
330
1F
100
AcDbEntity
  8
0
  6
Continuous
 62
     7
 48
1.75
370
    15
100
AcDbLine
 10
3.3440240231
 20
4.9776679938
 30
0.0
 11
3.3667928801
 21
4.9098902968
 31
0.0
  0
CIRCLE
  5
11B
330
1F
100
AcDbEntity
  8
0
  6
Continuous
 62
     7
 48
3.0625
370
    15
100
AcDbCircle
 10
3.3550402157
 20
4.9998298615
 30
0.0
 40
0.1792913385826767
  0
CIRCLE
  5
11C
330
1F
100
AcDbEntity
  8
0
  6
Continuous
 62
     7
 48
3.0625
370
    15
100
AcDbCircle
 10
3.3550402157
 20
4.9998298615
 30
0.0
 40
0.2100000000000001
  0
CIRCLE
  5
11D
330
1F
100
AcDbEntity
  8
0
  6
Continuous
 62
     7
 48
3.0625
370
    15
100
AcDbCircle
 10
3.3550402157
 20
4.9998298615
 30
0.0
 40
0.207113562990759
  0
ARC
  5
11E
330
1F
100
AcDbEntity
  8
0
  6
Continuous
 62
     7
 48
3.0625
370
    15
100
AcDbCircle
 10
5.7925402157
 20
12.8438298615
 30
0.0
 40
0.1095000000000012
100
AcDbArc
 50
300.8572886398
 51
0.0
  0
ARC
  5
11F
330
1F
100
AcDbEntity
  8
0
  6
Continuous
 62
     7
 48
3.0625
370
    15
100
AcDbCircle
 10
5.7925402157
 20
12.8438298615
 30
0.0
 40
0.1095000000000008
100
AcDbArc
 50
180.0
 51
239.1427113602
  0
LINE
  5
120
330
1F
100
AcDbEntity
  8
0
  6
Continuous
 62
     7
 48
1.75
370
    15
100
AcDbLine
 10
5.9020402193
 20
12.905829927
 30
0.0
 11
5.9020402193
 21
12.8438299499
 31
0.0
  0
ARC
  5
121
330
1F
100
AcDbEntity
  8
0
  6
Continuous
 62
     7
 48
3.0625
370
    15
100
AcDbCircle
 10
5.7925402157
 20
12.9058298615
 30
0.0
 40
0.1095000000000006
100
AcDbArc
 50
0.0
 51
180.0
  0
LINE
  5
122
330
1F
100
AcDbEntity
  8
0
  6
Continuous
 62
     7
 48
1.75
370
    15
100
AcDbLine
 10
5.6830402293
 20
12.8438299499
 30
0.0
 11
5.6830402293
 21
12.905829927
 31
0.0
  0
ARC
  5
123
330
1F
100
AcDbEntity
  8
0
  6
Continuous
 62
     7
 48
3.0625
370
    15
100
AcDbCircle
 10
5.8550402157
 20
12.8748298615
 30
0.0
 40
0.25
100
AcDbArc
 50
0.0
 51
90.0
  0
LINE
  5
124
330
1F
100
AcDbEntity
  8
0
  6
Continuous
 62
     7
 48
1.75
370
    15
100
AcDbLine
 10
6.1050402343
 20
12.8748299385
 30
0.0
 11
6.1050402343
 21
12.7498297291
 31
0.0
  0
ARC
  5
125
330
1F
100
AcDbEntity
  8
0
  6
Continuous
 62
     7
 48
3.0625
370
    15
100
AcDbCircle
 10
3.4175402157
 20
12.9058298615
 30
0.0
 40
0.1095000000000006
100
AcDbArc
 50
0.0
 51
180.0
  0
LINE
  5
126
330
1F
100
AcDbEntity
  8
0
  6
Continuous
 62
     7
 48
1.75
370
    15
100
AcDbLine
 10
3.3080402121
 20
12.905829927
 30
0.0
 11
3.3080402121
 21
12.8438299499
 31
0.0
  0
ARC
  5
127
330
1F
100
AcDbEntity
  8
0
  6
Continuous
 62
     7
 48
3.0625
370
    15
100
AcDbCircle
 10
3.4175402157
 20
12.8438298615
 30
0.0
 40
0.1095000000000006
100
AcDbArc
 50
180.0
 51
239.1427113602
  0
ARC
  5
128
330
1F
100
AcDbEntity
  8
0
  6
Continuous
 62
     7
 48
3.0625
370
    15
100
AcDbCircle
 10
3.4175402157
 20
12.8438298615
 30
0.0
 40
0.1095000000000006
100
AcDbArc
 50
300.8572886398
 51
0.0
  0
LINE
  5
129
330
1F
100
AcDbEntity
  8
0
  6
Continuous
 62
     7
 48
1.75
370
    15
100
AcDbLine
 10
3.5270402022
 20
12.8438299499
 30
0.0
 11
3.5270402022
 21
12.905829927
 31
0.0
  0
LINE
  5
12A
330
1F
100
AcDbEntity
  8
0
  6
Continuous
 62
     7
 48
1.75
370
    15
100
AcDbLine
 10
5.8550402556
 20
13.1248297704
 30
0.0
 11
3.3550401758
 21
13.1248297704
 31
0.0
  0
ARC
  5
12B
330
1F
100
AcDbEntity
  8
0
  6
Continuous
 62
     7
 48
3.0625
370
    15
100
AcDbCircle
 10
3.3550402157
 20
12.8748298615
 30
0.0
 40
0.2500000000000018
100
AcDbArc
 50
90.0
 51
180.0
  0
LINE
  5
12C
330
1F
100
AcDbEntity
  8
0
  6
Continuous
 62
     7
 48
1.75
370
    15
100
AcDbLine
 10
3.1050401972
 20
12.8748299385
 30
0.0
 11
3.1050401972
 21
12.7498297291
 31
0.0
  0
LINE
  5
12D
330
1F
100
AcDbEntity
  8
0
  6
Continuous
 62
     7
 48
1.75
370
    15
100
AcDbLine
 10
3.3080402121
 20
4.343829796
 30
0.0
 11
3.3080402121
 21
4.4058297731
 31
0.0
  0
ARC
  5
12E
330
1F
100
AcDbEntity
  8
0
  6
Continuous
 62
     7
 48
3.0625
370
    15
100
AcDbCircle
 10
3.4175402157
 20
4.3438298615
 30
0.0
 40
0.1095000000000006
100
AcDbArc
 50
180.0
 51
0.0
  0
LINE
  5
12F
330
1F
100
AcDbEntity
  8
0
  6
Continuous
 62
     7
 48
1.75
370
    15
100
AcDbLine
 10
3.5270402022
 20
4.4058297731
 30
0.0
 11
3.5270402022
 21
4.343829796
 31
0.0
  0
ARC
  5
130
330
1F
100
AcDbEntity
  8
0
  6
Continuous
 62
     7
 48
3.0625
370
    15
100
AcDbCircle
 10
3.3550402157
 20
4.3748298615
 30
0.0
 40
0.25
100
AcDbArc
 50
180.0
 51
270.0
  0
ARC
  5
131
330
1F
100
AcDbEntity
  8
0
  6
Continuous
 62
     7
 48
3.0625
370
    15
100
AcDbCircle
 10
5.7925402157
 20
4.3438298615
 30
0.0
 40
0.1095000000000006
100
AcDbArc
 50
180.0
 51
0.0
  0
LINE
  5
132
330
1F
100
AcDbEntity
  8
0
  6
Continuous
 62
     7
 48
1.75
370
    15
100
AcDbLine
 10
5.9020402193
 20
4.343829796
 30
0.0
 11
5.9020402193
 21
4.4058297731
 31
0.0
  0
ARC
  5
133
330
1F
100
AcDbEntity
  8
0
  6
Continuous
 62
     7
 48
3.0625
370
    15
100
AcDbCircle
 10
5.7925402157
 20
4.4058298615
 30
0.0
 40
0.1095000000000016
100
AcDbArc
 50
0.0
 51
59.1427113602
  0
ARC
  5
134
330
1F
100
AcDbEntity
  8
0
  6
Continuous
 62
     7
 48
3.0625
370
    15
100
AcDbCircle
 10
5.7925402157
 20
4.4058298615
 30
0.0
 40
0.1095000000000007
100
AcDbArc
 50
120.8572886398
 51
180.0
  0
LINE
  5
135
330
1F
100
AcDbEntity
  8
0
  6
Continuous
 62
     7
 48
1.75
370
    15
100
AcDbLine
 10
5.6830402293
 20
4.4058297731
 30
0.0
 11
5.6830402293
 21
4.343829796
 31
0.0
  0
LINE
  5
136
330
1F
100
AcDbEntity
  8
0
  6
Continuous
 62
     7
 48
1.75
370
    15
100
AcDbLine
 10
3.1050401972
 20
4.3748297845
 30
0.0
 11
3.1050401972
 21
4.4998299938
 31
0.0
  0
LINE
  5
137
330
1F
100
AcDbEntity
  8
0
  6
Continuous
 62
     7
 48
1.75
370
    15
100
AcDbLine
 10
3.3550401758
 20
4.1248299525
 30
0.0
 11
5.8550402556
 21
4.1248299525
 31
0.0
  0
ARC
  5
138
330
1F
100
AcDbEntity
  8
0
  6
Continuous
 62
     7
 48
3.0625
370
    15
100
AcDbCircle
 10
5.8550402157
 20
4.3748298615
 30
0.0
 40
0.2500000000000009
100
AcDbArc
 50
270.0
 51
0.0
  0
LINE
  5
139
330
1F
100
AcDbEntity
  8
0
  6
Continuous
 62
     7
 48
1.75
370
    15
100
AcDbLine
 10
6.1050402343
 20
4.3748297845
 30
0.0
 11
6.1050402343
 21
4.4998299938
 31
0.0
  0
ARC
  5
13A
330
1F
100
AcDbEntity
  8
0
  6
Continuous
 62
     7
 48
3.0625
370
    15
100
AcDbCircle
 10
3.4175402157
 20
4.4058298615
 30
0.0
 40
0.1095000000000006
100
AcDbArc
 50
120.8572886398
 51
180.0
  0
ARC
  5
13B
330
1F
100
AcDbEntity
  8
0
  6
Continuous
 62
     7
 48
3.0625
370
    15
100
AcDbCircle
 10
3.4175402157
 20
4.4058298615
 30
0.0
 40
0.1095000000000006
100
AcDbArc
 50
0.0
 51
59.1427113602
  0
DIMENSION
  5
13C
330
1F
100
AcDbEntity
  8
0
  6
Continuous
 62
     7
 48
1.75
370
     0
100
AcDbDimension
  2
*D6
 10
1.9957852804
 20
8.6248298615
 30
0.0
 11
1.9957852804
 21
9.7498298615
 31
0.0
 70
   160
  1
<> TYP.
 71
     2
 42
-1.0
  3
SLDDIMSTYLE1
100
AcDbAlignedDimension
 13
4.6050402157
 23
10.8748298615
 33
0.0
 14
4.6050402157
 24
8.6248298615
 34
0.0
 50
90.0
100
AcDbRotatedDimension
  0
DIMENSION
  5
150
330
1F
100
AcDbEntity
  8
0
  6
Continuous
 62
     7
 48
1.75
370
     0
100
AcDbDimension
  2
*D7
 10
4.5100402157
 20
13.5586276563
 30
0.0
 11
5.6959894779
 21
13.5586276563
 31
0.0
 70
   160
 71
     2
 42
-1.0
  3
SLDDIMSTYLE2
100
AcDbAlignedDimension
 13
4.7000402157
 23
11.5548298615
 33
0.0
 14
4.5100402157
 24
11.5548298615
 34
0.0
100
AcDbRotatedDimension
  0
DIMENSION
  5
163
330
1F
100
AcDbEntity
  8
0
  6
Continuous
 62
     7
 48
1.75
370
     0
100
AcDbDimension
  2
*D8
 10
6.8996012903
 20
10.1948298615
 30
0.0
 11
6.8996012903
 21
10.8748298615
 31
0.0
 70
   160
 71
     2
 42
-1.0
  3
SLDDIMSTYLE1
100
AcDbAlignedDimension
 13
4.7000402157
 23
11.5548298615
 33
0.0
 14
4.7000402157
 24
10.1948298615
 34
0.0
 50
90.0
100
AcDbRotatedDimension
  0
DIMENSION
  5
175
330
1F
100
AcDbEntity
  8
0
  6
Continuous
 62
     7
 48
1.75
370
     0
100
AcDbDimension
  2
*D9
 10
5.14283765
 20
10.5869515544
 30
0.0
 11
1.7587508373
 21
11.9878122401
 31
0.0
 70
   163
  1
<>
 71
     1
 42
-1.0
  3
SLDDIMSTYLE3
100
AcDbDiametricDimension
 15
4.0672427815
 25
11.1627081686
 35
0.0
 40
0.0
  0
INSERT
  5
18E
102
{ACAD_REACTORS
330
190
102
}
330
1F
100
AcDbEntity
  8
0
  6
Continuous
 62
     7
 48
1.75
370
     0
100
AcDbBlockReference
  2
SW_NOTE_4
 10
2.3981809385
 20
2.588439329
 30
0.0
  0
LEADER
  5
190
330
1F
100
AcDbEntity
  8
0
  6
Continuous
 62
     7
 48
1.75
370
     0
100
AcDbLeader
  3
SLDDIMSTYLE4
 73
     2
 76
     3
 10
3.2506435048
 20
4.8209518172
 30
0.0
 10
1.9606809385
 20
2.588439329
 30
0.0
 10
2.3981809385
 20
2.588439329
 30
0.0
340
18E
  0
INSERT
  5
198
330
1F
100
AcDbEntity
  8
0
  6
Continuous
 62
     7
 48
1.75
370
     0
100
AcDbBlockReference
  2
SW_CENTERMARKSYMBOL_0
 10
4.6050402157
 20
10.8748298615
 30
0.0
  0
INSERT
  5
1A0
330
1F
100
AcDbEntity
  8
0
  6
Continuous
 62
     7
 48
1.75
370
     0
100
AcDbBlockReference
  2
SW_CENTERMARKSYMBOL_1
 10
4.6050402157
 20
8.6248298615
 30
0.0
  0
ARC
  5
1A1
330
1F
100
AcDbEntity
  8
0
  6
Continuous
 62
     7
 48
3.0625
370
    15
100
AcDbCircle
 10
13.6859104465
 20
12.0148298615
 30
0.0
 40
0.0149999999999988
100
AcDbArc
 50
270.0
 51
0.0
  0
ARC
  5
1A2
330
1F
100
AcDbEntity
  8
0
  6
Continuous
 62
     7
 48
3.0625
370
    15
100
AcDbCircle
 10
13.6859104465
 20
12.4848298615
 30
0.0
 40
0.0150000000000006
100
AcDbArc
 50
0.0
 51
90.0
  0
ARC
  5
1A3
330
1F
100
AcDbEntity
  8
0
  6
Continuous
 62
     7
 48
3.0625
370
    15
100
AcDbCircle
 10
13.6459104465
 20
12.0148298615
 30
0.0
 40
0.0149999999999988
100
AcDbArc
 50
180.0
 51
270.0
  0
ARC
  5
1A4
330
1F
100
AcDbEntity
  8
0
  6
Continuous
 62
     7
 48
3.0625
370
    15
100
AcDbCircle
 10
13.6459104465
 20
12.4848298615
 30
0.0
 40
0.0150000000000006
100
AcDbArc
 50
90.0
 51
180.0
  0
LINE
  5
1A5
330
1F
100
AcDbEntity
  8
0
  6
Continuous
 62
     7
 48
1.75
370
    15
100
AcDbLine
 10
13.6859105776
 20
12.4998298972
 30
0.0
 11
13.6459103463
 21
12.4998298972
 31
0.0
  0
LINE
  5
1A6
330
1F
100
AcDbEntity
  8
0
  6
Continuous
 62
     7
 48
1.75
370
    15
100
AcDbLine
 10
13.6459103463
 20
11.9998299399
 30
0.0
 11
13.6859105776
 21
11.9998299399
 31
0.0
  0
ARC
  5
1A7
330
1F
100
AcDbEntity
  8
0
  6
Continuous
 62
     7
 48
3.0625
370
    15
100
AcDbCircle
 10
13.6859104465
 20
4.7648298615
 30
0.0
 40
0.0150000000000006
100
AcDbArc
 50
270.0
 51
0.0
  0
ARC
  5
1A8
330
1F
100
AcDbEntity
  8
0
  6
Continuous
 62
     7
 48
3.0625
370
    15
100
AcDbCircle
 10
13.6859104465
 20
5.2348298615
 30
0.0
 40
0.0150000000000006
100
AcDbArc
 50
0.0
 51
90.0
  0
LINE
  5
1A9
330
1F
100
AcDbEntity
  8
0
  6
Continuous
 62
     7
 48
1.75
370
    15
100
AcDbLine
 10
13.6859105776
 20
5.2498297831
 30
0.0
 11
13.6459103463
 21
5.2498297831
 31
0.0
  0
LINE
  5
1AA
330
1F
100
AcDbEntity
  8
0
  6
Continuous
 62
     7
 48
1.75
370
    15
100
AcDbLine
 10
13.6459103463
 20
4.7498298258
 30
0.0
 11
13.6859105776
 21
4.7498298258
 31
0.0
  0
ARC
  5
1AB
330
1F
100
AcDbEntity
  8
0
  6
Continuous
 62
     7
 48
3.0625
370
    15
100
AcDbCircle
 10
13.6459104465
 20
4.7648298615
 30
0.0
 40
0.0150000000000006
100
AcDbArc
 50
180.0
 51
270.0
  0
ARC
  5
1AC
330
1F
100
AcDbEntity
  8
0
  6
Continuous
 62
     7
 48
3.0625
370
    15
100
AcDbCircle
 10
13.6459104465
 20
5.2348298615
 30
0.0
 40
0.0150000000000006
100
AcDbArc
 50
90.0
 51
180.0
  0
LINE
  5
1AD
330
1F
100
AcDbEntity
  8
0
  6
Continuous
 62
     7
 48
1.75
370
    15
100
AcDbLine
 10
13.6309103329
 20
12.4598299592
 30
0.0
 11
13.5979183407
 21
12.4569432992
 31
0.0
  0
LINE
  5
1AE
330
1F
100
AcDbEntity
  8
0
  6
Continuous
 62
     7
 48
1.75
370
    15
100
AcDbLine
 10
13.5979183407
 20
12.0427162444
 30
0.0
 11
13.6309103329
 21
12.0398298778
 31
0.0
  0
ARC
  5
1AF
330
1F
100
AcDbEntity
  8
0
  6
Continuous
 62
     7
 48
3.0625
370
    15
100
AcDbCircle
 10
13.593666352
 20
12.1492786804
 30
0.0
 40
0.0787401574803148
100
AcDbArc
 50
180.0
 51
270.0
  0
ARC
  5
1B0
330
1F
100
AcDbEntity
  8
0
  6
Continuous
 62
     7
 48
3.0625
370
    15
100
AcDbCircle
 10
13.593666352
 20
12.3503810426
 30
0.0
 40
0.0787401574803148
100
AcDbArc
 50
90.0
 51
180.0
  0
LINE
  5
1B1
330
1F
100
AcDbEntity
  8
0
  6
Continuous
 62
     7
 48
1.75
370
    15
100
AcDbLine
 10
13.5979183407
 20
12.4291212473
 30
0.0
 11
13.5936662299
 21
12.4291212473
 31
0.0
  0
LINE
  5
1B2
330
1F
100
AcDbEntity
  8
0
  6
Continuous
 62
     7
 48
1.75
370
    15
100
AcDbLine
 10
13.5936662299
 20
12.0705385897
 30
0.0
 11
13.5979183407
 21
12.0705385897
 31
0.0
  0
LINE
  5
1B3
330
1F
100
AcDbEntity
  8
0
  6
Continuous
 62
     7
 48
1.75
370
    15
100
AcDbLine
 10
13.6309103329
 20
5.2098298452
 30
0.0
 11
13.5979183407
 21
5.2069434785
 31
0.0
  0
LINE
  5
1B4
330
1F
100
AcDbEntity
  8
0
  6
Continuous
 62
     7
 48
1.75
370
    15
100
AcDbLine
 10
13.5979183407
 20
4.7927164237
 30
0.0
 11
13.6309103329
 21
4.7898297637
 31
0.0
  0
LINE
  5
1B5
330
1F
100
AcDbEntity
  8
0
  6
Continuous
 62
     7
 48
1.75
370
    15
100
AcDbLine
 10
13.5979183407
 20
5.1791211333
 30
0.0
 11
13.5936662299
 21
5.1791211333
 31
0.0
  0
LINE
  5
1B6
330
1F
100
AcDbEntity
  8
0
  6
Continuous
 62
     7
 48
1.75
370
    15
100
AcDbLine
 10
13.5936662299
 20
4.8205384756
 30
0.0
 11
13.5979183407
 21
4.8205384756
 31
0.0
  0
ARC
  5
1B7
330
1F
100
AcDbEntity
  8
0
  6
Continuous
 62
     7
 48
3.0625
370
    15
100
AcDbCircle
 10
13.593666352
 20
4.8992786804
 30
0.0
 40
0.0787401574803148
100
AcDbArc
 50
180.0
 51
270.0
  0
ARC
  5
1B8
330
1F
100
AcDbEntity
  8
0
  6
Continuous
 62
     7
 48
3.0625
370
    15
100
AcDbCircle
 10
13.593666352
 20
5.1003810426
 30
0.0
 40
0.0787401574803148
100
AcDbArc
 50
90.0
 51
180.0
  0
LINE
  5
1B9
330
1F
100
AcDbEntity
  8
0
  6
Continuous
 62
     7
 48
1.75
370
    15
100
AcDbLine
 10
13.7939105566
 20
12.7498297291
 30
0.0
 11
14.2009104016
 21
12.7498297291
 31
0.0
  0
LINE
  5
1BA
330
1F
100
AcDbEntity
  8
0
  6
Continuous
 62
     7
 48
1.75
370
    15
100
AcDbLine
 10
14.2009104016
 20
12.7498297291
 30
0.0
 11
14.2009104016
 21
12.6568297635
 31
0.0
  0
LINE
  5
1BB
330
1F
100
AcDbEntity
  8
0
  6
Continuous
 62
     7
 48
1.75
370
    15
100
AcDbLine
 10
14.2009104016
 20
4.5928299595
 30
0.0
 11
14.2009104016
 21
12.6568297635
 31
0.0
  0
ARC
  5
1BC
330
1F
100
AcDbEntity
  8
0
  6
Continuous
 62
     7
 48
3.0625
370
    15
100
AcDbCircle
 10
13.7939104465
 20
12.6568298615
 30
0.0
 40
0.093
100
AcDbArc
 50
90.0
 51
180.0
  0
LINE
  5
1BD
330
1F
100
AcDbEntity
  8
0
  6
Continuous
 62
     7
 48
1.75
370
    15
100
AcDbLine
 10
13.700910591
 20
12.6568297635
 30
0.0
 11
13.700910591
 21
4.5928299595
 31
0.0
  0
LINE
  5
1BE
330
1F
100
AcDbEntity
  8
0
  6
Continuous
 62
     7
 48
1.75
370
    15
100
AcDbLine
 10
14.2009104016
 20
4.4998299938
 30
0.0
 11
13.7939105566
 21
4.4998299938
 31
0.0
  0
LINE
  5
1BF
330
1F
100
AcDbEntity
  8
0
  6
Continuous
 62
     7
 48
1.75
370
    15
100
AcDbLine
 10
14.2009104016
 20
4.5928299595
 30
0.0
 11
14.2009104016
 21
4.4998299938
 31
0.0
  0
ARC
  5
1C0
330
1F
100
AcDbEntity
  8
0
  6
Continuous
 62
     7
 48
3.0625
370
    15
100
AcDbCircle
 10
13.7939104465
 20
4.5928298615
 30
0.0
 40
0.0930000000000017
100
AcDbArc
 50
180.0
 51
270.0
  0
LINE
  5
1C1
330
1F
100
AcDbEntity
  8
0
  6
Continuous
 62
     7
 48
1.75
370
    15
100
AcDbLine
 10
16.5359104441
 20
4.6248299098
 30
0.0
 11
14.2009104016
 21
4.6248299098
 31
0.0
  0
LINE
  5
1C2
330
1F
100
AcDbEntity
  8
0
  6
Continuous
 62
     7
 48
1.75
370
    15
100
AcDbLine
 10
14.2009104016
 20
12.6248298131
 30
0.0
 11
16.5359104441
 21
12.6248298131
 31
0.0
  0
LINE
  5
1C3
330
1F
100
AcDbEntity
  8
0
  6
Continuous
 62
     7
 48
1.75
370
    15
100
AcDbLine
 10
16.6289104465
 20
4.7178298755
 30
0.0
 11
16.6289104465
 21
12.5318298475
 31
0.0
  0
ARC
  5
1C4
330
1F
100
AcDbEntity
  8
0
  6
Continuous
 62
     7
 48
3.0625
370
    15
100
AcDbCircle
 10
16.5359104465
 20
12.5318298615
 30
0.0
 40
0.093
100
AcDbArc
 50
360.0
 51
90.0
  0
ARC
  5
1C5
330
1F
100
AcDbEntity
  8
0
  6
Continuous
 62
     7
 48
3.0625
370
    15
100
AcDbCircle
 10
16.5359104465
 20
4.7178298615
 30
0.0
 40
0.093
100
AcDbArc
 50
270.0
 51
0.0
  0
LINE
  5
1C6
330
1F
100
AcDbEntity
  8
0
  6
Continuous
 62
     7
 48
1.75
370
    15
100
AcDbLine
 10
13.6309103329
 20
12.0148299532
 30
0.0
 11
13.6309103329
 21
12.4848298838
 31
0.0
  0
LINE
  5
1C7
330
1F
100
AcDbEntity
  8
0
  6
Continuous
 62
     7
 48
1.75
370
    15
100
AcDbLine
 10
13.6309103329
 20
4.7648298392
 30
0.0
 11
13.6309103329
 21
5.2348297697
 31
0.0
  0
LINE
  5
1C8
330
1F
100
AcDbEntity
  8
0
  6
Continuous
 62
     7
 48
1.75
370
    15
100
AcDbLine
 10
13.5979183407
 20
12.0534984665
 30
0.0
 11
13.5979183407
 21
12.4569432992
 31
0.0
  0
LINE
  5
1C9
330
1F
100
AcDbEntity
  8
0
  6
Continuous
 62
     7
 48
1.75
370
    15
100
AcDbLine
 10
13.5979183407
 20
12.0427162444
 30
0.0
 11
13.5979183407
 21
12.0534984665
 31
0.0
  0
LINE
  5
1CA
330
1F
100
AcDbEntity
  8
0
  6
Continuous
 62
     7
 48
1.75
370
    15
100
AcDbLine
 10
13.5149262061
 20
12.1545133796
 30
0.0
 11
13.5149262061
 21
12.3503809303
 31
0.0
  0
LINE
  5
1CB
330
1F
100
AcDbEntity
  8
0
  6
Continuous
 62
     7
 48
1.75
370
    15
100
AcDbLine
 10
13.5149262061
 20
12.1492786134
 30
0.0
 11
13.5149262061
 21
12.1545133796
 31
0.0
  0
LINE
  5
1CC
330
1F
100
AcDbEntity
  8
0
  6
Continuous
 62
     7
 48
1.75
370
    15
100
AcDbLine
 10
13.5979183407
 20
4.8066818624
 30
0.0
 11
13.5979183407
 21
5.2069434785
 31
0.0
  0
LINE
  5
1CD
330
1F
100
AcDbEntity
  8
0
  6
Continuous
 62
     7
 48
1.75
370
    15
100
AcDbLine
 10
13.5979183407
 20
4.7927164237
 30
0.0
 11
13.5979183407
 21
4.8066818624
 31
0.0
  0
LINE
  5
1CE
330
1F
100
AcDbEntity
  8
0
  6
Continuous
 62
     7
 48
1.75
370
    15
100
AcDbLine
 10
13.5149262061
 20
4.906058821
 30
0.0
 11
13.5149262061
 21
5.1003811095
 31
0.0
  0
LINE
  5
1CF
330
1F
100
AcDbEntity
  8
0
  6
Continuous
 62
     7
 48
1.75
370
    15
100
AcDbLine
 10
13.5149262061
 20
4.8992787927
 30
0.0
 11
13.5149262061
 21
4.906058821
 31
0.0
  0
LINE
  5
1D0
330
1F
100
AcDbEntity
  8
0
  6
Continuous
 62
     7
 48
1.75
370
    15
100
AcDbLine
 10
16.7069104446
 20
13.1248297704
 30
0.0
 11
16.6289104465
 21
13.1248297704
 31
0.0
  0
LINE
  5
1D1
330
1F
100
AcDbEntity
  8
0
  6
Continuous
 62
     7
 48
1.75
370
    15
100
AcDbLine
 10
16.7069104446
 20
13.1248297704
 30
0.0
 11
16.7069104446
 21
12.8748299385
 31
0.0
  0
LINE
  5
1D2
330
1F
100
AcDbEntity
  8
0
  6
Continuous
 62
     7
 48
1.75
370
    15
100
AcDbLine
 10
16.6289104465
 20
13.1248297704
 30
0.0
 11
16.6289104465
 21
12.8748299385
 31
0.0
  0
LINE
  5
1D3
330
1F
100
AcDbEntity
  8
0
  6
Continuous
 62
     7
 48
1.75
370
    15
100
AcDbLine
 10
16.6289104465
 20
12.8748299385
 30
0.0
 11
16.6289104465
 21
12.5318298475
 31
0.0
  0
LINE
  5
1D4
330
1F
100
AcDbEntity
  8
0
  6
Continuous
 62
     7
 48
1.75
370
    15
100
AcDbLine
 10
16.7069104446
 20
12.8748299385
 30
0.0
 11
16.7069104446
 21
11.6248298986
 31
0.0
  0
LINE
  5
1D5
330
1F
100
AcDbEntity
  8
0
  6
Continuous
 62
     7
 48
1.75
370
    15
100
AcDbLine
 10
16.7069104446
 20
11.6248298986
 30
0.0
 11
16.6289104465
 21
11.6248298986
 31
0.0
  0
LINE
  5
1D6
330
1F
100
AcDbEntity
  8
0
  6
Continuous
 62
     7
 48
1.75
370
    15
100
AcDbLine
 10
16.7069104446
 20
5.6248298244
 30
0.0
 11
16.6289104465
 21
5.6248298244
 31
0.0
  0
LINE
  5
1D7
330
1F
100
AcDbEntity
  8
0
  6
Continuous
 62
     7
 48
1.75
370
    15
100
AcDbLine
 10
16.7069104446
 20
4.3748297845
 30
0.0
 11
16.7069104446
 21
5.6248298244
 31
0.0
  0
LINE
  5
1D8
330
1F
100
AcDbEntity
  8
0
  6
Continuous
 62
     7
 48
1.75
370
    15
100
AcDbLine
 10
16.6289104465
 20
4.3748297845
 30
0.0
 11
16.6289104465
 21
4.7178298755
 31
0.0
  0
LINE
  5
1D9
330
1F
100
AcDbEntity
  8
0
  6
Continuous
 62
     7
 48
1.75
370
    15
100
AcDbLine
 10
16.7069104446
 20
4.1248299525
 30
0.0
 11
16.7069104446
 21
4.3748297845
 31
0.0
  0
LINE
  5
1DA
330
1F
100
AcDbEntity
  8
0
  6
Continuous
 62
     7
 48
1.75
370
    15
100
AcDbLine
 10
16.7069104446
 20
4.1248299525
 30
0.0
 11
16.6289104465
 21
4.1248299525
 31
0.0
  0
LINE
  5
1DB
330
1F
100
AcDbEntity
  8
0
  6
Continuous
 62
     7
 48
1.75
370
    15
100
AcDbLine
 10
16.6289104465
 20
4.1248299525
 30
0.0
 11
16.6289104465
 21
4.3748297845
 31
0.0
  0
LINE
  5
1DC
330
1F
100
AcDbEntity
  8
0
  6
HIDDEN
 62
     7
 48
1.75
370
     0
100
AcDbLine
 10
13.7789105432
 20
4.5938299213
 30
0.0
 11
13.8789105347
 21
4.5938299213
 31
0.0
  0
LINE
  5
1DD
330
1F
100
AcDbEntity
  8
0
  6
HIDDEN
 62
     7
 48
1.75
370
     0
100
AcDbLine
 10
13.7789105432
 20
12.6558298017
 30
0.0
 11
13.8789105347
 21
12.6558298017
 31
0.0
  0
LINE
  5
1DE
330
1F
100
AcDbEntity
  8
0
  6
HIDDEN
 62
     7
 48
1.75
370
     0
100
AcDbLine
 10
13.8789105347
 20
12.6558298017
 30
0.0
 11
13.8789105347
 21
4.5938299213
 31
0.0
  0
LINE
  5
1DF
330
1F
100
AcDbEntity
  8
0
  6
HIDDEN
 62
     7
 48
1.75
370
     0
100
AcDbLine
 10
13.7789105432
 20
11.843829742
 30
0.0
 11
13.8789105347
 21
11.843829742
 31
0.0
  0
LINE
  5
1E0
330
1F
100
AcDbEntity
  8
0
  6
HIDDEN
 62
     7
 48
1.75
370
     0
100
AcDbLine
 10
13.7789105432
 20
5.405829981
 30
0.0
 11
13.8789105347
 21
5.405829981
 31
0.0
  0
LINE
  5
1E1
330
1F
100
AcDbEntity
  8
0
  6
HIDDEN
 62
     7
 48
1.75
370
     0
100
AcDbLine
 10
13.7789105432
 20
12.2808297604
 30
0.0
 11
13.8789105347
 21
12.2808297604
 31
0.0
  0
LINE
  5
1E2
330
1F
100
AcDbEntity
  8
0
  6
HIDDEN
 62
     7
 48
1.75
370
     0
100
AcDbLine
 10
13.7789105432
 20
4.9688299626
 30
0.0
 11
13.8789105347
 21
4.9688299626
 31
0.0
  0
LINE
  5
1E3
330
1F
100
AcDbEntity
  8
0
  6
HIDDEN
 62
     7
 48
1.75
370
     0
100
AcDbLine
 10
13.7939105566
 20
12.6718297769
 30
0.0
 11
14.2009104016
 21
12.6718297769
 31
0.0
  0
ARC
  5
1E4
330
1F
100
AcDbEntity
  8
0
  6
HIDDEN
 62
     7
 48
3.0625
370
     0
100
AcDbCircle
 10
13.7939104465
 20
12.6568298615
 30
0.0
 40
0.0150000000000006
100
AcDbArc
 50
90.0
 51
180.0
  0
LINE
  5
1E5
330
1F
100
AcDbEntity
  8
0
  6
HIDDEN
 62
     7
 48
1.75
370
     0
100
AcDbLine
 10
13.7789105432
 20
12.6568297635
 30
0.0
 11
13.7789105432
 21
4.5928299595
 31
0.0
  0
LINE
  5
1E6
330
1F
100
AcDbEntity
  8
0
  6
HIDDEN
 62
     7
 48
1.75
370
     0
100
AcDbLine
 10
14.2009104016
 20
4.5778299461
 30
0.0
 11
13.7939105566
 21
4.5778299461
 31
0.0
  0
ARC
  5
1E7
330
1F
100
AcDbEntity
  8
0
  6
HIDDEN
 62
     7
 48
3.0625
370
     0
100
AcDbCircle
 10
13.7939104465
 20
4.5928298615
 30
0.0
 40
0.0150000000000015
100
AcDbArc
 50
180.0
 51
270.0
  0
LINE
  5
1E8
330
1F
100
AcDbEntity
  8
0
  6
HIDDEN
 62
     7
 48
1.75
370
     0
100
AcDbLine
 10
13.7789105432
 20
10.7798299267
 30
0.0
 11
13.700910591
 21
10.7798299267
 31
0.0
  0
LINE
  5
1E9
330
1F
100
AcDbEntity
  8
0
  6
HIDDEN
 62
     7
 48
1.75
370
     0
100
AcDbLine
 10
13.7789105432
 20
10.9698298518
 30
0.0
 11
13.700910591
 21
10.9698298518
 31
0.0
  0
LINE
  5
1EA
330
1F
100
AcDbEntity
  8
0
  6
HIDDEN
 62
     7
 48
1.75
370
     0
100
AcDbLine
 10
13.7789105432
 20
8.5298298623
 30
0.0
 11
13.700910591
 21
8.5298298623
 31
0.0
  0
LINE
  5
1EB
330
1F
100
AcDbEntity
  8
0
  6
HIDDEN
 62
     7
 48
1.75
370
     0
100
AcDbLine
 10
13.7789105432
 20
8.7198298607
 30
0.0
 11
13.700910591
 21
8.7198298607
 31
0.0
  0
LINE
  5
1EC
330
1F
100
AcDbEntity
  8
0
  6
HIDDEN
 62
     7
 48
1.75
370
     0
100
AcDbLine
 10
13.7789105432
 20
6.2798298711
 30
0.0
 11
13.700910591
 21
6.2798298711
 31
0.0
  0
LINE
  5
1ED
330
1F
100
AcDbEntity
  8
0
  6
HIDDEN
 62
     7
 48
1.75
370
     0
100
AcDbLine
 10
13.7789105432
 20
6.4698297962
 30
0.0
 11
13.700910591
 21
6.4698297962
 31
0.0
  0
LINE
  5
1EE
330
1F
100
AcDbEntity
  8
0
  6
HIDDEN
 62
     7
 48
1.75
370
     0
100
AcDbLine
 10
13.7789105432
 20
11.4773870152
 30
0.0
 11
13.700910591
 21
11.4773870152
 31
0.0
  0
LINE
  5
1EF
330
1F
100
AcDbEntity
  8
0
  6
HIDDEN
 62
     7
 48
1.75
370
     0
100
AcDbLine
 10
13.7789105432
 20
11.5548299339
 30
0.0
 11
13.700910591
 21
11.5548299339
 31
0.0
  0
LINE
  5
1F0
330
1F
100
AcDbEntity
  8
0
  6
HIDDEN
 62
     7
 48
1.75
370
     0
100
AcDbLine
 10
13.7789105432
 20
10.2722727634
 30
0.0
 11
13.700910591
 21
10.2722727634
 31
0.0
  0
LINE
  5
1F1
330
1F
100
AcDbEntity
  8
0
  6
HIDDEN
 62
     7
 48
1.75
370
     0
100
AcDbLine
 10
13.7789105432
 20
10.1948298447
 30
0.0
 11
13.700910591
 21
10.1948298447
 31
0.0
  0
LINE
  5
1F2
330
1F
100
AcDbEntity
  8
0
  6
HIDDEN
 62
     7
 48
1.75
370
     0
100
AcDbLine
 10
13.7789105432
 20
9.227386914
 30
0.0
 11
13.700910591
 21
9.227386914
 31
0.0
  0
LINE
  5
1F3
330
1F
100
AcDbEntity
  8
0
  6
HIDDEN
 62
     7
 48
1.75
370
     0
100
AcDbLine
 10
13.7789105432
 20
9.3048298327
 30
0.0
 11
13.700910591
 21
9.3048298327
 31
0.0
  0
LINE
  5
1F4
330
1F
100
AcDbEntity
  8
0
  6
HIDDEN
 62
     7
 48
1.75
370
     0
100
AcDbLine
 10
13.7789105432
 20
8.0222728089
 30
0.0
 11
13.700910591
 21
8.0222728089
 31
0.0
  0
LINE
  5
1F5
330
1F
100
AcDbEntity
  8
0
  6
HIDDEN
 62
     7
 48
1.75
370
     0
100
AcDbLine
 10
13.7789105432
 20
7.9448298902
 30
0.0
 11
13.700910591
 21
7.9448298902
 31
0.0
  0
LINE
  5
1F6
330
1F
100
AcDbEntity
  8
0
  6
HIDDEN
 62
     7
 48
1.75
370
     0
100
AcDbLine
 10
13.7789105432
 20
6.9773869595
 30
0.0
 11
13.700910591
 21
6.9773869595
 31
0.0
  0
LINE
  5
1F7
330
1F
100
AcDbEntity
  8
0
  6
HIDDEN
 62
     7
 48
1.75
370
     0
100
AcDbLine
 10
13.7789105432
 20
7.0548298783
 30
0.0
 11
13.700910591
 21
7.0548298783
 31
0.0
  0
LINE
  5
1F8
330
1F
100
AcDbEntity
  8
0
  6
HIDDEN
 62
     7
 48
1.75
370
     0
100
AcDbLine
 10
13.7789105432
 20
5.7722727078
 30
0.0
 11
13.700910591
 21
5.7722727078
 31
0.0
  0
LINE
  5
1F9
330
1F
100
AcDbEntity
  8
0
  6
HIDDEN
 62
     7
 48
1.75
370
     0
100
AcDbLine
 10
13.7789105432
 20
5.6948297891
 30
0.0
 11
13.700910591
 21
5.6948297891
 31
0.0
  0
LINE
  5
1FA
330
1F
100
AcDbEntity
  8
0
  6
HIDDEN
 62
     7
 48
1.75
370
     0
100
AcDbLine
 10
14.2009104016
 20
4.6248299098
 30
0.0
 11
13.9719105003
 21
4.6248299098
 31
0.0
  0
LINE
  5
1FB
330
1F
100
AcDbEntity
  8
0
  6
HIDDEN
 62
     7
 48
1.75
370
     0
100
AcDbLine
 10
13.9719105003
 20
12.6248298131
 30
0.0
 11
14.2009104016
 21
12.6248298131
 31
0.0
  0
ARC
  5
1FC
330
1F
100
AcDbEntity
  8
0
  6
HIDDEN
 62
     7
 48
3.0625
370
     0
100
AcDbCircle
 10
13.9719104465
 20
4.7178298615
 30
0.0
 40
0.0930000000000009
100
AcDbArc
 50
180.0
 51
270.0
  0
ARC
  5
1FD
330
1F
100
AcDbEntity
  8
0
  6
HIDDEN
 62
     7
 48
3.0625
370
     0
100
AcDbCircle
 10
13.9719104465
 20
12.5318298615
 30
0.0
 40
0.093
100
AcDbArc
 50
90.0
 51
180.0
  0
LINE
  5
1FE
330
1F
100
AcDbEntity
  8
0
  6
HIDDEN
 62
     7
 48
1.75
370
     0
100
AcDbLine
 10
16.5359104441
 20
4.7028298621
 30
0.0
 11
13.9719105003
 21
4.7028298621
 31
0.0
  0
LINE
  5
1FF
330
1F
100
AcDbEntity
  8
0
  6
HIDDEN
 62
     7
 48
1.75
370
     0
100
AcDbLine
 10
13.9719105003
 20
12.5468298609
 30
0.0
 11
16.5359104441
 21
12.5468298609
 31
0.0
  0
ARC
  5
200
330
1F
100
AcDbEntity
  8
0
  6
HIDDEN
 62
     7
 48
3.0625
370
     0
100
AcDbCircle
 10
16.5359104465
 20
4.7178298615
 30
0.0
 40
0.0150000000000006
100
AcDbArc
 50
270.0
 51
0.0
  0
LINE
  5
201
330
1F
100
AcDbEntity
  8
0
  6
HIDDEN
 62
     7
 48
1.75
370
     0
100
AcDbLine
 10
13.956910487
 20
4.7028298621
 30
0.0
 11
13.956910487
 21
4.7178298755
 31
0.0
  0
LINE
  5
202
330
1F
100
AcDbEntity
  8
0
  6
HIDDEN
 62
     7
 48
1.75
370
     0
100
AcDbLine
 10
13.956910487
 20
12.5468298609
 30
0.0
 11
13.956910487
 21
12.5318298475
 31
0.0
  0
LINE
  5
203
330
1F
100
AcDbEntity
  8
0
  6
HIDDEN
 62
     7
 48
1.75
370
     0
100
AcDbLine
 10
13.956910487
 20
12.5318298475
 30
0.0
 11
13.956910487
 21
4.7178298755
 31
0.0
  0
LINE
  5
204
330
1F
100
AcDbEntity
  8
0
  6
HIDDEN
 62
     7
 48
1.75
370
     0
100
AcDbLine
 10
13.956910487
 20
4.7028298621
 30
0.0
 11
13.9719105003
 21
4.7028298621
 31
0.0
  0
LINE
  5
205
330
1F
100
AcDbEntity
  8
0
  6
HIDDEN
 62
     7
 48
1.75
370
     0
100
AcDbLine
 10
13.956910487
 20
12.5468298609
 30
0.0
 11
13.9719105003
 21
12.5468298609
 31
0.0
  0
LINE
  5
206
330
1F
100
AcDbEntity
  8
0
  6
HIDDEN
 62
     7
 48
1.75
370
     0
100
AcDbLine
 10
16.5509104484
 20
4.7178298755
 30
0.0
 11
16.5509104484
 21
12.5318298475
 31
0.0
  0
ARC
  5
207
330
1F
100
AcDbEntity
  8
0
  6
HIDDEN
 62
     7
 48
3.0625
370
     0
100
AcDbCircle
 10
16.5359104465
 20
12.5318298615
 30
0.0
 40
0.0150000000000041
100
AcDbArc
 50
0.0
 51
90.0
  0
ARC
  5
208
330
1F
100
AcDbEntity
  8
0
  6
HIDDEN
 62
     7
 48
3.0625
370
     0
100
AcDbCircle
 10
13.9719104465
 20
4.7178298615
 30
0.0
 40
0.0150000000000006
100
AcDbArc
 50
180.0
 51
270.0
  0
ARC
  5
209
330
1F
100
AcDbEntity
  8
0
  6
HIDDEN
 62
     7
 48
3.0625
370
     0
100
AcDbCircle
 10
13.9719104465
 20
12.5318298615
 30
0.0
 40
0.0150000000000006
100
AcDbArc
 50
90.0
 51
180.0
  0
LINE
  5
20A
330
1F
100
AcDbEntity
  8
0
  6
HIDDEN
 62
     7
 48
1.75
370
     0
100
AcDbLine
 10
13.956910487
 20
11.936830001
 30
0.0
 11
13.8789105347
 21
11.936830001
 31
0.0
  0
LINE
  5
20B
330
1F
100
AcDbEntity
  8
0
  6
HIDDEN
 62
     7
 48
1.75
370
     0
100
AcDbLine
 10
13.956910487
 20
5.312829722
 30
0.0
 11
13.8789105347
 21
5.312829722
 31
0.0
  0
LINE
  5
20C
330
1F
100
AcDbEntity
  8
0
  6
HIDDEN
 62
     7
 48
1.75
370
     0
100
AcDbLine
 10
14.1790906137
 20
12.1569315917
 30
0.0
 11
14.1790906137
 21
12.3478298397
 31
0.0
  0
LINE
  5
20D
330
1F
100
AcDbEntity
  8
0
  6
HIDDEN
 62
     7
 48
1.75
370
     0
100
AcDbLine
 10
14.1790906137
 20
12.1518299973
 30
0.0
 11
14.1790906137
 21
12.1569315917
 31
0.0
  0
LINE
  5
20E
330
1F
100
AcDbEntity
  8
0
  6
HIDDEN
 62
     7
 48
1.75
370
     0
100
AcDbLine
 10
14.260831696
 20
12.1856881928
 30
0.0
 11
14.260831696
 21
12.3139716442
 31
0.0
  0
LINE
  5
20F
330
1F
100
AcDbEntity
  8
0
  6
HIDDEN
 62
     7
 48
1.75
370
     0
100
AcDbLine
 10
13.906500856
 20
12.3478298397
 30
0.0
 11
13.906500856
 21
12.1518299973
 31
0.0
  0
LINE
  5
210
330
1F
100
AcDbEntity
  8
0
  6
HIDDEN
 62
     7
 48
1.75
370
     0
100
AcDbLine
 10
13.5379103673
 20
12.2615826227
 30
0.0
 11
13.5379103673
 21
12.2947605861
 31
0.0
  0
LINE
  5
211
330
1F
100
AcDbEntity
  8
0
  6
HIDDEN
 62
     7
 48
1.75
370
     0
100
AcDbLine
 10
13.5379103673
 20
12.2615826227
 30
0.0
 11
13.5149262061
 21
12.2615826227
 31
0.0
  0
LINE
  5
212
330
1F
100
AcDbEntity
  8
0
  6
HIDDEN
 62
     7
 48
1.75
370
     0
100
AcDbLine
 10
13.5379103673
 20
12.2388137658
 30
0.0
 11
13.5379103673
 21
12.2615826227
 31
0.0
  0
LINE
  5
213
330
1F
100
AcDbEntity
  8
0
  6
HIDDEN
 62
     7
 48
1.75
370
     0
100
AcDbLine
 10
13.5379103673
 20
12.2719917292
 30
0.0
 11
13.5149262061
 21
12.2719917292
 31
0.0
  0
LINE
  5
214
330
1F
100
AcDbEntity
  8
0
  6
HIDDEN
 62
     7
 48
1.75
370
     0
100
AcDbLine
 10
13.5379103673
 20
12.2947605861
 30
0.0
 11
13.5149262061
 21
12.2947605861
 31
0.0
  0
LINE
  5
215
330
1F
100
AcDbEntity
  8
0
  6
HIDDEN
 62
     7
 48
1.75
370
     0
100
AcDbLine
 10
13.5379103673
 20
12.2388137658
 30
0.0
 11
13.5149262061
 21
12.2388137658
 31
0.0
  0
LINE
  5
216
330
1F
100
AcDbEntity
  8
0
  6
HIDDEN
 62
     7
 48
1.75
370
     0
100
AcDbLine
 10
13.5379103673
 20
12.1710357754
 30
0.0
 11
13.5379103673
 21
12.2388137658
 31
0.0
  0
LINE
  5
217
330
1F
100
AcDbEntity
  8
0
  6
HIDDEN
 62
     7
 48
1.75
370
     0
100
AcDbLine
 10
13.5379103673
 20
12.1710357754
 30
0.0
 11
13.5149262061
 21
12.1710357754
 31
0.0
  0
LINE
  5
218
330
1F
100
AcDbEntity
  8
0
  6
HIDDEN
 62
     7
 48
1.75
370
     0
100
AcDbLine
 10
13.5379103673
 20
12.1598904108
 30
0.0
 11
13.5379103673
 21
12.1710357754
 31
0.0
  0
LINE
  5
219
330
1F
100
AcDbEntity
  8
0
  6
HIDDEN
 62
     7
 48
1.75
370
     0
100
AcDbLine
 10
13.5379103673
 20
12.2276681079
 30
0.0
 11
13.5149262061
 21
12.2276681079
 31
0.0
  0
LINE
  5
21A
330
1F
100
AcDbEntity
  8
0
  6
HIDDEN
 62
     7
 48
1.75
370
     0
100
AcDbLine
 10
13.5379103673
 20
12.1598904108
 30
0.0
 11
13.5149262061
 21
12.1598904108
 31
0.0
  0
LINE
  5
21B
330
1F
100
AcDbEntity
  8
0
  6
HIDDEN
 62
     7
 48
1.75
370
     0
100
AcDbLine
 10
13.5379103673
 20
12.2947605861
 30
0.0
 11
13.5379103673
 21
12.3397694262
 31
0.0
  0
LINE
  5
21C
330
1F
100
AcDbEntity
  8
0
  6
HIDDEN
 62
     7
 48
1.75
370
     0
100
AcDbLine
 10
13.5379103673
 20
12.3286237683
 30
0.0
 11
13.5149262061
 21
12.3286237683
 31
0.0
  0
LINE
  5
21D
330
1F
100
AcDbEntity
  8
0
  6
HIDDEN
 62
     7
 48
1.75
370
     0
100
AcDbLine
 10
13.5379103673
 20
12.3397694262
 30
0.0
 11
13.5149262061
 21
12.3397694262
 31
0.0
  0
LINE
  5
21E
330
1F
100
AcDbEntity
  8
0
  6
HIDDEN
 62
     7
 48
1.75
370
     0
100
AcDbLine
 10
13.5379103673
 20
12.2608460712
 30
0.0
 11
13.5149262061
 21
12.2608460712
 31
0.0
  0
LINE
  5
21F
330
1F
100
AcDbEntity
  8
0
  6
HIDDEN
 62
     7
 48
1.75
370
     0
100
AcDbLine
 10
13.5379103673
 20
12.2380772143
 30
0.0
 11
13.5149262061
 21
12.2380772143
 31
0.0
  0
LINE
  5
220
330
1F
100
AcDbEntity
  8
0
  6
HIDDEN
 62
     7
 48
1.75
370
     0
100
AcDbLine
 10
13.5379103673
 20
12.2048992509
 30
0.0
 11
13.5149262061
 21
12.2048992509
 31
0.0
  0
LINE
  5
221
330
1F
100
AcDbEntity
  8
0
  6
HIDDEN
 62
     7
 48
1.75
370
     0
100
AcDbLine
 10
14.1790906137
 20
4.9084380202
 30
0.0
 11
14.1790906137
 21
5.0978297257
 31
0.0
  0
LINE
  5
222
330
1F
100
AcDbEntity
  8
0
  6
HIDDEN
 62
     7
 48
1.75
370
     0
100
AcDbLine
 10
14.1790906137
 20
4.9018298832
 30
0.0
 11
14.1790906137
 21
4.9084380202
 31
0.0
  0
LINE
  5
223
330
1F
100
AcDbEntity
  8
0
  6
HIDDEN
 62
     7
 48
1.75
370
     0
100
AcDbLine
 10
14.260831696
 20
4.9400132288
 30
0.0
 11
14.260831696
 21
5.0639715302
 31
0.0
  0
LINE
  5
224
330
1F
100
AcDbEntity
  8
0
  6
HIDDEN
 62
     7
 48
1.75
370
     0
100
AcDbLine
 10
14.260831696
 20
4.9356880788
 30
0.0
 11
14.260831696
 21
4.9400132288
 31
0.0
  0
LINE
  5
225
330
1F
100
AcDbEntity
  8
0
  6
HIDDEN
 62
     7
 48
1.75
370
     0
100
AcDbLine
 10
13.906500856
 20
5.0978297257
 30
0.0
 11
13.906500856
 21
4.9018298832
 31
0.0
  0
LINE
  5
226
330
1F
100
AcDbEntity
  8
0
  6
HIDDEN
 62
     7
 48
1.75
370
     0
100
AcDbLine
 10
13.5379103673
 20
5.0156380885
 30
0.0
 11
13.5379103673
 21
5.0482777914
 31
0.0
  0
LINE
  5
227
330
1F
100
AcDbEntity
  8
0
  6
HIDDEN
 62
     7
 48
1.75
370
     0
100
AcDbLine
 10
13.5379103673
 20
5.0156380885
 30
0.0
 11
13.5149262061
 21
5.0156380885
 31
0.0
  0
LINE
  5
228
330
1F
100
AcDbEntity
  8
0
  6
HIDDEN
 62
     7
 48
1.75
370
     0
100
AcDbLine
 10
13.5379103673
 20
4.9898271067
 30
0.0
 11
13.5379103673
 21
5.0156380885
 31
0.0
  0
LINE
  5
229
330
1F
100
AcDbEntity
  8
0
  6
HIDDEN
 62
     7
 48
1.75
370
     0
100
AcDbLine
 10
13.5379103673
 20
5.022467103
 30
0.0
 11
13.5149262061
 21
5.022467103
 31
0.0
  0
LINE
  5
22A
330
1F
100
AcDbEntity
  8
0
  6
HIDDEN
 62
     7
 48
1.75
370
     0
100
AcDbLine
 10
13.5379103673
 20
5.0482777914
 30
0.0
 11
13.5149262061
 21
5.0482777914
 31
0.0
  0
LINE
  5
22B
330
1F
100
AcDbEntity
  8
0
  6
HIDDEN
 62
     7
 48
1.75
370
     0
100
AcDbLine
 10
13.5379103673
 20
4.9105139162
 30
0.0
 11
13.5379103673
 21
4.923148517
 31
0.0
  0
LINE
  5
22C
330
1F
100
AcDbEntity
  8
0
  6
HIDDEN
 62
     7
 48
1.75
370
     0
100
AcDbLine
 10
13.5379103673
 20
4.923148517
 30
0.0
 11
13.5149262061
 21
4.923148517
 31
0.0
  0
LINE
  5
22D
330
1F
100
AcDbEntity
  8
0
  6
HIDDEN
 62
     7
 48
1.75
370
     0
100
AcDbLine
 10
13.5379103673
 20
4.9898271067
 30
0.0
 11
13.5149262061
 21
4.9898271067
 31
0.0
  0
LINE
  5
22E
330
1F
100
AcDbEntity
  8
0
  6
HIDDEN
 62
     7
 48
1.75
370
     0
100
AcDbLine
 10
13.5379103673
 20
4.923148517
 30
0.0
 11
13.5379103673
 21
4.9898271067
 31
0.0
  0
LINE
  5
22F
330
1F
100
AcDbEntity
  8
0
  6
HIDDEN
 62
     7
 48
1.75
370
     0
100
AcDbLine
 10
13.5379103673
 20
4.977192506
 30
0.0
 11
13.5149262061
 21
4.977192506
 31
0.0
  0
LINE
  5
230
330
1F
100
AcDbEntity
  8
0
  6
HIDDEN
 62
     7
 48
1.75
370
     0
100
AcDbLine
 10
13.5379103673
 20
4.9105139162
 30
0.0
 11
13.5149262061
 21
4.9105139162
 31
0.0
  0
LINE
  5
231
330
1F
100
AcDbEntity
  8
0
  6
HIDDEN
 62
     7
 48
1.75
370
     0
100
AcDbLine
 10
13.5379103673
 20
5.0482777914
 30
0.0
 11
13.5379103673
 21
5.089145986
 31
0.0
  0
LINE
  5
232
330
1F
100
AcDbEntity
  8
0
  6
HIDDEN
 62
     7
 48
1.75
370
     0
100
AcDbLine
 10
13.5379103673
 20
5.0765113853
 30
0.0
 11
13.5149262061
 21
5.0765113853
 31
0.0
  0
LINE
  5
233
330
1F
100
AcDbEntity
  8
0
  6
HIDDEN
 62
     7
 48
1.75
370
     0
100
AcDbLine
 10
13.5379103673
 20
5.089145986
 30
0.0
 11
13.5149262061
 21
5.089145986
 31
0.0
  0
LINE
  5
234
330
1F
100
AcDbEntity
  8
0
  6
HIDDEN
 62
     7
 48
1.75
370
     0
100
AcDbLine
 10
13.5379103673
 20
5.0098325022
 30
0.0
 11
13.5149262061
 21
5.0098325022
 31
0.0
  0
LINE
  5
235
330
1F
100
AcDbEntity
  8
0
  6
HIDDEN
 62
     7
 48
1.75
370
     0
100
AcDbLine
 10
13.5379103673
 20
4.9840218137
 30
0.0
 11
13.5149262061
 21
4.9840218137
 31
0.0
  0
LINE
  5
236
330
1F
100
AcDbEntity
  8
0
  6
HIDDEN
 62
     7
 48
1.75
370
     0
100
AcDbLine
 10
13.5379103673
 20
4.9513818175
 30
0.0
 11
13.5149262061
 21
4.9513818175
 31
0.0
  0
LINE
  5
237
330
1F
100
AcDbEntity
  8
0
  6
HIDDEN
 62
     7
 48
1.75
370
     0
100
AcDbLine
 10
13.5379103673
 20
5.0115825087
 30
0.0
 11
13.5149262061
 21
5.0115825087
 31
0.0
  0
LINE
  5
238
330
1F
100
AcDbEntity
  8
0
  6
HIDDEN
 62
     7
 48
1.75
370
     0
100
AcDbLine
 10
13.5379103673
 20
5.0219916151
 30
0.0
 11
13.5149262061
 21
5.0219916151
 31
0.0
  0
LINE
  5
239
330
1F
100
AcDbEntity
  8
0
  6
HIDDEN
 62
     7
 48
1.75
370
     0
100
AcDbLine
 10
13.5379103673
 20
5.0447604721
 30
0.0
 11
13.5149262061
 21
5.0447604721
 31
0.0
  0
LINE
  5
23A
330
1F
100
AcDbEntity
  8
0
  6
HIDDEN
 62
     7
 48
1.75
370
     0
100
AcDbLine
 10
13.5379103673
 20
4.9098902968
 30
0.0
 11
13.5379103673
 21
4.9105139162
 31
0.0
  0
LINE
  5
23B
330
1F
100
AcDbEntity
  8
0
  6
HIDDEN
 62
     7
 48
1.75
370
     0
100
AcDbLine
 10
13.5379103673
 20
4.9210359547
 30
0.0
 11
13.5149262061
 21
4.9210359547
 31
0.0
  0
LINE
  5
23C
330
1F
100
AcDbEntity
  8
0
  6
HIDDEN
 62
     7
 48
1.75
370
     0
100
AcDbLine
 10
13.5379103673
 20
4.9888136517
 30
0.0
 11
13.5149262061
 21
4.9888136517
 31
0.0
  0
LINE
  5
23D
330
1F
100
AcDbEntity
  8
0
  6
HIDDEN
 62
     7
 48
1.75
370
     0
100
AcDbLine
 10
13.5379103673
 20
4.9776679938
 30
0.0
 11
13.5149262061
 21
4.9776679938
 31
0.0
  0
LINE
  5
23E
330
1F
100
AcDbEntity
  8
0
  6
HIDDEN
 62
     7
 48
1.75
370
     0
100
AcDbLine
 10
13.5379103673
 20
4.9098902968
 30
0.0
 11
13.5149262061
 21
4.9098902968
 31
0.0
  0
LINE
  5
23F
330
1F
100
AcDbEntity
  8
0
  6
HIDDEN
 62
     7
 48
1.75
370
     0
100
AcDbLine
 10
13.5379103673
 20
5.089145986
 30
0.0
 11
13.5379103673
 21
5.0897693121
 31
0.0
  0
LINE
  5
240
330
1F
100
AcDbEntity
  8
0
  6
HIDDEN
 62
     7
 48
1.75
370
     0
100
AcDbLine
 10
13.5379103673
 20
5.0786239476
 30
0.0
 11
13.5149262061
 21
5.0786239476
 31
0.0
  0
LINE
  5
241
330
1F
100
AcDbEntity
  8
0
  6
HIDDEN
 62
     7
 48
1.75
370
     0
100
AcDbLine
 10
13.5379103673
 20
5.0897693121
 30
0.0
 11
13.5149262061
 21
5.0897693121
 31
0.0
  0
LINE
  5
242
330
1F
100
AcDbEntity
  8
0
  6
HIDDEN
 62
     7
 48
1.75
370
     0
100
AcDbLine
 10
13.5379103673
 20
5.0108459572
 30
0.0
 11
13.5149262061
 21
5.0108459572
 31
0.0
  0
LINE
  5
243
330
1F
100
AcDbEntity
  8
0
  6
HIDDEN
 62
     7
 48
1.75
370
     0
100
AcDbLine
 10
13.5379103673
 20
4.9880771002
 30
0.0
 11
13.5149262061
 21
4.9880771002
 31
0.0
  0
LINE
  5
244
330
1F
100
AcDbEntity
  8
0
  6
HIDDEN
 62
     7
 48
1.75
370
     0
100
AcDbLine
 10
13.5379103673
 20
4.9548991368
 30
0.0
 11
13.5149262061
 21
4.9548991368
 31
0.0
  0
LINE
  5
245
330
1F
100
AcDbEntity
  8
0
  6
HIDDEN
 62
     7
 48
1.75
370
     0
100
AcDbLine
 10
16.4524852445
 20
6.0775857675
 30
0.0
 11
16.4524852445
 21
5.6720738386
 31
0.0
  0
LINE
  5
246
330
1F
100
AcDbEntity
  8
0
  6
HIDDEN
 62
     7
 48
1.75
370
     0
100
AcDbLine
 10
16.0784695085
 20
6.0519950764
 30
0.0
 11
16.0784695085
 21
5.6976645297
 31
0.0
  0
LINE
  5
247
330
1F
100
AcDbEntity
  8
0
  6
HIDDEN
 62
     7
 48
1.75
370
     0
100
AcDbLine
 10
13.8395403762
 20
5.1966801571
 30
0.0
 11
13.8395403762
 21
4.8029794518
 31
0.0
  0
LINE
  5
248
330
1F
100
AcDbEntity
  8
0
  6
HIDDEN
 62
     7
 48
1.75
370
     0
100
AcDbLine
 10
14.4694615926
 20
5.1376252126
 30
0.0
 11
14.4694615926
 21
4.8620346896
 31
0.0
  0
LINE
  5
249
330
1F
100
AcDbEntity
  8
0
  6
HIDDEN
 62
     7
 48
1.75
370
     0
100
AcDbLine
 10
13.9970207169
 20
5.1178298413
 30
0.0
 11
13.9970207169
 21
4.8818297676
 31
0.0
  0
LINE
  5
24A
330
1F
100
AcDbEntity
  8
0
  6
HIDDEN
 62
     7
 48
1.75
370
     0
100
AcDbLine
 10
14.3338956387
 20
5.0982550541
 30
0.0
 11
14.3338956387
 21
4.9014045548
 31
0.0
  0
LINE
  5
24B
330
1F
100
AcDbEntity
  8
0
  6
HIDDEN
 62
     7
 48
1.75
370
     0
100
AcDbLine
 10
13.8395403762
 20
12.4466802711
 30
0.0
 11
13.8395403762
 21
12.0529795659
 31
0.0
  0
LINE
  5
24C
330
1F
100
AcDbEntity
  8
0
  6
HIDDEN
 62
     7
 48
1.75
370
     0
100
AcDbLine
 10
14.4694615926
 20
12.3876250334
 30
0.0
 11
14.4694615926
 21
12.1120345103
 31
0.0
  0
LINE
  5
24D
330
1F
100
AcDbEntity
  8
0
  6
HIDDEN
 62
     7
 48
1.75
370
     0
100
AcDbLine
 10
13.9970207169
 20
12.3678299554
 30
0.0
 11
13.9970207169
 21
12.1318298817
 31
0.0
  0
LINE
  5
24E
330
1F
100
AcDbEntity
  8
0
  6
HIDDEN
 62
     7
 48
1.75
370
     0
100
AcDbLine
 10
14.3338956387
 20
12.3482551682
 30
0.0
 11
14.3338956387
 21
12.1514046689
 31
0.0
  0
LINE
  5
24F
330
1F
100
AcDbEntity
  8
0
  6
HIDDEN
 62
     7
 48
1.75
370
     0
100
AcDbLine
 10
13.8789105347
 20
12.4858298455
 30
0.0
 11
13.7789105432
 21
12.4858298455
 31
0.0
  0
LINE
  5
250
330
1F
100
AcDbEntity
  8
0
  6
HIDDEN
 62
     7
 48
1.75
370
     0
100
AcDbLine
 10
13.7789105432
 20
12.0138299915
 30
0.0
 11
13.8789105347
 21
12.0138299915
 31
0.0
  0
LINE
  5
251
330
1F
100
AcDbEntity
  8
0
  6
HIDDEN
 62
     7
 48
1.75
370
     0
100
AcDbLine
 10
13.8789105347
 20
5.2358297315
 30
0.0
 11
13.7789105432
 21
5.2358297315
 31
0.0
  0
LINE
  5
252
330
1F
100
AcDbEntity
  8
0
  6
HIDDEN
 62
     7
 48
1.75
370
     0
100
AcDbLine
 10
13.7789105432
 20
4.7638298774
 30
0.0
 11
13.8789105347
 21
4.7638298774
 31
0.0
  0
LINE
  5
253
330
1F
100
AcDbEntity
  8
0
  6
HIDDEN
 62
     7
 48
1.75
370
     0
100
AcDbLine
 10
13.7789105432
 20
12.3648297767
 30
0.0
 11
13.700910591
 21
12.3648297767
 31
0.0
  0
LINE
  5
254
330
1F
100
AcDbEntity
  8
0
  6
HIDDEN
 62
     7
 48
1.75
370
     0
100
AcDbLine
 10
13.700910591
 20
12.134829767
 30
0.0
 11
13.7789105432
 21
12.134829767
 31
0.0
  0
LINE
  5
255
330
1F
100
AcDbEntity
  8
0
  6
HIDDEN
 62
     7
 48
1.75
370
     0
100
AcDbLine
 10
13.7789105432
 20
5.114829956
 30
0.0
 11
13.700910591
 21
5.114829956
 31
0.0
  0
LINE
  5
256
330
1F
100
AcDbEntity
  8
0
  6
HIDDEN
 62
     7
 48
1.75
370
     0
100
AcDbLine
 10
13.700910591
 20
4.8848299463
 30
0.0
 11
13.7789105432
 21
4.8848299463
 31
0.0
  0
LINE
  5
257
330
1F
100
AcDbEntity
  8
0
  6
HIDDEN
 62
     7
 48
1.75
370
     0
100
AcDbLine
 10
13.956910487
 20
12.3873299434
 30
0.0
 11
13.8789105347
 21
12.3873299434
 31
0.0
  0
LINE
  5
258
330
1F
100
AcDbEntity
  8
0
  6
HIDDEN
 62
     7
 48
1.75
370
     0
100
AcDbLine
 10
13.8789105347
 20
12.1123298936
 30
0.0
 11
13.956910487
 21
12.1123298936
 31
0.0
  0
LINE
  5
259
330
1F
100
AcDbEntity
  8
0
  6
HIDDEN
 62
     7
 48
1.75
370
     0
100
AcDbLine
 10
13.956910487
 20
5.1373298294
 30
0.0
 11
13.8789105347
 21
5.1373298294
 31
0.0
  0
LINE
  5
25A
330
1F
100
AcDbEntity
  8
0
  6
HIDDEN
 62
     7
 48
1.75
370
     0
100
AcDbLine
 10
13.8789105347
 20
4.8623297795
 30
0.0
 11
13.956910487
 21
4.8623297795
 31
0.0
  0
ARC
  5
25B
330
1F
100
AcDbEntity
  8
0
  6
HIDDEN
 62
     7
 48
3.0625
370
     0
100
AcDbCircle
 10
13.8099104465
 20
5.1248298615
 30
0.0
 40
0.0310000000000006
100
AcDbArc
 50
0.0
 51
180.0
  0
ARC
  5
25C
330
1F
100
AcDbEntity
  8
0
  6
HIDDEN
 62
     7
 48
3.0625
370
     0
100
AcDbCircle
 10
13.8099104465
 20
5.1248298615
 30
0.0
 40
0.0310000000000006
100
AcDbArc
 50
180.0
 51
0.0
  0
ARC
  5
25D
330
1F
100
AcDbEntity
  8
0
  6
HIDDEN
 62
     7
 48
3.0625
370
     0
100
AcDbCircle
 10
13.8099104465
 20
4.8748298615
 30
0.0
 40
0.0310000000000006
100
AcDbArc
 50
180.0
 51
0.0
  0
ARC
  5
25E
330
1F
100
AcDbEntity
  8
0
  6
HIDDEN
 62
     7
 48
3.0625
370
     0
100
AcDbCircle
 10
13.8099104465
 20
4.8748298615
 30
0.0
 40
0.0310000000000006
100
AcDbArc
 50
0.0
 51
180.0
  0
LINE
  5
25F
330
1F
100
AcDbEntity
  8
0
  6
HIDDEN
 62
     7
 48
1.75
370
     0
100
AcDbLine
 10
13.8409105203
 20
4.8748297418
 30
0.0
 11
13.8409105203
 21
5.1248298671
 31
0.0
  0
ARC
  5
260
330
1F
100
AcDbEntity
  8
0
  6
HIDDEN
 62
     7
 48
3.0625
370
     0
100
AcDbCircle
 10
13.8099104465
 20
12.3748298615
 30
0.0
 40
0.0310000000000006
100
AcDbArc
 50
0.0
 51
180.0
  0
ARC
  5
261
330
1F
100
AcDbEntity
  8
0
  6
HIDDEN
 62
     7
 48
3.0625
370
     0
100
AcDbCircle
 10
13.8099104465
 20
12.3748298615
 30
0.0
 40
0.0310000000000006
100
AcDbArc
 50
180.0
 51
0.0
  0
ARC
  5
262
330
1F
100
AcDbEntity
  8
0
  6
HIDDEN
 62
     7
 48
3.0625
370
     0
100
AcDbCircle
 10
13.8099104465
 20
12.1248298615
 30
0.0
 40
0.0310000000000006
100
AcDbArc
 50
180.0
 51
0.0
  0
ARC
  5
263
330
1F
100
AcDbEntity
  8
0
  6
HIDDEN
 62
     7
 48
3.0625
370
     0
100
AcDbCircle
 10
13.8099104465
 20
12.1248298615
 30
0.0
 40
0.0310000000000006
100
AcDbArc
 50
0.0
 51
180.0
  0
LINE
  5
264
330
1F
100
AcDbEntity
  8
0
  6
HIDDEN
 62
     7
 48
1.75
370
     0
100
AcDbLine
 10
13.8409105203
 20
12.1248298558
 30
0.0
 11
13.8409105203
 21
12.3748299812
 31
0.0
  0
ARC
  5
265
330
1F
100
AcDbEntity
  8
0
  6
HIDDEN
 62
     7
 48
3.0625
370
     0
100
AcDbCircle
 10
13.6859104465
 20
12.1498298615
 30
0.0
 40
0.0150000000000006
100
AcDbArc
 50
0.0
 51
90.0
  0
ARC
  5
266
330
1F
100
AcDbEntity
  8
0
  6
HIDDEN
 62
     7
 48
3.0625
370
     0
100
AcDbCircle
 10
13.6859104465
 20
12.3498298615
 30
0.0
 40
0.0150000000000006
100
AcDbArc
 50
270.0
 51
0.0
  0
ARC
  5
267
330
1F
100
AcDbEntity
  8
0
  6
HIDDEN
 62
     7
 48
3.0625
370
     0
100
AcDbCircle
 10
13.6459104465
 20
12.1498298615
 30
0.0
 40
0.0150000000000006
100
AcDbArc
 50
90.0
 51
180.0
  0
ARC
  5
268
330
1F
100
AcDbEntity
  8
0
  6
HIDDEN
 62
     7
 48
3.0625
370
     0
100
AcDbCircle
 10
13.6459104465
 20
12.3498298615
 30
0.0
 40
0.0150000000000006
100
AcDbArc
 50
180.0
 51
270.0
  0
LINE
  5
269
330
1F
100
AcDbEntity
  8
0
  6
HIDDEN
 62
     7
 48
1.75
370
     0
100
AcDbLine
 10
13.6859105776
 20
12.3348297499
 30
0.0
 11
13.6459103463
 21
12.3348297499
 31
0.0
  0
LINE
  5
26A
330
1F
100
AcDbEntity
  8
0
  6
HIDDEN
 62
     7
 48
1.75
370
     0
100
AcDbLine
 10
13.6459103463
 20
12.1648297938
 30
0.0
 11
13.6859105776
 21
12.1648297938
 31
0.0
  0
ARC
  5
26B
330
1F
100
AcDbEntity
  8
0
  6
HIDDEN
 62
     7
 48
3.0625
370
     0
100
AcDbCircle
 10
13.6859104465
 20
4.8998298615
 30
0.0
 40
0.0150000000000006
100
AcDbArc
 50
0.0
 51
90.0
  0
ARC
  5
26C
330
1F
100
AcDbEntity
  8
0
  6
HIDDEN
 62
     7
 48
3.0625
370
     0
100
AcDbCircle
 10
13.6859104465
 20
5.0998298615
 30
0.0
 40
0.0150000000000006
100
AcDbArc
 50
270.0
 51
0.0
  0
ARC
  5
26D
330
1F
100
AcDbEntity
  8
0
  6
HIDDEN
 62
     7
 48
3.0625
370
     0
100
AcDbCircle
 10
13.6459104465
 20
4.8998298615
 30
0.0
 40
0.0150000000000006
100
AcDbArc
 50
90.0
 51
180.0
  0
ARC
  5
26E
330
1F
100
AcDbEntity
  8
0
  6
HIDDEN
 62
     7
 48
3.0625
370
     0
100
AcDbCircle
 10
13.6459104465
 20
5.0998298615
 30
0.0
 40
0.0150000000000006
100
AcDbArc
 50
180.0
 51
270.0
  0
LINE
  5
26F
330
1F
100
AcDbEntity
  8
0
  6
HIDDEN
 62
     7
 48
1.75
370
     0
100
AcDbLine
 10
13.6859105776
 20
5.0848299292
 30
0.0
 11
13.6459103463
 21
5.0848299292
 31
0.0
  0
LINE
  5
270
330
1F
100
AcDbEntity
  8
0
  6
HIDDEN
 62
     7
 48
1.75
370
     0
100
AcDbLine
 10
13.6459103463
 20
4.9148299731
 30
0.0
 11
13.6859105776
 21
4.9148299731
 31
0.0
  0
LINE
  5
271
330
1F
100
AcDbEntity
  8
0
  6
HIDDEN
 62
     7
 48
1.75
370
     0
100
AcDbLine
 10
14.1790906137
 20
12.1518299973
 30
0.0
 11
14.260831696
 21
12.1856881928
 31
0.0
  0
LINE
  5
272
330
1F
100
AcDbEntity
  8
0
  6
HIDDEN
 62
     7
 48
1.75
370
     0
100
AcDbLine
 10
14.260831696
 20
12.3139716442
 30
0.0
 11
14.1790906137
 21
12.3478298397
 31
0.0
  0
LINE
  5
273
330
1F
100
AcDbEntity
  8
0
  6
HIDDEN
 62
     7
 48
1.75
370
     0
100
AcDbLine
 10
13.906500856
 20
12.1518299973
 30
0.0
 11
14.1790906137
 21
12.1518299973
 31
0.0
  0
LINE
  5
274
330
1F
100
AcDbEntity
  8
0
  6
HIDDEN
 62
     7
 48
1.75
370
     0
100
AcDbLine
 10
14.1790906137
 20
12.3478298397
 30
0.0
 11
13.906500856
 21
12.3478298397
 31
0.0
  0
LINE
  5
275
330
1F
100
AcDbEntity
  8
0
  6
HIDDEN
 62
     7
 48
1.75
370
     0
100
AcDbLine
 10
13.906500856
 20
12.3238457168
 30
0.0
 11
13.6309103329
 21
12.3238457168
 31
0.0
  0
LINE
  5
276
330
1F
100
AcDbEntity
  8
0
  6
HIDDEN
 62
     7
 48
1.75
370
     0
100
AcDbLine
 10
13.6309103329
 20
12.1758141202
 30
0.0
 11
13.906500856
 21
12.1758141202
 31
0.0
  0
LINE
  5
277
330
1F
100
AcDbEntity
  8
0
  6
HIDDEN
 62
     7
 48
1.75
370
     0
100
AcDbLine
 10
14.1790906137
 20
4.9018298832
 30
0.0
 11
14.260831696
 21
4.9356880788
 31
0.0
  0
LINE
  5
278
330
1F
100
AcDbEntity
  8
0
  6
HIDDEN
 62
     7
 48
1.75
370
     0
100
AcDbLine
 10
14.260831696
 20
5.0639715302
 30
0.0
 11
14.1790906137
 21
5.0978297257
 31
0.0
  0
LINE
  5
279
330
1F
100
AcDbEntity
  8
0
  6
HIDDEN
 62
     7
 48
1.75
370
     0
100
AcDbLine
 10
13.906500856
 20
4.9018298832
 30
0.0
 11
14.1790906137
 21
4.9018298832
 31
0.0
  0
LINE
  5
27A
330
1F
100
AcDbEntity
  8
0
  6
HIDDEN
 62
     7
 48
1.75
370
     0
100
AcDbLine
 10
14.1790906137
 20
5.0978297257
 30
0.0
 11
13.906500856
 21
5.0978297257
 31
0.0
  0
LINE
  5
27B
330
1F
100
AcDbEntity
  8
0
  6
HIDDEN
 62
     7
 48
1.75
370
     0
100
AcDbLine
 10
13.906500856
 20
5.0738456028
 30
0.0
 11
13.6309103329
 21
5.0738456028
 31
0.0
  0
LINE
  5
27C
330
1F
100
AcDbEntity
  8
0
  6
HIDDEN
 62
     7
 48
1.75
370
     0
100
AcDbLine
 10
13.6309103329
 20
4.9258140062
 30
0.0
 11
13.906500856
 21
4.9258140062
 31
0.0
  0
LINE
  5
27D
330
1F
100
AcDbEntity
  8
0
  6
HIDDEN
 62
     7
 48
1.75
370
     0
100
AcDbLine
 10
16.5509104484
 20
6.0775857675
 30
0.0
 11
16.4524852445
 21
6.0775857675
 31
0.0
  0
LINE
  5
27E
330
1F
100
AcDbEntity
  8
0
  6
HIDDEN
 62
     7
 48
1.75
370
     0
100
AcDbLine
 10
16.4524852445
 20
5.6720738386
 30
0.0
 11
16.5509104484
 21
5.6720738386
 31
0.0
  0
LINE
  5
27F
330
1F
100
AcDbEntity
  8
0
  6
HIDDEN
 62
     7
 48
1.75
370
     0
100
AcDbLine
 10
16.4524852445
 20
6.0519950764
 30
0.0
 11
16.0784695085
 21
6.0519950764
 31
0.0
  0
LINE
  5
280
330
1F
100
AcDbEntity
  8
0
  6
HIDDEN
 62
     7
 48
1.75
370
     0
100
AcDbLine
 10
16.0784695085
 20
5.6976645297
 30
0.0
 11
16.4524852445
 21
5.6976645297
 31
0.0
  0
LINE
  5
281
330
1F
100
AcDbEntity
  8
0
  6
HIDDEN
 62
     7
 48
1.75
370
     0
100
AcDbLine
 10
16.5509104484
 20
5.9732550527
 30
0.0
 11
16.0784695085
 21
5.9732550527
 31
0.0
  0
LINE
  5
282
330
1F
100
AcDbEntity
  8
0
  6
HIDDEN
 62
     7
 48
1.75
370
     0
100
AcDbLine
 10
16.0784695085
 20
5.7764045534
 30
0.0
 11
16.5509104484
 21
5.7764045534
 31
0.0
  0
LINE
  5
283
330
1F
100
AcDbEntity
  8
0
  6
HIDDEN
 62
     7
 48
1.75
370
     0
100
AcDbLine
 10
13.8789105347
 20
5.1966801571
 30
0.0
 11
13.8395403762
 21
5.1966801571
 31
0.0
  0
LINE
  5
284
330
1F
100
AcDbEntity
  8
0
  6
HIDDEN
 62
     7
 48
1.75
370
     0
100
AcDbLine
 10
13.8395403762
 20
4.8029794518
 30
0.0
 11
13.8789105347
 21
4.8029794518
 31
0.0
  0
LINE
  5
285
330
1F
100
AcDbEntity
  8
0
  6
HIDDEN
 62
     7
 48
1.75
370
     0
100
AcDbLine
 10
14.4694615926
 20
5.1376252126
 30
0.0
 11
13.8789105347
 21
5.1376252126
 31
0.0
  0
LINE
  5
286
330
1F
100
AcDbEntity
  8
0
  6
HIDDEN
 62
     7
 48
1.75
370
     0
100
AcDbLine
 10
13.8789105347
 20
4.8620346896
 30
0.0
 11
14.4694615926
 21
4.8620346896
 31
0.0
  0
LINE
  5
287
330
1F
100
AcDbEntity
  8
0
  6
HIDDEN
 62
     7
 48
1.75
370
     0
100
AcDbLine
 10
13.9970207169
 20
5.1178298413
 30
0.0
 11
13.8395403762
 21
5.1178298413
 31
0.0
  0
LINE
  5
288
330
1F
100
AcDbEntity
  8
0
  6
HIDDEN
 62
     7
 48
1.75
370
     0
100
AcDbLine
 10
13.8395403762
 20
4.8818297676
 30
0.0
 11
13.9970207169
 21
4.8818297676
 31
0.0
  0
LINE
  5
289
330
1F
100
AcDbEntity
  8
0
  6
HIDDEN
 62
     7
 48
1.75
370
     0
100
AcDbLine
 10
14.3338956387
 20
4.9014045548
 30
0.0
 11
14.3907214222
 21
4.9998299511
 31
0.0
  0
LINE
  5
28A
330
1F
100
AcDbEntity
  8
0
  6
HIDDEN
 62
     7
 48
1.75
370
     0
100
AcDbLine
 10
14.3907214222
 20
4.9998299511
 30
0.0
 11
14.3338956387
 21
5.0982550541
 31
0.0
  0
LINE
  5
28B
330
1F
100
AcDbEntity
  8
0
  6
HIDDEN
 62
     7
 48
1.75
370
     0
100
AcDbLine
 10
14.3338956387
 20
5.0982550541
 30
0.0
 11
13.9970207169
 21
5.0982550541
 31
0.0
  0
LINE
  5
28C
330
1F
100
AcDbEntity
  8
0
  6
HIDDEN
 62
     7
 48
1.75
370
     0
100
AcDbLine
 10
13.9970207169
 20
4.9014045548
 30
0.0
 11
14.3338956387
 21
4.9014045548
 31
0.0
  0
LINE
  5
28D
330
1F
100
AcDbEntity
  8
0
  6
HIDDEN
 62
     7
 48
1.75
370
     0
100
AcDbLine
 10
13.8789105347
 20
12.4466802711
 30
0.0
 11
13.8395403762
 21
12.4466802711
 31
0.0
  0
LINE
  5
28E
330
1F
100
AcDbEntity
  8
0
  6
HIDDEN
 62
     7
 48
1.75
370
     0
100
AcDbLine
 10
13.8395403762
 20
12.0529795659
 30
0.0
 11
13.8789105347
 21
12.0529795659
 31
0.0
  0
LINE
  5
28F
330
1F
100
AcDbEntity
  8
0
  6
HIDDEN
 62
     7
 48
1.75
370
     0
100
AcDbLine
 10
14.4694615926
 20
12.3876250334
 30
0.0
 11
13.8789105347
 21
12.3876250334
 31
0.0
  0
LINE
  5
290
330
1F
100
AcDbEntity
  8
0
  6
HIDDEN
 62
     7
 48
1.75
370
     0
100
AcDbLine
 10
13.8789105347
 20
12.1120345103
 30
0.0
 11
14.4694615926
 21
12.1120345103
 31
0.0
  0
LINE
  5
291
330
1F
100
AcDbEntity
  8
0
  6
HIDDEN
 62
     7
 48
1.75
370
     0
100
AcDbLine
 10
13.9970207169
 20
12.3678299554
 30
0.0
 11
13.8395403762
 21
12.3678299554
 31
0.0
  0
LINE
  5
292
330
1F
100
AcDbEntity
  8
0
  6
HIDDEN
 62
     7
 48
1.75
370
     0
100
AcDbLine
 10
13.8395403762
 20
12.1318298817
 30
0.0
 11
13.9970207169
 21
12.1318298817
 31
0.0
  0
LINE
  5
293
330
1F
100
AcDbEntity
  8
0
  6
HIDDEN
 62
     7
 48
1.75
370
     0
100
AcDbLine
 10
14.3338956387
 20
12.1514046689
 30
0.0
 11
14.3907214222
 21
12.2498297718
 31
0.0
  0
LINE
  5
294
330
1F
100
AcDbEntity
  8
0
  6
HIDDEN
 62
     7
 48
1.75
370
     0
100
AcDbLine
 10
14.3907214222
 20
12.2498297718
 30
0.0
 11
14.3338956387
 21
12.3482551682
 31
0.0
  0
LINE
  5
295
330
1F
100
AcDbEntity
  8
0
  6
HIDDEN
 62
     7
 48
1.75
370
     0
100
AcDbLine
 10
14.3338956387
 20
12.3482551682
 30
0.0
 11
13.9970207169
 21
12.3482551682
 31
0.0
  0
LINE
  5
296
330
1F
100
AcDbEntity
  8
0
  6
HIDDEN
 62
     7
 48
1.75
370
     0
100
AcDbLine
 10
13.9970207169
 20
12.1514046689
 30
0.0
 11
14.3338956387
 21
12.1514046689
 31
0.0
  0
LINE
  5
297
330
1F
100
AcDbEntity
  8
0
  6
HIDDEN
 62
     7
 48
1.75
370
     0
100
AcDbLine
 10
16.6289104465
 20
12.7343298815
 30
0.0
 11
16.7069104446
 21
12.7343298815
 31
0.0
  0
LINE
  5
298
330
1F
100
AcDbEntity
  8
0
  6
HIDDEN
 62
     7
 48
1.75
370
     0
100
AcDbLine
 10
16.7069104446
 20
13.0153299954
 30
0.0
 11
16.6289104465
 21
13.0153299954
 31
0.0
  0
LINE
  5
299
330
1F
100
AcDbEntity
  8
0
  6
HIDDEN
 62
     7
 48
1.75
370
     0
100
AcDbLine
 10
16.7069104446
 20
4.5153298414
 30
0.0
 11
16.6289104465
 21
4.5153298414
 31
0.0
  0
LINE
  5
29A
330
1F
100
AcDbEntity
  8
0
  6
HIDDEN
 62
     7
 48
1.75
370
     0
100
AcDbLine
 10
16.6289104465
 20
4.2343297276
 30
0.0
 11
16.7069104446
 21
4.2343297276
 31
0.0
  0
DIMENSION
  5
29B
330
1F
100
AcDbEntity
  8
0
  6
Continuous
 62
     7
 48
1.75
370
     0
100
AcDbDimension
  2
*D13
 10
13.8789104465
 20
13.8138062394
 30
0.0
 11
15.2539104465
 21
13.8138062394
 31
0.0
 70
   160
 71
     2
 42
-1.0
  3
SLDDIMSTYLE1
100
AcDbAlignedDimension
 13
16.6289104465
 23
13.1248298615
 33
0.0
 14
13.8789104465
 24
12.6558298615
 34
0.0
 50
0.0
100
AcDbRotatedDimension
  0
INSERT
  5
2B3
102
{ACAD_REACTORS
330
2B4
102
}
330
1F
100
AcDbEntity
  8
0
  6
Continuous
 62
     7
 48
1.75
370
     0
100
AcDbBlockReference
  2
SW_NOTE_5
 10
15.0239095208
 20
2.9017819371
 30
0.0
  0
LEADER
  5
2B4
330
1F
100
AcDbEntity
  8
0
  6
Continuous
 62
     7
 48
1.75
370
     0
100
AcDbLeader
  3
SLDDIMSTYLE4
 73
     2
 76
     3
 10
13.8362455508
 20
4.5928298615
 30
0.0
 10
14.5864095208
 20
2.9017819371
 30
0.0
 10
15.0239095208
 20
2.9017819371
 30
0.0
340
2B3
  0
LINE
  5
2B5
330
1F
100
AcDbEntity
  8
0
  6
Continuous
 62
     7
 48
1.75
370
    15
100
AcDbLine
 10
22.2711862428
 20
4.5938299213
 30
0.0
 11
22.1151861916
 21
4.5938299213
 31
0.0
  0
LINE
  5
2B6
330
1F
100
AcDbEntity
  8
0
  6
Continuous
 62
     7
 48
1.75
370
    15
100
AcDbLine
 10
19.1151861545
 20
4.5938299213
 30
0.0
 11
18.9591861033
 21
4.5938299213
 31
0.0
  0
LINE
  5
2B7
330
1F
100
AcDbEntity
  8
0
  6
Continuous
 62
     7
 48
1.75
370
    15
100
AcDbLine
 10
18.9591861033
 20
12.6558298017
 30
0.0
 11
18.9591861033
 21
4.5938299213
 31
0.0
  0
LINE
  5
2B8
330
1F
100
AcDbEntity
  8
0
  6
Continuous
 62
     7
 48
1.75
370
    15
100
AcDbLine
 10
22.2711862428
 20
12.6558298017
 30
0.0
 11
22.1151861916
 21
12.6558298017
 31
0.0
  0
LINE
  5
2B9
330
1F
100
AcDbEntity
  8
0
  6
Continuous
 62
     7
 48
1.75
370
    15
100
AcDbLine
 10
19.1151861545
 20
12.6558298017
 30
0.0
 11
18.9591861033
 21
12.6558298017
 31
0.0
  0
LINE
  5
2BA
330
1F
100
AcDbEntity
  8
0
  6
Continuous
 62
     7
 48
1.75
370
    15
100
AcDbLine
 10
22.2711862428
 20
12.6558298017
 30
0.0
 11
22.2711862428
 21
4.5938299213
 31
0.0
  0
LINE
  5
2BB
330
1F
100
AcDbEntity
  8
0
  6
Continuous
 62
     7
 48
1.75
370
    15
100
AcDbLine
 10
22.287186218
 20
12.6568297635
 30
0.0
 11
22.287186218
 21
12.6718297769
 31
0.0
  0
LINE
  5
2BC
330
1F
100
AcDbEntity
  8
0
  6
Continuous
 62
     7
 48
1.75
370
    15
100
AcDbLine
 10
22.2721862046
 20
12.6718297769
 30
0.0
 11
22.287186218
 21
12.6718297769
 31
0.0
  0
ARC
  5
2BD
330
1F
100
AcDbEntity
  8
0
  6
Continuous
 62
     7
 48
3.0625
370
    15
100
AcDbCircle
 10
22.2721861731
 20
12.6568298615
 30
0.0
 40
0.093
100
AcDbArc
 50
0.0
 51
90.0
  0
LINE
  5
2BE
330
1F
100
AcDbEntity
  8
0
  6
Continuous
 62
     7
 48
1.75
370
    15
100
AcDbLine
 10
22.3651861703
 20
12.6568297635
 30
0.0
 11
22.3651861703
 21
4.5928299595
 31
0.0
  0
LINE
  5
2BF
330
1F
100
AcDbEntity
  8
0
  6
Continuous
 62
     7
 48
1.75
370
    15
100
AcDbLine
 10
22.287186218
 20
12.6568297635
 30
0.0
 11
22.287186218
 21
4.5928299595
 31
0.0
  0
LINE
  5
2C0
330
1F
100
AcDbEntity
  8
0
  6
Continuous
 62
     7
 48
1.75
370
    15
100
AcDbLine
 10
18.9581861416
 20
12.7498297291
 30
0.0
 11
19.1151861545
 21
12.7498297291
 31
0.0
  0
LINE
  5
2C1
330
1F
100
AcDbEntity
  8
0
  6
Continuous
 62
     7
 48
1.75
370
    15
100
AcDbLine
 10
19.3715235266
 20
12.7498297291
 30
0.0
 11
19.4838488757
 21
12.7498297291
 31
0.0
  0
LINE
  5
2C2
330
1F
100
AcDbEntity
  8
0
  6
Continuous
 62
     7
 48
1.75
370
    15
100
AcDbLine
 10
21.7465234704
 20
12.7498297291
 30
0.0
 11
21.8588488195
 21
12.7498297291
 31
0.0
  0
LINE
  5
2C3
330
1F
100
AcDbEntity
  8
0
  6
Continuous
 62
     7
 48
1.75
370
    15
100
AcDbLine
 10
22.1151861916
 20
12.7498297291
 30
0.0
 11
22.2721862046
 21
12.7498297291
 31
0.0
  0
LINE
  5
2C4
330
1F
100
AcDbEntity
  8
0
  6
Continuous
 62
     7
 48
1.75
370
    15
100
AcDbLine
 10
18.9581861416
 20
12.6718297769
 30
0.0
 11
19.1151861545
 21
12.6718297769
 31
0.0
  0
LINE
  5
2C5
330
1F
100
AcDbEntity
  8
0
  6
Continuous
 62
     7
 48
1.75
370
    15
100
AcDbLine
 10
22.1151861916
 20
12.6718297769
 30
0.0
 11
22.2721862046
 21
12.6718297769
 31
0.0
  0
LINE
  5
2C6
330
1F
100
AcDbEntity
  8
0
  6
Continuous
 62
     7
 48
1.75
370
    15
100
AcDbLine
 10
22.2721862046
 20
4.5778299461
 30
0.0
 11
22.287186218
 21
4.5778299461
 31
0.0
  0
LINE
  5
2C7
330
1F
100
AcDbEntity
  8
0
  6
Continuous
 62
     7
 48
1.75
370
    15
100
AcDbLine
 10
22.287186218
 20
4.5928299595
 30
0.0
 11
22.287186218
 21
4.5778299461
 31
0.0
  0
ARC
  5
2C8
330
1F
100
AcDbEntity
  8
0
  6
Continuous
 62
     7
 48
3.0625
370
    15
100
AcDbCircle
 10
22.2721861731
 20
4.5928298615
 30
0.0
 40
0.093
100
AcDbArc
 50
270.0
 51
0.0
  0
LINE
  5
2C9
330
1F
100
AcDbEntity
  8
0
  6
Continuous
 62
     7
 48
1.75
370
    15
100
AcDbLine
 10
22.2721862046
 20
4.4998299938
 30
0.0
 11
22.1151861916
 21
4.4998299938
 31
0.0
  0
LINE
  5
2CA
330
1F
100
AcDbEntity
  8
0
  6
Continuous
 62
     7
 48
1.75
370
    15
100
AcDbLine
 10
21.8588488195
 20
4.4998299938
 30
0.0
 11
21.7465234704
 21
4.4998299938
 31
0.0
  0
LINE
  5
2CB
330
1F
100
AcDbEntity
  8
0
  6
Continuous
 62
     7
 48
1.75
370
    15
100
AcDbLine
 10
19.4838488757
 20
4.4998299938
 30
0.0
 11
19.3715235266
 21
4.4998299938
 31
0.0
  0
LINE
  5
2CC
330
1F
100
AcDbEntity
  8
0
  6
Continuous
 62
     7
 48
1.75
370
    15
100
AcDbLine
 10
19.1151861545
 20
4.4998299938
 30
0.0
 11
18.9581861416
 21
4.4998299938
 31
0.0
  0
LINE
  5
2CD
330
1F
100
AcDbEntity
  8
0
  6
Continuous
 62
     7
 48
1.75
370
    15
100
AcDbLine
 10
22.2721862046
 20
4.5778299461
 30
0.0
 11
22.1151861916
 21
4.5778299461
 31
0.0
  0
LINE
  5
2CE
330
1F
100
AcDbEntity
  8
0
  6
Continuous
 62
     7
 48
1.75
370
    15
100
AcDbLine
 10
19.1151861545
 20
4.5778299461
 30
0.0
 11
18.9581861416
 21
4.5778299461
 31
0.0
  0
LINE
  5
2CF
330
1F
100
AcDbEntity
  8
0
  6
Continuous
 62
     7
 48
1.75
370
    15
100
AcDbLine
 10
18.9431861282
 20
12.6568297635
 30
0.0
 11
18.9431861282
 21
12.6718297769
 31
0.0
  0
ARC
  5
2D0
330
1F
100
AcDbEntity
  8
0
  6
Continuous
 62
     7
 48
3.0625
370
    15
100
AcDbCircle
 10
18.9581861731
 20
12.6568298615
 30
0.0
 40
0.093
100
AcDbArc
 50
90.0
 51
180.0
  0
LINE
  5
2D1
330
1F
100
AcDbEntity
  8
0
  6
Continuous
 62
     7
 48
1.75
370
    15
100
AcDbLine
 10
18.9581861416
 20
12.6718297769
 30
0.0
 11
18.9431861282
 21
12.6718297769
 31
0.0
  0
LINE
  5
2D2
330
1F
100
AcDbEntity
  8
0
  6
Continuous
 62
     7
 48
1.75
370
    15
100
AcDbLine
 10
18.8651861759
 20
4.5928299595
 30
0.0
 11
18.8651861759
 21
12.6568297635
 31
0.0
  0
LINE
  5
2D3
330
1F
100
AcDbEntity
  8
0
  6
Continuous
 62
     7
 48
1.75
370
    15
100
AcDbLine
 10
18.9431861282
 20
4.5928299595
 30
0.0
 11
18.9431861282
 21
12.6568297635
 31
0.0
  0
LINE
  5
2D4
330
1F
100
AcDbEntity
  8
0
  6
Continuous
 62
     7
 48
1.75
370
    15
100
AcDbLine
 10
18.9431861282
 20
4.5928299595
 30
0.0
 11
18.9431861282
 21
4.5778299461
 31
0.0
  0
LINE
  5
2D5
330
1F
100
AcDbEntity
  8
0
  6
Continuous
 62
     7
 48
1.75
370
    15
100
AcDbLine
 10
18.9581861416
 20
4.5778299461
 30
0.0
 11
18.9431861282
 21
4.5778299461
 31
0.0
  0
ARC
  5
2D6
330
1F
100
AcDbEntity
  8
0
  6
Continuous
 62
     7
 48
3.0625
370
    15
100
AcDbCircle
 10
18.9581861731
 20
4.5928298615
 30
0.0
 40
0.093
100
AcDbArc
 50
180.0
 51
270.0
  0
LWPOLYLINE
  5
2D7
330
1F
100
AcDbEntity
  8
0
  6
Continuous
 62
     7
 48
1.75
370
    15
100
AcDbPolyline
 90
       10
 70
   128
 43
0.0
 10
22.287186218
 20
12.6718297769
 10
22.2869583006
 20
12.6716018595
 10
22.2862815884
 20
12.6709251473
 10
22.2851766145
 20
12.6698201734
 10
22.2836768185
 20
12.6683206707
 10
22.2818279599
 20
12.6664718121
 10
22.2796862113
 20
12.6643299168
 10
22.2773165453
 20
12.6619601042
 10
22.2747908278
 20
12.6594345334
 10
22.2721862046
 20
12.6568297635
  0
LWPOLYLINE
  5
2D8
330
1F
100
AcDbEntity
  8
0
  6
Continuous
 62
     7
 48
1.75
370
    15
100
AcDbPolyline
 90
       10
 70
   128
 43
0.0
 10
22.2721862046
 20
4.5928299595
 10
22.2747908278
 20
4.5902251896
 10
22.2773165453
 20
4.5876996188
 10
22.2796862113
 20
4.5853298061
 10
22.2818279599
 20
4.5831879109
 10
22.2836768185
 20
4.5813390522
 10
22.2851766145
 20
4.5798395496
 10
22.2862815884
 20
4.5787345757
 10
22.2869583006
 20
4.5780578635
 10
22.287186218
 20
4.5778299461
  0
LWPOLYLINE
  5
2D9
330
1F
100
AcDbEntity
  8
0
  6
Continuous
 62
     7
 48
1.75
370
    15
100
AcDbPolyline
 90
        9
 70
   128
 43
0.0
 10
18.9581861416
 20
12.6568297635
 10
18.955259882
 20
12.6597563163
 10
18.9524459679
 20
12.6625702305
 10
18.9498526378
 20
12.6651635605
 10
18.9475796241
 20
12.6674365743
 10
18.9457141923
 20
12.6693018594
 10
18.944327915
 20
12.6706881367
 10
18.9434743248
 20
12.6715417269
 10
18.9431861282
 20
12.6718297769
  0
LWPOLYLINE
  5
2DA
330
1F
100
AcDbEntity
  8
0
  6
Continuous
 62
     7
 48
1.75
370
    15
100
AcDbPolyline
 90
       10
 70
   128
 43
0.0
 10
18.9431861282
 20
4.5778299461
 10
18.9434140455
 20
4.5780578635
 10
18.9440907577
 20
4.5787345757
 10
18.9451957316
 20
4.5798395496
 10
18.9466955276
 20
4.5813390522
 10
18.9485443863
 20
4.5831879109
 10
18.9506861349
 20
4.5853298061
 10
18.9530558008
 20
4.5876996188
 10
18.9555815183
 20
4.5902251896
 10
18.9581861416
 20
4.5928299595
  0
LINE
  5
2DB
330
1F
100
AcDbEntity
  8
0
  6
Continuous
 62
     7
 48
1.75
370
    15
100
AcDbLine
 10
22.2401861076
 20
12.5318298475
 30
0.0
 11
22.2401861076
 21
4.7178298755
 31
0.0
  0
ARC
  5
2DC
330
1F
100
AcDbEntity
  8
0
  6
Continuous
 62
     7
 48
3.0625
370
    15
100
AcDbCircle
 10
22.1471861731
 20
12.5318298615
 30
0.0
 40
0.093
100
AcDbArc
 50
0.0
 51
90.0
  0
ARC
  5
2DD
330
1F
100
AcDbEntity
  8
0
  6
Continuous
 62
     7
 48
3.0625
370
    15
100
AcDbCircle
 10
22.1471861731
 20
4.7178298615
 30
0.0
 40
0.093
100
AcDbArc
 50
270.0
 51
0.0
  0
LINE
  5
2DE
330
1F
100
AcDbEntity
  8
0
  6
Continuous
 62
     7
 48
1.75
370
    15
100
AcDbLine
 10
19.0831862042
 20
4.6248299098
 30
0.0
 11
19.1151861545
 21
4.6248299098
 31
0.0
  0
LINE
  5
2DF
330
1F
100
AcDbEntity
  8
0
  6
Continuous
 62
     7
 48
1.75
370
    15
100
AcDbLine
 10
22.1151861916
 20
4.6248299098
 30
0.0
 11
22.147186142
 21
4.6248299098
 31
0.0
  0
LINE
  5
2E0
330
1F
100
AcDbEntity
  8
0
  6
Continuous
 62
     7
 48
1.75
370
    15
100
AcDbLine
 10
22.147186142
 20
12.6248298131
 30
0.0
 11
22.1151861916
 21
12.6248298131
 31
0.0
  0
LINE
  5
2E1
330
1F
100
AcDbEntity
  8
0
  6
Continuous
 62
     7
 48
1.75
370
    15
100
AcDbLine
 10
19.1151861545
 20
12.6248298131
 30
0.0
 11
19.0831862042
 21
12.6248298131
 31
0.0
  0
LINE
  5
2E2
330
1F
100
AcDbEntity
  8
0
  6
Continuous
 62
     7
 48
1.75
370
    15
100
AcDbLine
 10
18.9901862385
 20
12.5318298475
 30
0.0
 11
18.9901862385
 21
4.7178298755
 31
0.0
  0
ARC
  5
2E3
330
1F
100
AcDbEntity
  8
0
  6
Continuous
 62
     7
 48
3.0625
370
    15
100
AcDbCircle
 10
19.0831861731
 20
4.7178298615
 30
0.0
 40
0.093
100
AcDbArc
 50
180.0
 51
270.0
  0
ARC
  5
2E4
330
1F
100
AcDbEntity
  8
0
  6
Continuous
 62
     7
 48
3.0625
370
    15
100
AcDbCircle
 10
19.0831861731
 20
12.5318298615
 30
0.0
 40
0.093
100
AcDbArc
 50
90.0
 51
180.0
  0
LINE
  5
2E5
330
1F
100
AcDbEntity
  8
0
  6
Continuous
 62
     7
 48
1.75
370
    15
100
AcDbLine
 10
19.5371861596
 20
12.8438299499
 30
0.0
 11
19.5371861596
 21
12.905829927
 31
0.0
  0
ARC
  5
2E6
330
1F
100
AcDbEntity
  8
0
  6
Continuous
 62
     7
 48
3.0625
370
    15
100
AcDbCircle
 10
19.4276861731
 20
12.9058298615
 30
0.0
 40
0.1095000000000006
100
AcDbArc
 50
0.0
 51
180.0
  0
LINE
  5
2E7
330
1F
100
AcDbEntity
  8
0
  6
Continuous
 62
     7
 48
1.75
370
    15
100
AcDbLine
 10
19.3181861695
 20
12.905829927
 30
0.0
 11
19.3181861695
 21
12.8438299499
 31
0.0
  0
ARC
  5
2E8
330
1F
100
AcDbEntity
  8
0
  6
Continuous
 62
     7
 48
3.0625
370
    15
100
AcDbCircle
 10
19.4276861731
 20
12.8438298615
 30
0.0
 40
0.1095000000000006
100
AcDbArc
 50
180.0
 51
0.0
  0
LINE
  5
2E9
330
1F
100
AcDbEntity
  8
0
  6
Continuous
 62
     7
 48
1.75
370
    15
100
AcDbLine
 10
19.1151861545
 20
12.8748299385
 30
0.0
 11
19.1151861545
 21
11.6248298986
 31
0.0
  0
ARC
  5
2EA
330
1F
100
AcDbEntity
  8
0
  6
Continuous
 62
     7
 48
3.0625
370
    15
100
AcDbCircle
 10
19.3651861731
 20
12.8748298615
 30
0.0
 40
0.25
100
AcDbArc
 50
90.0
 51
180.0
  0
LINE
  5
2EB
330
1F
100
AcDbEntity
  8
0
  6
Continuous
 62
     7
 48
1.75
370
    15
100
AcDbLine
 10
19.3651861332
 20
13.1248297704
 30
0.0
 11
21.865186213
 21
13.1248297704
 31
0.0
  0
LINE
  5
2EC
330
1F
100
AcDbEntity
  8
0
  6
Continuous
 62
     7
 48
1.75
370
    15
100
AcDbLine
 10
21.9121861767
 20
12.905829927
 30
0.0
 11
21.9121861767
 21
12.8438299499
 31
0.0
  0
ARC
  5
2ED
330
1F
100
AcDbEntity
  8
0
  6
Continuous
 62
     7
 48
3.0625
370
    15
100
AcDbCircle
 10
21.8026861731
 20
12.9058298615
 30
0.0
 40
0.1095000000000006
100
AcDbArc
 50
0.0
 51
180.0
  0
LINE
  5
2EE
330
1F
100
AcDbEntity
  8
0
  6
Continuous
 62
     7
 48
1.75
370
    15
100
AcDbLine
 10
21.6931861866
 20
12.8438299499
 30
0.0
 11
21.6931861866
 21
12.905829927
 31
0.0
  0
ARC
  5
2EF
330
1F
100
AcDbEntity
  8
0
  6
Continuous
 62
     7
 48
3.0625
370
    15
100
AcDbCircle
 10
21.8026861731
 20
12.8438298615
 30
0.0
 40
0.1095000000000006
100
AcDbArc
 50
180.0
 51
0.0
  0
ARC
  5
2F0
330
1F
100
AcDbEntity
  8
0
  6
Continuous
 62
     7
 48
3.0625
370
    15
100
AcDbCircle
 10
21.8651861731
 20
12.8748298615
 30
0.0
 40
0.2500000000000018
100
AcDbArc
 50
0.0
 51
90.0
  0
LINE
  5
2F1
330
1F
100
AcDbEntity
  8
0
  6
Continuous
 62
     7
 48
1.75
370
    15
100
AcDbLine
 10
22.1151861916
 20
12.8748299385
 30
0.0
 11
22.1151861916
 21
11.6248298986
 31
0.0
  0
LINE
  5
2F2
330
1F
100
AcDbEntity
  8
0
  6
Continuous
 62
     7
 48
1.75
370
    15
100
AcDbLine
 10
22.1151861916
 20
11.6248298986
 30
0.0
 11
19.1151861545
 21
11.6248298986
 31
0.0
  0
LINE
  5
2F3
330
1F
100
AcDbEntity
  8
0
  6
Continuous
 62
     7
 48
1.75
370
    15
100
AcDbLine
 10
21.6931861866
 20
4.4058297731
 30
0.0
 11
21.6931861866
 21
4.343829796
 31
0.0
  0
ARC
  5
2F4
330
1F
100
AcDbEntity
  8
0
  6
Continuous
 62
     7
 48
3.0625
370
    15
100
AcDbCircle
 10
21.8026861731
 20
4.3438298615
 30
0.0
 40
0.1095000000000006
100
AcDbArc
 50
180.0
 51
0.0
  0
LINE
  5
2F5
330
1F
100
AcDbEntity
  8
0
  6
Continuous
 62
     7
 48
1.75
370
    15
100
AcDbLine
 10
21.9121861767
 20
4.343829796
 30
0.0
 11
21.9121861767
 21
4.4058297731
 31
0.0
  0
ARC
  5
2F6
330
1F
100
AcDbEntity
  8
0
  6
Continuous
 62
     7
 48
3.0625
370
    15
100
AcDbCircle
 10
21.8026861731
 20
4.4058298615
 30
0.0
 40
0.1095000000000006
100
AcDbArc
 50
0.0
 51
180.0
  0
ARC
  5
2F7
330
1F
100
AcDbEntity
  8
0
  6
Continuous
 62
     7
 48
3.0625
370
    15
100
AcDbCircle
 10
19.3651861731
 20
4.3748298615
 30
0.0
 40
0.2500000000000009
100
AcDbArc
 50
180.0
 51
270.0
  0
LINE
  5
2F8
330
1F
100
AcDbEntity
  8
0
  6
Continuous
 62
     7
 48
1.75
370
    15
100
AcDbLine
 10
19.1151861545
 20
4.3748297845
 30
0.0
 11
19.1151861545
 21
5.6248298244
 31
0.0
  0
LINE
  5
2F9
330
1F
100
AcDbEntity
  8
0
  6
Continuous
 62
     7
 48
1.75
370
    15
100
AcDbLine
 10
19.1151861545
 20
5.6248298244
 30
0.0
 11
22.1151861916
 21
5.6248298244
 31
0.0
  0
LINE
  5
2FA
330
1F
100
AcDbEntity
  8
0
  6
Continuous
 62
     7
 48
1.75
370
    15
100
AcDbLine
 10
22.1151861916
 20
4.3748297845
 30
0.0
 11
22.1151861916
 21
5.6248298244
 31
0.0
  0
ARC
  5
2FB
330
1F
100
AcDbEntity
  8
0
  6
Continuous
 62
     7
 48
3.0625
370
    15
100
AcDbCircle
 10
21.8651861731
 20
4.3748298615
 30
0.0
 40
0.25
100
AcDbArc
 50
270.0
 51
0.0
  0
LINE
  5
2FC
330
1F
100
AcDbEntity
  8
0
  6
Continuous
 62
     7
 48
1.75
370
    15
100
AcDbLine
 10
21.865186213
 20
4.1248299525
 30
0.0
 11
19.3651861332
 21
4.1248299525
 31
0.0
  0
LINE
  5
2FD
330
1F
100
AcDbEntity
  8
0
  6
Continuous
 62
     7
 48
1.75
370
    15
100
AcDbLine
 10
19.3181861695
 20
4.343829796
 30
0.0
 11
19.3181861695
 21
4.4058297731
 31
0.0
  0
ARC
  5
2FE
330
1F
100
AcDbEntity
  8
0
  6
Continuous
 62
     7
 48
3.0625
370
    15
100
AcDbCircle
 10
19.4276861731
 20
4.3438298615
 30
0.0
 40
0.1095000000000006
100
AcDbArc
 50
180.0
 51
0.0
  0
LINE
  5
2FF
330
1F
100
AcDbEntity
  8
0
  6
Continuous
 62
     7
 48
1.75
370
    15
100
AcDbLine
 10
19.5371861596
 20
4.4058297731
 30
0.0
 11
19.5371861596
 21
4.343829796
 31
0.0
  0
ARC
  5
300
330
1F
100
AcDbEntity
  8
0
  6
Continuous
 62
     7
 48
3.0625
370
    15
100
AcDbCircle
 10
19.4276861731
 20
4.4058298615
 30
0.0
 40
0.1095000000000006
100
AcDbArc
 50
0.0
 51
180.0
  0
DIMENSION
  5
301
330
1F
100
AcDbEntity
  8
0
  6
Continuous
 62
     7
 48
1.75
370
     0
100
AcDbDimension
  2
*D15
 10
21.8026861731
 20
3.4926853549
 30
0.0
 11
20.6654003512
 21
3.4926853549
 31
0.0
 70
   160
 71
     2
 42
-1.0
  3
SLDDIMSTYLE1
100
AcDbAlignedDimension
 13
19.4276861731
 23
4.3438298615
 33
0.0
 14
21.8026861731
 24
4.3438298615
 34
0.0
100
AcDbRotatedDimension
  0
DIMENSION
  5
313
330
1F
100
AcDbEntity
  8
0
  6
Continuous
 62
     7
 48
1.75
370
     0
100
AcDbDimension
  2
*D16
 10
18.1762097951
 20
4.1248298615
 30
0.0
 11
18.1762097951
 21
8.6248298615
 31
0.0
 70
   160
 71
     2
 42
-1.0
  3
SLDDIMSTYLE0
100
AcDbAlignedDimension
 13
19.3651861731
 23
13.1248298615
 33
0.0
 14
19.3651861731
 24
4.1248298615
 34
0.0
 50
90.0
100
AcDbRotatedDimension
  0
DIMENSION
  5
325
330
1F
100
AcDbEntity
  8
0
  6
Continuous
 62
     7
 48
1.75
370
     0
100
AcDbDimension
  2
*D17
 10
22.1151861731
 20
13.8138062394
 30
0.0
 11
20.6151861731
 21
13.8138062394
 31
0.0
 70
   160
 71
     2
 42
-1.0
  3
SLDDIMSTYLE0
100
AcDbAlignedDimension
 13
19.1151861731
 23
12.8748298615
 33
0.0
 14
22.1151861731
 24
12.8748298615
 34
0.0
100
AcDbRotatedDimension
  0
MTEXT
  5
337
330
1F
100
AcDbEntity
  8
0
  6
Continuous
 62
     7
 48
1.75
370
     0
100
AcDbMText
 10
22.8496789113
 20
3.5436752872
 30
0.0
 40
0.21875
 41
0.0
 71
     1
 72
     1
  1
.22 [5.6] x .28 [7.1] OBLONG
  7
SLDTEXTSTYLE0
 73
     1
 44
1.0
  0
LEADER
  5
338
330
1F
100
AcDbEntity
  8
0
  6
Continuous
 62
     7
 48
1.75
370
     0
100
AcDbLeader
  3
SLDDIMSTYLE4
 76
     3
 10
21.8853366355
 20
4.2720026308
 30
0.0
 10
22.3776435617
 20
3.4375931956
 30
0.0
 10
22.8151435617
 20
3.4375931956
 30
0.0
  0
ARC
  5
339
330
1F
100
AcDbEntity
  8
0
  6
Continuous
 62
     7
 48
3.0625
370
    15
100
AcDbCircle
 10
24.2851668571
 20
16.1539284305
 30
0.0
 40
0.0930000000000012
100
AcDbArc
 50
119.4125210371
 51
179.8131694679
  0
LINE
  5
33A
330
1F
100
AcDbEntity
  8
0
  6
Continuous
 62
     7
 48
1.75
370
    15
100
AcDbLine
 10
24.1921672874
 20
16.1542315698
 30
0.0
 11
24.1705994854
 21
9.540004023
 31
0.0
  0
LINE
  5
33B
330
1F
100
AcDbEntity
  8
0
  6
Continuous
 62
     7
 48
1.75
370
    15
100
AcDbLine
 10
24.5288244622
 20
16.3980533184
 30
0.0
 11
24.2394951652
 21
16.2349413248
 31
0.0
  0
ARC
  5
33C
330
1F
100
AcDbEntity
  8
0
  6
Continuous
 62
     7
 48
3.0625
370
    15
100
AcDbCircle
 10
26.5943522778
 20
8.1869124815
 30
0.0
 40
0.0929999999999996
100
AcDbArc
 50
239.8687698654
 51
299.4125210371
  0
LINE
  5
33D
330
1F
100
AcDbEntity
  8
0
  6
Continuous
 62
     7
 48
1.75
370
    15
100
AcDbLine
 10
26.6400241263
 20
8.1058996755
 30
0.0
 11
26.9293534233
 21
8.269011669
 31
0.0
  0
LINE
  5
33E
330
1F
100
AcDbEntity
  8
0
  6
Continuous
 62
     7
 48
1.75
370
    15
100
AcDbLine
 10
24.2169147514
 20
9.4592670375
 30
0.0
 11
26.5476680191
 21
8.1064787705
 31
0.0
  0
ARC
  5
33F
330
1F
100
AcDbEntity
  8
0
  6
Continuous
 62
     7
 48
3.0625
370
    15
100
AcDbCircle
 10
24.2635990545
 20
9.5397007228
 30
0.0
 40
0.0929999999999995
100
AcDbArc
 50
179.8131694679
 51
239.8687698654
  0
ARC
  5
340
330
1F
100
AcDbEntity
  8
0
  6
Continuous
 62
     7
 48
3.0625
370
    15
100
AcDbCircle
 10
28.4769139784
 20
15.8485409558
 30
0.0
 40
0.0930000000000011
100
AcDbArc
 50
359.8131694679
 51
59.8687698654
  0
LINE
  5
341
330
1F
100
AcDbEntity
  8
0
  6
Continuous
 62
     7
 48
1.75
370
    15
100
AcDbLine
 10
28.5490142824
 20
9.4390642121
 30
0.0
 11
28.5699134403
 21
15.8482377143
 31
0.0
  0
LINE
  5
342
330
1F
100
AcDbEntity
  8
0
  6
Continuous
 62
     7
 48
1.75
370
    15
100
AcDbLine
 10
28.5235983038
 20
15.9289745327
 30
0.0
 11
26.3686714084
 21
17.1797117346
 31
0.0
  0
LINE
  5
343
330
1F
100
AcDbEntity
  8
0
  6
Continuous
 62
     7
 48
1.75
370
    15
100
AcDbLine
 10
26.2763153117
 20
17.1802910757
 30
0.0
 11
24.7253393335
 21
16.3059144175
 31
0.0
  0
ARC
  5
344
330
1F
100
AcDbEntity
  8
0
  6
Continuous
 62
     7
 48
3.0625
370
    15
100
AcDbCircle
 10
26.3219870393
 20
17.0992781831
 30
0.0
 40
0.0930000000000012
100
AcDbArc
 50
59.8687698654
 51
119.4125210371
  0
LINE
  5
345
330
1F
100
AcDbEntity
  8
0
  6
Continuous
 62
     7
 48
1.75
370
    15
100
AcDbLine
 10
26.9496476191
 20
8.4833786317
 30
0.0
 11
28.5016865448
 21
9.3583545361
 31
0.0
  0
ARC
  5
346
330
1F
100
AcDbEntity
  8
0
  6
Continuous
 62
     7
 48
3.0625
370
    15
100
AcDbCircle
 10
28.4560148205
 20
9.4393674306
 30
0.0
 40
0.0929999999999996
100
AcDbArc
 50
299.4125210371
 51
359.8131694679
  0
LINE
  5
347
330
1F
100
AcDbEntity
  8
0
  6
Continuous
 62
     7
 48
1.75
370
    15
100
AcDbLine
 10
26.2100387466
 20
14.3718015744
 30
0.0
 11
26.2152173516
 21
14.3684133763
 31
0.0
  0
SPLINE
  5
348
330
1F
100
AcDbEntity
  8
0
  6
Continuous
 62
     7
 48
1.75
370
    15
100
AcDbSpline
210
0.0
220
0.0
230
1.0
 70
     8
 71
     3
 72
     9
 73
     5
 74
     0
 42
0.00000001
 43
0.00000001
 40
0.0
 40
0.0
 40
0.0
 40
0.0
 40
0.8457207784891407
 40
1.0
 40
1.0
 40
1.0
 40
1.0
 10
26.21521735160799
 20
14.36841337631329
 30
0.0
 10
26.22122580874985
 20
14.36484042076126
 30
0.0
 10
26.2283303487998
 20
14.3606156746714
 30
0.0
 10
26.23540359260788
 20
14.35826521298667
 30
0.0
 10
26.23649484715615
 20
14.35790258558776
 30
0.0
  0
LINE
  5
349
330
1F
100
AcDbEntity
  8
0
  6
Continuous
 62
     7
 48
1.75
370
    15
100
AcDbLine
 10
26.1290375089
 20
14.8079448039
 30
0.0
 11
26.100602022
 21
14.7919140424
 31
0.0
  0
LINE
  5
34A
330
1F
100
AcDbEntity
  8
0
  6
Continuous
 62
     7
 48
1.75
370
    15
100
AcDbLine
 10
26.3461491251
 20
14.35636084
 30
0.0
 11
26.374584612
 21
14.3723916015
 31
0.0
  0
LINE
  5
34B
330
1F
100
AcDbEntity
  8
0
  6
Continuous
 62
     7
 48
1.75
370
    15
100
AcDbLine
 10
24.4517758486
 20
15.3923117468
 30
0.0
 11
24.4569544535
 21
15.3889235487
 31
0.0
  0
SPLINE
  5
34C
330
1F
100
AcDbEntity
  8
0
  6
Continuous
 62
     7
 48
1.75
370
    15
100
AcDbSpline
210
0.0
220
0.0
230
1.0
 70
     8
 71
     3
 72
     9
 73
     5
 74
     0
 42
0.00000001
 43
0.00000001
 40
0.0
 40
0.0
 40
0.0
 40
0.0
 40
0.8457211612704087
 40
0.9999999999999999
 40
0.9999999999999999
 40
0.9999999999999999
 40
0.9999999999999999
 10
24.45695445351401
 20
15.38892354866055
 30
0.0
 10
24.46296292769799
 20
15.3853505812758
 30
0.0
 10
24.47006748468336
 20
15.38112582310683
 30
0.0
 10
24.47714074608258
 20
15.37877535542485
 30
0.0
 10
24.47823200063728
 20
15.3784127280004
 30
0.0
  0
LINE
  5
34D
330
1F
100
AcDbEntity
  8
0
  6
Continuous
 62
     7
 48
1.75
370
    15
100
AcDbLine
 10
24.3707746624
 20
15.8284549463
 30
0.0
 11
24.3423391755
 21
15.8124241848
 31
0.0
  0
LINE
  5
34E
330
1F
100
AcDbEntity
  8
0
  6
Continuous
 62
     7
 48
1.75
370
    15
100
AcDbLine
 10
24.5878862786
 20
15.3768709824
 30
0.0
 11
24.6163217655
 21
15.3929017439
 31
0.0
  0
LINE
  5
34F
330
1F
100
AcDbEntity
  8
0
  6
Continuous
 62
     7
 48
1.75
370
    15
100
AcDbLine
 10
26.1906480516
 20
8.4252304318
 30
0.0
 11
26.1958266566
 21
8.4218422337
 31
0.0
  0
SPLINE
  5
350
330
1F
100
AcDbEntity
  8
0
  6
Continuous
 62
     7
 48
1.75
370
    15
100
AcDbSpline
210
0.0
220
0.0
230
1.0
 70
     8
 71
     3
 72
     9
 73
     5
 74
     0
 42
0.00000001
 43
0.00000001
 40
0.0
 40
0.0
 40
0.0
 40
0.0
 40
0.845722202875209
 40
1.0
 40
1.0
 40
1.0
 40
1.0
 10
26.19582665655722
 20
8.4218422336553
 30
0.0
 10
26.20183508669684
 20
8.41826947280617
 30
0.0
 10
26.20893958285312
 20
8.414044964052609
 30
0.0
 10
26.2160128961301
 20
8.411693916736507
 30
0.0
 10
26.21710415132085
 20
8.41133120233564
 30
0.0
  0
LINE
  5
351
330
1F
100
AcDbEntity
  8
0
  6
Continuous
 62
     7
 48
1.75
370
    15
100
AcDbLine
 10
26.1096468139
 20
8.8613736613
 30
0.0
 11
26.0812113269
 21
8.8453428997
 31
0.0
  0
LINE
  5
352
330
1F
100
AcDbEntity
  8
0
  6
Continuous
 62
     7
 48
1.75
370
    15
100
AcDbLine
 10
26.32675843
 20
8.4097896973
 30
0.0
 11
26.355193917
 21
8.4258204589
 31
0.0
  0
LINE
  5
353
330
1F
100
AcDbEntity
  8
0
  6
Continuous
 62
     7
 48
1.75
370
    15
100
AcDbLine
 10
24.4323851535
 20
9.4457406041
 30
0.0
 11
24.4375637585
 21
9.442352406
 31
0.0
  0
SPLINE
  5
354
330
1F
100
AcDbEntity
  8
0
  6
Continuous
 62
     7
 48
1.75
370
    15
100
AcDbSpline
210
0.0
220
0.0
230
1.0
 70
     8
 71
     3
 72
     9
 73
     5
 74
     0
 42
0.00000001
 43
0.00000001
 40
0.0
 40
0.0
 40
0.0
 40
0.0
 40
0.8457225856535878
 40
1.0
 40
1.0
 40
1.0
 40
1.0
 10
24.43756375846324
 20
9.44235240600256
 30
0.0
 10
24.44357220564489
 20
9.438779633321378
 30
0.0
 10
24.4506767187365
 20
9.434555112489388
 30
0.0
 10
24.4577500496048
 20
9.432204059174664
 30
0.0
 10
24.45884130480198
 20
9.43184134474828
 30
0.0
  0
LINE
  5
355
330
1F
100
AcDbEntity
  8
0
  6
Continuous
 62
     7
 48
1.75
370
    15
100
AcDbLine
 10
24.3513839674
 20
9.8818838037
 30
0.0
 11
24.3229484804
 21
9.8658530421
 31
0.0
  0
LINE
  5
356
330
1F
100
AcDbEntity
  8
0
  6
Continuous
 62
     7
 48
1.75
370
    15
100
AcDbLine
 10
24.5684955835
 20
9.4302998397
 30
0.0
 11
24.5969310705
 21
9.4463306013
 31
0.0
  0
SPLINE
  5
357
330
1F
100
AcDbEntity
  8
0
  6
Continuous
 62
     7
 48
1.75
370
    15
100
AcDbSpline
210
0.0
220
0.0
230
1.0
 70
     8
 71
     3
 72
    20
 73
    16
 74
     0
 42
0.00000001
 43
0.00000001
 40
0.0
 40
0.0
 40
0.0
 40
0.0
 40
0.0442210508916048
 40
0.1199404097555967
 40
0.1936916670725828
 40
0.2690292546341263
 40
0.3489173637774594
 40
0.4346552743534739
 40
0.5243272476480482
 40
0.6146468174904139
 40
0.7058615131788277
 40
0.7992607700449116
 40
0.8966479815342219
 40
0.9788244163969154
 40
1.0
 40
1.0
 40
1.0
 40
1.0
 10
24.34080363010506
 20
15.72904657709645
 30
0.0
 10
24.33547763586214
 20
15.72627049637232
 30
0.0
 10
24.32103198341897
 20
15.7187409543815
 30
0.0
 10
24.30326636830652
 20
15.69873348120381
 30
0.0
 10
24.2882721372133
 20
15.67239920610316
 30
0.0
 10
24.27980433040083
 20
15.64255387567129
 30
0.0
 10
24.27748760487326
 20
15.60973314915899
 30
0.0
 10
24.28176946119863
 20
15.57417381368561
 30
0.0
 10
24.29290246474401
 20
15.5373331295971
 30
0.0
 10
24.31051432139857
 20
15.50134348673552
 30
0.0
 10
24.33383203998224
 20
15.46824184048439
 30
0.0
 10
24.36239697373187
 20
15.43951122743196
 30
0.0
 10
24.39387953965078
 20
15.41847479892293
 30
0.0
 10
24.41929147354712
 20
15.40850562682653
 30
0.0
 10
24.43287733488004
 20
15.40566263685397
 30
0.0
 10
24.43566091421159
 20
15.40508014245531
 30
0.0
  0
SPLINE
  5
358
330
1F
100
AcDbEntity
  8
0
  6
Continuous
 62
     7
 48
1.75
370
    15
100
AcDbSpline
210
0.0
220
0.0
230
1.0
 70
     8
 71
     3
 72
    10
 73
     6
 74
     0
 42
0.00000001
 43
0.00000001
 40
0.0
 40
0.0
 40
0.0
 40
0.0
 40
0.3267732396948774
 40
0.6952964857448573
 40
1.0
 40
1.0
 40
1.0
 40
1.0
 10
24.43566091421159
 20
15.40508014245531
 30
0.0
 10
24.44446674795307
 20
15.40397751298204
 30
0.0
 10
24.46320348802463
 20
15.40163137717679
 30
0.0
 10
24.49078085987884
 20
15.40548439046301
 30
0.0
 10
24.50730579111776
 20
15.41373075111795
 30
0.0
 10
24.5147850015684
 20
15.41746306721043
 30
0.0
  0
LINE
  5
359
330
1F
100
AcDbEntity
  8
0
  6
Continuous
 62
     7
 48
1.75
370
    15
100
AcDbLine
 10
24.3449669669
 20
15.7675237583
 30
0.0
 11
24.3230182715
 21
15.7518429123
 31
0.0
  0
LINE
  5
35A
330
1F
100
AcDbEntity
  8
0
  6
Continuous
 62
     7
 48
1.75
370
    15
100
AcDbLine
 10
24.52605194
 20
15.3917004672
 30
0.0
 11
24.5508301443
 21
15.402362181
 31
0.0
  0
LINE
  5
35B
330
1F
100
AcDbEntity
  8
0
  6
Continuous
 62
     7
 48
1.75
370
    15
100
AcDbLine
 10
24.3429471141
 20
15.7315958573
 30
0.0
 11
24.3399243605
 21
15.7298917528
 31
0.0
  0
LINE
  5
35C
330
1F
100
AcDbEntity
  8
0
  6
Continuous
 62
     7
 48
1.75
370
    15
100
AcDbLine
 10
24.5160221783
 20
15.4175280079
 30
0.0
 11
24.519044932
 21
15.4192321124
 31
0.0
  0
SPLINE
  5
35D
330
1F
100
AcDbEntity
  8
0
  6
Continuous
 62
     7
 48
1.75
370
    15
100
AcDbSpline
210
0.0
220
0.0
230
1.0
 70
     8
 71
     3
 72
    20
 73
    16
 74
     0
 42
0.00000001
 43
0.00000001
 40
0.0
 40
0.0
 40
0.0
 40
0.0
 40
0.0442212441033288
 40
0.1199405241869393
 40
0.1936917709805947
 40
0.2690293477924592
 40
0.3489174270825191
 40
0.4346553727078292
 40
0.5243273332073969
 40
0.6146469970493331
 40
0.7058615479478411
 40
0.7992606414999474
 40
0.8966478390933884
 40
0.9788242622305897
 40
1.0
 40
1.0
 40
1.0
 40
1.0
 10
26.09906652819905
 20
14.70853640474919
 30
0.0
 10
26.09374049444327
 20
14.70576035494512
 30
0.0
 10
26.079294784164
 20
14.69823092253269
 30
0.0
 10
26.06152922788975
 20
14.67822329752927
 30
0.0
 10
26.0465349738362
 20
14.65188907467918
 30
0.0
 10
26.03806720059373
 20
14.62204372475588
 30
0.0
 10
26.03575036140467
 20
14.5892230404598
 30
0.0
 10
26.0400323344414
 20
14.55366367242171
 30
0.0
 10
26.05116529673451
 20
14.5168229687866
 30
0.0
 10
26.0687772214661
 20
14.48083335380361
 30
0.0
 10
26.09209487669847
 20
14.44773169816543
 30
0.0
 10
26.12065978773619
 20
14.41900110133397
 30
0.0
 10
26.15214232869752
 20
14.39796467775882
 30
0.0
 10
26.17755430089425
 20
14.38799552739897
 30
0.0
 10
26.1911401645034
 20
14.38515250460422
 30
0.0
 10
26.19392376073046
 20
14.38457000004267
 30
0.0
  0
SPLINE
  5
35E
330
1F
100
AcDbEntity
  8
0
  6
Continuous
 62
     7
 48
1.75
370
    15
100
AcDbSpline
210
0.0
220
0.0
230
1.0
 70
     8
 71
     3
 72
    10
 73
     6
 74
     0
 42
0.00000001
 43
0.00000001
 40
0.0
 40
0.0
 40
0.0
 40
0.0
 40
0.3267734198319243
 40
0.6952968690340634
 40
1.0
 40
1.0
 40
1.0
 40
1.0
 10
26.19392376073046
 20
14.38457000004267
 30
0.0
 10
26.20272959418095
 20
14.38346737186556
 30
0.0
 10
26.22146633363338
 20
14.38112123881826
 30
0.0
 10
26.24904369507895
 20
14.3849742286273
 30
0.0
 10
26.26556860370366
 20
14.39322062580564
 30
0.0
 10
26.27304779651215
 20
14.39695295473241
 30
0.0
  0
LINE
  5
35F
330
1F
100
AcDbEntity
  8
0
  6
Continuous
 62
     7
 48
1.75
370
    15
100
AcDbLine
 10
26.1032297618
 20
14.7470136458
 30
0.0
 11
26.0812811696
 21
14.7313327399
 31
0.0
  0
LINE
  5
360
330
1F
100
AcDbEntity
  8
0
  6
Continuous
 62
     7
 48
1.75
370
    15
100
AcDbLine
 10
26.2843148381
 20
14.3711902948
 30
0.0
 11
26.3090929908
 21
14.3818520386
 31
0.0
  0
LINE
  5
361
330
1F
100
AcDbEntity
  8
0
  6
Continuous
 62
     7
 48
1.75
370
    15
100
AcDbLine
 10
26.1012099606
 20
14.7110857149
 30
0.0
 11
26.098187207
 21
14.7093816104
 31
0.0
  0
LINE
  5
362
330
1F
100
AcDbEntity
  8
0
  6
Continuous
 62
     7
 48
1.75
370
    15
100
AcDbLine
 10
26.2742850249
 20
14.3970178654
 30
0.0
 11
26.2773077785
 21
14.39872197
 31
0.0
  0
SPLINE
  5
363
330
1F
100
AcDbEntity
  8
0
  6
Continuous
 62
     7
 48
1.75
370
    15
100
AcDbSpline
210
0.0
220
0.0
230
1.0
 70
     8
 71
     3
 72
    20
 73
    16
 74
     0
 42
0.00000001
 43
0.00000001
 40
0.0
 40
0.0
 40
0.0
 40
0.0
 40
0.0690088535821722
 40
0.1422886827466129
 40
0.2149016053789516
 40
0.2901777384725566
 40
0.3706523239859977
 40
0.456589371803968
 40
0.5450079580256826
 40
0.6339069731425614
 40
0.7241489550131499
 40
0.8170461582331899
 40
0.9018619040811373
 40
0.9813667237742921
 40
1.0
 40
1.0
 40
1.0
 40
1.0
 10
26.0790179539949
 20
8.762465037848541
 30
0.0
 10
26.07097147222607
 20
8.757310264162259
 30
0.0
 10
26.05438050987557
 20
8.746681686529042
 30
0.0
 10
26.03614826275092
 20
8.722851956536706
 30
0.0
 10
26.02348921001813
 20
8.695245314356466
 30
0.0
 10
26.01715002514888
 20
8.664361194704501
 30
0.0
 10
26.01708232869638
 20
8.63049864750212
 30
0.0
 10
26.02374982983794
 20
8.59429474800574
 30
0.0
 10
26.03721133468018
 20
8.557509294370705
 30
0.0
 10
26.05688981467609
 20
8.522325968419386
 30
0.0
 10
26.08206895334895
 20
8.490582882939451
 30
0.0
 10
26.11109766573837
 20
8.464935124047008
 30
0.0
 10
26.14223113112504
 20
8.446939975319996
 30
0.0
 10
26.16627661585647
 20
8.439136803123919
 30
0.0
 10
26.17954650990371
 20
8.437176195284614
 30
0.0
 10
26.18206603709601
 20
8.436803938750614
 30
0.0
  0
SPLINE
  5
364
330
1F
100
AcDbEntity
  8
0
  6
Continuous
 62
     7
 48
1.75
370
    15
100
AcDbSpline
210
0.0
220
0.0
230
1.0
 70
     8
 71
     3
 72
    10
 73
     6
 74
     0
 42
0.00000001
 43
0.00000001
 40
0.0
 40
0.0
 40
0.0
 40
0.0
 40
0.364513204105369
 40
0.7655292454342312
 40
1.0
 40
1.0
 40
1.0
 40
1.0
 10
26.18206603709601
 20
8.436803938750614
 30
0.0
 10
26.19109418713531
 20
8.436257510833725
 30
0.0
 10
26.2100545781703
 20
8.435109934981355
 30
0.0
 10
26.23520737367938
 20
8.440010747820924
 30
0.0
 10
26.24886304983177
 20
8.44822421033676
 30
0.0
 10
26.25390148133379
 20
8.45125466945271
 30
0.0
  0
LINE
  5
365
330
1F
100
AcDbEntity
  8
0
  6
Continuous
 62
     7
 48
1.75
370
    15
100
AcDbLine
 10
26.0838390668
 20
8.8004425032
 30
0.0
 11
26.0618904746
 21
8.7847615973
 31
0.0
  0
LINE
  5
366
330
1F
100
AcDbEntity
  8
0
  6
Continuous
 62
     7
 48
1.75
370
    15
100
AcDbLine
 10
26.2649241423
 20
8.4246189116
 30
0.0
 11
26.289702295
 21
8.4352806553
 31
0.0
  0
LINE
  5
367
330
1F
100
AcDbEntity
  8
0
  6
Continuous
 62
     7
 48
1.75
370
    15
100
AcDbLine
 10
26.0818192655
 20
8.7645145722
 30
0.0
 11
26.0787965119
 21
8.7628104677
 31
0.0
  0
LINE
  5
368
330
1F
100
AcDbEntity
  8
0
  6
Continuous
 62
     7
 48
1.75
370
    15
100
AcDbLine
 10
26.2548943298
 20
8.4504467228
 30
0.0
 11
26.2579170834
 21
8.4521508273
 31
0.0
  0
SPLINE
  5
369
330
1F
100
AcDbEntity
  8
0
  6
Continuous
 62
     7
 48
1.75
370
    15
100
AcDbSpline
210
0.0
220
0.0
230
1.0
 70
     8
 71
     3
 72
    20
 73
    16
 74
     0
 42
0.00000001
 43
0.00000001
 40
0.0
 40
0.0
 40
0.0
 40
0.0
 40
0.0442214355505721
 40
0.1199407639408541
 40
0.1936919915762047
 40
0.2690295488176844
 40
0.3489176258095691
 40
0.4346555018798476
 40
0.5243274390853988
 40
0.6146469725781123
 40
0.7058616315566248
 40
0.799260850833618
 40
0.8966480231288612
 40
0.978824424919156
 40
1.0
 40
1.0
 40
1.0
 40
1.0
 10
24.3214129350543
 20
9.782475434438457
 30
0.0
 10
24.31608694771405
 20
9.77969926604644
 30
0.0
 10
24.30164139699016
 20
9.772169529536958
 30
0.0
 10
24.28387564959262
 20
9.752162124198225
 30
0.0
 10
24.2688814475724
 20
9.725827815744767
 30
0.0
 10
24.26041363278219
 20
9.695982494465031
 30
0.0
 10
24.2580969095668
 20
9.663161765300178
 30
0.0
 10
24.26237876521001
 20
9.627602430609386
 30
0.0
 10
24.27351176895089
 20
9.590761746296588
 30
0.0
 10
24.29112362555182
 20
9.554772103496536
 30
0.0
 10
24.3144413441501
 20
9.52167045722864
 30
0.0
 10
24.34300627789567
 20
9.492939844180878
 30
0.0
 10
24.37448884381569
 20
9.471903415670562
 30
0.0
 10
24.3999007777118
 20
9.461934243574417
 30
0.0
 10
24.41348663904474
 20
9.459091253601848
 30
0.0
 10
24.41627021837629
 20
9.458508759203186
 30
0.0
  0
SPLINE
  5
36A
330
1F
100
AcDbEntity
  8
0
  6
Continuous
 62
     7
 48
1.75
370
    15
100
AcDbSpline
210
0.0
220
0.0
230
1.0
 70
     8
 71
     3
 72
    10
 73
     6
 74
     0
 42
0.00000001
 43
0.00000001
 40
0.0
 40
0.0
 40
0.0
 40
0.0
 40
0.3267732396948774
 40
0.6952964857448573
 40
1.0
 40
1.0
 40
1.0
 40
1.0
 10
24.41627021837629
 20
9.458508759203186
 30
0.0
 10
24.42507605211777
 20
9.457406129729916
 30
0.0
 10
24.44381279218933
 20
9.455059993924671
 30
0.0
 10
24.47139016404354
 20
9.458913007210892
 30
0.0
 10
24.48791509528246
 20
9.46715936786583
 30
0.0
 10
24.4953943057331
 20
9.470891683958312
 30
0.0
  0
LINE
  5
36B
330
1F
100
AcDbEntity
  8
0
  6
Continuous
 62
     7
 48
1.75
370
    15
100
AcDbLine
 10
24.3255762718
 20
9.8209526156
 30
0.0
 11
24.3036275765
 21
9.8052717696
 31
0.0
  0
LINE
  5
36C
330
1F
100
AcDbEntity
  8
0
  6
Continuous
 62
     7
 48
1.75
370
    15
100
AcDbLine
 10
24.5066612442
 20
9.4451290839
 30
0.0
 11
24.5314394484
 21
9.4557907977
 31
0.0
  0
LINE
  5
36D
330
1F
100
AcDbEntity
  8
0
  6
Continuous
 62
     7
 48
1.75
370
    15
100
AcDbLine
 10
24.323556419
 20
9.7850247147
 30
0.0
 11
24.3205336654
 21
9.7833206101
 31
0.0
  0
LINE
  5
36E
330
1F
100
AcDbEntity
  8
0
  6
Continuous
 62
     7
 48
1.75
370
    15
100
AcDbLine
 10
24.4966314833
 20
9.4709568652
 30
0.0
 11
24.4996542369
 21
9.4726609697
 31
0.0
  0
LINE
  5
36F
330
1F
100
AcDbEntity
  8
0
  6
Continuous
 62
     7
 48
1.75
370
    15
100
AcDbLine
 10
26.5200239174
 20
17.5518067519
 30
0.0
 11
26.4645750397
 21
17.5205469483
 31
0.0
  0
LINE
  5
370
330
1F
100
AcDbEntity
  8
0
  6
Continuous
 62
     7
 48
1.75
370
    15
100
AcDbLine
 10
28.4456510701
 20
9.0926412755
 30
0.0
 11
28.5010999477
 21
9.1239010791
 31
0.0
  0
ARC
  5
371
330
1F
100
AcDbEntity
  8
0
  6
Continuous
 62
     7
 48
3.0625
370
    15
100
AcDbCircle
 10
26.5386516486
 20
14.7575050714
 30
0.0
 40
0.1427885888768897
100
AcDbArc
 50
2.2766051428
 51
57.1199961206
  0
ARC
  5
372
330
1F
100
AcDbEntity
  8
0
  6
Continuous
 62
     7
 48
3.0625
370
    15
100
AcDbCircle
 10
26.6162419952
 20
14.8917179704
 30
0.0
 40
0.1440793635344105
100
AcDbArc
 50
242.5423724541
 51
296.8549864915
  0
ARC
  5
373
330
1F
100
AcDbEntity
  8
0
  6
Continuous
 62
     7
 48
3.0625
370
    15
100
AcDbCircle
 10
26.6915815155
 20
14.7571814725
 30
0.0
 40
0.1419310677979839
100
AcDbArc
 50
122.0955355765
 51
177.2993908045
  0
LINE
  5
374
330
1F
100
AcDbEntity
  8
0
  6
Continuous
 62
     7
 48
1.75
370
    15
100
AcDbLine
 10
26.6597597321
 20
8.14894963
 30
0.0
 11
26.6813275342
 21
14.7631771769
 31
0.0
  0
ARC
  5
375
330
1F
100
AcDbEntity
  8
0
  6
Continuous
 62
     7
 48
3.0625
370
    15
100
AcDbCircle
 10
26.5946741931
 20
8.2774904236
 30
0.0
 40
0.1440793635344073
100
AcDbArc
 50
242.5423724541
 51
296.8549864915
  0
LINE
  5
376
330
1F
100
AcDbEntity
  8
0
  6
Continuous
 62
     7
 48
1.75
370
    15
100
AcDbLine
 10
26.5498080801
 20
14.7638688487
 30
0.0
 11
26.528240278
 21
8.1496413019
 31
0.0
  0
LINE
  5
377
330
1F
100
AcDbEntity
  8
0
  6
Continuous
 62
     7
 48
1.75
370
    15
100
AcDbLine
 10
26.9706568312
 20
14.9262891705
 30
0.0
 11
26.6813275342
 21
14.7631771769
 31
0.0
  0
LINE
  5
378
330
1F
100
AcDbEntity
  8
0
  6
Continuous
 62
     7
 48
1.75
370
    15
100
AcDbLine
 10
26.6161689164
 20
14.8774202677
 30
0.0
 11
26.9054982133
 21
15.0405322613
 31
0.0
  0
ARC
  5
379
330
1F
100
AcDbEntity
  8
0
  6
Continuous
 62
     7
 48
3.0625
370
    15
100
AcDbCircle
 10
26.8279809456
 20
14.920617065
 30
0.0
 40
0.1427885888768679
100
AcDbArc
 50
2.2766051428
 51
57.1199961206
  0
ARC
  5
37A
330
1F
100
AcDbEntity
  8
0
  6
Continuous
 62
     7
 48
3.0625
370
    15
100
AcDbCircle
 10
24.3608282479
 20
16.1099697395
 30
0.0
 40
0.141931067797951
100
AcDbArc
 50
122.0955355765
 51
177.2993908045
  0
LINE
  5
37B
330
1F
100
AcDbEntity
  8
0
  6
Continuous
 62
     7
 48
1.75
370
    15
100
AcDbLine
 10
26.6161689164
 20
14.8774202677
 30
0.0
 11
24.2854156487
 21
16.2302085348
 31
0.0
  0
LINE
  5
37C
330
1F
100
AcDbEntity
  8
0
  6
Continuous
 62
     7
 48
1.75
370
    15
100
AcDbLine
 10
24.2190548124
 20
16.1166571157
 30
0.0
 11
26.5498080801
 21
14.7638688487
 31
0.0
  0
LINE
  5
37D
330
1F
100
AcDbEntity
  8
0
  6
Continuous
 62
     7
 48
1.75
370
    15
100
AcDbLine
 10
26.9490890291
 20
8.3120616236
 30
0.0
 11
26.9706568312
 21
14.9262891705
 31
0.0
  0
LINE
  5
37E
330
1F
100
AcDbEntity
  8
0
  6
Continuous
 62
     7
 48
1.75
370
    15
100
AcDbLine
 10
26.6597597321
 20
8.14894963
 30
0.0
 11
26.9490890291
 21
8.3120616236
 31
0.0
  0
LINE
  5
37F
330
1F
100
AcDbEntity
  8
0
  6
Continuous
 62
     7
 48
1.75
370
    15
100
AcDbLine
 10
24.9011637897
 20
14.1782950609
 30
0.0
 11
24.9556297922
 21
14.1466825474
 31
0.0
  0
ARC
  5
380
330
1F
100
AcDbEntity
  8
0
  6
Continuous
 62
     7
 48
3.0625
370
    15
100
AcDbCircle
 10
25.9204645414
 20
14.2838185316
 30
0.0
 40
0.9745318729546307
100
AcDbArc
 50
188.0895033028
 51
231.3070907836
  0
LINE
  5
381
330
1F
100
AcDbEntity
  8
0
  6
Continuous
 62
     7
 48
1.75
370
    15
100
AcDbLine
 10
25.3112397734
 20
13.523188823
 30
0.0
 11
25.3110326462
 21
13.4596688455
 31
0.0
  0
LINE
  5
382
330
1F
100
AcDbEntity
  8
0
  6
Continuous
 62
     7
 48
1.75
370
    15
100
AcDbLine
 10
25.3110326462
 20
13.4596688455
 30
0.0
 11
25.4446606211
 21
13.3821100755
 31
0.0
  0
LINE
  5
383
330
1F
100
AcDbEntity
  8
0
  6
Continuous
 62
     7
 48
1.75
370
    15
100
AcDbLine
 10
25.4446606211
 20
13.3821100755
 30
0.0
 11
25.4448677483
 21
13.4456300531
 31
0.0
  0
ARC
  5
384
330
1F
100
AcDbEntity
  8
0
  6
Continuous
 62
     7
 48
3.0625
370
    15
100
AcDbCircle
 10
25.5563097594
 20
13.6662284043
 30
0.0
 40
0.2471496599597318
100
AcDbArc
 50
243.1979792811
 51
357.3380659929
  0
LINE
  5
385
330
1F
100
AcDbEntity
  8
0
  6
Continuous
 62
     7
 48
1.75
370
    15
100
AcDbLine
 10
25.8031927327
 20
13.6547500819
 30
0.0
 11
25.8576587352
 21
13.6231375684
 31
0.0
  0
LINE
  5
386
330
1F
100
AcDbEntity
  8
0
  6
Continuous
 62
     7
 48
1.75
370
    15
100
AcDbLine
 10
25.8576587352
 20
13.6231375684
 30
0.0
 11
25.858166905
 21
13.7789786856
 31
0.0
  0
LINE
  5
387
330
1F
100
AcDbEntity
  8
0
  6
Continuous
 62
     7
 48
1.75
370
    15
100
AcDbLine
 10
25.858166905
 20
13.7789786856
 30
0.0
 11
25.8037009025
 21
13.8105911991
 31
0.0
  0
ARC
  5
388
330
1F
100
AcDbEntity
  8
0
  6
Continuous
 62
     7
 48
3.0625
370
    15
100
AcDbCircle
 10
24.8388656051
 20
13.6734549023
 30
0.0
 40
0.974532459632659
100
AcDbArc
 50
8.0895169655
 51
51.3070771209
  0
LINE
  5
389
330
1F
100
AcDbEntity
  8
0
  6
Continuous
 62
     7
 48
1.75
370
    15
100
AcDbLine
 10
25.4480909212
 20
14.4340849234
 30
0.0
 11
25.4482980484
 21
14.497604901
 31
0.0
  0
LINE
  5
38A
330
1F
100
AcDbEntity
  8
0
  6
Continuous
 62
     7
 48
1.75
370
    15
100
AcDbLine
 10
25.4482980484
 20
14.497604901
 30
0.0
 11
25.3146700735
 21
14.5751636709
 31
0.0
  0
LINE
  5
38B
330
1F
100
AcDbEntity
  8
0
  6
Continuous
 62
     7
 48
1.75
370
    15
100
AcDbLine
 10
25.3146700735
 20
14.5751636709
 30
0.0
 11
25.3144629463
 21
14.5116436934
 31
0.0
  0
ARC
  5
38C
330
1F
100
AcDbEntity
  8
0
  6
Continuous
 62
     7
 48
3.0625
370
    15
100
AcDbCircle
 10
25.2030210002
 20
14.2910452309
 30
0.0
 40
0.247149729982512
100
AcDbArc
 50
63.198004345
 51
177.338040929
  0
LINE
  5
38D
330
1F
100
AcDbEntity
  8
0
  6
Continuous
 62
     7
 48
1.75
370
    15
100
AcDbLine
 10
24.9561379619
 20
14.3025236646
 30
0.0
 11
24.9016719594
 21
14.3341361781
 31
0.0
  0
LINE
  5
38E
330
1F
100
AcDbEntity
  8
0
  6
Continuous
 62
     7
 48
1.75
370
    15
100
AcDbLine
 10
24.9016719594
 20
14.3341361781
 30
0.0
 11
24.9011637897
 21
14.1782950609
 31
0.0
  0
LINE
  5
38F
330
1F
100
AcDbEntity
  8
0
  6
Continuous
 62
     7
 48
1.75
370
    15
100
AcDbLine
 10
26.528240278
 20
8.1496413019
 30
0.0
 11
24.1974870103
 21
9.5024295689
 31
0.0
  0
LINE
  5
390
330
1F
100
AcDbEntity
  8
0
  6
Continuous
 62
     7
 48
1.75
370
    15
100
AcDbLine
 10
24.1974870103
 20
9.5024295689
 30
0.0
 11
24.2190548124
 21
16.1166571157
 31
0.0
  0
ARC
  5
391
330
1F
100
AcDbEntity
  8
0
  6
Continuous
 62
     7
 48
3.0625
370
    15
100
AcDbCircle
 10
25.9084294852
 20
10.5928435153
 30
0.0
 40
0.9745324596326682
100
AcDbArc
 50
188.0895169655
 51
231.3070771209
  0
LINE
  5
392
330
1F
100
AcDbEntity
  8
0
  6
Continuous
 62
     7
 48
1.75
370
    15
100
AcDbLine
 10
25.2992041692
 20
9.8322134942
 30
0.0
 11
25.298997042
 21
9.7686935166
 31
0.0
  0
LINE
  5
393
330
1F
100
AcDbEntity
  8
0
  6
Continuous
 62
     7
 48
1.75
370
    15
100
AcDbLine
 10
25.298997042
 20
9.7686935166
 30
0.0
 11
25.4326250169
 21
9.6911347467
 31
0.0
  0
LINE
  5
394
330
1F
100
AcDbEntity
  8
0
  6
Continuous
 62
     7
 48
1.75
370
    15
100
AcDbLine
 10
25.4326250169
 20
9.6911347467
 30
0.0
 11
25.432832144
 21
9.7546547242
 31
0.0
  0
ARC
  5
395
330
1F
100
AcDbEntity
  8
0
  6
Continuous
 62
     7
 48
3.0625
370
    15
100
AcDbCircle
 10
25.5442740902
 20
9.9752531867
 30
0.0
 40
0.2471497299825082
100
AcDbArc
 50
243.198004345
 51
357.338040929
  0
LINE
  5
396
330
1F
100
AcDbEntity
  8
0
  6
Continuous
 62
     7
 48
1.75
370
    15
100
AcDbLine
 10
25.7911571284
 20
9.963774753
 30
0.0
 11
25.845623131
 21
9.9321622395
 31
0.0
  0
LINE
  5
397
330
1F
100
AcDbEntity
  8
0
  6
Continuous
 62
     7
 48
1.75
370
    15
100
AcDbLine
 10
25.845623131
 20
9.9321622395
 30
0.0
 11
25.8461313007
 21
10.0880033567
 31
0.0
  0
LINE
  5
398
330
1F
100
AcDbEntity
  8
0
  6
Continuous
 62
     7
 48
1.75
370
    15
100
AcDbLine
 10
25.8461313007
 20
10.0880033567
 30
0.0
 11
25.7916652982
 21
10.1196158702
 31
0.0
  0
ARC
  5
399
330
1F
100
AcDbEntity
  8
0
  6
Continuous
 62
     7
 48
3.0625
370
    15
100
AcDbCircle
 10
24.826830549
 20
9.982479886
 30
0.0
 40
0.9745318729546711
100
AcDbArc
 50
8.0895033028
 51
51.3070907836
  0
LINE
  5
39A
330
1F
100
AcDbEntity
  8
0
  6
Continuous
 62
     7
 48
1.75
370
    15
100
AcDbLine
 10
25.4360553169
 20
10.7431095946
 30
0.0
 11
25.4362624441
 21
10.8066295721
 31
0.0
  0
LINE
  5
39B
330
1F
100
AcDbEntity
  8
0
  6
Continuous
 62
     7
 48
1.75
370
    15
100
AcDbLine
 10
25.4362624441
 20
10.8066295721
 30
0.0
 11
25.3026344692
 21
10.8841883421
 31
0.0
  0
LINE
  5
39C
330
1F
100
AcDbEntity
  8
0
  6
Continuous
 62
     7
 48
1.75
370
    15
100
AcDbLine
 10
25.3026344692
 20
10.8841883421
 30
0.0
 11
25.3024273421
 21
10.8206683645
 31
0.0
  0
ARC
  5
39D
330
1F
100
AcDbEntity
  8
0
  6
Continuous
 62
     7
 48
3.0625
370
    15
100
AcDbCircle
 10
25.190985331
 20
10.6000700132
 30
0.0
 40
0.2471496599597354
100
AcDbArc
 50
63.1979792811
 51
177.3380659928
  0
LINE
  5
39E
330
1F
100
AcDbEntity
  8
0
  6
Continuous
 62
     7
 48
1.75
370
    15
100
AcDbLine
 10
24.9441023577
 20
10.6115483357
 30
0.0
 11
24.8896363551
 21
10.6431608492
 31
0.0
  0
LINE
  5
39F
330
1F
100
AcDbEntity
  8
0
  6
Continuous
 62
     7
 48
1.75
370
    15
100
AcDbLine
 10
24.8896363551
 20
10.6431608492
 30
0.0
 11
24.8891281854
 21
10.487319732
 31
0.0
  0
LINE
  5
3A0
330
1F
100
AcDbEntity
  8
0
  6
Continuous
 62
     7
 48
1.75
370
    15
100
AcDbLine
 10
24.8891281854
 20
10.487319732
 30
0.0
 11
24.9435941879
 21
10.4557072185
 31
0.0
  0
ARC
  5
3A1
330
1F
100
AcDbEntity
  8
0
  6
Continuous
 62
     7
 48
3.0625
370
    15
100
AcDbCircle
 10
25.9144464922
 20
12.4383308066
 30
0.0
 40
0.9745316241528913
100
AcDbArc
 50
188.0895035705
 51
231.3070976929
  0
LINE
  5
3A2
330
1F
100
AcDbEntity
  8
0
  6
Continuous
 62
     7
 48
1.75
370
    15
100
AcDbLine
 10
25.3052219715
 20
11.6777012187
 30
0.0
 11
25.3050148443
 21
11.6141812412
 31
0.0
  0
LINE
  5
3A3
330
1F
100
AcDbEntity
  8
0
  6
Continuous
 62
     7
 48
1.75
370
    15
100
AcDbLine
 10
25.3050148443
 20
11.6141812412
 30
0.0
 11
25.4386428192
 21
11.5366224712
 31
0.0
  0
LINE
  5
3A4
330
1F
100
AcDbEntity
  8
0
  6
Continuous
 62
     7
 48
1.75
370
    15
100
AcDbLine
 10
25.4386428192
 20
11.5366224712
 30
0.0
 11
25.4388499464
 21
11.6001424488
 31
0.0
  0
ARC
  5
3A5
330
1F
100
AcDbEntity
  8
0
  6
Continuous
 62
     7
 48
3.0625
370
    15
100
AcDbCircle
 10
25.550292038
 20
11.8207406666
 30
0.0
 40
0.2471495771482146
100
AcDbArc
 50
243.1979486499
 51
357.3380751425
  0
LINE
  5
3A6
330
1F
100
AcDbEntity
  8
0
  6
Continuous
 62
     7
 48
1.75
370
    15
100
AcDbLine
 10
25.7971749305
 20
11.8092623874
 30
0.0
 11
25.851640933
 21
11.7776498738
 31
0.0
  0
LINE
  5
3A7
330
1F
100
AcDbEntity
  8
0
  6
Continuous
 62
     7
 48
1.75
370
    15
100
AcDbLine
 10
25.851640933
 20
11.7776498738
 30
0.0
 11
25.852149103
 21
11.9334910512
 31
0.0
  0
LINE
  5
3A8
330
1F
100
AcDbEntity
  8
0
  6
Continuous
 62
     7
 48
1.75
370
    15
100
AcDbLine
 10
25.852149103
 20
11.9334910512
 30
0.0
 11
25.7976831004
 21
11.9651035647
 31
0.0
  0
ARC
  5
3A9
330
1F
100
AcDbEntity
  8
0
  6
Continuous
 62
     7
 48
3.0625
370
    15
100
AcDbCircle
 10
24.8328485982
 20
11.827967611
 30
0.0
 40
0.97453162415292
100
AcDbArc
 50
8.0895035705
 51
51.3070976929
  0
LINE
  5
3AA
330
1F
100
AcDbEntity
  8
0
  6
Continuous
 62
     7
 48
1.75
370
    15
100
AcDbLine
 10
25.4420731189
 20
12.5885971988
 30
0.0
 11
25.4422802461
 21
12.6521171764
 31
0.0
  0
LINE
  5
3AB
330
1F
100
AcDbEntity
  8
0
  6
Continuous
 62
     7
 48
1.75
370
    15
100
AcDbLine
 10
25.4422802461
 20
12.6521171764
 30
0.0
 11
25.3086522712
 21
12.7296759463
 31
0.0
  0
LINE
  5
3AC
330
1F
100
AcDbEntity
  8
0
  6
Continuous
 62
     7
 48
1.75
370
    15
100
AcDbLine
 10
25.3086522712
 20
12.7296759463
 30
0.0
 11
25.308445144
 21
12.6661559688
 31
0.0
  0
ARC
  5
3AD
330
1F
100
AcDbEntity
  8
0
  6
Continuous
 62
     7
 48
3.0625
370
    15
100
AcDbCircle
 10
25.1970030524
 20
12.445557751
 30
0.0
 40
0.2471495771482151
100
AcDbArc
 50
63.1979486499
 51
177.3380751425
  0
LINE
  5
3AE
330
1F
100
AcDbEntity
  8
0
  6
Continuous
 62
     7
 48
1.75
370
    15
100
AcDbLine
 10
24.9501201599
 20
12.4570360302
 30
0.0
 11
24.8956541574
 21
12.4886485438
 31
0.0
  0
LINE
  5
3AF
330
1F
100
AcDbEntity
  8
0
  6
Continuous
 62
     7
 48
1.75
370
    15
100
AcDbLine
 10
24.8956541574
 20
12.4886485438
 30
0.0
 11
24.8951459874
 21
12.3328073664
 31
0.0
  0
LINE
  5
3B0
330
1F
100
AcDbEntity
  8
0
  6
Continuous
 62
     7
 48
1.75
370
    15
100
AcDbLine
 10
24.8951459874
 20
12.3328073664
 30
0.0
 11
24.94961199
 21
12.3011948529
 31
0.0
  0
LINE
  5
3B1
330
1F
100
AcDbEntity
  8
0
  6
Continuous
 62
     7
 48
1.75
370
    15
100
AcDbLine
 10
24.5747449457
 20
16.3933205284
 30
0.0
 11
24.2854156487
 21
16.2302085348
 31
0.0
  0
LINE
  5
3B2
330
1F
100
AcDbEntity
  8
0
  6
Continuous
 62
     7
 48
1.75
370
    15
100
AcDbLine
 10
26.9054982133
 20
15.0405322613
 30
0.0
 11
24.5747449457
 21
16.3933205284
 31
0.0
  0
LINE
  5
3B3
330
1F
100
AcDbEntity
  8
0
  6
Continuous
 62
     7
 48
1.75
370
    15
100
AcDbLine
 10
25.8578623263
 20
13.685570557
 30
0.0
 11
25.8031927327
 21
13.6547500819
 31
0.0
  0
LINE
  5
3B4
330
1F
100
AcDbEntity
  8
0
  6
Continuous
 62
     7
 48
1.75
370
    15
100
AcDbLine
 10
25.3699117914
 20
14.5429034786
 30
0.0
 11
25.3144629463
 21
14.5116436934
 31
0.0
  0
LINE
  5
3B5
330
1F
100
AcDbEntity
  8
0
  6
Continuous
 62
     7
 48
1.75
370
    15
100
AcDbLine
 10
25.369912434
 20
14.5431005252
 30
0.0
 11
25.3699117914
 21
14.5429034786
 31
0.0
  0
LINE
  5
3B6
330
1F
100
AcDbEntity
  8
0
  6
Continuous
 62
     7
 48
1.75
370
    15
100
AcDbLine
 10
25.5003165934
 20
13.4768898382
 30
0.0
 11
25.4448677483
 21
13.4456300531
 31
0.0
  0
ARC
  5
3B7
330
1F
100
AcDbEntity
  8
0
  6
Continuous
 62
     7
 48
3.0625
370
    15
100
AcDbCircle
 10
25.618259265
 20
13.7355357762
 30
0.0
 40
0.2842678227428651
100
AcDbArc
 50
245.4869914759
 51
287.9218467429
  0
LINE
  5
3B8
330
1F
100
AcDbEntity
  8
0
  6
Continuous
 62
     7
 48
1.75
370
    15
100
AcDbLine
 10
25.011586807
 20
14.3337834498
 30
0.0
 11
24.9561379619
 21
14.3025236646
 31
0.0
  0
ARC
  5
3B9
330
1F
100
AcDbEntity
  8
0
  6
Continuous
 62
     7
 48
3.0625
370
    15
100
AcDbCircle
 10
25.2995542779
 20
14.305711259
 30
0.0
 40
0.2893325287618571
100
AcDbArc
 50
131.1811790615
 51
174.4321769651
  0
ARC
  5
3BA
330
1F
100
AcDbEntity
  8
0
  6
Continuous
 62
     7
 48
3.0625
370
    15
100
AcDbCircle
 10
24.5476555679
 20
16.3556234688
 30
0.0
 40
0.0464209293512727
100
AcDbArc
 50
54.2987044927
 51
113.9324813833
  0
LINE
  5
3BB
330
1F
100
AcDbEntity
  8
0
  6
Continuous
 62
     7
 48
1.75
370
    15
100
AcDbLine
 10
25.0110786373
 20
14.1779423326
 30
0.0
 11
24.9556297922
 21
14.1466825474
 31
0.0
  0
LINE
  5
3BC
330
1F
100
AcDbEntity
  8
0
  6
Continuous
 62
     7
 48
1.75
370
    15
100
AcDbLine
 10
25.3666886185
 20
13.5544486082
 30
0.0
 11
25.3112397734
 21
13.523188823
 31
0.0
  0
ARC
  5
3BD
330
1F
100
AcDbEntity
  8
0
  6
Continuous
 62
     7
 48
3.0625
370
    15
100
AcDbCircle
 10
25.9759133865
 20
14.3150783167
 30
0.0
 40
0.974531872954689
100
AcDbArc
 50
188.0895033028
 51
231.3070907836
  0
LINE
  5
3BE
330
1F
100
AcDbEntity
  8
0
  6
Continuous
 62
     7
 48
1.75
370
    15
100
AcDbLine
 10
25.3664814913
 20
13.4909286307
 30
0.0
 11
25.3110326462
 21
13.4596688455
 31
0.0
  0
LINE
  5
3BF
330
1F
100
AcDbEntity
  8
0
  6
Continuous
 62
     7
 48
1.75
370
    15
100
AcDbLine
 10
25.3664814913
 20
13.4909286307
 30
0.0
 11
25.4448670721
 21
13.4454329983
 31
0.0
  0
LINE
  5
3C0
330
1F
100
AcDbEntity
  8
0
  6
Continuous
 62
     7
 48
1.75
370
    15
100
AcDbLine
 10
24.9566126347
 20
14.2095548461
 30
0.0
 11
24.9011637897
 21
14.1782950609
 31
0.0
  0
LINE
  5
3C1
330
1F
100
AcDbEntity
  8
0
  6
Continuous
 62
     7
 48
1.75
370
    15
100
AcDbLine
 10
24.9569172218
 20
14.30296299
 30
0.0
 11
24.9566126347
 21
14.2095548461
 31
0.0
  0
LINE
  5
3C2
330
1F
100
AcDbEntity
  8
0
  6
Continuous
 62
     7
 48
1.75
370
    15
100
AcDbLine
 10
25.3666886185
 20
13.5544486082
 30
0.0
 11
25.3664814913
 21
13.4909286307
 31
0.0
  0
LINE
  5
3C3
330
1F
100
AcDbEntity
  8
0
  6
Continuous
 62
     7
 48
1.75
370
    15
100
AcDbLine
 10
24.9566126347
 20
14.2095548461
 30
0.0
 11
25.0110786373
 21
14.1779423326
 31
0.0
  0
LINE
  5
3C4
330
1F
100
AcDbEntity
  8
0
  6
Continuous
 62
     7
 48
1.75
370
    15
100
AcDbLine
 10
25.851844524
 20
11.8400828625
 30
0.0
 11
25.7971749305
 21
11.8092623874
 31
0.0
  0
LINE
  5
3C5
330
1F
100
AcDbEntity
  8
0
  6
Continuous
 62
     7
 48
1.75
370
    15
100
AcDbLine
 10
25.3638939891
 20
12.697415754
 30
0.0
 11
25.308445144
 21
12.6661559688
 31
0.0
  0
LINE
  5
3C6
330
1F
100
AcDbEntity
  8
0
  6
Continuous
 62
     7
 48
1.75
370
    15
100
AcDbLine
 10
25.3638946316
 20
12.6976128006
 30
0.0
 11
25.3638939891
 21
12.697415754
 31
0.0
  0
LINE
  5
3C7
330
1F
100
AcDbEntity
  8
0
  6
Continuous
 62
     7
 48
1.75
370
    15
100
AcDbLine
 10
25.4942987915
 20
11.6314022339
 30
0.0
 11
25.4388499464
 21
11.6001424488
 31
0.0
  0
ARC
  5
3C8
330
1F
100
AcDbEntity
  8
0
  6
Continuous
 62
     7
 48
3.0625
370
    15
100
AcDbCircle
 10
25.6122415026
 20
11.8900481708
 30
0.0
 40
0.2842678381211619
100
AcDbArc
 50
245.4869841406
 51
287.9218373536
  0
LINE
  5
3C9
330
1F
100
AcDbEntity
  8
0
  6
Continuous
 62
     7
 48
1.75
370
    15
100
AcDbLine
 10
25.005569005
 20
12.4882958154
 30
0.0
 11
24.9501201599
 21
12.4570360302
 31
0.0
  0
ARC
  5
3CA
330
1F
100
AcDbEntity
  8
0
  6
Continuous
 62
     7
 48
3.0625
370
    15
100
AcDbCircle
 10
25.2935372627
 20
12.4602232892
 30
0.0
 40
0.289333344386907
100
AcDbArc
 50
131.1812447234
 51
174.4321259793
  0
LINE
  5
3CB
330
1F
100
AcDbEntity
  8
0
  6
Continuous
 62
     7
 48
1.75
370
    15
100
AcDbLine
 10
25.005060835
 20
12.3324546381
 30
0.0
 11
24.94961199
 21
12.3011948529
 31
0.0
  0
LINE
  5
3CC
330
1F
100
AcDbEntity
  8
0
  6
Continuous
 62
     7
 48
1.75
370
    15
100
AcDbLine
 10
25.3606708166
 20
11.7089610039
 30
0.0
 11
25.3052219715
 21
11.6777012187
 31
0.0
  0
ARC
  5
3CD
330
1F
100
AcDbEntity
  8
0
  6
Continuous
 62
     7
 48
3.0625
370
    15
100
AcDbCircle
 10
25.9698953373
 20
12.4695905917
 30
0.0
 40
0.974531624152893
100
AcDbArc
 50
188.0895035705
 51
231.3070976929
  0
LINE
  5
3CE
330
1F
100
AcDbEntity
  8
0
  6
Continuous
 62
     7
 48
1.75
370
    15
100
AcDbLine
 10
25.3604636894
 20
11.6454410264
 30
0.0
 11
25.3050148443
 21
11.6141812412
 31
0.0
  0
LINE
  5
3CF
330
1F
100
AcDbEntity
  8
0
  6
Continuous
 62
     7
 48
1.75
370
    15
100
AcDbLine
 10
25.3604636894
 20
11.6454410264
 30
0.0
 11
25.4388492701
 21
11.599945394
 31
0.0
  0
LINE
  5
3D0
330
1F
100
AcDbEntity
  8
0
  6
Continuous
 62
     7
 48
1.75
370
    15
100
AcDbLine
 10
24.9505948325
 20
12.3640671516
 30
0.0
 11
24.8951459874
 21
12.3328073664
 31
0.0
  0
LINE
  5
3D1
330
1F
100
AcDbEntity
  8
0
  6
Continuous
 62
     7
 48
1.75
370
    15
100
AcDbLine
 10
24.9508994197
 20
12.4574753218
 30
0.0
 11
24.9505948325
 21
12.3640671516
 31
0.0
  0
LINE
  5
3D2
330
1F
100
AcDbEntity
  8
0
  6
Continuous
 62
     7
 48
1.75
370
    15
100
AcDbLine
 10
25.3606708166
 20
11.7089610039
 30
0.0
 11
25.3604636894
 21
11.6454410264
 31
0.0
  0
LINE
  5
3D3
330
1F
100
AcDbEntity
  8
0
  6
Continuous
 62
     7
 48
1.75
370
    15
100
AcDbLine
 10
24.9505948325
 20
12.3640671516
 30
0.0
 11
25.005060835
 21
12.3324546381
 31
0.0
  0
LINE
  5
3D4
330
1F
100
AcDbEntity
  8
0
  6
Continuous
 62
     7
 48
1.75
370
    15
100
AcDbLine
 10
25.845826722
 20
9.9945952281
 30
0.0
 11
25.7911571284
 21
9.963774753
 31
0.0
  0
LINE
  5
3D5
330
1F
100
AcDbEntity
  8
0
  6
Continuous
 62
     7
 48
1.75
370
    15
100
AcDbLine
 10
25.3578761871
 20
10.8519281497
 30
0.0
 11
25.3024273421
 21
10.8206683645
 31
0.0
  0
LINE
  5
3D6
330
1F
100
AcDbEntity
  8
0
  6
Continuous
 62
     7
 48
1.75
370
    15
100
AcDbLine
 10
25.3578768297
 20
10.8521251963
 30
0.0
 11
25.3578761871
 21
10.8519281497
 31
0.0
  0
LINE
  5
3D7
330
1F
100
AcDbEntity
  8
0
  6
Continuous
 62
     7
 48
1.75
370
    15
100
AcDbLine
 10
25.4882809891
 20
9.7859145093
 30
0.0
 11
25.432832144
 21
9.7546547242
 31
0.0
  0
ARC
  5
3D8
330
1F
100
AcDbEntity
  8
0
  6
Continuous
 62
     7
 48
3.0625
370
    15
100
AcDbCircle
 10
25.6062235163
 20
10.0445606861
 30
0.0
 40
0.2842679800580792
100
AcDbArc
 50
245.4870379399
 51
287.921867177
  0
LINE
  5
3D9
330
1F
100
AcDbEntity
  8
0
  6
Continuous
 62
     7
 48
1.75
370
    15
100
AcDbLine
 10
24.9995512028
 20
10.6428081209
 30
0.0
 11
24.9441023577
 21
10.6115483357
 31
0.0
  0
ARC
  5
3DA
330
1F
100
AcDbEntity
  8
0
  6
Continuous
 62
     7
 48
3.0625
370
    15
100
AcDbCircle
 10
25.2875195132
 20
10.6147356364
 30
0.0
 40
0.2893333928496605
100
AcDbArc
 50
131.1812501582
 51
174.4321352207
  0
ARC
  5
3DB
330
1F
100
AcDbEntity
  8
0
  6
Continuous
 62
     7
 48
3.0625
370
    15
100
AcDbCircle
 10
26.9044336743
 20
8.3064844776
 30
0.0
 40
0.045002280772785
100
AcDbArc
 50
303.6242574476
 51
7.1189859778
  0
LINE
  5
3DC
330
1F
100
AcDbEntity
  8
0
  6
Continuous
 62
     7
 48
1.75
370
    15
100
AcDbLine
 10
24.999043033
 20
10.4869670037
 30
0.0
 11
24.9435941879
 21
10.4557072185
 31
0.0
  0
LINE
  5
3DD
330
1F
100
AcDbEntity
  8
0
  6
Continuous
 62
     7
 48
1.75
370
    15
100
AcDbLine
 10
25.3546530142
 20
9.8634732793
 30
0.0
 11
25.2992041692
 21
9.8322134942
 31
0.0
  0
ARC
  5
3DE
330
1F
100
AcDbEntity
  8
0
  6
Continuous
 62
     7
 48
3.0625
370
    15
100
AcDbCircle
 10
25.9638783303
 20
10.6241033005
 30
0.0
 40
0.9745324596326824
100
AcDbArc
 50
188.0895169655
 51
231.3070771209
  0
LINE
  5
3DF
330
1F
100
AcDbEntity
  8
0
  6
Continuous
 62
     7
 48
1.75
370
    15
100
AcDbLine
 10
25.3544458871
 20
9.7999533018
 30
0.0
 11
25.298997042
 21
9.7686935166
 31
0.0
  0
LINE
  5
3E0
330
1F
100
AcDbEntity
  8
0
  6
Continuous
 62
     7
 48
1.75
370
    15
100
AcDbLine
 10
25.3544458871
 20
9.7999533018
 30
0.0
 11
25.4328314678
 21
9.7544576694
 31
0.0
  0
LINE
  5
3E1
330
1F
100
AcDbEntity
  8
0
  6
Continuous
 62
     7
 48
1.75
370
    15
100
AcDbLine
 10
24.9445770305
 20
10.5185795172
 30
0.0
 11
24.8891281854
 21
10.487319732
 31
0.0
  0
LINE
  5
3E2
330
1F
100
AcDbEntity
  8
0
  6
Continuous
 62
     7
 48
1.75
370
    15
100
AcDbLine
 10
24.9448816176
 20
10.6119876612
 30
0.0
 11
24.9445770305
 21
10.5185795172
 31
0.0
  0
LINE
  5
3E3
330
1F
100
AcDbEntity
  8
0
  6
Continuous
 62
     7
 48
1.75
370
    15
100
AcDbLine
 10
25.3546530142
 20
9.8634732793
 30
0.0
 11
25.3544458871
 21
9.7999533018
 31
0.0
  0
LINE
  5
3E4
330
1F
100
AcDbEntity
  8
0
  6
Continuous
 62
     7
 48
1.75
370
    15
100
AcDbLine
 10
24.9445770305
 20
10.5185795172
 30
0.0
 11
24.999043033
 21
10.4869670037
 31
0.0
  0
ARC
  5
3E5
330
1F
100
AcDbEntity
  8
0
  6
Continuous
 62
     7
 48
3.0625
370
    15
100
AcDbCircle
 10
28.3996449007
 20
15.8049055896
 30
0.0
 40
0.1427891224350227
100
AcDbArc
 50
2.2767162226
 51
57.1198850408
  0
LINE
  5
3E6
330
1F
100
AcDbEntity
  8
0
  6
Continuous
 62
     7
 48
1.75
370
    15
100
AcDbLine
 10
28.5423213084
 20
15.8105779929
 30
0.0
 11
28.5214221506
 21
9.4014044906
 31
0.0
  0
LINE
  5
3E7
330
1F
100
AcDbEntity
  8
0
  6
Continuous
 62
     7
 48
1.75
370
    15
100
AcDbLine
 10
26.3222357952
 20
17.1755582856
 30
0.0
 11
28.4771626906
 21
15.9248210837
 31
0.0
  0
LINE
  5
3E8
330
1F
100
AcDbEntity
  8
0
  6
Continuous
 62
     7
 48
1.75
370
    15
100
AcDbLine
 10
25.1738742504
 20
10.0544176668
 30
0.0
 11
25.7229378636
 21
10.3639572174
 31
0.0
  0
ARC
  5
3E9
330
1F
100
AcDbEntity
  8
0
  6
Continuous
 62
     7
 48
3.0625
370
    15
100
AcDbCircle
 10
26.0308452962
 20
14.4675779644
 30
0.0
 40
0.3455591143229703
100
AcDbArc
 50
355.357789985
 51
57.3823369082
  0
LWPOLYLINE
  5
3EA
330
1F
100
AcDbEntity
  8
0
  6
Continuous
 62
     7
 48
1.75
370
    15
100
AcDbPolyline
 90
       24
 70
   128
 43
0.0
 10
26.0491635035
 20
14.7022623513
 10
26.0533297443
 20
14.7243281086
 10
26.065812413
 20
14.7560641409
 10
26.084745697
 20
14.7803519759
 10
26.1093545187
 20
14.7961973476
 10
26.1386313667
 20
14.8029515738
 10
26.1713776688
 20
14.8003381628
 10
26.2062527114
 20
14.7884639533
 10
26.2418288642
 20
14.7678152632
 10
26.2766494912
 20
14.7392375358
 10
26.3092890873
 20
14.7039004363
 10
26.3384113601
 20
14.6632508827
 10
26.3628239625
 20
14.6189530753
 10
26.3815276696
 20
14.5728204227
 10
26.3937565465
 20
14.5267416072
 10
26.3990100426
 20
14.4826033822
 10
26.3970729933
 20
14.442212433
 10
26.3880247867
 20
14.4072225631
 10
26.372235833
 20
14.3790661156
 10
26.3503524943
 20
14.3588961903
 10
26.3232707796
 20
14.3475380333
 10
26.292099243
 20
14.3454570585
 10
26.2581141674
 20
14.3527380951
 10
26.2438616295
 20
14.3582966497
  0
LWPOLYLINE
  5
3EB
330
1F
100
AcDbEntity
  8
0
  6
Continuous
 62
     7
 48
1.75
370
    15
100
AcDbPolyline
 90
       18
 70
   128
 43
0.0
 10
26.374584612
 20
14.3723916015
 10
26.3787879813
 20
14.3749269518
 10
26.40067132
 20
14.3950968771
 10
26.4164602737
 20
14.4232533246
 10
26.4255084802
 20
14.4582431945
 10
26.4274455295
 20
14.4986341437
 10
26.4221920334
 20
14.5427723688
 10
26.4099631566
 20
14.5888511842
 10
26.3912594494
 20
14.6349838369
 10
26.3668468471
 20
14.6792816442
 10
26.3377245743
 20
14.7199311979
 10
26.3050849782
 20
14.7552682973
 10
26.2702643511
 20
14.7838460247
 10
26.2346881983
 20
14.8044947149
 10
26.1998131558
 20
14.8163689244
 10
26.1670668536
 20
14.8189823353
 10
26.1377900057
 20
14.8122281091
 10
26.1290375089
 20
14.8079448039
  0
ARC
  5
3EC
330
1F
100
AcDbEntity
  8
0
  6
Continuous
 62
     7
 48
3.0625
370
    15
100
AcDbCircle
 10
24.2725829652
 20
15.4880884179
 30
0.0
 40
0.3455585718340531
100
AcDbArc
 50
355.3577359125
 51
57.3823909807
  0
LWPOLYLINE
  5
3ED
330
1F
100
AcDbEntity
  8
0
  6
Continuous
 62
     7
 48
1.75
370
    15
100
AcDbPolyline
 90
       24
 70
   128
 43
0.0
 10
24.2909006569
 20
15.7227724937
 10
24.2950669494
 20
15.7448382211
 10
24.3075495665
 20
15.7765742833
 10
24.3264829021
 20
15.8008620883
 10
24.3510916206
 20
15.8167075199
 10
24.3803684686
 20
15.8234617461
 10
24.4131147708
 20
15.8208483352
 10
24.4479898649
 20
15.8089740957
 10
24.4835660176
 20
15.7883254056
 10
24.5183865931
 20
15.7597477081
 10
24.5510261893
 20
15.7244106087
 10
24.580148462
 20
15.683761055
 10
24.6045611675
 20
15.6394631878
 10
24.6232648231
 20
15.5933305651
 10
24.6354937515
 20
15.5472517197
 10
24.640747196
 20
15.5031135246
 10
24.6388101983
 20
15.4627225455
 10
24.6297619918
 20
15.4277326756
 10
24.6139729865
 20
15.399576258
 10
24.5920896994
 20
15.3794063028
 10
24.5650078815
 20
15.3680482057
 10
24.5338363964
 20
15.3659672009
 10
24.4998513208
 20
15.3732482375
 10
24.485598783
 20
15.3788067921
  0
LWPOLYLINE
  5
3EE
330
1F
100
AcDbEntity
  8
0
  6
Continuous
 62
     7
 48
1.75
370
    15
100
AcDbPolyline
 90
       18
 70
   128
 43
0.0
 10
24.6163217655
 20
15.3929017439
 10
24.6205251863
 20
15.3954370643
 10
24.6424084735
 20
15.4156070195
 10
24.6581974787
 20
15.4437634371
 10
24.6672456853
 20
15.478753307
 10
24.669182683
 20
15.5191442861
 10
24.6639292385
 20
15.5632824813
 10
24.6517003101
 20
15.6093613267
 10
24.6329966545
 20
15.6554939494
 10
24.608583949
 20
15.6997918166
 10
24.5794616762
 20
15.7404413702
 10
24.5468220801
 20
15.7757784697
 10
24.5120015046
 20
15.8043561671
 10
24.4764253518
 20
15.8250048573
 10
24.4415502577
 20
15.8368790967
 10
24.4088039555
 20
15.8394925077
 10
24.3795271076
 20
15.8327382815
 10
24.3707746624
 20
15.8284549463
  0
ARC
  5
3EF
330
1F
100
AcDbEntity
  8
0
  6
Continuous
 62
     7
 48
3.0625
370
    15
100
AcDbCircle
 10
26.0114544463
 20
8.5210067247
 30
0.0
 40
0.3455592795367016
100
AcDbArc
 50
355.3577683271
 51
57.3823239495
  0
LWPOLYLINE
  5
3F0
330
1F
100
AcDbEntity
  8
0
  6
Continuous
 62
     7
 48
1.75
370
    15
100
AcDbPolyline
 90
       24
 70
   128
 43
0.0
 10
26.0297728084
 20
8.7556912087
 10
26.0339390485
 20
8.7777567254
 10
26.0464217172
 20
8.8094927576
 10
26.0653550012
 20
8.8337805926
 10
26.0899638229
 20
8.8496259643
 10
26.1192406708
 20
8.8563801905
 10
26.151986973
 20
8.8537667796
 10
26.1868620155
 20
8.8418925701
 10
26.2224381683
 20
8.8212438799
 10
26.2572587954
 20
8.7926661525
 10
26.2898983915
 20
8.7573290531
 10
26.3190206643
 20
8.7166794994
 10
26.3434332666
 20
8.6723816921
 10
26.3621369738
 20
8.6262490394
 10
26.3743658506
 20
8.580170224
 10
26.3796193467
 20
8.5360319989
 10
26.3776822974
 20
8.4956410497
 10
26.3686340909
 20
8.4606511799
 10
26.352845138
 20
8.4324949729
 10
26.3309617985
 20
8.412324807
 10
26.3038800837
 20
8.4009666501
 10
26.2727085471
 20
8.3988856752
 10
26.2387234715
 20
8.4061667119
 10
26.2244709344
 20
8.411725507
  0
LWPOLYLINE
  5
3F1
330
1F
100
AcDbEntity
  8
0
  6
Continuous
 62
     7
 48
1.75
370
    15
100
AcDbPolyline
 90
       18
 70
   128
 43
0.0
 10
26.355193917
 20
8.4258204589
 10
26.3593972854
 20
8.4283555686
 10
26.3812806249
 20
8.4485257345
 10
26.3970695778
 20
8.4766819414
 10
26.4061177844
 20
8.5116718113
 10
26.4080548337
 20
8.5520627605
 10
26.4028013376
 20
8.5962009855
 10
26.3905724608
 20
8.642279801
 10
26.3718687536
 20
8.6884124536
 10
26.3474561513
 20
8.732710261
 10
26.3183338785
 20
8.7733598146
 10
26.2856942823
 20
8.8086969141
 10
26.2508736553
 20
8.8372746415
 10
26.2152975025
 20
8.8579233316
 10
26.18042246
 20
8.8697975411
 10
26.1476761578
 20
8.8724109521
 10
26.1183993098
 20
8.8656567259
 10
26.1096468139
 20
8.8613736613
  0
ARC
  5
3F2
330
1F
100
AcDbEntity
  8
0
  6
Continuous
 62
     7
 48
3.0625
370
    15
100
AcDbCircle
 10
24.2531921153
 20
9.5415171782
 30
0.0
 40
0.3455587370472312
100
AcDbArc
 50
355.3577142546
 51
57.3823780221
  0
LWPOLYLINE
  5
3F3
330
1F
100
AcDbEntity
  8
0
  6
Continuous
 62
     7
 48
1.75
370
    15
100
AcDbPolyline
 90
       24
 70
   128
 43
0.0
 10
24.2715099619
 20
9.7762013511
 10
24.2756762535
 20
9.7982668378
 10
24.2881588706
 20
9.8300029
 10
24.3070922062
 20
9.8542907051
 10
24.3317009248
 20
9.8701361367
 10
24.3609777727
 20
9.8768903629
 10
24.3937240749
 20
9.8742769519
 10
24.428599169
 20
9.8624027125
 10
24.4641753218
 20
9.8417540223
 10
24.4989958973
 20
9.8131763249
 10
24.5316354934
 20
9.7778392254
 10
24.5607577662
 20
9.7371896718
 10
24.5851704717
 20
9.6928918046
 10
24.6038741273
 20
9.6467591819
 10
24.6161030557
 20
9.6006803365
 10
24.6213565002
 20
9.5565421413
 10
24.6194195025
 20
9.5161511622
 10
24.6103712959
 20
9.4811612923
 10
24.5945822915
 20
9.4530051153
 10
24.5726990035
 20
9.4328349195
 10
24.5456171856
 20
9.4214768224
 10
24.5144457006
 20
9.4193958176
 10
24.480460625
 20
9.4266768543
 10
24.4662080879
 20
9.4322356494
  0
LWPOLYLINE
  5
3F4
330
1F
100
AcDbEntity
  8
0
  6
Continuous
 62
     7
 48
1.75
370
    15
100
AcDbPolyline
 90
       18
 70
   128
 43
0.0
 10
24.5969310705
 20
9.4463306013
 10
24.6011344905
 20
9.448865681
 10
24.6230177784
 20
9.4690358769
 10
24.6388067829
 20
9.4971920539
 10
24.6478549895
 20
9.5321819237
 10
24.6497919872
 20
9.5725729029
 10
24.6445385426
 20
9.616711098
 10
24.6323096142
 20
9.6627899434
 10
24.6136059586
 20
9.7089225661
 10
24.5891932532
 20
9.7532204333
 10
24.5600709804
 20
9.793869987
 10
24.5274313842
 20
9.8292070864
 10
24.4926108088
 20
9.8577847839
 10
24.457034656
 20
9.878433474
 10
24.4221595619
 20
9.8903077135
 10
24.3894132597
 20
9.8929211244
 10
24.3601364117
 20
9.8861668982
 10
24.3513839674
 20
9.8818838037
  0
LWPOLYLINE
  5
3F5
330
1F
100
AcDbEntity
  8
0
  6
Continuous
 62
     7
 48
1.75
370
    15
100
AcDbPolyline
 90
       21
 70
   128
 43
0.0
 10
24.3942632757
 20
15.4509026731
 10
24.4139155107
 20
15.4514610869
 10
24.4294645302
 20
15.4608973241
 10
24.4393884012
 20
15.478287338
 10
24.4427156555
 20
15.5019291114
 10
24.4391205978
 20
15.529508382
 10
24.4289551516
 20
15.5583253051
 10
24.4132143792
 20
15.585559373
 10
24.3934390972
 20
15.6085445695
 10
24.3715649662
 20
15.6250307561
 10
24.3497333652
 20
15.6334045658
 10
24.3300811294
 20
15.6328459113
 10
24.3145321107
 20
15.6234099147
 10
24.3046081873
 20
15.6060196903
 10
24.3012809846
 20
15.5823778868
 10
24.3048760431
 20
15.5547988569
 10
24.3150414885
 20
15.5259816932
 10
24.3307823133
 20
15.498747836
 10
24.3505575437
 20
15.4757626694
 10
24.3724316224
 20
15.4592762721
 10
24.3942632757
 20
15.4509026731
  0
LWPOLYLINE
  5
3F6
330
1F
100
AcDbEntity
  8
0
  6
Continuous
 62
     7
 48
1.75
370
    15
100
AcDbPolyline
 90
       17
 70
   128
 43
0.0
 10
24.5508301443
 20
15.402362181
 10
24.5555136172
 20
15.4045844051
 10
24.5763037221
 20
15.4209371505
 10
24.5913960736
 20
15.4451313003
 10
24.6000849051
 20
15.4760354579
 10
24.6019640083
 20
15.5122047931
 10
24.5969455018
 20
15.5519480072
 10
24.5852640169
 20
15.5934066197
 10
24.5674658204
 20
15.6346420332
 10
24.5443830684
 20
15.6737266479
 10
24.5170951853
 20
15.7088323254
 10
24.4868779925
 20
15.7383177666
 10
24.4551444802
 20
15.7608041078
 10
24.4233785174
 20
15.7752403933
 10
24.3930653518
 20
15.7809509044
 10
24.3656224277
 20
15.7776692871
 10
24.3449669669
 20
15.7675237583
  0
LWPOLYLINE
  5
3F7
330
1F
100
AcDbEntity
  8
0
  6
Continuous
 62
     7
 48
1.75
370
    15
100
AcDbPolyline
 90
       21
 70
   128
 43
0.0
 10
24.4768569841
 20
15.3874569123
 10
24.506472309
 20
15.3863734152
 10
24.5323029275
 20
15.3947694206
 10
24.5530536318
 20
15.4122234897
 10
24.567683826
 20
15.4378607546
 10
24.5754599055
 20
15.470395554
 10
24.5759920018
 20
15.5081964023
 10
24.5692533684
 20
15.5493677834
 10
24.5555819302
 20
15.5918451881
 10
24.5356632602
 20
15.633498764
 10
24.510496098
 20
15.6722396236
 10
24.4813425196
 20
15.7061251792
 10
24.4496643357
 20
15.7334565614
 10
24.4170500431
 20
15.7528629595
 10
24.3851350627
 20
15.763371298
 10
24.3555196854
 20
15.7644545845
 10
24.3296891193
 20
15.7560587897
 10
24.3089384142
 20
15.73860448
 10
24.2943082208
 20
15.7129674557
 10
24.2865321413
 20
15.6804326563
 10
24.2853335103
 20
15.6603298795
  0
LWPOLYLINE
  5
3F8
330
1F
100
AcDbEntity
  8
0
  6
Continuous
 62
     7
 48
1.75
370
    15
100
AcDbPolyline
 90
        3
 70
   128
 43
0.0
 10
24.4311187276
 20
15.4051452023
 10
24.4449420037
 20
15.3979652508
 10
24.4768569841
 20
15.3874569123
  0
LWPOLYLINE
  5
3F9
330
1F
100
AcDbEntity
  8
0
  6
Continuous
 62
     7
 48
1.75
370
    15
100
AcDbPolyline
 90
       15
 70
   128
 43
0.0
 10
24.519044932
 20
15.4192321124
 10
24.5217692223
 20
15.4208645836
 10
24.5400778415
 20
15.4386732718
 10
24.5520470181
 20
15.4644289644
 10
24.5569811615
 20
15.4966347126
 10
24.5545935332
 20
15.5334186274
 10
24.545022829
 20
15.5726433335
 10
24.5288253122
 20
15.6120288904
 10
24.5069423345
 20
15.6492866243
 10
24.4806455799
 20
15.6822511853
 10
24.4514634294
 20
15.7090066894
 10
24.4210917248
 20
15.7279985332
 10
24.3912957258
 20
15.7381223581
 10
24.3638068768
 20
15.7387902352
 10
24.3429471141
 20
15.7315958573
  0
LINE
  5
3FA
330
1F
100
AcDbEntity
  8
0
  6
Continuous
 62
     7
 48
1.75
370
    15
100
AcDbLine
 10
24.4352846975
 20
15.5150796973
 30
0.0
 11
24.4275346877
 21
15.5468424907
 31
0.0
  0
LINE
  5
3FB
330
1F
100
AcDbEntity
  8
0
  6
Continuous
 62
     7
 48
1.75
370
    15
100
AcDbLine
 10
24.4275346877
 20
15.5468424907
 30
0.0
 11
24.379805285
 21
15.555834284
 31
0.0
  0
LINE
  5
3FC
330
1F
100
AcDbEntity
  8
0
  6
Continuous
 62
     7
 48
1.75
370
    15
100
AcDbLine
 10
24.379805285
 20
15.555834284
 30
0.0
 11
24.3639731077
 21
15.6207210248
 31
0.0
  0
LINE
  5
3FD
330
1F
100
AcDbEntity
  8
0
  6
Continuous
 62
     7
 48
1.75
370
    15
100
AcDbLine
 10
24.3639731077
 20
15.6207210248
 30
0.0
 11
24.3406090657
 21
15.6251225489
 31
0.0
  0
LINE
  5
3FE
330
1F
100
AcDbEntity
  8
0
  6
Continuous
 62
     7
 48
1.75
370
    15
100
AcDbLine
 10
24.3406090657
 20
15.6251225489
 30
0.0
 11
24.3564413461
 21
15.5602357483
 31
0.0
  0
LINE
  5
3FF
330
1F
100
AcDbEntity
  8
0
  6
Continuous
 62
     7
 48
1.75
370
    15
100
AcDbLine
 10
24.3564413461
 20
15.5602357483
 30
0.0
 11
24.3087119434
 21
15.5692275416
 31
0.0
  0
LINE
  5
400
330
1F
100
AcDbEntity
  8
0
  6
Continuous
 62
     7
 48
1.75
370
    15
100
AcDbLine
 10
24.3087119434
 20
15.5692275416
 30
0.0
 11
24.3164620048
 21
15.5374647182
 31
0.0
  0
LINE
  5
401
330
1F
100
AcDbEntity
  8
0
  6
Continuous
 62
     7
 48
1.75
370
    15
100
AcDbLine
 10
24.3164620048
 20
15.5374647182
 30
0.0
 11
24.3641913043
 21
15.5284729848
 31
0.0
  0
LINE
  5
402
330
1F
100
AcDbEntity
  8
0
  6
Continuous
 62
     7
 48
1.75
370
    15
100
AcDbLine
 10
24.3641913043
 20
15.5284729848
 30
0.0
 11
24.3800234816
 21
15.463586244
 31
0.0
  0
LINE
  5
403
330
1F
100
AcDbEntity
  8
0
  6
Continuous
 62
     7
 48
1.75
370
    15
100
AcDbLine
 10
24.3800234816
 20
15.463586244
 30
0.0
 11
24.4033875229
 21
15.4591844793
 31
0.0
  0
LINE
  5
404
330
1F
100
AcDbEntity
  8
0
  6
Continuous
 62
     7
 48
1.75
370
    15
100
AcDbLine
 10
24.4033875229
 20
15.4591844793
 30
0.0
 11
24.3875553464
 21
15.5240714606
 31
0.0
  0
LINE
  5
405
330
1F
100
AcDbEntity
  8
0
  6
Continuous
 62
     7
 48
1.75
370
    15
100
AcDbLine
 10
24.3875553464
 20
15.5240714606
 30
0.0
 11
24.4352846975
 21
15.5150796973
 31
0.0
  0
LINE
  5
406
330
1F
100
AcDbEntity
  8
0
  6
Continuous
 62
     7
 48
1.75
370
    15
100
AcDbLine
 10
24.3963625325
 20
15.4727975309
 30
0.0
 11
24.4002443866
 21
15.4720662164
 31
0.0
  0
LINE
  5
407
330
1F
100
AcDbEntity
  8
0
  6
Continuous
 62
     7
 48
1.75
370
    15
100
AcDbLine
 10
24.3805303552
 20
15.5376842717
 30
0.0
 11
24.3963625325
 21
15.4727975309
 31
0.0
  0
LINE
  5
408
330
1F
100
AcDbEntity
  8
0
  6
Continuous
 62
     7
 48
1.75
370
    15
100
AcDbLine
 10
24.3328010557
 20
15.5466760051
 30
0.0
 11
24.3805303552
 21
15.5376842717
 31
0.0
  0
LINE
  5
409
330
1F
100
AcDbEntity
  8
0
  6
Continuous
 62
     7
 48
1.75
370
    15
100
AcDbLine
 10
24.3281940962
 20
15.5655571248
 30
0.0
 11
24.3328010557
 21
15.5466760051
 31
0.0
  0
LINE
  5
40A
330
1F
100
AcDbEntity
  8
0
  6
Continuous
 62
     7
 48
1.75
370
    15
100
AcDbLine
 10
24.3600912193
 20
15.6214523727
 30
0.0
 11
24.372780397
 21
15.5694470352
 31
0.0
  0
LINE
  5
40B
330
1F
100
AcDbEntity
  8
0
  6
Continuous
 62
     7
 48
1.75
370
    15
100
AcDbLine
 10
24.4038943973
 20
15.5332827476
 30
0.0
 11
24.4321415605
 21
15.5279611938
 31
0.0
  0
LINE
  5
40C
330
1F
100
AcDbEntity
  8
0
  6
Continuous
 62
     7
 48
1.75
370
    15
100
AcDbLine
 10
24.4038943973
 20
15.5332827476
 30
0.0
 11
24.3875553464
 21
15.5240714606
 31
0.0
  0
LINE
  5
40D
330
1F
100
AcDbEntity
  8
0
  6
Continuous
 62
     7
 48
1.75
370
    15
100
AcDbLine
 10
24.372780397
 20
15.5694470352
 30
0.0
 11
24.3564413461
 21
15.5602357483
 31
0.0
  0
LINE
  5
40E
330
1F
100
AcDbEntity
  8
0
  6
Continuous
 62
     7
 48
1.75
370
    15
100
AcDbLine
 10
24.3963625325
 20
15.4727975309
 30
0.0
 11
24.3800234816
 21
15.463586244
 31
0.0
  0
LINE
  5
40F
330
1F
100
AcDbEntity
  8
0
  6
Continuous
 62
     7
 48
1.75
370
    15
100
AcDbLine
 10
24.3805303552
 20
15.5376842717
 30
0.0
 11
24.3641913043
 21
15.5284729848
 31
0.0
  0
LINE
  5
410
330
1F
100
AcDbEntity
  8
0
  6
Continuous
 62
     7
 48
1.75
370
    15
100
AcDbLine
 10
24.3328010557
 20
15.5466760051
 30
0.0
 11
24.3164620048
 21
15.5374647182
 31
0.0
  0
LWPOLYLINE
  5
411
330
1F
100
AcDbEntity
  8
0
  6
Continuous
 62
     7
 48
1.75
370
    15
100
AcDbPolyline
 90
       21
 70
   128
 43
0.0
 10
26.1525261222
 20
14.4303925306
 10
26.1721783572
 20
14.4309509445
 10
26.1877273767
 20
14.4403871817
 10
26.1976512993
 20
14.4577771656
 10
26.200978502
 20
14.481418969
 10
26.1973834443
 20
14.5089982396
 10
26.1872179981
 20
14.5378151627
 10
26.1714771741
 20
14.5650492605
 10
26.1517019437
 20
14.5880344271
 10
26.1298278642
 20
14.6045205837
 10
26.1079962117
 20
14.6128944234
 10
26.0883439759
 20
14.6123357689
 10
26.0727949572
 20
14.6028997723
 10
26.0628710854
 20
14.5855095179
 10
26.0595438311
 20
14.5618677444
 10
26.0631388896
 20
14.5342887145
 10
26.073304335
 20
14.5054715508
 10
26.0890451082
 20
14.4782377235
 10
26.1088203902
 20
14.455252527
 10
26.1306945205
 20
14.4387660998
 10
26.1525261222
 20
14.4303925306
  0
LWPOLYLINE
  5
412
330
1F
100
AcDbEntity
  8
0
  6
Continuous
 62
     7
 48
1.75
370
    15
100
AcDbPolyline
 90
       17
 70
   128
 43
0.0
 10
26.3090929908
 20
14.3818520386
 10
26.3137765153
 20
14.3840742327
 10
26.3345666202
 20
14.4004269781
 10
26.3496589201
 20
14.4246211579
 10
26.3583477001
 20
14.4555253455
 10
26.3602268548
 20
14.4916946507
 10
26.3552082967
 20
14.5314378947
 10
26.3435268634
 20
14.5728964773
 10
26.3257286154
 20
14.6141319207
 10
26.3026459149
 20
14.6532165055
 10
26.2753580318
 20
14.688322183
 10
26.2451407875
 20
14.7178076541
 10
26.2134073783
 20
14.7402939354
 10
26.1816413639
 20
14.7547302509
 10
26.1513281983
 20
14.760440762
 10
26.1238853258
 20
14.7571591147
 10
26.1032297618
 20
14.7470136458
  0
LWPOLYLINE
  5
413
330
1F
100
AcDbEntity
  8
0
  6
Continuous
 62
     7
 48
1.75
370
    15
100
AcDbPolyline
 90
       21
 70
   128
 43
0.0
 10
26.2351198306
 20
14.3669467698
 10
26.2647352071
 20
14.3658632428
 10
26.290565774
 20
14.3742592782
 10
26.3113164784
 20
14.3917133473
 10
26.3259466725
 20
14.4173506122
 10
26.333722752
 20
14.4498854116
 10
26.3342548483
 20
14.4876862599
 10
26.3275162149
 20
14.528857641
 10
26.3138447767
 20
14.5713350457
 10
26.2939261067
 20
14.6129886216
 10
26.2687589445
 20
14.6517294812
 10
26.2396053145
 20
14.6856150667
 10
26.2079271822
 20
14.712946419
 10
26.1753128897
 20
14.7323528171
 10
26.1433979092
 20
14.7428611556
 10
26.1137825835
 20
14.7439444121
 10
26.0879519659
 20
14.7355486473
 10
26.0672012607
 20
14.7180943375
 10
26.0525710673
 20
14.6924573133
 10
26.0447949878
 20
14.6599225139
 10
26.0435964084
 20
14.6398197071
  0
LWPOLYLINE
  5
414
330
1F
100
AcDbEntity
  8
0
  6
Continuous
 62
     7
 48
1.75
370
    15
100
AcDbPolyline
 90
        3
 70
   128
 43
0.0
 10
26.1901440302
 20
14.3841990324
 10
26.2032048502
 20
14.3774551084
 10
26.2351198306
 20
14.3669467698
  0
LWPOLYLINE
  5
415
330
1F
100
AcDbEntity
  8
0
  6
Continuous
 62
     7
 48
1.75
370
    15
100
AcDbPolyline
 90
       15
 70
   128
 43
0.0
 10
26.2773077785
 20
14.39872197
 10
26.2800320172
 20
14.4003544712
 10
26.2983406881
 20
14.4181631294
 10
26.3103099162
 20
14.443918792
 10
26.3152440596
 20
14.4761245402
 10
26.3128563281
 20
14.512908515
 10
26.3032856755
 20
14.5521331911
 10
26.2870881071
 20
14.591518778
 10
26.265205181
 20
14.6287764819
 10
26.2389084264
 20
14.6617410429
 10
26.2097262759
 20
14.688496547
 10
26.1793546229
 20
14.7074883609
 10
26.1495585208
 20
14.7176122456
 10
26.1220697233
 20
14.7182800928
 10
26.1012099606
 20
14.7110857149
  0
LINE
  5
416
330
1F
100
AcDbEntity
  8
0
  6
Continuous
 62
     7
 48
1.75
370
    15
100
AcDbLine
 10
26.193547544
 20
14.4945695549
 30
0.0
 11
26.1857974826
 21
14.5263323783
 31
0.0
  0
LINE
  5
417
330
1F
100
AcDbEntity
  8
0
  6
Continuous
 62
     7
 48
1.75
370
    15
100
AcDbLine
 10
26.1857974826
 20
14.5263323783
 30
0.0
 11
26.1380681831
 21
14.5353241117
 31
0.0
  0
LINE
  5
418
330
1F
100
AcDbEntity
  8
0
  6
Continuous
 62
     7
 48
1.75
370
    15
100
AcDbLine
 10
26.1380681831
 20
14.5353241117
 30
0.0
 11
26.1222360058
 21
14.6002108524
 31
0.0
  0
LINE
  5
419
330
1F
100
AcDbEntity
  8
0
  6
Continuous
 62
     7
 48
1.75
370
    15
100
AcDbLine
 10
26.1222360058
 20
14.6002108524
 30
0.0
 11
26.0988719638
 21
14.6046123766
 31
0.0
  0
LINE
  5
41A
330
1F
100
AcDbEntity
  8
0
  6
Continuous
 62
     7
 48
1.75
370
    15
100
AcDbLine
 10
26.0988719638
 20
14.6046123766
 30
0.0
 11
26.114704141
 21
14.5397256358
 31
0.0
  0
LINE
  5
41B
330
1F
100
AcDbEntity
  8
0
  6
Continuous
 62
     7
 48
1.75
370
    15
100
AcDbLine
 10
26.114704141
 20
14.5397256358
 30
0.0
 11
26.0669747899
 21
14.5487173992
 31
0.0
  0
LINE
  5
41C
330
1F
100
AcDbEntity
  8
0
  6
Continuous
 62
     7
 48
1.75
370
    15
100
AcDbLine
 10
26.0669747899
 20
14.5487173992
 30
0.0
 11
26.0747247997
 21
14.5169546057
 31
0.0
  0
LINE
  5
41D
330
1F
100
AcDbEntity
  8
0
  6
Continuous
 62
     7
 48
1.75
370
    15
100
AcDbLine
 10
26.0747247997
 20
14.5169546057
 30
0.0
 11
26.1224542024
 21
14.5079628124
 31
0.0
  0
LINE
  5
41E
330
1F
100
AcDbEntity
  8
0
  6
Continuous
 62
     7
 48
1.75
370
    15
100
AcDbLine
 10
26.1224542024
 20
14.5079628124
 30
0.0
 11
26.1382863797
 21
14.4430760717
 31
0.0
  0
LINE
  5
41F
330
1F
100
AcDbEntity
  8
0
  6
Continuous
 62
     7
 48
1.75
370
    15
100
AcDbLine
 10
26.1382863797
 20
14.4430760717
 30
0.0
 11
26.1616504209
 21
14.4386743069
 31
0.0
  0
LINE
  5
420
330
1F
100
AcDbEntity
  8
0
  6
Continuous
 62
     7
 48
1.75
370
    15
100
AcDbLine
 10
26.1616504209
 20
14.4386743069
 30
0.0
 11
26.1458181413
 21
14.5035613482
 31
0.0
  0
LINE
  5
421
330
1F
100
AcDbEntity
  8
0
  6
Continuous
 62
     7
 48
1.75
370
    15
100
AcDbLine
 10
26.1458181413
 20
14.5035613482
 30
0.0
 11
26.193547544
 21
14.4945695549
 31
0.0
  0
LINE
  5
422
330
1F
100
AcDbEntity
  8
0
  6
Continuous
 62
     7
 48
1.75
370
    15
100
AcDbLine
 10
26.1546254306
 20
14.4522873586
 30
0.0
 11
26.1585072847
 21
14.4515560441
 31
0.0
  0
LINE
  5
423
330
1F
100
AcDbEntity
  8
0
  6
Continuous
 62
     7
 48
1.75
370
    15
100
AcDbLine
 10
26.1387932533
 20
14.5171740994
 30
0.0
 11
26.1546254306
 21
14.4522873586
 31
0.0
  0
LINE
  5
424
330
1F
100
AcDbEntity
  8
0
  6
Continuous
 62
     7
 48
1.75
370
    15
100
AcDbLine
 10
26.0910638506
 20
14.5261658926
 30
0.0
 11
26.1387932533
 21
14.5171740994
 31
0.0
  0
LINE
  5
425
330
1F
100
AcDbEntity
  8
0
  6
Continuous
 62
     7
 48
1.75
370
    15
100
AcDbLine
 10
26.0864568911
 20
14.5450470123
 30
0.0
 11
26.0910638506
 21
14.5261658926
 31
0.0
  0
LINE
  5
426
330
1F
100
AcDbEntity
  8
0
  6
Continuous
 62
     7
 48
1.75
370
    15
100
AcDbLine
 10
26.1183540658
 20
14.6009422303
 30
0.0
 11
26.131043192
 21
14.5489369227
 31
0.0
  0
LINE
  5
427
330
1F
100
AcDbEntity
  8
0
  6
Continuous
 62
     7
 48
1.75
370
    15
100
AcDbLine
 10
26.1621571922
 20
14.5127726351
 30
0.0
 11
26.190404407
 21
14.5074510514
 31
0.0
  0
LINE
  5
428
330
1F
100
AcDbEntity
  8
0
  6
Continuous
 62
     7
 48
1.75
370
    15
100
AcDbLine
 10
26.1621571922
 20
14.5127726351
 30
0.0
 11
26.1458181413
 21
14.5035613482
 31
0.0
  0
LINE
  5
429
330
1F
100
AcDbEntity
  8
0
  6
Continuous
 62
     7
 48
1.75
370
    15
100
AcDbLine
 10
26.131043192
 20
14.5489369227
 30
0.0
 11
26.114704141
 21
14.5397256358
 31
0.0
  0
LINE
  5
42A
330
1F
100
AcDbEntity
  8
0
  6
Continuous
 62
     7
 48
1.75
370
    15
100
AcDbLine
 10
26.1546254306
 20
14.4522873586
 30
0.0
 11
26.1382863797
 21
14.4430760717
 31
0.0
  0
LINE
  5
42B
330
1F
100
AcDbEntity
  8
0
  6
Continuous
 62
     7
 48
1.75
370
    15
100
AcDbLine
 10
26.1387932533
 20
14.5171740994
 30
0.0
 11
26.1224542024
 21
14.5079628124
 31
0.0
  0
LINE
  5
42C
330
1F
100
AcDbEntity
  8
0
  6
Continuous
 62
     7
 48
1.75
370
    15
100
AcDbLine
 10
26.0910638506
 20
14.5261658926
 30
0.0
 11
26.0747247997
 21
14.5169546057
 31
0.0
  0
LWPOLYLINE
  5
42D
330
1F
100
AcDbEntity
  8
0
  6
Continuous
 62
     7
 48
1.75
370
    15
100
AcDbPolyline
 90
       21
 70
   128
 43
0.0
 10
26.1361481428
 20
8.4833426318
 10
26.1553205556
 20
8.4852037577
 10
26.1701418738
 20
8.4958619198
 10
26.1791612385
 20
8.5142737194
 10
26.1814958871
 20
8.5386369622
 10
26.176917193
 20
8.5665665831
 10
26.1658733388
 20
8.5953288035
 10
26.1494455421
 20
8.6221083108
 10
26.12924168
 20
8.6442833283
 10
26.1072395285
 20
8.6596836479
 10
26.0855927479
 20
8.6668015857
 10
26.0664203866
 20
8.6649404299
 10
26.0515990685
 20
8.6542822678
 10
26.0425797037
 20
8.6358704681
 10
26.0402450559
 20
8.6115074659
 10
26.0448237492
 20
8.5835776044
 10
26.0558675519
 20
8.554815414
 10
26.0722954009
 20
8.5280361174
 10
26.0924992623
 20
8.5058608592
 10
26.1145014653
 20
8.4904605097
 10
26.1361481428
 20
8.4833426318
  0
LWPOLYLINE
  5
42E
330
1F
100
AcDbEntity
  8
0
  6
Continuous
 62
     7
 48
1.75
370
    15
100
AcDbPolyline
 90
       17
 70
   128
 43
0.0
 10
26.289702295
 20
8.4352806553
 10
26.2991531379
 20
8.4402262428
 10
26.3188255674
 20
8.4582921706
 10
26.3326295128
 20
8.4839922225
 10
26.3399196927
 20
8.5161244614
 10
26.3403550255
 20
8.553186491
 10
26.3339152885
 20
8.5934453324
 10
26.3209014858
 20
8.6350184449
 10
26.3019221848
 20
8.6759621665
 10
26.2778648737
 20
8.7143618586
 10
26.2498545036
 20
8.7484220158
 10
26.2192006412
 20
8.7765497289
 10
26.1873366387
 20
8.7974304875
 10
26.1557525997
 20
8.8100870943
 10
26.1259251598
 20
8.8139283755
 10
26.0992491543
 20
8.8087743784
 10
26.0838390668
 20
8.8004425032
  0
LWPOLYLINE
  5
42F
330
1F
100
AcDbEntity
  8
0
  6
Continuous
 62
     7
 48
1.75
370
    15
100
AcDbPolyline
 90
       21
 70
   128
 43
0.0
 10
26.2219347088
 20
8.4193897307
 10
26.2509014535
 20
8.4202285252
 10
26.2758049248
 20
8.4304995147
 10
26.2953961678
 20
8.4496878856
 10
26.3086929499
 20
8.4768313821
 10
26.3150284919
 20
8.5105689174
 10
26.3140850701
 20
8.549208572
 10
26.3059100037
 20
8.5908130462
 10
26.2909132816
 20
8.6332960119
 10
26.2698468231
 20
8.6745271942
 10
26.2437670015
 20
8.7124392138
 10
26.2139815509
 20
8.7451307179
 10
26.1819841525
 20
8.77096268
 10
26.1493791541
 20
8.7886396978
 10
26.1178015878
 20
8.7972754582
 10
26.0888348431
 20
8.7964366637
 10
26.0639314234
 20
8.7861656442
 10
26.0443401804
 20
8.7669772734
 10
26.031043399
 20
8.7398340175
 10
26.024707857
 20
8.7060964821
 10
26.0244245311
 20
8.7014838082
  0
LWPOLYLINE
  5
430
330
1F
100
AcDbEntity
  8
0
  6
Continuous
 62
     7
 48
1.75
370
    15
100
AcDbPolyline
 90
        3
 70
   128
 43
0.0
 10
26.172588593
 20
8.4365971612
 10
26.1903571425
 20
8.4280254911
 10
26.2219347088
 20
8.4193897307
  0
LWPOLYLINE
  5
431
330
1F
100
AcDbEntity
  8
0
  6
Continuous
 62
     7
 48
1.75
370
    15
100
AcDbPolyline
 90
       15
 70
   128
 43
0.0
 10
26.2579170834
 20
8.4521508273
 10
26.2645067924
 20
8.4564579104
 10
26.2816992186
 20
8.4758480309
 10
26.2923924493
 20
8.5029375156
 10
26.295965
 20
8.5361524163
 10
26.2922093607
 20
8.5735618423
 10
26.2813435304
 20
8.6129922731
 10
26.2639993303
 20
8.6521517324
 10
26.2411845024
 20
8.6887645973
 10
26.2142249551
 20
8.720703227
 10
26.1846876557
 20
8.7461110576
 10
26.1542890606
 20
8.7635119141
 10
26.1247958687
 20
8.7718941299
 10
26.0979221299
 20
8.7707707476
 10
26.0818192655
 20
8.7645145722
  0
LINE
  5
432
330
1F
100
AcDbEntity
  8
0
  6
Continuous
 62
     7
 48
1.75
370
    15
100
AcDbLine
 10
26.1737292035
 20
8.5515791302
 30
0.0
 11
26.1649305214
 21
8.5835082558
 31
0.0
  0
LINE
  5
433
330
1F
100
AcDbEntity
  8
0
  6
Continuous
 62
     7
 48
1.75
370
    15
100
AcDbLine
 10
26.1649305214
 20
8.5835082558
 30
0.0
 11
26.1179658877
 21
8.5895564878
 31
0.0
  0
LINE
  5
434
330
1F
100
AcDbEntity
  8
0
  6
Continuous
 62
     7
 48
1.75
370
    15
100
AcDbLine
 10
26.1179658877
 20
8.5895564878
 30
0.0
 11
26.0999914358
 21
8.6547836509
 31
0.0
  0
LINE
  5
435
330
1F
100
AcDbEntity
  8
0
  6
Continuous
 62
     7
 48
1.75
370
    15
100
AcDbLine
 10
26.0999914358
 20
8.6547836509
 30
0.0
 11
26.0770018181
 21
8.657744289
 31
0.0
  0
LINE
  5
436
330
1F
100
AcDbEntity
  8
0
  6
Continuous
 62
     7
 48
1.75
370
    15
100
AcDbLine
 10
26.0770018181
 20
8.657744289
 30
0.0
 11
26.0949763216
 21
8.5925170959
 31
0.0
  0
LINE
  5
437
330
1F
100
AcDbEntity
  8
0
  6
Continuous
 62
     7
 48
1.75
370
    15
100
AcDbLine
 10
26.0949763216
 20
8.5925170959
 30
0.0
 11
26.0480117395
 21
8.598565298
 31
0.0
  0
LINE
  5
438
330
1F
100
AcDbEntity
  8
0
  6
Continuous
 62
     7
 48
1.75
370
    15
100
AcDbLine
 10
26.0480117395
 20
8.598565298
 30
0.0
 11
26.0568104724
 21
8.5666359018
 31
0.0
  0
LINE
  5
439
330
1F
100
AcDbEntity
  8
0
  6
Continuous
 62
     7
 48
1.75
370
    15
100
AcDbLine
 10
26.0568104724
 20
8.5666359018
 30
0.0
 11
26.1037750029
 21
8.5605877297
 31
0.0
  0
LINE
  5
43A
330
1F
100
AcDbEntity
  8
0
  6
Continuous
 62
     7
 48
1.75
370
    15
100
AcDbLine
 10
26.1037750029
 20
8.5605877297
 30
0.0
 11
26.1217494556
 21
8.4953608071
 31
0.0
  0
LINE
  5
43B
330
1F
100
AcDbEntity
  8
0
  6
Continuous
 62
     7
 48
1.75
370
    15
100
AcDbLine
 10
26.1217494556
 20
8.4953608071
 30
0.0
 11
26.1447391249
 21
8.4924001392
 31
0.0
  0
LINE
  5
43C
330
1F
100
AcDbEntity
  8
0
  6
Continuous
 62
     7
 48
1.75
370
    15
100
AcDbLine
 10
26.1447391249
 20
8.4924001392
 30
0.0
 11
26.1267646722
 21
8.5576270617
 31
0.0
  0
LINE
  5
43D
330
1F
100
AcDbEntity
  8
0
  6
Continuous
 62
     7
 48
1.75
370
    15
100
AcDbLine
 10
26.1267646722
 20
8.5576270617
 30
0.0
 11
26.1737292035
 21
8.5515791302
 31
0.0
  0
LINE
  5
43E
330
1F
100
AcDbEntity
  8
0
  6
Continuous
 62
     7
 48
1.75
370
    15
100
AcDbLine
 10
26.1380885065
 20
8.5045720941
 30
0.0
 11
26.1415061521
 21
8.5041319044
 31
0.0
  0
LINE
  5
43F
330
1F
100
AcDbEntity
  8
0
  6
Continuous
 62
     7
 48
1.75
370
    15
100
AcDbLine
 10
26.1201140539
 20
8.5697990166
 30
0.0
 11
26.1380885065
 21
8.5045720941
 31
0.0
  0
LINE
  5
440
330
1F
100
AcDbEntity
  8
0
  6
Continuous
 62
     7
 48
1.75
370
    15
100
AcDbLine
 10
26.0731495233
 20
8.5758471887
 30
0.0
 11
26.1201140539
 21
8.5697990166
 31
0.0
  0
LINE
  5
441
330
1F
100
AcDbEntity
  8
0
  6
Continuous
 62
     7
 48
1.75
370
    15
100
AcDbLine
 10
26.0675837281
 20
8.5960446124
 30
0.0
 11
26.0731495233
 21
8.5758471887
 31
0.0
  0
LINE
  5
442
330
1F
100
AcDbEntity
  8
0
  6
Continuous
 62
     7
 48
1.75
370
    15
100
AcDbLine
 10
26.0965737552
 20
8.6552236334
 30
0.0
 11
26.1113153725
 21
8.6017283828
 31
0.0
  0
LINE
  5
443
330
1F
100
AcDbEntity
  8
0
  6
Continuous
 62
     7
 48
1.75
370
    15
100
AcDbLine
 10
26.1431037231
 20
8.5668383486
 30
0.0
 11
26.1704962307
 21
8.5633108954
 31
0.0
  0
LINE
  5
444
330
1F
100
AcDbEntity
  8
0
  6
Continuous
 62
     7
 48
1.75
370
    15
100
AcDbLine
 10
26.1431037231
 20
8.5668383486
 30
0.0
 11
26.1267646722
 21
8.5576270617
 31
0.0
  0
LINE
  5
445
330
1F
100
AcDbEntity
  8
0
  6
Continuous
 62
     7
 48
1.75
370
    15
100
AcDbLine
 10
26.1113153725
 20
8.6017283828
 30
0.0
 11
26.0949763216
 21
8.5925170959
 31
0.0
  0
LINE
  5
446
330
1F
100
AcDbEntity
  8
0
  6
Continuous
 62
     7
 48
1.75
370
    15
100
AcDbLine
 10
26.1380885065
 20
8.5045720941
 30
0.0
 11
26.1217494556
 21
8.4953608071
 31
0.0
  0
LINE
  5
447
330
1F
100
AcDbEntity
  8
0
  6
Continuous
 62
     7
 48
1.75
370
    15
100
AcDbLine
 10
26.0731495233
 20
8.5758471887
 30
0.0
 11
26.0568104724
 21
8.5666359018
 31
0.0
  0
LINE
  5
448
330
1F
100
AcDbEntity
  8
0
  6
Continuous
 62
     7
 48
1.75
370
    15
100
AcDbLine
 10
26.1201140539
 20
8.5697990166
 30
0.0
 11
26.1037750029
 21
8.5605877297
 31
0.0
  0
LWPOLYLINE
  5
449
330
1F
100
AcDbEntity
  8
0
  6
Continuous
 62
     7
 48
1.75
370
    15
100
AcDbPolyline
 90
       21
 70
   128
 43
0.0
 10
24.3748725798
 20
9.5043312898
 10
24.3945248156
 20
9.5048899443
 10
24.4100738343
 20
9.5143259409
 10
24.4199977061
 20
9.5317161953
 10
24.4233249605
 20
9.5553579688
 10
24.4197299019
 20
9.5829369988
 10
24.4095644565
 20
9.6117541624
 10
24.3938236833
 20
9.6389879897
 10
24.3740484014
 20
9.6619731862
 10
24.3521742711
 20
9.6784596134
 10
24.3303426694
 20
9.6868331826
 10
24.3106904344
 20
9.6862747687
 10
24.2951414149
 20
9.6768385315
 10
24.2852174923
 20
9.6594485476
 10
24.2818902895
 20
9.6358067442
 10
24.2854853473
 20
9.6082274736
 10
24.2956507935
 20
9.5794105506
 10
24.3113916174
 20
9.5521764527
 10
24.3311668479
 20
9.5291912862
 10
24.3530409273
 20
9.5127051295
 10
24.3748725798
 20
9.5043312898
  0
LWPOLYLINE
  5
44A
330
1F
100
AcDbEntity
  8
0
  6
Continuous
 62
     7
 48
1.75
370
    15
100
AcDbPolyline
 90
       17
 70
   128
 43
0.0
 10
24.5314394484
 20
9.4557907977
 10
24.5361229221
 20
9.4580132624
 10
24.5569130262
 20
9.4743657672
 10
24.5720053777
 20
9.4985599171
 10
24.5806942093
 20
9.5294640747
 10
24.5825733125
 20
9.5656334098
 10
24.5775548059
 20
9.6053766239
 10
24.5658733211
 20
9.6468352365
 10
24.5480751254
 20
9.6880708905
 10
24.5249923726
 20
9.7271552646
 10
24.4977044894
 20
9.7622609422
 10
24.4674872967
 20
9.7917463833
 10
24.4357537852
 20
9.8142329651
 10
24.4039878216
 20
9.82866901
 10
24.3736746567
 20
9.8343797618
 10
24.3462317327
 20
9.8310981444
 10
24.3255762718
 20
9.8209526156
  0
LWPOLYLINE
  5
44B
330
1F
100
AcDbEntity
  8
0
  6
Continuous
 62
     7
 48
1.75
370
    15
100
AcDbPolyline
 90
       21
 70
   128
 43
0.0
 10
24.4574662883
 20
9.440885529
 10
24.487081614
 20
9.4398022725
 10
24.5129122316
 20
9.4481980373
 10
24.5336629368
 20
9.4656523471
 10
24.5482931302
 20
9.4912893714
 10
24.5560692096
 20
9.5238241707
 10
24.556601306
 20
9.5616250191
 10
24.5498626725
 20
9.6027964001
 10
24.5361912344
 20
9.6452738049
 10
24.5162725643
 20
9.6869273808
 10
24.4911054021
 20
9.7256682403
 10
24.4619518245
 20
9.7595540365
 10
24.4302736399
 20
9.7868851781
 10
24.3976593473
 20
9.8062915762
 10
24.3657443669
 20
9.8167999148
 10
24.3361289904
 20
9.8178834418
 10
24.3102984235
 20
9.8094874065
 10
24.2895477191
 20
9.7920333373
 10
24.2749175249
 20
9.7663960724
 10
24.2671414455
 20
9.7338612731
 10
24.2659428144
 20
9.7137584962
  0
LWPOLYLINE
  5
44C
330
1F
100
AcDbEntity
  8
0
  6
Continuous
 62
     7
 48
1.75
370
    15
100
AcDbPolyline
 90
        3
 70
   128
 43
0.0
 10
24.4133832454
 20
9.4576331266
 10
24.4255513078
 20
9.4513938675
 10
24.4574662883
 20
9.440885529
  0
LWPOLYLINE
  5
44D
330
1F
100
AcDbEntity
  8
0
  6
Continuous
 62
     7
 48
1.75
370
    15
100
AcDbPolyline
 90
       15
 70
   128
 43
0.0
 10
24.4996542369
 20
9.4726609697
 10
24.5023785272
 20
9.474293441
 10
24.5206871465
 20
9.4921021292
 10
24.5326563223
 20
9.5178575811
 10
24.5375904657
 20
9.5500633293
 10
24.5352028374
 20
9.5868472442
 10
24.5256321332
 20
9.6260719503
 10
24.5094346172
 20
9.6654577478
 10
24.4875516394
 20
9.7027154816
 10
24.4612548848
 20
9.7356800426
 10
24.4320727343
 20
9.7624355468
 10
24.401701029
 20
9.7814271499
 10
24.37190503
 20
9.7915509748
 10
24.3444161818
 20
9.7922190925
 10
24.323556419
 20
9.7850247147
  0
LINE
  5
44E
330
1F
100
AcDbEntity
  8
0
  6
Continuous
 62
     7
 48
1.75
370
    15
100
AcDbLine
 10
24.4158940017
 20
9.568508314
 30
0.0
 11
24.4081439919
 21
9.6002711075
 31
0.0
  0
LINE
  5
44F
330
1F
100
AcDbEntity
  8
0
  6
Continuous
 62
     7
 48
1.75
370
    15
100
AcDbLine
 10
24.4081439919
 20
9.6002711075
 30
0.0
 11
24.3604145891
 21
9.6092629008
 31
0.0
  0
LINE
  5
450
330
1F
100
AcDbEntity
  8
0
  6
Continuous
 62
     7
 48
1.75
370
    15
100
AcDbLine
 10
24.3604145891
 20
9.6092629008
 30
0.0
 11
24.3445824118
 21
9.6741496415
 31
0.0
  0
LINE
  5
451
330
1F
100
AcDbEntity
  8
0
  6
Continuous
 62
     7
 48
1.75
370
    15
100
AcDbLine
 10
24.3445824118
 20
9.6741496415
 30
0.0
 11
24.3212183706
 21
9.6785514063
 31
0.0
  0
LINE
  5
452
330
1F
100
AcDbEntity
  8
0
  6
Continuous
 62
     7
 48
1.75
370
    15
100
AcDbLine
 10
24.3212183706
 20
9.6785514063
 30
0.0
 11
24.3370506503
 21
9.6136643651
 31
0.0
  0
LINE
  5
453
330
1F
100
AcDbEntity
  8
0
  6
Continuous
 62
     7
 48
1.75
370
    15
100
AcDbLine
 10
24.3370506503
 20
9.6136643651
 30
0.0
 11
24.2893212475
 21
9.6226561583
 31
0.0
  0
LINE
  5
454
330
1F
100
AcDbEntity
  8
0
  6
Continuous
 62
     7
 48
1.75
370
    15
100
AcDbLine
 10
24.2893212475
 20
9.6226561583
 30
0.0
 11
24.2970713089
 21
9.590893335
 31
0.0
  0
LINE
  5
455
330
1F
100
AcDbEntity
  8
0
  6
Continuous
 62
     7
 48
1.75
370
    15
100
AcDbLine
 10
24.2970713089
 20
9.590893335
 30
0.0
 11
24.3448006085
 21
9.5819016015
 31
0.0
  0
LINE
  5
456
330
1F
100
AcDbEntity
  8
0
  6
Continuous
 62
     7
 48
1.75
370
    15
100
AcDbLine
 10
24.3448006085
 20
9.5819016015
 30
0.0
 11
24.3606327858
 21
9.5170148608
 31
0.0
  0
LINE
  5
457
330
1F
100
AcDbEntity
  8
0
  6
Continuous
 62
     7
 48
1.75
370
    15
100
AcDbLine
 10
24.3606327858
 20
9.5170148608
 30
0.0
 11
24.3839968278
 21
9.5126133366
 31
0.0
  0
LINE
  5
458
330
1F
100
AcDbEntity
  8
0
  6
Continuous
 62
     7
 48
1.75
370
    15
100
AcDbLine
 10
24.3839968278
 20
9.5126133366
 30
0.0
 11
24.3681646505
 21
9.5775000774
 31
0.0
  0
LINE
  5
459
330
1F
100
AcDbEntity
  8
0
  6
Continuous
 62
     7
 48
1.75
370
    15
100
AcDbLine
 10
24.3681646505
 20
9.5775000774
 30
0.0
 11
24.4158940017
 21
9.568508314
 31
0.0
  0
LINE
  5
45A
330
1F
100
AcDbEntity
  8
0
  6
Continuous
 62
     7
 48
1.75
370
    15
100
AcDbLine
 10
24.3769718367
 20
9.5262261477
 30
0.0
 11
24.3808536908
 21
9.5254948332
 31
0.0
  0
LINE
  5
45B
330
1F
100
AcDbEntity
  8
0
  6
Continuous
 62
     7
 48
1.75
370
    15
100
AcDbLine
 10
24.3611396594
 20
9.5911128884
 30
0.0
 11
24.3769718367
 21
9.5262261477
 31
0.0
  0
LINE
  5
45C
330
1F
100
AcDbEntity
  8
0
  6
Continuous
 62
     7
 48
1.75
370
    15
100
AcDbLine
 10
24.3134103598
 20
9.6001046219
 30
0.0
 11
24.3611396594
 21
9.5911128884
 31
0.0
  0
LINE
  5
45D
330
1F
100
AcDbEntity
  8
0
  6
Continuous
 62
     7
 48
1.75
370
    15
100
AcDbLine
 10
24.3088034011
 20
9.6189859821
 30
0.0
 11
24.3134103598
 21
9.6001046219
 31
0.0
  0
LINE
  5
45E
330
1F
100
AcDbEntity
  8
0
  6
Continuous
 62
     7
 48
1.75
370
    15
100
AcDbLine
 10
24.3407005234
 20
9.6748809895
 30
0.0
 11
24.3533897012
 21
9.622875652
 31
0.0
  0
LINE
  5
45F
330
1F
100
AcDbEntity
  8
0
  6
Continuous
 62
     7
 48
1.75
370
    15
100
AcDbLine
 10
24.3845037014
 20
9.5867113643
 30
0.0
 11
24.4127508647
 21
9.5813898106
 31
0.0
  0
LINE
  5
460
330
1F
100
AcDbEntity
  8
0
  6
Continuous
 62
     7
 48
1.75
370
    15
100
AcDbLine
 10
24.3845037014
 20
9.5867113643
 30
0.0
 11
24.3681646505
 21
9.5775000774
 31
0.0
  0
LINE
  5
461
330
1F
100
AcDbEntity
  8
0
  6
Continuous
 62
     7
 48
1.75
370
    15
100
AcDbLine
 10
24.3533897012
 20
9.622875652
 30
0.0
 11
24.3370506503
 21
9.6136643651
 31
0.0
  0
LINE
  5
462
330
1F
100
AcDbEntity
  8
0
  6
Continuous
 62
     7
 48
1.75
370
    15
100
AcDbLine
 10
24.3769718367
 20
9.5262261477
 30
0.0
 11
24.3606327858
 21
9.5170148608
 31
0.0
  0
LINE
  5
463
330
1F
100
AcDbEntity
  8
0
  6
Continuous
 62
     7
 48
1.75
370
    15
100
AcDbLine
 10
24.3611396594
 20
9.5911128884
 30
0.0
 11
24.3448006085
 21
9.5819016015
 31
0.0
  0
LINE
  5
464
330
1F
100
AcDbEntity
  8
0
  6
Continuous
 62
     7
 48
1.75
370
    15
100
AcDbLine
 10
24.3134103598
 20
9.6001046219
 30
0.0
 11
24.2970713089
 21
9.590893335
 31
0.0
  0
LINE
  5
465
330
1F
100
AcDbEntity
  8
0
  6
Continuous
 62
     7
 48
1.75
370
    15
100
AcDbLine
 10
28.4017289855
 20
16.5185740379
 30
0.0
 11
28.3462801078
 21
16.4873142343
 31
0.0
  0
ARC
  5
466
330
1F
100
AcDbEntity
  8
0
  6
Continuous
 62
     7
 48
3.0625
370
    15
100
AcDbCircle
 10
28.1933473484
 20
16.1962202202
 30
0.0
 40
0.3838422729041381
100
AcDbArc
 50
2.2767685474
 51
57.1198521438
  0
LINE
  5
467
330
1F
100
AcDbEntity
  8
0
  6
Continuous
 62
     7
 48
1.75
370
    15
100
AcDbLine
 10
28.5768866105
 20
16.211468988
 30
0.0
 11
28.5214377328
 21
16.1802091845
 31
0.0
  0
ARC
  5
468
330
1F
100
AcDbEntity
  8
0
  6
Continuous
 62
     7
 48
3.0625
370
    15
100
AcDbCircle
 10
28.1378984707
 20
16.1649604166
 30
0.0
 40
0.3838422729041053
100
AcDbArc
 50
2.2767685474
 51
57.1198521438
  0
LWPOLYLINE
  5
469
330
1F
100
AcDbEntity
  8
0
  6
Continuous
 62
     7
 48
1.75
370
    15
100
AcDbPolyline
 90
       11
 70
   128
 43
0.0
 10
28.3785838676
 20
16.2376479047
 10
28.3747241544
 20
16.2120816103
 10
28.3637037404
 20
16.1933933758
 10
28.3466015225
 20
16.1834123309
 10
28.3250914218
 20
16.1831158028
 10
28.3012790921
 20
16.1925324588
 10
28.2774954308
 20
16.2107409055
 10
28.2560685268
 20
16.2359584223
 10
28.2390958404
 20
16.2657168206
 10
28.2282387614
 20
16.2971029309
 10
28.2245600496
 20
16.3270445889
  0
LINE
  5
46A
330
1F
100
AcDbEntity
  8
0
  6
Continuous
 62
     7
 48
1.75
370
    15
100
AcDbLine
 10
28.3787496914
 20
16.2885013232
 30
0.0
 11
28.3785838676
 21
16.2376479047
 31
0.0
  0
LWPOLYLINE
  5
46B
330
1F
100
AcDbEntity
  8
0
  6
Continuous
 62
     7
 48
1.75
370
    15
100
AcDbPolyline
 90
       11
 70
   128
 43
0.0
 10
28.2247258734
 20
16.3778980074
 10
28.2285855866
 20
16.4034643018
 10
28.2396059491
 20
16.4221525662
 10
28.2567082186
 20
16.4321335812
 10
28.2782183193
 20
16.4324301092
 10
28.302030649
 20
16.4230134532
 10
28.3258143103
 20
16.4048050066
 10
28.3472412142
 20
16.3795874898
 10
28.3642138491
 20
16.3498291214
 10
28.3750709796
 20
16.3184429812
 10
28.3787496914
 20
16.2885013232
  0
LINE
  5
46C
330
1F
100
AcDbEntity
  8
0
  6
Continuous
 62
     7
 48
1.75
370
    15
100
AcDbLine
 10
28.2245600496
 20
16.3270445889
 30
0.0
 11
28.2247258734
 21
16.3778980074
 31
0.0
  0
LINE
  5
46D
330
1F
100
AcDbEntity
  8
0
  6
Continuous
 62
     7
 48
1.75
370
    15
100
AcDbLine
 10
26.4115222963
 20
17.4048213674
 30
0.0
 11
26.4107086945
 21
17.1553129863
 31
0.0
  0
ARC
  5
46E
330
1F
100
AcDbEntity
  8
0
  6
Continuous
 62
     7
 48
3.0625
370
    15
100
AcDbCircle
 10
26.5193800269
 20
17.4227208341
 30
0.0
 40
0.1093328904924665
100
AcDbArc
 50
51.1133540037
 51
189.4226116385
  0
LINE
  5
46F
330
1F
100
AcDbEntity
  8
0
  6
Continuous
 62
     7
 48
1.75
370
    15
100
AcDbLine
 10
28.3462801078
 20
16.4873142343
 30
0.0
 11
26.5880172097
 21
17.5078244067
 31
0.0
  0
LINE
  5
470
330
1F
100
AcDbEntity
  8
0
  6
Continuous
 62
     7
 48
1.75
370
    15
100
AcDbLine
 10
28.5214377328
 20
16.1802091845
 30
0.0
 11
28.520624131
 21
15.9307008035
 31
0.0
  0
LWPOLYLINE
  5
471
330
1F
100
AcDbEntity
  8
0
  6
Continuous
 62
     7
 48
1.75
370
    15
100
AcDbPolyline
 90
       11
 70
   128
 43
0.0
 10
26.7083999795
 20
17.2579859629
 10
26.7047212677
 20
17.2879276209
 10
26.6938641888
 20
17.3193137313
 10
26.6768915023
 20
17.3490721295
 10
26.6554645983
 20
17.3742896464
 10
26.6316809371
 20
17.392498093
 10
26.6078686073
 20
17.401914749
 10
26.5863585066
 20
17.401618221
 10
26.5692562887
 20
17.391637176
 10
26.5582358747
 20
17.3729489416
 10
26.5543761615
 20
17.3473826471
  0
LINE
  5
472
330
1F
100
AcDbEntity
  8
0
  6
Continuous
 62
     7
 48
1.75
370
    15
100
AcDbLine
 10
26.5543761615
 20
17.3473826471
 30
0.0
 11
26.5542103377
 21
17.2965292287
 31
0.0
  0
LWPOLYLINE
  5
473
330
1F
100
AcDbEntity
  8
0
  6
Continuous
 62
     7
 48
1.75
370
    15
100
AcDbPolyline
 90
       11
 70
   128
 43
0.0
 10
26.5542103377
 20
17.2965292287
 10
26.5578890495
 20
17.2665875707
 10
26.56874618
 20
17.2352014304
 10
26.5857188149
 20
17.2054430621
 10
26.6071457188
 20
17.1802255452
 10
26.6309293801
 20
17.1620170986
 10
26.6547417099
 20
17.1526004426
 10
26.6762518105
 20
17.1528969707
 10
26.69335408
 20
17.1628779857
 10
26.7043744425
 20
17.18156625
 10
26.7082341557
 20
17.2071325445
  0
LINE
  5
474
330
1F
100
AcDbEntity
  8
0
  6
Continuous
 62
     7
 48
1.75
370
    15
100
AcDbLine
 10
26.7082341557
 20
17.2071325445
 30
0.0
 11
26.7083999795
 21
17.2579859629
 31
0.0
  0
LINE
  5
475
330
1F
100
AcDbEntity
  8
0
  6
Continuous
 62
     7
 48
1.75
370
    15
100
AcDbLine
 10
28.573543387
 20
15.1861980433
 30
0.0
 11
28.5677440448
 21
15.1829286119
 31
0.0
  0
LINE
  5
476
330
1F
100
AcDbEntity
  8
0
  6
Continuous
 62
     7
 48
1.75
370
    15
100
AcDbLine
 10
28.5768866105
 20
16.211468988
 30
0.0
 11
28.573543387
 21
15.1861980433
 31
0.0
  0
LINE
  5
477
330
1F
100
AcDbEntity
  8
0
  6
Continuous
 62
     7
 48
1.75
370
    15
100
AcDbLine
 10
26.6434660874
 20
17.5390842102
 30
0.0
 11
26.5880172097
 21
17.5078244067
 31
0.0
  0
LINE
  5
478
330
1F
100
AcDbEntity
  8
0
  6
Continuous
 62
     7
 48
1.75
370
    15
100
AcDbLine
 10
28.4017289855
 20
16.5185740379
 30
0.0
 11
26.6434660874
 21
17.5390842102
 31
0.0
  0
LINE
  5
479
330
1F
100
AcDbEntity
  8
0
  6
Continuous
 62
     7
 48
1.75
370
    15
100
AcDbLine
 10
28.2801747511
 20
16.4091578109
 30
0.0
 11
28.2247258734
 21
16.3778980074
 31
0.0
  0
LINE
  5
47A
330
1F
100
AcDbEntity
  8
0
  6
Continuous
 62
     7
 48
1.75
370
    15
100
AcDbLine
 10
28.2801747511
 20
16.4091578109
 30
0.0
 11
28.2829823252
 21
16.4312759844
 31
0.0
  0
LINE
  5
47B
330
1F
100
AcDbEntity
  8
0
  6
Continuous
 62
     7
 48
1.75
370
    15
100
AcDbLine
 10
28.2800089273
 20
16.3583043924
 30
0.0
 11
28.2245600496
 21
16.3270445889
 31
0.0
  0
ARC
  5
47C
330
1F
100
AcDbEntity
  8
0
  6
Continuous
 62
     7
 48
3.0625
370
    15
100
AcDbCircle
 10
28.4353304557
 20
16.3589819595
 30
0.0
 40
0.1553230063057963
100
AcDbArc
 50
180.2499427215
 51
247.4542186711
  0
LINE
  5
47D
330
1F
100
AcDbEntity
  8
0
  6
Continuous
 62
     7
 48
1.75
370
    15
100
AcDbLine
 10
28.2800089273
 20
16.3583043924
 30
0.0
 11
28.2801747511
 21
16.4091578109
 31
0.0
  0
LINE
  5
47E
330
1F
100
AcDbEntity
  8
0
  6
Continuous
 62
     7
 48
1.75
370
    15
100
AcDbLine
 10
26.6098250392
 20
17.3786424507
 30
0.0
 11
26.5543761615
 21
17.3473826471
 31
0.0
  0
LINE
  5
47F
330
1F
100
AcDbEntity
  8
0
  6
Continuous
 62
     7
 48
1.75
370
    15
100
AcDbLine
 10
26.6126326133
 20
17.4007606242
 30
0.0
 11
26.6098250392
 21
17.3786424507
 31
0.0
  0
ARC
  5
480
330
1F
100
AcDbEntity
  8
0
  6
Continuous
 62
     7
 48
3.0625
370
    15
100
AcDbCircle
 10
26.5706450278
 20
17.4377464855
 30
0.0
 40
0.1247887862213194
100
AcDbArc
 50
54.2990613676
 51
113.9321367712
  0
LINE
  5
481
330
1F
100
AcDbEntity
  8
0
  6
Continuous
 62
     7
 48
1.75
370
    15
100
AcDbLine
 10
26.6096592154
 20
17.3277890322
 30
0.0
 11
26.5542103377
 21
17.2965292287
 31
0.0
  0
ARC
  5
482
330
1F
100
AcDbEntity
  8
0
  6
Continuous
 62
     7
 48
3.0625
370
    15
100
AcDbCircle
 10
26.7649807438
 20
17.3284665993
 30
0.0
 40
0.1553230063057784
100
AcDbArc
 50
180.2499427215
 51
247.4542186711
  0
LINE
  5
483
330
1F
100
AcDbEntity
  8
0
  6
Continuous
 62
     7
 48
1.75
370
    15
100
AcDbLine
 10
26.6098250392
 20
17.3786424507
 30
0.0
 11
26.6096592154
 21
17.3277890322
 31
0.0
  0
LINE
  5
484
330
1F
100
AcDbEntity
  8
0
  6
Continuous
 62
     7
 48
1.75
370
    15
100
AcDbLine
 10
28.5574959146
 20
10.2648976048
 30
0.0
 11
28.5516965724
 21
10.2616281734
 31
0.0
  0
LINE
  5
485
330
1F
100
AcDbEntity
  8
0
  6
Continuous
 62
     7
 48
1.75
370
    15
100
AcDbLine
 10
28.5541526911
 20
9.23962666
 30
0.0
 11
28.5574959146
 21
10.2648976048
 31
0.0
  0
LINE
  5
486
330
1F
100
AcDbEntity
  8
0
  6
Continuous
 62
     7
 48
1.75
370
    15
100
AcDbLine
 10
28.5541526911
 20
9.23962666
 30
0.0
 11
28.4987038135
 21
9.2083668565
 31
0.0
  0
LINE
  5
487
330
1F
100
AcDbEntity
  8
0
  6
Continuous
 62
     7
 48
1.75
370
    15
100
AcDbLine
 10
28.4987038135
 20
9.2083668565
 30
0.0
 11
28.4991883032
 21
9.3569460008
 31
0.0
  0
LINE
  5
488
330
1F
100
AcDbEntity
  8
0
  6
Continuous
 62
     7
 48
1.75
370
    15
100
AcDbLine
 10
28.5574959146
 20
10.2648976048
 30
0.0
 11
28.5517181609
 21
10.2682510603
 31
0.0
  0
ARC
  5
489
330
1F
100
AcDbEntity
  8
0
  6
Continuous
 62
     7
 48
3.0625
370
    15
100
AcDbCircle
 10
28.3908460829
 20
9.1904673898
 30
0.0
 40
0.1093328904924679
100
AcDbArc
 50
231.1133540037
 51
9.4226116385
  0
LINE
  5
48A
330
1F
100
AcDbEntity
  8
0
  6
Continuous
 62
     7
 48
1.75
370
    15
100
AcDbLine
 10
28.1895284632
 20
9.1823726283
 30
0.0
 11
28.3222089001
 21
9.1053638172
 31
0.0
  0
LWPOLYLINE
  5
48B
330
1F
100
AcDbEntity
  8
0
  6
Continuous
 62
     7
 48
1.75
370
    15
100
AcDbPolyline
 90
        7
 70
   128
 43
0.0
 10
28.2688058117
 20
9.2270658431
 10
28.2785451728
 20
9.2206901308
 10
28.3023575025
 20
9.2112734748
 10
28.3238676032
 20
9.2115700029
 10
28.3409698211
 20
9.2215510479
 10
28.3519902351
 20
9.2402392823
 10
28.3558499483
 20
9.2658055767
  0
LINE
  5
48C
330
1F
100
AcDbEntity
  8
0
  6
Continuous
 62
     7
 48
1.75
370
    15
100
AcDbLine
 10
28.3558499483
 20
9.2658055767
 30
0.0
 11
28.3558837021
 21
9.2761568985
 31
0.0
  0
ARC
  5
48D
330
1F
100
AcDbEntity
  8
0
  6
Continuous
 62
     7
 48
3.0625
370
    15
100
AcDbCircle
 10
28.4304746786
 20
9.2263016548
 30
0.0
 40
0.1243937560808663
100
AcDbArc
 50
304.5938745414
 51
6.1492976503
  0
LWPOLYLINE
  5
48E
330
1F
100
AcDbEntity
  8
0
  6
Continuous
 62
     7
 48
1.75
370
    15
100
AcDbPolyline
 90
        3
 70
   128
 43
0.0
 10
28.3242546894
 20
9.2583256466
 10
28.3339940504
 20
9.2519499344
 10
28.3530423529
 20
9.2436874251
  0
ARC
  5
48F
330
1F
100
AcDbEntity
  8
0
  6
Continuous
 62
     8
 48
3.0625
370
    15
100
AcDbCircle
 10
24.2381463346
 20
16.1587259393
 30
0.0
 40
0.0461981832771847
100
AcDbArc
 50
185.5828240889
 51
245.5906735816
  0
ARC
  5
490
330
1F
100
AcDbEntity
  8
0
  6
Continuous
 62
     8
 48
3.0625
370
    15
100
AcDbCircle
 10
24.258326271
 20
16.1925114752
 30
0.0
 40
0.0464209293512611
100
AcDbArc
 50
54.2987044927
 51
113.9324813833
  0
ARC
  5
491
330
1F
100
AcDbEntity
  8
0
  6
Continuous
 62
     8
 48
3.0625
370
    15
100
AcDbCircle
 10
24.2165785326
 20
9.5444983925
 30
0.0
 40
0.046198183277166
100
AcDbArc
 50
185.5828240889
 51
245.5906735816
  0
ARC
  5
492
330
1F
100
AcDbEntity
  8
0
  6
Continuous
 62
     8
 48
3.0625
370
    15
100
AcDbCircle
 10
26.5730613523
 20
8.143862021
 30
0.0
 40
0.0451921319192964
100
AcDbArc
 50
172.652755304
 51
235.8128951969
  0
ARC
  5
493
330
1F
100
AcDbEntity
  8
0
  6
Continuous
 62
     8
 48
3.0625
370
    15
100
AcDbCircle
 10
26.6137541702
 20
8.1439914662
 30
0.0
 40
0.046271969015632
100
AcDbArc
 50
304.5920395842
 51
6.1512038412
  0
ARC
  5
494
330
1F
100
AcDbEntity
  8
0
  6
Continuous
 62
     8
 48
3.0625
370
    15
100
AcDbCircle
 10
24.2436397687
 20
9.4972496879
 30
0.0
 40
0.0464425266115507
100
AcDbArc
 50
173.5962978287
 51
234.8693526723
  0
LINE
  5
495
330
1F
100
AcDbEntity
  8
0
  6
Continuous
 62
     8
 48
1.75
370
    15
100
AcDbLine
 10
28.5423213084
 20
15.8105779929
 30
0.0
 11
26.9706510619
 21
14.9245347548
 31
0.0
  0
LINE
  5
496
330
1F
100
AcDbEntity
  8
0
  6
Continuous
 62
     8
 48
1.75
370
    15
100
AcDbLine
 10
26.9070109106
 20
15.0396338949
 30
0.0
 11
28.4771626906
 21
15.9248210837
 31
0.0
  0
LINE
  5
497
330
1F
100
AcDbEntity
  8
0
  6
Continuous
 62
     8
 48
1.75
370
    15
100
AcDbLine
 10
26.9497519041
 20
8.5153612525
 30
0.0
 11
28.5214221506
 21
9.4014044906
 31
0.0
  0
LINE
  5
498
330
1F
100
AcDbEntity
  8
0
  6
Continuous
 62
     8
 48
1.75
370
    15
100
AcDbLine
 10
26.3222357952
 20
17.1755582856
 30
0.0
 11
24.7521019483
 21
16.2903812066
 31
0.0
  0
ARC
  5
499
330
1F
100
AcDbEntity
  8
0
  6
Continuous
 62
     8
 48
3.0625
370
    15
100
AcDbCircle
 10
28.504006743
 20
15.8863563329
 30
0.0
 40
0.0469056521814545
100
AcDbArc
 50
65.3117866352
 51
124.910689993
  0
ARC
  5
49A
330
1F
100
AcDbEntity
  8
0
  6
Continuous
 62
     8
 48
3.0625
370
    15
100
AcDbCircle
 10
28.525746253
 20
15.85165985
 30
0.0
 40
0.0442995648520797
100
AcDbArc
 50
291.9723079465
 51
355.5694944186
  0
ARC
  5
49B
330
1F
100
AcDbEntity
  8
0
  6
Continuous
 62
     8
 48
3.0625
370
    15
100
AcDbCircle
 10
28.503645056
 20
9.4433670452
 30
0.0
 40
0.045572810747108
100
AcDbArc
 50
292.959549073
 51
354.5822532922
  0
ARC
  5
49C
330
1F
100
AcDbEntity
  8
0
  6
Continuous
 62
     8
 48
3.0625
370
    15
100
AcDbCircle
 10
26.3490798476
 20
17.1370935348
 30
0.0
 40
0.0469056521814403
100
AcDbArc
 50
65.3117866352
 51
124.910689993
  0
ARC
  5
49D
330
1F
100
AcDbEntity
  8
0
  6
Continuous
 62
     8
 48
3.0625
370
    15
100
AcDbCircle
 10
26.2951463657
 20
17.1378607231
 30
0.0
 40
0.0464213680505149
100
AcDbArc
 50
54.299014805
 51
113.932171071
  0
LINE
  5
49E
330
1F
100
AcDbEntity
  8
0
  6
Continuous
 62
     8
 48
1.75
370
    15
100
AcDbLine
 10
25.7186039978
 20
10.3737946062
 30
0.0
 11
25.1677008964
 21
10.0632180276
 31
0.0
  0
ARC
  5
49F
330
1F
100
AcDbEntity
  8
0
  6
Continuous
 62
     8
 48
3.0625
370
    15
100
AcDbCircle
 10
28.4754164286
 20
9.3964464002
 30
0.0
 40
0.0462721202925623
100
AcDbArc
 50
304.5921511567
 51
6.1510922687
  0
LINE
  5
4A0
330
1F
100
AcDbEntity
  8
0
  6
Continuous
 62
     8
 48
1.75
370
    15
100
AcDbLine
 10
25.1800384878
 20
10.0458223206
 30
0.0
 11
25.7271010073
 21
10.3542337366
 31
0.0
  0
ARC
  5
4A1
330
1F
100
AcDbEntity
  8
0
  6
Continuous
 62
     8
 48
3.0625
370
    15
100
AcDbCircle
 10
26.2779458572
 20
14.4500644619
 30
0.0
 40
0.0978847641623193
100
AcDbArc
 50
234.30966462
 51
353.8693408934
  0
LWPOLYLINE
  5
4A2
330
1F
100
AcDbEntity
  8
0
  6
Continuous
 62
     8
 48
1.75
370
    15
100
AcDbPolyline
 90
       10
 70
   128
 43
0.0
 10
26.217112188
 20
14.7586376602
 10
26.2133408701
 20
14.7608769433
 10
26.1789641324
 20
14.77660943
 10
26.1460623924
 20
14.7832301123
 10
26.1160735863
 20
14.7804498953
 10
26.0903083741
 20
14.7683898203
 10
26.0698927712
 20
14.7475774811
 10
26.0557190307
 20
14.7189222607
 10
26.0484067099
 20
14.6836764608
 10
26.0478874322
 20
14.6773480289
  0
ARC
  5
4A3
330
1F
100
AcDbEntity
  8
0
  6
Continuous
 62
     8
 48
3.0625
370
    15
100
AcDbCircle
 10
24.519683093
 20
15.4705743512
 30
0.0
 40
0.0978846008280178
100
AcDbArc
 50
234.309573803
 51
353.8694972538
  0
LWPOLYLINE
  5
4A4
330
1F
100
AcDbEntity
  8
0
  6
Continuous
 62
     8
 48
1.75
370
    15
100
AcDbPolyline
 90
       10
 70
   128
 43
0.0
 10
24.4588492899
 20
15.7791478326
 10
24.455077972
 20
15.7813871156
 10
24.4207012858
 20
15.7971195724
 10
24.3877995975
 20
15.8037402247
 10
24.3578107398
 20
15.8009600377
 10
24.3320455275
 20
15.7888999627
 10
24.3116298731
 20
15.7680876534
 10
24.2974562358
 20
15.7394323731
 10
24.290143915
 20
15.7041865732
 10
24.2896246373
 20
15.6978581414
  0
ARC
  5
4A5
330
1F
100
AcDbEntity
  8
0
  6
Continuous
 62
     8
 48
3.0625
370
    15
100
AcDbCircle
 10
26.2585552125
 20
8.503493242
 30
0.0
 40
0.0978847308142671
100
AcDbArc
 50
234.3096143428
 51
353.8692426031
  0
LWPOLYLINE
  5
4A6
330
1F
100
AcDbEntity
  8
0
  6
Continuous
 62
     8
 48
1.75
370
    15
100
AcDbPolyline
 90
       10
 70
   128
 43
0.0
 10
26.1977214929
 20
8.8120665176
 10
26.1939501743
 20
8.81430556
 10
26.1595734365
 20
8.8300380467
 10
26.1266716974
 20
8.8366589696
 10
26.0966828905
 20
8.833878512
 10
26.070917679
 20
8.8218186776
 10
26.0505020762
 20
8.8010063384
 10
26.0363283349
 20
8.7723508774
 10
26.0290160141
 20
8.7371050775
 10
26.0284967364
 20
8.7307766457
  0
ARC
  5
4A7
330
1F
100
AcDbEntity
  8
0
  6
Continuous
 62
     8
 48
3.0625
370
    15
100
AcDbCircle
 10
24.5002924483
 20
9.5240031313
 30
0.0
 40
0.097884567479938
100
AcDbArc
 50
234.3095235259
 51
353.8693989633
  0
LWPOLYLINE
  5
4A8
330
1F
100
AcDbEntity
  8
0
  6
Continuous
 62
     8
 48
1.75
370
    15
100
AcDbPolyline
 90
       10
 70
   128
 43
0.0
 10
24.4394585948
 20
9.8325766899
 10
24.4356872762
 20
9.8348157324
 10
24.40131059
 20
9.8505481891
 10
24.3684089024
 20
9.8571690821
 10
24.338420044
 20
9.8543886545
 10
24.3126548325
 20
9.8423288201
 10
24.2922391781
 20
9.8215165108
 10
24.2780655399
 20
9.7928609899
 10
24.2707532191
 20
9.75761519
 10
24.2702339415
 20
9.7512867582
  0
LWPOLYLINE
  5
4A9
330
1F
100
AcDbEntity
  8
0
  6
Continuous
 62
     8
 48
1.75
370
    15
100
AcDbPolyline
 90
       15
 70
   128
 43
0.0
 10
24.3400781105
 20
15.7299782401
 10
24.3607841232
 20
15.7370861306
 10
24.3882729722
 20
15.7364182536
 10
24.4180689712
 20
15.7262944287
 10
24.4484406758
 20
15.7073025849
 10
24.4776228263
 20
15.6805470807
 10
24.5039195808
 20
15.6475825197
 10
24.5258025586
 20
15.6103247859
 10
24.5420000754
 20
15.570939229
 10
24.5515707796
 20
15.5317145229
 10
24.5539584079
 20
15.494930608
 10
24.5490242645
 20
15.4627248598
 10
24.5370550879
 20
15.4369691673
 10
24.5187464687
 20
15.4191604791
 10
24.5154859784
 20
15.4172293675
  0
LWPOLYLINE
  5
4AA
330
1F
100
AcDbEntity
  8
0
  6
Continuous
 62
     8
 48
1.75
370
    15
100
AcDbPolyline
 90
       15
 70
   128
 43
0.0
 10
26.098340957
 20
14.7094680977
 10
26.1190469697
 20
14.7165759882
 10
26.1465357672
 20
14.7159081411
 10
26.1763318693
 20
14.7057842563
 10
26.2067035223
 20
14.6867924425
 10
26.2358856728
 20
14.6600369383
 10
26.2621824274
 20
14.6270723773
 10
26.2840653535
 20
14.5898146734
 10
26.3002629219
 20
14.5504290866
 10
26.3098335745
 20
14.5112044104
 10
26.312221306
 20
14.4744204357
 10
26.3072871626
 20
14.4422146875
 10
26.2953179344
 20
14.4164590249
 10
26.2770092636
 20
14.3986503666
 10
26.273748825
 20
14.3967192251
  0
LWPOLYLINE
  5
4AB
330
1F
100
AcDbEntity
  8
0
  6
Continuous
 62
     8
 48
1.75
370
    15
100
AcDbPolyline
 90
       15
 70
   128
 43
0.0
 10
26.0788186684
 20
8.7628229181
 10
26.0948993763
 20
8.769066643
 10
26.1217731151
 20
8.7701900253
 10
26.151266307
 20
8.7618078095
 10
26.1816649021
 20
8.7444069531
 10
26.2112022015
 20
8.7189991225
 10
26.2381617488
 20
8.6870604928
 10
26.2609765767
 20
8.6504476278
 10
26.2783207768
 20
8.6112881686
 10
26.2891866071
 20
8.5718577378
 10
26.2929422464
 20
8.5344483117
 10
26.2893696957
 20
8.501233411
 10
26.278676465
 20
8.4741439263
 10
26.2614840388
 20
8.4547538059
 10
26.2546764921
 20
8.4503243945
  0
LWPOLYLINE
  5
4AC
330
1F
100
AcDbEntity
  8
0
  6
Continuous
 62
     8
 48
1.75
370
    15
100
AcDbPolyline
 90
       15
 70
   128
 43
0.0
 10
24.3206874146
 20
9.7834068568
 10
24.3413934282
 20
9.790514988
 10
24.3688822764
 20
9.7898468703
 10
24.3986782754
 20
9.7797230454
 10
24.4290499807
 20
9.7607314422
 10
24.4582321312
 20
9.7339759381
 10
24.4845288858
 20
9.7010113771
 10
24.5064118635
 20
9.6637536432
 10
24.5226093796
 20
9.6243678458
 10
24.5321800838
 20
9.5851431396
 10
24.5345677121
 20
9.5483592248
 10
24.5296335687
 20
9.5161534766
 10
24.5176643929
 20
9.4903980246
 10
24.4993557736
 20
9.4725893364
 10
24.4960952834
 20
9.4706582248
  0
CIRCLE
  5
4AD
330
1F
100
AcDbEntity
  8
0
  6
Continuous
 62
     7
 48
3.0625
370
    15
100
AcDbCircle
 10
8.4524492589
 20
12.2498298615
 30
0.0
 40
0.0939999999999998
  0
CIRCLE
  5
4AE
330
1F
100
AcDbEntity
  8
0
  6
Continuous
 62
     7
 48
3.0625
370
    15
100
AcDbCircle
 10
8.4524492589
 20
12.2498298615
 30
0.0
 40
0.1560000000000004
  0
CIRCLE
  5
4AF
330
1F
100
AcDbEntity
  8
0
  6
Continuous
 62
     7
 48
3.0625
370
    15
100
AcDbCircle
 10
10.9524492589
 20
12.2498298615
 30
0.0
 40
0.0940000000000008
  0
CIRCLE
  5
4B0
330
1F
100
AcDbEntity
  8
0
  6
Continuous
 62
     7
 48
3.0625
370
    15
100
AcDbCircle
 10
10.9524492589
 20
12.2498298615
 30
0.0
 40
0.1559999999999979
  0
CIRCLE
  5
4B1
330
1F
100
AcDbEntity
  8
0
  6
Continuous
 62
     7
 48
3.0625
370
    15
100
AcDbCircle
 10
10.9524492589
 20
4.9998298615
 30
0.0
 40
0.0939999999999998
  0
CIRCLE
  5
4B2
330
1F
100
AcDbEntity
  8
0
  6
Continuous
 62
     7
 48
3.0625
370
    15
100
AcDbCircle
 10
10.9524492589
 20
4.9998298615
 30
0.0
 40
0.1560000000000004
  0
CIRCLE
  5
4B3
330
1F
100
AcDbEntity
  8
0
  6
Continuous
 62
     7
 48
3.0625
370
    15
100
AcDbCircle
 10
8.4524492589
 20
4.9998298615
 30
0.0
 40
0.0940000000000003
  0
CIRCLE
  5
4B4
330
1F
100
AcDbEntity
  8
0
  6
Continuous
 62
     7
 48
3.0625
370
    15
100
AcDbCircle
 10
8.4524492589
 20
4.9998298615
 30
0.0
 40
0.1559999999999999
  0
LINE
  5
4B5
330
1F
100
AcDbEntity
  8
0
  6
Continuous
 62
     7
 48
1.75
370
    15
100
AcDbLine
 10
11.0774492148
 20
11.936830001
 30
0.0
 11
8.327449303
 21
11.936830001
 31
0.0
  0
LINE
  5
4B6
330
1F
100
AcDbEntity
  8
0
  6
Continuous
 62
     7
 48
1.75
370
    15
100
AcDbLine
 10
8.327449303
 20
11.936830001
 30
0.0
 11
8.327449303
 21
5.312829722
 31
0.0
  0
LINE
  5
4B7
330
1F
100
AcDbEntity
  8
0
  6
Continuous
 62
     7
 48
1.75
370
    15
100
AcDbLine
 10
8.327449303
 20
5.312829722
 30
0.0
 11
11.0774492148
 21
5.312829722
 31
0.0
  0
LINE
  5
4B8
330
1F
100
AcDbEntity
  8
0
  6
Continuous
 62
     7
 48
1.75
370
    15
100
AcDbLine
 10
11.0774492148
 20
5.312829722
 30
0.0
 11
11.0774492148
 21
11.936830001
 31
0.0
  0
LINE
  5
4B9
330
1F
100
AcDbEntity
  8
0
  6
Continuous
 62
     7
 48
1.75
370
    15
100
AcDbLine
 10
11.3274491935
 20
12.5318298475
 30
0.0
 11
11.3274491935
 21
4.7178298755
 31
0.0
  0
LINE
  5
4BA
330
1F
100
AcDbEntity
  8
0
  6
Continuous
 62
     7
 48
1.75
370
    15
100
AcDbLine
 10
8.0774493244
 20
4.7178298755
 30
0.0
 11
8.0774493244
 21
12.5318298475
 31
0.0
  0
LINE
  5
4BB
330
1F
100
AcDbEntity
  8
0
  6
Continuous
 62
     7
 48
1.75
370
    15
100
AcDbLine
 10
11.2344492278
 20
4.6248299098
 30
0.0
 11
8.1704492901
 21
4.6248299098
 31
0.0
  0
ARC
  5
4BC
330
1F
100
AcDbEntity
  8
0
  6
Continuous
 62
     7
 48
3.0625
370
    15
100
AcDbCircle
 10
11.2344492589
 20
4.7178298615
 30
0.0
 40
0.0930000000000009
100
AcDbArc
 50
270.0
 51
0.0
  0
ARC
  5
4BD
330
1F
100
AcDbEntity
  8
0
  6
Continuous
 62
     7
 48
3.0625
370
    15
100
AcDbCircle
 10
11.2344492589
 20
12.5318298615
 30
0.0
 40
0.093
100
AcDbArc
 50
360.0
 51
90.0
  0
ARC
  5
4BE
330
1F
100
AcDbEntity
  8
0
  6
Continuous
 62
     7
 48
3.0625
370
    15
100
AcDbCircle
 10
8.1704492589
 20
4.7178298615
 30
0.0
 40
0.0930000000000009
100
AcDbArc
 50
180.0
 51
270.0
  0
ARC
  5
4BF
330
1F
100
AcDbEntity
  8
0
  6
Continuous
 62
     7
 48
3.0625
370
    15
100
AcDbCircle
 10
8.1704492589
 20
12.5318298615
 30
0.0
 40
0.0929999999999964
100
AcDbArc
 50
90.0
 51
180.0
  0
LINE
  5
4C0
330
1F
100
AcDbEntity
  8
0
  6
Continuous
 62
     7
 48
1.75
370
    15
100
AcDbLine
 10
8.1704492901
 20
12.6248298131
 30
0.0
 11
11.2344492278
 21
12.6248298131
 31
0.0
  0
CIRCLE
  5
4C1
330
1F
100
AcDbEntity
  8
0
  6
Continuous
 62
     7
 48
3.0625
370
    15
100
AcDbCircle
 10
10.5774492589
 20
5.8748298615
 30
0.0
 40
0.0984251968503935
  0
CIRCLE
  5
4C2
330
1F
100
AcDbEntity
  8
0
  6
Continuous
 62
     7
 48
3.0625
370
    15
100
AcDbCircle
 10
10.5774492589
 20
5.8748298615
 30
0.0
 40
0.1771653543307092
  0
CIRCLE
  5
4C3
330
1F
100
AcDbEntity
  8
0
  6
Continuous
 62
     7
 48
3.0625
370
    15
100
AcDbCircle
 10
10.5774492589
 20
5.8748298615
 30
0.0
 40
0.2027559055118111
  0
CIRCLE
  5
4C4
330
1F
100
AcDbEntity
  8
0
  6
Continuous
 62
     7
 48
3.0625
370
    15
100
AcDbCircle
 10
10.9524492589
 20
12.2498298615
 30
0.0
 40
0.1968503937007875
  0
CIRCLE
  5
4C5
330
1F
100
AcDbEntity
  8
0
  6
Continuous
 62
     7
 48
3.0625
370
    15
100
AcDbCircle
 10
8.4524492589
 20
4.9998298615
 30
0.0
 40
0.1968503937007875
  0
CIRCLE
  5
4C6
330
1F
100
AcDbEntity
  8
0
  6
Continuous
 62
     7
 48
3.0625
370
    15
100
AcDbCircle
 10
8.4524492589
 20
12.2498298615
 30
0.0
 40
0.1968503937007875
  0
CIRCLE
  5
4C7
330
1F
100
AcDbEntity
  8
0
  6
Continuous
 62
     7
 48
3.0625
370
    15
100
AcDbCircle
 10
10.9524492589
 20
4.9998298615
 30
0.0
 40
0.1968503937007876
  0
ARC
  5
4C8
330
1F
100
AcDbEntity
  8
0
  6
Continuous
 62
     7
 48
3.0625
370
    15
100
AcDbCircle
 10
8.5149492589
 20
4.4058298615
 30
0.0
 40
0.1095000000000006
100
AcDbArc
 50
0.0
 51
180.0
  0
LINE
  5
4C9
330
1F
100
AcDbEntity
  8
0
  6
Continuous
 62
     7
 48
1.75
370
    15
100
AcDbLine
 10
8.4054492553
 20
4.343829796
 30
0.0
 11
8.4054492553
 21
4.4058297731
 31
0.0
  0
ARC
  5
4CA
330
1F
100
AcDbEntity
  8
0
  6
Continuous
 62
     7
 48
3.0625
370
    15
100
AcDbCircle
 10
8.5149492589
 20
4.3438298615
 30
0.0
 40
0.1095000000000006
100
AcDbArc
 50
180.0
 51
0.0
  0
LINE
  5
4CB
330
1F
100
AcDbEntity
  8
0
  6
Continuous
 62
     7
 48
1.75
370
    15
100
AcDbLine
 10
8.6244492454
 20
4.4058297731
 30
0.0
 11
8.6244492454
 21
4.343829796
 31
0.0
  0
ARC
  5
4CC
330
1F
100
AcDbEntity
  8
0
  6
Continuous
 62
     7
 48
3.0625
370
    15
100
AcDbCircle
 10
8.4524492589
 20
4.3748298615
 30
0.0
 40
0.25
100
AcDbArc
 50
180.0
 51
270.0
  0
LINE
  5
4CD
330
1F
100
AcDbEntity
  8
0
  6
Continuous
 62
     7
 48
1.75
370
    15
100
AcDbLine
 10
8.2024492404
 20
4.3748297845
 30
0.0
 11
8.2024492404
 21
4.6248299098
 31
0.0
  0
ARC
  5
4CE
330
1F
100
AcDbEntity
  8
0
  6
Continuous
 62
     7
 48
3.0625
370
    15
100
AcDbCircle
 10
10.8899492589
 20
4.3438298615
 30
0.0
 40
0.1095000000000006
100
AcDbArc
 50
180.0
 51
0.0
  0
LINE
  5
4CF
330
1F
100
AcDbEntity
  8
0
  6
Continuous
 62
     7
 48
1.75
370
    15
100
AcDbLine
 10
10.9994492625
 20
4.343829796
 30
0.0
 11
10.9994492625
 21
4.4058297731
 31
0.0
  0
ARC
  5
4D0
330
1F
100
AcDbEntity
  8
0
  6
Continuous
 62
     7
 48
3.0625
370
    15
100
AcDbCircle
 10
10.8899492589
 20
4.4058298615
 30
0.0
 40
0.1095000000000006
100
AcDbArc
 50
0.0
 51
180.0
  0
LINE
  5
4D1
330
1F
100
AcDbEntity
  8
0
  6
Continuous
 62
     7
 48
1.75
370
    15
100
AcDbLine
 10
10.7804492724
 20
4.4058297731
 30
0.0
 11
10.7804492724
 21
4.343829796
 31
0.0
  0
LINE
  5
4D2
330
1F
100
AcDbEntity
  8
0
  6
Continuous
 62
     7
 48
1.75
370
    15
100
AcDbLine
 10
8.452449219
 20
4.1248299525
 30
0.0
 11
10.9524492988
 21
4.1248299525
 31
0.0
  0
ARC
  5
4D3
330
1F
100
AcDbEntity
  8
0
  6
Continuous
 62
     7
 48
3.0625
370
    15
100
AcDbCircle
 10
10.9524492589
 20
4.3748298615
 30
0.0
 40
0.2500000000000009
100
AcDbArc
 50
270.0
 51
0.0
  0
LINE
  5
4D4
330
1F
100
AcDbEntity
  8
0
  6
Continuous
 62
     7
 48
1.75
370
    15
100
AcDbLine
 10
11.2024492775
 20
4.3748297845
 30
0.0
 11
11.2024492775
 21
4.6248299098
 31
0.0
  0
ARC
  5
4D5
330
1F
100
AcDbEntity
  8
0
  6
Continuous
 62
     7
 48
3.0625
370
    15
100
AcDbCircle
 10
10.8899492589
 20
12.8438298615
 30
0.0
 40
0.1095000000000006
100
AcDbArc
 50
180.0
 51
0.0
  0
ARC
  5
4D6
330
1F
100
AcDbEntity
  8
0
  6
Continuous
 62
     7
 48
3.0625
370
    15
100
AcDbCircle
 10
10.8899492589
 20
12.9058298615
 30
0.0
 40
0.1095000000000006
100
AcDbArc
 50
0.0
 51
180.0
  0
LINE
  5
4D7
330
1F
100
AcDbEntity
  8
0
  6
Continuous
 62
     7
 48
1.75
370
    15
100
AcDbLine
 10
10.7804492724
 20
12.8438299499
 30
0.0
 11
10.7804492724
 21
12.905829927
 31
0.0
  0
ARC
  5
4D8
330
1F
100
AcDbEntity
  8
0
  6
Continuous
 62
     7
 48
3.0625
370
    15
100
AcDbCircle
 10
10.9524492589
 20
12.8748298615
 30
0.0
 40
0.25
100
AcDbArc
 50
0.0
 51
90.0
  0
LINE
  5
4D9
330
1F
100
AcDbEntity
  8
0
  6
Continuous
 62
     7
 48
1.75
370
    15
100
AcDbLine
 10
11.2024492775
 20
12.8748299385
 30
0.0
 11
11.2024492775
 21
12.6248298131
 31
0.0
  0
ARC
  5
4DA
330
1F
100
AcDbEntity
  8
0
  6
Continuous
 62
     7
 48
3.0625
370
    15
100
AcDbCircle
 10
8.5149492589
 20
12.9058298615
 30
0.0
 40
0.1095000000000006
100
AcDbArc
 50
0.0
 51
180.0
  0
LINE
  5
4DB
330
1F
100
AcDbEntity
  8
0
  6
Continuous
 62
     7
 48
1.75
370
    15
100
AcDbLine
 10
8.4054492553
 20
12.905829927
 30
0.0
 11
8.4054492553
 21
12.8438299499
 31
0.0
  0
LINE
  5
4DC
330
1F
100
AcDbEntity
  8
0
  6
Continuous
 62
     7
 48
1.75
370
    15
100
AcDbLine
 10
8.6244492454
 20
12.8438299499
 30
0.0
 11
8.6244492454
 21
12.905829927
 31
0.0
  0
LINE
  5
4DD
330
1F
100
AcDbEntity
  8
0
  6
Continuous
 62
     7
 48
1.75
370
    15
100
AcDbLine
 10
10.9994492625
 20
12.905829927
 30
0.0
 11
10.9994492625
 21
12.8438299499
 31
0.0
  0
LINE
  5
4DE
330
1F
100
AcDbEntity
  8
0
  6
Continuous
 62
     7
 48
1.75
370
    15
100
AcDbLine
 10
10.9524492988
 20
13.1248297704
 30
0.0
 11
8.452449219
 21
13.1248297704
 31
0.0
  0
ARC
  5
4DF
330
1F
100
AcDbEntity
  8
0
  6
Continuous
 62
     7
 48
3.0625
370
    15
100
AcDbCircle
 10
8.4524492589
 20
12.8748298615
 30
0.0
 40
0.2500000000000018
100
AcDbArc
 50
90.0
 51
180.0
  0
LINE
  5
4E0
330
1F
100
AcDbEntity
  8
0
  6
Continuous
 62
     7
 48
1.75
370
    15
100
AcDbLine
 10
8.2024492404
 20
12.8748299385
 30
0.0
 11
8.2024492404
 21
12.6248298131
 31
0.0
  0
ARC
  5
4E1
330
1F
100
AcDbEntity
  8
0
  6
Continuous
 62
     7
 48
3.0625
370
    15
100
AcDbCircle
 10
8.5149492589
 20
12.8438298615
 30
0.0
 40
0.1095000000000006
100
AcDbArc
 50
180.0
 51
0.0
  0
DIMENSION
  5
4E2
330
1F
100
AcDbEntity
  8
0
  6
Continuous
 62
     7
 48
1.75
370
     0
100
AcDbDimension
  2
*D18
 10
11.3274492589
 20
13.8138062394
 30
0.0
 11
9.7024492589
 21
13.8138062394
 31
0.0
 70
   160
 71
     2
 42
-1.0
  3
SLDDIMSTYLE1
100
AcDbAlignedDimension
 13
8.0774492589
 23
12.5318298615
 33
0.0
 14
11.3274492589
 24
12.5318298615
 34
0.0
100
AcDbRotatedDimension
  0
DIMENSION
  5
4F4
330
1F
100
AcDbEntity
  8
0
  6
Continuous
 62
     7
 48
1.75
370
     0
100
AcDbDimension
  2
*D19
 10
12.040721469
 20
4.6248298615
 30
0.0
 11
12.040721469
 21
8.6248298615
 31
0.0
 70
   160
 71
     2
 42
-1.0
  3
SLDDIMSTYLE0
100
AcDbAlignedDimension
 13
11.2344492589
 23
12.6248298615
 33
0.0
 14
11.2344492589
 24
4.6248298615
 34
0.0
 50
90.0
100
AcDbRotatedDimension
  0
INSERT
  5
50F
102
{ACAD_REACTORS
330
510
102
}
330
1F
100
AcDbEntity
  8
0
  6
Continuous
 62
     7
 48
1.75
370
     0
100
AcDbBlockReference
  2
SW_NOTE_6
 10
8.4184080803
 20
2.6756323161
 30
0.0
  0
LEADER
  5
510
330
1F
100
AcDbEntity
  8
0
  6
Continuous
 62
     7
 48
1.75
370
     0
100
AcDbLeader
  3
SLDDIMSTYLE4
 73
     2
 76
     3
 10
10.4908500352
 20
5.7202719848
 30
0.0
 10
7.9809080803
 20
2.6756323161
 30
0.0
 10
8.4184080803
 20
2.6756323161
 30
0.0
340
50F
  0
INSERT
  5
516
330
1F
100
AcDbEntity
  8
0
  6
Continuous
 62
     7
 48
1.75
370
     0
100
AcDbBlockReference
  2
SW_NOTE_7
 10
9.2281334796
 20
3.4123971329
 30
0.0
  0
ARC
  5
517
330
1F
100
AcDbEntity
  8
0
  6
Continuous
 62
     7
 48
3.0625
370
    15
100
AcDbCircle
 10
6.0900402157
 20
14.3714537579
 30
0.0
 40
0.0150000000000006
100
AcDbArc
 50
270.0
 51
0.0
  0
ARC
  5
518
330
1F
100
AcDbEntity
  8
0
  6
Continuous
 62
     7
 48
3.0625
370
    15
100
AcDbCircle
 10
5.6200402157
 20
14.3714537579
 30
0.0
 40
0.0150000000000006
100
AcDbArc
 50
180.0
 51
270.0
  0
ARC
  5
519
330
1F
100
AcDbEntity
  8
0
  6
Continuous
 62
     7
 48
3.0625
370
    15
100
AcDbCircle
 10
6.0900402157
 20
14.4114537579
 30
0.0
 40
0.0150000000000006
100
AcDbArc
 50
0.0
 51
90.0
  0
ARC
  5
51A
330
1F
100
AcDbEntity
  8
0
  6
Continuous
 62
     7
 48
3.0625
370
    15
100
AcDbCircle
 10
5.6200402157
 20
14.4114537579
 30
0.0
 40
0.0150000000000006
100
AcDbArc
 50
90.0
 51
180.0
  0
LINE
  5
51B
330
1F
100
AcDbEntity
  8
0
  6
Continuous
 62
     7
 48
1.75
370
    15
100
AcDbLine
 10
5.6050402036
 20
14.411453889
 30
0.0
 11
5.6050402036
 21
14.3714536578
 31
0.0
  0
LINE
  5
51C
330
1F
100
AcDbEntity
  8
0
  6
Continuous
 62
     7
 48
1.75
370
    15
100
AcDbLine
 10
6.1050402343
 20
14.3714536578
 30
0.0
 11
6.1050402343
 21
14.411453889
 31
0.0
  0
ARC
  5
51D
330
1F
100
AcDbEntity
  8
0
  6
Continuous
 62
     7
 48
3.0625
370
    15
100
AcDbCircle
 10
3.5900402157
 20
14.4114537579
 30
0.0
 40
0.0150000000000001
100
AcDbArc
 50
0.0
 51
90.0
  0
ARC
  5
51E
330
1F
100
AcDbEntity
  8
0
  6
Continuous
 62
     7
 48
3.0625
370
    15
100
AcDbCircle
 10
3.1200402157
 20
14.4114537579
 30
0.0
 40
0.0149999999999997
100
AcDbArc
 50
90.0
 51
180.0
  0
ARC
  5
51F
330
1F
100
AcDbEntity
  8
0
  6
Continuous
 62
     7
 48
3.0625
370
    15
100
AcDbCircle
 10
3.5900402157
 20
14.3714537579
 30
0.0
 40
0.0150000000000001
100
AcDbArc
 50
270.0
 51
0.0
  0
ARC
  5
520
330
1F
100
AcDbEntity
  8
0
  6
Continuous
 62
     7
 48
3.0625
370
    15
100
AcDbCircle
 10
3.1200402157
 20
14.3714537579
 30
0.0
 40
0.0149999999999997
100
AcDbArc
 50
180.0
 51
270.0
  0
LINE
  5
521
330
1F
100
AcDbEntity
  8
0
  6
Continuous
 62
     7
 48
1.75
370
    15
100
AcDbLine
 10
3.1050401972
 20
14.411453889
 30
0.0
 11
3.1050401972
 21
14.3714536578
 31
0.0
  0
LINE
  5
522
330
1F
100
AcDbEntity
  8
0
  6
Continuous
 62
     7
 48
1.75
370
    15
100
AcDbLine
 10
3.6050402278
 20
14.3714536578
 30
0.0
 11
3.6050402278
 21
14.411453889
 31
0.0
  0
LINE
  5
523
330
1F
100
AcDbEntity
  8
0
  6
Continuous
 62
     7
 48
1.75
370
    15
100
AcDbLine
 10
3.1450402818
 20
14.3564536444
 30
0.0
 11
3.1479266484
 21
14.3234616522
 31
0.0
  0
LINE
  5
524
330
1F
100
AcDbEntity
  8
0
  6
Continuous
 62
     7
 48
1.75
370
    15
100
AcDbLine
 10
3.5621537766
 20
14.3234616522
 30
0.0
 11
3.5650402166
 21
14.3564536444
 31
0.0
  0
ARC
  5
525
330
1F
100
AcDbEntity
  8
0
  6
Continuous
 62
     7
 48
3.0625
370
    15
100
AcDbCircle
 10
3.4555913968
 20
14.3192096634
 30
0.0
 40
0.0787401574803153
100
AcDbArc
 50
270.0
 51
0.0
  0
ARC
  5
526
330
1F
100
AcDbEntity
  8
0
  6
Continuous
 62
     7
 48
3.0625
370
    15
100
AcDbCircle
 10
3.2544890346
 20
14.3192096634
 30
0.0
 40
0.0787401574803153
100
AcDbArc
 50
180.0
 51
270.0
  0
LINE
  5
527
330
1F
100
AcDbEntity
  8
0
  6
Continuous
 62
     7
 48
1.75
370
    15
100
AcDbLine
 10
3.175748847
 20
14.3234616522
 30
0.0
 11
3.175748847
 21
14.3192095413
 31
0.0
  0
LINE
  5
528
330
1F
100
AcDbEntity
  8
0
  6
Continuous
 62
     7
 48
1.75
370
    15
100
AcDbLine
 10
3.534331578
 20
14.3192095413
 30
0.0
 11
3.534331578
 21
14.3234616522
 31
0.0
  0
LINE
  5
529
330
1F
100
AcDbEntity
  8
0
  6
Continuous
 62
     7
 48
1.75
370
    15
100
AcDbLine
 10
5.6450402149
 20
14.3564536444
 30
0.0
 11
5.6479266549
 21
14.3234616522
 31
0.0
  0
LINE
  5
52A
330
1F
100
AcDbEntity
  8
0
  6
Continuous
 62
     7
 48
1.75
370
    15
100
AcDbLine
 10
6.062153783
 20
14.3234616522
 30
0.0
 11
6.0650401497
 21
14.3564536444
 31
0.0
  0
LINE
  5
52B
330
1F
100
AcDbEntity
  8
0
  6
Continuous
 62
     7
 48
1.75
370
    15
100
AcDbLine
 10
5.6757488535
 20
14.3234616522
 30
0.0
 11
5.6757488535
 21
14.3192095413
 31
0.0
  0
LINE
  5
52C
330
1F
100
AcDbEntity
  8
0
  6
Continuous
 62
     7
 48
1.75
370
    15
100
AcDbLine
 10
6.0343315844
 20
14.3192095413
 30
0.0
 11
6.0343315844
 21
14.3234616522
 31
0.0
  0
ARC
  5
52D
330
1F
100
AcDbEntity
  8
0
  6
Continuous
 62
     7
 48
3.0625
370
    15
100
AcDbCircle
 10
5.9555913968
 20
14.3192096634
 30
0.0
 40
0.0787401574803148
100
AcDbArc
 50
270.0
 51
0.0
  0
ARC
  5
52E
330
1F
100
AcDbEntity
  8
0
  6
Continuous
 62
     7
 48
3.0625
370
    15
100
AcDbCircle
 10
5.7544890346
 20
14.3192096634
 30
0.0
 40
0.0787401574803148
100
AcDbArc
 50
180.0
 51
270.0
  0
LINE
  5
52F
330
1F
100
AcDbEntity
  8
0
  6
Continuous
 62
     7
 48
1.75
370
    15
100
AcDbLine
 10
2.8550402185
 20
14.5194538681
 30
0.0
 11
2.8550402185
 21
14.926453713
 31
0.0
  0
LINE
  5
530
330
1F
100
AcDbEntity
  8
0
  6
Continuous
 62
     7
 48
1.75
370
    15
100
AcDbLine
 10
2.8550402185
 20
14.926453713
 30
0.0
 11
2.9480401842
 21
14.926453713
 31
0.0
  0
LINE
  5
531
330
1F
100
AcDbEntity
  8
0
  6
Continuous
 62
     7
 48
1.75
370
    15
100
AcDbLine
 10
6.2620402473
 20
14.926453713
 30
0.0
 11
2.9480401842
 21
14.926453713
 31
0.0
  0
ARC
  5
532
330
1F
100
AcDbEntity
  8
0
  6
Continuous
 62
     7
 48
3.0625
370
    15
100
AcDbCircle
 10
2.9480402157
 20
14.5194537579
 30
0.0
 40
0.0930000000000017
100
AcDbArc
 50
180.0
 51
270.0
  0
LINE
  5
533
330
1F
100
AcDbEntity
  8
0
  6
Continuous
 62
     7
 48
1.75
370
    15
100
AcDbLine
 10
2.9480401842
 20
14.4264539024
 30
0.0
 11
6.2620402473
 21
14.4264539024
 31
0.0
  0
LINE
  5
534
330
1F
100
AcDbEntity
  8
0
  6
Continuous
 62
     7
 48
1.75
370
    15
100
AcDbLine
 10
6.3550402129
 20
14.926453713
 30
0.0
 11
6.3550402129
 21
14.5194538681
 31
0.0
  0
LINE
  5
535
330
1F
100
AcDbEntity
  8
0
  6
Continuous
 62
     7
 48
1.75
370
    15
100
AcDbLine
 10
6.2620402473
 20
14.926453713
 30
0.0
 11
6.3550402129
 21
14.926453713
 31
0.0
  0
ARC
  5
536
330
1F
100
AcDbEntity
  8
0
  6
Continuous
 62
     7
 48
3.0625
370
    15
100
AcDbCircle
 10
6.2620402157
 20
14.5194537579
 30
0.0
 40
0.0930000000000009
100
AcDbArc
 50
270.0
 51
0.0
  0
LINE
  5
537
330
1F
100
AcDbEntity
  8
0
  6
Continuous
 62
     7
 48
1.75
370
    15
100
AcDbLine
 10
2.9800402812
 20
14.926453713
 30
0.0
 11
2.9800402812
 21
17.2614537556
 31
0.0
  0
LINE
  5
538
330
1F
100
AcDbEntity
  8
0
  6
Continuous
 62
     7
 48
1.75
370
    15
100
AcDbLine
 10
6.2300401503
 20
17.2614537556
 30
0.0
 11
6.2300401503
 21
14.926453713
 31
0.0
  0
ARC
  5
539
330
1F
100
AcDbEntity
  8
0
  6
Continuous
 62
     7
 48
3.0625
370
    15
100
AcDbCircle
 10
6.1370402157
 20
17.2614537579
 30
0.0
 40
0.0930000000000035
100
AcDbArc
 50
0.0
 51
90.0
  0
ARC
  5
53A
330
1F
100
AcDbEntity
  8
0
  6
Continuous
 62
     7
 48
3.0625
370
    15
100
AcDbCircle
 10
3.0730402157
 20
17.2614537579
 30
0.0
 40
0.0930000000000035
100
AcDbArc
 50
90.0
 51
180.0
  0
LINE
  5
53B
330
1F
100
AcDbEntity
  8
0
  6
Continuous
 62
     7
 48
1.75
370
    15
100
AcDbLine
 10
6.1370401846
 20
17.3544537579
 30
0.0
 11
6.1050402343
 21
17.3544537579
 31
0.0
  0
LINE
  5
53C
330
1F
100
AcDbEntity
  8
0
  6
Continuous
 62
     7
 48
1.75
370
    15
100
AcDbLine
 10
3.1050401972
 20
17.3544537579
 30
0.0
 11
3.0730402469
 21
17.3544537579
 31
0.0
  0
LINE
  5
53D
330
1F
100
AcDbEntity
  8
0
  6
Continuous
 62
     7
 48
1.75
370
    15
100
AcDbLine
 10
6.0900402209
 20
14.3564536444
 30
0.0
 11
5.620040217
 21
14.3564536444
 31
0.0
  0
LINE
  5
53E
330
1F
100
AcDbEntity
  8
0
  6
Continuous
 62
     7
 48
1.75
370
    15
100
AcDbLine
 10
3.5900402144
 20
14.3564536444
 30
0.0
 11
3.1200402106
 21
14.3564536444
 31
0.0
  0
LINE
  5
53F
330
1F
100
AcDbEntity
  8
0
  6
Continuous
 62
     7
 48
1.75
370
    15
100
AcDbLine
 10
3.5621537766
 20
14.3234616522
 30
0.0
 11
3.1479266484
 21
14.3234616522
 31
0.0
  0
LINE
  5
540
330
1F
100
AcDbEntity
  8
0
  6
Continuous
 62
     7
 48
1.75
370
    15
100
AcDbLine
 10
3.4555914076
 20
14.2404695176
 30
0.0
 11
3.2544890174
 21
14.2404695176
 31
0.0
  0
LINE
  5
541
330
1F
100
AcDbEntity
  8
0
  6
Continuous
 62
     7
 48
1.75
370
    15
100
AcDbLine
 10
6.062153783
 20
14.3234616522
 30
0.0
 11
5.6479266549
 21
14.3234616522
 31
0.0
  0
LINE
  5
542
330
1F
100
AcDbEntity
  8
0
  6
Continuous
 62
     7
 48
1.75
370
    15
100
AcDbLine
 10
5.955591414
 20
14.2404695176
 30
0.0
 11
5.7544890239
 21
14.2404695176
 31
0.0
  0
LINE
  5
543
330
1F
100
AcDbEntity
  8
0
  6
Continuous
 62
     7
 48
1.75
370
    15
100
AcDbLine
 10
6.1050402343
 20
17.432453756
 30
0.0
 11
6.1050402343
 21
17.3544537579
 31
0.0
  0
LINE
  5
544
330
1F
100
AcDbEntity
  8
0
  6
Continuous
 62
     7
 48
1.75
370
    15
100
AcDbLine
 10
5.8550402556
 20
17.3544537579
 30
0.0
 11
6.1050402343
 21
17.3544537579
 31
0.0
  0
LINE
  5
545
330
1F
100
AcDbEntity
  8
0
  6
Continuous
 62
     7
 48
1.75
370
    15
100
AcDbLine
 10
5.8550402556
 20
17.432453756
 30
0.0
 11
6.1050402343
 21
17.432453756
 31
0.0
  0
LINE
  5
546
330
1F
100
AcDbEntity
  8
0
  6
Continuous
 62
     7
 48
1.75
370
    15
100
AcDbLine
 10
5.8550402556
 20
17.3544537579
 30
0.0
 11
3.3550401758
 21
17.3544537579
 31
0.0
  0
LINE
  5
547
330
1F
100
AcDbEntity
  8
0
  6
Continuous
 62
     7
 48
1.75
370
    15
100
AcDbLine
 10
5.8550402556
 20
17.432453756
 30
0.0
 11
3.3550401758
 21
17.432453756
 31
0.0
  0
LINE
  5
548
330
1F
100
AcDbEntity
  8
0
  6
Continuous
 62
     7
 48
1.75
370
    15
100
AcDbLine
 10
3.1050401972
 20
17.432453756
 30
0.0
 11
3.1050401972
 21
17.3544537579
 31
0.0
  0
LINE
  5
549
330
1F
100
AcDbEntity
  8
0
  6
Continuous
 62
     7
 48
1.75
370
    15
100
AcDbLine
 10
3.3550401758
 20
17.3544537579
 30
0.0
 11
3.1050401972
 21
17.3544537579
 31
0.0
  0
LINE
  5
54A
330
1F
100
AcDbEntity
  8
0
  6
Continuous
 62
     7
 48
1.75
370
    15
100
AcDbLine
 10
3.3550401758
 20
17.432453756
 30
0.0
 11
3.1050401972
 21
17.432453756
 31
0.0
  0
ENDSEC
  0
SECTION
  2
OBJECTS
  0
DICTIONARY
  5
C
330
0
100
AcDbDictionary
281
     1
  3
ACAD_GROUP
350
D
  3
ACAD_LAYOUT
350
1A
  3
ACAD_MATERIAL
350
3B
  3
ACAD_MLEADERSTYLE
350
54D
  3
ACAD_MLINESTYLE
350
17
  3
ACAD_PLOTSETTINGS
350
19
  3
ACAD_PLOTSTYLENAME
350
E
  3
ACAD_SCALELIST
350
55
  3
ACAD_VISUALSTYLE
350
2A
  3
AcDbVariableDictionary
350
54B
  0
DICTIONARY
  5
D
102
{ACAD_REACTORS
330
C
102
}
330
C
100
AcDbDictionary
281
     1
  0
DICTIONARY
  5
1A
102
{ACAD_REACTORS
330
C
102
}
330
C
100
AcDbDictionary
281
     1
  3
Layout1
350
1E
  3
Layout2
350
26
  3
Model
350
22
  0
DICTIONARY
  5
3B
102
{ACAD_REACTORS
330
C
102
}
330
C
100
AcDbDictionary
281
     1
  3
ByBlock
350
3D
  3
ByLayer
350
3C
  3
Global
350
3E
  0
DICTIONARY
  5
54D
102
{ACAD_REACTORS
330
C
102
}
330
C
100
AcDbDictionary
281
     1
  0
DICTIONARY
  5
17
102
{ACAD_REACTORS
330
C
102
}
330
C
100
AcDbDictionary
281
     1
  3
Standard
350
18
  0
DICTIONARY
  5
19
102
{ACAD_REACTORS
330
C
102
}
330
C
100
AcDbDictionary
281
     1
  0
ACDBDICTIONARYWDFLT
  5
E
102
{ACAD_REACTORS
330
C
102
}
330
C
100
AcDbDictionary
281
     1
  3
Normal
350
F
100
AcDbDictionaryWithDefault
340
F
  0
DICTIONARY
  5
55
102
{ACAD_REACTORS
330
C
102
}
330
C
100
AcDbDictionary
281
     1
  3
A0
350
56
  3
A1
350
57
  3
A2
350
58
  3
A3
350
59
  3
A4
350
5A
  3
A5
350
5B
  3
A6
350
5C
  3
A7
350
5D
  3
A8
350
5E
  3
A9
350
5F
  3
B0
350
60
  3
B1
350
61
  3
B2
350
62
  3
B3
350
63
  3
B4
350
64
  3
B5
350
65
  3
B6
350
66
  3
B7
350
67
  3
B8
350
68
  3
B9
350
69
  3
C0
350
6A
  3
C1
350
6B
  3
C2
350
6C
  3
C3
350
6D
  3
C4
350
6E
  3
C5
350
6F
  3
C6
350
70
  3
C7
350
71
  3
C8
350
72
  3
C9
350
73
  3
D0
350
74
  3
D1
350
75
  3
D2
350
76
  0
DICTIONARY
  5
2A
102
{ACAD_REACTORS
330
C
102
}
330
C
100
AcDbDictionary
281
     1
  3
2dWireframe
350
2F
  3
3D Hidden
350
31
  3
3dWireframe
350
30
  3
Basic
350
32
  3
Brighten
350
36
  3
ColorChange
350
3A
  3
Conceptual
350
34
  3
Dim
350
35
  3
Facepattern
350
39
  3
Flat
350
2B
  3
FlatWithEdges
350
2C
  3
Gouraud
350
2D
  3
GouraudWithEdges
350
2E
  3
Linepattern
350
38
  3
Realistic
350
33
  3
Thicken
350
37
  0
DICTIONARY
  5
54B
102
{ACAD_REACTORS
330
C
102
}
330
C
100
AcDbDictionary
281
     1
  3
CANNOSCALE
350
54E
  3
DIMASSOC
350
54F
  3
HIDETEXT
350
550
  0
LAYOUT
  5
1E
102
{ACAD_REACTORS
330
1A
102
}
330
1A
100
AcDbPlotSettings
  1

  2
none_device
  4

  6

 40
0.0
 41
0.0
 42
0.0
 43
0.0
 44
0.0
 45
0.0
 46
0.0
 47
0.0
 48
0.0
 49
0.0
140
0.0
141
0.0
142
1.0
143
1.0
 70
   688
 72
     0
 73
     0
 74
     5
  7

 75
    16
147
1.0
148
0.0
149
0.0
100
AcDbLayout
  1
Layout1
 70
     1
 71
     1
 10
0.0
 20
0.0
 11
12.0
 21
9.0
 12
0.0
 22
0.0
 32
0.0
 14
1.0000000000E+20
 24
1.0000000000E+20
 34
1.0000000000E+20
 15
-1.0000000000E+20
 25
-1.0000000000E+20
 35
-1.0000000000E+20
146
0.0
 13
0.0
 23
0.0
 33
0.0
 16
1.0
 26
0.0
 36
0.0
 17
0.0
 27
1.0
 37
0.0
 76
     0
330
1B
  0
LAYOUT
  5
26
102
{ACAD_REACTORS
330
1A
102
}
330
1A
100
AcDbPlotSettings
  1

  2
none_device
  4

  6

 40
0.0
 41
0.0
 42
0.0
 43
0.0
 44
0.0
 45
0.0
 46
0.0
 47
0.0
 48
0.0
 49
0.0
140
0.0
141
0.0
142
1.0
143
1.0
 70
   688
 72
     0
 73
     0
 74
     5
  7

 75
    16
147
1.0
148
0.0
149
0.0
100
AcDbLayout
  1
Layout2
 70
     1
 71
     2
 10
0.0
 20
0.0
 11
0.0
 21
0.0
 12
0.0
 22
0.0
 32
0.0
 14
0.0
 24
0.0
 34
0.0
 15
0.0
 25
0.0
 35
0.0
146
0.0
 13
0.0
 23
0.0
 33
0.0
 16
1.0
 26
0.0
 36
0.0
 17
0.0
 27
1.0
 37
0.0
 76
     0
330
23
  0
LAYOUT
  5
22
102
{ACAD_REACTORS
330
1A
102
}
330
1A
100
AcDbPlotSettings
  1

  2
none_device
  4

  6

 40
0.0
 41
0.0
 42
0.0
 43
0.0
 44
0.0
 45
0.0
 46
0.0
 47
0.0
 48
0.0
 49
0.0
140
0.0
141
0.0
142
1.0
143
1.0
 70
  1712
 72
     0
 73
     0
 74
     0
  7

 75
     0
147
1.0
148
0.0
149
0.0
100
AcDbLayout
  1
Model
 70
     1
 71
     0
 10
0.0
 20
0.0
 11
29.75
 21
19.25
 12
0.0
 22
0.0
 32
0.0
 14
0.0
 24
0.0
 34
0.0
 15
29.75
 25
19.25
 35
0.0
146
0.0
 13
0.0
 23
0.0
 33
0.0
 16
1.0
 26
0.0
 36
0.0
 17
0.0
 27
1.0
 37
0.0
 76
     0
330
1F
331
29
  0
MATERIAL
  5
3D
102
{ACAD_REACTORS
330
3B
102
}
102
{ACAD_XDICTIONARY
360
573
102
}
330
3B
100
AcDbMaterial
  1
ByBlock
  0
MATERIAL
  5
3C
102
{ACAD_REACTORS
330
3B
102
}
102
{ACAD_XDICTIONARY
360
571
102
}
330
3B
100
AcDbMaterial
  1
ByLayer
  0
MATERIAL
  5
3E
102
{ACAD_REACTORS
330
3B
102
}
102
{ACAD_XDICTIONARY
360
575
102
}
330
3B
100
AcDbMaterial
  1
Global
  0
MLINESTYLE
  5
18
102
{ACAD_REACTORS
330
17
102
}
330
17
100
AcDbMlineStyle
  2
Standard
 70
     0
  3

 62
   256
 51
90.0
 52
90.0
 71
     2
 49
0.5
 62
   256
  6
BYLAYER
 49
-0.5
 62
   256
  6
BYLAYER
  0
ACDBPLACEHOLDER
  5
F
102
{ACAD_REACTORS
330
E
102
}
330
E
  0
SCALE
  5
56
102
{ACAD_REACTORS
330
55
102
}
330
55
100
AcDbScale
 70
     0
300
1:1
140
1.0
141
1.0
290
     1
  0
SCALE
  5
57
102
{ACAD_REACTORS
330
55
102
}
330
55
100
AcDbScale
 70
     0
300
1:2
140
1.0
141
2.0
290
     0
  0
SCALE
  5
58
102
{ACAD_REACTORS
330
55
102
}
330
55
100
AcDbScale
 70
     0
300
1:4
140
1.0
141
4.0
290
     0
  0
SCALE
  5
59
102
{ACAD_REACTORS
330
55
102
}
330
55
100
AcDbScale
 70
     0
300
1:5
140
1.0
141
5.0
290
     0
  0
SCALE
  5
5A
102
{ACAD_REACTORS
330
55
102
}
330
55
100
AcDbScale
 70
     0
300
1:8
140
1.0
141
8.0
290
     0
  0
SCALE
  5
5B
102
{ACAD_REACTORS
330
55
102
}
330
55
100
AcDbScale
 70
     0
300
1:10
140
1.0
141
10.0
290
     0
  0
SCALE
  5
5C
102
{ACAD_REACTORS
330
55
102
}
330
55
100
AcDbScale
 70
     0
300
1:16
140
1.0
141
16.0
290
     0
  0
SCALE
  5
5D
102
{ACAD_REACTORS
330
55
102
}
330
55
100
AcDbScale
 70
     0
300
1:20
140
1.0
141
20.0
290
     0
  0
SCALE
  5
5E
102
{ACAD_REACTORS
330
55
102
}
330
55
100
AcDbScale
 70
     0
300
1:30
140
1.0
141
30.0
290
     0
  0
SCALE
  5
5F
102
{ACAD_REACTORS
330
55
102
}
330
55
100
AcDbScale
 70
     0
300
1:40
140
1.0
141
40.0
290
     0
  0
SCALE
  5
60
102
{ACAD_REACTORS
330
55
102
}
330
55
100
AcDbScale
 70
     0
300
1:50
140
1.0
141
50.0
290
     0
  0
SCALE
  5
61
102
{ACAD_REACTORS
330
55
102
}
330
55
100
AcDbScale
 70
     0
300
1:100
140
1.0
141
100.0
290
     0
  0
SCALE
  5
62
102
{ACAD_REACTORS
330
55
102
}
330
55
100
AcDbScale
 70
     0
300
2:1
140
2.0
141
1.0
290
     0
  0
SCALE
  5
63
102
{ACAD_REACTORS
330
55
102
}
330
55
100
AcDbScale
 70
     0
300
4:1
140
4.0
141
1.0
290
     0
  0
SCALE
  5
64
102
{ACAD_REACTORS
330
55
102
}
330
55
100
AcDbScale
 70
     0
300
8:1
140
8.0
141
1.0
290
     0
  0
SCALE
  5
65
102
{ACAD_REACTORS
330
55
102
}
330
55
100
AcDbScale
 70
     0
300
10:1
140
10.0
141
1.0
290
     0
  0
SCALE
  5
66
102
{ACAD_REACTORS
330
55
102
}
330
55
100
AcDbScale
 70
     0
300
100:1
140
100.0
141
1.0
290
     0
  0
SCALE
  5
67
102
{ACAD_REACTORS
330
55
102
}
330
55
100
AcDbScale
 70
     0
300
1/128" = 1'-0"
140
0.0078125
141
12.0
290
     0
  0
SCALE
  5
68
102
{ACAD_REACTORS
330
55
102
}
330
55
100
AcDbScale
 70
     0
300
1/64" = 1'-0"
140
0.015625
141
12.0
290
     0
  0
SCALE
  5
69
102
{ACAD_REACTORS
330
55
102
}
330
55
100
AcDbScale
 70
     0
300
1/32" = 1'-0"
140
0.03125
141
12.0
290
     0
  0
SCALE
  5
6A
102
{ACAD_REACTORS
330
55
102
}
330
55
100
AcDbScale
 70
     0
300
1/16" = 1'-0"
140
0.0625
141
12.0
290
     0
  0
SCALE
  5
6B
102
{ACAD_REACTORS
330
55
102
}
330
55
100
AcDbScale
 70
     0
300
3/32" = 1'-0"
140
0.09375
141
12.0
290
     0
  0
SCALE
  5
6C
102
{ACAD_REACTORS
330
55
102
}
330
55
100
AcDbScale
 70
     0
300
1/8" = 1'-0"
140
0.125
141
12.0
290
     0
  0
SCALE
  5
6D
102
{ACAD_REACTORS
330
55
102
}
330
55
100
AcDbScale
 70
     0
300
3/16" = 1'-0"
140
0.1875
141
12.0
290
     0
  0
SCALE
  5
6E
102
{ACAD_REACTORS
330
55
102
}
330
55
100
AcDbScale
 70
     0
300
1/4" = 1'-0"
140
0.25
141
12.0
290
     0
  0
SCALE
  5
6F
102
{ACAD_REACTORS
330
55
102
}
330
55
100
AcDbScale
 70
     0
300
3/8" = 1'-0"
140
0.375
141
12.0
290
     0
  0
SCALE
  5
70
102
{ACAD_REACTORS
330
55
102
}
330
55
100
AcDbScale
 70
     0
300
1/2" = 1'-0"
140
0.5
141
12.0
290
     0
  0
SCALE
  5
71
102
{ACAD_REACTORS
330
55
102
}
330
55
100
AcDbScale
 70
     0
300
3/4" = 1'-0"
140
0.75
141
12.0
290
     0
  0
SCALE
  5
72
102
{ACAD_REACTORS
330
55
102
}
330
55
100
AcDbScale
 70
     0
300
1" = 1'-0"
140
1.0
141
12.0
290
     0
  0
SCALE
  5
73
102
{ACAD_REACTORS
330
55
102
}
330
55
100
AcDbScale
 70
     0
300
1-1/2" = 1'-0"
140
1.5
141
12.0
290
     0
  0
SCALE
  5
74
102
{ACAD_REACTORS
330
55
102
}
330
55
100
AcDbScale
 70
     0
300
3" = 1'-0"
140
3.0
141
12.0
290
     0
  0
SCALE
  5
75
102
{ACAD_REACTORS
330
55
102
}
330
55
100
AcDbScale
 70
     0
300
6" = 1'-0"
140
6.0
141
12.0
290
     0
  0
SCALE
  5
76
102
{ACAD_REACTORS
330
55
102
}
330
55
100
AcDbScale
 70
     0
300
1'-0" = 1'-0"
140
12.0
141
12.0
290
     0
  0
VISUALSTYLE
  5
2F
102
{ACAD_REACTORS
330
2A
102
}
102
{ACAD_XDICTIONARY
360
559
102
}
330
2A
100
AcDbVisualStyle
  2
2dWireframe
 70
     4
 71
     0
 72
     2
 73
     0
 90
        0
 40
-0.6
 41
-30.0
 62
     5
 63
     7
 74
     1
 91
        4
 64
     7
 65
   257
 75
     1
175
     1
 42
1.0
 92
        0
 66
   257
 43
1.0
 76
     1
 77
     6
 78
     2
 67
     7
 79
     5
170
     0
171
     0
290
     0
174
     0
 93
        1
 44
0.0
173
     0
291
     0
 45
0.0
1001
ACAD
1000
AcDbSavedByObjectVersion
1070
     0
  0
VISUALSTYLE
  5
31
102
{ACAD_REACTORS
330
2A
102
}
102
{ACAD_XDICTIONARY
360
55D
102
}
330
2A
100
AcDbVisualStyle
  2
3D Hidden
 70
     6
 71
     1
 72
     2
 73
     2
 90
        0
 40
-0.6
 41
-30.0
 62
     5
 63
     7
 74
     2
 91
        2
 64
     7
 65
   257
 75
     2
175
     1
 42
40.0
 92
        0
 66
   257
 43
1.0
 76
     1
 77
     6
 78
     2
 67
     7
 79
     3
170
     0
171
     0
290
     0
174
     0
 93
        1
 44
0.0
173
     0
291
     0
 45
0.0
1001
ACAD
1000
AcDbSavedByObjectVersion
1070
     0
  0
VISUALSTYLE
  5
30
102
{ACAD_REACTORS
330
2A
102
}
102
{ACAD_XDICTIONARY
360
55B
102
}
330
2A
100
AcDbVisualStyle
  2
3dWireframe
 70
     5
 71
     0
 72
     2
 73
     0
 90
        0
 40
-0.6
 41
-30.0
 62
     5
 63
     7
 74
     1
 91
        4
 64
     7
 65
   257
 75
     1
175
     1
 42
1.0
 92
        0
 66
   257
 43
1.0
 76
     1
 77
     6
 78
     2
 67
     7
 79
     5
170
     0
171
     0
290
     0
174
     0
 93
        1
 44
0.0
173
     0
291
     0
 45
0.0
1001
ACAD
1000
AcDbSavedByObjectVersion
1070
     0
  0
VISUALSTYLE
  5
32
102
{ACAD_REACTORS
330
2A
102
}
102
{ACAD_XDICTIONARY
360
55F
102
}
330
2A
100
AcDbVisualStyle
  2
Basic
 70
     7
 71
     1
 72
     0
 73
     1
 90
        0
 40
-0.6
 41
-30.0
 62
     5
 63
     7
 74
     0
 91
        4
 64
     7
 65
   257
 75
     1
175
     1
 42
1.0
 92
        8
 66
     7
 43
1.0
 76
     1
 77
     6
 78
     2
 67
     7
 79
     5
170
     0
171
     0
290
     0
174
     0
 93
        1
 44
0.0
173
     0
291
     1
 45
0.0
1001
ACAD
1000
AcDbSavedByObjectVersion
1070
     0
  0
VISUALSTYLE
  5
36
102
{ACAD_REACTORS
330
2A
102
}
102
{ACAD_XDICTIONARY
360
567
102
}
330
2A
100
AcDbVisualStyle
  2
Brighten
 70
    12
 71
     2
 72
     2
 73
     0
 90
        0
 40
-0.6
 41
-30.0
 62
     5
 63
     7
 74
     1
 91
        4
 64
     7
 65
   257
 75
     1
175
     1
 42
1.0
 92
        8
 66
     7
 43
1.0
 76
     1
 77
     6
 78
     2
 67
     7
 79
     5
170
     0
171
     0
290
     0
174
     0
 93
        1
 44
50.0
173
     0
291
     1
 45
0.0
1001
ACAD
1000
AcDbSavedByObjectVersion
1070
     0
  0
VISUALSTYLE
  5
3A
102
{ACAD_REACTORS
330
2A
102
}
102
{ACAD_XDICTIONARY
360
56F
102
}
330
2A
100
AcDbVisualStyle
  2
ColorChange
 70
    16
 71
     2
 72
     2
 73
     3
 90
        0
 40
-0.6
 41
-30.0
 62
     5
 63
     8
 74
     1
 91
        4
 64
     7
 65
   257
 75
     1
175
     1
 42
1.0
 92
        8
 66
     8
 43
1.0
 76
     1
 77
     6
 78
     2
 67
     7
 79
     5
170
     0
171
     0
290
     0
174
     0
 93
        1
 44
0.0
173
     0
291
     1
 45
0.0
1001
ACAD
1000
AcDbSavedByObjectVersion
1070
     0
  0
VISUALSTYLE
  5
34
102
{ACAD_REACTORS
330
2A
102
}
102
{ACAD_XDICTIONARY
360
563
102
}
330
2A
100
AcDbVisualStyle
  2
Conceptual
 70
     9
 71
     3
 72
     2
 73
     0
 90
        0
 40
-0.6
 41
-30.0
 62
     5
 63
     7
 74
     2
 91
        2
 64
     7
 65
   257
 75
     1
175
     1
 42
40.0
 92
        8
 66
     7
 43
1.0
 76
     1
 77
     6
 78
     2
 67
     7
 79
     3
170
     0
171
     0
290
     0
174
     0
 93
        1
 44
0.0
173
     0
291
     0
 45
0.0
1001
ACAD
1000
AcDbSavedByObjectVersion
1070
     0
  0
VISUALSTYLE
  5
35
102
{ACAD_REACTORS
330
2A
102
}
102
{ACAD_XDICTIONARY
360
565
102
}
330
2A
100
AcDbVisualStyle
  2
Dim
 70
    11
 71
     2
 72
     2
 73
     0
 90
        0
 40
-0.6
 41
-30.0
 62
     5
 63
     7
 74
     1
 91
        4
 64
     7
 65
   257
 75
     1
175
     1
 42
1.0
 92
        8
 66
     7
 43
1.0
 76
     1
 77
     6
 78
     2
 67
     7
 79
     5
170
     0
171
     0
290
     0
174
     0
 93
        1
 44
-50.0
173
     0
291
     1
 45
0.0
1001
ACAD
1000
AcDbSavedByObjectVersion
1070
     0
  0
VISUALSTYLE
  5
39
102
{ACAD_REACTORS
330
2A
102
}
102
{ACAD_XDICTIONARY
360
56D
102
}
330
2A
100
AcDbVisualStyle
  2
Facepattern
 70
    15
 71
     2
 72
     2
 73
     0
 90
        0
 40
-0.6
 41
-30.0
 62
     5
 63
     7
 74
     1
 91
        4
 64
     7
 65
   257
 75
     1
175
     1
 42
1.0
 92
        8
 66
     7
 43
1.0
 76
     1
 77
     6
 78
     2
 67
     7
 79
     5
170
     0
171
     0
290
     0
174
     0
 93
        1
 44
0.0
173
     0
291
     1
 45
0.0
1001
ACAD
1000
AcDbSavedByObjectVersion
1070
     0
  0
VISUALSTYLE
  5
2B
102
{ACAD_REACTORS
330
2A
102
}
102
{ACAD_XDICTIONARY
360
551
102
}
330
2A
100
AcDbVisualStyle
  2
Flat
 70
     0
 71
     2
 72
     1
 73
     1
 90
        2
 40
-0.6
 41
30.0
 62
     5
 63
     7
 74
     0
 91
        4
 64
     7
 65
   257
 75
     1
175
     1
 42
1.0
 92
        8
 66
     7
 43
1.0
 76
     1
 77
     6
 78
     2
 67
     7
 79
     5
170
     0
171
     0
290
     0
174
     0
 93
       13
 44
0.0
173
     0
291
     1
 45
0.0
1001
ACAD
1000
AcDbSavedByObjectVersion
1070
     0
  0
VISUALSTYLE
  5
2C
102
{ACAD_REACTORS
330
2A
102
}
102
{ACAD_XDICTIONARY
360
553
102
}
330
2A
100
AcDbVisualStyle
  2
FlatWithEdges
 70
     1
 71
     2
 72
     1
 73
     1
 90
        2
 40
-0.6
 41
30.0
 62
     5
 63
     7
 74
     1
 91
        4
 64
     7
 65
   257
 75
     1
175
     1
 42
1.0
 92
        0
 66
   257
 43
1.0
 76
     1
 77
     6
 78
     2
 67
     7
 79
     5
170
     0
171
     0
290
     0
174
     0
 93
       13
 44
0.0
173
     0
291
     1
 45
0.0
1001
ACAD
1000
AcDbSavedByObjectVersion
1070
     0
  0
VISUALSTYLE
  5
2D
102
{ACAD_REACTORS
330
2A
102
}
102
{ACAD_XDICTIONARY
360
555
102
}
330
2A
100
AcDbVisualStyle
  2
Gouraud
 70
     2
 71
     2
 72
     2
 73
     1
 90
        2
 40
-0.6
 41
30.0
 62
     5
 63
     7
 74
     0
 91
        4
 64
     7
 65
   257
 75
     1
175
     1
 42
1.0
 92
        0
 66
     7
 43
1.0
 76
     1
 77
     6
 78
     2
 67
     7
 79
     5
170
     0
171
     0
290
     0
174
     0
 93
       13
 44
0.0
173
     0
291
     1
 45
0.0
1001
ACAD
1000
AcDbSavedByObjectVersion
1070
     0
  0
VISUALSTYLE
  5
2E
102
{ACAD_REACTORS
330
2A
102
}
102
{ACAD_XDICTIONARY
360
557
102
}
330
2A
100
AcDbVisualStyle
  2
GouraudWithEdges
 70
     3
 71
     2
 72
     2
 73
     1
 90
        2
 40
-0.6
 41
30.0
 62
     5
 63
     7
 74
     1
 91
        4
 64
     7
 65
   257
 75
     1
175
     1
 42
1.0
 92
        0
 66
   257
 43
1.0
 76
     1
 77
     6
 78
     2
 67
     7
 79
     5
170
     0
171
     0
290
     0
174
     0
 93
       13
 44
0.0
173
     0
291
     1
 45
0.0
1001
ACAD
1000
AcDbSavedByObjectVersion
1070
     0
  0
VISUALSTYLE
  5
38
102
{ACAD_REACTORS
330
2A
102
}
102
{ACAD_XDICTIONARY
360
56B
102
}
330
2A
100
AcDbVisualStyle
  2
Linepattern
 70
    14
 71
     2
 72
     2
 73
     0
 90
        0
 40
-0.6
 41
-30.0
 62
     5
 63
     7
 74
     1
 91
        4
 64
     7
 65
   257
 75
     7
175
     7
 42
1.0
 92
        8
 66
     7
 43
1.0
 76
     1
 77
     6
 78
     2
 67
     7
 79
     5
170
     0
171
     0
290
     0
174
     0
 93
        1
 44
0.0
173
     0
291
     1
 45
0.0
1001
ACAD
1000
AcDbSavedByObjectVersion
1070
     0
  0
VISUALSTYLE
  5
33
102
{ACAD_REACTORS
330
2A
102
}
102
{ACAD_XDICTIONARY
360
561
102
}
330
2A
100
AcDbVisualStyle
  2
Realistic
 70
     8
 71
     2
 72
     2
 73
     0
 90
        0
 40
-0.6
 41
-30.0
 62
     5
 63
     7
 74
     1
 91
        0
 64
     7
 65
   257
 75
     1
175
     1
 42
1.0
 92
        8
 66
     8
 43
1.0
 76
     1
 77
     6
 78
     2
 67
     7
 79
     5
170
     0
171
     0
290
     0
174
     0
 93
       13
 44
0.0
173
     0
291
     0
 45
0.0
1001
ACAD
1000
AcDbSavedByObjectVersion
1070
     0
  0
VISUALSTYLE
  5
37
102
{ACAD_REACTORS
330
2A
102
}
102
{ACAD_XDICTIONARY
360
569
102
}
330
2A
100
AcDbVisualStyle
  2
Thicken
 70
    13
 71
     2
 72
     2
 73
     0
 90
        0
 40
-0.6
 41
-30.0
 62
     5
 63
     7
 74
     1
 91
        4
 64
     7
 65
   257
 75
     1
175
     1
 42
1.0
 92
       12
 66
     7
 43
1.0
 76
     1
 77
     6
 78
     2
 67
     7
 79
     5
170
     0
171
     0
290
     0
174
     0
 93
        1
 44
0.0
173
     0
291
     1
 45
0.0
1001
ACAD
1000
AcDbSavedByObjectVersion
1070
     0
  0
DICTIONARYVAR
  5
54E
102
{ACAD_REACTORS
330
54B
102
}
330
54B
100
DictionaryVariables
280
     0
  1
1:1
  0
DICTIONARYVAR
  5
54F
102
{ACAD_REACTORS
330
54B
102
}
330
54B
100
DictionaryVariables
280
     0
  1
2
  0
DICTIONARYVAR
  5
550
102
{ACAD_REACTORS
330
54B
102
}
330
54B
100
DictionaryVariables
280
     0
  1
1
  0
DICTIONARY
  5
573
330
3D
100
AcDbDictionary
280
     1
281
     1
  3
ACAD_XREC_ROUNDTRIP
360
574
  0
DICTIONARY
  5
571
330
3C
100
AcDbDictionary
280
     1
281
     1
  3
ACAD_XREC_ROUNDTRIP
360
572
  0
DICTIONARY
  5
575
330
3E
100
AcDbDictionary
280
     1
281
     1
  3
ACAD_XREC_ROUNDTRIP
360
576
  0
DICTIONARY
  5
559
330
2F
100
AcDbDictionary
280
     1
281
     1
  3
ACAD_XREC_ROUNDTRIP
360
55A
  0
DICTIONARY
  5
55D
330
31
100
AcDbDictionary
280
     1
281
     1
  3
ACAD_XREC_ROUNDTRIP
360
55E
  0
DICTIONARY
  5
55B
330
30
100
AcDbDictionary
280
     1
281
     1
  3
ACAD_XREC_ROUNDTRIP
360
55C
  0
DICTIONARY
  5
55F
330
32
100
AcDbDictionary
280
     1
281
     1
  3
ACAD_XREC_ROUNDTRIP
360
560
  0
DICTIONARY
  5
567
330
36
100
AcDbDictionary
280
     1
281
     1
  3
ACAD_XREC_ROUNDTRIP
360
568
  0
DICTIONARY
  5
56F
330
3A
100
AcDbDictionary
280
     1
281
     1
  3
ACAD_XREC_ROUNDTRIP
360
570
  0
DICTIONARY
  5
563
330
34
100
AcDbDictionary
280
     1
281
     1
  3
ACAD_XREC_ROUNDTRIP
360
564
  0
DICTIONARY
  5
565
330
35
100
AcDbDictionary
280
     1
281
     1
  3
ACAD_XREC_ROUNDTRIP
360
566
  0
DICTIONARY
  5
56D
330
39
100
AcDbDictionary
280
     1
281
     1
  3
ACAD_XREC_ROUNDTRIP
360
56E
  0
DICTIONARY
  5
551
330
2B
100
AcDbDictionary
280
     1
281
     1
  3
ACAD_XREC_ROUNDTRIP
360
552
  0
DICTIONARY
  5
553
330
2C
100
AcDbDictionary
280
     1
281
     1
  3
ACAD_XREC_ROUNDTRIP
360
554
  0
DICTIONARY
  5
555
330
2D
100
AcDbDictionary
280
     1
281
     1
  3
ACAD_XREC_ROUNDTRIP
360
556
  0
DICTIONARY
  5
557
330
2E
100
AcDbDictionary
280
     1
281
     1
  3
ACAD_XREC_ROUNDTRIP
360
558
  0
DICTIONARY
  5
56B
330
38
100
AcDbDictionary
280
     1
281
     1
  3
ACAD_XREC_ROUNDTRIP
360
56C
  0
DICTIONARY
  5
561
330
33
100
AcDbDictionary
280
     1
281
     1
  3
ACAD_XREC_ROUNDTRIP
360
562
  0
DICTIONARY
  5
569
330
37
100
AcDbDictionary
280
     1
281
     1
  3
ACAD_XREC_ROUNDTRIP
360
56A
  0
XRECORD
  5
574
102
{ACAD_REACTORS
330
573
102
}
330
573
100
AcDbXrecord
280
     1
102
MATERIAL
148
0.0
149
0.0
149
0.0
 93
        0
 94
      127
282
     0
 72
     1
 77
     1
171
     1
175
     1
179
     1
273
     0
  0
XRECORD
  5
572
102
{ACAD_REACTORS
330
571
102
}
330
571
100
AcDbXrecord
280
     1
102
MATERIAL
148
0.0
149
0.0
149
0.0
 93
        0
 94
      127
282
     0
 72
     1
 77
     1
171
     1
175
     1
179
     1
273
     0
  0
XRECORD
  5
576
102
{ACAD_REACTORS
330
575
102
}
330
575
100
AcDbXrecord
280
     1
102
MATERIAL
148
0.0
149
0.0
149
0.0
 93
        0
 94
      127
282
     0
 72
     1
 77
     1
171
     1
175
     1
179
     1
273
     0
  0
XRECORD
  5
55A
102
{ACAD_REACTORS
330
559
102
}
330
559
100
AcDbXrecord
280
     1
102
RTVSPropertyOp0
 70
     1
102
RTVSPropertyOp1
 70
     1
102
RTVSPropertyOp2
 70
     1
102
RTVSPropertyOp3
 70
     1
102
RTVSPropertyOp4
 70
     1
102
RTVSPropertyOp5
 70
     1
102
RTVSPropertyOp6
 70
     1
102
RTVSPropertyOp7
 70
     1
102
RTVSPropertyOp8
 70
     1
102
RTVSPropertyOp9
 70
     1
102
RTVSPropertyOp10
 70
     1
102
RTVSPropertyOp11
 70
     1
102
RTVSPropertyOp12
 70
     1
102
RTVSPropertyOp13
 70
     1
102
RTVSPropertyOp14
 70
     1
102
RTVSPropertyOp15
 70
     1
102
RTVSPropertyOp16
 70
     1
102
RTVSPropertyOp17
 70
     1
102
RTVSPropertyOp18
 70
     1
102
RTVSPropertyOp19
 70
     1
102
RTVSPropertyOp20
 70
     1
102
RTVSPropertyOp21
 70
     1
102
RTVSPropertyOp22
 70
     1
102
RTVSPropertyOp23
 70
     1
102
RTVSPropertyOp24
 70
     1
102
RTVSPropertyOp25
 70
     1
102
RTVSPropertyOp26
 70
     1
102
RTVSPropertyOp27
 70
     1
  0
XRECORD
  5
55E
102
{ACAD_REACTORS
330
55D
102
}
330
55D
100
AcDbXrecord
280
     1
102
RTVSPropertyOp0
 70
     1
102
RTVSPropertyOp1
 70
     1
102
RTVSPropertyOp2
 70
     1
102
RTVSPropertyOp3
 70
     1
102
RTVSPropertyOp4
 70
     1
102
RTVSPropertyOp5
 70
     1
102
RTVSPropertyOp6
 70
     1
102
RTVSPropertyOp7
 70
     1
102
RTVSPropertyOp8
 70
     1
102
RTVSPropertyOp9
 70
     1
102
RTVSPropertyOp10
 70
     1
102
RTVSPropertyOp11
 70
     1
102
RTVSPropertyOp12
 70
     1
102
RTVSPropertyOp13
 70
     1
102
RTVSPropertyOp14
 70
     1
102
RTVSPropertyOp15
 70
     1
102
RTVSPropertyOp16
 70
     1
102
RTVSPropertyOp17
 70
     1
102
RTVSPropertyOp18
 70
     1
102
RTVSPropertyOp19
 70
     1
102
RTVSPropertyOp20
 70
     1
102
RTVSPropertyOp21
 70
     1
102
RTVSPropertyOp22
 70
     1
102
RTVSPropertyOp23
 70
     1
102
RTVSPropertyOp24
 70
     1
102
RTVSPropertyOp25
 70
     1
102
RTVSPropertyOp26
 70
     1
102
RTVSPropertyOp27
 70
     1
  0
XRECORD
  5
55C
102
{ACAD_REACTORS
330
55B
102
}
330
55B
100
AcDbXrecord
280
     1
102
RTVSPropertyOp0
 70
     1
102
RTVSPropertyOp1
 70
     1
102
RTVSPropertyOp2
 70
     1
102
RTVSPropertyOp3
 70
     1
102
RTVSPropertyOp4
 70
     1
102
RTVSPropertyOp5
 70
     1
102
RTVSPropertyOp6
 70
     1
102
RTVSPropertyOp7
 70
     1
102
RTVSPropertyOp8
 70
     1
102
RTVSPropertyOp9
 70
     1
102
RTVSPropertyOp10
 70
     1
102
RTVSPropertyOp11
 70
     1
102
RTVSPropertyOp12
 70
     1
102
RTVSPropertyOp13
 70
     1
102
RTVSPropertyOp14
 70
     1
102
RTVSPropertyOp15
 70
     1
102
RTVSPropertyOp16
 70
     1
102
RTVSPropertyOp17
 70
     1
102
RTVSPropertyOp18
 70
     1
102
RTVSPropertyOp19
 70
     1
102
RTVSPropertyOp20
 70
     1
102
RTVSPropertyOp21
 70
     1
102
RTVSPropertyOp22
 70
     1
102
RTVSPropertyOp23
 70
     1
102
RTVSPropertyOp24
 70
     1
102
RTVSPropertyOp25
 70
     1
102
RTVSPropertyOp26
 70
     1
102
RTVSPropertyOp27
 70
     1
  0
XRECORD
  5
560
102
{ACAD_REACTORS
330
55F
102
}
330
55F
100
AcDbXrecord
280
     1
102
RTVSPropertyOp0
 70
     1
102
RTVSPropertyOp1
 70
     1
102
RTVSPropertyOp2
 70
     1
102
RTVSPropertyOp3
 70
     1
102
RTVSPropertyOp4
 70
     1
102
RTVSPropertyOp5
 70
     1
102
RTVSPropertyOp6
 70
     1
102
RTVSPropertyOp7
 70
     1
102
RTVSPropertyOp8
 70
     1
102
RTVSPropertyOp9
 70
     1
102
RTVSPropertyOp10
 70
     1
102
RTVSPropertyOp11
 70
     1
102
RTVSPropertyOp12
 70
     1
102
RTVSPropertyOp13
 70
     1
102
RTVSPropertyOp14
 70
     1
102
RTVSPropertyOp15
 70
     1
102
RTVSPropertyOp16
 70
     1
102
RTVSPropertyOp17
 70
     1
102
RTVSPropertyOp18
 70
     1
102
RTVSPropertyOp19
 70
     1
102
RTVSPropertyOp20
 70
     1
102
RTVSPropertyOp21
 70
     1
102
RTVSPropertyOp22
 70
     1
102
RTVSPropertyOp23
 70
     1
102
RTVSPropertyOp24
 70
     1
102
RTVSPropertyOp25
 70
     1
102
RTVSPropertyOp26
 70
     1
102
RTVSPropertyOp27
 70
     1
  0
XRECORD
  5
568
102
{ACAD_REACTORS
330
567
102
}
330
567
100
AcDbXrecord
280
     1
102
RTVSPropertyOp0
 70
     1
102
RTVSPropertyOp1
 70
     1
102
RTVSPropertyOp2
 70
     1
102
RTVSPropertyOp3
 70
     1
102
RTVSPropertyOp4
 70
     1
102
RTVSPropertyOp5
 70
     1
102
RTVSPropertyOp6
 70
     1
102
RTVSPropertyOp7
 70
     1
102
RTVSPropertyOp8
 70
     1
102
RTVSPropertyOp9
 70
     1
102
RTVSPropertyOp10
 70
     1
102
RTVSPropertyOp11
 70
     1
102
RTVSPropertyOp12
 70
     1
102
RTVSPropertyOp13
 70
     1
102
RTVSPropertyOp14
 70
     1
102
RTVSPropertyOp15
 70
     1
102
RTVSPropertyOp16
 70
     1
102
RTVSPropertyOp17
 70
     1
102
RTVSPropertyOp18
 70
     1
102
RTVSPropertyOp19
 70
     1
102
RTVSPropertyOp20
 70
     1
102
RTVSPropertyOp21
 70
     1
102
RTVSPropertyOp22
 70
     1
102
RTVSPropertyOp23
 70
     1
102
RTVSPropertyOp24
 70
     1
102
RTVSPropertyOp25
 70
     1
102
RTVSPropertyOp26
 70
     1
102
RTVSPropertyOp27
 70
     1
  0
XRECORD
  5
570
102
{ACAD_REACTORS
330
56F
102
}
330
56F
100
AcDbXrecord
280
     1
102
RTVSPropertyOp0
 70
     1
102
RTVSPropertyOp1
 70
     1
102
RTVSPropertyOp2
 70
     1
102
RTVSPropertyOp3
 70
     1
102
RTVSPropertyOp4
 70
     1
102
RTVSPropertyOp5
 70
     1
102
RTVSPropertyOp6
 70
     1
102
RTVSPropertyOp7
 70
     1
102
RTVSPropertyOp8
 70
     1
102
RTVSPropertyOp9
 70
     1
102
RTVSPropertyOp10
 70
     1
102
RTVSPropertyOp11
 70
     1
102
RTVSPropertyOp12
 70
     1
102
RTVSPropertyOp13
 70
     1
102
RTVSPropertyOp14
 70
     1
102
RTVSPropertyOp15
 70
     1
102
RTVSPropertyOp16
 70
     1
102
RTVSPropertyOp17
 70
     1
102
RTVSPropertyOp18
 70
     1
102
RTVSPropertyOp19
 70
     1
102
RTVSPropertyOp20
 70
     1
102
RTVSPropertyOp21
 70
     1
102
RTVSPropertyOp22
 70
     1
102
RTVSPropertyOp23
 70
     1
102
RTVSPropertyOp24
 70
     1
102
RTVSPropertyOp25
 70
     1
102
RTVSPropertyOp26
 70
     1
102
RTVSPropertyOp27
 70
     1
  0
XRECORD
  5
564
102
{ACAD_REACTORS
330
563
102
}
330
563
100
AcDbXrecord
280
     1
102
RTVSPropertyOp0
 70
     1
102
RTVSPropertyOp1
 70
     1
102
RTVSPropertyOp2
 70
     1
102
RTVSPropertyOp3
 70
     1
102
RTVSPropertyOp4
 70
     1
102
RTVSPropertyOp5
 70
     1
102
RTVSPropertyOp6
 70
     1
102
RTVSPropertyOp7
 70
     1
102
RTVSPropertyOp8
 70
     1
102
RTVSPropertyOp9
 70
     1
102
RTVSPropertyOp10
 70
     1
102
RTVSPropertyOp11
 70
     1
102
RTVSPropertyOp12
 70
     1
102
RTVSPropertyOp13
 70
     1
102
RTVSPropertyOp14
 70
     1
102
RTVSPropertyOp15
 70
     1
102
RTVSPropertyOp16
 70
     1
102
RTVSPropertyOp17
 70
     1
102
RTVSPropertyOp18
 70
     1
102
RTVSPropertyOp19
 70
     1
102
RTVSPropertyOp20
 70
     1
102
RTVSPropertyOp21
 70
     1
102
RTVSPropertyOp22
 70
     1
102
RTVSPropertyOp23
 70
     1
102
RTVSPropertyOp24
 70
     1
102
RTVSPropertyOp25
 70
     1
102
RTVSPropertyOp26
 70
     1
102
RTVSPropertyOp27
 70
     1
  0
XRECORD
  5
566
102
{ACAD_REACTORS
330
565
102
}
330
565
100
AcDbXrecord
280
     1
102
RTVSPropertyOp0
 70
     1
102
RTVSPropertyOp1
 70
     1
102
RTVSPropertyOp2
 70
     1
102
RTVSPropertyOp3
 70
     1
102
RTVSPropertyOp4
 70
     1
102
RTVSPropertyOp5
 70
     1
102
RTVSPropertyOp6
 70
     1
102
RTVSPropertyOp7
 70
     1
102
RTVSPropertyOp8
 70
     1
102
RTVSPropertyOp9
 70
     1
102
RTVSPropertyOp10
 70
     1
102
RTVSPropertyOp11
 70
     1
102
RTVSPropertyOp12
 70
     1
102
RTVSPropertyOp13
 70
     1
102
RTVSPropertyOp14
 70
     1
102
RTVSPropertyOp15
 70
     1
102
RTVSPropertyOp16
 70
     1
102
RTVSPropertyOp17
 70
     1
102
RTVSPropertyOp18
 70
     1
102
RTVSPropertyOp19
 70
     1
102
RTVSPropertyOp20
 70
     1
102
RTVSPropertyOp21
 70
     1
102
RTVSPropertyOp22
 70
     1
102
RTVSPropertyOp23
 70
     1
102
RTVSPropertyOp24
 70
     1
102
RTVSPropertyOp25
 70
     1
102
RTVSPropertyOp26
 70
     1
102
RTVSPropertyOp27
 70
     1
  0
XRECORD
  5
56E
102
{ACAD_REACTORS
330
56D
102
}
330
56D
100
AcDbXrecord
280
     1
102
RTVSPropertyOp0
 70
     1
102
RTVSPropertyOp1
 70
     1
102
RTVSPropertyOp2
 70
     1
102
RTVSPropertyOp3
 70
     1
102
RTVSPropertyOp4
 70
     1
102
RTVSPropertyOp5
 70
     1
102
RTVSPropertyOp6
 70
     1
102
RTVSPropertyOp7
 70
     1
102
RTVSPropertyOp8
 70
     1
102
RTVSPropertyOp9
 70
     1
102
RTVSPropertyOp10
 70
     1
102
RTVSPropertyOp11
 70
     1
102
RTVSPropertyOp12
 70
     1
102
RTVSPropertyOp13
 70
     1
102
RTVSPropertyOp14
 70
     1
102
RTVSPropertyOp15
 70
     1
102
RTVSPropertyOp16
 70
     1
102
RTVSPropertyOp17
 70
     1
102
RTVSPropertyOp18
 70
     1
102
RTVSPropertyOp19
 70
     1
102
RTVSPropertyOp20
 70
     1
102
RTVSPropertyOp21
 70
     1
102
RTVSPropertyOp22
 70
     1
102
RTVSPropertyOp23
 70
     1
102
RTVSPropertyOp24
 70
     1
102
RTVSPropertyOp25
 70
     1
102
RTVSPropertyOp26
 70
     1
102
RTVSPropertyOp27
 70
     1
  0
XRECORD
  5
552
102
{ACAD_REACTORS
330
551
102
}
330
551
100
AcDbXrecord
280
     1
102
RTVSPropertyOp0
 70
     1
102
RTVSPropertyOp1
 70
     1
102
RTVSPropertyOp2
 70
     1
102
RTVSPropertyOp3
 70
     1
102
RTVSPropertyOp4
 70
     1
102
RTVSPropertyOp5
 70
     1
102
RTVSPropertyOp6
 70
     1
102
RTVSPropertyOp7
 70
     1
102
RTVSPropertyOp8
 70
     1
102
RTVSPropertyOp9
 70
     1
102
RTVSPropertyOp10
 70
     1
102
RTVSPropertyOp11
 70
     1
102
RTVSPropertyOp12
 70
     1
102
RTVSPropertyOp13
 70
     1
102
RTVSPropertyOp14
 70
     1
102
RTVSPropertyOp15
 70
     1
102
RTVSPropertyOp16
 70
     1
102
RTVSPropertyOp17
 70
     1
102
RTVSPropertyOp18
 70
     1
102
RTVSPropertyOp19
 70
     1
102
RTVSPropertyOp20
 70
     1
102
RTVSPropertyOp21
 70
     1
102
RTVSPropertyOp22
 70
     1
102
RTVSPropertyOp23
 70
     1
102
RTVSPropertyOp24
 70
     1
102
RTVSPropertyOp25
 70
     1
102
RTVSPropertyOp26
 70
     1
102
RTVSPropertyOp27
 70
     1
  0
XRECORD
  5
554
102
{ACAD_REACTORS
330
553
102
}
330
553
100
AcDbXrecord
280
     1
102
RTVSPropertyOp0
 70
     1
102
RTVSPropertyOp1
 70
     1
102
RTVSPropertyOp2
 70
     1
102
RTVSPropertyOp3
 70
     1
102
RTVSPropertyOp4
 70
     1
102
RTVSPropertyOp5
 70
     1
102
RTVSPropertyOp6
 70
     1
102
RTVSPropertyOp7
 70
     1
102
RTVSPropertyOp8
 70
     1
102
RTVSPropertyOp9
 70
     1
102
RTVSPropertyOp10
 70
     1
102
RTVSPropertyOp11
 70
     1
102
RTVSPropertyOp12
 70
     1
102
RTVSPropertyOp13
 70
     1
102
RTVSPropertyOp14
 70
     1
102
RTVSPropertyOp15
 70
     1
102
RTVSPropertyOp16
 70
     1
102
RTVSPropertyOp17
 70
     1
102
RTVSPropertyOp18
 70
     1
102
RTVSPropertyOp19
 70
     1
102
RTVSPropertyOp20
 70
     1
102
RTVSPropertyOp21
 70
     1
102
RTVSPropertyOp22
 70
     1
102
RTVSPropertyOp23
 70
     1
102
RTVSPropertyOp24
 70
     1
102
RTVSPropertyOp25
 70
     1
102
RTVSPropertyOp26
 70
     1
102
RTVSPropertyOp27
 70
     1
  0
XRECORD
  5
556
102
{ACAD_REACTORS
330
555
102
}
330
555
100
AcDbXrecord
280
     1
102
RTVSPropertyOp0
 70
     1
102
RTVSPropertyOp1
 70
     1
102
RTVSPropertyOp2
 70
     1
102
RTVSPropertyOp3
 70
     1
102
RTVSPropertyOp4
 70
     1
102
RTVSPropertyOp5
 70
     1
102
RTVSPropertyOp6
 70
     1
102
RTVSPropertyOp7
 70
     1
102
RTVSPropertyOp8
 70
     1
102
RTVSPropertyOp9
 70
     1
102
RTVSPropertyOp10
 70
     1
102
RTVSPropertyOp11
 70
     1
102
RTVSPropertyOp12
 70
     1
102
RTVSPropertyOp13
 70
     1
102
RTVSPropertyOp14
 70
     1
102
RTVSPropertyOp15
 70
     1
102
RTVSPropertyOp16
 70
     1
102
RTVSPropertyOp17
 70
     1
102
RTVSPropertyOp18
 70
     1
102
RTVSPropertyOp19
 70
     1
102
RTVSPropertyOp20
 70
     1
102
RTVSPropertyOp21
 70
     1
102
RTVSPropertyOp22
 70
     1
102
RTVSPropertyOp23
 70
     1
102
RTVSPropertyOp24
 70
     1
102
RTVSPropertyOp25
 70
     1
102
RTVSPropertyOp26
 70
     1
102
RTVSPropertyOp27
 70
     1
  0
XRECORD
  5
558
102
{ACAD_REACTORS
330
557
102
}
330
557
100
AcDbXrecord
280
     1
102
RTVSPropertyOp0
 70
     1
102
RTVSPropertyOp1
 70
     1
102
RTVSPropertyOp2
 70
     1
102
RTVSPropertyOp3
 70
     1
102
RTVSPropertyOp4
 70
     1
102
RTVSPropertyOp5
 70
     1
102
RTVSPropertyOp6
 70
     1
102
RTVSPropertyOp7
 70
     1
102
RTVSPropertyOp8
 70
     1
102
RTVSPropertyOp9
 70
     1
102
RTVSPropertyOp10
 70
     1
102
RTVSPropertyOp11
 70
     1
102
RTVSPropertyOp12
 70
     1
102
RTVSPropertyOp13
 70
     1
102
RTVSPropertyOp14
 70
     1
102
RTVSPropertyOp15
 70
     1
102
RTVSPropertyOp16
 70
     1
102
RTVSPropertyOp17
 70
     1
102
RTVSPropertyOp18
 70
     1
102
RTVSPropertyOp19
 70
     1
102
RTVSPropertyOp20
 70
     1
102
RTVSPropertyOp21
 70
     1
102
RTVSPropertyOp22
 70
     1
102
RTVSPropertyOp23
 70
     1
102
RTVSPropertyOp24
 70
     1
102
RTVSPropertyOp25
 70
     1
102
RTVSPropertyOp26
 70
     1
102
RTVSPropertyOp27
 70
     1
  0
XRECORD
  5
56C
102
{ACAD_REACTORS
330
56B
102
}
330
56B
100
AcDbXrecord
280
     1
102
RTVSPropertyOp0
 70
     1
102
RTVSPropertyOp1
 70
     1
102
RTVSPropertyOp2
 70
     1
102
RTVSPropertyOp3
 70
     1
102
RTVSPropertyOp4
 70
     1
102
RTVSPropertyOp5
 70
     1
102
RTVSPropertyOp6
 70
     1
102
RTVSPropertyOp7
 70
     1
102
RTVSPropertyOp8
 70
     1
102
RTVSPropertyOp9
 70
     1
102
RTVSPropertyOp10
 70
     1
102
RTVSPropertyOp11
 70
     1
102
RTVSPropertyOp12
 70
     1
102
RTVSPropertyOp13
 70
     1
102
RTVSPropertyOp14
 70
     1
102
RTVSPropertyOp15
 70
     1
102
RTVSPropertyOp16
 70
     1
102
RTVSPropertyOp17
 70
     1
102
RTVSPropertyOp18
 70
     1
102
RTVSPropertyOp19
 70
     1
102
RTVSPropertyOp20
 70
     1
102
RTVSPropertyOp21
 70
     1
102
RTVSPropertyOp22
 70
     1
102
RTVSPropertyOp23
 70
     1
102
RTVSPropertyOp24
 70
     1
102
RTVSPropertyOp25
 70
     1
102
RTVSPropertyOp26
 70
     1
102
RTVSPropertyOp27
 70
     1
  0
XRECORD
  5
562
102
{ACAD_REACTORS
330
561
102
}
330
561
100
AcDbXrecord
280
     1
102
RTVSPropertyOp0
 70
     1
102
RTVSPropertyOp1
 70
     1
102
RTVSPropertyOp2
 70
     1
102
RTVSPropertyOp3
 70
     1
102
RTVSPropertyOp4
 70
     1
102
RTVSPropertyOp5
 70
     1
102
RTVSPropertyOp6
 70
     1
102
RTVSPropertyOp7
 70
     1
102
RTVSPropertyOp8
 70
     1
102
RTVSPropertyOp9
 70
     1
102
RTVSPropertyOp10
 70
     1
102
RTVSPropertyOp11
 70
     1
102
RTVSPropertyOp12
 70
     1
102
RTVSPropertyOp13
 70
     1
102
RTVSPropertyOp14
 70
     1
102
RTVSPropertyOp15
 70
     1
102
RTVSPropertyOp16
 70
     1
102
RTVSPropertyOp17
 70
     1
102
RTVSPropertyOp18
 70
     1
102
RTVSPropertyOp19
 70
     1
102
RTVSPropertyOp20
 70
     1
102
RTVSPropertyOp21
 70
     1
102
RTVSPropertyOp22
 70
     1
102
RTVSPropertyOp23
 70
     1
102
RTVSPropertyOp24
 70
     1
102
RTVSPropertyOp25
 70
     1
102
RTVSPropertyOp26
 70
     1
102
RTVSPropertyOp27
 70
     1
  0
XRECORD
  5
56A
102
{ACAD_REACTORS
330
569
102
}
330
569
100
AcDbXrecord
280
     1
102
RTVSPropertyOp0
 70
     1
102
RTVSPropertyOp1
 70
     1
102
RTVSPropertyOp2
 70
     1
102
RTVSPropertyOp3
 70
     1
102
RTVSPropertyOp4
 70
     1
102
RTVSPropertyOp5
 70
     1
102
RTVSPropertyOp6
 70
     1
102
RTVSPropertyOp7
 70
     1
102
RTVSPropertyOp8
 70
     1
102
RTVSPropertyOp9
 70
     1
102
RTVSPropertyOp10
 70
     1
102
RTVSPropertyOp11
 70
     1
102
RTVSPropertyOp12
 70
     1
102
RTVSPropertyOp13
 70
     1
102
RTVSPropertyOp14
 70
     1
102
RTVSPropertyOp15
 70
     1
102
RTVSPropertyOp16
 70
     1
102
RTVSPropertyOp17
 70
     1
102
RTVSPropertyOp18
 70
     1
102
RTVSPropertyOp19
 70
     1
102
RTVSPropertyOp20
 70
     1
102
RTVSPropertyOp21
 70
     1
102
RTVSPropertyOp22
 70
     1
102
RTVSPropertyOp23
 70
     1
102
RTVSPropertyOp24
 70
     1
102
RTVSPropertyOp25
 70
     1
102
RTVSPropertyOp26
 70
     1
102
RTVSPropertyOp27
 70
     1
  0
ENDSEC
  0
EOF
