  0
SECTION
  2
HEADER
  9
$ACADVER
  1
AC1015
  9
$ACADMAINTVER
 70
     6
  9
$DWGCODEPAGE
  3
ANSI_1252
  9
$INSBASE
 10
0.0
 20
0.0
 30
0.0
  9
$EXTMIN
 10
0.0
 20
0.0
 30
0.0
  9
$EXTMAX
 10
12.75
 20
8.25
 30
0.0
  9
$LIMMIN
 10
0.0
 20
0.0
  9
$LIMMAX
 10
12.75
 20
8.25
  9
$ORTHOMODE
 70
     0
  9
$REGENMODE
 70
     1
  9
$FILLMODE
 70
     1
  9
$QTEXTMODE
 70
     0
  9
$MIRRTEXT
 70
     1
  9
$LTSCALE
 40
0.75
  9
$ATTMODE
 70
     1
  9
$TEXTSIZE
 40
0.09375
  9
$TRACEWID
 40
0.05
  9
$TEXTSTYLE
  7
Standard
  9
$CLAYER
  8
0
  9
$CELTYPE
  6
ByLayer
  9
$CECOLOR
 62
   256
  9
$CELTSCALE
 40
1.0
  9
$DISPSILH
 70
     0
  9
$DIMSCALE
 40
1.0
  9
$DIMASZ
 40
0.0975
  9
$DIMEXO
 40
0.0375
  9
$DIMDLI
 40
0.38
  9
$DIMRND
 40
0.0
  9
$DIMDLE
 40
0.0
  9
$DIMEXE
 40
0.09375
  9
$DIMTP
 40
0.0
  9
$DIMTM
 40
0.0
  9
$DIMTXT
 40
0.09375
  9
$DIMCEN
 40
0.09
  9
$DIMTSZ
 40
0.0
  9
$DIMTOL
 70
     0
  9
$DIMLIM
 70
     0
  9
$DIMTIH
 70
     1
  9
$DIMTOH
 70
     1
  9
$DIMSE1
 70
     0
  9
$DIMSE2
 70
     0
  9
$DIMTAD
 70
     0
  9
$DIMZIN
 70
     0
  9
$DIMBLK
  1

  9
$DIMASO
 70
     1
  9
$DIMSHO
 70
     1
  9
$DIMPOST
  1

  9
$DIMAPOST
  1

  9
$DIMALT
 70
     0
  9
$DIMALTD
 70
     2
  9
$DIMALTF
 40
25.4
  9
$DIMLFAC
 40
1.0
  9
$DIMTOFL
 70
     0
  9
$DIMTVP
 40
0.0
  9
$DIMTIX
 70
     0
  9
$DIMSOXD
 70
     0
  9
$DIMSAH
 70
     0
  9
$DIMBLK1
  1

  9
$DIMBLK2
  1

  9
$DIMSTYLE
  2
Standard
  9
$DIMCLRD
 70
     0
  9
$DIMCLRE
 70
     0
  9
$DIMCLRT
 70
     0
  9
$DIMTFAC
 40
1.0
  9
$DIMGAP
 40
0.045
  9
$DIMJUST
 70
     0
  9
$DIMSD1
 70
     0
  9
$DIMSD2
 70
     0
  9
$DIMTOLJ
 70
     1
  9
$DIMTZIN
 70
     0
  9
$DIMALTZ
 70
     0
  9
$DIMALTTZ
 70
     0
  9
$DIMUPT
 70
     0
  9
$DIMDEC
 70
     2
  9
$DIMTDEC
 70
     2
  9
$DIMALTU
 70
     2
  9
$DIMALTTD
 70
     2
  9
$DIMTXSTY
  7
Standard
  9
$DIMAUNIT
 70
     0
  9
$DIMADEC
 70
     2
  9
$DIMALTRND
 40
0.0
  9
$DIMAZIN
 70
     0
  9
$DIMDSEP
 70
    46
  9
$DIMATFIT
 70
     3
  9
$DIMFRAC
 70
     0
  9
$DIMLDRBLK
  1

  9
$DIMLUNIT
 70
     2
  9
$DIMLWD
 70
    -2
  9
$DIMLWE
 70
    -2
  9
$DIMTMOVE
 70
     0
  9
$LUNITS
 70
     2
  9
$LUPREC
 70
     2
  9
$SKETCHINC
 40
0.1
  9
$FILLETRAD
 40
0.5
  9
$AUNITS
 70
     0
  9
$AUPREC
 70
     2
  9
$MENU
  1
.
  9
$ELEVATION
 40
0.0
  9
$PELEVATION
 40
0.0
  9
$THICKNESS
 40
0.0
  9
$LIMCHECK
 70
     0
  9
$CHAMFERA
 40
0.0
  9
$CHAMFERB
 40
0.0
  9
$CHAMFERC
 40
0.0
  9
$CHAMFERD
 40
0.0
  9
$SKPOLY
 70
     0
  9
$TDCREATE
 40
2458058.343650151
  9
$TDUCREATE
 40
2458058.510316817
  9
$TDUPDATE
 40
2458058.343674016
  9
$TDUUPDATE
 40
2458058.510340683
  9
$TDINDWG
 40
0.0000000116
  9
$TDUSRTIMER
 40
0.0000000116
  9
$USRTIMER
 70
     1
  9
$ANGBASE
 50
0.0
  9
$ANGDIR
 70
     0
  9
$PDMODE
 70
     0
  9
$PDSIZE
 40
-1.0
  9
$PLINEWID
 40
0.0
  9
$SPLFRAME
 70
     0
  9
$SPLINETYPE
 70
     6
  9
$SPLINESEGS
 70
     8
  9
$HANDSEED
  5
49F
  9
$SURFTAB1
 70
     6
  9
$SURFTAB2
 70
     6
  9
$SURFTYPE
 70
     6
  9
$SURFU
 70
     6
  9
$SURFV
 70
     6
  9
$UCSBASE
  2

  9
$UCSNAME
  2

  9
$UCSORG
 10
0.0
 20
0.0
 30
0.0
  9
$UCSXDIR
 10
1.0
 20
0.0
 30
0.0
  9
$UCSYDIR
 10
0.0
 20
1.0
 30
0.0
  9
$UCSORTHOREF
  2

  9
$UCSORTHOVIEW
 70
     0
  9
$UCSORGTOP
 10
0.0
 20
0.0
 30
0.0
  9
$UCSORGBOTTOM
 10
0.0
 20
0.0
 30
0.0
  9
$UCSORGLEFT
 10
0.0
 20
0.0
 30
0.0
  9
$UCSORGRIGHT
 10
0.0
 20
0.0
 30
0.0
  9
$UCSORGFRONT
 10
0.0
 20
0.0
 30
0.0
  9
$UCSORGBACK
 10
0.0
 20
0.0
 30
0.0
  9
$PUCSBASE
  2

  9
$PUCSNAME
  2

  9
$PUCSORG
 10
0.0
 20
0.0
 30
0.0
  9
$PUCSXDIR
 10
1.0
 20
0.0
 30
0.0
  9
$PUCSYDIR
 10
0.0
 20
1.0
 30
0.0
  9
$PUCSORTHOREF
  2

  9
$PUCSORTHOVIEW
 70
     0
  9
$PUCSORGTOP
 10
0.0
 20
0.0
 30
0.0
  9
$PUCSORGBOTTOM
 10
0.0
 20
0.0
 30
0.0
  9
$PUCSORGLEFT
 10
0.0
 20
0.0
 30
0.0
  9
$PUCSORGRIGHT
 10
0.0
 20
0.0
 30
0.0
  9
$PUCSORGFRONT
 10
0.0
 20
0.0
 30
0.0
  9
$PUCSORGBACK
 10
0.0
 20
0.0
 30
0.0
  9
$USERI1
 70
     0
  9
$USERI2
 70
     0
  9
$USERI3
 70
     0
  9
$USERI4
 70
     0
  9
$USERI5
 70
     0
  9
$USERR1
 40
0.0
  9
$USERR2
 40
0.0
  9
$USERR3
 40
0.0
  9
$USERR4
 40
0.0
  9
$USERR5
 40
0.0
  9
$WORLDVIEW
 70
     1
  9
$SHADEDGE
 70
     3
  9
$SHADEDIF
 70
    70
  9
$TILEMODE
 70
     1
  9
$MAXACTVP
 70
    64
  9
$PINSBASE
 10
0.0
 20
0.0
 30
0.0
  9
$PLIMCHECK
 70
     0
  9
$PEXTMIN
 10
1.0000000000E+20
 20
1.0000000000E+20
 30
1.0000000000E+20
  9
$PEXTMAX
 10
-1.0000000000E+20
 20
-1.0000000000E+20
 30
-1.0000000000E+20
  9
$PLIMMIN
 10
0.0
 20
0.0
  9
$PLIMMAX
 10
12.0
 20
9.0
  9
$UNITMODE
 70
     0
  9
$VISRETAIN
 70
     1
  9
$PLINEGEN
 70
     0
  9
$PSLTSCALE
 70
     1
  9
$TREEDEPTH
 70
  3020
  9
$CMLSTYLE
  2
Standard
  9
$CMLJUST
 70
     0
  9
$CMLSCALE
 40
1.0
  9
$PROXYGRAPHICS
 70
     1
  9
$MEASUREMENT
 70
     0
  9
$CELWEIGHT
370
    -1
  9
$ENDCAPS
280
     0
  9
$JOINSTYLE
280
     0
  9
$LWDISPLAY
290
     1
  9
$INSUNITS
 70
     1
  9
$HYPERLINKBASE
  1

  9
$STYLESHEET
  1

  9
$XEDIT
290
     1
  9
$CEPSNTYPE
380
     0
  9
$PSTYLEMODE
290
     1
  9
$FINGERPRINTGUID
  2
{6AF3AF37-28BF-4E01-8198-A3A7E0B26BF1}
  9
$VERSIONGUID
  2
{FAEB1C32-E019-11D5-929B-00C0DF256EC4}
  9
$EXTNAMES
290
     1
  9
$PSVPSCALE
 40
0.0
  9
$OLESTARTUP
290
     0
  0
ENDSEC
  0
SECTION
  2
CLASSES
  0
CLASS
  1
ACDBDICTIONARYWDFLT
  2
AcDbDictionaryWithDefault
  3
ObjectDBX Classes
 90
        0
280
     0
281
     0
  0
CLASS
  1
VISUALSTYLE
  2
AcDbVisualStyle
  3
ObjectDBX Classes
 90
     4095
280
     0
281
     0
  0
CLASS
  1
MATERIAL
  2
AcDbMaterial
  3
ObjectDBX Classes
 90
     1153
280
     0
281
     0
  0
CLASS
  1
SCALE
  2
AcDbScale
  3
ObjectDBX Classes
 90
     1153
280
     0
281
     0
  0
CLASS
  1
TABLESTYLE
  2
AcDbTableStyle
  3
ObjectDBX Classes
 90
     4095
280
     0
281
     0
  0
CLASS
  1
MLEADERSTYLE
  2
AcDbMLeaderStyle
  3
ACDB_MLEADERSTYLE_CLASS
 90
     4095
280
     0
281
     0
  0
CLASS
  1
SUN
  2
AcDbSun
  3
SCENEOE
 90
     1153
280
     0
281
     0
  0
CLASS
  1
ACDBPLACEHOLDER
  2
AcDbPlaceHolder
  3
ObjectDBX Classes
 90
        0
280
     0
281
     0
  0
CLASS
  1
LAYOUT
  2
AcDbLayout
  3
ObjectDBX Classes
 90
        0
280
     0
281
     0
  0
ENDSEC
  0
SECTION
  2
TABLES
  0
TABLE
  2
VPORT
  5
8
330
0
100
AcDbSymbolTable
 70
     1
  0
VPORT
  5
29
330
8
100
AcDbSymbolTableRecord
100
AcDbViewportTableRecord
  2
*Active
 70
     0
 10
0.0
 20
0.0
 11
1.0
 21
1.0
 12
6.375
 22
4.125
 13
0.0
 23
0.0
 14
0.5
 24
0.5
 15
0.5
 25
0.5
 16
0.0
 26
0.0
 36
1.0
 17
0.0
 27
0.0
 37
0.0
 40
8.25
 41
1.5454545455
 42
50.0
 43
0.0
 44
0.0
 50
0.0
 51
0.0
 71
     0
 72
  2000
 73
     1
 74
     3
 75
     0
 76
     0
 77
     0
 78
     0
281
     0
 65
     1
110
0.0
120
0.0
130
0.0
111
1.0
121
0.0
131
0.0
112
0.0
122
1.0
132
0.0
 79
     0
146
0.0
  0
ENDTAB
  0
TABLE
  2
LTYPE
  5
5
330
0
100
AcDbSymbolTable
 70
     6
  0
LTYPE
  5
14
330
5
100
AcDbSymbolTableRecord
100
AcDbLinetypeTableRecord
  2
ByBlock
 70
     0
  3

 72
    65
 73
     0
 40
0.0
  0
LTYPE
  5
15
330
5
100
AcDbSymbolTableRecord
100
AcDbLinetypeTableRecord
  2
ByLayer
 70
     0
  3

 72
    65
 73
     0
 40
0.0
  0
LTYPE
  5
16
330
5
100
AcDbSymbolTableRecord
100
AcDbLinetypeTableRecord
  2
Continuous
 70
     0
  3
Solid line
 72
    65
 73
     0
 40
0.0
  0
LTYPE
  5
6E
330
5
100
AcDbSymbolTableRecord
100
AcDbLinetypeTableRecord
  2
HIDDEN
 70
     0
  3
Hidden __ __ __ __ __ __ __ __ __ __ __ __ __ __
 72
    65
 73
     2
 40
0.075
 49
0.05
 74
     0
 49
-0.025
 74
     0
  0
LTYPE
  5
6F
330
5
100
AcDbSymbolTableRecord
100
AcDbLinetypeTableRecord
  2
PHANTOM
 70
     0
  3
Phantom ______  __  __  ______  __  __  ______
 72
    65
 73
     6
 40
0.5
 49
0.25
 74
     0
 49
-0.05
 74
     0
 49
0.05
 74
     0
 49
-0.05
 74
     0
 49
0.05
 74
     0
 49
-0.05
 74
     0
  0
LTYPE
  5
70
330
5
100
AcDbSymbolTableRecord
100
AcDbLinetypeTableRecord
  2
CENTER
 70
     0
  3
Center ____ _ ____ _ ____ _ ____ _ ____ _ ____
 72
    65
 73
     4
 40
0.4
 49
0.25
 74
     0
 49
-0.05
 74
     0
 49
0.05
 74
     0
 49
-0.05
 74
     0
  0
LTYPE
  5
71
330
5
100
AcDbSymbolTableRecord
100
AcDbLinetypeTableRecord
  2
CENTERX2
 70
     0
  3
Center (2x) ________  __  ________  __  _____
 72
    65
 73
     4
 40
0.8
 49
0.5
 74
     0
 49
-0.1
 74
     0
 49
0.1
 74
     0
 49
-0.1
 74
     0
  0
LTYPE
  5
72
330
5
100
AcDbSymbolTableRecord
100
AcDbLinetypeTableRecord
  2
DOT2
 70
     0
  3
Dot (.5x) ........................................
 72
    65
 73
     2
 40
0.025
 49
0.0
 74
     0
 49
-0.025
 74
     0
  0
ENDTAB
  0
TABLE
  2
LAYER
  5
2
330
0
100
AcDbSymbolTable
 70
     1
  0
LAYER
  5
10
330
2
100
AcDbSymbolTableRecord
100
AcDbLayerTableRecord
  2
0
 70
     0
 62
     7
  6
Continuous
370
    -3
390
F
  0
ENDTAB
  0
TABLE
  2
STYLE
  5
3
330
0
100
AcDbSymbolTable
 70
     4
  0
STYLE
  5
11
330
3
100
AcDbSymbolTableRecord
100
AcDbTextStyleTableRecord
  2
Standard
 70
     0
 40
0.0
 41
1.0
 50
0.0
 71
     0
 42
0.09375
  3
txt
  4

  0
STYLE
  5
A6
330
3
100
AcDbSymbolTableRecord
100
AcDbTextStyleTableRecord
  2
SLDTEXTSTYLE0
 70
     0
 40
0.0
 41
0.75
 50
0.0
 71
     0
 42
0.09375
  3
TXT
  4

  0
STYLE
  5
AA
330
3
100
AcDbSymbolTableRecord
100
AcDbTextStyleTableRecord
  2
SLDTEXTSTYLE1
 70
     0
 40
0.0
 41
0.7
 50
0.0
 71
     0
 42
0.09375
  3
TXT
  4

  0
STYLE
  5
C5
330
3
100
AcDbSymbolTableRecord
100
AcDbTextStyleTableRecord
  2
SLDTEXTSTYLE2
 70
     0
 40
0.0
 41
0.6693548387
 50
0.0
 71
     0
 42
0.09375
  3
TXT
  4

  0
ENDTAB
  0
TABLE
  2
VIEW
  5
6
330
0
100
AcDbSymbolTable
 70
     0
  0
ENDTAB
  0
TABLE
  2
UCS
  5
7
330
0
100
AcDbSymbolTable
 70
     0
  0
ENDTAB
  0
TABLE
  2
APPID
  5
9
330
0
100
AcDbSymbolTable
 70
     1
  0
APPID
  5
12
330
9
100
AcDbSymbolTableRecord
100
AcDbRegAppTableRecord
  2
ACAD
 70
     0
  0
ENDTAB
  0
TABLE
  2
DIMSTYLE
  5
A
330
0
100
AcDbSymbolTable
 70
     7
100
AcDbDimStyleTable
  0
DIMSTYLE
105
27
330
A
100
AcDbSymbolTableRecord
100
AcDbDimStyleTableRecord
  2
Standard
 70
     0
178
     0
340
11
  0
DIMSTYLE
105
12B
102
{ACAD_REACTORS
330
12A
330
13F
330
153
330
1F4
330
208
330
21C
330
269
330
27D
330
464
330
488
102
}
330
A
100
AcDbSymbolTableRecord
100
AcDbDimStyleTableRecord
  2
SLDDIMSTYLE0
 70
     0
 41
0.0975
 44
0.0
 45
0.000000001
 78
    12
 79
     3
140
0.09375
147
0.0234375
148
0.000000001
170
     1
173
     1
178
     0
271
     2
272
     2
276
     2
284
    12
340
A6
  0
DIMSTYLE
105
168
330
A
100
AcDbSymbolTableRecord
100
AcDbDimStyleTableRecord
  2
SLDDIMSTYLE1
 70
     0
 41
0.0975
 44
0.0
 45
0.000000001
146
0.0975
147
0.0
173
     1
178
     0
271
     0
272
     0
276
     2
340
11
  0
DIMSTYLE
105
231
102
{ACAD_REACTORS
330
230
102
}
330
A
100
AcDbSymbolTableRecord
100
AcDbDimStyleTableRecord
  2
SLDDIMSTYLE2
 70
     0
 41
0.0975
 44
0.0
 45
0.000000001
 78
    12
 79
     3
140
0.09375
147
0.0234375
148
0.000000001
170
     1
172
     1
173
     1
178
     0
271
     2
272
     2
276
     2
284
    12
289
     0
340
A6
  0
DIMSTYLE
105
292
102
{ACAD_REACTORS
330
291
102
}
330
A
100
AcDbSymbolTableRecord
100
AcDbDimStyleTableRecord
  2
SLDDIMSTYLE3
 70
     0
 41
0.0975
 44
0.0
 45
0.000000001
 78
    12
 79
     3
140
0.09375
141
0.0
147
0.0234375
148
0.000000001
170
     1
173
     1
178
     0
271
     3
272
     3
276
     2
284
    12
340
A6
  0
DIMSTYLE
105
2A4
102
{ACAD_REACTORS
330
2A3
102
}
330
A
100
AcDbSymbolTableRecord
100
AcDbDimStyleTableRecord
  2
SLDDIMSTYLE4
 70
     0
 41
0.0975
 44
0.0
 45
0.000000001
 78
    12
 79
     3
140
0.09375
141
0.0
147
0.0234375
148
0.000000001
170
     1
173
     1
178
     0
271
     2
272
     2
276
     2
284
    12
340
A6
  0
DIMSTYLE
105
452
102
{ACAD_REACTORS
330
451
330
476
102
}
330
A
100
AcDbSymbolTableRecord
100
AcDbDimStyleTableRecord
  2
SLDDIMSTYLE5
 70
     0
 41
0.0975
 44
0.0
 45
0.000000001
 78
     4
 79
     1
140
0.09375
147
0.0234375
148
0.000000001
170
     1
172
     1
173
     1
178
     0
271
     2
272
     2
276
     2
284
    12
289
     0
340
A6
  0
ENDTAB
  0
TABLE
  2
BLOCK_RECORD
  5
1
330
0
100
AcDbSymbolTable
 70
    32
  0
BLOCK_RECORD
  5
1F
330
1
100
AcDbSymbolTableRecord
100
AcDbBlockTableRecord
  2
*Model_Space
340
22
  0
BLOCK_RECORD
  5
1B
330
1
100
AcDbSymbolTableRecord
100
AcDbBlockTableRecord
  2
*Paper_Space
340
1E
  0
BLOCK_RECORD
  5
23
330
1
100
AcDbSymbolTableRecord
100
AcDbBlockTableRecord
  2
*Paper_Space0
340
26
  0
BLOCK_RECORD
  5
A3
330
1
100
AcDbSymbolTableRecord
100
AcDbBlockTableRecord
  2
SW_NOTE_0
340
0
102
{BLKREFS
331
B2
102
}
  0
BLOCK_RECORD
  5
B3
330
1
100
AcDbSymbolTableRecord
100
AcDbBlockTableRecord
  2
SW_NOTE_1
340
0
102
{BLKREFS
331
BA
102
}
  0
BLOCK_RECORD
  5
BB
330
1
100
AcDbSymbolTableRecord
100
AcDbBlockTableRecord
  2
SW_NOTE_2
340
0
102
{BLKREFS
331
C2
102
}
  0
BLOCK_RECORD
  5
C7
330
1
100
AcDbSymbolTableRecord
100
AcDbBlockTableRecord
  2
SW_NOTE_3
340
0
102
{BLKREFS
331
CC
102
}
  0
BLOCK_RECORD
  5
CD
330
1
100
AcDbSymbolTableRecord
100
AcDbBlockTableRecord
  2
SW_NOTE_4
340
0
102
{BLKREFS
331
D2
102
}
  0
BLOCK_RECORD
  5
D3
330
1
100
AcDbSymbolTableRecord
100
AcDbBlockTableRecord
  2
SW_NOTE_5
340
0
102
{BLKREFS
331
D8
102
}
  0
BLOCK_RECORD
  5
12C
330
1
100
AcDbSymbolTableRecord
100
AcDbBlockTableRecord
  2
_D
340
0
  0
BLOCK_RECORD
  5
140
330
1
100
AcDbSymbolTableRecord
100
AcDbBlockTableRecord
  2
_D_1
340
0
  0
BLOCK_RECORD
  5
154
330
1
100
AcDbSymbolTableRecord
100
AcDbBlockTableRecord
  2
_D_2
340
0
  0
BLOCK_RECORD
  5
16C
330
1
100
AcDbSymbolTableRecord
100
AcDbBlockTableRecord
  2
SW_CENTERMARKSYMBOL_0
340
0
102
{BLKREFS
331
177
102
}
  0
BLOCK_RECORD
  5
178
330
1
100
AcDbSymbolTableRecord
100
AcDbBlockTableRecord
  2
SW_CENTERMARKSYMBOL_1
340
0
102
{BLKREFS
331
183
102
}
  0
BLOCK_RECORD
  5
184
330
1
100
AcDbSymbolTableRecord
100
AcDbBlockTableRecord
  2
SW_CENTERMARKSYMBOL_2
340
0
102
{BLKREFS
331
18F
102
}
  0
BLOCK_RECORD
  5
190
330
1
100
AcDbSymbolTableRecord
100
AcDbBlockTableRecord
  2
SW_CENTERMARKSYMBOL_3
340
0
102
{BLKREFS
331
19B
102
}
  0
BLOCK_RECORD
  5
19C
330
1
100
AcDbSymbolTableRecord
100
AcDbBlockTableRecord
  2
SW_CENTERMARKSYMBOL_4
340
0
102
{BLKREFS
331
1A7
102
}
  0
BLOCK_RECORD
  5
1A8
330
1
100
AcDbSymbolTableRecord
100
AcDbBlockTableRecord
  2
SW_CENTERMARKSYMBOL_5
340
0
102
{BLKREFS
331
1B3
102
}
  0
BLOCK_RECORD
  5
1F5
330
1
100
AcDbSymbolTableRecord
100
AcDbBlockTableRecord
  2
_D_3
340
0
  0
BLOCK_RECORD
  5
209
330
1
100
AcDbSymbolTableRecord
100
AcDbBlockTableRecord
  2
_D_4
340
0
  0
BLOCK_RECORD
  5
21D
330
1
100
AcDbSymbolTableRecord
100
AcDbBlockTableRecord
  2
_D_5
340
0
  0
BLOCK_RECORD
  5
232
330
1
100
AcDbSymbolTableRecord
100
AcDbBlockTableRecord
  2
_D_6
340
0
  0
BLOCK_RECORD
  5
26A
330
1
100
AcDbSymbolTableRecord
100
AcDbBlockTableRecord
  2
_D_7
340
0
  0
BLOCK_RECORD
  5
27E
330
1
100
AcDbSymbolTableRecord
100
AcDbBlockTableRecord
  2
_D_8
340
0
  0
BLOCK_RECORD
  5
293
330
1
100
AcDbSymbolTableRecord
100
AcDbBlockTableRecord
  2
_D_9
340
0
  0
BLOCK_RECORD
  5
2A5
330
1
100
AcDbSymbolTableRecord
100
AcDbBlockTableRecord
  2
_D_10
340
0
  0
BLOCK_RECORD
  5
2B5
330
1
100
AcDbSymbolTableRecord
100
AcDbBlockTableRecord
  2
SW_CENTERMARKSYMBOL_6
340
0
102
{BLKREFS
331
2C0
102
}
  0
BLOCK_RECORD
  5
2C1
330
1
100
AcDbSymbolTableRecord
100
AcDbBlockTableRecord
  2
SW_CENTERMARKSYMBOL_7
340
0
102
{BLKREFS
331
2CC
102
}
  0
BLOCK_RECORD
  5
2CD
330
1
100
AcDbSymbolTableRecord
100
AcDbBlockTableRecord
  2
SW_CENTERMARKSYMBOL_8
340
0
102
{BLKREFS
331
2D8
102
}
  0
BLOCK_RECORD
  5
2D9
330
1
100
AcDbSymbolTableRecord
100
AcDbBlockTableRecord
  2
SW_CENTERMARKSYMBOL_9
340
0
102
{BLKREFS
331
2E4
102
}
  0
BLOCK_RECORD
  5
453
330
1
100
AcDbSymbolTableRecord
100
AcDbBlockTableRecord
  2
_D_11
340
0
  0
BLOCK_RECORD
  5
465
330
1
100
AcDbSymbolTableRecord
100
AcDbBlockTableRecord
  2
_D_12
340
0
  0
BLOCK_RECORD
  5
477
330
1
100
AcDbSymbolTableRecord
100
AcDbBlockTableRecord
  2
_D_13
340
0
  0
BLOCK_RECORD
  5
489
330
1
100
AcDbSymbolTableRecord
100
AcDbBlockTableRecord
  2
_D_14
340
0
  0
ENDTAB
  0
ENDSEC
  0
SECTION
  2
BLOCKS
  0
BLOCK
  5
20
330
1F
100
AcDbEntity
  8
0
100
AcDbBlockBegin
  2
*Model_Space
 70
     0
 10
0.0
 20
0.0
 30
0.0
  3
*Model_Space
  1

  0
ENDBLK
  5
21
330
1F
100
AcDbEntity
  8
0
100
AcDbBlockEnd
  0
BLOCK
  5
1C
330
1B
100
AcDbEntity
 67
     1
  8
0
100
AcDbBlockBegin
  2
*Paper_Space
 70
     0
 10
0.0
 20
0.0
 30
0.0
  3
*Paper_Space
  1

  0
ENDBLK
  5
1D
330
1B
100
AcDbEntity
 67
     1
  8
0
100
AcDbBlockEnd
  0
BLOCK
  5
24
330
23
100
AcDbEntity
  8
0
100
AcDbBlockBegin
  2
*Paper_Space0
 70
     0
 10
0.0
 20
0.0
 30
0.0
  3
*Paper_Space0
  1

  0
ENDBLK
  5
25
330
23
100
AcDbEntity
  8
0
100
AcDbBlockEnd
  0
BLOCK
  5
A4
330
A3
100
AcDbEntity
  8
0
100
AcDbBlockBegin
  2
SW_NOTE_0
 70
     0
 10
0.0
 20
0.0
 30
0.0
  3
SW_NOTE_0
  1

  0
MTEXT
  5
A7
330
A3
100
AcDbEntity
  8
0
  6
Continuous
 62
     0
370
     0
100
AcDbMText
 10
0.0
 20
0.1208501006
 30
0.0
 40
0.09375
 41
0.0
 71
     1
 72
     1
  1
NOTES:
  7
SLDTEXTSTYLE0
 73
     1
 44
1.0
  0
MTEXT
  5
A8
330
A3
100
AcDbEntity
  8
0
  6
Continuous
 62
     0
370
     0
100
AcDbMText
 10
0.0
 20
-0.0024274553
 30
0.0
 40
0.09375
 41
0.0
 71
     1
 72
     1
  1
1- MATERIAL:  BODY - GRAY POLYCARBONATE RESIN 10% GLASS FIBER FILLED
  7
SLDTEXTSTYLE0
 73
     1
 44
1.0
  0
MTEXT
  5
A9
330
A3
100
AcDbEntity
  8
0
  6
Continuous
 62
     0
370
     0
100
AcDbMText
 10
0.7734375
 20
-0.1257050112
 30
0.0
 40
0.09375
 41
0.0
 71
     1
 72
     1
  1
COVER - GRAY OR CLEAR (-C SUFFIX) POLYCARBONATE
  7
SLDTEXTSTYLE0
 73
     1
 44
1.0
  0
MTEXT
  5
AB
330
A3
100
AcDbEntity
  8
0
  6
Continuous
 62
     0
370
     0
100
AcDbMText
 10
0.0
 20
-0.3722601229
 30
0.0
 40
0.09375
 41
0.0
 71
     1
 72
     1
  1
2- UL508 / NEMA TYPE 4X WITH IP-67 TUV RATING & UL-94V0
  7
SLDTEXTSTYLE1
 73
     1
 44
1.0
  0
MTEXT
  5
AC
330
A3
100
AcDbEntity
  8
0
  6
Continuous
 62
     0
370
     0
100
AcDbMText
 10
0.0
 20
-0.6188152347
 30
0.0
 40
0.09375
 41
0.0
 71
     1
 72
     1
  1
3- CONTINUOUS POURED FOAM GASKET IN COVER
  7
SLDTEXTSTYLE0
 73
     1
 44
1.0
  0
MTEXT
  5
AD
330
A3
100
AcDbEntity
  8
0
  6
Continuous
 62
     0
370
     0
100
AcDbMText
 10
0.0
 20
-0.8653703465
 30
0.0
 40
0.09375
 41
0.0
 71
     1
 72
     1
  1
4- COVER ATTACHES WITH M4 x 16mm LG. PAN HEAD STAINLESS
  7
SLDTEXTSTYLE0
 73
     1
 44
1.0
  0
MTEXT
  5
AE
330
A3
100
AcDbEntity
  8
0
  6
Continuous
 62
     0
370
     0
100
AcDbMText
 10
0.24609375
 20
-0.9886479024
 30
0.0
 40
0.09375
 41
0.0
 71
     1
 72
     1
  1
STEEL SCREWS (ITEMS NOT SHOWN)
  7
SLDTEXTSTYLE0
 73
     1
 44
1.0
  0
MTEXT
  5
AF
330
A3
100
AcDbEntity
  8
0
  6
Continuous
 62
     0
370
     0
100
AcDbMText
 10
0.0
 20
-1.2352030142
 30
0.0
 40
0.09375
 41
0.0
 71
     1
 72
     1
  1
5- SUPPLIED WITH TWO M4 x 8mm LG. TRUSS HEAD ZINC PLATED
  7
SLDTEXTSTYLE0
 73
     1
 44
1.0
  0
MTEXT
  5
B0
330
A3
100
AcDbEntity
  8
0
  6
Continuous
 62
     0
370
     0
100
AcDbMText
 10
0.28125
 20
-1.35848057
 30
0.0
 40
0.09375
 41
0.0
 71
     1
 72
     1
  1
STEEL SCREWS (ITEMS NOT SHOWN)
  7
SLDTEXTSTYLE0
 73
     1
 44
1.0
  0
MTEXT
  5
B1
330
A3
100
AcDbEntity
  8
0
  6
Continuous
 62
     0
370
     0
100
AcDbMText
 10
0.0
 20
-1.6050356818
 30
0.0
 40
0.09375
 41
0.0
 71
     1
 72
     1
  1
6- DIMENSIONS ARE INCH [MM]
  7
SLDTEXTSTYLE0
 73
     1
 44
1.0
  0
ENDBLK
  5
A5
330
A3
100
AcDbEntity
  8
0
100
AcDbBlockEnd
  0
BLOCK
  5
B4
330
B3
100
AcDbEntity
  8
0
100
AcDbBlockBegin
  2
SW_NOTE_1
 70
     0
 10
0.0
 20
0.0
 30
0.0
  3
SW_NOTE_1
  1

  0
MTEXT
  5
B6
330
B3
100
AcDbEntity
  8
0
  6
Continuous
 62
     0
370
     0
100
AcDbMText
 10
0.7661132812
 20
0.1208501006
 30
0.0
 40
0.09375
 41
0.0
 71
     2
 72
     1
  1
DRAWING FOR REFERENCE
  7
SLDTEXTSTYLE0
 73
     1
 44
1.0
  0
MTEXT
  5
B7
330
B3
100
AcDbEntity
  8
0
  6
Continuous
 62
     0
370
     0
100
AcDbMText
 10
0.7712451969
 20
-0.0160859097
 30
0.0
 40
0.0465
 41
0.0
 71
     2
 72
     1
  1
WE RESERVE THE RIGHT TO MAKE CHANGES TO OUR
  7
SLDTEXTSTYLE0
 73
     1
 44
1.0
  0
MTEXT
  5
B8
330
B3
100
AcDbEntity
  8
0
  6
Continuous
 62
     0
370
     0
100
AcDbMText
 10
0.7674347735
 20
-0.0921134702
 30
0.0
 40
0.0465
 41
0.0
 71
     2
 72
     1
  1
STANDARD PRODUCTS. PLEASE CONSULT WITH BUD INDUSTRIES
  7
SLDTEXTSTYLE0
 73
     1
 44
1.0
  0
MTEXT
  5
B9
330
B3
100
AcDbEntity
  8
0
  6
Continuous
 62
     0
370
     0
100
AcDbMText
 10
0.7752492514
 20
-0.1681410307
 30
0.0
 40
0.0465
 41
0.0
 71
     2
 72
     1
  1
PRIOR TO USING THIS DRAWING FOR DESIGN PURPOSE.
  7
SLDTEXTSTYLE0
 73
     1
 44
1.0
  0
ENDBLK
  5
B5
330
B3
100
AcDbEntity
  8
0
100
AcDbBlockEnd
  0
BLOCK
  5
BC
330
BB
100
AcDbEntity
  8
0
100
AcDbBlockBegin
  2
SW_NOTE_2
 70
     0
 10
0.0
 20
0.0
 30
0.0
  3
SW_NOTE_2
  1

  0
MTEXT
  5
BE
330
BB
100
AcDbEntity
  8
0
  6
Continuous
 62
     0
370
     0
100
AcDbMText
 10
0.0
 20
0.1208501006
 30
0.0
 40
0.09375
 41
0.0
 71
     1
 72
     1
  1
OPTIONAL ACCESSORIES:
  7
SLDTEXTSTYLE0
 73
     1
 44
1.0
  0
MTEXT
  5
BF
330
BB
100
AcDbEntity
  8
0
  6
Continuous
 62
     0
370
     0
100
AcDbMText
 10
0.0703125
 20
-0.0024274553
 30
0.0
 40
0.09375
 41
0.0
 71
     1
 72
     1
  1
INTERNAL STEEL PANEL #PTX-25301
  7
SLDTEXTSTYLE0
 73
     1
 44
1.0
  0
MTEXT
  5
C0
330
BB
100
AcDbEntity
  8
0
  6
Continuous
 62
     0
370
     0
100
AcDbMText
 10
0.0703125
 20
-0.1257050112
 30
0.0
 40
0.09375
 41
0.0
 71
     1
 72
     1
  1
MOUNTING BRACKET KIT (STAINLESS STEEL) - #NBX-10920
  7
SLDTEXTSTYLE0
 73
     1
 44
1.0
  0
MTEXT
  5
C1
330
BB
100
AcDbEntity
  8
0
  6
Continuous
 62
     0
370
     0
100
AcDbMText
 10
0.0703125
 20
-0.2489825671
 30
0.0
 40
0.09375
 41
0.0
 71
     1
 72
     1
  1
MOUNTING BRACKET KIT (PLASTIC) #PIX-4117
  7
SLDTEXTSTYLE0
 73
     1
 44
1.0
  0
ENDBLK
  5
BD
330
BB
100
AcDbEntity
  8
0
100
AcDbBlockEnd
  0
BLOCK
  5
C8
330
C7
100
AcDbEntity
  8
0
100
AcDbBlockBegin
  2
SW_NOTE_3
 70
     0
 10
0.0
 20
0.0
 30
0.0
  3
SW_NOTE_3
  1

  0
MTEXT
  5
CA
330
C7
100
AcDbEntity
  8
0
  6
Continuous
 62
     0
370
     0
100
AcDbMText
 10
0.1420898437
 20
0.1208501006
 30
0.0
 40
0.09375
 41
0.0
 71
     2
 72
     1
  1
PART
  7
SLDTEXTSTYLE0
 73
     1
 44
1.0
  0
MTEXT
  5
CB
330
C7
100
AcDbEntity
  8
0
  6
Continuous
 62
     0
370
     0
100
AcDbMText
 10
0.1408284525
 20
-0.0024274553
 30
0.0
 40
0.09375
 41
0.0
 71
     2
 72
     1
  1
NAME
  7
SLDTEXTSTYLE0
 73
     1
 44
1.0
  0
ENDBLK
  5
C9
330
C7
100
AcDbEntity
  8
0
100
AcDbBlockEnd
  0
BLOCK
  5
CE
330
CD
100
AcDbEntity
  8
0
100
AcDbBlockBegin
  2
SW_NOTE_4
 70
     0
 10
0.0
 20
0.0
 30
0.0
  3
SW_NOTE_4
  1

  0
MTEXT
  5
D0
330
CD
100
AcDbEntity
  8
0
  6
Continuous
 62
     0
370
     0
100
AcDbMText
 10
0.1420898438
 20
0.1208501006
 30
0.0
 40
0.09375
 41
0.0
 71
     2
 72
     1
  1
PART
  7
SLDTEXTSTYLE0
 73
     1
 44
1.0
  0
MTEXT
  5
D1
330
CD
100
AcDbEntity
  8
0
  6
Continuous
 62
     0
370
     0
100
AcDbMText
 10
0.1463216161
 20
-0.0024274553
 30
0.0
 40
0.09375
 41
0.0
 71
     2
 72
     1
  1
No.
  7
SLDTEXTSTYLE0
 73
     1
 44
1.0
  0
ENDBLK
  5
CF
330
CD
100
AcDbEntity
  8
0
100
AcDbBlockEnd
  0
BLOCK
  5
D4
330
D3
100
AcDbEntity
  8
0
100
AcDbBlockBegin
  2
SW_NOTE_5
 70
     0
 10
0.0
 20
0.0
 30
0.0
  3
SW_NOTE_5
  1

  0
MTEXT
  5
D6
330
D3
100
AcDbEntity
  8
0
  6
Continuous
 62
     0
370
     0
100
AcDbMText
 10
0.275390625
 20
0.1208501006
 30
0.0
 40
0.09375
 41
0.0
 71
     2
 72
     1
  1
REVISION
  7
SLDTEXTSTYLE0
 73
     1
 44
1.0
  0
MTEXT
  5
D7
330
D3
100
AcDbEntity
  8
0
  6
Continuous
 62
     0
370
     0
100
AcDbMText
 10
0.2651204427
 20
-0.0024274553
 30
0.0
 40
0.09375
 41
0.0
 71
     2
 72
     1
  1
DATE
  7
SLDTEXTSTYLE0
 73
     1
 44
1.0
  0
ENDBLK
  5
D5
330
D3
100
AcDbEntity
  8
0
100
AcDbBlockEnd
  0
BLOCK
  5
12D
330
12C
100
AcDbEntity
  8
0
100
AcDbBlockBegin
  2
_D
 70
     0
 10
0.0
 20
0.0
 30
0.0
  3
_D
  1

  0
SOLID
  5
12F
330
12C
100
AcDbEntity
  8
0
  6
Continuous
 62
     7
370
    18
100
AcDbTrace
 10
3.4384937411
 20
7.225643297
 30
0.0
 11
3.3409937411
 21
7.240643297
 31
0.0
 12
3.3409937411
 22
7.210643297
 32
0.0
 13
3.3409937411
 23
7.210643297
 33
0.0
  0
SOLID
  5
130
330
12C
100
AcDbEntity
  8
0
  6
Continuous
 62
     7
370
    18
100
AcDbTrace
 10
1.4700055645
 20
7.225643297
 30
0.0
 11
1.5675055645
 21
7.210643297
 31
0.0
 12
1.5675055645
 22
7.240643297
 32
0.0
 13
1.5675055645
 23
7.240643297
 33
0.0
  0
LINE
  5
131
330
12C
100
AcDbEntity
  8
0
  6
Continuous
 62
     7
370
    18
100
AcDbLine
 10
2.384978833
 20
7.2249271365
 30
0.0
 11
2.3564143802
 21
7.2249271365
 31
0.0
  0
LINE
  5
132
330
12C
100
AcDbEntity
  8
0
  6
Continuous
 62
     7
370
    18
100
AcDbLine
 10
2.3564143802
 20
7.2249271365
 30
0.0
 11
2.3564143802
 21
7.076099007
 31
0.0
  0
LINE
  5
133
330
12C
100
AcDbEntity
  8
0
  6
Continuous
 62
     7
370
    18
100
AcDbLine
 10
2.3564143802
 20
7.076099007
 30
0.0
 11
2.384978833
 21
7.076099007
 31
0.0
  0
LINE
  5
134
330
12C
100
AcDbEntity
  8
0
  6
Continuous
 62
     7
370
    18
100
AcDbLine
 10
2.5235205001
 20
7.2249271365
 30
0.0
 11
2.5520849529
 21
7.2249271365
 31
0.0
  0
LINE
  5
135
330
12C
100
AcDbEntity
  8
0
  6
Continuous
 62
     7
370
    18
100
AcDbLine
 10
2.5520849529
 20
7.2249271365
 30
0.0
 11
2.5520849529
 21
7.076099007
 31
0.0
  0
LINE
  5
136
330
12C
100
AcDbEntity
  8
0
  6
Continuous
 62
     7
370
    18
100
AcDbLine
 10
2.5520849529
 20
7.076099007
 30
0.0
 11
2.5235205001
 21
7.076099007
 31
0.0
  0
LINE
  5
137
330
12C
100
AcDbEntity
  8
0
  6
Continuous
 62
     7
370
    18
100
AcDbLine
 10
3.4384937411
 20
6.536917078
 30
0.0
 11
3.4384937411
 21
7.319393297
 31
0.0
  0
LINE
  5
138
330
12C
100
AcDbEntity
  8
0
  6
Continuous
 62
     7
370
    18
100
AcDbLine
 10
1.4700055645
 20
6.536917078
 30
0.0
 11
1.4700055645
 21
7.319393297
 31
0.0
  0
LINE
  5
139
330
12C
100
AcDbEntity
  8
0
  6
Continuous
 62
     7
370
    18
100
AcDbLine
 10
3.4384937411
 20
7.225643297
 30
0.0
 11
2.6343175675
 21
7.225643297
 31
0.0
  0
LINE
  5
13A
330
12C
100
AcDbEntity
  8
0
  6
Continuous
 62
     7
370
    18
100
AcDbLine
 10
1.4700055645
 20
7.225643297
 30
0.0
 11
2.2741817381
 21
7.225643297
 31
0.0
  0
MTEXT
  5
13B
330
12C
100
AcDbEntity
  8
0
  6
Continuous
 62
     7
370
    18
100
AcDbMText
 10
2.3283707606
 20
7.3662525071
 30
0.0
 40
0.09375
 41
0.0
 71
     1
 72
     1
  1

  7
SLDTEXTSTYLE0
 73
     1
 44
1.0
  0
MTEXT
  5
13C
330
12C
100
AcDbEntity
  8
0
  6
Continuous
 62
     7
370
    18
100
AcDbMText
 10
2.3330256976
 20
7.3648202085
 30
0.0
 40
0.09375
 41
0.0
 71
     1
 72
     1
  1
1.97
  7
SLDTEXTSTYLE0
 73
     1
 44
1.0
  0
MTEXT
  5
13D
330
12C
100
AcDbEntity
  8
0
  6
Continuous
 62
     7
370
    18
100
AcDbMText
 10
2.384978833
 20
7.196949118
 30
0.0
 40
0.09375
 41
0.0
 71
     1
 72
     1
  1
50
  7
SLDTEXTSTYLE0
 73
     1
 44
1.0
  0
MTEXT
  5
13E
330
12C
100
AcDbEntity
  8
0
  6
Continuous
 62
     7
370
    18
100
AcDbMText
 10
2.6158056351
 20
7.3662525071
 30
0.0
 40
0.09375
 41
0.0
 71
     1
 72
     1
  1

  7
SLDTEXTSTYLE0
 73
     1
 44
1.0
  0
ENDBLK
  5
12E
330
12C
100
AcDbEntity
  8
0
100
AcDbBlockEnd
  0
BLOCK
  5
141
330
140
100
AcDbEntity
  8
0
100
AcDbBlockBegin
  2
_D_1
 70
     0
 10
0.0
 20
0.0
 30
0.0
  3
_D_1
  1

  0
SOLID
  5
143
330
140
100
AcDbEntity
  8
0
  6
Continuous
 62
     7
370
    18
100
AcDbTrace
 10
1.1615966945
 20
6.7356356592
 30
0.0
 11
1.1465966945
 21
6.6381356592
 31
0.0
 12
1.1765966945
 22
6.6381356592
 32
0.0
 13
1.1765966945
 23
6.6381356592
 33
0.0
  0
SOLID
  5
144
330
140
100
AcDbEntity
  8
0
  6
Continuous
 62
     7
370
    18
100
AcDbTrace
 10
1.1615966945
 20
4.1766010296
 30
0.0
 11
1.1765966945
 21
4.2741010296
 31
0.0
 12
1.1465966945
 22
4.2741010296
 32
0.0
 13
1.1465966945
 23
4.2741010296
 33
0.0
  0
LINE
  5
145
330
140
100
AcDbEntity
  8
0
  6
Continuous
 62
     7
370
    18
100
AcDbLine
 10
1.0923258747
 20
5.4554021839
 30
0.0
 11
1.0637614219
 21
5.4554021839
 31
0.0
  0
LINE
  5
146
330
140
100
AcDbEntity
  8
0
  6
Continuous
 62
     7
370
    18
100
AcDbLine
 10
1.0637614219
 20
5.4554021839
 30
0.0
 11
1.0637614219
 21
5.3065740544
 31
0.0
  0
LINE
  5
147
330
140
100
AcDbEntity
  8
0
  6
Continuous
 62
     7
370
    18
100
AcDbLine
 10
1.0637614219
 20
5.3065740544
 30
0.0
 11
1.0923258747
 21
5.3065740544
 31
0.0
  0
LINE
  5
148
330
140
100
AcDbEntity
  8
0
  6
Continuous
 62
     7
370
    18
100
AcDbLine
 10
1.2308675418
 20
5.4554021839
 30
0.0
 11
1.2594319946
 21
5.4554021839
 31
0.0
  0
LINE
  5
149
330
140
100
AcDbEntity
  8
0
  6
Continuous
 62
     7
370
    18
100
AcDbLine
 10
1.2594319946
 20
5.4554021839
 30
0.0
 11
1.2594319946
 21
5.3065740544
 31
0.0
  0
LINE
  5
14A
330
140
100
AcDbEntity
  8
0
  6
Continuous
 62
     7
370
    18
100
AcDbLine
 10
1.2594319946
 20
5.3065740544
 30
0.0
 11
1.2308675418
 21
5.3065740544
 31
0.0
  0
LINE
  5
14B
330
140
100
AcDbEntity
  8
0
  6
Continuous
 62
     7
370
    18
100
AcDbLine
 10
1.6687241457
 20
6.7356356592
 30
0.0
 11
1.0678466945
 21
6.7356356592
 31
0.0
  0
LINE
  5
14C
330
140
100
AcDbEntity
  8
0
  6
Continuous
 62
     7
370
    18
100
AcDbLine
 10
1.6687241457
 20
4.1766010296
 30
0.0
 11
1.0678466945
 21
4.1766010296
 31
0.0
  0
LINE
  5
14D
330
140
100
AcDbEntity
  8
0
  6
Continuous
 62
     7
370
    18
100
AcDbLine
 10
1.1615966945
 20
6.7356356592
 30
0.0
 11
1.1615966945
 21
5.6247055731
 31
0.0
  0
LINE
  5
14E
330
140
100
AcDbEntity
  8
0
  6
Continuous
 62
     7
370
    18
100
AcDbLine
 10
1.1615966945
 20
4.1766010296
 30
0.0
 11
1.1615966945
 21
5.2875311157
 31
0.0
  0
MTEXT
  5
14F
330
140
100
AcDbEntity
  8
0
  6
Continuous
 62
     7
370
    18
100
AcDbMText
 10
1.0357178023
 20
5.5967275545
 30
0.0
 40
0.09375
 41
0.0
 71
     1
 72
     1
  1

  7
SLDTEXTSTYLE0
 73
     1
 44
1.0
  0
MTEXT
  5
150
330
140
100
AcDbEntity
  8
0
  6
Continuous
 62
     7
370
    18
100
AcDbMText
 10
1.0403727392
 20
5.5952952559
 30
0.0
 40
0.09375
 41
0.0
 71
     1
 72
     1
  1
2.56
  7
SLDTEXTSTYLE0
 73
     1
 44
1.0
  0
MTEXT
  5
151
330
140
100
AcDbEntity
  8
0
  6
Continuous
 62
     7
370
    18
100
AcDbMText
 10
1.0923258747
 20
5.4274241653
 30
0.0
 40
0.09375
 41
0.0
 71
     1
 72
     1
  1
65
  7
SLDTEXTSTYLE0
 73
     1
 44
1.0
  0
MTEXT
  5
152
330
140
100
AcDbEntity
  8
0
  6
Continuous
 62
     7
370
    18
100
AcDbMText
 10
1.3231526768
 20
5.5967275545
 30
0.0
 40
0.09375
 41
0.0
 71
     1
 72
     1
  1

  7
SLDTEXTSTYLE0
 73
     1
 44
1.0
  0
ENDBLK
  5
142
330
140
100
AcDbEntity
  8
0
100
AcDbBlockEnd
  0
BLOCK
  5
155
330
154
100
AcDbEntity
  8
0
100
AcDbBlockBegin
  2
_D_2
 70
     0
 10
0.0
 20
0.0
 30
0.0
  3
_D_2
  1

  0
SOLID
  5
157
330
154
100
AcDbEntity
  8
0
  6
Continuous
 62
     7
370
    18
100
AcDbTrace
 10
3.777173423
 20
6.2435199192
 30
0.0
 11
3.762173423
 21
6.1460199192
 31
0.0
 12
3.792173423
 22
6.1460199192
 32
0.0
 13
3.792173423
 23
6.1460199192
 33
0.0
  0
SOLID
  5
158
330
154
100
AcDbEntity
  8
0
  6
Continuous
 62
     7
370
    18
100
AcDbTrace
 10
3.777173423
 20
4.6687167696
 30
0.0
 11
3.792173423
 21
4.7662167696
 31
0.0
 12
3.762173423
 22
4.7662167696
 32
0.0
 13
3.762173423
 23
4.7662167696
 33
0.0
  0
LINE
  5
159
330
154
100
AcDbEntity
  8
0
  6
Continuous
 62
     7
370
    18
100
AcDbLine
 10
3.7079026032
 20
5.4554021839
 30
0.0
 11
3.6793381504
 21
5.4554021839
 31
0.0
  0
LINE
  5
15A
330
154
100
AcDbEntity
  8
0
  6
Continuous
 62
     7
370
    18
100
AcDbLine
 10
3.6793381504
 20
5.4554021839
 30
0.0
 11
3.6793381504
 21
5.3065740544
 31
0.0
  0
LINE
  5
15B
330
154
100
AcDbEntity
  8
0
  6
Continuous
 62
     7
370
    18
100
AcDbLine
 10
3.6793381504
 20
5.3065740544
 30
0.0
 11
3.7079026032
 21
5.3065740544
 31
0.0
  0
LINE
  5
15C
330
154
100
AcDbEntity
  8
0
  6
Continuous
 62
     7
370
    18
100
AcDbLine
 10
3.8464442703
 20
5.4554021839
 30
0.0
 11
3.8750087231
 21
5.4554021839
 31
0.0
  0
LINE
  5
15D
330
154
100
AcDbEntity
  8
0
  6
Continuous
 62
     7
370
    18
100
AcDbLine
 10
3.8750087231
 20
5.4554021839
 30
0.0
 11
3.8750087231
 21
5.3065740544
 31
0.0
  0
LINE
  5
15E
330
154
100
AcDbEntity
  8
0
  6
Continuous
 62
     7
370
    18
100
AcDbLine
 10
3.8750087231
 20
5.3065740544
 30
0.0
 11
3.8464442703
 21
5.3065740544
 31
0.0
  0
LINE
  5
15F
330
154
100
AcDbEntity
  8
0
  6
Continuous
 62
     7
370
    18
100
AcDbLine
 10
2.4917496528
 20
6.2435199192
 30
0.0
 11
3.870923423
 21
6.2435199192
 31
0.0
  0
LINE
  5
160
330
154
100
AcDbEntity
  8
0
  6
Continuous
 62
     7
370
    18
100
AcDbLine
 10
2.4917496528
 20
4.6687167696
 30
0.0
 11
3.870923423
 21
4.6687167696
 31
0.0
  0
LINE
  5
161
330
154
100
AcDbEntity
  8
0
  6
Continuous
 62
     7
370
    18
100
AcDbLine
 10
3.777173423
 20
6.2435199192
 30
0.0
 11
3.777173423
 21
5.6247055731
 31
0.0
  0
LINE
  5
162
330
154
100
AcDbEntity
  8
0
  6
Continuous
 62
     7
370
    18
100
AcDbLine
 10
3.777173423
 20
4.6687167696
 30
0.0
 11
3.777173423
 21
5.2875311157
 31
0.0
  0
MTEXT
  5
163
330
154
100
AcDbEntity
  8
0
  6
Continuous
 62
     7
370
    18
100
AcDbMText
 10
3.6512945308
 20
5.5967275545
 30
0.0
 40
0.09375
 41
0.0
 71
     1
 72
     1
  1

  7
SLDTEXTSTYLE0
 73
     1
 44
1.0
  0
MTEXT
  5
164
330
154
100
AcDbEntity
  8
0
  6
Continuous
 62
     7
370
    18
100
AcDbMText
 10
3.6559494678
 20
5.5952952559
 30
0.0
 40
0.09375
 41
0.0
 71
     1
 72
     1
  1
1.57
  7
SLDTEXTSTYLE0
 73
     1
 44
1.0
  0
MTEXT
  5
165
330
154
100
AcDbEntity
  8
0
  6
Continuous
 62
     7
370
    18
100
AcDbMText
 10
3.7079026032
 20
5.4274241653
 30
0.0
 40
0.09375
 41
0.0
 71
     1
 72
     1
  1
40
  7
SLDTEXTSTYLE0
 73
     1
 44
1.0
  0
MTEXT
  5
166
330
154
100
AcDbEntity
  8
0
  6
Continuous
 62
     7
370
    18
100
AcDbMText
 10
3.9387294053
 20
5.5967275545
 30
0.0
 40
0.09375
 41
0.0
 71
     1
 72
     1
  1

  7
SLDTEXTSTYLE0
 73
     1
 44
1.0
  0
ENDBLK
  5
156
330
154
100
AcDbEntity
  8
0
100
AcDbBlockEnd
  0
BLOCK
  5
16D
330
16C
100
AcDbEntity
  8
0
100
AcDbBlockBegin
  2
SW_CENTERMARKSYMBOL_0
 70
     0
 10
0.0
 20
0.0
 30
0.0
  3
SW_CENTERMARKSYMBOL_0
  1

  0
LINE
  5
16F
330
16C
100
AcDbEntity
  8
0
  6
Continuous
 62
     0
370
    18
100
AcDbLine
 10
0.0
 20
0.0
 30
0.0
 11
0.0
 21
0.1
 31
0.0
  0
LINE
  5
170
330
16C
100
AcDbEntity
  8
0
  6
Continuous
 62
     0
370
    18
100
AcDbLine
 10
0.0
 20
0.0
 30
0.0
 11
-0.1
 21
0.0
 31
0.0
  0
LINE
  5
171
330
16C
100
AcDbEntity
  8
0
  6
Continuous
 62
     0
370
    18
100
AcDbLine
 10
0.0
 20
0.0
 30
0.0
 11
0.0
 21
-0.1
 31
0.0
  0
LINE
  5
172
330
16C
100
AcDbEntity
  8
0
  6
Continuous
 62
     0
370
    18
100
AcDbLine
 10
0.0
 20
0.0
 30
0.0
 11
0.1
 21
0.0
 31
0.0
  0
LINE
  5
173
330
16C
100
AcDbEntity
  8
0
  6
Continuous
 62
     0
370
    18
100
AcDbLine
 10
0.0
 20
0.1
 30
0.0
 11
0.0
 21
0.1680905512
 31
0.0
  0
LINE
  5
174
330
16C
100
AcDbEntity
  8
0
  6
Continuous
 62
     0
370
    18
100
AcDbLine
 10
-0.1
 20
0.0
 30
0.0
 11
-0.1680905512
 21
0.0
 31
0.0
  0
LINE
  5
175
330
16C
100
AcDbEntity
  8
0
  6
Continuous
 62
     0
370
    18
100
AcDbLine
 10
0.0
 20
-0.1
 30
0.0
 11
0.0
 21
-0.1680905512
 31
0.0
  0
LINE
  5
176
330
16C
100
AcDbEntity
  8
0
  6
Continuous
 62
     0
370
    18
100
AcDbLine
 10
0.1
 20
0.0
 30
0.0
 11
0.1680905512
 21
0.0
 31
0.0
  0
ENDBLK
  5
16E
330
16C
100
AcDbEntity
  8
0
100
AcDbBlockEnd
  0
BLOCK
  5
179
330
178
100
AcDbEntity
  8
0
100
AcDbBlockBegin
  2
SW_CENTERMARKSYMBOL_1
 70
     0
 10
0.0
 20
0.0
 30
0.0
  3
SW_CENTERMARKSYMBOL_1
  1

  0
LINE
  5
17B
330
178
100
AcDbEntity
  8
0
  6
Continuous
 62
     0
370
    18
100
AcDbLine
 10
0.0
 20
0.0
 30
0.0
 11
0.0
 21
0.1
 31
0.0
  0
LINE
  5
17C
330
178
100
AcDbEntity
  8
0
  6
Continuous
 62
     0
370
    18
100
AcDbLine
 10
0.0
 20
0.0
 30
0.0
 11
-0.1
 21
0.0
 31
0.0
  0
LINE
  5
17D
330
178
100
AcDbEntity
  8
0
  6
Continuous
 62
     0
370
    18
100
AcDbLine
 10
0.0
 20
0.0
 30
0.0
 11
0.0
 21
-0.1
 31
0.0
  0
LINE
  5
17E
330
178
100
AcDbEntity
  8
0
  6
Continuous
 62
     0
370
    18
100
AcDbLine
 10
0.0
 20
0.0
 30
0.0
 11
0.1
 21
0.0
 31
0.0
  0
LINE
  5
17F
330
178
100
AcDbEntity
  8
0
  6
Continuous
 62
     0
370
    18
100
AcDbLine
 10
0.0
 20
0.1
 30
0.0
 11
0.0
 21
0.1680905512
 31
0.0
  0
LINE
  5
180
330
178
100
AcDbEntity
  8
0
  6
Continuous
 62
     0
370
    18
100
AcDbLine
 10
-0.1
 20
0.0
 30
0.0
 11
-0.1680905512
 21
0.0
 31
0.0
  0
LINE
  5
181
330
178
100
AcDbEntity
  8
0
  6
Continuous
 62
     0
370
    18
100
AcDbLine
 10
0.0
 20
-0.1
 30
0.0
 11
0.0
 21
-0.1680905512
 31
0.0
  0
LINE
  5
182
330
178
100
AcDbEntity
  8
0
  6
Continuous
 62
     0
370
    18
100
AcDbLine
 10
0.1
 20
0.0
 30
0.0
 11
0.1680905512
 21
0.0
 31
0.0
  0
ENDBLK
  5
17A
330
178
100
AcDbEntity
  8
0
100
AcDbBlockEnd
  0
BLOCK
  5
185
330
184
100
AcDbEntity
  8
0
100
AcDbBlockBegin
  2
SW_CENTERMARKSYMBOL_2
 70
     0
 10
0.0
 20
0.0
 30
0.0
  3
SW_CENTERMARKSYMBOL_2
  1

  0
LINE
  5
187
330
184
100
AcDbEntity
  8
0
  6
Continuous
 62
     0
370
    18
100
AcDbLine
 10
0.0
 20
0.0
 30
0.0
 11
0.0
 21
0.1
 31
0.0
  0
LINE
  5
188
330
184
100
AcDbEntity
  8
0
  6
Continuous
 62
     0
370
    18
100
AcDbLine
 10
0.0
 20
0.0
 30
0.0
 11
-0.1
 21
0.0
 31
0.0
  0
LINE
  5
189
330
184
100
AcDbEntity
  8
0
  6
Continuous
 62
     0
370
    18
100
AcDbLine
 10
0.0
 20
0.0
 30
0.0
 11
0.0
 21
-0.1
 31
0.0
  0
LINE
  5
18A
330
184
100
AcDbEntity
  8
0
  6
Continuous
 62
     0
370
    18
100
AcDbLine
 10
0.0
 20
0.0
 30
0.0
 11
0.1
 21
0.0
 31
0.0
  0
LINE
  5
18B
330
184
100
AcDbEntity
  8
0
  6
Continuous
 62
     0
370
    18
100
AcDbLine
 10
0.0
 20
0.1
 30
0.0
 11
0.0
 21
0.1680905512
 31
0.0
  0
LINE
  5
18C
330
184
100
AcDbEntity
  8
0
  6
Continuous
 62
     0
370
    18
100
AcDbLine
 10
-0.1
 20
0.0
 30
0.0
 11
-0.1680905512
 21
0.0
 31
0.0
  0
LINE
  5
18D
330
184
100
AcDbEntity
  8
0
  6
Continuous
 62
     0
370
    18
100
AcDbLine
 10
0.0
 20
-0.1
 30
0.0
 11
0.0
 21
-0.1680905512
 31
0.0
  0
LINE
  5
18E
330
184
100
AcDbEntity
  8
0
  6
Continuous
 62
     0
370
    18
100
AcDbLine
 10
0.1
 20
0.0
 30
0.0
 11
0.1680905512
 21
0.0
 31
0.0
  0
ENDBLK
  5
186
330
184
100
AcDbEntity
  8
0
100
AcDbBlockEnd
  0
BLOCK
  5
191
330
190
100
AcDbEntity
  8
0
100
AcDbBlockBegin
  2
SW_CENTERMARKSYMBOL_3
 70
     0
 10
0.0
 20
0.0
 30
0.0
  3
SW_CENTERMARKSYMBOL_3
  1

  0
LINE
  5
193
330
190
100
AcDbEntity
  8
0
  6
Continuous
 62
     0
370
    18
100
AcDbLine
 10
0.0
 20
0.0
 30
0.0
 11
0.0
 21
0.1
 31
0.0
  0
LINE
  5
194
330
190
100
AcDbEntity
  8
0
  6
Continuous
 62
     0
370
    18
100
AcDbLine
 10
0.0
 20
0.0
 30
0.0
 11
-0.1
 21
0.0
 31
0.0
  0
LINE
  5
195
330
190
100
AcDbEntity
  8
0
  6
Continuous
 62
     0
370
    18
100
AcDbLine
 10
0.0
 20
0.0
 30
0.0
 11
0.0
 21
-0.1
 31
0.0
  0
LINE
  5
196
330
190
100
AcDbEntity
  8
0
  6
Continuous
 62
     0
370
    18
100
AcDbLine
 10
0.0
 20
0.0
 30
0.0
 11
0.1
 21
0.0
 31
0.0
  0
LINE
  5
197
330
190
100
AcDbEntity
  8
0
  6
Continuous
 62
     0
370
    18
100
AcDbLine
 10
0.0
 20
0.1
 30
0.0
 11
0.0
 21
0.1680905512
 31
0.0
  0
LINE
  5
198
330
190
100
AcDbEntity
  8
0
  6
Continuous
 62
     0
370
    18
100
AcDbLine
 10
-0.1
 20
0.0
 30
0.0
 11
-0.1680905512
 21
0.0
 31
0.0
  0
LINE
  5
199
330
190
100
AcDbEntity
  8
0
  6
Continuous
 62
     0
370
    18
100
AcDbLine
 10
0.0
 20
-0.1
 30
0.0
 11
0.0
 21
-0.1680905512
 31
0.0
  0
LINE
  5
19A
330
190
100
AcDbEntity
  8
0
  6
Continuous
 62
     0
370
    18
100
AcDbLine
 10
0.1
 20
0.0
 30
0.0
 11
0.1680905512
 21
0.0
 31
0.0
  0
ENDBLK
  5
192
330
190
100
AcDbEntity
  8
0
100
AcDbBlockEnd
  0
BLOCK
  5
19D
330
19C
100
AcDbEntity
  8
0
100
AcDbBlockBegin
  2
SW_CENTERMARKSYMBOL_4
 70
     0
 10
0.0
 20
0.0
 30
0.0
  3
SW_CENTERMARKSYMBOL_4
  1

  0
LINE
  5
19F
330
19C
100
AcDbEntity
  8
0
  6
Continuous
 62
     0
370
    18
100
AcDbLine
 10
0.0
 20
0.0
 30
0.0
 11
0.0
 21
0.1
 31
0.0
  0
LINE
  5
1A0
330
19C
100
AcDbEntity
  8
0
  6
Continuous
 62
     0
370
    18
100
AcDbLine
 10
0.0
 20
0.0
 30
0.0
 11
-0.1
 21
0.0
 31
0.0
  0
LINE
  5
1A1
330
19C
100
AcDbEntity
  8
0
  6
Continuous
 62
     0
370
    18
100
AcDbLine
 10
0.0
 20
0.0
 30
0.0
 11
0.0
 21
-0.1
 31
0.0
  0
LINE
  5
1A2
330
19C
100
AcDbEntity
  8
0
  6
Continuous
 62
     0
370
    18
100
AcDbLine
 10
0.0
 20
0.0
 30
0.0
 11
0.1
 21
0.0
 31
0.0
  0
LINE
  5
1A3
330
19C
100
AcDbEntity
  8
0
  6
Continuous
 62
     0
370
    18
100
AcDbLine
 10
0.0
 20
0.2
 30
0.0
 11
0.0
 21
0.297
 31
0.0
  0
LINE
  5
1A4
330
19C
100
AcDbEntity
  8
0
  6
Continuous
 62
     0
370
    18
100
AcDbLine
 10
-0.2
 20
0.0
 30
0.0
 11
-0.297
 21
0.0
 31
0.0
  0
LINE
  5
1A5
330
19C
100
AcDbEntity
  8
0
  6
Continuous
 62
     0
370
    18
100
AcDbLine
 10
0.0
 20
-0.2
 30
0.0
 11
0.0
 21
-0.297
 31
0.0
  0
LINE
  5
1A6
330
19C
100
AcDbEntity
  8
0
  6
Continuous
 62
     0
370
    18
100
AcDbLine
 10
0.2
 20
0.0
 30
0.0
 11
0.297
 21
0.0
 31
0.0
  0
ENDBLK
  5
19E
330
19C
100
AcDbEntity
  8
0
100
AcDbBlockEnd
  0
BLOCK
  5
1A9
330
1A8
100
AcDbEntity
  8
0
100
AcDbBlockBegin
  2
SW_CENTERMARKSYMBOL_5
 70
     0
 10
0.0
 20
0.0
 30
0.0
  3
SW_CENTERMARKSYMBOL_5
  1

  0
LINE
  5
1AB
330
1A8
100
AcDbEntity
  8
0
  6
Continuous
 62
     0
370
    18
100
AcDbLine
 10
0.0
 20
0.0
 30
0.0
 11
0.0
 21
0.1
 31
0.0
  0
LINE
  5
1AC
330
1A8
100
AcDbEntity
  8
0
  6
Continuous
 62
     0
370
    18
100
AcDbLine
 10
0.0
 20
0.0
 30
0.0
 11
-0.1
 21
0.0
 31
0.0
  0
LINE
  5
1AD
330
1A8
100
AcDbEntity
  8
0
  6
Continuous
 62
     0
370
    18
100
AcDbLine
 10
0.0
 20
0.0
 30
0.0
 11
0.0
 21
-0.1
 31
0.0
  0
LINE
  5
1AE
330
1A8
100
AcDbEntity
  8
0
  6
Continuous
 62
     0
370
    18
100
AcDbLine
 10
0.0
 20
0.0
 30
0.0
 11
0.1
 21
0.0
 31
0.0
  0
LINE
  5
1AF
330
1A8
100
AcDbEntity
  8
0
  6
Continuous
 62
     0
370
    18
100
AcDbLine
 10
0.0
 20
0.2
 30
0.0
 11
0.0
 21
0.2760319836
 31
0.0
  0
LINE
  5
1B0
330
1A8
100
AcDbEntity
  8
0
  6
Continuous
 62
     0
370
    18
100
AcDbLine
 10
-0.2
 20
0.0
 30
0.0
 11
-0.2760319836
 21
0.0
 31
0.0
  0
LINE
  5
1B1
330
1A8
100
AcDbEntity
  8
0
  6
Continuous
 62
     0
370
    18
100
AcDbLine
 10
0.0
 20
-0.2
 30
0.0
 11
0.0
 21
-0.2760319836
 31
0.0
  0
LINE
  5
1B2
330
1A8
100
AcDbEntity
  8
0
  6
Continuous
 62
     0
370
    18
100
AcDbLine
 10
0.2
 20
0.0
 30
0.0
 11
0.2760319836
 21
0.0
 31
0.0
  0
ENDBLK
  5
1AA
330
1A8
100
AcDbEntity
  8
0
100
AcDbBlockEnd
  0
BLOCK
  5
1F6
330
1F5
100
AcDbEntity
  8
0
100
AcDbBlockBegin
  2
_D_3
 70
     0
 10
0.0
 20
0.0
 30
0.0
  3
_D_3
  1

  0
SOLID
  5
1F8
330
1F5
100
AcDbEntity
  8
0
  6
Continuous
 62
     7
370
    18
100
AcDbTrace
 10
3.9817738474
 20
2.683476927
 30
0.0
 11
3.9967738474
 21
2.780976927
 31
0.0
 12
3.9667738474
 22
2.780976927
 32
0.0
 13
3.9667738474
 23
2.780976927
 33
0.0
  0
SOLID
  5
1F9
330
1F5
100
AcDbEntity
  8
0
  6
Continuous
 62
     7
370
    18
100
AcDbTrace
 10
3.9817738474
 20
3.2740281081
 30
0.0
 11
3.9667738474
 21
3.1765281081
 31
0.0
 12
3.9967738474
 22
3.1765281081
 32
0.0
 13
3.9967738474
 23
3.1765281081
 33
0.0
  0
LINE
  5
1FA
330
1F5
100
AcDbEntity
  8
0
  6
Continuous
 62
     7
370
    18
100
AcDbLine
 10
3.9125030276
 20
2.9780363571
 30
0.0
 11
3.8839385748
 21
2.9780363571
 31
0.0
  0
LINE
  5
1FB
330
1F5
100
AcDbEntity
  8
0
  6
Continuous
 62
     7
370
    18
100
AcDbLine
 10
3.8839385748
 20
2.9780363571
 30
0.0
 11
3.8839385748
 21
2.8292082276
 31
0.0
  0
LINE
  5
1FC
330
1F5
100
AcDbEntity
  8
0
  6
Continuous
 62
     7
370
    18
100
AcDbLine
 10
3.8839385748
 20
2.8292082276
 30
0.0
 11
3.9125030276
 21
2.8292082276
 31
0.0
  0
LINE
  5
1FD
330
1F5
100
AcDbEntity
  8
0
  6
Continuous
 62
     7
370
    18
100
AcDbLine
 10
4.0510446947
 20
2.9780363571
 30
0.0
 11
4.0796091475
 21
2.9780363571
 31
0.0
  0
LINE
  5
1FE
330
1F5
100
AcDbEntity
  8
0
  6
Continuous
 62
     7
370
    18
100
AcDbLine
 10
4.0796091475
 20
2.9780363571
 30
0.0
 11
4.0796091475
 21
2.8292082276
 31
0.0
  0
LINE
  5
1FF
330
1F5
100
AcDbEntity
  8
0
  6
Continuous
 62
     7
370
    18
100
AcDbLine
 10
4.0796091475
 20
2.8292082276
 30
0.0
 11
4.0510446947
 21
2.8292082276
 31
0.0
  0
LINE
  5
200
330
1F5
100
AcDbEntity
  8
0
  6
Continuous
 62
     7
370
    18
100
AcDbLine
 10
3.4759937411
 20
2.683476927
 30
0.0
 11
4.0755238474
 21
2.683476927
 31
0.0
  0
LINE
  5
201
330
1F5
100
AcDbEntity
  8
0
  6
Continuous
 62
     7
370
    18
100
AcDbLine
 10
3.3926624289
 20
3.2740281081
 30
0.0
 11
4.0755238474
 21
3.2740281081
 31
0.0
  0
LINE
  5
202
330
1F5
100
AcDbEntity
  8
0
  6
Continuous
 62
     7
370
    18
100
AcDbLine
 10
3.9817738474
 20
2.683476927
 30
0.0
 11
3.9817738474
 21
2.8101652889
 31
0.0
  0
LINE
  5
203
330
1F5
100
AcDbEntity
  8
0
  6
Continuous
 62
     7
370
    18
100
AcDbLine
 10
3.9817738474
 20
3.2740281081
 30
0.0
 11
3.9817738474
 21
3.1473397463
 31
0.0
  0
MTEXT
  5
204
330
1F5
100
AcDbEntity
  8
0
  6
Continuous
 62
     7
370
    18
100
AcDbMText
 10
3.8558949552
 20
3.1193617277
 30
0.0
 40
0.09375
 41
0.0
 71
     1
 72
     1
  1

  7
SLDTEXTSTYLE0
 73
     1
 44
1.0
  0
MTEXT
  5
205
330
1F5
100
AcDbEntity
  8
0
  6
Continuous
 62
     7
370
    18
100
AcDbMText
 10
3.8951853158
 20
3.1179294291
 30
0.0
 40
0.09375
 41
0.0
 71
     1
 72
     1
  1
.59
  7
SLDTEXTSTYLE0
 73
     1
 44
1.0
  0
MTEXT
  5
206
330
1F5
100
AcDbEntity
  8
0
  6
Continuous
 62
     7
370
    18
100
AcDbMText
 10
3.9125030276
 20
2.9500583386
 30
0.0
 40
0.09375
 41
0.0
 71
     1
 72
     1
  1
15
  7
SLDTEXTSTYLE0
 73
     1
 44
1.0
  0
MTEXT
  5
207
330
1F5
100
AcDbEntity
  8
0
  6
Continuous
 62
     7
370
    18
100
AcDbMText
 10
4.1433298297
 20
3.1193617277
 30
0.0
 40
0.09375
 41
0.0
 71
     1
 72
     1
  1

  7
SLDTEXTSTYLE0
 73
     1
 44
1.0
  0
ENDBLK
  5
1F7
330
1F5
100
AcDbEntity
  8
0
100
AcDbBlockEnd
  0
BLOCK
  5
20A
330
209
100
AcDbEntity
  8
0
100
AcDbBlockBegin
  2
_D_4
 70
     0
 10
0.0
 20
0.0
 30
0.0
  3
_D_4
  1

  0
SOLID
  5
20C
330
209
100
AcDbEntity
  8
0
  6
Continuous
 62
     7
370
    18
100
AcDbTrace
 10
3.9817738474
 20
1.1086737774
 30
0.0
 11
3.9967738474
 21
1.2061737774
 31
0.0
 12
3.9667738474
 22
1.2061737774
 32
0.0
 13
3.9667738474
 23
1.2061737774
 33
0.0
  0
SOLID
  5
20D
330
209
100
AcDbEntity
  8
0
  6
Continuous
 62
     7
370
    18
100
AcDbTrace
 10
3.9817738474
 20
2.683476927
 30
0.0
 11
3.9667738474
 21
2.585976927
 31
0.0
 12
3.9967738474
 22
2.585976927
 32
0.0
 13
3.9967738474
 23
2.585976927
 33
0.0
  0
LINE
  5
20E
330
209
100
AcDbEntity
  8
0
  6
Continuous
 62
     7
370
    18
100
AcDbLine
 10
3.9125030276
 20
1.8953591918
 30
0.0
 11
3.8839385748
 21
1.8953591918
 31
0.0
  0
LINE
  5
20F
330
209
100
AcDbEntity
  8
0
  6
Continuous
 62
     7
370
    18
100
AcDbLine
 10
3.8839385748
 20
1.8953591918
 30
0.0
 11
3.8839385748
 21
1.7465310623
 31
0.0
  0
LINE
  5
210
330
209
100
AcDbEntity
  8
0
  6
Continuous
 62
     7
370
    18
100
AcDbLine
 10
3.8839385748
 20
1.7465310623
 30
0.0
 11
3.9125030276
 21
1.7465310623
 31
0.0
  0
LINE
  5
211
330
209
100
AcDbEntity
  8
0
  6
Continuous
 62
     7
370
    18
100
AcDbLine
 10
4.0510446947
 20
1.8953591918
 30
0.0
 11
4.0796091475
 21
1.8953591918
 31
0.0
  0
LINE
  5
212
330
209
100
AcDbEntity
  8
0
  6
Continuous
 62
     7
370
    18
100
AcDbLine
 10
4.0796091475
 20
1.8953591918
 30
0.0
 11
4.0796091475
 21
1.7465310623
 31
0.0
  0
LINE
  5
213
330
209
100
AcDbEntity
  8
0
  6
Continuous
 62
     7
370
    18
100
AcDbLine
 10
4.0796091475
 20
1.7465310623
 30
0.0
 11
4.0510446947
 21
1.7465310623
 31
0.0
  0
LINE
  5
214
330
209
100
AcDbEntity
  8
0
  6
Continuous
 62
     7
370
    18
100
AcDbLine
 10
3.1572967064
 20
1.1086737774
 30
0.0
 11
4.0755238474
 21
1.1086737774
 31
0.0
  0
LINE
  5
215
330
209
100
AcDbEntity
  8
0
  6
Continuous
 62
     7
370
    18
100
AcDbLine
 10
3.4759937411
 20
2.683476927
 30
0.0
 11
4.0755238474
 21
2.683476927
 31
0.0
  0
LINE
  5
216
330
209
100
AcDbEntity
  8
0
  6
Continuous
 62
     7
370
    18
100
AcDbLine
 10
3.9817738474
 20
1.1086737774
 30
0.0
 11
3.9817738474
 21
1.7274881235
 31
0.0
  0
LINE
  5
217
330
209
100
AcDbEntity
  8
0
  6
Continuous
 62
     7
370
    18
100
AcDbLine
 10
3.9817738474
 20
2.683476927
 30
0.0
 11
3.9817738474
 21
2.064662581
 31
0.0
  0
MTEXT
  5
218
330
209
100
AcDbEntity
  8
0
  6
Continuous
 62
     7
370
    18
100
AcDbMText
 10
3.8558949552
 20
2.0366845624
 30
0.0
 40
0.09375
 41
0.0
 71
     1
 72
     1
  1

  7
SLDTEXTSTYLE0
 73
     1
 44
1.0
  0
MTEXT
  5
219
330
209
100
AcDbEntity
  8
0
  6
Continuous
 62
     7
370
    18
100
AcDbMText
 10
3.8605498922
 20
2.0352522638
 30
0.0
 40
0.09375
 41
0.0
 71
     1
 72
     1
  1
1.57
  7
SLDTEXTSTYLE0
 73
     1
 44
1.0
  0
MTEXT
  5
21A
330
209
100
AcDbEntity
  8
0
  6
Continuous
 62
     7
370
    18
100
AcDbMText
 10
3.9125030276
 20
1.8673811732
 30
0.0
 40
0.09375
 41
0.0
 71
     1
 72
     1
  1
40
  7
SLDTEXTSTYLE0
 73
     1
 44
1.0
  0
MTEXT
  5
21B
330
209
100
AcDbEntity
  8
0
  6
Continuous
 62
     7
370
    18
100
AcDbMText
 10
4.1433298297
 20
2.0366845624
 30
0.0
 40
0.09375
 41
0.0
 71
     1
 72
     1
  1

  7
SLDTEXTSTYLE0
 73
     1
 44
1.0
  0
ENDBLK
  5
20B
330
209
100
AcDbEntity
  8
0
100
AcDbBlockEnd
  0
BLOCK
  5
21E
330
21D
100
AcDbEntity
  8
0
100
AcDbBlockBegin
  2
_D_5
 70
     0
 10
0.0
 20
0.0
 30
0.0
  3
_D_5
  1

  0
SOLID
  5
220
330
21D
100
AcDbEntity
  8
0
  6
Continuous
 62
     7
370
    18
100
AcDbTrace
 10
1.1572192627
 20
1.1086737774
 30
0.0
 11
1.1722192627
 21
1.2061737774
 31
0.0
 12
1.1422192627
 22
1.2061737774
 32
0.0
 13
1.1422192627
 23
1.2061737774
 33
0.0
  0
SOLID
  5
221
330
21D
100
AcDbEntity
  8
0
  6
Continuous
 62
     7
370
    18
100
AcDbTrace
 10
1.1572192627
 20
3.2740281081
 30
0.0
 11
1.1422192627
 21
3.1765281081
 31
0.0
 12
1.1722192627
 22
3.1765281081
 32
0.0
 13
1.1722192627
 23
3.1765281081
 33
0.0
  0
LINE
  5
222
330
21D
100
AcDbEntity
  8
0
  6
Continuous
 62
     7
370
    18
100
AcDbLine
 10
1.087948443
 20
2.1906347823
 30
0.0
 11
1.0593839901
 21
2.1906347823
 31
0.0
  0
LINE
  5
223
330
21D
100
AcDbEntity
  8
0
  6
Continuous
 62
     7
370
    18
100
AcDbLine
 10
1.0593839901
 20
2.1906347823
 30
0.0
 11
1.0593839901
 21
2.0418066528
 31
0.0
  0
LINE
  5
224
330
21D
100
AcDbEntity
  8
0
  6
Continuous
 62
     7
370
    18
100
AcDbLine
 10
1.0593839901
 20
2.0418066528
 30
0.0
 11
1.087948443
 21
2.0418066528
 31
0.0
  0
LINE
  5
225
330
21D
100
AcDbEntity
  8
0
  6
Continuous
 62
     7
370
    18
100
AcDbLine
 10
1.22649011
 20
2.1906347823
 30
0.0
 11
1.2550545629
 21
2.1906347823
 31
0.0
  0
LINE
  5
226
330
21D
100
AcDbEntity
  8
0
  6
Continuous
 62
     7
370
    18
100
AcDbLine
 10
1.2550545629
 20
2.1906347823
 30
0.0
 11
1.2550545629
 21
2.0418066528
 31
0.0
  0
LINE
  5
227
330
21D
100
AcDbEntity
  8
0
  6
Continuous
 62
     7
370
    18
100
AcDbLine
 10
1.2550545629
 20
2.0418066528
 30
0.0
 11
1.22649011
 21
2.0418066528
 31
0.0
  0
LINE
  5
228
330
21D
100
AcDbEntity
  8
0
  6
Continuous
 62
     7
370
    18
100
AcDbLine
 10
1.7512025993
 20
1.1086737774
 30
0.0
 11
1.0634692627
 21
1.1086737774
 31
0.0
  0
LINE
  5
229
330
21D
100
AcDbEntity
  8
0
  6
Continuous
 62
     7
370
    18
100
AcDbLine
 10
1.6731487425
 20
3.2740281081
 30
0.0
 11
1.0634692627
 21
3.2740281081
 31
0.0
  0
LINE
  5
22A
330
21D
100
AcDbEntity
  8
0
  6
Continuous
 62
     7
370
    18
100
AcDbLine
 10
1.1572192627
 20
1.1086737774
 30
0.0
 11
1.1572192627
 21
2.0227637141
 31
0.0
  0
LINE
  5
22B
330
21D
100
AcDbEntity
  8
0
  6
Continuous
 62
     7
370
    18
100
AcDbLine
 10
1.1572192627
 20
3.2740281081
 30
0.0
 11
1.1572192627
 21
2.3599381715
 31
0.0
  0
MTEXT
  5
22C
330
21D
100
AcDbEntity
  8
0
  6
Continuous
 62
     7
370
    18
100
AcDbMText
 10
1.0313403705
 20
2.3319601529
 30
0.0
 40
0.09375
 41
0.0
 71
     1
 72
     1
  1

  7
SLDTEXTSTYLE0
 73
     1
 44
1.0
  0
MTEXT
  5
22D
330
21D
100
AcDbEntity
  8
0
  6
Continuous
 62
     7
370
    18
100
AcDbMText
 10
1.0359953075
 20
2.3305278543
 30
0.0
 40
0.09375
 41
0.0
 71
     1
 72
     1
  1
2.17
  7
SLDTEXTSTYLE0
 73
     1
 44
1.0
  0
MTEXT
  5
22E
330
21D
100
AcDbEntity
  8
0
  6
Continuous
 62
     7
370
    18
100
AcDbMText
 10
1.087948443
 20
2.1626567638
 30
0.0
 40
0.09375
 41
0.0
 71
     1
 72
     1
  1
55
  7
SLDTEXTSTYLE0
 73
     1
 44
1.0
  0
MTEXT
  5
22F
330
21D
100
AcDbEntity
  8
0
  6
Continuous
 62
     7
370
    18
100
AcDbMText
 10
1.3187752451
 20
2.3319601529
 30
0.0
 40
0.09375
 41
0.0
 71
     1
 72
     1
  1

  7
SLDTEXTSTYLE0
 73
     1
 44
1.0
  0
ENDBLK
  5
21F
330
21D
100
AcDbEntity
  8
0
100
AcDbBlockEnd
  0
BLOCK
  5
233
330
232
100
AcDbEntity
  8
0
100
AcDbBlockBegin
  2
_D_6
 70
     0
 10
0.0
 20
0.0
 30
0.0
  3
_D_6
  1

  0
SOLID
  5
235
330
232
100
AcDbEntity
  8
0
  6
Continuous
 62
     7
370
    18
100
AcDbTrace
 10
3.6467797398
 20
1.1086737774
 30
0.0
 11
3.6617797398
 21
1.2061737774
 31
0.0
 12
3.6317797398
 22
1.2061737774
 32
0.0
 13
3.6317797398
 23
1.2061737774
 33
0.0
  0
SOLID
  5
236
330
232
100
AcDbEntity
  8
0
  6
Continuous
 62
     7
370
    18
100
AcDbTrace
 10
3.6467797398
 20
1.0693036987
 30
0.0
 11
3.6317797398
 21
0.9718036987
 31
0.0
 12
3.6617797398
 22
0.9718036987
 32
0.0
 13
3.6617797398
 23
0.9718036987
 33
0.0
  0
LINE
  5
237
330
232
100
AcDbEntity
  8
0
  6
Continuous
 62
     7
370
    18
100
AcDbLine
 10
3.8547569631
 20
0.7731612709
 30
0.0
 11
3.8261925102
 21
0.7731612709
 31
0.0
  0
LINE
  5
238
330
232
100
AcDbEntity
  8
0
  6
Continuous
 62
     7
370
    18
100
AcDbLine
 10
3.8261925102
 20
0.7731612709
 30
0.0
 11
3.8261925102
 21
0.6243331415
 31
0.0
  0
LINE
  5
239
330
232
100
AcDbEntity
  8
0
  6
Continuous
 62
     7
370
    18
100
AcDbLine
 10
3.8261925102
 20
0.6243331415
 30
0.0
 11
3.8547569631
 21
0.6243331415
 31
0.0
  0
LINE
  5
23A
330
232
100
AcDbEntity
  8
0
  6
Continuous
 62
     7
370
    18
100
AcDbLine
 10
3.9240277966
 20
0.7731612709
 30
0.0
 11
3.9525922494
 21
0.7731612709
 31
0.0
  0
LINE
  5
23B
330
232
100
AcDbEntity
  8
0
  6
Continuous
 62
     7
370
    18
100
AcDbLine
 10
3.9525922494
 20
0.7731612709
 30
0.0
 11
3.9525922494
 21
0.6243331415
 31
0.0
  0
LINE
  5
23C
330
232
100
AcDbEntity
  8
0
  6
Continuous
 62
     7
370
    18
100
AcDbLine
 10
3.9525922494
 20
0.6243331415
 30
0.0
 11
3.9240277966
 21
0.6243331415
 31
0.0
  0
LINE
  5
23D
330
232
100
AcDbEntity
  8
0
  6
Continuous
 62
     7
370
    18
100
AcDbLine
 10
3.1572967064
 20
1.1086737774
 30
0.0
 11
3.7405297398
 21
1.1086737774
 31
0.0
  0
LINE
  5
23E
330
232
100
AcDbEntity
  8
0
  6
Continuous
 62
     7
370
    18
100
AcDbLine
 10
3.3578855537
 20
1.0693036987
 30
0.0
 11
3.7405297398
 21
1.0693036987
 31
0.0
  0
LINE
  5
23F
330
232
100
AcDbEntity
  8
0
  6
Continuous
 62
     7
370
    18
100
AcDbLine
 10
3.7405297398
 20
0.7738774314
 30
0.0
 11
3.6467797398
 21
0.7738774314
 31
0.0
  0
LINE
  5
240
330
232
100
AcDbEntity
  8
0
  6
Continuous
 62
     7
370
    18
100
AcDbLine
 10
3.6467797398
 20
0.7738774314
 30
0.0
 11
3.6467797398
 21
1.0693036987
 31
0.0
  0
LINE
  5
241
330
232
100
AcDbEntity
  8
0
  6
Continuous
 62
     7
370
    18
100
AcDbLine
 10
3.6467797398
 20
1.1086737774
 30
0.0
 11
3.6467797398
 21
1.2961737774
 31
0.0
  0
MTEXT
  5
242
330
232
100
AcDbEntity
  8
0
  6
Continuous
 62
     7
370
    18
100
AcDbMText
 10
3.8028038413
 20
0.913054343
 30
0.0
 40
0.09375
 41
0.0
 71
     1
 72
     1
  1
.04
  7
SLDTEXTSTYLE0
 73
     1
 44
1.0
  0
MTEXT
  5
243
330
232
100
AcDbEntity
  8
0
  6
Continuous
 62
     7
370
    18
100
AcDbMText
 10
3.8547569631
 20
0.7451832524
 30
0.0
 40
0.09375
 41
0.0
 71
     1
 72
     1
  1
1
  7
SLDTEXTSTYLE0
 73
     1
 44
1.0
  0
MTEXT
  5
244
330
232
100
AcDbEntity
  8
0
  6
Continuous
 62
     7
370
    18
100
AcDbMText
 10
4.0163129523
 20
0.9144866416
 30
0.0
 40
0.09375
 41
0.0
 71
     1
 72
     1
  1
PAD
  7
SLDTEXTSTYLE0
 73
     1
 44
1.0
  0
ENDBLK
  5
234
330
232
100
AcDbEntity
  8
0
100
AcDbBlockEnd
  0
BLOCK
  5
26B
330
26A
100
AcDbEntity
  8
0
100
AcDbBlockBegin
  2
_D_7
 70
     0
 10
0.0
 20
0.0
 30
0.0
  3
_D_7
  1

  0
SOLID
  5
26D
330
26A
100
AcDbEntity
  8
0
  6
Continuous
 62
     7
370
    18
100
AcDbTrace
 10
7.9252215001
 20
3.8815850616
 30
0.0
 11
8.0227215001
 21
3.8665850616
 31
0.0
 12
8.0227215001
 22
3.8965850616
 32
0.0
 13
8.0227215001
 23
3.8965850616
 33
0.0
  0
SOLID
  5
26E
330
26A
100
AcDbEntity
  8
0
  6
Continuous
 62
     7
370
    18
100
AcDbTrace
 10
9.3819027508
 20
3.8815850616
 30
0.0
 11
9.2844027508
 21
3.8965850616
 31
0.0
 12
9.2844027508
 22
3.8665850616
 32
0.0
 13
9.2844027508
 23
3.8665850616
 33
0.0
  0
LINE
  5
26F
330
26A
100
AcDbEntity
  8
0
  6
Continuous
 62
     7
370
    18
100
AcDbLine
 10
8.5842913057
 20
3.8808689011
 30
0.0
 11
8.5557268529
 21
3.8808689011
 31
0.0
  0
LINE
  5
270
330
26A
100
AcDbEntity
  8
0
  6
Continuous
 62
     7
370
    18
100
AcDbLine
 10
8.5557268529
 20
3.8808689011
 30
0.0
 11
8.5557268529
 21
3.7320407717
 31
0.0
  0
LINE
  5
271
330
26A
100
AcDbEntity
  8
0
  6
Continuous
 62
     7
370
    18
100
AcDbLine
 10
8.5557268529
 20
3.7320407717
 30
0.0
 11
8.5842913057
 21
3.7320407717
 31
0.0
  0
LINE
  5
272
330
26A
100
AcDbEntity
  8
0
  6
Continuous
 62
     7
370
    18
100
AcDbLine
 10
8.7228329728
 20
3.8808689011
 30
0.0
 11
8.7513974256
 21
3.8808689011
 31
0.0
  0
LINE
  5
273
330
26A
100
AcDbEntity
  8
0
  6
Continuous
 62
     7
370
    18
100
AcDbLine
 10
8.7513974256
 20
3.8808689011
 30
0.0
 11
8.7513974256
 21
3.7320407717
 31
0.0
  0
LINE
  5
274
330
26A
100
AcDbEntity
  8
0
  6
Continuous
 62
     7
370
    18
100
AcDbLine
 10
8.7513974256
 20
3.7320407717
 30
0.0
 11
8.7228329728
 21
3.7320407717
 31
0.0
  0
LINE
  5
275
330
26A
100
AcDbEntity
  8
0
  6
Continuous
 62
     7
370
    18
100
AcDbLine
 10
7.9252215001
 20
4.3949737438
 30
0.0
 11
7.9252215001
 21
3.7878350616
 31
0.0
  0
LINE
  5
276
330
26A
100
AcDbEntity
  8
0
  6
Continuous
 62
     7
370
    18
100
AcDbLine
 10
9.3819027508
 20
4.3949737438
 30
0.0
 11
9.3819027508
 21
3.7878350616
 31
0.0
  0
LINE
  5
277
330
26A
100
AcDbEntity
  8
0
  6
Continuous
 62
     7
370
    18
100
AcDbLine
 10
7.9252215001
 20
3.8815850616
 30
0.0
 11
8.4734942108
 21
3.8815850616
 31
0.0
  0
LINE
  5
278
330
26A
100
AcDbEntity
  8
0
  6
Continuous
 62
     7
370
    18
100
AcDbLine
 10
9.3819027508
 20
3.8815850616
 30
0.0
 11
8.8336300402
 21
3.8815850616
 31
0.0
  0
MTEXT
  5
279
330
26A
100
AcDbEntity
  8
0
  6
Continuous
 62
     7
370
    18
100
AcDbMText
 10
8.5276832333
 20
4.0221942718
 30
0.0
 40
0.09375
 41
0.0
 71
     1
 72
     1
  1

  7
SLDTEXTSTYLE0
 73
     1
 44
1.0
  0
MTEXT
  5
27A
330
26A
100
AcDbEntity
  8
0
  6
Continuous
 62
     7
370
    18
100
AcDbMText
 10
8.5323381702
 20
4.0207619732
 30
0.0
 40
0.09375
 41
0.0
 71
     1
 72
     1
  1
1.46
  7
SLDTEXTSTYLE0
 73
     1
 44
1.0
  0
MTEXT
  5
27B
330
26A
100
AcDbEntity
  8
0
  6
Continuous
 62
     7
370
    18
100
AcDbMText
 10
8.5842913057
 20
3.8528908826
 30
0.0
 40
0.09375
 41
0.0
 71
     1
 72
     1
  1
37
  7
SLDTEXTSTYLE0
 73
     1
 44
1.0
  0
MTEXT
  5
27C
330
26A
100
AcDbEntity
  8
0
  6
Continuous
 62
     7
370
    18
100
AcDbMText
 10
8.8151181078
 20
4.0221942718
 30
0.0
 40
0.09375
 41
0.0
 71
     1
 72
     1
  1

  7
SLDTEXTSTYLE0
 73
     1
 44
1.0
  0
ENDBLK
  5
26C
330
26A
100
AcDbEntity
  8
0
100
AcDbBlockEnd
  0
BLOCK
  5
27F
330
27E
100
AcDbEntity
  8
0
100
AcDbBlockBegin
  2
_D_8
 70
     0
 10
0.0
 20
0.0
 30
0.0
  3
_D_8
  1

  0
SOLID
  5
281
330
27E
100
AcDbEntity
  8
0
  6
Continuous
 62
     7
370
    18
100
AcDbTrace
 10
10.0379257415
 20
4.4324737438
 30
0.0
 11
10.0529257415
 21
4.5299737438
 31
0.0
 12
10.0229257415
 22
4.5299737438
 32
0.0
 13
10.0229257415
 23
4.5299737438
 33
0.0
  0
SOLID
  5
282
330
27E
100
AcDbEntity
  8
0
  6
Continuous
 62
     7
370
    18
100
AcDbTrace
 10
10.0379257415
 20
6.4797014474
 30
0.0
 11
10.0229257415
 21
6.3822014474
 31
0.0
 12
10.0529257415
 22
6.3822014474
 32
0.0
 13
10.0529257415
 23
6.3822014474
 33
0.0
  0
LINE
  5
283
330
27E
100
AcDbEntity
  8
0
  6
Continuous
 62
     7
370
    18
100
AcDbLine
 10
9.9686549218
 20
5.4553714351
 30
0.0
 11
9.9400904689
 21
5.4553714351
 31
0.0
  0
LINE
  5
284
330
27E
100
AcDbEntity
  8
0
  6
Continuous
 62
     7
370
    18
100
AcDbLine
 10
9.9400904689
 20
5.4553714351
 30
0.0
 11
9.9400904689
 21
5.3065433056
 31
0.0
  0
LINE
  5
285
330
27E
100
AcDbEntity
  8
0
  6
Continuous
 62
     7
370
    18
100
AcDbLine
 10
9.9400904689
 20
5.3065433056
 30
0.0
 11
9.9686549218
 21
5.3065433056
 31
0.0
  0
LINE
  5
286
330
27E
100
AcDbEntity
  8
0
  6
Continuous
 62
     7
370
    18
100
AcDbLine
 10
10.1071965888
 20
5.4553714351
 30
0.0
 11
10.1357610417
 21
5.4553714351
 31
0.0
  0
LINE
  5
287
330
27E
100
AcDbEntity
  8
0
  6
Continuous
 62
     7
370
    18
100
AcDbLine
 10
10.1357610417
 20
5.4553714351
 30
0.0
 11
10.1357610417
 21
5.3065433056
 31
0.0
  0
LINE
  5
288
330
27E
100
AcDbEntity
  8
0
  6
Continuous
 62
     7
370
    18
100
AcDbLine
 10
10.1357610417
 20
5.3065433056
 30
0.0
 11
10.1071965888
 21
5.3065433056
 31
0.0
  0
LINE
  5
289
330
27E
100
AcDbEntity
  8
0
  6
Continuous
 62
     7
370
    18
100
AcDbLine
 10
9.4194027508
 20
4.4324737438
 30
0.0
 11
10.1316757415
 21
4.4324737438
 31
0.0
  0
LINE
  5
28A
330
27E
100
AcDbEntity
  8
0
  6
Continuous
 62
     7
370
    18
100
AcDbLine
 10
9.4194027508
 20
6.4797014474
 30
0.0
 11
10.1316757415
 21
6.4797014474
 31
0.0
  0
LINE
  5
28B
330
27E
100
AcDbEntity
  8
0
  6
Continuous
 62
     7
370
    18
100
AcDbLine
 10
10.0379257415
 20
4.4324737438
 30
0.0
 11
10.0379257415
 21
5.2875003669
 31
0.0
  0
LINE
  5
28C
330
27E
100
AcDbEntity
  8
0
  6
Continuous
 62
     7
370
    18
100
AcDbLine
 10
10.0379257415
 20
6.4797014474
 30
0.0
 11
10.0379257415
 21
5.6246748243
 31
0.0
  0
MTEXT
  5
28D
330
27E
100
AcDbEntity
  8
0
  6
Continuous
 62
     7
370
    18
100
AcDbMText
 10
9.9120468493
 20
5.5966968057
 30
0.0
 40
0.09375
 41
0.0
 71
     1
 72
     1
  1

  7
SLDTEXTSTYLE0
 73
     1
 44
1.0
  0
MTEXT
  5
28E
330
27E
100
AcDbEntity
  8
0
  6
Continuous
 62
     7
370
    18
100
AcDbMText
 10
9.9167017863
 20
5.5952645071
 30
0.0
 40
0.09375
 41
0.0
 71
     1
 72
     1
  1
2.05
  7
SLDTEXTSTYLE0
 73
     1
 44
1.0
  0
MTEXT
  5
28F
330
27E
100
AcDbEntity
  8
0
  6
Continuous
 62
     7
370
    18
100
AcDbMText
 10
9.9686549218
 20
5.4273934166
 30
0.0
 40
0.09375
 41
0.0
 71
     1
 72
     1
  1
52
  7
SLDTEXTSTYLE0
 73
     1
 44
1.0
  0
MTEXT
  5
290
330
27E
100
AcDbEntity
  8
0
  6
Continuous
 62
     7
370
    18
100
AcDbMText
 10
10.1994817239
 20
5.5966968057
 30
0.0
 40
0.09375
 41
0.0
 71
     1
 72
     1
  1

  7
SLDTEXTSTYLE0
 73
     1
 44
1.0
  0
ENDBLK
  5
280
330
27E
100
AcDbEntity
  8
0
100
AcDbBlockEnd
  0
BLOCK
  5
294
330
293
100
AcDbEntity
  8
0
100
AcDbBlockBegin
  2
_D_9
 70
     0
 10
0.0
 20
0.0
 30
0.0
  3
_D_9
  1

  0
SOLID
  5
296
330
293
100
AcDbEntity
  8
0
  6
Continuous
 62
     7
370
    18
100
AcDbTrace
 10
7.8854849907
 20
4.3644956427
 30
0.0
 11
7.8233314296
 21
4.2878915642
 31
0.0
 12
7.8492310861
 22
4.2727519541
 32
0.0
 13
7.8492310861
 23
4.2727519541
 33
0.0
  0
LINE
  5
297
330
293
100
AcDbEntity
  8
0
  6
Continuous
 62
     7
370
    18
100
AcDbLine
 10
7.0106319067
 20
3.8808689011
 30
0.0
 11
6.9820674539
 21
3.8808689011
 31
0.0
  0
LINE
  5
298
330
293
100
AcDbEntity
  8
0
  6
Continuous
 62
     7
370
    18
100
AcDbLine
 10
6.9820674539
 20
3.8808689011
 30
0.0
 11
6.9820674539
 21
3.7320407717
 31
0.0
  0
LINE
  5
299
330
293
100
AcDbEntity
  8
0
  6
Continuous
 62
     7
370
    18
100
AcDbLine
 10
6.9820674539
 20
3.7320407717
 30
0.0
 11
7.0106319067
 21
3.7320407717
 31
0.0
  0
LINE
  5
29A
330
293
100
AcDbEntity
  8
0
  6
Continuous
 62
     7
370
    18
100
AcDbLine
 10
7.0799027402
 20
3.8808689011
 30
0.0
 11
7.1084671931
 21
3.8808689011
 31
0.0
  0
LINE
  5
29B
330
293
100
AcDbEntity
  8
0
  6
Continuous
 62
     7
370
    18
100
AcDbLine
 10
7.1084671931
 20
3.8808689011
 30
0.0
 11
7.1084671931
 21
3.7320407717
 31
0.0
  0
LINE
  5
29C
330
293
100
AcDbEntity
  8
0
  6
Continuous
 62
     7
370
    18
100
AcDbLine
 10
7.1084671931
 20
3.7320407717
 30
0.0
 11
7.0799027402
 21
3.7320407717
 31
0.0
  0
LINE
  5
29D
330
293
100
AcDbEntity
  8
0
  6
Continuous
 62
     7
370
    18
100
AcDbLine
 10
7.8854849907
 20
4.3644956427
 30
0.0
 11
7.6032002462
 21
3.8815850616
 31
0.0
  0
LINE
  5
29E
330
293
100
AcDbEntity
  8
0
  6
Continuous
 62
     7
370
    18
100
AcDbLine
 10
7.6032002462
 20
3.8815850616
 30
0.0
 11
7.5094502462
 21
3.8815850616
 31
0.0
  0
MTEXT
  5
29F
330
293
100
AcDbEntity
  8
0
  6
Continuous
 62
     7
370
    18
100
AcDbMText
 10
6.8533500105
 20
4.0207619732
 30
0.0
 40
0.09375
 41
0.0
 71
     1
 72
     1
  1
%%c
  7
SLDTEXTSTYLE0
 73
     1
 44
1.0
  0
MTEXT
  5
2A0
330
293
100
AcDbEntity
  8
0
  6
Continuous
 62
     7
370
    18
100
AcDbMText
 10
6.994736726
 20
4.0207619732
 30
0.0
 40
0.09375
 41
0.0
 71
     1
 72
     1
  1
.157
  7
SLDTEXTSTYLE0
 73
     1
 44
1.0
  0
MTEXT
  5
2A1
330
293
100
AcDbEntity
  8
0
  6
Continuous
 62
     7
370
    18
100
AcDbMText
 10
7.0106319067
 20
3.8528908826
 30
0.0
 40
0.09375
 41
0.0
 71
     1
 72
     1
  1
4
  7
SLDTEXTSTYLE0
 73
     1
 44
1.0
  0
MTEXT
  5
2A2
330
293
100
AcDbEntity
  8
0
  6
Continuous
 62
     7
370
    18
100
AcDbMText
 10
7.2723408864
 20
4.0221942718
 30
0.0
 40
0.09375
 41
0.0
 71
     1
 72
     1
  1
(4X)
  7
SLDTEXTSTYLE0
 73
     1
 44
1.0
  0
ENDBLK
  5
295
330
293
100
AcDbEntity
  8
0
100
AcDbBlockEnd
  0
BLOCK
  5
2A6
330
2A5
100
AcDbEntity
  8
0
100
AcDbBlockBegin
  2
_D_10
 70
     0
 10
0.0
 20
0.0
 30
0.0
  3
_D_10
  1

  0
SOLID
  5
2A8
330
2A5
100
AcDbEntity
  8
0
  6
Continuous
 62
     7
370
    18
100
AcDbTrace
 10
8.7308291418
 20
6.3807336901
 30
0.0
 11
8.791732011
 21
6.4583358197
 31
0.0
 12
8.7655901977
 22
6.4730533467
 32
0.0
 13
8.7655901977
 23
6.4730533467
 33
0.0
  0
LINE
  5
2A9
330
2A5
100
AcDbEntity
  8
0
  6
Continuous
 62
     7
370
    18
100
AcDbLine
 10
9.3418543576
 20
7.0809716102
 30
0.0
 11
9.3132899047
 21
7.0809716102
 31
0.0
  0
LINE
  5
2AA
330
2A5
100
AcDbEntity
  8
0
  6
Continuous
 62
     7
370
    18
100
AcDbLine
 10
9.3132899047
 20
7.0809716102
 30
0.0
 11
9.3132899047
 21
6.9321434808
 31
0.0
  0
LINE
  5
2AB
330
2A5
100
AcDbEntity
  8
0
  6
Continuous
 62
     7
370
    18
100
AcDbLine
 10
9.3132899047
 20
6.9321434808
 30
0.0
 11
9.3418543576
 21
6.9321434808
 31
0.0
  0
LINE
  5
2AC
330
2A5
100
AcDbEntity
  8
0
  6
Continuous
 62
     7
370
    18
100
AcDbLine
 10
9.4111251911
 20
7.0809716102
 30
0.0
 11
9.4396896439
 21
7.0809716102
 31
0.0
  0
LINE
  5
2AD
330
2A5
100
AcDbEntity
  8
0
  6
Continuous
 62
     7
370
    18
100
AcDbLine
 10
9.4396896439
 20
7.0809716102
 30
0.0
 11
9.4396896439
 21
6.9321434808
 31
0.0
  0
LINE
  5
2AE
330
2A5
100
AcDbEntity
  8
0
  6
Continuous
 62
     7
370
    18
100
AcDbLine
 10
9.4396896439
 20
6.9321434808
 30
0.0
 11
9.4111251911
 21
6.9321434808
 31
0.0
  0
LINE
  5
2AF
330
2A5
100
AcDbEntity
  8
0
  6
Continuous
 62
     7
370
    18
100
AcDbLine
 10
8.7308291418
 20
6.3807336901
 30
0.0
 11
9.1254578713
 21
7.0816877707
 31
0.0
  0
LINE
  5
2B0
330
2A5
100
AcDbEntity
  8
0
  6
Continuous
 62
     7
370
    18
100
AcDbLine
 10
9.1254578713
 20
7.0816877707
 30
0.0
 11
9.2192078713
 21
7.0816877707
 31
0.0
  0
MTEXT
  5
2B1
330
2A5
100
AcDbEntity
  8
0
  6
Continuous
 62
     7
370
    18
100
AcDbMText
 10
9.2192078713
 20
7.2208646823
 30
0.0
 40
0.09375
 41
0.0
 71
     1
 72
     1
  1
%%c
  7
SLDTEXTSTYLE0
 73
     1
 44
1.0
  0
MTEXT
  5
2B2
330
2A5
100
AcDbEntity
  8
0
  6
Continuous
 62
     7
370
    18
100
AcDbMText
 10
9.3605945867
 20
7.2208646823
 30
0.0
 40
0.09375
 41
0.0
 71
     1
 72
     1
  1
.32
  7
SLDTEXTSTYLE0
 73
     1
 44
1.0
  0
MTEXT
  5
2B3
330
2A5
100
AcDbEntity
  8
0
  6
Continuous
 62
     7
370
    18
100
AcDbMText
 10
9.3418543576
 20
7.0529935917
 30
0.0
 40
0.09375
 41
0.0
 71
     1
 72
     1
  1
8
  7
SLDTEXTSTYLE0
 73
     1
 44
1.0
  0
MTEXT
  5
2B4
330
2A5
100
AcDbEntity
  8
0
  6
Continuous
 62
     7
370
    18
100
AcDbMText
 10
9.5689279274
 20
7.2222969809
 30
0.0
 40
0.09375
 41
0.0
 71
     1
 72
     1
  1
6X
  7
SLDTEXTSTYLE0
 73
     1
 44
1.0
  0
ENDBLK
  5
2A7
330
2A5
100
AcDbEntity
  8
0
100
AcDbBlockEnd
  0
BLOCK
  5
2B6
330
2B5
100
AcDbEntity
  8
0
100
AcDbBlockBegin
  2
SW_CENTERMARKSYMBOL_6
 70
     0
 10
0.0
 20
0.0
 30
0.0
  3
SW_CENTERMARKSYMBOL_6
  1

  0
LINE
  5
2B8
330
2B5
100
AcDbEntity
  8
0
  6
Continuous
 62
     0
370
    18
100
AcDbLine
 10
0.0
 20
0.0
 30
0.0
 11
0.0
 21
0.1
 31
0.0
  0
LINE
  5
2B9
330
2B5
100
AcDbEntity
  8
0
  6
Continuous
 62
     0
370
    18
100
AcDbLine
 10
0.0
 20
0.0
 30
0.0
 11
-0.1
 21
0.0
 31
0.0
  0
LINE
  5
2BA
330
2B5
100
AcDbEntity
  8
0
  6
Continuous
 62
     0
370
    18
100
AcDbLine
 10
0.0
 20
0.0
 30
0.0
 11
0.0
 21
-0.1
 31
0.0
  0
LINE
  5
2BB
330
2B5
100
AcDbEntity
  8
0
  6
Continuous
 62
     0
370
    18
100
AcDbLine
 10
0.0
 20
0.0
 30
0.0
 11
0.1
 21
0.0
 31
0.0
  0
LINE
  5
2BC
330
2B5
100
AcDbEntity
  8
0
  6
Continuous
 62
     0
370
    18
100
AcDbLine
 10
0.0
 20
0.1
 30
0.0
 11
0.0
 21
0.1787401575
 31
0.0
  0
LINE
  5
2BD
330
2B5
100
AcDbEntity
  8
0
  6
Continuous
 62
     0
370
    18
100
AcDbLine
 10
-0.1
 20
0.0
 30
0.0
 11
-0.1787401575
 21
0.0
 31
0.0
  0
LINE
  5
2BE
330
2B5
100
AcDbEntity
  8
0
  6
Continuous
 62
     0
370
    18
100
AcDbLine
 10
0.0
 20
-0.1
 30
0.0
 11
0.0
 21
-0.1787401575
 31
0.0
  0
LINE
  5
2BF
330
2B5
100
AcDbEntity
  8
0
  6
Continuous
 62
     0
370
    18
100
AcDbLine
 10
0.1
 20
0.0
 30
0.0
 11
0.1787401575
 21
0.0
 31
0.0
  0
ENDBLK
  5
2B7
330
2B5
100
AcDbEntity
  8
0
100
AcDbBlockEnd
  0
BLOCK
  5
2C2
330
2C1
100
AcDbEntity
  8
0
100
AcDbBlockBegin
  2
SW_CENTERMARKSYMBOL_7
 70
     0
 10
0.0
 20
0.0
 30
0.0
  3
SW_CENTERMARKSYMBOL_7
  1

  0
LINE
  5
2C4
330
2C1
100
AcDbEntity
  8
0
  6
Continuous
 62
     0
370
    18
100
AcDbLine
 10
0.0
 20
0.0
 30
0.0
 11
0.0
 21
0.1
 31
0.0
  0
LINE
  5
2C5
330
2C1
100
AcDbEntity
  8
0
  6
Continuous
 62
     0
370
    18
100
AcDbLine
 10
0.0
 20
0.0
 30
0.0
 11
-0.1
 21
0.0
 31
0.0
  0
LINE
  5
2C6
330
2C1
100
AcDbEntity
  8
0
  6
Continuous
 62
     0
370
    18
100
AcDbLine
 10
0.0
 20
0.0
 30
0.0
 11
0.0
 21
-0.1
 31
0.0
  0
LINE
  5
2C7
330
2C1
100
AcDbEntity
  8
0
  6
Continuous
 62
     0
370
    18
100
AcDbLine
 10
0.0
 20
0.0
 30
0.0
 11
0.1
 21
0.0
 31
0.0
  0
LINE
  5
2C8
330
2C1
100
AcDbEntity
  8
0
  6
Continuous
 62
     0
370
    18
100
AcDbLine
 10
0.0
 20
0.1
 30
0.0
 11
0.0
 21
0.1787401575
 31
0.0
  0
LINE
  5
2C9
330
2C1
100
AcDbEntity
  8
0
  6
Continuous
 62
     0
370
    18
100
AcDbLine
 10
-0.1
 20
0.0
 30
0.0
 11
-0.1787401575
 21
0.0
 31
0.0
  0
LINE
  5
2CA
330
2C1
100
AcDbEntity
  8
0
  6
Continuous
 62
     0
370
    18
100
AcDbLine
 10
0.0
 20
-0.1
 30
0.0
 11
0.0
 21
-0.1787401575
 31
0.0
  0
LINE
  5
2CB
330
2C1
100
AcDbEntity
  8
0
  6
Continuous
 62
     0
370
    18
100
AcDbLine
 10
0.1
 20
0.0
 30
0.0
 11
0.1787401575
 21
0.0
 31
0.0
  0
ENDBLK
  5
2C3
330
2C1
100
AcDbEntity
  8
0
100
AcDbBlockEnd
  0
BLOCK
  5
2CE
330
2CD
100
AcDbEntity
  8
0
100
AcDbBlockBegin
  2
SW_CENTERMARKSYMBOL_8
 70
     0
 10
0.0
 20
0.0
 30
0.0
  3
SW_CENTERMARKSYMBOL_8
  1

  0
LINE
  5
2D0
330
2CD
100
AcDbEntity
  8
0
  6
Continuous
 62
     0
370
    18
100
AcDbLine
 10
0.0
 20
0.0
 30
0.0
 11
0.0
 21
0.1
 31
0.0
  0
LINE
  5
2D1
330
2CD
100
AcDbEntity
  8
0
  6
Continuous
 62
     0
370
    18
100
AcDbLine
 10
0.0
 20
0.0
 30
0.0
 11
-0.1
 21
0.0
 31
0.0
  0
LINE
  5
2D2
330
2CD
100
AcDbEntity
  8
0
  6
Continuous
 62
     0
370
    18
100
AcDbLine
 10
0.0
 20
0.0
 30
0.0
 11
0.0
 21
-0.1
 31
0.0
  0
LINE
  5
2D3
330
2CD
100
AcDbEntity
  8
0
  6
Continuous
 62
     0
370
    18
100
AcDbLine
 10
0.0
 20
0.0
 30
0.0
 11
0.1
 21
0.0
 31
0.0
  0
LINE
  5
2D4
330
2CD
100
AcDbEntity
  8
0
  6
Continuous
 62
     0
370
    18
100
AcDbLine
 10
0.0
 20
0.1
 30
0.0
 11
0.0
 21
0.1787401575
 31
0.0
  0
LINE
  5
2D5
330
2CD
100
AcDbEntity
  8
0
  6
Continuous
 62
     0
370
    18
100
AcDbLine
 10
-0.1
 20
0.0
 30
0.0
 11
-0.1787401575
 21
0.0
 31
0.0
  0
LINE
  5
2D6
330
2CD
100
AcDbEntity
  8
0
  6
Continuous
 62
     0
370
    18
100
AcDbLine
 10
0.0
 20
-0.1
 30
0.0
 11
0.0
 21
-0.1787401575
 31
0.0
  0
LINE
  5
2D7
330
2CD
100
AcDbEntity
  8
0
  6
Continuous
 62
     0
370
    18
100
AcDbLine
 10
0.1
 20
0.0
 30
0.0
 11
0.1787401575
 21
0.0
 31
0.0
  0
ENDBLK
  5
2CF
330
2CD
100
AcDbEntity
  8
0
100
AcDbBlockEnd
  0
BLOCK
  5
2DA
330
2D9
100
AcDbEntity
  8
0
100
AcDbBlockBegin
  2
SW_CENTERMARKSYMBOL_9
 70
     0
 10
0.0
 20
0.0
 30
0.0
  3
SW_CENTERMARKSYMBOL_9
  1

  0
LINE
  5
2DC
330
2D9
100
AcDbEntity
  8
0
  6
Continuous
 62
     0
370
    18
100
AcDbLine
 10
0.0
 20
0.0
 30
0.0
 11
0.0
 21
0.1
 31
0.0
  0
LINE
  5
2DD
330
2D9
100
AcDbEntity
  8
0
  6
Continuous
 62
     0
370
    18
100
AcDbLine
 10
0.0
 20
0.0
 30
0.0
 11
-0.1
 21
0.0
 31
0.0
  0
LINE
  5
2DE
330
2D9
100
AcDbEntity
  8
0
  6
Continuous
 62
     0
370
    18
100
AcDbLine
 10
0.0
 20
0.0
 30
0.0
 11
0.0
 21
-0.1
 31
0.0
  0
LINE
  5
2DF
330
2D9
100
AcDbEntity
  8
0
  6
Continuous
 62
     0
370
    18
100
AcDbLine
 10
0.0
 20
0.0
 30
0.0
 11
0.1
 21
0.0
 31
0.0
  0
LINE
  5
2E0
330
2D9
100
AcDbEntity
  8
0
  6
Continuous
 62
     0
370
    18
100
AcDbLine
 10
0.0
 20
0.1
 30
0.0
 11
0.0
 21
0.1787401575
 31
0.0
  0
LINE
  5
2E1
330
2D9
100
AcDbEntity
  8
0
  6
Continuous
 62
     0
370
    18
100
AcDbLine
 10
-0.1
 20
0.0
 30
0.0
 11
-0.1787401575
 21
0.0
 31
0.0
  0
LINE
  5
2E2
330
2D9
100
AcDbEntity
  8
0
  6
Continuous
 62
     0
370
    18
100
AcDbLine
 10
0.0
 20
-0.1
 30
0.0
 11
0.0
 21
-0.1787401575
 31
0.0
  0
LINE
  5
2E3
330
2D9
100
AcDbEntity
  8
0
  6
Continuous
 62
     0
370
    18
100
AcDbLine
 10
0.1
 20
0.0
 30
0.0
 11
0.1787401575
 21
0.0
 31
0.0
  0
ENDBLK
  5
2DB
330
2D9
100
AcDbEntity
  8
0
100
AcDbBlockEnd
  0
BLOCK
  5
454
330
453
100
AcDbEntity
  8
0
100
AcDbBlockBegin
  2
_D_11
 70
     0
 10
0.0
 20
0.0
 30
0.0
  3
_D_11
  1

  0
SOLID
  5
456
330
453
100
AcDbEntity
  8
0
  6
Continuous
 62
     7
370
    18
100
AcDbTrace
 10
4.716789598
 20
5.2170519684
 30
0.0
 11
4.814289598
 21
5.2020519684
 31
0.0
 12
4.814289598
 22
5.2320519684
 32
0.0
 13
4.814289598
 23
5.2320519684
 33
0.0
  0
SOLID
  5
457
330
453
100
AcDbEntity
  8
0
  6
Continuous
 62
     7
370
    18
100
AcDbTrace
 10
4.6183644012
 20
5.2170519684
 30
0.0
 11
4.5208644012
 21
5.2320519684
 31
0.0
 12
4.5208644012
 22
5.2020519684
 32
0.0
 13
4.5208644012
 23
5.2020519684
 33
0.0
  0
LINE
  5
458
330
453
100
AcDbEntity
  8
0
  6
Continuous
 62
     7
370
    18
100
AcDbLine
 10
4.0587862695
 20
5.216335808
 30
0.0
 11
4.0302218167
 21
5.216335808
 31
0.0
  0
LINE
  5
459
330
453
100
AcDbEntity
  8
0
  6
Continuous
 62
     7
370
    18
100
AcDbLine
 10
4.0302218167
 20
5.216335808
 30
0.0
 11
4.0302218167
 21
5.0675076785
 31
0.0
  0
LINE
  5
45A
330
453
100
AcDbEntity
  8
0
  6
Continuous
 62
     7
370
    18
100
AcDbLine
 10
4.0302218167
 20
5.0675076785
 30
0.0
 11
4.0587862695
 21
5.0675076785
 31
0.0
  0
LINE
  5
45B
330
453
100
AcDbEntity
  8
0
  6
Continuous
 62
     7
370
    18
100
AcDbLine
 10
4.2319633465
 20
5.216335808
 30
0.0
 11
4.2605277993
 21
5.216335808
 31
0.0
  0
LINE
  5
45C
330
453
100
AcDbEntity
  8
0
  6
Continuous
 62
     7
370
    18
100
AcDbLine
 10
4.2605277993
 20
5.216335808
 30
0.0
 11
4.2605277993
 21
5.0675076785
 31
0.0
  0
LINE
  5
45D
330
453
100
AcDbEntity
  8
0
  6
Continuous
 62
     7
370
    18
100
AcDbLine
 10
4.2605277993
 20
5.0675076785
 30
0.0
 11
4.2319633465
 21
5.0675076785
 31
0.0
  0
LINE
  5
45E
330
453
100
AcDbEntity
  8
0
  6
Continuous
 62
     7
370
    18
100
AcDbLine
 10
4.716789598
 20
5.2170519684
 30
0.0
 11
4.904289598
 21
5.2170519684
 31
0.0
  0
LINE
  5
45F
330
453
100
AcDbEntity
  8
0
  6
Continuous
 62
     7
370
    18
100
AcDbLine
 10
4.6183644012
 20
5.2170519684
 30
0.0
 11
4.3427604139
 21
5.2170519684
 31
0.0
  0
MTEXT
  5
460
330
453
100
AcDbEntity
  8
0
  6
Continuous
 62
     7
370
    18
100
AcDbMText
 10
4.0021781971
 20
5.3576611786
 30
0.0
 40
0.09375
 41
0.0
 71
     1
 72
     1
  1

  7
SLDTEXTSTYLE0
 73
     1
 44
1.0
  0
MTEXT
  5
461
330
453
100
AcDbEntity
  8
0
  6
Continuous
 62
     7
370
    18
100
AcDbMText
 10
4.0587862627
 20
5.35622888
 30
0.0
 40
0.09375
 41
0.0
 71
     1
 72
     1
  1
.10
  7
SLDTEXTSTYLE0
 73
     1
 44
1.0
  0
MTEXT
  5
462
330
453
100
AcDbEntity
  8
0
  6
Continuous
 62
     7
370
    18
100
AcDbMText
 10
4.0587862695
 20
5.1883577894
 30
0.0
 40
0.09375
 41
0.0
 71
     1
 72
     1
  1
2.5
  7
SLDTEXTSTYLE0
 73
     1
 44
1.0
  0
MTEXT
  5
463
330
453
100
AcDbEntity
  8
0
  6
Continuous
 62
     7
370
    18
100
AcDbMText
 10
4.3242484815
 20
5.3576611786
 30
0.0
 40
0.09375
 41
0.0
 71
     1
 72
     1
  1

  7
SLDTEXTSTYLE0
 73
     1
 44
1.0
  0
ENDBLK
  5
455
330
453
100
AcDbEntity
  8
0
100
AcDbBlockEnd
  0
BLOCK
  5
466
330
465
100
AcDbEntity
  8
0
100
AcDbBlockBegin
  2
_D_12
 70
     0
 10
0.0
 20
0.0
 30
0.0
  3
_D_12
  1

  0
SOLID
  5
468
330
465
100
AcDbEntity
  8
0
  6
Continuous
 62
     7
370
    18
100
AcDbTrace
 10
4.716789598
 20
5.2170519684
 30
0.0
 11
4.814289598
 21
5.2020519684
 31
0.0
 12
4.814289598
 22
5.2320519684
 32
0.0
 13
4.814289598
 23
5.2320519684
 33
0.0
  0
SOLID
  5
469
330
465
100
AcDbEntity
  8
0
  6
Continuous
 62
     7
370
    18
100
AcDbTrace
 10
6.685293535
 20
5.2170519684
 30
0.0
 11
6.587793535
 21
5.2320519684
 31
0.0
 12
6.587793535
 22
5.2020519684
 32
0.0
 13
6.587793535
 23
5.2020519684
 33
0.0
  0
LINE
  5
46A
330
465
100
AcDbEntity
  8
0
  6
Continuous
 62
     7
370
    18
100
AcDbLine
 10
5.6317707467
 20
5.216335808
 30
0.0
 11
5.6032062939
 21
5.216335808
 31
0.0
  0
LINE
  5
46B
330
465
100
AcDbEntity
  8
0
  6
Continuous
 62
     7
370
    18
100
AcDbLine
 10
5.6032062939
 20
5.216335808
 30
0.0
 11
5.6032062939
 21
5.0675076785
 31
0.0
  0
LINE
  5
46C
330
465
100
AcDbEntity
  8
0
  6
Continuous
 62
     7
370
    18
100
AcDbLine
 10
5.6032062939
 20
5.0675076785
 30
0.0
 11
5.6317707467
 21
5.0675076785
 31
0.0
  0
LINE
  5
46D
330
465
100
AcDbEntity
  8
0
  6
Continuous
 62
     7
370
    18
100
AcDbLine
 10
5.7703124138
 20
5.216335808
 30
0.0
 11
5.7988768666
 21
5.216335808
 31
0.0
  0
LINE
  5
46E
330
465
100
AcDbEntity
  8
0
  6
Continuous
 62
     7
370
    18
100
AcDbLine
 10
5.7988768666
 20
5.216335808
 30
0.0
 11
5.7988768666
 21
5.0675076785
 31
0.0
  0
LINE
  5
46F
330
465
100
AcDbEntity
  8
0
  6
Continuous
 62
     7
370
    18
100
AcDbLine
 10
5.7988768666
 20
5.0675076785
 30
0.0
 11
5.7703124138
 21
5.0675076785
 31
0.0
  0
LINE
  5
470
330
465
100
AcDbEntity
  8
0
  6
Continuous
 62
     7
370
    18
100
AcDbLine
 10
4.716789598
 20
5.2170519684
 30
0.0
 11
5.5209736518
 21
5.2170519684
 31
0.0
  0
LINE
  5
471
330
465
100
AcDbEntity
  8
0
  6
Continuous
 62
     7
370
    18
100
AcDbLine
 10
6.685293535
 20
5.2170519684
 30
0.0
 11
5.8811094813
 21
5.2170519684
 31
0.0
  0
MTEXT
  5
472
330
465
100
AcDbEntity
  8
0
  6
Continuous
 62
     7
370
    18
100
AcDbMText
 10
5.5751626743
 20
5.3576611786
 30
0.0
 40
0.09375
 41
0.0
 71
     1
 72
     1
  1

  7
SLDTEXTSTYLE0
 73
     1
 44
1.0
  0
MTEXT
  5
473
330
465
100
AcDbEntity
  8
0
  6
Continuous
 62
     7
370
    18
100
AcDbMText
 10
5.5798176113
 20
5.35622888
 30
0.0
 40
0.09375
 41
0.0
 71
     1
 72
     1
  1
1.97
  7
SLDTEXTSTYLE0
 73
     1
 44
1.0
  0
MTEXT
  5
474
330
465
100
AcDbEntity
  8
0
  6
Continuous
 62
     7
370
    18
100
AcDbMText
 10
5.6317707467
 20
5.1883577894
 30
0.0
 40
0.09375
 41
0.0
 71
     1
 72
     1
  1
50
  7
SLDTEXTSTYLE0
 73
     1
 44
1.0
  0
MTEXT
  5
475
330
465
100
AcDbEntity
  8
0
  6
Continuous
 62
     7
370
    18
100
AcDbMText
 10
5.8625975488
 20
5.3576611786
 30
0.0
 40
0.09375
 41
0.0
 71
     1
 72
     1
  1

  7
SLDTEXTSTYLE0
 73
     1
 44
1.0
  0
ENDBLK
  5
467
330
465
100
AcDbEntity
  8
0
100
AcDbBlockEnd
  0
BLOCK
  5
478
330
477
100
AcDbEntity
  8
0
100
AcDbBlockBegin
  2
_D_13
 70
     0
 10
0.0
 20
0.0
 30
0.0
  3
_D_13
  1

  0
SOLID
  5
47A
330
477
100
AcDbEntity
  8
0
  6
Continuous
 62
     7
370
    18
100
AcDbTrace
 10
6.685293535
 20
5.2170519684
 30
0.0
 11
6.587793535
 21
5.2320519684
 31
0.0
 12
6.587793535
 22
5.2020519684
 32
0.0
 13
6.587793535
 23
5.2020519684
 33
0.0
  0
SOLID
  5
47B
330
477
100
AcDbEntity
  8
0
  6
Continuous
 62
     7
370
    18
100
AcDbTrace
 10
6.7837187319
 20
5.2170519684
 30
0.0
 11
6.8812187319
 21
5.2020519684
 31
0.0
 12
6.8812187319
 22
5.2320519684
 32
0.0
 13
6.8812187319
 23
5.2320519684
 33
0.0
  0
LINE
  5
47C
330
477
100
AcDbEntity
  8
0
  6
Continuous
 62
     7
370
    18
100
AcDbLine
 10
7.131929913
 20
5.216335808
 30
0.0
 11
7.1033654602
 21
5.216335808
 31
0.0
  0
LINE
  5
47D
330
477
100
AcDbEntity
  8
0
  6
Continuous
 62
     7
370
    18
100
AcDbLine
 10
7.1033654602
 20
5.216335808
 30
0.0
 11
7.1033654602
 21
5.0675076785
 31
0.0
  0
LINE
  5
47E
330
477
100
AcDbEntity
  8
0
  6
Continuous
 62
     7
370
    18
100
AcDbLine
 10
7.1033654602
 20
5.0675076785
 30
0.0
 11
7.131929913
 21
5.0675076785
 31
0.0
  0
LINE
  5
47F
330
477
100
AcDbEntity
  8
0
  6
Continuous
 62
     7
370
    18
100
AcDbLine
 10
7.3051069899
 20
5.216335808
 30
0.0
 11
7.3336714428
 21
5.216335808
 31
0.0
  0
LINE
  5
480
330
477
100
AcDbEntity
  8
0
  6
Continuous
 62
     7
370
    18
100
AcDbLine
 10
7.3336714428
 20
5.216335808
 30
0.0
 11
7.3336714428
 21
5.0675076785
 31
0.0
  0
LINE
  5
481
330
477
100
AcDbEntity
  8
0
  6
Continuous
 62
     7
370
    18
100
AcDbLine
 10
7.3336714428
 20
5.0675076785
 30
0.0
 11
7.3051069899
 21
5.0675076785
 31
0.0
  0
LINE
  5
482
330
477
100
AcDbEntity
  8
0
  6
Continuous
 62
     7
370
    18
100
AcDbLine
 10
6.685293535
 20
5.2170519684
 30
0.0
 11
6.497793535
 21
5.2170519684
 31
0.0
  0
LINE
  5
483
330
477
100
AcDbEntity
  8
0
  6
Continuous
 62
     7
370
    18
100
AcDbLine
 10
6.7837187319
 20
5.2170519684
 30
0.0
 11
7.021132818
 21
5.2170519684
 31
0.0
  0
MTEXT
  5
484
330
477
100
AcDbEntity
  8
0
  6
Continuous
 62
     7
370
    18
100
AcDbMText
 10
7.0753218406
 20
5.3576611786
 30
0.0
 40
0.09375
 41
0.0
 71
     1
 72
     1
  1

  7
SLDTEXTSTYLE0
 73
     1
 44
1.0
  0
MTEXT
  5
485
330
477
100
AcDbEntity
  8
0
  6
Continuous
 62
     7
370
    18
100
AcDbMText
 10
7.1319299061
 20
5.35622888
 30
0.0
 40
0.09375
 41
0.0
 71
     1
 72
     1
  1
.10
  7
SLDTEXTSTYLE0
 73
     1
 44
1.0
  0
MTEXT
  5
486
330
477
100
AcDbEntity
  8
0
  6
Continuous
 62
     7
370
    18
100
AcDbMText
 10
7.131929913
 20
5.1883577894
 30
0.0
 40
0.09375
 41
0.0
 71
     1
 72
     1
  1
2.5
  7
SLDTEXTSTYLE0
 73
     1
 44
1.0
  0
MTEXT
  5
487
330
477
100
AcDbEntity
  8
0
  6
Continuous
 62
     7
370
    18
100
AcDbMText
 10
7.397392125
 20
5.3576611786
 30
0.0
 40
0.09375
 41
0.0
 71
     1
 72
     1
  1

  7
SLDTEXTSTYLE0
 73
     1
 44
1.0
  0
ENDBLK
  5
479
330
477
100
AcDbEntity
  8
0
100
AcDbBlockEnd
  0
BLOCK
  5
48A
330
489
100
AcDbEntity
  8
0
100
AcDbBlockBegin
  2
_D_14
 70
     0
 10
0.0
 20
0.0
 30
0.0
  3
_D_14
  1

  0
SOLID
  5
48C
330
489
100
AcDbEntity
  8
0
  6
Continuous
 62
     7
370
    18
100
AcDbTrace
 10
6.4097059783
 20
5.8505806065
 30
0.0
 11
6.5072059783
 21
5.8355806065
 31
0.0
 12
6.5072059783
 22
5.8655806065
 32
0.0
 13
6.5072059783
 23
5.8655806065
 33
0.0
  0
SOLID
  5
48D
330
489
100
AcDbEntity
  8
0
  6
Continuous
 62
     7
370
    18
100
AcDbTrace
 10
6.685293535
 20
5.8505806065
 30
0.0
 11
6.587793535
 21
5.8655806065
 31
0.0
 12
6.587793535
 22
5.8355806065
 32
0.0
 13
6.587793535
 23
5.8355806065
 33
0.0
  0
LINE
  5
48E
330
489
100
AcDbEntity
  8
0
  6
Continuous
 62
     7
370
    18
100
AcDbLine
 10
7.1838830278
 20
5.8498644461
 30
0.0
 11
7.155318575
 21
5.8498644461
 31
0.0
  0
LINE
  5
48F
330
489
100
AcDbEntity
  8
0
  6
Continuous
 62
     7
370
    18
100
AcDbLine
 10
7.155318575
 20
5.8498644461
 30
0.0
 11
7.155318575
 21
5.7010363166
 31
0.0
  0
LINE
  5
490
330
489
100
AcDbEntity
  8
0
  6
Continuous
 62
     7
370
    18
100
AcDbLine
 10
7.155318575
 20
5.7010363166
 30
0.0
 11
7.1838830278
 21
5.7010363166
 31
0.0
  0
LINE
  5
491
330
489
100
AcDbEntity
  8
0
  6
Continuous
 62
     7
370
    18
100
AcDbLine
 10
7.2531538614
 20
5.8498644461
 30
0.0
 11
7.2817183142
 21
5.8498644461
 31
0.0
  0
LINE
  5
492
330
489
100
AcDbEntity
  8
0
  6
Continuous
 62
     7
370
    18
100
AcDbLine
 10
7.2817183142
 20
5.8498644461
 30
0.0
 11
7.2817183142
 21
5.7010363166
 31
0.0
  0
LINE
  5
493
330
489
100
AcDbEntity
  8
0
  6
Continuous
 62
     7
370
    18
100
AcDbLine
 10
7.2817183142
 20
5.7010363166
 30
0.0
 11
7.2531538614
 21
5.7010363166
 31
0.0
  0
LINE
  5
494
330
489
100
AcDbEntity
  8
0
  6
Continuous
 62
     7
370
    18
100
AcDbLine
 10
6.4097059783
 20
6.0299879343
 30
0.0
 11
6.4097059783
 21
5.7568306065
 31
0.0
  0
LINE
  5
495
330
489
100
AcDbEntity
  8
0
  6
Continuous
 62
     7
370
    18
100
AcDbLine
 10
6.4097059783
 20
5.8505806065
 30
0.0
 11
6.685293535
 21
5.8505806065
 31
0.0
  0
LINE
  5
496
330
489
100
AcDbEntity
  8
0
  6
Continuous
 62
     7
370
    18
100
AcDbLine
 10
6.685293535
 20
5.8505806065
 30
0.0
 11
7.0730859329
 21
5.8505806065
 31
0.0
  0
MTEXT
  5
497
330
489
100
AcDbEntity
  8
0
  6
Continuous
 62
     7
370
    18
100
AcDbMText
 10
7.1272749554
 20
5.9911898167
 30
0.0
 40
0.09375
 41
0.0
 71
     1
 72
     1
  1

  7
SLDTEXTSTYLE0
 73
     1
 44
1.0
  0
MTEXT
  5
498
330
489
100
AcDbEntity
  8
0
  6
Continuous
 62
     7
370
    18
100
AcDbMText
 10
7.1319299061
 20
5.9897575181
 30
0.0
 40
0.09375
 41
0.0
 71
     1
 72
     1
  1
.28
  7
SLDTEXTSTYLE0
 73
     1
 44
1.0
  0
MTEXT
  5
499
330
489
100
AcDbEntity
  8
0
  6
Continuous
 62
     7
370
    18
100
AcDbMText
 10
7.1838830278
 20
5.8218864275
 30
0.0
 40
0.09375
 41
0.0
 71
     1
 72
     1
  1
7
  7
SLDTEXTSTYLE0
 73
     1
 44
1.0
  0
MTEXT
  5
49A
330
489
100
AcDbEntity
  8
0
  6
Continuous
 62
     7
370
    18
100
AcDbMText
 10
7.3454390102
 20
5.9911898167
 30
0.0
 40
0.09375
 41
0.0
 71
     1
 72
     1
  1

  7
SLDTEXTSTYLE0
 73
     1
 44
1.0
  0
ENDBLK
  5
48B
330
489
100
AcDbEntity
  8
0
100
AcDbBlockEnd
  0
ENDSEC
  0
SECTION
  2
ENTITIES
  0
LINE
  5
73
330
1F
100
AcDbEntity
  8
0
  6
Continuous
 62
     7
370
    18
100
AcDbLine
 10
0.2349387035
 20
8.028804878
 30
0.0
 11
12.5169387035
 21
8.028804878
 31
0.0
  0
LINE
  5
74
330
1F
100
AcDbEntity
  8
0
  6
Continuous
 62
     7
370
    18
100
AcDbLine
 10
12.5169387035
 20
0.246804878
 30
0.0
 11
12.5169387035
 21
8.028804878
 31
0.0
  0
LINE
  5
75
330
1F
100
AcDbEntity
  8
0
  6
Continuous
 62
     7
370
    18
100
AcDbLine
 10
12.5169387035
 20
0.246804878
 30
0.0
 11
0.2349387035
 21
0.246804878
 31
0.0
  0
LINE
  5
76
330
1F
100
AcDbEntity
  8
0
  6
Continuous
 62
     7
370
    18
100
AcDbLine
 10
0.2349387035
 20
8.028804878
 30
0.0
 11
0.2349387035
 21
0.246804878
 31
0.0
  0
LINE
  5
77
330
1F
100
AcDbEntity
  8
0
  6
Continuous
 62
     7
370
    18
100
AcDbLine
 10
0.1884387035
 20
8.075304878
 30
0.0
 11
12.5634387035
 21
8.075304878
 31
0.0
  0
LINE
  5
78
330
1F
100
AcDbEntity
  8
0
  6
Continuous
 62
     7
370
    18
100
AcDbLine
 10
12.5634387035
 20
0.200304878
 30
0.0
 11
0.1884387035
 21
0.200304878
 31
0.0
  0
LINE
  5
79
330
1F
100
AcDbEntity
  8
0
  6
Continuous
 62
     7
370
    18
100
AcDbLine
 10
0.1884387035
 20
8.075304878
 30
0.0
 11
0.1884387035
 21
0.200304878
 31
0.0
  0
LINE
  5
7A
330
1F
100
AcDbEntity
  8
0
  6
Continuous
 62
     7
370
    18
100
AcDbLine
 10
12.5634387035
 20
0.200304878
 30
0.0
 11
12.5634387035
 21
8.075304878
 31
0.0
  0
LINE
  5
7B
330
1F
100
AcDbEntity
  8
0
  6
Continuous
 62
     7
370
    18
100
AcDbLine
 10
0.2349387035
 20
7.724304878
 30
0.0
 11
12.5169387035
 21
7.724304878
 31
0.0
  0
LINE
  5
7C
330
1F
100
AcDbEntity
  8
0
  6
Continuous
 62
     7
370
    18
100
AcDbLine
 10
1.3827894155
 20
8.028804878
 30
0.0
 11
1.3827894155
 21
7.724304878
 31
0.0
  0
LINE
  5
7D
330
1F
100
AcDbEntity
  8
0
  6
Continuous
 62
     7
370
    18
100
AcDbLine
 10
0.8331239128
 20
8.028804878
 30
0.0
 11
0.8331239128
 21
7.724304878
 31
0.0
  0
LINE
  5
7E
330
1F
100
AcDbEntity
  8
0
  6
Continuous
 62
     7
370
    18
100
AcDbLine
 10
11.5794387035
 20
7.724304878
 30
0.0
 11
11.5794387035
 21
8.028804878
 31
0.0
  0
LINE
  5
7F
330
1F
100
AcDbEntity
  8
0
  6
Continuous
 62
     7
370
    18
100
AcDbLine
 10
11.0169387035
 20
7.724304878
 30
0.0
 11
11.0169387035
 21
8.028804878
 31
0.0
  0
LINE
  5
80
330
1F
100
AcDbEntity
  8
0
  6
Continuous
 62
     7
370
    18
100
AcDbLine
 10
10.9704387035
 20
7.724304878
 30
0.0
 11
10.9704387035
 21
8.028804878
 31
0.0
  0
LINE
  5
81
330
1F
100
AcDbEntity
  8
0
  6
Continuous
 62
     7
370
    18
100
AcDbLine
 10
0.3357584379
 20
7.7821200869
 30
0.0
 11
0.3357584379
 21
7.9812711524
 31
0.0
  0
LINE
  5
82
330
1F
100
AcDbEntity
  8
0
  6
Continuous
 62
     7
370
    18
100
AcDbLine
 10
0.4744373582
 20
7.7945670285
 30
0.0
 11
0.4744373582
 21
7.9812711524
 31
0.0
  0
LINE
  5
83
330
1F
100
AcDbEntity
  8
0
  6
Continuous
 62
     7
370
    18
100
AcDbLine
 10
0.5281754399
 20
7.8146129647
 30
0.0
 11
0.5281754399
 21
7.9812711524
 31
0.0
  0
LINE
  5
84
330
1F
100
AcDbEntity
  8
0
  6
Continuous
 62
     7
370
    18
100
AcDbLine
 10
0.5108405748
 20
7.8146129647
 30
0.0
 11
0.5108405748
 21
7.9812711524
 31
0.0
  0
LINE
  5
85
330
1F
100
AcDbEntity
  8
0
  6
Continuous
 62
     7
370
    18
100
AcDbLine
 10
0.6053115911
 20
7.7821200869
 30
0.0
 11
0.6053115911
 21
7.9812711524
 31
0.0
  0
LINE
  5
86
330
1F
100
AcDbEntity
  8
0
  6
Continuous
 62
     7
370
    18
100
AcDbLine
 10
0.5645786565
 20
7.7945670285
 30
0.0
 11
0.5645786565
 21
7.9812711524
 31
0.0
  0
LINE
  5
87
330
1F
100
AcDbEntity
  8
0
  6
Continuous
 62
     7
370
    18
100
AcDbLine
 10
0.4868842998
 20
7.7821200869
 30
0.0
 11
0.5521317149
 21
7.7821200869
 31
0.0
  0
LINE
  5
88
330
1F
100
AcDbEntity
  8
0
  6
Continuous
 62
     7
370
    18
100
AcDbLine
 10
0.3357584379
 20
7.7821200869
 30
0.0
 11
0.3998974385
 21
7.7821200869
 31
0.0
  0
LINE
  5
89
330
1F
100
AcDbEntity
  8
0
  6
Continuous
 62
     7
370
    18
100
AcDbLine
 10
0.3998974385
 20
7.876716843
 30
0.0
 11
0.3452926137
 21
7.876716843
 31
0.0
  0
LINE
  5
8A
330
1F
100
AcDbEntity
  8
0
  6
Continuous
 62
     7
370
    18
100
AcDbLine
 10
0.3998974385
 20
7.8866743963
 30
0.0
 11
0.3452926137
 21
7.8866743963
 31
0.0
  0
LINE
  5
8B
330
1F
100
AcDbEntity
  8
0
  6
Continuous
 62
     7
370
    18
100
AcDbLine
 10
0.3452926137
 20
7.8866743963
 30
0.0
 11
0.3452926137
 21
7.8816956196
 31
0.0
  0
LINE
  5
8C
330
1F
100
AcDbEntity
  8
0
  6
Continuous
 62
     7
370
    18
100
AcDbLine
 10
0.3452926137
 20
7.876716843
 30
0.0
 11
0.3452926137
 21
7.8816956196
 31
0.0
  0
LINE
  5
8D
330
1F
100
AcDbEntity
  8
0
  6
Continuous
 62
     7
370
    18
100
AcDbLine
 10
0.6053115911
 20
7.7821200869
 30
0.0
 11
0.6300837327
 21
7.7821200869
 31
0.0
  0
LINE
  5
8E
330
1F
100
AcDbEntity
  8
0
  6
Continuous
 62
     7
370
    18
100
AcDbLine
 10
0.6997866056
 20
7.8518229598
 30
0.0
 11
0.6997866056
 21
7.9115682795
 31
0.0
  0
LINE
  5
8F
330
1F
100
AcDbEntity
  8
0
  6
Continuous
 62
     7
370
    18
100
AcDbLine
 10
0.6631578223
 20
7.876716843
 30
0.0
 11
0.6631578223
 21
7.8866743963
 31
0.0
  0
LINE
  5
90
330
1F
100
AcDbEntity
  8
0
  6
Continuous
 62
     7
370
    18
100
AcDbLine
 10
0.6321846301
 20
7.876716843
 30
0.0
 11
0.6321846301
 21
7.8866743963
 31
0.0
  0
LINE
  5
91
330
1F
100
AcDbEntity
  8
0
  6
Continuous
 62
     7
370
    18
100
AcDbLine
 10
0.6631578223
 20
7.876716843
 30
0.0
 11
0.6321846301
 21
7.876716843
 31
0.0
  0
LINE
  5
92
330
1F
100
AcDbEntity
  8
0
  6
Continuous
 62
     7
370
    18
100
AcDbLine
 10
0.6631578223
 20
7.8866743963
 30
0.0
 11
0.6321846301
 21
7.8866743963
 31
0.0
  0
LINE
  5
93
330
1F
100
AcDbEntity
  8
0
  6
Continuous
 62
     7
370
    18
100
AcDbLine
 10
0.5281754399
 20
7.9812711524
 30
0.0
 11
0.5645786565
 21
7.9812711524
 31
0.0
  0
LINE
  5
94
330
1F
100
AcDbEntity
  8
0
  6
Continuous
 62
     7
370
    18
100
AcDbLine
 10
0.3357584379
 20
7.9812711524
 30
0.0
 11
0.3998974385
 21
7.9812711524
 31
0.0
  0
LINE
  5
95
330
1F
100
AcDbEntity
  8
0
  6
Continuous
 62
     7
370
    18
100
AcDbLine
 10
0.4744373582
 20
7.9812711524
 30
0.0
 11
0.5108405748
 21
7.9812711524
 31
0.0
  0
LINE
  5
96
330
1F
100
AcDbEntity
  8
0
  6
Continuous
 62
     7
370
    18
100
AcDbLine
 10
0.6053115911
 20
7.9812711524
 30
0.0
 11
0.6300837327
 21
7.9812711524
 31
0.0
  0
LINE
  5
97
330
1F
100
AcDbEntity
  8
0
  6
Continuous
 62
     7
370
    18
100
AcDbLine
 10
0.7875750195
 20
8.028804878
 30
0.0
 11
0.7875750195
 21
7.724304878
 31
0.0
  0
LINE
  5
98
330
1F
100
AcDbEntity
  8
0
  6
Continuous
 62
     7
370
    18
100
AcDbLine
 10
6.2873965327
 20
7.724304878
 30
0.0
 11
6.2873965327
 21
8.028804878
 31
0.0
  0
LINE
  5
99
330
1F
100
AcDbEntity
  8
0
  6
Continuous
 62
     7
370
    18
100
AcDbLine
 10
6.3338965327
 20
7.724304878
 30
0.0
 11
6.3338965327
 21
8.028804878
 31
0.0
  0
LINE
  5
9A
330
1F
100
AcDbEntity
  8
0
  6
Continuous
 62
     7
370
    18
100
AcDbLine
 10
6.8963965327
 20
7.724304878
 30
0.0
 11
6.8963965327
 21
8.028804878
 31
0.0
  0
ARC
  5
9B
330
1F
100
AcDbEntity
  8
0
  6
Continuous
 62
     7
370
    18
100
AcDbCircle
 10
0.3998974385
 20
7.9339727744
 30
0.0
 40
0.0472983780739336
100
AcDbArc
 50
270.0
 51
90.0
  0
ARC
  5
9C
330
1F
100
AcDbEntity
  8
0
  6
Continuous
 62
     7
370
    18
100
AcDbCircle
 10
0.6300837327
 20
7.9115682795
 30
0.0
 40
0.0697028729510594
100
AcDbArc
 50
0.0
 51
90.0
  0
ARC
  5
9D
330
1F
100
AcDbEntity
  8
0
  6
Continuous
 62
     7
370
    18
100
AcDbCircle
 10
0.3998974385
 20
7.8294184649
 30
0.0
 40
0.0472983780739336
100
AcDbArc
 50
270.0
 51
90.0
  0
ARC
  5
9E
330
1F
100
AcDbEntity
  8
0
  6
Continuous
 62
     7
370
    18
100
AcDbCircle
 10
0.4868842998
 20
7.7945670285
 30
0.0
 40
0.012446941598407
100
AcDbArc
 50
180.0
 51
270.0
  0
ARC
  5
9F
330
1F
100
AcDbEntity
  8
0
  6
Continuous
 62
     7
370
    18
100
AcDbCircle
 10
0.5182178866
 20
7.8146129647
 30
0.0
 40
0.0099575532787199
100
AcDbArc
 50
277.4442840975
 51
0.0
  0
ARC
  5
A0
330
1F
100
AcDbEntity
  8
0
  6
Continuous
 62
     7
370
    18
100
AcDbCircle
 10
0.5207981281
 20
7.8146129647
 30
0.0
 40
0.0099575532787281
100
AcDbArc
 50
180.0
 51
262.5557159021
  0
ARC
  5
A1
330
1F
100
AcDbEntity
  8
0
  6
Continuous
 62
     7
370
    18
100
AcDbCircle
 10
0.6300837327
 20
7.8518229598
 30
0.0
 40
0.0697028729510594
100
AcDbArc
 50
270.0
 51
0.0
  0
ARC
  5
A2
330
1F
100
AcDbEntity
  8
0
  6
Continuous
 62
     7
370
    18
100
AcDbCircle
 10
0.5521317149
 20
7.7945670285
 30
0.0
 40
0.0124469415984052
100
AcDbArc
 50
270.0
 51
0.0
  0
INSERT
  5
B2
330
1F
100
AcDbEntity
  8
0
  6
Continuous
 62
     7
370
     0
100
AcDbBlockReference
  2
SW_NOTE_0
 10
5.1239112522
 20
2.9789826566
 30
0.0
  0
INSERT
  5
BA
330
1F
100
AcDbEntity
  8
0
  6
Continuous
 62
     7
370
     0
100
AcDbBlockReference
  2
SW_NOTE_1
 10
10.326651634
 20
7.4707235971
 30
0.0
  0
INSERT
  5
C2
330
1F
100
AcDbEntity
  8
0
  6
Continuous
 62
     7
370
     0
100
AcDbBlockReference
  2
SW_NOTE_2
 10
5.1401763027
 20
0.7643265408
 30
0.0
  0
MTEXT
  5
C3
330
1F
100
AcDbEntity
  8
0
  6
Continuous
 62
     7
370
     0
100
AcDbMText
 10
12.0523437884
 20
7.9569872581
 30
0.0
 40
0.140625
 41
0.0
 71
     2
 72
     1
  1
5-2-16
  7
SLDTEXTSTYLE0
 73
     1
 44
1.0
  0
MTEXT
  5
C4
330
1F
100
AcDbEntity
  8
0
  6
Continuous
 62
     7
370
     0
100
AcDbMText
 10
3.8620571424
 20
7.9651791291
 30
0.0
 40
0.140625
 41
0.0
 71
     2
 72
     1
  1
NEMA 4X PLASTIC BOX  (PTS SERIES)
  7
SLDTEXTSTYLE0
 73
     1
 44
1.0
  0
MTEXT
  5
C6
330
1F
100
AcDbEntity
  8
0
  6
Continuous
 62
     7
370
     0
100
AcDbMText
 10
8.884226533
 20
7.9569872649
 30
0.0
 40
0.140625
 41
0.0
 71
     2
 72
     1
  1
PTS-25301     &     PTS-25301-C
  7
SLDTEXTSTYLE2
 73
     1
 44
1.0
  0
INSERT
  5
CC
330
1F
100
AcDbEntity
  8
0
  6
Continuous
 62
     7
370
     0
100
AcDbBlockReference
  2
SW_NOTE_3
 10
0.9513255935
 20
7.8796036785
 30
0.0
  0
INSERT
  5
D2
330
1F
100
AcDbEntity
  8
0
  6
Continuous
 62
     7
370
     0
100
AcDbBlockReference
  2
SW_NOTE_4
 10
6.4828848922
 20
7.8740908919
 30
0.0
  0
INSERT
  5
D8
330
1F
100
AcDbEntity
  8
0
  6
Continuous
 62
     7
370
     0
100
AcDbBlockReference
  2
SW_NOTE_5
 10
11.0314789706
 20
7.8775376472
 30
0.0
  0
LINE
  5
D9
330
1F
100
AcDbEntity
  8
0
  6
Continuous
 62
     7
370
    25
100
AcDbLine
 10
3.0054263342
 20
6.4600473402
 30
0.0
 11
3.0054263342
 21
6.5978415018
 31
0.0
  0
ARC
  5
DA
330
1F
100
AcDbEntity
  8
0
  6
Continuous
 62
     7
370
    25
100
AcDbCircle
 10
3.1629053964
 20
6.4600473144
 30
0.0
 40
0.1574790541284159
100
AcDbArc
 50
180.0
 51
270.0
  0
LINE
  5
DB
330
1F
100
AcDbEntity
  8
0
  6
Continuous
 62
     7
370
    25
100
AcDbLine
 10
3.3006995898
 20
6.3025682461
 30
0.0
 11
3.1629054283
 21
6.3025682461
 31
0.0
  0
ARC
  5
DC
330
1F
100
AcDbEntity
  8
0
  6
Continuous
 62
     7
370
    25
100
AcDbCircle
 10
3.3006995687
 20
6.243513615
 30
0.0
 40
0.0590546452981502
100
AcDbArc
 50
360.0
 51
90.0000000001
  0
LINE
  5
DD
330
1F
100
AcDbEntity
  8
0
  6
Continuous
 62
     7
370
    25
100
AcDbLine
 10
3.3597542409
 20
4.6687230938
 30
0.0
 11
3.3597542409
 21
6.243513595
 31
0.0
  0
ARC
  5
DE
330
1F
100
AcDbEntity
  8
0
  6
Continuous
 62
     7
370
    25
100
AcDbCircle
 10
3.3006995687
 20
4.6687230737
 30
0.0
 40
0.0590546452981733
100
AcDbArc
 50
270.0
 51
0.0
  0
LINE
  5
DF
330
1F
100
AcDbEntity
  8
0
  6
Continuous
 62
     7
370
    25
100
AcDbLine
 10
3.1629054283
 20
4.6096684426
 30
0.0
 11
3.3006995898
 21
4.6096684426
 31
0.0
  0
ARC
  5
E0
330
1F
100
AcDbEntity
  8
0
  6
Continuous
 62
     7
370
    25
100
AcDbCircle
 10
3.1629053964
 20
4.4521893743
 30
0.0
 40
0.1574790541284052
100
AcDbArc
 50
90.0
 51
180.0
  0
LINE
  5
E1
330
1F
100
AcDbEntity
  8
0
  6
Continuous
 62
     7
370
    25
100
AcDbLine
 10
3.0054263342
 20
4.314395187
 30
0.0
 11
3.0054263342
 21
4.4521893485
 31
0.0
  0
ARC
  5
E2
330
1F
100
AcDbEntity
  8
0
  6
Continuous
 62
     7
370
    25
100
AcDbCircle
 10
1.9621276087
 20
4.3143952019
 30
0.0
 40
0.0590546452981784
100
AcDbArc
 50
180.0
 51
270.0
  0
LINE
  5
E3
330
1F
100
AcDbEntity
  8
0
  6
Continuous
 62
     7
370
    25
100
AcDbLine
 10
1.9030729687
 20
4.4521893485
 30
0.0
 11
1.9030729687
 21
4.314395187
 31
0.0
  0
LINE
  5
E4
330
1F
100
AcDbEntity
  8
0
  6
Continuous
 62
     7
370
    25
100
AcDbLine
 10
1.5487450619
 20
6.243513595
 30
0.0
 11
1.5487450619
 21
4.6687230938
 31
0.0
  0
LINE
  5
E5
330
1F
100
AcDbEntity
  8
0
  6
Continuous
 62
     7
370
    25
100
AcDbLine
 10
1.607799713
 20
4.6096684426
 30
0.0
 11
1.7455939112
 21
4.6096684426
 31
0.0
  0
ARC
  5
E6
330
1F
100
AcDbEntity
  8
0
  6
Continuous
 62
     7
370
    25
100
AcDbCircle
 10
1.6077997369
 20
4.6687230737
 30
0.0
 40
0.0590546452981693
100
AcDbArc
 50
180.0
 51
270.0
  0
ARC
  5
E7
330
1F
100
AcDbEntity
  8
0
  6
Continuous
 62
     7
370
    25
100
AcDbCircle
 10
2.946371697
 20
6.5978414868
 30
0.0
 40
0.0590546452982679
100
AcDbArc
 50
0.0
 51
90.0
  0
LINE
  5
E8
330
1F
100
AcDbEntity
  8
0
  6
Continuous
 62
     7
370
    25
100
AcDbLine
 10
1.9030729687
 20
6.5978415018
 30
0.0
 11
1.9030729687
 21
6.4600473402
 31
0.0
  0
ARC
  5
E9
330
1F
100
AcDbEntity
  8
0
  6
Continuous
 62
     7
370
    25
100
AcDbCircle
 10
1.6077997369
 20
6.243513615
 30
0.0
 40
0.0590546452982554
100
AcDbArc
 50
90.0
 51
180.0
  0
LINE
  5
EA
330
1F
100
AcDbEntity
  8
0
  6
Continuous
 62
     7
370
    25
100
AcDbLine
 10
1.7455939112
 20
6.3025682461
 30
0.0
 11
1.607799713
 21
6.3025682461
 31
0.0
  0
ARC
  5
EB
330
1F
100
AcDbEntity
  8
0
  6
Continuous
 62
     7
370
    25
100
AcDbCircle
 10
1.7455939092
 20
6.4600473144
 30
0.0
 40
0.1574790541284052
100
AcDbArc
 50
270.0
 51
0.0
  0
LINE
  5
EC
330
1F
100
AcDbEntity
  8
0
  6
Continuous
 62
     7
370
    25
100
AcDbLine
 10
2.946371683
 20
6.6568961529
 30
0.0
 11
1.9621276198
 21
6.6568961529
 31
0.0
  0
ARC
  5
ED
330
1F
100
AcDbEntity
  8
0
  6
Continuous
 62
     7
370
    25
100
AcDbCircle
 10
1.9621276087
 20
6.5978414868
 30
0.0
 40
0.0590546452982599
100
AcDbArc
 50
90.0
 51
180.0
  0
LINE
  5
EE
330
1F
100
AcDbEntity
  8
0
  6
Continuous
 62
     7
370
    25
100
AcDbLine
 10
1.9621276198
 20
4.2553405359
 30
0.0
 11
2.946371683
 21
4.2553405359
 31
0.0
  0
ARC
  5
EF
330
1F
100
AcDbEntity
  8
0
  6
Continuous
 62
     7
370
    25
100
AcDbCircle
 10
2.946371697
 20
4.3143952019
 30
0.0
 40
0.0590546452981728
100
AcDbArc
 50
270.0
 51
0.0
  0
ARC
  5
F0
330
1F
100
AcDbEntity
  8
0
  6
Continuous
 62
     7
370
    25
100
AcDbCircle
 10
1.7455939092
 20
4.4521893743
 30
0.0
 40
0.1574790541283979
100
AcDbArc
 50
0.0
 51
90.0
  0
ARC
  5
F1
330
1F
100
AcDbEntity
  8
0
  6
Continuous
 62
     7
370
    25
100
AcDbCircle
 10
1.6077997369
 20
6.243513615
 30
0.0
 40
0.0196848817661057
100
AcDbArc
 50
90.0
 51
180.0
  0
ARC
  5
F2
330
1F
100
AcDbEntity
  8
0
  6
Continuous
 62
     7
370
    25
100
AcDbCircle
 10
1.9621276087
 20
4.3143952019
 30
0.0
 40
0.0196848817661223
100
AcDbArc
 50
179.99992463
 51
270.0
  0
LINE
  5
F3
330
1F
100
AcDbEntity
  8
0
  6
Continuous
 62
     7
370
    25
100
AcDbLine
 10
1.9424427239
 20
4.3143952603
 30
0.0
 11
1.9424427239
 21
4.4521893485
 31
0.0
  0
LINE
  5
F4
330
1F
100
AcDbEntity
  8
0
  6
Continuous
 62
     7
370
    25
100
AcDbLine
 10
1.5881148537
 20
4.6687230938
 30
0.0
 11
1.5881148537
 21
6.243513595
 31
0.0
  0
LINE
  5
F5
330
1F
100
AcDbEntity
  8
0
  6
Continuous
 62
     7
370
    25
100
AcDbLine
 10
1.607799713
 20
6.2631985276
 30
0.0
 11
1.7455939112
 21
6.2631985276
 31
0.0
  0
ARC
  5
F6
330
1F
100
AcDbEntity
  8
0
  6
Continuous
 62
     7
370
    25
100
AcDbCircle
 10
1.7455939092
 20
4.4521893743
 30
0.0
 40
0.1968488176604941
100
AcDbArc
 50
0.0
 51
90.0
  0
ARC
  5
F7
330
1F
100
AcDbEntity
  8
0
  6
Continuous
 62
     7
370
    25
100
AcDbCircle
 10
1.9621276087
 20
6.5978414868
 30
0.0
 40
0.0196848817660233
100
AcDbArc
 50
90.0
 51
180.0
  0
LINE
  5
F8
330
1F
100
AcDbEntity
  8
0
  6
Continuous
 62
     7
370
    25
100
AcDbLine
 10
1.9621276198
 20
6.617526361
 30
0.0
 11
2.946371683
 21
6.617526361
 31
0.0
  0
ARC
  5
F9
330
1F
100
AcDbEntity
  8
0
  6
Continuous
 62
     7
370
    25
100
AcDbCircle
 10
1.6077997369
 20
4.6687230737
 30
0.0
 40
0.0196848817660618
100
AcDbArc
 50
180.0
 51
270.0
  0
ARC
  5
FA
330
1F
100
AcDbEntity
  8
0
  6
Continuous
 62
     7
370
    25
100
AcDbCircle
 10
1.7455939092
 20
6.4600473144
 30
0.0
 40
0.1968488176606025
100
AcDbArc
 50
270.0
 51
0.0
  0
ARC
  5
FB
330
1F
100
AcDbEntity
  8
0
  6
Continuous
 62
     7
370
    25
100
AcDbCircle
 10
3.1629053964
 20
4.4521893743
 30
0.0
 40
0.1968488176604972
100
AcDbArc
 50
90.0
 51
180.0
  0
LINE
  5
FC
330
1F
100
AcDbEntity
  8
0
  6
Continuous
 62
     7
370
    25
100
AcDbLine
 10
3.3006995898
 20
4.6490381612
 30
0.0
 11
3.1629054283
 21
4.6490381612
 31
0.0
  0
LINE
  5
FD
330
1F
100
AcDbEntity
  8
0
  6
Continuous
 62
     7
370
    25
100
AcDbLine
 10
1.7455939112
 20
4.6490381612
 30
0.0
 11
1.607799713
 21
4.6490381612
 31
0.0
  0
LINE
  5
FE
330
1F
100
AcDbEntity
  8
0
  6
Continuous
 62
     7
370
    25
100
AcDbLine
 10
3.1629054283
 20
6.2631985276
 30
0.0
 11
3.3006995898
 21
6.2631985276
 31
0.0
  0
ARC
  5
FF
330
1F
100
AcDbEntity
  8
0
  6
Continuous
 62
     7
370
    25
100
AcDbCircle
 10
3.1629053964
 20
6.4600473144
 30
0.0
 40
0.1968488176605847
100
AcDbArc
 50
180.0
 51
270.0
  0
LINE
  5
100
330
1F
100
AcDbEntity
  8
0
  6
Continuous
 62
     7
370
    25
100
AcDbLine
 10
2.966056579
 20
6.5978415018
 30
0.0
 11
2.966056579
 21
6.4600473402
 31
0.0
  0
LINE
  5
101
330
1F
100
AcDbEntity
  8
0
  6
Continuous
 62
     7
370
    25
100
AcDbLine
 10
1.9424427239
 20
6.4600473402
 30
0.0
 11
1.9424427239
 21
6.5978415018
 31
0.0
  0
LINE
  5
102
330
1F
100
AcDbEntity
  8
0
  6
Continuous
 62
     7
370
    25
100
AcDbLine
 10
2.966056579
 20
4.4521893485
 30
0.0
 11
2.966056579
 21
4.314395187
 31
0.0
  0
LINE
  5
103
330
1F
100
AcDbEntity
  8
0
  6
Continuous
 62
     7
370
    25
100
AcDbLine
 10
2.946371683
 20
4.2947103277
 30
0.0
 11
1.9621276198
 21
4.2947103277
 31
0.0
  0
ARC
  5
104
330
1F
100
AcDbEntity
  8
0
  6
Continuous
 62
     7
370
    25
100
AcDbCircle
 10
2.946371697
 20
4.3143952019
 30
0.0
 40
0.0196848817661071
100
AcDbArc
 50
270.0
 51
0.0
  0
LINE
  5
105
330
1F
100
AcDbEntity
  8
0
  6
Continuous
 62
     7
370
    25
100
AcDbLine
 10
3.3203844491
 20
6.243513595
 30
0.0
 11
3.3203844491
 21
4.6687230938
 31
0.0
  0
ARC
  5
106
330
1F
100
AcDbEntity
  8
0
  6
Continuous
 62
     7
370
    25
100
AcDbCircle
 10
3.3006995687
 20
4.6687230737
 30
0.0
 40
0.0196848817660777
100
AcDbArc
 50
270.0
 51
0.0
  0
ARC
  5
107
330
1F
100
AcDbEntity
  8
0
  6
Continuous
 62
     7
370
    25
100
AcDbCircle
 10
3.3006995687
 20
6.243513615
 30
0.0
 40
0.0196848817659796
100
AcDbArc
 50
0.0
 51
90.0000000002
  0
ARC
  5
108
330
1F
100
AcDbEntity
  8
0
  6
Continuous
 62
     7
370
    25
100
AcDbCircle
 10
2.946371697
 20
6.5978414868
 30
0.0
 40
0.0196848817660511
100
AcDbArc
 50
359.9999726763
 51
90.0
  0
LINE
  5
109
330
1F
100
AcDbEntity
  8
0
  6
Continuous
 62
     7
370
    25
100
AcDbLine
 10
1.9436548365
 20
4.3075944056
 30
0.0
 11
2.9648444663
 21
4.3075944056
 31
0.0
  0
LINE
  5
10A
330
1F
100
AcDbEntity
  8
0
  6
Continuous
 62
     7
370
    25
100
AcDbLine
 10
2.9648444663
 20
6.6046422832
 30
0.0
 11
1.9436548365
 21
6.6046422832
 31
0.0
  0
CIRCLE
  5
10B
330
1F
100
AcDbEntity
  8
0
  6
Continuous
 62
     7
370
    25
100
AcDbCircle
 10
1.7259090275
 20
4.4325044925
 30
0.0
 40
0.0680905511811014
  0
CIRCLE
  5
10C
330
1F
100
AcDbEntity
  8
0
  6
Continuous
 62
     7
370
    25
100
AcDbCircle
 10
3.1825902782
 20
6.4797321962
 30
0.0
 40
0.0680905511811023
  0
CIRCLE
  5
10D
330
1F
100
AcDbEntity
  8
0
  6
Continuous
 62
     7
370
    25
100
AcDbCircle
 10
1.7259090275
 20
6.4797321962
 30
0.0
 40
0.0680905511811023
  0
CIRCLE
  5
10E
330
1F
100
AcDbEntity
  8
0
  6
Continuous
 62
     7
370
    25
100
AcDbCircle
 10
3.1825902782
 20
4.4325044925
 30
0.0
 40
0.0680905511811014
  0
LINE
  5
10F
330
1F
100
AcDbEntity
  8
0
  6
Continuous
 62
     7
370
    25
100
AcDbLine
 10
1.706224156
 20
4.1766010988
 30
0.0
 11
3.2022751468
 21
4.1766010988
 31
0.0
  0
ARC
  5
110
330
1F
100
AcDbEntity
  8
0
  6
Continuous
 62
     7
370
    25
100
AcDbCircle
 10
1.7062241457
 20
4.4128196108
 30
0.0
 40
0.236218581192623
100
AcDbArc
 50
179.9999999999
 51
270.0
  0
LINE
  5
111
330
1F
100
AcDbEntity
  8
0
  6
Continuous
 62
     7
370
    25
100
AcDbLine
 10
1.4700055515
 20
6.4994170588
 30
0.0
 11
1.4700055515
 21
4.41281963
 31
0.0
  0
ARC
  5
112
330
1F
100
AcDbEntity
  8
0
  6
Continuous
 62
     7
370
    25
100
AcDbCircle
 10
1.7062241457
 20
6.499417078
 30
0.0
 40
0.2362185811925945
100
AcDbArc
 50
90.0
 51
180.0000000001
  0
LINE
  5
113
330
1F
100
AcDbEntity
  8
0
  6
Continuous
 62
     7
370
    25
100
AcDbLine
 10
3.4384937513
 20
4.41281963
 30
0.0
 11
3.4384937513
 21
6.4994170588
 31
0.0
  0
ARC
  5
114
330
1F
100
AcDbEntity
  8
0
  6
Continuous
 62
     7
370
    25
100
AcDbCircle
 10
3.2022751599
 20
4.4128196108
 30
0.0
 40
0.2362185811926985
100
AcDbArc
 50
270.0
 51
0.0000000001
  0
LINE
  5
115
330
1F
100
AcDbEntity
  8
0
  6
Continuous
 62
     7
370
    25
100
AcDbLine
 10
3.2022751468
 20
6.7356355899
 30
0.0
 11
1.706224156
 21
6.7356355899
 31
0.0
  0
ARC
  5
116
330
1F
100
AcDbEntity
  8
0
  6
Continuous
 62
     7
370
    25
100
AcDbCircle
 10
3.2022751599
 20
6.499417078
 30
0.0
 40
0.2362185811926674
100
AcDbArc
 50
0.0000000001
 51
90.0
  0
CIRCLE
  5
117
330
1F
100
AcDbEntity
  8
0
  6
Continuous
 62
     7
370
    25
100
AcDbCircle
 10
2.4542496528
 20
4.6687167696
 30
0.0
 40
0.1000000000000005
  0
CIRCLE
  5
118
330
1F
100
AcDbEntity
  8
0
  6
Continuous
 62
     7
370
    25
100
AcDbCircle
 10
2.4542496528
 20
6.2435199192
 30
0.0
 40
0.0999999999999996
  0
CIRCLE
  5
119
330
1F
100
AcDbEntity
  8
0
  6
Continuous
 62
     7
370
    25
100
AcDbCircle
 10
2.4542496528
 20
4.6687167696
 30
0.0
 40
0.1970000000000001
  0
CIRCLE
  5
11A
330
1F
100
AcDbEntity
  8
0
  6
Continuous
 62
     7
370
    25
100
AcDbCircle
 10
2.4542496528
 20
6.2435199192
 30
0.0
 40
0.1970000000000001
  0
ARC
  5
11B
330
1F
100
AcDbEntity
  8
0
  6
Continuous
 62
     7
370
    25
100
AcDbCircle
 10
-0.3908866219
 20
4.4202624052
 30
0.0
 40
3.357621958255756
100
AcDbArc
 50
358.0770280202
 51
0.615210519
  0
LINE
  5
11C
330
1F
100
AcDbEntity
  8
0
  6
Continuous
 62
     7
370
    25
100
AcDbLine
 10
3.1484022425
 20
4.6478344817
 30
0.0
 11
3.3013072961
 21
4.6491515332
 31
0.0
  0
LINE
  5
11D
330
1F
100
AcDbEntity
  8
0
  6
Continuous
 62
     7
370
    25
100
AcDbLine
 10
3.1614021857
 20
6.2633753322
 30
0.0
 11
3.3008725078
 21
6.2631634013
 31
0.0
  0
LINE
  5
11E
330
1F
100
AcDbEntity
  8
0
  6
Continuous
 62
     7
370
    25
100
AcDbLine
 10
2.9662061406
 20
6.458245341
 30
0.0
 11
2.966056579
 21
6.4755150682
 31
0.0
  0
ARC
  5
11F
330
1F
100
AcDbEntity
  8
0
  6
Continuous
 62
     7
370
    25
100
AcDbCircle
 10
2.8327758736
 20
6.5795012088
 30
0.0
 40
0.134440272256231
100
AcDbArc
 50
352.4693322363
 51
10.7780816944
  0
LWPOLYLINE
  5
120
330
1F
100
AcDbEntity
  8
0
  6
Continuous
 62
     7
370
    25
100
AcDbPolyline
 90
        5
 70
   128
 43
0.0
 10
1.9436548365
 20
6.6046422832
 10
1.9424432005
 20
6.594701698
 10
1.9424456938
 20
6.5573591827
 10
1.9424445205
 20
6.4826740788
 10
1.9415170112
 20
6.4488931024
  0
LINE
  5
121
330
1F
100
AcDbEntity
  8
0
  6
Continuous
 62
     7
370
    25
100
AcDbLine
 10
1.7511024276
 20
6.2638464934
 30
0.0
 11
1.7371512521
 21
6.2631985276
 31
0.0
  0
LWPOLYLINE
  5
122
330
1F
100
AcDbEntity
  8
0
  6
Continuous
 62
     7
370
    25
100
AcDbPolyline
 90
        3
 70
   128
 43
0.0
 10
1.6533199005
 20
6.2631985276
 10
1.6243501218
 20
6.2631966209
 10
1.6071922267
 20
6.2630852289
  0
LINE
  5
123
330
1F
100
AcDbEntity
  8
0
  6
Continuous
 62
     7
370
    25
100
AcDbLine
 10
1.5881787263
 20
6.2438281913
 30
0.0
 11
1.5881148537
 21
6.2418808472
 31
0.0
  0
LINE
  5
124
330
1F
100
AcDbEntity
  8
0
  6
Continuous
 62
     7
370
    25
100
AcDbLine
 10
1.9421232142
 20
4.4549055105
 30
0.0
 11
1.9424427239
 21
4.4465920998
 31
0.0
  0
ARC
  5
125
330
1F
100
AcDbEntity
  8
0
  6
Continuous
 62
     7
370
    25
100
AcDbCircle
 10
2.0866669878
 20
4.3344449062
 30
0.0
 40
0.1455109095277957
100
AcDbArc
 50
172.3749998777
 51
190.6334802102
  0
LINE
  5
126
330
1F
100
AcDbEntity
  8
0
  6
CENTERX2
 62
     7
370
    18
100
AcDbLine
 10
1.4700055645
 20
5.4561183444
 30
0.0
 11
3.4384937411
 21
5.4561183444
 31
0.0
  0
LINE
  5
127
330
1F
100
AcDbEntity
  8
0
  6
CENTERX2
 62
     7
370
    18
100
AcDbLine
 10
2.4542496528
 20
4.1766010296
 30
0.0
 11
2.4542496528
 21
6.7356356592
 31
0.0
  0
CIRCLE
  5
128
330
1F
100
AcDbEntity
  8
0
  6
Continuous
 62
     7
370
    18
100
AcDbCircle
 10
2.4542496528
 20
6.2435199192
 30
0.0
 40
0.0680000000000004
  0
CIRCLE
  5
129
330
1F
100
AcDbEntity
  8
0
  6
Continuous
 62
     7
370
    18
100
AcDbCircle
 10
2.4542496528
 20
4.6687167696
 30
0.0
 40
0.0680000000000001
  0
DIMENSION
  5
12A
330
1F
100
AcDbEntity
  8
0
  6
Continuous
 62
     7
370
    18
100
AcDbDimension
  2
_D
 10
1.4700055645
 20
7.225643297
 30
0.0
 11
2.4542496528
 21
7.225643297
 31
0.0
 70
   160
  1
<>
 71
     2
 42
-1.0
  3
SLDDIMSTYLE0
100
AcDbAlignedDimension
 13
3.4384937411
 23
6.499417078
 33
0.0
 14
1.4700055645
 24
6.499417078
 34
0.0
 50
0.0
100
AcDbRotatedDimension
  0
DIMENSION
  5
13F
330
1F
100
AcDbEntity
  8
0
  6
Continuous
 62
     7
370
    18
100
AcDbDimension
  2
_D_1
 10
1.1615966945
 20
4.1766010296
 30
0.0
 11
1.1615966945
 21
5.4561183444
 31
0.0
 70
   160
  1
<>
 71
     2
 42
-1.0
  3
SLDDIMSTYLE0
100
AcDbAlignedDimension
 13
1.7062241457
 23
6.7356356592
 33
0.0
 14
1.7062241457
 24
4.1766010296
 34
0.0
 50
90.0
100
AcDbRotatedDimension
  0
DIMENSION
  5
153
330
1F
100
AcDbEntity
  8
0
  6
Continuous
 62
     7
370
    18
100
AcDbDimension
  2
_D_2
 10
3.777173423
 20
4.6687167696
 30
0.0
 11
3.777173423
 21
5.4561183444
 31
0.0
 70
   160
  1
<>
 71
     2
 42
-1.0
  3
SLDDIMSTYLE0
100
AcDbAlignedDimension
 13
2.4542496528
 23
6.2435199192
 33
0.0
 14
2.4542496528
 24
4.6687167696
 34
0.0
 50
90.0
100
AcDbRotatedDimension
  0
MTEXT
  5
167
330
1F
100
AcDbEntity
  8
0
  6
Continuous
 62
     7
370
     0
100
AcDbMText
 10
3.2429403429
 20
3.8860616752
 30
0.0
 40
0.09375
 41
0.0
 71
     1
 72
     1
  1
M4 THREADED INSERT (6X)
  7
SLDTEXTSTYLE0
 73
     1
 44
1.0
  0
LEADER
  5
169
330
1F
100
AcDbEntity
  8
0
  6
Continuous
 62
     7
370
     0
100
AcDbLeader
  3
SLDDIMSTYLE1
 76
     3
 10
2.4944557371
 20
4.6138763576
 30
0.0
 10
3.0389405353
 20
3.8401779417
 30
0.0
 10
3.2264405353
 20
3.8401779417
 30
0.0
  0
LEADER
  5
16A
330
1F
100
AcDbEntity
  8
0
  6
Continuous
 62
     7
370
     0
100
AcDbLeader
  3
SLDDIMSTYLE1
 76
     3
 10
3.1680363583
 20
4.365987528
 30
0.0
 10
3.0389405353
 20
3.8401779417
 30
0.0
 10
3.2264405353
 20
3.8401779417
 30
0.0
  0
MTEXT
  5
16B
330
1F
100
AcDbEntity
  8
0
  6
Continuous
 62
     7
370
     0
100
AcDbMText
 10
2.4962720821
 20
3.6650165397
 30
0.0
 40
0.09375
 41
0.0
 71
     2
 72
     1
  1
COVER NOT SHOWN
  7
SLDTEXTSTYLE0
 73
     1
 44
1.0
  0
INSERT
  5
177
330
1F
100
AcDbEntity
  8
0
  6
Continuous
 62
     7
370
    18
100
AcDbBlockReference
  2
SW_CENTERMARKSYMBOL_0
 10
1.7259090275
 20
6.4797321962
 30
0.0
  0
INSERT
  5
183
330
1F
100
AcDbEntity
  8
0
  6
Continuous
 62
     7
370
    18
100
AcDbBlockReference
  2
SW_CENTERMARKSYMBOL_1
 10
3.1825902782
 20
6.4797321962
 30
0.0
  0
INSERT
  5
18F
330
1F
100
AcDbEntity
  8
0
  6
Continuous
 62
     7
370
    18
100
AcDbBlockReference
  2
SW_CENTERMARKSYMBOL_2
 10
3.1825902782
 20
4.4325044925
 30
0.0
  0
INSERT
  5
19B
330
1F
100
AcDbEntity
  8
0
  6
Continuous
 62
     7
370
    18
100
AcDbBlockReference
  2
SW_CENTERMARKSYMBOL_3
 10
1.7259090275
 20
4.4325044925
 30
0.0
  0
INSERT
  5
1A7
330
1F
100
AcDbEntity
  8
0
  6
Continuous
 62
     7
370
    18
100
AcDbBlockReference
  2
SW_CENTERMARKSYMBOL_4
 10
2.4542496528
 20
6.2435199192
 30
0.0
  0
INSERT
  5
1B3
330
1F
100
AcDbEntity
  8
0
  6
Continuous
 62
     7
370
    18
100
AcDbBlockReference
  2
SW_CENTERMARKSYMBOL_5
 10
2.4542496528
 20
4.6687167696
 30
0.0
  0
LINE
  5
1B4
330
1F
100
AcDbEntity
  8
0
  6
PHANTOM
 62
     7
370
    35
100
AcDbLine
 10
2.7580011918
 20
6.9339880947
 30
0.0
 11
2.7580011918
 21
5.0547213036
 31
0.0
  0
LINE
  5
1B5
330
1F
100
AcDbEntity
  8
0
  6
PHANTOM
 62
     7
370
    35
100
AcDbLine
 10
1.7259090275
 20
5.0547213036
 30
0.0
 11
2.7580011918
 21
5.0547213036
 31
0.0
  0
LINE
  5
1B6
330
1F
100
AcDbEntity
  8
0
  6
PHANTOM
 62
     7
370
    35
100
AcDbLine
 10
1.7259090275
 20
5.0547213036
 30
0.0
 11
1.7259090275
 21
3.9784956051
 31
0.0
  0
LINE
  5
1B7
330
1F
100
AcDbEntity
  8
0
  6
Continuous
 62
     7
370
    35
100
AcDbLine
 10
2.7580011918
 20
6.9339880947
 30
0.0
 11
2.3830011918
 21
6.9339880947
 31
0.0
  0
SOLID
  5
1B8
330
1F
100
AcDbEntity
  8
0
  6
Continuous
 62
     7
370
    35
100
AcDbTrace
 10
2.3830011918
 20
6.9339880947
 30
0.0
 11
2.5705011918
 21
6.9039880947
 31
0.0
 12
2.5705011918
 22
6.9639880947
 32
0.0
 13
2.5705011918
 23
6.9639880947
 33
0.0
  0
LINE
  5
1B9
330
1F
100
AcDbEntity
  8
0
  6
Continuous
 62
     7
370
    35
100
AcDbLine
 10
1.7259090275
 20
3.9784956051
 30
0.0
 11
1.3509090275
 21
3.9784956051
 31
0.0
  0
SOLID
  5
1BA
330
1F
100
AcDbEntity
  8
0
  6
Continuous
 62
     7
370
    35
100
AcDbTrace
 10
1.3509090275
 20
3.9784956051
 30
0.0
 11
1.5384090275
 21
3.9484956051
 31
0.0
 12
1.5384090275
 22
4.0084956051
 32
0.0
 13
1.5384090275
 23
4.0084956051
 33
0.0
  0
MTEXT
  5
1BB
330
1F
100
AcDbEntity
  8
0
  6
Continuous
 62
     7
100
AcDbMText
 10
2.2609837063
 20
7.0097525825
 30
0.0
 40
0.09375
 41
0.0
 71
     1
 72
     1
  1
A
  7
SLDTEXTSTYLE0
 73
     1
 44
1.0
  0
MTEXT
  5
1BC
330
1F
100
AcDbEntity
  8
0
  6
Continuous
 62
     7
100
AcDbMText
 10
1.228891542
 20
4.0542600928
 30
0.0
 40
0.09375
 41
0.0
 71
     1
 72
     1
  1
A
  7
SLDTEXTSTYLE0
 73
     1
 44
1.0
  0
ARC
  5
1BD
330
1F
100
AcDbEntity
  8
0
  6
Continuous
 62
     7
370
    25
100
AcDbCircle
 10
1.4892362404
 20
2.8657587383
 30
0.0
 40
0.0143423013933531
100
AcDbArc
 50
98.5658424615
 51
200.2279120773
  0
LINE
  5
1BE
330
1F
100
AcDbEntity
  8
0
  6
Continuous
 62
     7
370
    25
100
AcDbLine
 10
1.883389356
 20
1.0889887523
 30
0.0
 11
1.883389356
 21
1.1086737949
 31
0.0
  0
LINE
  5
1BF
330
1F
100
AcDbEntity
  8
0
  6
Continuous
 62
     7
370
    25
100
AcDbLine
 10
1.5684287478
 20
1.1097234027
 30
0.0
 11
1.5684287478
 21
1.0889887523
 31
0.0
  0
LINE
  5
1C0
330
1F
100
AcDbEntity
  8
0
  6
Continuous
 62
     7
370
    25
100
AcDbLine
 10
3.3400706283
 20
1.0889887523
 30
0.0
 11
3.3400706283
 21
1.109698653
 31
0.0
  0
LINE
  5
1C1
330
1F
100
AcDbEntity
  8
0
  6
Continuous
 62
     7
370
    25
100
AcDbLine
 10
3.0251099468
 20
1.1086737949
 30
0.0
 11
3.0251099468
 21
1.0889887523
 31
0.0
  0
ARC
  5
1C2
330
1F
100
AcDbEntity
  8
0
  6
Continuous
 62
     7
370
    25
100
AcDbCircle
 10
1.8637043031
 20
1.0889887381
 30
0.0
 40
0.0196850393700787
100
AcDbArc
 50
270.0
 51
0.0
  0
ARC
  5
1C3
330
1F
100
AcDbEntity
  8
0
  6
Continuous
 62
     7
370
    25
100
AcDbCircle
 10
1.5881137519
 20
1.0889887381
 30
0.0
 40
0.0196850393700787
100
AcDbArc
 50
180.0
 51
270.0
  0
ARC
  5
1C4
330
1F
100
AcDbEntity
  8
0
  6
Continuous
 62
     7
370
    25
100
AcDbCircle
 10
3.3203855537
 20
1.0889887381
 30
0.0
 40
0.0196850393700787
100
AcDbArc
 50
270.0
 51
0.0
  0
ARC
  5
1C5
330
1F
100
AcDbEntity
  8
0
  6
Continuous
 62
     7
370
    25
100
AcDbCircle
 10
3.0447950026
 20
1.0889887381
 30
0.0
 40
0.0196850393700787
100
AcDbArc
 50
180.0
 51
270.0
  0
LINE
  5
1C6
330
1F
100
AcDbEntity
  8
0
  6
Continuous
 62
     7
370
    25
100
AcDbLine
 10
2.6117496453
 20
1.0893040086
 30
0.0
 11
2.6117496453
 21
1.1086737949
 31
0.0
  0
LINE
  5
1C7
330
1F
100
AcDbEntity
  8
0
  6
Continuous
 62
     7
370
    25
100
AcDbLine
 10
2.296749653
 20
1.1086737949
 30
0.0
 11
2.296749653
 21
1.0893040086
 31
0.0
  0
ARC
  5
1C8
330
1F
100
AcDbEntity
  8
0
  6
Continuous
 62
     7
370
    25
100
AcDbCircle
 10
2.5917496528
 20
1.0893040139
 30
0.0
 40
0.02
100
AcDbArc
 50
270.0
 51
0.0
  0
ARC
  5
1C9
330
1F
100
AcDbEntity
  8
0
  6
Continuous
 62
     7
370
    25
100
AcDbCircle
 10
2.3167496528
 20
1.0893040139
 30
0.0
 40
0.02
100
AcDbArc
 50
180.0
 51
270.0
  0
LINE
  5
1CA
330
1F
100
AcDbEntity
  8
0
  6
Continuous
 62
     7
370
    25
100
AcDbLine
 10
3.3400706283
 20
1.109698653
 30
0.0
 11
3.3400706283
 21
1.1097234027
 31
0.0
  0
LINE
  5
1CB
330
1F
100
AcDbEntity
  8
0
  6
Continuous
 62
     7
370
    25
100
AcDbLine
 10
1.469815547
 20
2.6834769459
 30
0.0
 11
1.4712342373
 21
2.8607998108
 31
0.0
  0
LINE
  5
1CC
330
1F
100
AcDbEntity
  8
0
  6
Continuous
 62
     7
370
    25
100
AcDbLine
 10
1.4758431107
 20
2.8608001042
 30
0.0
 11
1.4712342373
 21
2.8608001042
 31
0.0
  0
LINE
  5
1CD
330
1F
100
AcDbEntity
  8
0
  6
Continuous
 62
     7
370
    25
100
AcDbLine
 10
1.7060569579
 20
2.6834769459
 30
0.0
 11
1.469815547
 21
2.6834769459
 31
0.0
  0
LINE
  5
1CE
330
1F
100
AcDbEntity
  8
0
  6
Continuous
 62
     7
370
    25
100
AcDbLine
 10
3.4384937513
 20
2.6834769459
 30
0.0
 11
3.4370750611
 21
2.8608001042
 31
0.0
  0
LINE
  5
1CF
330
1F
100
AcDbEntity
  8
0
  6
Continuous
 62
     7
370
    25
100
AcDbLine
 10
3.4384937513
 20
2.6834769459
 30
0.0
 11
3.2022523404
 21
2.6834769459
 31
0.0
  0
LINE
  5
1D0
330
1F
100
AcDbEntity
  8
0
  6
Continuous
 62
     7
370
    25
100
AcDbLine
 10
3.2022523404
 20
2.6834769459
 30
0.0
 11
1.7060569579
 21
2.6834769459
 31
0.0
  0
LINE
  5
1D1
330
1F
100
AcDbEntity
  8
0
  6
Continuous
 62
     7
370
    25
100
AcDbLine
 10
3.2022523404
 20
2.8803273719
 30
0.0
 11
1.7060569579
 21
2.8803273719
 31
0.0
  0
LINE
  5
1D2
330
1F
100
AcDbEntity
  8
0
  6
Continuous
 62
     7
370
    25
100
AcDbLine
 10
1.4871485601
 20
2.8795812872
 30
0.0
 11
1.4909186566
 21
2.8803273719
 31
0.0
  0
LINE
  5
1D3
330
1F
100
AcDbEntity
  8
0
  6
Continuous
 62
     7
370
    25
100
AcDbLine
 10
1.7060569579
 20
2.8803273719
 30
0.0
 11
1.4909186566
 21
2.8803273719
 31
0.0
  0
LINE
  5
1D4
330
1F
100
AcDbEntity
  8
0
  6
Continuous
 62
     7
370
    25
100
AcDbLine
 10
3.4173906418
 20
2.8803273719
 30
0.0
 11
3.2022523404
 21
2.8803273719
 31
0.0
  0
ARC
  5
1D5
330
1F
100
AcDbEntity
  8
0
  6
Continuous
 62
     7
370
    25
100
AcDbCircle
 10
3.4173904042
 20
2.8606420831
 30
0.0
 40
0.0196852887742937
100
AcDbArc
 50
0.4590853488
 51
89.9993084448
  0
LINE
  5
1D6
330
1F
100
AcDbEntity
  8
0
  6
Continuous
 62
     7
370
    25
100
AcDbLine
 10
3.4142151251
 20
3.2155044999
 30
0.0
 11
3.4172320236
 21
2.8803273719
 31
0.0
  0
LINE
  5
1D7
330
1F
100
AcDbEntity
  8
0
  6
Continuous
 62
     7
370
    25
100
AcDbLine
 10
1.4910772747
 20
2.8803273719
 30
0.0
 11
1.4940941732
 21
3.2155044999
 31
0.0
  0
LINE
  5
1D8
330
1F
100
AcDbEntity
  8
0
  6
Continuous
 62
     7
370
    25
100
AcDbLine
 10
3.1976605535
 20
3.2740280772
 30
0.0
 11
1.7106487449
 21
3.2740280772
 31
0.0
  0
LINE
  5
1D9
330
1F
100
AcDbEntity
  8
0
  6
Continuous
 62
     7
370
    25
100
AcDbLine
 10
3.355162454
 20
3.2740280772
 30
0.0
 11
3.1976605535
 21
3.2740280772
 31
0.0
  0
ARC
  5
1DA
330
1F
100
AcDbEntity
  8
0
  6
Continuous
 62
     7
370
    25
100
AcDbCircle
 10
3.3551624657
 20
3.2149730261
 30
0.0
 40
0.0590550510521535
100
AcDbArc
 50
0.5156479508
 51
90.0000113346
  0
ARC
  5
1DB
330
1F
100
AcDbEntity
  8
0
  6
Continuous
 62
     7
370
    25
100
AcDbCircle
 10
1.5531468327
 20
3.2149730261
 30
0.0
 40
0.0590550510521543
100
AcDbArc
 50
89.9999886654
 51
179.4843520492
  0
LINE
  5
1DC
330
1F
100
AcDbEntity
  8
0
  6
Continuous
 62
     7
370
    25
100
AcDbLine
 10
1.7106487449
 20
3.2740280772
 30
0.0
 11
1.5531468444
 21
3.2740280772
 31
0.0
  0
LINE
  5
1DD
330
1F
100
AcDbEntity
  8
0
  6
Continuous
 62
     7
370
    25
100
AcDbLine
 10
1.4700055515
 20
2.6834769459
 30
0.0
 11
1.4714241684
 21
2.5061540811
 31
0.0
  0
LINE
  5
1DE
330
1F
100
AcDbEntity
  8
0
  6
Continuous
 62
     7
370
    25
100
AcDbLine
 10
1.4700055515
 20
2.6834769459
 30
0.0
 11
1.706224156
 21
2.6834769459
 31
0.0
  0
LINE
  5
1DF
330
1F
100
AcDbEntity
  8
0
  6
Continuous
 62
     7
370
    25
100
AcDbLine
 10
1.706224156
 20
2.6834769459
 30
0.0
 11
3.2022751468
 21
2.6834769459
 31
0.0
  0
LINE
  5
1E0
330
1F
100
AcDbEntity
  8
0
  6
Continuous
 62
     7
370
    25
100
AcDbLine
 10
3.4384937513
 20
2.6834769459
 30
0.0
 11
3.4370751344
 21
2.5061540811
 31
0.0
  0
LINE
  5
1E1
330
1F
100
AcDbEntity
  8
0
  6
Continuous
 62
     7
370
    25
100
AcDbLine
 10
3.2022751468
 20
2.6834769459
 30
0.0
 11
3.4384937513
 21
2.6834769459
 31
0.0
  0
ARC
  5
1E2
330
1F
100
AcDbEntity
  8
0
  6
Continuous
 62
     7
370
    25
100
AcDbCircle
 10
3.4173907604
 20
2.5063115727
 30
0.0
 40
0.0196850393700789
100
AcDbArc
 50
270.0
 51
359.5416472116
  0
LINE
  5
1E3
330
1F
100
AcDbEntity
  8
0
  6
Continuous
 62
     7
370
    25
100
AcDbLine
 10
3.2022751468
 20
2.48662652
 30
0.0
 11
3.4173907885
 21
2.48662652
 31
0.0
  0
LINE
  5
1E4
330
1F
100
AcDbEntity
  8
0
  6
Continuous
 62
     7
370
    25
100
AcDbLine
 10
1.4911085144
 20
2.48662652
 30
0.0
 11
1.706224156
 21
2.48662652
 31
0.0
  0
ARC
  5
1E5
330
1F
100
AcDbEntity
  8
0
  6
Continuous
 62
     7
370
    25
100
AcDbCircle
 10
1.4911085453
 20
2.5063115727
 30
0.0
 40
0.0196850393700787
100
AcDbArc
 50
180.4583527884
 51
270.0
  0
LINE
  5
1E6
330
1F
100
AcDbEntity
  8
0
  6
Continuous
 62
     7
370
    25
100
AcDbLine
 10
1.706224156
 20
2.48662652
 30
0.0
 11
3.2022751468
 21
2.48662652
 31
0.0
  0
LINE
  5
1E7
330
1F
100
AcDbEntity
  8
0
  6
Continuous
 62
     7
370
    25
100
AcDbLine
 10
1.4914082976
 20
2.48662652
 30
0.0
 11
1.5027522465
 21
1.1867268032
 31
0.0
  0
LINE
  5
1E8
330
1F
100
AcDbEntity
  8
0
  6
Continuous
 62
     7
370
    25
100
AcDbLine
 10
3.4170910053
 20
2.48662652
 30
0.0
 11
3.4057470563
 21
1.1867268032
 31
0.0
  0
ARC
  5
1E9
330
1F
100
AcDbEntity
  8
0
  6
Continuous
 62
     7
370
    25
100
AcDbCircle
 10
3.2334269663
 20
-4.023219257
 30
0.0
 40
5.13315089703998
100
AcDbArc
 50
90.4935150393
 51
91.2684345918
  0
LINE
  5
1EA
330
1F
100
AcDbEntity
  8
0
  6
Continuous
 62
     7
370
    25
100
AcDbLine
 10
1.7887025965
 20
1.1086737949
 30
0.0
 11
3.1197967063
 21
1.1086737949
 31
0.0
  0
ARC
  5
1EB
330
1F
100
AcDbEntity
  8
0
  6
Continuous
 62
     7
370
    25
100
AcDbCircle
 10
2.1213911085
 20
25.0016361885
 30
0.0
 40
23.8952784790451
100
AcDbArc
 50
269.0357922127
 51
269.2022581562
  0
ARC
  5
1EC
330
1F
100
AcDbEntity
  8
0
  6
Continuous
 62
     7
370
    25
100
AcDbCircle
 10
3.2645723038
 20
7.6212743111
 30
0.0
 40
6.511967934770245
100
AcDbArc
 50
269.3369364444
 51
270.6630635556
  0
ARC
  5
1ED
330
1F
100
AcDbEntity
  8
0
  6
Continuous
 62
     7
370
    25
100
AcDbCircle
 10
3.3270098303
 20
1.1874140139
 30
0.0
 40
0.0787402248634303
100
AcDbArc
 50
279.4451538533
 51
359.4999407941
  0
ARC
  5
1EE
330
1F
100
AcDbEntity
  8
0
  6
Continuous
 62
     7
370
    25
100
AcDbCircle
 10
1.6439270357
 20
6.9135711908
 30
0.0
 40
5.804317981288884
100
AcDbArc
 50
269.2560932291
 51
270.7439067709
  0
ARC
  5
1EF
330
1F
100
AcDbEntity
  8
0
  6
Continuous
 62
     7
370
    25
100
AcDbCircle
 10
1.5814894085
 20
1.1874139469
 30
0.0
 40
0.0787401602897143
100
AcDbArc
 50
180.5000108501
 51
260.5548314393
  0
LINE
  5
1F0
330
1F
100
AcDbEntity
  8
0
  6
Continuous
 62
     7
370
    25
100
AcDbLine
 10
1.5881137538
 20
1.0693037097
 30
0.0
 11
1.8637043134
 21
1.0693037097
 31
0.0
  0
LINE
  5
1F1
330
1F
100
AcDbEntity
  8
0
  6
Continuous
 62
     7
370
    25
100
AcDbLine
 10
3.044795026
 20
1.0693037097
 30
0.0
 11
3.3203855491
 21
1.0693037097
 31
0.0
  0
LINE
  5
1F2
330
1F
100
AcDbEntity
  8
0
  6
Continuous
 62
     7
370
    25
100
AcDbLine
 10
2.591749658
 20
1.069304003
 30
0.0
 11
2.3167496517
 21
1.069304003
 31
0.0
  0
LINE
  5
1F3
330
1F
100
AcDbEntity
  8
0
  6
CENTERX2
 62
     7
370
    18
100
AcDbLine
 10
2.4541546486
 20
3.2740281081
 30
0.0
 11
2.4542496534
 21
1.0693040139
 31
0.0
  0
DIMENSION
  5
1F4
330
1F
100
AcDbEntity
  8
0
  6
Continuous
 62
     7
370
    18
100
AcDbDimension
  2
_D_3
 10
3.9817738474
 20
3.2740281081
 30
0.0
 11
3.9817738474
 21
2.9787525176
 31
0.0
 70
   160
  1
<>
 71
     2
 42
-1.0
  3
SLDDIMSTYLE0
100
AcDbAlignedDimension
 13
3.4384937411
 23
2.683476927
 33
0.0
 14
3.3551624289
 24
3.2740281081
 34
0.0
 50
90.0
100
AcDbRotatedDimension
  0
DIMENSION
  5
208
330
1F
100
AcDbEntity
  8
0
  6
Continuous
 62
     7
370
    18
100
AcDbDimension
  2
_D_4
 10
3.9817738474
 20
2.683476927
 30
0.0
 11
3.9817738474
 21
1.8960753522
 31
0.0
 70
   160
  1
<>
 71
     2
 42
-1.0
  3
SLDDIMSTYLE0
100
AcDbAlignedDimension
 13
3.1197967064
 23
1.1086737774
 33
0.0
 14
3.4384937411
 24
2.683476927
 34
0.0
 50
90.0
100
AcDbRotatedDimension
  0
DIMENSION
  5
21C
330
1F
100
AcDbEntity
  8
0
  6
Continuous
 62
     7
370
    18
100
AcDbDimension
  2
_D_5
 10
1.1572192627
 20
3.2740281081
 30
0.0
 11
1.1572192627
 21
2.1913509428
 31
0.0
 70
   160
  1
<>
 71
     2
 42
-1.0
  3
SLDDIMSTYLE0
100
AcDbAlignedDimension
 13
1.7887025993
 23
1.1086737774
 33
0.0
 14
1.7106487425
 24
3.2740281081
 34
0.0
 50
90.0
100
AcDbRotatedDimension
  0
DIMENSION
  5
230
330
1F
100
AcDbEntity
  8
0
  6
Continuous
 62
     7
370
    18
100
AcDbDimension
  2
_D_6
 10
3.6467797398
 20
1.0693036987
 30
0.0
 11
3.6467797398
 21
0.7738774314
 31
0.0
 70
   160
  1
<> PAD
 71
     2
 42
-1.0
  3
SLDDIMSTYLE2
100
AcDbAlignedDimension
 13
3.1197967064
 23
1.1086737774
 33
0.0
 14
3.3203855537
 24
1.0693036987
 34
0.0
 50
90.0
100
AcDbRotatedDimension
  0
ARC
  5
245
330
1F
100
AcDbEntity
  8
0
  6
Continuous
 62
     7
370
    25
100
AcDbCircle
 10
7.899807089
 20
6.5096600743
 30
0.0
 40
0.226265030319919
100
AcDbArc
 50
88.5432091412
 51
152.3441104367
  0
LINE
  5
246
330
1F
100
AcDbEntity
  8
0
  6
Continuous
 62
     7
370
    25
100
AcDbLine
 10
9.4017548204
 20
6.7358519716
 30
0.0
 11
7.9055594379
 21
6.7358519716
 31
0.0
  0
ARC
  5
247
330
1F
100
AcDbEntity
  8
0
  6
Continuous
 62
     7
370
    25
100
AcDbCircle
 10
9.4014369384
 20
6.4992926788
 30
0.0
 40
0.2365595064358346
100
AcDbArc
 50
0.076992462
 51
89.923007538
  0
LINE
  5
248
330
1F
100
AcDbEntity
  8
0
  6
Continuous
 62
     7
370
    25
100
AcDbLine
 10
9.6379962313
 20
4.4128116876
 30
0.0
 11
9.6379962313
 21
6.4996105607
 31
0.0
  0
LWPOLYLINE
  5
249
330
1F
100
AcDbEntity
  8
0
  6
Continuous
 62
     7
370
    25
100
AcDbPolyline
 90
        3
 70
   128
 43
0.0
 10
9.4017548204
 20
4.17657035
 10
9.4460871682
 20
4.1808045678
 10
9.4682775785
 20
4.1873544788
  0
ARC
  5
24A
330
1F
100
AcDbEntity
  8
0
  6
Continuous
 62
     7
370
    25
100
AcDbCircle
 10
9.4682183251
 20
4.4079697118
 30
0.0
 40
0.1698469373968662
100
AcDbArc
 50
345.6651860743
 51
1.6336024316
  0
LINE
  5
24B
330
1F
100
AcDbEntity
  8
0
  6
Continuous
 62
     7
370
    25
100
AcDbLine
 10
7.9055594379
 20
4.17657035
 30
0.0
 11
9.4017548204
 21
4.17657035
 31
0.0
  0
LINE
  5
24C
330
1F
100
AcDbEntity
  8
0
  6
Continuous
 62
     7
370
    25
100
AcDbLine
 10
7.6693180269
 20
6.4996105607
 30
0.0
 11
7.6693180269
 21
4.4128116876
 31
0.0
  0
CIRCLE
  5
24D
330
1F
100
AcDbEntity
  8
0
  6
Continuous
 62
     7
370
    25
100
AcDbCircle
 10
9.3819027508
 20
4.4324737438
 30
0.0
 40
0.0787401574803148
  0
CIRCLE
  5
24E
330
1F
100
AcDbEntity
  8
0
  6
Continuous
 62
     7
370
    25
100
AcDbCircle
 10
7.9252215001
 20
4.4324737438
 30
0.0
 40
0.0787401574803148
  0
CIRCLE
  5
24F
330
1F
100
AcDbEntity
  8
0
  6
Continuous
 62
     7
370
    25
100
AcDbCircle
 10
9.3819027508
 20
6.4797014474
 30
0.0
 40
0.0787401574803148
  0
CIRCLE
  5
250
330
1F
100
AcDbEntity
  8
0
  6
Continuous
 62
     7
370
    25
100
AcDbCircle
 10
7.9252215001
 20
6.4797014474
 30
0.0
 40
0.0787401574803148
  0
CIRCLE
  5
251
330
1F
100
AcDbEntity
  8
0
  6
Continuous
 62
     7
370
    25
100
AcDbCircle
 10
9.3819027508
 20
4.4324737438
 30
0.0
 40
0.1574803149606314
  0
CIRCLE
  5
252
330
1F
100
AcDbEntity
  8
0
  6
Continuous
 62
     7
370
    25
100
AcDbCircle
 10
7.9252215001
 20
4.4324737438
 30
0.0
 40
0.1574803149606296
  0
CIRCLE
  5
253
330
1F
100
AcDbEntity
  8
0
  6
Continuous
 62
     7
370
    25
100
AcDbCircle
 10
9.3819027508
 20
6.4797014474
 30
0.0
 40
0.1574803149606314
  0
CIRCLE
  5
254
330
1F
100
AcDbEntity
  8
0
  6
Continuous
 62
     7
370
    25
100
AcDbCircle
 10
7.9252215001
 20
6.4797014474
 30
0.0
 40
0.1574803149606296
  0
CIRCLE
  5
255
330
1F
100
AcDbEntity
  8
0
  6
Continuous
 62
     7
370
    25
100
AcDbCircle
 10
8.6535621255
 20
4.6686860208
 30
0.0
 40
0.1575000000000006
  0
CIRCLE
  5
256
330
1F
100
AcDbEntity
  8
0
  6
Continuous
 62
     7
370
    25
100
AcDbCircle
 10
8.6535621255
 20
6.2434891704
 30
0.0
 40
0.1575000000000006
  0
ARC
  5
257
330
1F
100
AcDbEntity
  8
0
  6
Continuous
 62
     7
370
    25
100
AcDbCircle
 10
7.90729597
 20
4.4145482197
 30
0.0
 40
0.2165752008950393
100
AcDbArc
 50
180.0109855969
 51
269.9890338072
  0
ARC
  5
258
330
1F
100
AcDbEntity
  8
0
  6
Continuous
 62
     7
370
    25
100
AcDbCircle
 10
9.3998282838
 20
6.4976269715
 30
0.0
 40
0.2165752008950375
100
AcDbArc
 50
0.0109855969
 51
89.9890338072
  0
ARC
  5
259
330
1F
100
AcDbEntity
  8
0
  6
Continuous
 62
     7
370
    25
100
AcDbCircle
 10
9.3998281357
 20
4.4145483678
 30
0.0
 40
0.2165753490531384
100
AcDbArc
 50
270.0110053735
 51
359.9889752224
  0
ARC
  5
25A
330
1F
100
AcDbEntity
  8
0
  6
Continuous
 62
     7
370
    25
100
AcDbCircle
 10
7.9072960886
 20
6.4976268528
 30
0.0
 40
0.2165753195857954
100
AcDbArc
 50
90.0109975808
 51
179.9889830151
  0
LINE
  5
25B
330
1F
100
AcDbEntity
  8
0
  6
Continuous
 62
     7
370
    25
100
AcDbLine
 10
7.9072545183
 20
4.1979730228
 30
0.0
 11
9.3998697355
 21
4.1979730228
 31
0.0
  0
LINE
  5
25C
330
1F
100
AcDbEntity
  8
0
  6
Continuous
 62
     7
370
    25
100
AcDbLine
 10
7.690720773
 20
6.4976684965
 30
0.0
 11
7.690720773
 21
4.4145066947
 31
0.0
  0
LINE
  5
25D
330
1F
100
AcDbEntity
  8
0
  6
Continuous
 62
     7
370
    25
100
AcDbLine
 10
9.3998697355
 20
6.7142021684
 30
0.0
 11
7.9072545183
 21
6.7142021684
 31
0.0
  0
LINE
  5
25E
330
1F
100
AcDbEntity
  8
0
  6
Continuous
 62
     7
370
    25
100
AcDbLine
 10
9.6164034807
 20
4.4145066947
 30
0.0
 11
9.6164034807
 21
6.4976684965
 31
0.0
  0
ARC
  5
25F
330
1F
100
AcDbEntity
  8
0
  6
Continuous
 62
     7
370
    25
100
AcDbCircle
 10
7.9055366184
 20
6.4993863292
 30
0.0
 40
0.2362185811926665
100
AcDbArc
 50
90.0
 51
179.9999999999
  0
LINE
  5
260
330
1F
100
AcDbEntity
  8
0
  6
Continuous
 62
     7
370
    25
100
AcDbLine
 10
7.6693180269
 20
4.4127888812
 30
0.0
 11
7.6693180269
 21
6.49938631
 31
0.0
  0
LINE
  5
261
330
1F
100
AcDbEntity
  8
0
  6
Continuous
 62
     7
370
    25
100
AcDbLine
 10
9.4015876223
 20
4.17657035
 30
0.0
 11
7.9055366315
 21
4.17657035
 31
0.0
  0
ARC
  5
262
330
1F
100
AcDbEntity
  8
0
  6
Continuous
 62
     7
370
    25
100
AcDbCircle
 10
7.9055366184
 20
4.412788862
 30
0.0
 40
0.2362185811927002
100
AcDbArc
 50
179.9999999999
 51
270.0
  0
LINE
  5
263
330
1F
100
AcDbEntity
  8
0
  6
Continuous
 62
     7
370
    25
100
AcDbLine
 10
9.6378062268
 20
6.49938631
 30
0.0
 11
9.6378062268
 21
4.4127888812
 31
0.0
  0
ARC
  5
264
330
1F
100
AcDbEntity
  8
0
  6
Continuous
 62
     7
370
    25
100
AcDbCircle
 10
9.4015876326
 20
6.4993863292
 30
0.0
 40
0.2362185811925936
100
AcDbArc
 50
359.9999999999
 51
90.0
  0
LINE
  5
265
330
1F
100
AcDbEntity
  8
0
  6
Continuous
 62
     7
370
    25
100
AcDbLine
 10
7.9055366315
 20
6.7356048412
 30
0.0
 11
9.4015876223
 21
6.7356048412
 31
0.0
  0
ARC
  5
266
330
1F
100
AcDbEntity
  8
0
  6
Continuous
 62
     7
370
    25
100
AcDbCircle
 10
9.4015876326
 20
4.412788862
 30
0.0
 40
0.2362185811926238
100
AcDbArc
 50
270.0
 51
0.0000000001
  0
LINE
  5
267
330
1F
100
AcDbEntity
  8
0
  6
CENTERX2
 62
     7
370
    18
100
AcDbLine
 10
7.6707366084
 20
5.4560875956
 30
0.0
 11
9.6363876425
 21
5.4560875956
 31
0.0
  0
LINE
  5
268
330
1F
100
AcDbEntity
  8
0
  6
CENTERX2
 62
     7
370
    18
100
AcDbLine
 10
8.6535621255
 20
6.7341863391
 30
0.0
 11
8.6535621255
 21
4.1779888521
 31
0.0
  0
DIMENSION
  5
269
330
1F
100
AcDbEntity
  8
0
  6
Continuous
 62
     7
370
    18
100
AcDbDimension
  2
_D_7
 10
9.3819027508
 20
3.8815850616
 30
0.0
 11
8.6535621255
 21
3.8815850616
 31
0.0
 70
   160
  1
<>
 71
     2
 42
-1.0
  3
SLDDIMSTYLE0
100
AcDbAlignedDimension
 13
7.9252215001
 23
4.4324737438
 33
0.0
 14
9.3819027508
 24
4.4324737438
 34
0.0
100
AcDbRotatedDimension
  0
DIMENSION
  5
27D
330
1F
100
AcDbEntity
  8
0
  6
Continuous
 62
     7
370
    18
100
AcDbDimension
  2
_D_8
 10
10.0379257415
 20
6.4797014474
 30
0.0
 11
10.0379257415
 21
5.4560875956
 31
0.0
 70
   160
  1
<>
 71
     2
 42
-1.0
  3
SLDDIMSTYLE0
100
AcDbAlignedDimension
 13
9.3819027508
 23
4.4324737438
 33
0.0
 14
9.3819027508
 24
6.4797014474
 34
0.0
 50
90.0
100
AcDbRotatedDimension
  0
DIMENSION
  5
291
330
1F
100
AcDbEntity
  8
0
  6
Continuous
 62
     7
370
    18
100
AcDbDimension
  2
_D_9
 10
7.9649580096
 20
4.5004518448
 30
0.0
 11
7.1814001284
 21
3.8815850616
 31
0.0
 70
   163
  1
<> (4X)
 71
     1
 42
-1.0
  3
SLDDIMSTYLE3
100
AcDbDiametricDimension
 15
7.8854849907
 25
4.3644956427
 35
0.0
 40
0.0
  0
DIMENSION
  5
2A3
330
1F
100
AcDbEntity
  8
0
  6
Continuous
 62
     7
370
    18
100
AcDbDimension
  2
_D_10
 10
8.5762951091
 20
6.1062446507
 30
0.0
 11
9.4665288217
 21
7.0816877707
 31
0.0
 70
   163
  1
<> 6X
 71
     1
 42
-1.0
  3
SLDDIMSTYLE4
100
AcDbDiametricDimension
 15
8.7308291418
 25
6.3807336901
 35
0.0
 40
0.0
  0
INSERT
  5
2C0
330
1F
100
AcDbEntity
  8
0
  6
Continuous
 62
     7
370
    18
100
AcDbBlockReference
  2
SW_CENTERMARKSYMBOL_6
 10
7.9252215001
 20
4.4324737438
 30
0.0
  0
INSERT
  5
2CC
330
1F
100
AcDbEntity
  8
0
  6
Continuous
 62
     7
370
    18
100
AcDbBlockReference
  2
SW_CENTERMARKSYMBOL_7
 10
7.9252215001
 20
6.4797014474
 30
0.0
  0
INSERT
  5
2D8
330
1F
100
AcDbEntity
  8
0
  6
Continuous
 62
     7
370
    18
100
AcDbBlockReference
  2
SW_CENTERMARKSYMBOL_8
 10
9.3819027508
 20
6.4797014474
 30
0.0
  0
INSERT
  5
2E4
330
1F
100
AcDbEntity
  8
0
  6
Continuous
 62
     7
370
    18
100
AcDbBlockReference
  2
SW_CENTERMARKSYMBOL_9
 10
9.3819027508
 20
4.4324737438
 30
0.0
  0
ARC
  5
2E5
330
1F
100
AcDbEntity
  8
0
  6
Continuous
 62
     7
370
    25
100
AcDbCircle
 10
10.2130374774
 20
3.714432318
 30
0.0
 40
0.1018379179513065
100
AcDbArc
 50
116.2790971097
 51
176.6139311564
  0
LINE
  5
2E6
330
1F
100
AcDbEntity
  8
0
  6
Continuous
 62
     7
370
    25
100
AcDbLine
 10
10.1113540508
 20
3.7209394437
 30
0.0
 11
10.108144463
 21
3.5150500215
 31
0.0
  0
LINE
  5
2E7
330
1F
100
AcDbEntity
  8
0
  6
Continuous
 62
     7
370
    25
100
AcDbLine
 10
11.2702261024
 20
4.4420894132
 30
0.0
 11
10.167762977
 21
3.8056509979
 31
0.0
  0
LWPOLYLINE
  5
2E8
330
1F
100
AcDbEntity
  8
0
  6
Continuous
 62
     7
370
    25
100
AcDbPolyline
 90
        3
 70
   128
 43
0.0
 10
10.1086348713
 20
3.546508962
 10
10.0981957093
 20
3.5291178857
 10
10.0928012575
 20
3.5027336559
  0
LINE
  5
2E9
330
1F
100
AcDbEntity
  8
0
  6
Continuous
 62
     7
370
    25
100
AcDbLine
 10
10.0927955406
 20
3.5030243734
 30
0.0
 11
10.0917304097
 21
3.3944340893
 31
0.0
  0
ARC
  5
2EA
330
1F
100
AcDbEntity
  8
0
  6
Continuous
 62
     7
370
    25
100
AcDbCircle
 10
12.222689376
 20
3.8937681591
 30
0.0
 40
0.104152544458423
100
AcDbArc
 50
4.1978559421
 51
62.9895620839
  0
LINE
  5
2EB
330
1F
100
AcDbEntity
  8
0
  6
Continuous
 62
     7
370
    25
100
AcDbLine
 10
12.3297954238
 20
3.6958650768
 30
0.0
 11
12.3265857972
 21
3.9017544765
 31
0.0
  0
LINE
  5
2EC
330
1F
100
AcDbEntity
  8
0
  6
Continuous
 62
     7
370
    25
100
AcDbLine
 10
12.2701769099
 20
3.9864660531
 30
0.0
 11
11.4809285844
 21
4.4420894132
 31
0.0
  0
ARC
  5
2ED
330
1F
100
AcDbEntity
  8
0
  6
Continuous
 62
     7
370
    25
100
AcDbCircle
 10
12.2804633735
 20
3.6846653895
 30
0.0
 40
0.0646835486321092
100
AcDbArc
 50
359.1311435275
 51
40.961755313
  0
LINE
  5
2EE
330
1F
100
AcDbEntity
  8
0
  6
Continuous
 62
     7
370
    25
100
AcDbLine
 10
12.3462093605
 20
3.5750697838
 30
0.0
 11
12.3451450463
 21
3.6836601802
 31
0.0
  0
ARC
  5
2EF
330
1F
100
AcDbEntity
  8
0
  6
Continuous
 62
     7
370
    25
100
AcDbCircle
 10
11.3755773451
 20
4.2427136448
 30
0.0
 40
0.225467459401278
100
AcDbArc
 50
62.0127277129
 51
117.9872844447
  0
ARC
  5
2F0
330
1F
100
AcDbEntity
  8
0
  6
Continuous
 62
     7
370
    25
100
AcDbCircle
 10
11.0567697897
 20
1.6708613772
 30
0.0
 40
0.2421445044167094
100
AcDbArc
 50
241.4562906615
 51
271.3234646305
  0
ARC
  5
2F1
330
1F
100
AcDbEntity
  8
0
  6
Continuous
 62
     7
370
    25
100
AcDbCircle
 10
11.0668636096
 20
1.6767790435
 30
0.0
 40
0.248038417890732
100
AcDbArc
 50
268.9602165226
 51
298.132095028
  0
LINE
  5
2F2
330
1F
100
AcDbEntity
  8
0
  6
Continuous
 62
     7
370
    25
100
AcDbLine
 10
11.9795470624
 20
2.2839277797
 30
0.0
 11
11.9795474513
 21
2.1505614498
 31
0.0
  0
LINE
  5
2F3
330
1F
100
AcDbEntity
  8
0
  6
Continuous
 62
     7
370
    25
100
AcDbLine
 10
11.1838261259
 20
1.4580385216
 30
0.0
 11
12.2904115196
 21
2.0968566717
 31
0.0
  0
LINE
  5
2F4
330
1F
100
AcDbEntity
  8
0
  6
Continuous
 62
     7
370
    25
100
AcDbLine
 10
10.1474981495
 20
1.9160591058
 30
0.0
 11
10.9408989999
 21
1.4580385441
 31
0.0
  0
LINE
  5
2F5
330
1F
100
AcDbEntity
  8
0
  6
Continuous
 62
     7
370
    25
100
AcDbLine
 10
10.3081865744
 20
2.0429429081
 30
0.0
 11
10.3081865744
 21
1.994722031
 31
0.0
  0
LINE
  5
2F6
330
1F
100
AcDbEntity
  8
0
  6
Continuous
 62
     7
370
    25
100
AcDbLine
 10
10.4583721153
 20
1.9697581623
 30
0.0
 11
10.4583725042
 21
2.1032877634
 31
0.0
  0
ARC
  5
2F7
330
1F
100
AcDbEntity
  8
0
  6
Continuous
 62
     7
370
    25
100
AcDbCircle
 10
11.0623625435
 20
0.8352554192
 30
0.0
 40
0.2173485237446984
100
AcDbArc
 50
241.8734596367
 51
298.1265403633
  0
LINE
  5
2F8
330
1F
100
AcDbEntity
  8
0
  6
Continuous
 62
     7
370
    25
100
AcDbLine
 10
10.4583562091
 20
2.103079511
 30
0.0
 11
10.4583562091
 21
2.1514214634
 31
0.0
  0
LINE
  5
2F9
330
1F
100
AcDbEntity
  8
0
  6
Continuous
 62
     7
370
    25
100
AcDbLine
 10
10.091800568
 20
2.102622126
 30
0.0
 11
10.0928644933
 21
1.9940320888
 31
0.0
  0
LINE
  5
2FA
330
1F
100
AcDbEntity
  8
0
  6
Continuous
 62
     7
370
    25
100
AcDbLine
 10
11.1645498152
 20
0.6434091691
 30
0.0
 11
12.2580205024
 21
1.2746563604
 31
0.0
  0
LINE
  5
2FB
330
1F
100
AcDbEntity
  8
0
  6
Continuous
 62
     7
370
    25
100
AcDbLine
 10
10.1798891278
 20
1.093858772
 30
0.0
 11
10.9601752718
 21
0.6434091691
 31
0.0
  0
ARC
  5
2FC
330
1F
100
AcDbEntity
  8
0
  6
Continuous
 62
     7
370
    25
100
AcDbCircle
 10
11.0710775469
 20
0.7421216007
 30
0.0
 40
0.13606571520602
100
AcDbArc
 50
266.3276938988
 51
314.2453830398
  0
ARC
  5
2FD
330
1F
100
AcDbEntity
  8
0
  6
Continuous
 62
     7
370
    25
100
AcDbCircle
 10
11.0560233371
 20
0.7492488892
 30
0.0
 40
0.1430541438287242
100
AcDbArc
 50
227.3543078574
 51
272.5397988353
  0
ARC
  5
2FE
330
1F
100
AcDbEntity
  8
0
  6
Continuous
 62
     7
370
    25
100
AcDbCircle
 10
10.1889114993
 20
2.003149497
 30
0.0
 40
0.0962641847388525
100
AcDbArc
 50
185.801778109
 51
244.6297544021
  0
LINE
  5
2FF
330
1F
100
AcDbEntity
  8
0
  6
Continuous
 62
     7
370
    25
100
AcDbLine
 10
10.1088764975
 20
1.9496208812
 30
0.0
 11
10.1204292479
 21
1.185267878
 31
0.0
  0
LINE
  5
300
330
1F
100
AcDbEntity
  8
0
  6
Continuous
 62
     7
370
    25
100
AcDbLine
 10
12.1297230558
 20
2.1755196194
 30
0.0
 11
12.1297230558
 21
2.2237404965
 31
0.0
  0
LINE
  5
301
330
1F
100
AcDbEntity
  8
0
  6
Continuous
 62
     7
370
    25
100
AcDbLine
 10
10.3081865744
 20
2.2599000411
 30
0.0
 11
10.3081865744
 21
2.211679164
 31
0.0
  0
LINE
  5
302
330
1F
100
AcDbEntity
  8
0
  6
Continuous
 62
     7
370
    25
100
AcDbLine
 10
11.9795534015
 20
2.3322190854
 30
0.0
 11
11.9795534015
 21
2.2839661881
 31
0.0
  0
LINE
  5
303
330
1F
100
AcDbEntity
  8
0
  6
Continuous
 62
     7
370
    25
100
AcDbLine
 10
12.3450451368
 20
2.1748296772
 30
0.0
 11
12.3461090232
 21
2.2834197368
 31
0.0
  0
ARC
  5
304
330
1F
100
AcDbEntity
  8
0
  6
Continuous
 62
     7
370
    25
100
AcDbCircle
 10
12.2507826672
 20
2.1823419807
 30
0.0
 40
0.0942152994729033
100
AcDbArc
 50
294.8664465659
 51
356.3203917387
  0
LINE
  5
305
330
1F
100
AcDbEntity
  8
0
  6
Continuous
 62
     7
370
    25
100
AcDbLine
 10
12.3174803823
 20
1.3660654664
 30
0.0
 11
12.3290319659
 21
2.1303418994
 31
0.0
  0
LINE
  5
306
330
1F
100
AcDbEntity
  8
0
  6
Continuous
 62
     7
370
    25
100
AcDbLine
 10
12.1297230558
 20
2.3924767524
 30
0.0
 11
12.1297230558
 21
2.4406976295
 31
0.0
  0
ARC
  5
307
330
1F
100
AcDbEntity
  8
0
  6
Continuous
 62
     7
370
    25
100
AcDbCircle
 10
10.2660116324
 20
1.166046176
 30
0.0
 40
0.1099656671317276
100
AcDbArc
 50
223.7584216599
 51
256.2469410682
  0
ARC
  5
308
330
1F
100
AcDbEntity
  8
0
  6
Continuous
 62
     7
370
    25
100
AcDbCircle
 10
10.2316992765
 20
1.1925130155
 30
0.0
 40
0.1114489042711211
100
AcDbArc
 50
183.4622450998
 51
242.5666753042
  0
ARC
  5
309
330
1F
100
AcDbEntity
  8
0
  6
Continuous
 62
     7
370
    25
100
AcDbCircle
 10
12.1757089872
 20
1.3395706706
 30
0.0
 40
0.1021687301868732
100
AcDbArc
 50
282.3696942826
 51
317.6249105841
  0
ARC
  5
30A
330
1F
100
AcDbEntity
  8
0
  6
Continuous
 62
     7
370
    25
100
AcDbCircle
 10
12.2058621184
 20
1.373546649
 30
0.0
 40
0.111819022511877
100
AcDbArc
 50
297.5359710759
 51
356.3622583945
  0
ARC
  5
30B
330
1F
100
AcDbEntity
  8
0
  6
Continuous
 62
     7
370
    25
100
AcDbCircle
 10
11.0155866109
 20
3.1945499067
 30
0.0
 40
0.0681584844857031
100
AcDbArc
 50
122.6302031167
 51
177.0721049918
  0
ARC
  5
30C
330
1F
100
AcDbEntity
  8
0
  6
Continuous
 62
     7
370
    25
100
AcDbCircle
 10
11.0623625435
 20
3.4134669009
 30
0.0
 40
0.1818361093689933
100
AcDbArc
 50
242.6542675191
 51
297.3457324809
  0
ARC
  5
30D
330
1F
100
AcDbEntity
  8
0
  6
Continuous
 62
     7
370
    25
100
AcDbCircle
 10
11.1091387003
 20
3.1945500846
 30
0.0
 40
0.0681582138148772
100
AcDbArc
 50
2.927775835
 51
57.3698749765
  0
ARC
  5
30E
330
1F
100
AcDbEntity
  8
0
  6
Continuous
 62
     7
370
    25
100
AcDbCircle
 10
11.0623625022
 20
3.4213213988
 30
0.0
 40
0.2510934018194861
100
AcDbArc
 50
242.7817499976
 51
297.2182612031
  0
LINE
  5
30F
330
1F
100
AcDbEntity
  8
0
  6
Continuous
 62
     7
370
    25
100
AcDbLine
 10
11.1772079481
 20
3.198031408
 30
0.0
 11
11.1772079481
 21
2.9909196997
 31
0.0
  0
ARC
  5
310
330
1F
100
AcDbEntity
  8
0
  6
Continuous
 62
     7
370
    25
100
AcDbCircle
 10
11.0623625845
 20
3.2118496751
 30
0.0
 40
0.2489970110949334
100
AcDbArc
 50
242.5333606844
 51
297.4666281149
  0
LINE
  5
311
330
1F
100
AcDbEntity
  8
0
  6
Continuous
 62
     7
370
    25
100
AcDbLine
 10
10.9475171778
 20
2.9909197222
 30
0.0
 11
10.9475171
 21
3.1980313856
 31
0.0
  0
ARC
  5
312
330
1F
100
AcDbEntity
  8
0
  6
Continuous
 62
     7
370
    25
100
AcDbCircle
 10
10.2086062895
 20
3.7554236942
 30
0.0
 40
0.0516034879703256
100
AcDbArc
 50
110.8642511105
 51
249.1357488895
  0
LINE
  5
313
330
1F
100
AcDbEntity
  8
0
  6
Continuous
 62
     7
370
    25
100
AcDbLine
 10
10.1902274469
 20
3.8036433802
 30
0.0
 11
11.2920493081
 21
4.4397116016
 31
0.0
  0
ARC
  5
314
330
1F
100
AcDbEntity
  8
0
  6
Continuous
 62
     7
370
    25
100
AcDbCircle
 10
11.3755773045
 20
4.2781955694
 30
0.0
 40
0.1818360657868327
100
AcDbArc
 50
62.6542604174
 51
117.3457395826
  0
LINE
  5
315
330
1F
100
AcDbEntity
  8
0
  6
Continuous
 62
     7
370
    25
100
AcDbLine
 10
11.4591053009
 20
4.4397116016
 30
0.0
 11
12.2477124011
 21
3.984458413
 31
0.0
  0
ARC
  5
316
330
1F
100
AcDbEntity
  8
0
  6
Continuous
 62
     7
370
    25
100
AcDbCircle
 10
12.229333608
 20
3.936238727
 30
0.0
 40
0.0516034703140631
100
AcDbArc
 50
290.8641996767
 51
69.1358003233
  0
LINE
  5
317
330
1F
100
AcDbEntity
  8
0
  6
Continuous
 62
     7
370
    25
100
AcDbLine
 10
12.2477124011
 20
3.8880190411
 30
0.0
 11
11.1458905399
 21
3.2519508197
 31
0.0
  0
LINE
  5
318
330
1F
100
AcDbEntity
  8
0
  6
Continuous
 62
     7
370
    25
100
AcDbLine
 10
10.978834547
 20
3.2519508197
 30
0.0
 11
10.1902274469
 21
3.7072040083
 31
0.0
  0
LWPOLYLINE
  5
319
330
1F
100
AcDbEntity
  8
0
  6
Continuous
 62
     7
370
    25
100
AcDbPolyline
 90
       37
 70
   128
 43
0.0
 10
10.3681520298
 20
3.8006354674
 10
10.3533651129
 20
3.8077982678
 10
10.3366482976
 20
3.8133699235
 10
10.318509454
 20
3.8171811766
 10
10.299499776
 20
3.8191162027
 10
10.2801968253
 20
3.8191162027
 10
10.2611871862
 20
3.8171811991
 10
10.2430483815
 20
3.8133699235
 10
10.2263315273
 20
3.8077982453
 10
10.2115446104
 20
3.800635445
 10
10.1991369707
 20
3.792099162
 10
10.1894854954
 20
3.7824487275
 10
10.1828834571
 20
3.7719774184
 10
10.1795315692
 20
3.7610033874
 10
10.1795315692
 20
3.7498600311
 10
10.1828834959
 20
3.7388859776
 10
10.1894854954
 20
3.7284146461
 10
10.1991369318
 20
3.718764234
 10
10.2115446104
 20
3.7102279286
 10
10.2263315273
 20
3.7030651282
 10
10.243048362
 20
3.6974934613
 10
10.2611871862
 20
3.6936822194
 10
10.2801968642
 20
3.6917471933
 10
10.2994998149
 20
3.6917471933
 10
10.318509454
 20
3.693682197
 10
10.3366482782
 20
3.6974934613
 10
10.3533651323
 20
3.7030651394
 10
10.3681519909
 20
3.7102279286
 10
10.3805596889
 20
3.7187642228
 10
10.3902111642
 20
3.7284146573
 10
10.3968131831
 20
3.7388859776
 10
10.400165071
 20
3.7498600087
 10
10.400165071
 20
3.7610033649
 10
10.3968131442
 20
3.7719774184
 10
10.3902111642
 20
3.7824487387
 10
10.3805597083
 20
3.792099162
 10
10.3681520298
 20
3.8006354674
  0
LWPOLYLINE
  5
31A
330
1F
100
AcDbEntity
  8
0
  6
Continuous
 62
     7
370
    25
100
AcDbPolyline
 90
       37
 70
   128
 43
0.0
 10
11.4538671498
 20
4.427405465
 10
11.4390802329
 20
4.4345682654
 10
11.4223634176
 20
4.4401399211
 10
11.4042246128
 20
4.4439511967
 10
11.3852149349
 20
4.4458862228
 10
11.3659119842
 20
4.4458862228
 10
11.3469023062
 20
4.4439511967
 10
11.3287635014
 20
4.4401399211
 10
11.3120466862
 20
4.4345682654
 10
11.2972597693
 20
4.427405465
 10
11.2848520907
 20
4.4188691596
 10
11.2752006154
 20
4.4092187251
 10
11.2685986159
 20
4.3987474385
 10
11.2652466892
 20
4.3877733849
 10
11.2652466892
 20
4.3766300287
 10
11.2685986159
 20
4.3656559752
 10
11.2752006154
 20
4.3551846437
 10
11.2848520907
 20
4.3455342541
 10
11.2972597693
 20
4.3369979486
 10
11.3120466862
 20
4.3298351483
 10
11.328763482
 20
4.3242634589
 10
11.3469023062
 20
4.320452217
 10
11.3659119842
 20
4.3185171909
 10
11.3852149349
 20
4.3185171909
 10
11.4042246128
 20
4.320452217
 10
11.4223633981
 20
4.3242634589
 10
11.4390802523
 20
4.329835137
 10
11.4538671498
 20
4.3369979486
 10
11.4662748478
 20
4.3455342428
 10
11.4759262842
 20
4.3551846549
 10
11.4825283031
 20
4.3656559752
 10
11.4858802298
 20
4.3766300287
 10
11.4858802298
 20
4.3877733849
 10
11.4825283031
 20
4.3987474385
 10
11.4759262842
 20
4.4092187363
 10
11.4662748283
 20
4.4188691596
 10
11.4538671498
 20
4.427405465
  0
LWPOLYLINE
  5
31B
330
1F
100
AcDbEntity
  8
0
  6
Continuous
 62
     7
370
    25
100
AcDbPolyline
 90
       37
 70
   128
 43
0.0
 10
11.1406801176
 20
3.3546644951
 10
11.1258932007
 20
3.3618272955
 10
11.1091763465
 20
3.3673989736
 10
11.0910375418
 20
3.3712102043
 10
11.0720278638
 20
3.3731452304
 10
11.0527249131
 20
3.3731452304
 10
11.033715274
 20
3.3712102267
 10
11.0155764304
 20
3.3673989736
 10
10.9988595762
 20
3.3618272955
 10
10.9840726982
 20
3.3546644726
 10
10.9716650197
 20
3.3461282121
 10
10.9620135443
 20
3.3364777776
 10
10.9554115449
 20
3.3260064461
 10
10.952059657
 20
3.315032415
 10
10.952059657
 20
3.3038890588
 10
10.9554115838
 20
3.2929150053
 10
10.9620135443
 20
3.2824436962
 10
10.9716650197
 20
3.2727932617
 10
10.9840726982
 20
3.2642569562
 10
10.9988596151
 20
3.2570941559
 10
11.0155764304
 20
3.2515225002
 10
11.033715274
 20
3.2477112471
 10
11.052724952
 20
3.2457762209
 10
11.0720279027
 20
3.2457762209
 10
11.0910375418
 20
3.2477112246
 10
11.1091763465
 20
3.2515225002
 10
11.1258932007
 20
3.2570941783
 10
11.1406800787
 20
3.2642569562
 10
11.1530877573
 20
3.2727932617
 10
11.1627392326
 20
3.2824436962
 10
11.169341271
 20
3.2929150053
 10
11.1726931588
 20
3.3038890363
 10
11.1726931588
 20
3.3150323926
 10
11.1693412321
 20
3.3260064461
 10
11.1627392326
 20
3.3364777776
 10
11.1530877962
 20
3.3461281897
 10
11.1406801176
 20
3.3546644951
  0
LWPOLYLINE
  5
31C
330
1F
100
AcDbEntity
  8
0
  6
Continuous
 62
     7
370
    25
100
AcDbPolyline
 90
       37
 70
   128
 43
0.0
 10
12.2263952376
 20
3.9814344927
 10
12.2116083207
 20
3.988597293
 10
12.1948914665
 20
3.9941689712
 10
12.1767527007
 20
3.9979802243
 10
12.1577430227
 20
3.9999152504
 10
12.138440072
 20
3.9999152504
 10
12.119430394
 20
3.9979802243
 10
12.1012915504
 20
3.9941689712
 10
12.0845747351
 20
3.9885973155
 10
12.0697878571
 20
3.9814344927
 10
12.0573801396
 20
3.9728982097
 10
12.0477286643
 20
3.9632477752
 10
12.0411267037
 20
3.9527764661
 10
12.037774777
 20
3.9418024126
 10
12.037774777
 20
3.9306590564
 10
12.0411267037
 20
3.9196850028
 10
12.0477286643
 20
3.9092136938
 10
12.0573801785
 20
3.8995632817
 10
12.0697878571
 20
3.8910269763
 10
12.084574774
 20
3.8838641759
 10
12.1012915504
 20
3.8782924978
 10
12.119430394
 20
3.8744812447
 10
12.138440072
 20
3.8725462185
 10
12.1577430227
 20
3.8725462185
 10
12.1767527007
 20
3.8744812447
 10
12.1948914665
 20
3.8782924978
 10
12.2116083207
 20
3.8838641759
 10
12.2263952376
 20
3.8910269763
 10
12.2388029162
 20
3.8995632817
 10
12.2484543526
 20
3.9092136938
 10
12.2550563909
 20
3.9196850028
 10
12.2584083177
 20
3.9306590564
 10
12.2584083177
 20
3.9418024126
 10
12.2550563909
 20
3.9527764661
 10
12.2484543526
 20
3.9632477752
 10
12.2388029162
 20
3.9728981873
 10
12.2263952376
 20
3.9814344927
  0
ARC
  5
31D
330
1F
100
AcDbEntity
  8
0
  6
Continuous
 62
     7
370
    25
100
AcDbCircle
 10
11.0637029703
 20
3.1600285642
 30
0.0
 40
0.1539353006445532
100
AcDbArc
 50
60.3867909606
 51
129.659556695
  0
LWPOLYLINE
  5
31E
330
1F
100
AcDbEntity
  8
0
  6
Continuous
 62
     7
370
    25
100
AcDbPolyline
 90
        3
 70
   128
 43
0.0
 10
11.1592951356
 20
3.2785356713
 10
11.1520321934
 20
3.2854200349
 10
11.139768915
 20
3.2938569948
  0
LINE
  5
31F
330
1F
100
AcDbEntity
  8
0
  6
Continuous
 62
     7
370
    25
100
AcDbLine
 10
10.1589099998
 20
3.6532845741
 30
0.0
 11
10.9475171
 21
3.1980313856
 31
0.0
  0
ARC
  5
320
330
1F
100
AcDbEntity
  8
0
  6
Continuous
 62
     7
370
    25
100
AcDbCircle
 10
10.2269795107
 20
3.6498030953
 30
0.0
 40
0.0681584844857046
100
AcDbArc
 50
122.6302031167
 51
177.0721049918
  0
LINE
  5
321
330
1F
100
AcDbEntity
  8
0
  6
Continuous
 62
     7
370
    25
100
AcDbLine
 10
11.1772079481
 20
3.198031408
 30
0.0
 11
12.2790298093
 21
3.8340996294
 31
0.0
  0
ARC
  5
322
330
1F
100
AcDbEntity
  8
0
  6
Continuous
 62
     7
370
    25
100
AcDbCircle
 10
12.2109605615
 20
3.8306183059
 30
0.0
 40
0.0681582138148717
100
AcDbArc
 50
2.927775835
 51
57.3698749765
  0
LINE
  5
323
330
1F
100
AcDbEntity
  8
0
  6
Continuous
 62
     7
370
    25
100
AcDbLine
 10
10.1589099998
 20
3.6532845741
 30
0.0
 11
10.1557101735
 21
3.4480201761
 31
0.0
  0
LINE
  5
324
330
1F
100
AcDbEntity
  8
0
  6
Continuous
 62
     7
370
    25
100
AcDbLine
 10
10.1557101735
 20
3.4480201761
 30
0.0
 11
10.9475171778
 21
2.9909197222
 31
0.0
  0
LINE
  5
325
330
1F
100
AcDbEntity
  8
0
  6
Continuous
 62
     7
370
    25
100
AcDbLine
 10
12.2822297133
 20
3.6288351864
 30
0.0
 11
12.2790298093
 21
3.8340996294
 31
0.0
  0
LINE
  5
326
330
1F
100
AcDbEntity
  8
0
  6
Continuous
 62
     7
370
    25
100
AcDbLine
 10
11.1772079481
 20
2.9909196997
 30
0.0
 11
12.2822297133
 21
3.6288351864
 31
0.0
  0
ARC
  5
327
330
1F
100
AcDbEntity
  8
0
  6
Continuous
 62
     7
370
    25
100
AcDbCircle
 10
11.0944039823
 20
3.2400029747
 30
0.0
 40
0.0441867639430332
100
AcDbArc
 50
27.6199669211
 51
62.8331956343
  0
ARC
  5
328
330
1F
100
AcDbEntity
  8
0
  6
Continuous
 62
     7
370
    25
100
AcDbCircle
 10
11.0639758332
 20
3.1972393992
 30
0.0
 40
0.0964214188441074
100
AcDbArc
 50
58.3444561727
 51
139.0073941987
  0
ARC
  5
329
330
1F
100
AcDbEntity
  8
0
  6
Continuous
 62
     7
370
    25
100
AcDbCircle
 10
10.9605173231
 20
2.9712584076
 30
0.0
 40
0.0227159888182111
100
AcDbArc
 50
122.6273626162
 51
177.1075944396
  0
ARC
  5
32A
330
1F
100
AcDbEntity
  8
0
  6
Continuous
 62
     7
370
    25
100
AcDbCircle
 10
11.0623638128
 20
3.2110007427
 30
0.0
 40
0.2483681750028715
100
AcDbArc
 50
242.6531611516
 51
297.3467148297
  0
ARC
  5
32B
330
1F
100
AcDbEntity
  8
0
  6
Continuous
 62
     7
370
    25
100
AcDbCircle
 10
11.1642099137
 20
2.9712581759
 30
0.0
 40
0.0227159280849136
100
AcDbArc
 50
2.8918642487
 51
57.3728050134
  0
ARC
  5
32C
330
1F
100
AcDbEntity
  8
0
  6
Continuous
 62
     7
370
    25
100
AcDbCircle
 10
11.062363854
 20
3.2131744741
 30
0.0
 40
0.2710695698520139
100
AcDbArc
 50
242.6505983264
 51
297.3492777217
  0
LINE
  5
32D
330
1F
100
AcDbEntity
  8
0
  6
Continuous
 62
     7
370
    25
100
AcDbLine
 10
12.2831474107
 20
3.6292678389
 30
0.0
 11
11.176457674
 21
2.9903894529
 31
0.0
  0
LINE
  5
32E
330
1F
100
AcDbEntity
  8
0
  6
Continuous
 62
     7
370
    25
100
AcDbLine
 10
10.9482694741
 20
2.9903896998
 30
0.0
 11
10.1547920484
 21
3.4484544675
 31
0.0
  0
ARC
  5
32F
330
1F
100
AcDbEntity
  8
0
  6
Continuous
 62
     7
370
    25
100
AcDbCircle
 10
10.1856254897
 20
3.5191097325
 30
0.0
 40
0.0771274994518799
100
AcDbArc
 50
182.9147453919
 51
247.1780730559
  0
ARC
  5
330
330
1F
100
AcDbEntity
  8
0
  6
Continuous
 62
     7
370
    25
100
AcDbCircle
 10
12.249949759
 20
3.7020013018
 30
0.0
 40
0.0799704689032033
100
AcDbArc
 50
293.806458589
 51
355.6937226934
  0
LINE
  5
331
330
1F
100
AcDbEntity
  8
0
  6
Continuous
 62
     7
370
    25
100
AcDbLine
 10
10.9378302733
 20
2.9724046691
 30
0.0
 11
10.9370766546
 21
2.8633760524
 31
0.0
  0
LINE
  5
332
330
1F
100
AcDbEntity
  8
0
  6
Continuous
 62
     7
370
    25
100
AcDbLine
 10
11.1876484712
 20
2.86337603
 30
0.0
 11
11.1868969138
 21
2.9724043997
 31
0.0
  0
ARC
  5
333
330
1F
100
AcDbEntity
  8
0
  6
Continuous
 62
     7
370
    25
100
AcDbCircle
 10
11.0623625846
 20
3.1047435191
 30
0.0
 40
0.2719463517361049
100
AcDbArc
 50
242.5676552289
 51
297.4323345039
  0
LINE
  5
334
330
1F
100
AcDbEntity
  8
0
  6
Continuous
 62
     7
370
    25
100
AcDbLine
 10
11.1868969138
 20
2.9724042201
 30
0.0
 11
12.2935866504
 21
3.6112826061
 31
0.0
  0
ARC
  5
335
330
1F
100
AcDbEntity
  8
0
  6
Continuous
 62
     7
370
    25
100
AcDbCircle
 10
12.2708996504
 20
3.610136562
 30
0.0
 40
0.0227159280848918
100
AcDbArc
 50
2.8918642486
 51
57.3728050135
  0
LINE
  5
336
330
1F
100
AcDbEntity
  8
0
  6
Continuous
 62
     7
370
    25
100
AcDbLine
 10
10.1443528476
 20
3.4304694368
 30
0.0
 11
10.9378302733
 21
2.9724046691
 31
0.0
  0
ARC
  5
337
330
1F
100
AcDbEntity
  8
0
  6
Continuous
 62
     7
370
    25
100
AcDbCircle
 10
10.1670398974
 20
3.4293231753
 30
0.0
 40
0.0227159888182035
100
AcDbArc
 50
122.6273626162
 51
177.1075944396
  0
LINE
  5
338
330
1F
100
AcDbEntity
  8
0
  6
Continuous
 62
     7
370
    25
100
AcDbLine
 10
10.1435992289
 20
3.3214408201
 30
0.0
 11
10.1443528476
 21
3.4304694368
 31
0.0
  0
LINE
  5
339
330
1F
100
AcDbEntity
  8
0
  6
Continuous
 62
     7
370
    25
100
AcDbLine
 10
10.9370766546
 20
2.8633760524
 30
0.0
 11
10.1435992289
 21
3.3214408201
 31
0.0
  0
LINE
  5
33A
330
1F
100
AcDbEntity
  8
0
  6
Continuous
 62
     7
370
    25
100
AcDbLine
 10
12.2943406968
 20
3.5022558529
 30
0.0
 11
12.2935866504
 21
3.6112826061
 31
0.0
  0
LINE
  5
33B
330
1F
100
AcDbEntity
  8
0
  6
Continuous
 62
     7
370
    25
100
AcDbLine
 10
12.2943406968
 20
3.5022558529
 30
0.0
 11
11.1876484712
 21
2.86337603
 31
0.0
  0
ARC
  5
33C
330
1F
100
AcDbEntity
  8
0
  6
Continuous
 62
     7
370
    25
100
AcDbCircle
 10
10.2911749007
 20
3.6059997518
 30
0.0
 40
0.1539351044844628
100
AcDbArc
 50
60.3867572806
 51
129.659607251
  0
LWPOLYLINE
  5
33D
330
1F
100
AcDbEntity
  8
0
  6
Continuous
 62
     7
370
    25
100
AcDbPolyline
 90
        3
 70
   128
 43
0.0
 10
10.3867670478
 20
3.7245066437
 10
10.379504125
 20
3.731390996
 10
10.3672408272
 20
3.7398279671
  0
ARC
  5
33E
330
1F
100
AcDbEntity
  8
0
  6
Continuous
 62
     7
370
    25
100
AcDbCircle
 10
10.2914477524
 20
3.6432103255
 30
0.0
 40
0.0964214543287618
100
AcDbArc
 50
58.3444740746
 51
139.0073762968
  0
ARC
  5
33F
330
1F
100
AcDbEntity
  8
0
  6
Continuous
 62
     7
370
    25
100
AcDbCircle
 10
10.3218757406
 20
3.6859737637
 30
0.0
 40
0.0441869973856372
100
AcDbArc
 50
27.6200604875
 51
62.833126616
  0
ARC
  5
340
330
1F
100
AcDbEntity
  8
0
  6
Continuous
 62
     7
370
    25
100
AcDbCircle
 10
10.1735302459
 20
3.3969631219
 30
0.0
 40
0.081237207298044
100
AcDbArc
 50
181.7888211803
 51
248.3805747874
  0
ARC
  5
341
330
1F
100
AcDbEntity
  8
0
  6
Continuous
 62
     7
370
    25
100
AcDbCircle
 10
12.1494180844
 20
3.7867986277
 30
0.0
 40
0.1539352461683769
100
AcDbArc
 50
60.3867769539
 51
129.6595707017
  0
LWPOLYLINE
  5
342
330
1F
100
AcDbEntity
  8
0
  6
Continuous
 62
     7
370
    25
100
AcDbPolyline
 90
        3
 70
   128
 43
0.0
 10
12.2450102556
 20
3.9053056689
 10
12.2377473134
 20
3.9121900325
 10
12.225484035
 20
3.9206269924
  0
ARC
  5
343
330
1F
100
AcDbEntity
  8
0
  6
Continuous
 62
     7
370
    25
100
AcDbCircle
 10
12.1496909561
 20
3.8240093778
 30
0.0
 40
0.0964214334501819
100
AcDbArc
 50
58.3444635414
 51
139.00738683
  0
ARC
  5
344
330
1F
100
AcDbEntity
  8
0
  6
Continuous
 62
     7
370
    25
100
AcDbCircle
 10
12.1801194689
 20
3.8667733419
 30
0.0
 40
0.0441862677770478
100
AcDbArc
 50
27.6197627495
 51
62.8333998059
  0
ARC
  5
345
330
1F
100
AcDbEntity
  8
0
  6
Continuous
 62
     7
370
    25
100
AcDbCircle
 10
12.2596555997
 20
3.5811482392
 30
0.0
 40
0.0861804188297958
100
AcDbArc
 50
293.732727681
 51
355.9604832277
  0
ARC
  5
346
330
1F
100
AcDbEntity
  8
0
  6
Continuous
 62
     7
370
    25
100
AcDbCircle
 10
11.3768900149
 20
4.2327698153
 30
0.0
 40
0.1539350500085421
100
AcDbArc
 50
60.3867432739
 51
129.6596212577
  0
LWPOLYLINE
  5
347
330
1F
100
AcDbEntity
  8
0
  6
Continuous
 62
     7
370
    25
100
AcDbPolyline
 90
        3
 70
   128
 43
0.0
 10
11.4724821677
 20
4.3512766413
 10
11.465219245
 20
4.3581609936
 10
11.4529559471
 20
4.3665979647
  0
ARC
  5
348
330
1F
100
AcDbEntity
  8
0
  6
Continuous
 62
     7
370
    25
100
AcDbCircle
 10
11.4075912272
 20
4.3127441308
 30
0.0
 40
0.0441865012174589
100
AcDbArc
 50
27.6198563171
 51
62.8333307863
  0
ARC
  5
349
330
1F
100
AcDbEntity
  8
0
  6
Continuous
 62
     7
370
    25
100
AcDbCircle
 10
11.3771628753
 20
4.2699803041
 30
0.0
 40
0.0964214689348209
100
AcDbArc
 50
58.3444814433
 51
139.007368928
  0
LINE
  5
34A
330
1F
100
AcDbEntity
  8
0
  6
Continuous
 62
     7
370
    25
100
AcDbLine
 10
11.1876363763
 20
1.5728609914
 30
0.0
 11
11.1868840411
 21
1.4647017883
 31
0.0
  0
ARC
  5
34B
330
1F
100
AcDbEntity
  8
0
  6
Continuous
 62
     7
370
    25
100
AcDbCircle
 10
11.0623625435
 20
1.7038176117
 30
0.0
 40
0.2695959576373838
100
AcDbArc
 50
242.4913890463
 51
297.5086109537
  0
LINE
  5
34C
330
1F
100
AcDbEntity
  8
0
  6
Continuous
 62
     7
370
    25
100
AcDbLine
 10
10.9370887495
 20
1.5728610139
 30
0.0
 11
10.9378410459
 21
1.4647017883
 31
0.0
  0
ARC
  5
34D
330
1F
100
AcDbEntity
  8
0
  6
Continuous
 62
     7
370
    25
100
AcDbCircle
 10
11.0623625845
 20
1.8134216531
 30
0.0
 40
0.2712249156054359
100
AcDbArc
 50
242.4914006861
 51
297.5085890456
  0
ARC
  5
34E
330
1F
100
AcDbEntity
  8
0
  6
Continuous
 62
     7
370
    25
100
AcDbCircle
 10
11.3755470456
 20
2.5737771303
 30
0.0
 40
0.2712249156054394
100
AcDbArc
 50
62.4914006861
 51
117.5085890456
  0
LINE
  5
34F
330
1F
100
AcDbEntity
  8
0
  6
Continuous
 62
     7
370
    25
100
AcDbLine
 10
12.294221731
 20
2.3563172078
 30
0.0
 11
12.1174112227
 21
2.4583877416
 31
0.0
  0
LINE
  5
350
330
1F
100
AcDbEntity
  8
0
  6
Continuous
 62
     7
370
    25
100
AcDbLine
 10
11.5941012536
 20
2.7604881564
 30
0.0
 11
11.5008208806
 21
2.8143377695
 31
0.0
  0
ARC
  5
351
330
1F
100
AcDbEntity
  8
0
  6
Continuous
 62
     7
370
    25
100
AcDbCircle
 10
12.2660719271
 20
2.2839981671
 30
0.0
 40
0.0776044786489394
100
AcDbArc
 50
291.2682429945
 51
68.7317878169
  0
LINE
  5
352
330
1F
100
AcDbEntity
  8
0
  6
Continuous
 62
     7
370
    25
100
AcDbLine
 10
11.1876363763
 20
1.5728609914
 30
0.0
 11
12.2942217699
 21
2.2116791416
 31
0.0
  0
LINE
  5
353
330
1F
100
AcDbEntity
  8
0
  6
Continuous
 62
     7
370
    25
100
AcDbLine
 10
10.1436878991
 20
2.0308815756
 30
0.0
 11
10.9370887495
 21
1.5728610139
 31
0.0
  0
ARC
  5
354
330
1F
100
AcDbEntity
  8
0
  6
Continuous
 62
     7
370
    25
100
AcDbCircle
 10
10.171837703
 20
2.1032006163
 30
0.0
 40
0.0776044786489402
100
AcDbArc
 50
111.2682429945
 51
248.7317878169
  0
LINE
  5
355
330
1F
100
AcDbEntity
  8
0
  6
Continuous
 62
     7
370
    25
100
AcDbLine
 10
11.2502732538
 20
2.814337792
 30
0.0
 11
11.1569928614
 21
2.7604881676
 31
0.0
  0
LINE
  5
356
330
1F
100
AcDbEntity
  8
0
  6
Continuous
 62
     7
370
    25
100
AcDbLine
 10
10.3204983491
 20
2.2775901645
 30
0.0
 11
10.1436878602
 21
2.1755196418
 31
0.0
  0
LINE
  5
357
330
1F
100
AcDbEntity
  8
0
  6
Continuous
 62
     7
370
    25
100
AcDbLine
 10
10.3211590974
 20
2.1935994029
 30
0.0
 11
10.3942355064
 21
2.15141329
 31
0.0
  0
ARC
  5
358
330
1F
100
AcDbEntity
  8
0
  6
Continuous
 62
     7
370
    25
100
AcDbCircle
 10
10.3580900851
 20
2.0838461663
 30
0.0
 40
0.076627721339953
100
AcDbArc
 50
34.5566891437
 51
61.8551899783
  0
ARC
  5
359
330
1F
100
AcDbEntity
  8
0
  6
Continuous
 62
     7
370
    25
100
AcDbCircle
 10
10.3303523684
 20
1.9969324705
 30
0.0
 40
0.0222757372469785
100
AcDbArc
 50
185.6948788501
 51
245.6252325286
  0
LINE
  5
35A
330
1F
100
AcDbEntity
  8
0
  6
Continuous
 62
     7
370
    25
100
AcDbLine
 10
10.3211590974
 20
1.9766422699
 30
0.0
 11
10.843133336
 21
1.6753129559
 31
0.0
  0
ARC
  5
35B
330
1F
100
AcDbEntity
  8
0
  6
Continuous
 62
     7
370
    25
100
AcDbCircle
 10
10.8744517942
 20
1.7357574161
 30
0.0
 40
0.068076270405266
100
AcDbArc
 50
242.609694474
 51
297.390305526
  0
LINE
  5
35C
330
1F
100
AcDbEntity
  8
0
  6
Continuous
 62
     7
370
    25
100
AcDbLine
 10
10.9057702525
 20
1.6753129559
 30
0.0
 11
10.978846642
 21
1.7174990577
 31
0.0
  0
ARC
  5
35D
330
1F
100
AcDbEntity
  8
0
  6
Continuous
 62
     7
370
    25
100
AcDbCircle
 10
11.0623625435
 20
1.5571994717
 30
0.0
 40
0.1807508314606974
100
AcDbArc
 50
62.48053764
 51
117.51946236
  0
LINE
  5
35E
330
1F
100
AcDbEntity
  8
0
  6
Continuous
 62
     7
370
    25
100
AcDbLine
 10
11.145878445
 20
1.7174990577
 30
0.0
 11
11.2189548345
 21
1.6753129559
 31
0.0
  0
ARC
  5
35F
330
1F
100
AcDbEntity
  8
0
  6
Continuous
 62
     7
370
    25
100
AcDbCircle
 10
11.2502732927
 20
1.7357574161
 30
0.0
 40
0.0680762704052678
100
AcDbArc
 50
242.609694474
 51
297.390305526
  0
LINE
  5
360
330
1F
100
AcDbEntity
  8
0
  6
Continuous
 62
     7
370
    25
100
AcDbLine
 10
11.2815917509
 20
1.6753129559
 30
0.0
 11
12.1167505327
 21
2.1574398583
 31
0.0
  0
ARC
  5
361
330
1F
100
AcDbEntity
  8
0
  6
Continuous
 62
     7
370
    25
100
AcDbCircle
 10
12.1075572466
 20
2.1777300697
 30
0.0
 40
0.0222757533681312
100
AcDbArc
 50
294.3747913779
 51
354.3050972434
  0
ARC
  5
362
330
1F
100
AcDbEntity
  8
0
  6
Continuous
 62
     7
370
    25
100
AcDbCircle
 10
12.0798206589
 20
2.2646423686
 30
0.0
 40
0.0766294697424757
100
AcDbArc
 50
118.1450387681
 51
145.4429324031
  0
LINE
  5
363
330
1F
100
AcDbEntity
  8
0
  6
Continuous
 62
     7
370
    25
100
AcDbLine
 10
12.0436741432
 20
2.3322108896
 30
0.0
 11
12.1167505327
 21
2.3743969913
 31
0.0
  0
ARC
  5
364
330
1F
100
AcDbEntity
  8
0
  6
Continuous
 62
     7
370
    25
100
AcDbCircle
 10
12.1075572789
 20
2.3946871795
 30
0.0
 40
0.0222757188961899
100
AcDbArc
 50
294.3747402584
 51
354.3051483629
  0
ARC
  5
365
330
1F
100
AcDbEntity
  8
0
  6
Continuous
 62
     7
370
    25
100
AcDbCircle
 10
10.3303522233
 20
2.2138894993
 30
0.0
 40
0.0222755824665583
100
AcDbArc
 50
185.6946493199
 51
245.6254620587
  0
LWPOLYLINE
  5
366
330
1F
100
AcDbEntity
  8
0
  6
Continuous
 62
     7
370
    25
100
AcDbPolyline
 90
       25
 70
   128
 43
0.0
 10
10.2537301808
 20
2.0823544736
 10
10.2456145272
 20
2.0884601479
 10
10.2405128425
 20
2.0955703905
 10
10.2387727294
 20
2.1032005751
 10
10.2405128425
 20
2.1108308045
 10
10.2456145272
 20
2.1179410471
 10
10.2537301808
 20
2.1240467214
 10
10.2643066649
 20
2.1287317885
 10
10.2766233009
 20
2.1316769284
 10
10.2898406781
 20
2.1326814743
 10
10.3030579775
 20
2.1316769284
 10
10.3153746136
 20
2.1287317885
 10
10.3259510977
 20
2.1240467214
 10
10.3340667707
 20
2.1179410359
 10
10.3391684554
 20
2.1108307933
 10
10.3409085685
 20
2.1032006087
 10
10.3391684554
 20
2.0955703793
 10
10.3340667513
 20
2.0884601479
 10
10.3259511171
 20
2.0823544623
 10
10.3153746136
 20
2.0776694065
 10
10.303057997
 20
2.0747242554
 10
10.2898406198
 20
2.0737197094
 10
10.2766233204
 20
2.0747242554
 10
10.2643066843
 20
2.0776693952
 10
10.2537301808
 20
2.0823544736
  0
LWPOLYLINE
  5
367
330
1F
100
AcDbEntity
  8
0
  6
Continuous
 62
     7
370
    25
100
AcDbPolyline
 90
       25
 70
   128
 43
0.0
 10
12.1119585325
 20
2.263152062
 10
12.1038428788
 20
2.2692577362
 10
12.0987411942
 20
2.2763679789
 10
12.0970010422
 20
2.2839981859
 10
12.0987411553
 20
2.2916284153
 10
12.1038428788
 20
2.2987386355
 10
12.1119585325
 20
2.3048443098
 10
12.1225350165
 20
2.3095293769
 10
12.1348516137
 20
2.3124745393
 10
12.1480689909
 20
2.3134790852
 10
12.1612863292
 20
2.3124745168
 10
12.1736029653
 20
2.3095293769
 10
12.1841794493
 20
2.3048443098
 10
12.1922951029
 20
2.2987386355
 10
12.1973967876
 20
2.2916283929
 10
12.1991369007
 20
2.2839982083
 10
12.1973967876
 20
2.2763679789
 10
12.1922951029
 20
2.2692577362
 10
12.1841794493
 20
2.263152062
 10
12.1736029653
 20
2.2584669948
 10
12.1612863292
 20
2.255521855
 10
12.148068952
 20
2.2545173091
 10
12.1348516526
 20
2.255521855
 10
12.1225350165
 20
2.2584669948
 10
12.1119585325
 20
2.263152062
  0
LWPOLYLINE
  5
368
330
1F
100
AcDbEntity
  8
0
  6
Continuous
 62
     7
370
    25
100
AcDbPolyline
 90
       25
 70
   128
 43
0.0
 10
11.3394366282
 20
2.7091194646
 10
11.3313209746
 20
2.7152251389
 10
11.3262192899
 20
2.7223353815
 10
11.3244791768
 20
2.7299655661
 10
11.3262192899
 20
2.7375957955
 10
11.3313209746
 20
2.7447060382
 10
11.3394366282
 20
2.7508117125
 10
11.3500131123
 20
2.7554967796
 10
11.3623297484
 20
2.7584419194
 10
11.3755471255
 20
2.7594464654
 10
11.3887644249
 20
2.7584419194
 10
11.401081061
 20
2.7554967796
 10
11.4116575451
 20
2.7508117125
 10
11.4197732181
 20
2.7447060269
 10
11.4248749028
 20
2.7375957843
 10
11.4266150159
 20
2.7299655998
 10
11.4248749028
 20
2.7223353703
 10
11.4197731987
 20
2.7152251389
 10
11.4116575645
 20
2.7091194534
 10
11.401081061
 20
2.7044343975
 10
11.3887644444
 20
2.7014892464
 10
11.3755470672
 20
2.7004847005
 10
11.3623297678
 20
2.7014892464
 10
11.3500131317
 20
2.7044343863
 10
11.3394366282
 20
2.7091194646
  0
LWPOLYLINE
  5
369
330
1F
100
AcDbEntity
  8
0
  6
Continuous
 62
     7
370
    25
100
AcDbPolyline
 90
       25
 70
   128
 43
0.0
 10
11.026252085
 20
1.6363870709
 10
11.0181364314
 20
1.6424927452
 10
11.0130347468
 20
1.6496029879
 10
11.0112945947
 20
1.6572331949
 10
11.0130347079
 20
1.6648634243
 10
11.0181364314
 20
1.6719736445
 10
11.026252085
 20
1.6780793188
 10
11.0368285691
 20
1.6827643859
 10
11.0491451663
 20
1.6857095482
 10
11.0623625435
 20
1.6867140941
 10
11.0755798818
 20
1.6857095258
 10
11.0878965178
 20
1.6827643859
 10
11.0984730019
 20
1.6780793188
 10
11.1065886555
 20
1.6719736445
 10
11.1116903402
 20
1.6648634018
 10
11.1134304533
 20
1.6572332173
 10
11.1116903402
 20
1.6496029879
 10
11.1065886555
 20
1.6424927452
 10
11.0984730019
 20
1.6363870709
 10
11.0878965178
 20
1.6317020038
 10
11.0755798818
 20
1.628756864
 10
11.0623625046
 20
1.627752318
 10
11.0491452052
 20
1.628756864
 10
11.0368285691
 20
1.6317020038
 10
11.026252085
 20
1.6363870709
  0
ARC
  5
36A
330
1F
100
AcDbEntity
  8
0
  6
Continuous
 62
     7
370
    25
100
AcDbCircle
 10
11.3755470856
 20
2.8782201396
 30
0.0
 40
0.1807507882791622
100
AcDbArc
 50
242.4805378343
 51
297.5194698669
  0
LINE
  5
36B
330
1F
100
AcDbEntity
  8
0
  6
Continuous
 62
     7
370
    25
100
AcDbLine
 10
11.5321393777
 20
2.7601067045
 30
0.0
 11
11.4590629882
 21
2.7179206028
 31
0.0
  0
ARC
  5
36C
330
1F
100
AcDbEntity
  8
0
  6
Continuous
 62
     7
370
    25
100
AcDbCircle
 10
11.5634578359
 20
2.6996623083
 30
0.0
 40
0.0680762136410382
100
AcDbArc
 50
62.60966972
 51
117.39033028
  0
LINE
  5
36D
330
1F
100
AcDbEntity
  8
0
  6
Continuous
 62
     7
370
    25
100
AcDbLine
 10
12.1167505327
 20
2.4587773906
 30
0.0
 11
11.5947762941
 21
2.7601067045
 31
0.0
  0
ARC
  5
36E
330
1F
100
AcDbEntity
  8
0
  6
Continuous
 62
     7
370
    25
100
AcDbCircle
 10
12.1098886477
 20
2.4406976295
 30
0.0
 40
0.0193381288385213
100
AcDbArc
 50
290.7834592748
 51
69.2165407252
  0
LINE
  5
36F
330
1F
100
AcDbEntity
  8
0
  6
Continuous
 62
     7
370
    25
100
AcDbLine
 10
12.0436741432
 20
2.3804317667
 30
0.0
 11
12.1167505327
 21
2.4226178684
 31
0.0
  0
ARC
  5
370
330
1F
100
AcDbEntity
  8
0
  6
Continuous
 62
     7
370
    25
100
AcDbCircle
 10
12.0624836581
 20
2.332219063
 30
0.0
 40
0.0517519337832139
100
AcDbArc
 50
111.3125504658
 51
248.6874495342
  0
LINE
  5
371
330
1F
100
AcDbEntity
  8
0
  6
Continuous
 62
     7
370
    25
100
AcDbLine
 10
12.1167505327
 20
2.2418202576
 30
0.0
 11
12.0436741432
 21
2.2840063593
 31
0.0
  0
ARC
  5
372
330
1F
100
AcDbEntity
  8
0
  6
Continuous
 62
     7
370
    25
100
AcDbCircle
 10
12.1098886477
 20
2.2237404965
 30
0.0
 40
0.0193381288385213
100
AcDbArc
 50
290.7834592748
 51
69.2165407252
  0
LINE
  5
373
330
1F
100
AcDbEntity
  8
0
  6
Continuous
 62
     7
370
    25
100
AcDbLine
 10
11.2815917509
 20
1.723533833
 30
0.0
 11
12.1167505327
 21
2.2056607354
 31
0.0
  0
ARC
  5
374
330
1F
100
AcDbEntity
  8
0
  6
Continuous
 62
     7
370
    25
100
AcDbCircle
 10
11.2502732927
 20
1.7839782932
 30
0.0
 40
0.0680762704052687
100
AcDbArc
 50
242.609694474
 51
297.390305526
  0
LINE
  5
375
330
1F
100
AcDbEntity
  8
0
  6
Continuous
 62
     7
370
    25
100
AcDbLine
 10
11.145878445
 20
1.7657199347
 30
0.0
 11
11.2189548345
 21
1.723533833
 31
0.0
  0
ARC
  5
376
330
1F
100
AcDbEntity
  8
0
  6
Continuous
 62
     7
370
    25
100
AcDbCircle
 10
11.0623625435
 20
1.6054203488
 30
0.0
 40
0.1807508314606978
100
AcDbArc
 50
62.48053764
 51
117.51946236
  0
LINE
  5
377
330
1F
100
AcDbEntity
  8
0
  6
Continuous
 62
     7
370
    25
100
AcDbLine
 10
10.9057702525
 20
1.723533833
 30
0.0
 11
10.978846642
 21
1.7657199347
 31
0.0
  0
ARC
  5
378
330
1F
100
AcDbEntity
  8
0
  6
Continuous
 62
     7
370
    25
100
AcDbCircle
 10
10.8744517942
 20
1.7839782932
 30
0.0
 40
0.0680762704052674
100
AcDbArc
 50
242.609694474
 51
297.390305526
  0
LINE
  5
379
330
1F
100
AcDbEntity
  8
0
  6
Continuous
 62
     7
370
    25
100
AcDbLine
 10
10.3211590974
 20
2.024863147
 30
0.0
 11
10.843133336
 21
1.723533833
 31
0.0
  0
ARC
  5
37A
330
1F
100
AcDbEntity
  8
0
  6
Continuous
 62
     7
370
    25
100
AcDbCircle
 10
10.3280209673
 20
2.0429429081
 30
0.0
 40
0.0193381234519127
100
AcDbArc
 50
110.7834172241
 51
249.2165827759
  0
LINE
  5
37B
330
1F
100
AcDbEntity
  8
0
  6
Continuous
 62
     7
370
    25
100
AcDbLine
 10
10.394235487
 20
2.1032087709
 30
0.0
 11
10.3211590974
 21
2.0610226692
 31
0.0
  0
ARC
  5
37C
330
1F
100
AcDbEntity
  8
0
  6
Continuous
 62
     7
370
    25
100
AcDbCircle
 10
10.3754259825
 20
2.1514214728
 30
0.0
 40
0.0517519282667101
100
AcDbArc
 50
291.3125403539
 51
68.6874365375
  0
LINE
  5
37D
330
1F
100
AcDbEntity
  8
0
  6
Continuous
 62
     7
370
    25
100
AcDbLine
 10
10.3211590974
 20
2.24182028
 30
0.0
 11
10.3942355064
 21
2.1996341671
 31
0.0
  0
ARC
  5
37E
330
1F
100
AcDbEntity
  8
0
  6
Continuous
 62
     7
370
    25
100
AcDbCircle
 10
10.3280209825
 20
2.2599000411
 30
0.0
 40
0.0193381288385215
100
AcDbArc
 50
110.7834592748
 51
249.2165407252
  0
LINE
  5
37F
330
1F
100
AcDbEntity
  8
0
  6
Continuous
 62
     7
370
    25
100
AcDbLine
 10
11.1563178792
 20
2.7601067045
 30
0.0
 11
10.3211590974
 21
2.2779798022
 31
0.0
  0
ARC
  5
380
330
1F
100
AcDbEntity
  8
0
  6
Continuous
 62
     7
370
    25
100
AcDbCircle
 10
11.1876363374
 20
2.6996622443
 30
0.0
 40
0.0680762704052606
100
AcDbArc
 50
62.609694474
 51
117.390305526
  0
LINE
  5
381
330
1F
100
AcDbEntity
  8
0
  6
Continuous
 62
     7
370
    25
100
AcDbLine
 10
11.2920312046
 20
2.7179205916
 30
0.0
 11
11.2189547956
 21
2.7601067045
 31
0.0
  0
LINE
  5
382
330
1F
100
AcDbEntity
  8
0
  6
Continuous
 62
     7
370
    25
100
AcDbLine
 10
12.022795197
 20
2.2719532002
 30
0.0
 11
12.0958715865
 21
2.2297670985
 31
0.0
  0
LWPOLYLINE
  5
383
330
1F
100
AcDbEntity
  8
0
  6
Continuous
 62
     7
370
    25
100
AcDbPolyline
 90
       11
 70
   128
 43
0.0
 10
12.022795197
 20
2.2719532002
 10
12.0077494643
 20
2.2821228357
 10
11.9956448199
 20
2.2935259945
 10
11.9867792423
 20
2.3058819048
 10
11.9813710622
 20
2.3188863561
 10
11.9795534015
 20
2.3322190854
 10
11.9813710233
 20
2.3455517923
 10
11.9867792423
 20
2.3585562212
 10
11.9956448199
 20
2.3709121315
 10
12.0077494643
 20
2.3823152903
 10
12.0227951775
 20
2.392484937
  0
LINE
  5
384
330
1F
100
AcDbEntity
  8
0
  6
Continuous
 62
     7
370
    25
100
AcDbLine
 10
12.095871567
 20
2.4346710387
 30
0.0
 11
12.0227951775
 21
2.392484937
 31
0.0
  0
ARC
  5
385
330
1F
100
AcDbEntity
  8
0
  6
Continuous
 62
     7
370
    25
100
AcDbCircle
 10
12.0935842861
 20
2.4406976202
 30
0.0
 40
0.006446032760179
100
AcDbArc
 50
290.7833600221
 51
69.2168248469
  0
LINE
  5
386
330
1F
100
AcDbEntity
  8
0
  6
Continuous
 62
     7
370
    25
100
AcDbLine
 10
11.573897309
 20
2.748053523
 30
0.0
 11
12.0958715476
 21
2.446724209
 31
0.0
  0
ARC
  5
387
330
1F
100
AcDbEntity
  8
0
  6
Continuous
 62
     7
370
    25
100
AcDbCircle
 10
11.5634578153
 20
2.7279054124
 30
0.0
 40
0.0226920556191874
100
AcDbArc
 50
62.6096277297
 51
117.3903106607
  0
LINE
  5
388
330
1F
100
AcDbEntity
  8
0
  6
Continuous
 62
     7
370
    25
100
AcDbLine
 10
11.4799419538
 20
2.7058674325
 30
0.0
 11
11.5530183433
 21
2.7480535342
 31
0.0
  0
ARC
  5
389
330
1F
100
AcDbEntity
  8
0
  6
Continuous
 62
     7
370
    25
100
AcDbCircle
 10
11.3755471061
 20
2.9054802002
 30
0.0
 40
0.2252632709500171
100
AcDbArc
 50
242.3910255314
 51
297.6089744686
  0
LINE
  5
38A
330
1F
100
AcDbEntity
  8
0
  6
Continuous
 62
     7
370
    25
100
AcDbLine
 10
11.1980758494
 20
2.7480535454
 30
0.0
 11
11.2711522584
 21
2.7058674325
 31
0.0
  0
ARC
  5
38B
330
1F
100
AcDbEntity
  8
0
  6
Continuous
 62
     7
370
    25
100
AcDbCircle
 10
11.1876363785
 20
2.7279053064
 30
0.0
 40
0.0226921591671398
100
AcDbArc
 50
62.6098279625
 51
117.3902952567
  0
LINE
  5
38C
330
1F
100
AcDbEntity
  8
0
  6
Continuous
 62
     7
370
    25
100
AcDbLine
 10
10.3420380825
 20
2.2659266206
 30
0.0
 11
11.1771968643
 21
2.748053523
 31
0.0
  0
ARC
  5
38D
330
1F
100
AcDbEntity
  8
0
  6
Continuous
 62
     7
370
    25
100
AcDbCircle
 10
10.3443253753
 20
2.2599000225
 30
0.0
 40
0.006446052545148
100
AcDbArc
 50
110.7834054772
 51
249.2162247853
  0
LINE
  5
38E
330
1F
100
AcDbEntity
  8
0
  6
Continuous
 62
     7
370
    25
100
AcDbLine
 10
10.4151144526
 20
2.2116873262
 30
0.0
 11
10.3420380436
 21
2.2538734391
 31
0.0
  0
LWPOLYLINE
  5
38F
330
1F
100
AcDbEntity
  8
0
  6
Continuous
 62
     7
370
    25
100
AcDbPolyline
 90
       11
 70
   128
 43
0.0
 10
10.4151144526
 20
2.0911556006
 10
10.4301601658
 20
2.1013252473
 10
10.4422648102
 20
2.1127284061
 10
10.4511303879
 20
2.1250843164
 10
10.4565385874
 20
2.1380887565
 10
10.4583562091
 20
2.1514214634
 10
10.456538568
 20
2.1647541815
 10
10.4511303879
 20
2.1777586328
 10
10.4422648102
 20
2.1901145431
 10
10.4301601464
 20
2.2015177131
 10
10.4151144526
 20
2.2116873262
  0
LINE
  5
390
330
1F
100
AcDbEntity
  8
0
  6
Continuous
 62
     7
370
    25
100
AcDbLine
 10
10.342038102
 20
2.0489695213
 30
0.0
 11
10.4151144526
 21
2.0911556006
 31
0.0
  0
ARC
  5
391
330
1F
100
AcDbEntity
  8
0
  6
Continuous
 62
     7
370
    25
100
AcDbCircle
 10
10.344325341
 20
2.0429429212
 30
0.0
 40
0.0064460352720462
100
AcDbArc
 50
110.7829527832
 51
249.2168623482
  0
LINE
  5
392
330
1F
100
AcDbEntity
  8
0
  6
Continuous
 62
     7
370
    25
100
AcDbLine
 10
10.8640123211
 20
1.7355870146
 30
0.0
 11
10.3420380825
 21
2.0369163285
 31
0.0
  0
ARC
  5
393
330
1F
100
AcDbEntity
  8
0
  6
Continuous
 62
     7
370
    25
100
AcDbCircle
 10
10.8744518148
 20
1.7557351252
 30
0.0
 40
0.0226920556191811
100
AcDbArc
 50
242.6096277297
 51
297.3903106607
  0
LINE
  5
394
330
1F
100
AcDbEntity
  8
0
  6
Continuous
 62
     7
370
    25
100
AcDbLine
 10
10.9579676763
 20
1.7777731051
 30
0.0
 11
10.8848912868
 21
1.7355870033
 31
0.0
  0
ARC
  5
395
330
1F
100
AcDbEntity
  8
0
  6
Continuous
 62
     7
370
    25
100
AcDbCircle
 10
11.062362523
 20
1.5781603776
 30
0.0
 40
0.2252632348544608
100
AcDbArc
 50
62.3910148587
 51
117.6089789804
  0
LINE
  5
396
330
1F
100
AcDbEntity
  8
0
  6
Continuous
 62
     7
370
    25
100
AcDbLine
 10
11.2398337807
 20
1.7355869921
 30
0.0
 11
11.1667573912
 21
1.7777730938
 31
0.0
  0
ARC
  5
397
330
1F
100
AcDbEntity
  8
0
  6
Continuous
 62
     7
370
    25
100
AcDbCircle
 10
11.2502732516
 20
1.7557352311
 30
0.0
 40
0.0226921591671419
100
AcDbArc
 50
242.6098279625
 51
297.3902952567
  0
LINE
  5
398
330
1F
100
AcDbEntity
  8
0
  6
Continuous
 62
     7
370
    25
100
AcDbLine
 10
12.0958715476
 20
2.2177139169
 30
0.0
 11
11.2607127658
 21
1.7355870146
 31
0.0
  0
ARC
  5
399
330
1F
100
AcDbEntity
  8
0
  6
Continuous
 62
     7
370
    25
100
AcDbCircle
 10
12.0935842548
 20
2.2237405151
 30
0.0
 40
0.0064460525451472
100
AcDbArc
 50
290.7834054772
 51
69.2162247853
  0
ARC
  5
39A
330
1F
100
AcDbEntity
  8
0
  6
Continuous
 62
     7
370
    25
100
AcDbCircle
 10
11.0623625435
 20
0.8907921322
 30
0.0
 40
0.2486325857353128
100
AcDbArc
 50
242.4925674377
 51
297.5074325623
  0
LINE
  5
39B
330
1F
100
AcDbEntity
  8
0
  6
Continuous
 62
     7
370
    25
100
AcDbLine
 10
10.1444401954
 20
1.92272235
 30
0.0
 11
10.9378410459
 21
1.4647017883
 31
0.0
  0
LINE
  5
39C
330
1F
100
AcDbEntity
  8
0
  6
Continuous
 62
     7
370
    25
100
AcDbLine
 10
10.1444401954
 20
1.92272235
 30
0.0
 11
10.1436878991
 21
2.0308815756
 31
0.0
  0
LINE
  5
39D
330
1F
100
AcDbEntity
  8
0
  6
Continuous
 62
     7
370
    25
100
AcDbLine
 10
12.2942217699
 20
2.2116791416
 30
0.0
 11
12.2934694347
 21
2.1035199384
 31
0.0
  0
LINE
  5
39E
330
1F
100
AcDbEntity
  8
0
  6
Continuous
 62
     7
370
    25
100
AcDbLine
 10
11.1868840411
 20
1.4647017883
 30
0.0
 11
12.2934694347
 21
2.1035199384
 31
0.0
  0
LINE
  5
39F
330
1F
100
AcDbEntity
  8
0
  6
Continuous
 62
     7
370
    25
100
AcDbLine
 10
11.2815917509
 20
1.723533833
 30
0.0
 11
11.2815917509
 21
1.6753129559
 31
0.0
  0
LINE
  5
3A0
330
1F
100
AcDbEntity
  8
0
  6
Continuous
 62
     7
370
    25
100
AcDbLine
 10
11.2189548345
 20
1.723533833
 30
0.0
 11
11.2189548345
 21
1.6753129559
 31
0.0
  0
LINE
  5
3A1
330
1F
100
AcDbEntity
  8
0
  6
Continuous
 62
     7
370
    25
100
AcDbLine
 10
10.9057702525
 20
1.723533833
 30
0.0
 11
10.9057702525
 21
1.6753129559
 31
0.0
  0
LINE
  5
3A2
330
1F
100
AcDbEntity
  8
0
  6
Continuous
 62
     7
370
    25
100
AcDbLine
 10
10.843133336
 20
1.723533833
 30
0.0
 11
10.843133336
 21
1.6753129559
 31
0.0
  0
LINE
  5
3A3
330
1F
100
AcDbEntity
  8
0
  6
Continuous
 62
     7
370
    25
100
AcDbLine
 10
10.9475281838
 20
0.6702672299
 30
0.0
 11
10.1679815023
 21
1.1202899502
 31
0.0
  0
LINE
  5
3A4
330
1F
100
AcDbEntity
  8
0
  6
Continuous
 62
     7
370
    25
100
AcDbLine
 10
12.2699281278
 20
1.3010875385
 30
0.0
 11
11.1771969032
 21
0.6702672299
 31
0.0
  0
LINE
  5
3A5
330
1F
100
AcDbEntity
  8
0
  6
Continuous
 62
     7
370
    25
100
AcDbLine
 10
10.978846642
 20
1.7174990577
 30
0.0
 11
10.978846642
 21
1.7657199347
 31
0.0
  0
LINE
  5
3A6
330
1F
100
AcDbEntity
  8
0
  6
Continuous
 62
     7
370
    25
100
AcDbLine
 10
11.145878445
 20
1.7657199347
 30
0.0
 11
11.145878445
 21
1.7174990577
 31
0.0
  0
LINE
  5
3A7
330
1F
100
AcDbEntity
  8
0
  6
Continuous
 62
     7
370
    25
100
AcDbLine
 10
10.3211590974
 20
2.024863147
 30
0.0
 11
10.3211590974
 21
1.9766422699
 31
0.0
  0
LINE
  5
3A8
330
1F
100
AcDbEntity
  8
0
  6
Continuous
 62
     7
370
    25
100
AcDbLine
 10
12.1167505327
 20
2.2056607354
 30
0.0
 11
12.1167505327
 21
2.1574398583
 31
0.0
  0
LINE
  5
3A9
330
1F
100
AcDbEntity
  8
0
  6
Continuous
 62
     7
370
    25
100
AcDbLine
 10
10.4151144526
 20
2.0911556006
 30
0.0
 11
10.4151174861
 21
2.0429364747
 31
0.0
  0
LWPOLYLINE
  5
3AA
330
1F
100
AcDbEntity
  8
0
  6
Continuous
 62
     7
370
    25
100
AcDbPolyline
 90
       12
 70
   128
 43
0.0
 10
11.2821373836
 20
1.7479552093
 10
11.2663971068
 20
1.7562352595
 10
11.2267054237
 20
1.7791633286
 10
11.206852018
 20
1.790622974
 10
11.196861457
 20
1.7963159547
 10
11.192536803
 20
1.7976978789
 10
11.1876724666
 20
1.798180844
 10
11.1826772639
 20
1.7976895495
 10
11.178417168
 20
1.7963184467
 10
11.1713259271
 20
1.7922997916
 10
11.164292205
 20
1.7882394899
 10
11.155862589
 20
1.7833731762
  0
ARC
  5
3AB
330
1F
100
AcDbEntity
  8
0
  6
Continuous
 62
     7
370
    25
100
AcDbCircle
 10
11.1876366739
 20
2.6796875309
 30
0.0
 40
0.0226891655051179
100
AcDbArc
 50
62.6011096934
 51
117.4155175835
  0
LINE
  5
3AC
330
1F
100
AcDbEntity
  8
0
  6
Continuous
 62
     7
370
    25
100
AcDbLine
 10
11.1980778328
 20
2.6998315234
 30
0.0
 11
11.2711566335
 21
2.6576440297
 31
0.0
  0
ARC
  5
3AD
330
1F
100
AcDbEntity
  8
0
  6
Continuous
 62
     7
370
    25
100
AcDbCircle
 10
11.3755465489
 20
2.8591274079
 30
0.0
 40
0.2269202628460225
100
AcDbArc
 50
242.6110117085
 51
297.392081079
  0
LINE
  5
3AE
330
1F
100
AcDbEntity
  8
0
  6
Continuous
 62
     7
370
    25
100
AcDbLine
 10
11.4799473596
 20
2.6576496761
 30
0.0
 11
11.5530183433
 21
2.6998326571
 31
0.0
  0
LINE
  5
3AF
330
1F
100
AcDbEntity
  8
0
  6
Continuous
 62
     7
370
    25
100
AcDbLine
 10
11.5572678221
 20
2.7015436451
 30
0.0
 11
11.5530183433
 21
2.6998326571
 31
0.0
  0
LINE
  5
3B0
330
1F
100
AcDbEntity
  8
0
  6
Continuous
 62
     7
370
    25
100
AcDbLine
 10
11.5572678221
 20
1.9067846316
 30
0.0
 11
11.5572678221
 21
2.7015436451
 31
0.0
  0
LINE
  5
3B1
330
1F
100
AcDbEntity
  8
0
  6
Continuous
 62
     7
370
    25
100
AcDbLine
 10
10.3942355064
 20
2.15141329
 30
0.0
 11
10.3942355064
 21
2.1996341671
 31
0.0
  0
LINE
  5
3B2
330
1F
100
AcDbEntity
  8
0
  6
Continuous
 62
     7
370
    25
100
AcDbLine
 10
10.3211590974
 20
2.24182028
 30
0.0
 11
10.3211590974
 21
2.1935994029
 31
0.0
  0
LINE
  5
3B3
330
1F
100
AcDbEntity
  8
0
  6
Continuous
 62
     7
370
    25
100
AcDbLine
 10
12.0227955081
 20
2.2237321435
 30
0.0
 11
12.022795197
 21
2.2719532002
 31
0.0
  0
LINE
  5
3B4
330
1F
100
AcDbEntity
  8
0
  6
Continuous
 62
     7
370
    25
100
AcDbLine
 10
11.1771968643
 20
2.748053523
 30
0.0
 11
11.1771896696
 21
2.6998284925
 31
0.0
  0
LINE
  5
3B5
330
1F
100
AcDbEntity
  8
0
  6
Continuous
 62
     7
370
    25
100
AcDbLine
 10
12.3450451368
 20
2.1748296772
 30
0.0
 11
12.3450440478
 21
2.1760821716
 31
0.0
  0
LINE
  5
3B6
330
1F
100
AcDbEntity
  8
0
  6
Continuous
 62
     7
370
    25
100
AcDbLine
 10
12.0436741432
 20
2.3804317667
 30
0.0
 11
12.0436741432
 21
2.3322108896
 31
0.0
  0
LINE
  5
3B7
330
1F
100
AcDbEntity
  8
0
  6
Continuous
 62
     7
370
    25
100
AcDbLine
 10
12.1167505327
 20
2.4226178684
 30
0.0
 11
12.1167505327
 21
2.3743969913
 31
0.0
  0
LINE
  5
3B8
330
1F
100
AcDbEntity
  8
0
  6
Continuous
 62
     7
370
    25
100
AcDbLine
 10
11.5739060593
 20
2.6998275944
 30
0.0
 11
11.573897309
 21
2.748053523
 31
0.0
  0
ARC
  5
3B9
330
1F
100
AcDbEntity
  8
0
  6
Continuous
 62
     7
370
    25
100
AcDbCircle
 10
11.5633804877
 20
2.6792926095
 30
0.0
 40
0.0230753822265564
100
AcDbArc
 50
62.8617848467
 51
105.361002645
  0
LINE
  5
3BA
330
1F
100
AcDbEntity
  8
0
  6
Continuous
 62
     7
370
    25
100
AcDbLine
 10
11.4799473596
 20
2.6576496761
 30
0.0
 11
11.4799419538
 21
2.7058674325
 31
0.0
  0
LINE
  5
3BB
330
1F
100
AcDbEntity
  8
0
  6
Continuous
 62
     7
370
    25
100
AcDbLine
 10
11.2711522584
 20
2.7058674325
 30
0.0
 11
11.2711566141
 21
2.6576440409
 31
0.0
  0
LINE
  5
3BC
330
1F
100
AcDbEntity
  8
0
  6
Continuous
 62
     7
370
    25
100
AcDbLine
 10
11.1980778328
 20
2.6998315234
 30
0.0
 11
11.1980758494
 21
2.7480535454
 31
0.0
  0
LINE
  5
3BD
330
1F
100
AcDbEntity
  8
0
  6
Continuous
 62
     7
370
    25
100
AcDbLine
 10
11.5530183433
 20
2.7480535342
 30
0.0
 11
11.5530183433
 21
2.6998326571
 31
0.0
  0
LWPOLYLINE
  5
3BE
330
1F
100
AcDbEntity
  8
0
  6
Continuous
 62
     8
370
    25
100
AcDbPolyline
 90
        6
 70
   128
 43
0.0
 10
10.1547920484
 20
3.4484544675
 10
10.1347892646
 20
3.4625896167
 10
10.1199185777
 20
3.478705143
 10
10.110639906
 20
3.4962214522
 10
10.1075604067
 20
3.5143223172
 10
10.1081903926
 20
3.5179982808
  0
ARC
  5
3BF
330
1F
100
AcDbEntity
  8
0
  6
Continuous
 62
     8
370
    25
100
AcDbCircle
 10
12.2561662343
 20
3.6977344108
 30
0.0
 40
0.0735911230154333
100
AcDbArc
 50
291.5083826514
 51
0.8620748562
  0
LWPOLYLINE
  5
3C0
330
1F
100
AcDbEntity
  8
0
  6
Continuous
 62
     8
370
    25
100
AcDbPolyline
 90
        4
 70
   128
 43
0.0
 10
10.1679955028
 20
3.8056817897
 10
10.1681816713
 20
3.8058922742
 10
10.1783074542
 20
3.8078027871
 10
10.1902274469
 20
3.8036433802
  0
ARC
  5
3C1
330
1F
100
AcDbEntity
  8
0
  6
Continuous
 62
     8
370
    25
100
AcDbCircle
 10
10.1933381718
 20
3.7281458068
 30
0.0
 40
0.0823984416216296
100
AcDbArc
 50
185.8684041469
 51
245.3026203929
  0
LWPOLYLINE
  5
3C2
330
1F
100
AcDbEntity
  8
0
  6
Continuous
 62
     8
370
    25
100
AcDbPolyline
 90
        4
 70
   128
 43
0.0
 10
11.2920493081
 20
4.4397116016
 10
11.2801293154
 20
4.4438710085
 10
11.2700035325
 20
4.4419604956
 10
11.2699274239
 20
4.441874375
  0
ARC
  5
3C3
330
1F
100
AcDbEntity
  8
0
  6
Continuous
 62
     8
370
    25
100
AcDbCircle
 10
10.1720505033
 20
3.5046648084
 30
0.0
 40
0.0791966748183372
100
AcDbArc
 50
181.3210066999
 51
249.5290418656
  0
LWPOLYLINE
  5
3C4
330
1F
100
AcDbEntity
  8
0
  6
Continuous
 62
     8
370
    25
100
AcDbPolyline
 90
        4
 70
   128
 43
0.0
 10
12.2477124011
 20
3.984458413
 10
12.2596324326
 20
3.9886178424
 10
12.2697582156
 20
3.9867073295
 10
12.2699445785
 20
3.9864965979
  0
ARC
  5
3C5
330
1F
100
AcDbEntity
  8
0
  6
Continuous
 62
     8
370
    25
100
AcDbCircle
 10
12.2512474716
 20
3.9039911772
 30
0.0
 40
0.075210948275842
100
AcDbArc
 50
291.6781375564
 51
358.0441012695
  0
LWPOLYLINE
  5
3C6
330
1F
100
AcDbEntity
  8
0
  6
Continuous
 62
     8
370
    25
100
AcDbPolyline
 90
        4
 70
   128
 43
0.0
 10
11.4812271851
 20
4.441874375
 10
11.4811511154
 20
4.4419605181
 10
11.4710253325
 20
4.4438710309
 10
11.4591053009
 20
4.4397116016
  0
ARC
  5
3C7
330
1F
100
AcDbEntity
  8
0
  6
Continuous
 62
     8
370
    25
100
AcDbCircle
 10
12.2565998466
 20
3.6922458549
 30
0.0
 40
0.0890114723855606
100
AcDbArc
 50
294.5526031983
 51
354.1507921072
  0
ARC
  5
3C8
330
1F
100
AcDbEntity
  8
0
  6
Continuous
 62
     8
370
    25
100
AcDbCircle
 10
11.1795426194
 20
1.4640382658
 30
0.0
 40
0.0073713454838274
100
AcDbArc
 50
305.477617427
 51
5.1643986294
  0
ARC
  5
3C9
330
1F
100
AcDbEntity
  8
0
  6
Continuous
 62
     8
370
    25
100
AcDbCircle
 10
10.9447990978
 20
1.4638667757
 30
0.0
 40
0.0070079763003674
100
AcDbArc
 50
173.1568504951
 51
236.7906978719
  0
ARC
  5
3CA
330
1F
100
AcDbEntity
  8
0
  6
Continuous
 62
     8
370
    25
100
AcDbCircle
 10
12.0534177199
 20
2.2913446754
 30
0.0
 40
0.0742238123776174
100
AcDbArc
 50
185.7340960489
 51
245.6338789187
  0
LINE
  5
3CB
330
1F
100
AcDbEntity
  8
0
  6
Continuous
 62
     8
370
    25
100
AcDbLine
 10
12.0227955081
 20
2.2237321435
 30
0.0
 11
12.0645460113
 21
2.199630091
 31
0.0
  0
LINE
  5
3CC
330
1F
100
AcDbEntity
  8
0
  6
Continuous
 62
     8
370
    25
100
AcDbLine
 10
10.9475281838
 20
1.4545280432
 30
0.0
 11
10.9475281838
 21
0.6702672299
 31
0.0
  0
LINE
  5
3CD
330
1F
100
AcDbEntity
  8
0
  6
Continuous
 62
     8
370
    25
100
AcDbLine
 10
11.1771968643
 20
1.4545980343
 30
0.0
 11
11.1771969032
 21
0.6702672299
 31
0.0
  0
ARC
  5
3CE
330
1F
100
AcDbEntity
  8
0
  6
Continuous
 62
     8
370
    25
100
AcDbCircle
 10
12.2861256257
 20
2.1028568643
 30
0.0
 40
0.0073736827777372
100
AcDbArc
 50
305.53794332
 51
5.1592583874
  0
ARC
  5
3CF
330
1F
100
AcDbEntity
  8
0
  6
Continuous
 62
     8
370
    25
100
AcDbCircle
 10
10.1517837833
 20
1.9220592197
 30
0.0
 40
0.0073734675866177
100
AcDbArc
 50
174.8401516939
 51
234.4633454277
  0
LINE
  5
3D0
330
1F
100
AcDbEntity
  8
0
  6
Continuous
 62
     8
370
    25
100
AcDbLine
 10
10.1560282972
 20
1.9111346811
 30
0.0
 11
10.1679815023
 21
1.1202899502
 31
0.0
  0
LINE
  5
3D1
330
1F
100
AcDbEntity
  8
0
  6
Continuous
 62
     8
370
    25
100
AcDbLine
 10
12.281881294
 20
2.091932292
 30
0.0
 11
12.2699281278
 21
1.3010875385
 31
0.0
  0
LINE
  5
3D2
330
1F
100
AcDbEntity
  8
0
  6
Continuous
 62
     8
370
    25
100
AcDbLine
 10
10.342038102
 20
2.0369163342
 30
0.0
 11
10.342038102
 21
2.0489695213
 31
0.0
  0
LINE
  5
3D3
330
1F
100
AcDbEntity
  8
0
  6
Continuous
 62
     8
370
    25
100
AcDbLine
 10
10.3733636382
 20
2.0188324914
 30
0.0
 11
10.4151174861
 21
2.0429364747
 31
0.0
  0
ARC
  5
3D4
330
1F
100
AcDbEntity
  8
0
  6
Continuous
 62
     8
370
    25
100
AcDbCircle
 10
10.3918656088
 20
2.1052445472
 30
0.0
 40
0.0665052306117226
100
AcDbArc
 50
290.4643673071
 51
358.3124429326
  0
LINE
  5
3D5
330
1F
100
AcDbEntity
  8
0
  6
Continuous
 62
     8
370
    25
100
AcDbLine
 10
10.3733636577
 20
2.2357896132
 30
0.0
 11
11.1771896696
 21
2.6998284925
 31
0.0
  0
LWPOLYLINE
  5
3D6
330
1F
100
AcDbEntity
  8
0
  6
Continuous
 62
     8
370
    25
100
AcDbPolyline
 90
        4
 70
   128
 43
0.0
 10
10.9601940947
 20
0.6441464091
 10
10.9575446457
 20
0.6451358956
 10
10.9501745993
 20
0.6553176434
 10
10.9475281838
 20
0.6702672299
  0
LWPOLYLINE
  5
3D7
330
1F
100
AcDbEntity
  8
0
  6
Continuous
 62
     8
370
    25
100
AcDbPolyline
 90
        4
 70
   128
 43
0.0
 10
11.1771969032
 20
0.6702672299
 10
11.1745505265
 20
0.655317621
 10
11.1671804412
 20
0.6451358956
 10
11.164532509
 20
0.6441469706
  0
ARC
  5
3D8
330
1F
100
AcDbEntity
  8
0
  6
Continuous
 62
     8
370
    25
100
AcDbCircle
 10
10.1803759691
 20
2.003019639
 30
0.0
 40
0.0879717820905203
100
AcDbArc
 50
185.863797564
 51
245.8898570967
  0
LINE
  5
3D9
330
1F
100
AcDbEntity
  8
0
  6
Continuous
 62
     8
370
    25
100
AcDbLine
 10
11.1458791061
 20
0.6325465963
 30
0.0
 11
11.1524505377
 21
0.6366654277
 31
0.0
  0
ARC
  5
3DA
330
1F
100
AcDbEntity
  8
0
  6
Continuous
 62
     8
370
    25
100
AcDbCircle
 10
11.0629449344
 20
0.7882833474
 30
0.0
 40
0.1764426605779471
100
AcDbArc
 50
238.0575533721
 51
298.0365485169
  0
LWPOLYLINE
  5
3DB
330
1F
100
AcDbEntity
  8
0
  6
Continuous
 62
     8
370
    25
100
AcDbPolyline
 90
        4
 70
   128
 43
0.0
 10
12.2574163007
 20
1.2750242608
 10
12.2599117048
 20
1.2759561818
 10
12.2672817512
 20
1.286137952
 10
12.2699281278
 20
1.3010875385
  0
LWPOLYLINE
  5
3DC
330
1F
100
AcDbEntity
  8
0
  6
Continuous
 62
     8
370
    25
100
AcDbPolyline
 90
        4
 70
   128
 43
0.0
 10
10.1679815023
 20
1.1202899502
 10
10.1706279178
 20
1.1053403861
 10
10.1779979254
 20
1.0951585934
 10
10.1804933294
 20
1.0942266725
  0
ARC
  5
3DD
330
1F
100
AcDbEntity
  8
0
  6
Continuous
 62
     8
370
    25
100
AcDbCircle
 10
10.2011864335
 20
1.1942358273
 30
0.0
 40
0.0810589921024979
100
AcDbArc
 50
186.1278891132
 51
245.8178354208
  0
LINE
  5
3DE
330
1F
100
AcDbEntity
  8
0
  6
Continuous
 62
     8
370
    25
100
AcDbLine
 10
12.0958715865
 20
2.2297670985
 30
0.0
 11
12.0958714309
 21
2.2177139113
 31
0.0
  0
LINE
  5
3DF
330
1F
100
AcDbEntity
  8
0
  6
Continuous
 62
     8
370
    25
100
AcDbLine
 10
10.3420381603
 20
2.2538733886
 30
0.0
 11
10.3420380825
 21
2.2659266206
 31
0.0
  0
ARC
  5
3E0
330
1F
100
AcDbEntity
  8
0
  6
Continuous
 62
     8
370
    25
100
AcDbCircle
 10
12.2575337831
 20
2.1838171391
 30
0.0
 40
0.0879716516991931
100
AcDbArc
 50
294.1100938469
 51
354.1362514924
  0
ARC
  5
3E1
330
1F
100
AcDbEntity
  8
0
  6
Continuous
 62
     8
370
    25
100
AcDbCircle
 10
12.2364161026
 20
1.3752550453
 30
0.0
 40
0.0813871911807877
100
AcDbArc
 50
294.3154706089
 51
353.740042084
  0
LINE
  5
3E2
330
1F
100
AcDbEntity
  8
0
  6
Continuous
 62
     8
370
    25
100
AcDbLine
 10
12.0958718782
 20
2.43467137
 30
0.0
 11
12.0958715476
 21
2.446724209
 31
0.0
  0
LINE
  5
3E3
330
1F
100
AcDbEntity
  8
0
  6
Continuous
 62
     8
370
    25
100
AcDbLine
 10
11.5739060593
 20
2.6998275944
 30
0.0
 11
12.0645459724
 21
2.4165872015
 31
0.0
  0
LINE
  5
3E4
330
1F
100
AcDbEntity
  8
0
  6
Continuous
 62
     8
370
    25
100
AcDbLine
 10
10.2029080973
 20
1.0805701929
 30
0.0
 11
10.2098859338
 21
1.0765419737
 31
0.0
  0
LWPOLYLINE
  5
3E5
330
1F
100
AcDbEntity
  8
0
  6
Continuous
 62
     8
370
    25
100
AcDbPolyline
 90
        3
 70
   128
 43
0.0
 10
12.2280236963
 20
1.2573395621
 10
12.2315855535
 20
1.2593115874
 10
12.2350015717
 20
1.2613678038
  0
ARC
  5
3E6
330
1F
100
AcDbEntity
  8
0
  6
Continuous
 62
     7
370
    25
100
AcDbCircle
 10
6.4490757419
 20
6.0674879356
 30
0.0
 40
0.0393697635319621
100
AcDbArc
 50
180.0
 51
212.1807456242
  0
ARC
  5
3E7
330
1F
100
AcDbEntity
  8
0
  6
Continuous
 62
     7
370
    25
100
AcDbCircle
 10
6.4490757419
 20
6.4195519028
 30
0.0
 40
0.0393697635319625
100
AcDbArc
 50
147.8192543758
 51
180.0
  0
LINE
  5
3E8
330
1F
100
AcDbEntity
  8
0
  6
Continuous
 62
     7
370
    25
100
AcDbLine
 10
6.4157542698
 20
6.046519914
 30
0.0
 11
6.6852935381
 21
6.046519914
 31
0.0
  0
LINE
  5
3E9
330
1F
100
AcDbEntity
  8
0
  6
Continuous
 62
     7
370
    25
100
AcDbLine
 10
6.6852935381
 20
6.4405199258
 30
0.0
 11
6.4157542698
 21
6.4405199258
 31
0.0
  0
ARC
  5
3EA
330
1F
100
AcDbEntity
  8
0
  6
Continuous
 62
     7
370
    25
100
AcDbCircle
 10
6.8030884954
 20
6.1060199192
 30
0.0
 40
0.0200000000000005
100
AcDbArc
 50
270.0
 51
0.0
  0
ARC
  5
3EB
330
1F
100
AcDbEntity
  8
0
  6
Continuous
 62
     7
370
    25
100
AcDbCircle
 10
6.8030884954
 20
6.3810199192
 30
0.0
 40
0.0200000000000005
100
AcDbArc
 50
0.0
 51
90.0
  0
LINE
  5
3EC
330
1F
100
AcDbEntity
  8
0
  6
Continuous
 62
     7
370
    25
100
AcDbLine
 10
6.8030885007
 20
6.4010198955
 30
0.0
 11
6.7837187144
 21
6.4010198955
 31
0.0
  0
LINE
  5
3ED
330
1F
100
AcDbEntity
  8
0
  6
Continuous
 62
     7
370
    25
100
AcDbLine
 10
6.7837187144
 20
6.0860199077
 30
0.0
 11
6.8030885007
 21
6.0860199077
 31
0.0
  0
ARC
  5
3EE
330
1F
100
AcDbEntity
  8
0
  6
Continuous
 62
     7
370
    25
100
AcDbCircle
 10
6.8034037712
 20
6.6175274718
 30
0.0
 40
0.0196850393700787
100
AcDbArc
 50
0.0
 51
90.0
  0
LINE
  5
3EF
330
1F
100
AcDbEntity
  8
0
  6
Continuous
 62
     7
370
    25
100
AcDbLine
 10
6.803403757
 20
6.6372125403
 30
0.0
 11
6.7826371336
 21
6.6372125403
 31
0.0
  0
LINE
  5
3F0
330
1F
100
AcDbEntity
  8
0
  6
Continuous
 62
     7
370
    25
100
AcDbLine
 10
5.0908053078
 20
6.686665769
 30
0.0
 11
5.2089155634
 21
6.686665769
 31
0.0
  0
LINE
  5
3F1
330
1F
100
AcDbEntity
  8
0
  6
Continuous
 62
     7
370
    25
100
AcDbLine
 10
5.2089155634
 20
6.7358827204
 30
0.0
 11
5.2089155634
 21
6.686665769
 31
0.0
  0
LINE
  5
3F2
330
1F
100
AcDbEntity
  8
0
  6
Continuous
 62
     7
370
    25
100
AcDbLine
 10
4.6768880094
 20
6.7116040942
 30
0.0
 11
5.0120651374
 21
6.7146209927
 31
0.0
  0
LINE
  5
3F3
330
1F
100
AcDbEntity
  8
0
  6
Continuous
 62
     7
370
    25
100
AcDbLine
 10
5.0908053078
 20
6.5488582609
 30
0.0
 11
4.7167895351
 21
6.5457083373
 31
0.0
  0
LINE
  5
3F4
330
1F
100
AcDbEntity
  8
0
  6
Continuous
 62
     7
370
    25
100
AcDbLine
 10
5.0315926985
 20
6.7344631502
 30
0.0
 11
5.2089155634
 21
6.7358827204
 31
0.0
  0
LINE
  5
3F5
330
1F
100
AcDbEntity
  8
0
  6
Continuous
 62
     7
370
    25
100
AcDbLine
 10
5.0908053078
 20
6.5488582609
 30
0.0
 11
5.2679707278
 21
6.5488582609
 31
0.0
  0
LINE
  5
3F6
330
1F
100
AcDbEntity
  8
0
  6
Continuous
 62
     7
370
    25
100
AcDbLine
 10
5.0908053078
 20
6.5882317928
 30
0.0
 11
5.2679707278
 21
6.5882317928
 31
0.0
  0
ARC
  5
3F7
330
1F
100
AcDbEntity
  8
0
  6
Continuous
 62
     7
370
    25
100
AcDbCircle
 10
5.0317502279
 20
6.7147787608
 30
0.0
 40
0.0196850393700787
100
AcDbArc
 50
90.4586528207
 51
180.0
  0
ARC
  5
3F8
330
1F
100
AcDbEntity
  8
0
  6
Continuous
 62
     7
370
    25
100
AcDbCircle
 10
4.6774195193
 20
6.652551358
 30
0.0
 40
0.0590551181102366
100
AcDbArc
 50
90.5156937351
 51
180.0
  0
LINE
  5
3F9
330
1F
100
AcDbEntity
  8
0
  6
Continuous
 62
     7
370
    25
100
AcDbLine
 10
4.7167895351
 20
6.5457083373
 30
0.0
 11
4.7167895351
 21
5.0547213213
 31
0.0
  0
LINE
  5
3FA
330
1F
100
AcDbEntity
  8
0
  6
Continuous
 62
     7
370
    25
100
AcDbLine
 10
5.2679707278
 20
6.5882317928
 30
0.0
 11
5.2679707278
 21
6.5488582609
 31
0.0
  0
LINE
  5
3FB
330
1F
100
AcDbEntity
  8
0
  6
Continuous
 62
     7
370
    25
100
AcDbLine
 10
5.0908053078
 20
6.686665769
 30
0.0
 11
5.0908053078
 21
6.5882317928
 31
0.0
  0
LINE
  5
3FC
330
1F
100
AcDbEntity
  8
0
  6
Continuous
 62
     7
370
    25
100
AcDbLine
 10
4.6183644321
 20
6.6525513497
 30
0.0
 11
4.6183644321
 21
5.0547213213
 31
0.0
  0
LINE
  5
3FD
330
1F
100
AcDbEntity
  8
0
  6
Continuous
 62
     7
370
    25
100
AcDbLine
 10
5.0120651374
 20
6.7147788042
 30
0.0
 11
5.0120651374
 21
6.7146209927
 31
0.0
  0
LINE
  5
3FE
330
1F
100
AcDbEntity
  8
0
  6
Continuous
 62
     7
370
    25
100
AcDbLine
 10
5.2679707278
 20
6.5488582609
 30
0.0
 11
5.2679707278
 21
6.4602677044
 31
0.0
  0
LINE
  5
3FF
330
1F
100
AcDbEntity
  8
0
  6
Continuous
 62
     7
370
    25
100
AcDbLine
 10
5.2679707278
 20
6.1944961812
 30
0.0
 11
4.7167895351
 21
6.1944961812
 31
0.0
  0
LINE
  5
400
330
1F
100
AcDbEntity
  8
0
  6
Continuous
 62
     7
370
    25
100
AcDbLine
 10
5.2679707278
 20
6.4602677044
 30
0.0
 11
5.2679707278
 21
6.1944961812
 31
0.0
  0
LWPOLYLINE
  5
401
330
1F
100
AcDbEntity
  8
0
  6
Continuous
 62
     7
370
    25
100
AcDbPolyline
 90
        3
 70
   128
 43
0.0
 10
4.716798335
 20
4.2866871671
 10
4.6682104296
 20
4.2858390035
 10
4.6183644321
 20
4.2849689869
  0
LINE
  5
402
330
1F
100
AcDbEntity
  8
0
  6
Continuous
 62
     7
370
    25
100
AcDbLine
 10
4.716798335
 20
4.3341859384
 30
0.0
 11
4.716798335
 21
4.2866871671
 31
0.0
  0
LWPOLYLINE
  5
403
330
1F
100
AcDbEntity
  8
0
  6
Continuous
 62
     7
370
    25
100
AcDbPolyline
 90
        4
 70
   128
 43
0.0
 10
5.2089155634
 20
4.3427758858
 10
4.9129810687
 20
4.3376103455
 10
4.7479756415
 20
4.3347301387
 10
4.716798335
 20
4.3341859384
  0
LINE
  5
404
330
1F
100
AcDbEntity
  8
0
  6
Continuous
 62
     7
370
    25
100
AcDbLine
 10
5.0120651374
 20
4.1978628265
 30
0.0
 11
4.6768880094
 21
4.2008795783
 31
0.0
  0
LINE
  5
405
330
1F
100
AcDbEntity
  8
0
  6
Continuous
 62
     7
370
    25
100
AcDbLine
 10
5.2089155634
 20
4.1766010988
 30
0.0
 11
5.0315924052
 21
4.1780221357
 31
0.0
  0
ARC
  5
406
330
1F
100
AcDbEntity
  8
0
  6
Continuous
 62
     7
370
    25
100
AcDbCircle
 10
5.0317502279
 20
4.1977065223
 30
0.0
 40
0.0196850393700795
100
AcDbArc
 50
180.0
 51
269.5408355959
  0
ARC
  5
407
330
1F
100
AcDbEntity
  8
0
  6
Continuous
 62
     7
370
    25
100
AcDbCircle
 10
4.6774195193
 20
4.2599323418
 30
0.0
 40
0.059055118110237
100
AcDbArc
 50
180.0000000006
 51
269.4843062649
  0
LINE
  5
408
330
1F
100
AcDbEntity
  8
0
  6
Continuous
 62
     7
370
    25
100
AcDbLine
 10
5.2089155634
 20
4.3427758858
 30
0.0
 11
5.2089155634
 21
4.1766010988
 31
0.0
  0
LINE
  5
409
330
1F
100
AcDbEntity
  8
0
  6
Continuous
 62
     7
370
    25
100
AcDbLine
 10
4.6183644321
 20
4.2849689869
 30
0.0
 11
4.6183644321
 21
4.2599323228
 31
0.0
  0
LINE
  5
40A
330
1F
100
AcDbEntity
  8
0
  6
Continuous
 62
     7
370
    25
100
AcDbLine
 10
5.0120651374
 20
4.1978628265
 30
0.0
 11
5.0120651374
 21
4.1977064817
 31
0.0
  0
LWPOLYLINE
  5
40B
330
1F
100
AcDbEntity
  8
0
  6
Continuous
 62
     7
370
    25
100
AcDbPolyline
 90
        3
 70
   128
 43
0.0
 10
4.6183644321
 20
4.5802706222
 10
4.6682104296
 20
4.5794005323
 10
4.716798335
 20
4.5785524421
  0
LINE
  5
40C
330
1F
100
AcDbEntity
  8
0
  6
Continuous
 62
     7
370
    25
100
AcDbLine
 10
4.6183644321
 20
4.5802706222
 30
0.0
 11
4.6183644321
 21
4.2849689869
 31
0.0
  0
LINE
  5
40D
330
1F
100
AcDbEntity
  8
0
  6
Continuous
 62
     7
370
    25
100
AcDbLine
 10
4.716798335
 20
4.5310536708
 30
0.0
 11
4.716798335
 21
4.3341859384
 31
0.0
  0
LWPOLYLINE
  5
40E
330
1F
100
AcDbEntity
  8
0
  6
Continuous
 62
     7
370
    25
100
AcDbPolyline
 90
        4
 70
   128
 43
0.0
 10
4.716798335
 20
4.5310536708
 10
4.7479756415
 20
4.5305094704
 10
4.9403675257
 20
4.5271512092
 10
5.2089155634
 20
4.5224637234
  0
LINE
  5
40F
330
1F
100
AcDbEntity
  8
0
  6
Continuous
 62
     7
370
    25
100
AcDbLine
 10
5.2089155634
 20
4.5801800566
 30
0.0
 11
5.0908053078
 21
4.5801800566
 31
0.0
  0
LINE
  5
410
330
1F
100
AcDbEntity
  8
0
  6
Continuous
 62
     7
370
    25
100
AcDbLine
 10
4.716798335
 20
4.5785524421
 30
0.0
 11
4.716798335
 21
4.5310536708
 31
0.0
  0
LINE
  5
411
330
1F
100
AcDbEntity
  8
0
  6
Continuous
 62
     7
370
    25
100
AcDbLine
 10
5.2679707278
 20
4.6786139595
 30
0.0
 11
5.0908053078
 21
4.6786139595
 31
0.0
  0
LINE
  5
412
330
1F
100
AcDbEntity
  8
0
  6
Continuous
 62
     7
370
    25
100
AcDbLine
 10
4.7167895351
 20
4.7179875647
 30
0.0
 11
5.2679707278
 21
4.7179875647
 31
0.0
  0
LINE
  5
413
330
1F
100
AcDbEntity
  8
0
  6
Continuous
 62
     7
370
    25
100
AcDbLine
 10
5.2089155634
 20
4.5801800566
 30
0.0
 11
5.2089155634
 21
4.5224637234
 31
0.0
  0
LINE
  5
414
330
1F
100
AcDbEntity
  8
0
  6
Continuous
 62
     7
370
    25
100
AcDbLine
 10
4.7167895351
 20
5.0547213213
 30
0.0
 11
4.7167895351
 21
4.7179875647
 31
0.0
  0
LINE
  5
415
330
1F
100
AcDbEntity
  8
0
  6
Continuous
 62
     7
370
    25
100
AcDbLine
 10
5.2679707278
 20
4.7179875647
 30
0.0
 11
5.2679707278
 21
4.6786139595
 31
0.0
  0
LINE
  5
416
330
1F
100
AcDbEntity
  8
0
  6
Continuous
 62
     7
370
    25
100
AcDbLine
 10
5.0908053078
 20
4.6786139595
 30
0.0
 11
5.0908053078
 21
4.5801800566
 31
0.0
  0
LINE
  5
417
330
1F
100
AcDbEntity
  8
0
  6
Continuous
 62
     7
370
    25
100
AcDbLine
 10
4.6183644321
 20
5.0547213213
 30
0.0
 11
4.6183644321
 21
4.5802706222
 31
0.0
  0
LINE
  5
418
330
1F
100
AcDbEntity
  8
0
  6
Continuous
 62
     7
370
    25
100
AcDbLine
 10
5.2679707278
 20
6.1944961812
 30
0.0
 11
5.2679707278
 21
4.7179875647
 31
0.0
  0
LINE
  5
419
330
1F
100
AcDbEntity
  8
0
  6
Continuous
 62
     7
370
    25
100
AcDbLine
 10
6.6852935381
 20
6.6046422832
 30
0.0
 11
5.2089155634
 21
6.6046422832
 31
0.0
  0
LWPOLYLINE
  5
41A
330
1F
100
AcDbEntity
  8
0
  6
Continuous
 62
     7
370
    25
100
AcDbPolyline
 90
        5
 70
   128
 43
0.0
 10
5.2089155634
 20
6.6175317143
 10
5.4840408651
 20
6.6151302954
 10
5.7591660935
 20
6.6127281431
 10
6.2222297975
 20
6.6086846632
 10
6.6852935381
 20
6.6046422832
  0
LINE
  5
41B
330
1F
100
AcDbEntity
  8
0
  6
Continuous
 62
     7
370
    25
100
AcDbLine
 10
6.6852935381
 20
5.0547213213
 30
0.0
 11
6.6852935381
 21
6.6046422832
 31
0.0
  0
LINE
  5
41C
330
1F
100
AcDbEntity
  8
0
  6
Continuous
 62
     7
370
    25
100
AcDbLine
 10
5.1301754663
 20
6.617526361
 30
0.0
 11
5.2089155634
 21
6.617526361
 31
0.0
  0
LINE
  5
41D
330
1F
100
AcDbEntity
  8
0
  6
Continuous
 62
     7
370
    25
100
AcDbLine
 10
5.1301754663
 20
6.617526361
 30
0.0
 11
5.1301754663
 21
6.6568961529
 31
0.0
  0
LINE
  5
41E
330
1F
100
AcDbEntity
  8
0
  6
Continuous
 62
     7
370
    25
100
AcDbLine
 10
5.1301754663
 20
6.6568961529
 30
0.0
 11
5.2089155634
 21
6.6568961529
 31
0.0
  0
LINE
  5
41F
330
1F
100
AcDbEntity
  8
0
  6
Continuous
 62
     7
370
    25
100
AcDbLine
 10
5.2089155634
 20
6.6568961529
 30
0.0
 11
5.2089155634
 21
6.7356355899
 31
0.0
  0
LINE
  5
420
330
1F
100
AcDbEntity
  8
0
  6
Continuous
 62
     7
370
    25
100
AcDbLine
 10
5.2089155634
 20
6.7356355899
 30
0.0
 11
5.3862384283
 21
6.7342170463
 31
0.0
  0
ARC
  5
421
330
1F
100
AcDbEntity
  8
0
  6
Continuous
 62
     7
370
    25
100
AcDbCircle
 10
5.3860809366
 20
6.7145326784
 30
0.0
 40
0.0196850393700787
100
AcDbArc
 50
359.9999999997
 51
89.5416472116
  0
LINE
  5
422
330
1F
100
AcDbEntity
  8
0
  6
Continuous
 62
     7
370
    25
100
AcDbLine
 10
5.4057659893
 20
6.7142329172
 30
0.0
 11
5.4057659893
 21
6.7145327004
 31
0.0
  0
LINE
  5
423
330
1F
100
AcDbEntity
  8
0
  6
Continuous
 62
     7
370
    25
100
AcDbLine
 10
6.7056657061
 20
6.7028889682
 30
0.0
 11
5.4057659893
 21
6.7142329172
 31
0.0
  0
ARC
  5
424
330
1F
100
AcDbEntity
  8
0
  6
Continuous
 62
     7
370
    25
100
AcDbCircle
 10
6.7049785744
 20
6.6241517826
 30
0.0
 40
0.0787401574803148
100
AcDbArc
 50
0.0
 51
89.5000037334
  0
LINE
  5
425
330
1F
100
AcDbEntity
  8
0
  6
Continuous
 62
     7
370
    25
100
AcDbLine
 10
6.7837187144
 20
5.0547213213
 30
0.0
 11
6.7837187144
 21
6.6241518045
 31
0.0
  0
LINE
  5
426
330
1F
100
AcDbEntity
  8
0
  6
Continuous
 62
     7
370
    25
100
AcDbLine
 10
6.4157542698
 20
6.046519914
 30
0.0
 11
6.4157542698
 21
6.4405199258
 31
0.0
  0
LINE
  5
427
330
1F
100
AcDbEntity
  8
0
  6
Continuous
 62
     7
370
    25
100
AcDbLine
 10
6.4097059782
 20
6.4195518947
 30
0.0
 11
6.4097059782
 21
6.0674879451
 31
0.0
  0
LINE
  5
428
330
1F
100
AcDbEntity
  8
0
  6
Continuous
 62
     7
370
    25
100
AcDbLine
 10
6.8230885063
 20
6.3810199265
 30
0.0
 11
6.8230885063
 21
6.10601995
 31
0.0
  0
LINE
  5
429
330
1F
100
AcDbEntity
  8
0
  6
Continuous
 62
     7
370
    25
100
AcDbLine
 10
6.6852935381
 20
4.6490342745
 30
0.0
 11
5.2089155634
 21
4.6490342745
 31
0.0
  0
LINE
  5
42A
330
1F
100
AcDbEntity
  8
0
  6
Continuous
 62
     7
370
    25
100
AcDbLine
 10
5.1301754663
 20
6.5978415018
 30
0.0
 11
5.1301754663
 21
6.617526361
 31
0.0
  0
LINE
  5
42B
330
1F
100
AcDbEntity
  8
0
  6
Continuous
 62
     7
370
    25
100
AcDbLine
 10
5.1301754663
 20
6.5882317928
 30
0.0
 11
5.1301754663
 21
6.5978415018
 31
0.0
  0
LINE
  5
42C
330
1F
100
AcDbEntity
  8
0
  6
Continuous
 62
     7
370
    25
100
AcDbLine
 10
6.8230887996
 20
6.4797321995
 30
0.0
 11
6.8230887996
 21
6.617527461
 31
0.0
  0
LINE
  5
42D
330
1F
100
AcDbEntity
  8
0
  6
Continuous
 62
     7
370
    25
100
AcDbLine
 10
6.8230887996
 20
6.3829421176
 30
0.0
 11
6.8230887996
 21
6.4797321995
 31
0.0
  0
LINE
  5
42E
330
1F
100
AcDbEntity
  8
0
  6
Continuous
 62
     7
370
    25
100
AcDbLine
 10
6.7837187144
 20
4.58998483
 30
0.0
 11
6.803403757
 21
4.58998483
 31
0.0
  0
LINE
  5
42F
330
1F
100
AcDbEntity
  8
0
  6
Continuous
 62
     7
370
    25
100
AcDbLine
 10
6.803403757
 20
4.2750241485
 30
0.0
 11
6.782627967
 21
4.2750241485
 31
0.0
  0
ARC
  5
430
330
1F
100
AcDbEntity
  8
0
  6
Continuous
 62
     7
370
    25
100
AcDbCircle
 10
6.8034037712
 20
4.5702997681
 30
0.0
 40
0.0196850393700787
100
AcDbArc
 50
0.0
 51
90.0
  0
LINE
  5
431
330
1F
100
AcDbEntity
  8
0
  6
Continuous
 62
     7
370
    25
100
AcDbLine
 10
6.8230887996
 20
4.5112446596
 30
0.0
 11
6.8230887996
 21
4.5702997508
 31
0.0
  0
LINE
  5
432
330
1F
100
AcDbEntity
  8
0
  6
Continuous
 62
     7
370
    25
100
AcDbLine
 10
5.5238762449
 20
4.5112446596
 30
0.0
 11
6.8230887996
 21
4.5112446596
 31
0.0
  0
LINE
  5
433
330
1F
100
AcDbEntity
  8
0
  6
Continuous
 62
     7
370
    25
100
AcDbLine
 10
5.5238762449
 20
4.5112446596
 30
0.0
 11
5.5238762449
 21
4.3537643189
 31
0.0
  0
LINE
  5
434
330
1F
100
AcDbEntity
  8
0
  6
Continuous
 62
     7
370
    25
100
AcDbLine
 10
6.8230887996
 20
4.3537643189
 30
0.0
 11
5.5238762449
 21
4.3537643189
 31
0.0
  0
LINE
  5
435
330
1F
100
AcDbEntity
  8
0
  6
Continuous
 62
     7
370
    25
100
AcDbLine
 10
6.8230887996
 20
4.2947092277
 30
0.0
 11
6.8230887996
 21
4.3537643189
 31
0.0
  0
ARC
  5
436
330
1F
100
AcDbEntity
  8
0
  6
Continuous
 62
     7
370
    25
100
AcDbCircle
 10
6.8034037712
 20
4.2947092169
 30
0.0
 40
0.0196850393700787
100
AcDbArc
 50
270.0
 51
360.0
  0
ARC
  5
437
330
1F
100
AcDbEntity
  8
0
  6
Continuous
 62
     7
370
    25
100
AcDbCircle
 10
6.7049785744
 20
4.2880849061
 30
0.0
 40
0.0787401574803148
100
AcDbArc
 50
270.4999962666
 51
350.4521489754
  0
LINE
  5
438
330
1F
100
AcDbEntity
  8
0
  6
Continuous
 62
     7
370
    25
100
AcDbLine
 10
5.4057659893
 20
4.1980037716
 30
0.0
 11
6.7056657061
 21
4.2093477205
 31
0.0
  0
ARC
  5
439
330
1F
100
AcDbEntity
  8
0
  6
Continuous
 62
     7
370
    25
100
AcDbCircle
 10
5.3860809366
 20
4.1977040103
 30
0.0
 40
0.0196850393700798
100
AcDbArc
 50
270.4583527884
 51
359.9999999997
  0
LINE
  5
43A
330
1F
100
AcDbEntity
  8
0
  6
Continuous
 62
     7
370
    25
100
AcDbLine
 10
5.3862384283
 20
4.1780196424
 30
0.0
 11
5.2089155634
 21
4.1766010988
 31
0.0
  0
LINE
  5
43B
330
1F
100
AcDbEntity
  8
0
  6
Continuous
 62
     7
370
    25
100
AcDbLine
 10
5.4451360745
 20
4.3644139558
 30
0.0
 11
5.2089155634
 21
4.3644139558
 31
0.0
  0
LINE
  5
43C
330
1F
100
AcDbEntity
  8
0
  6
Continuous
 62
     7
370
    25
100
AcDbLine
 10
5.4451360745
 20
4.3644139558
 30
0.0
 11
5.4451360745
 21
4.5005950227
 31
0.0
  0
LINE
  5
43D
330
1F
100
AcDbEntity
  8
0
  6
Continuous
 62
     7
370
    25
100
AcDbLine
 10
5.2089155634
 20
4.5005950227
 30
0.0
 11
5.4451360745
 21
4.5005950227
 31
0.0
  0
LINE
  5
43E
330
1F
100
AcDbEntity
  8
0
  6
Continuous
 62
     7
370
    25
100
AcDbLine
 10
5.2089155634
 20
4.6096684426
 30
0.0
 11
5.1301754663
 21
4.6096684426
 31
0.0
  0
LINE
  5
43F
330
1F
100
AcDbEntity
  8
0
  6
Continuous
 62
     7
370
    25
100
AcDbLine
 10
5.2089155634
 20
4.6490381612
 30
0.0
 11
5.1301754663
 21
4.6490381612
 31
0.0
  0
LINE
  5
440
330
1F
100
AcDbEntity
  8
0
  6
Continuous
 62
     7
370
    25
100
AcDbLine
 10
5.1301754663
 20
4.6096684426
 30
0.0
 11
5.1301754663
 21
4.6490381612
 31
0.0
  0
LINE
  5
441
330
1F
100
AcDbEntity
  8
0
  6
Continuous
 62
     7
370
    25
100
AcDbLine
 10
5.2089155634
 20
4.5005950227
 30
0.0
 11
5.2089155634
 21
4.6096684426
 31
0.0
  0
LINE
  5
442
330
1F
100
AcDbEntity
  8
0
  6
Continuous
 62
     7
370
    25
100
AcDbLine
 10
5.2089155634
 20
4.1766010988
 30
0.0
 11
5.2089155634
 21
4.3644139558
 31
0.0
  0
LINE
  5
443
330
1F
100
AcDbEntity
  8
0
  6
Continuous
 62
     7
370
    25
100
AcDbLine
 10
6.6852935381
 20
4.6490342745
 30
0.0
 11
6.6852935381
 21
5.0547213213
 31
0.0
  0
LINE
  5
444
330
1F
100
AcDbEntity
  8
0
  6
Continuous
 62
     7
370
    25
100
AcDbLine
 10
6.7837187144
 20
4.58998483
 30
0.0
 11
6.7837187144
 21
5.0547213213
 31
0.0
  0
LINE
  5
445
330
1F
100
AcDbEntity
  8
0
  6
Continuous
 62
     7
370
    25
100
AcDbLine
 10
5.4057659893
 20
4.1977039883
 30
0.0
 11
5.4057659893
 21
4.1980037716
 31
0.0
  0
LINE
  5
446
330
1F
100
AcDbEntity
  8
0
  6
Continuous
 62
     7
370
    25
100
AcDbLine
 10
6.8230887996
 20
4.3537643189
 30
0.0
 11
6.8230887996
 21
4.5112446596
 31
0.0
  0
LINE
  5
447
330
1F
100
AcDbEntity
  8
0
  6
Continuous
 62
     7
370
    25
100
AcDbLine
 10
5.2089155634
 20
4.3644139558
 30
0.0
 11
5.2089155634
 21
4.5005950227
 31
0.0
  0
LINE
  5
448
330
1F
100
AcDbEntity
  8
0
  6
Continuous
 62
     7
370
    25
100
AcDbLine
 10
5.1301754663
 20
4.6490381612
 30
0.0
 11
5.1301754663
 21
4.6687230938
 31
0.0
  0
LINE
  5
449
330
1F
100
AcDbEntity
  8
0
  6
Continuous
 62
     7
370
    25
100
AcDbLine
 10
5.1301754663
 20
4.6687230938
 30
0.0
 11
5.1301754663
 21
4.6786139595
 31
0.0
  0
LINE
  5
44A
330
1F
100
AcDbEntity
  8
0
  6
CENTERX2
 62
     7
370
    18
100
AcDbLine
 10
5.2679707004
 20
5.4562418499
 30
0.0
 11
6.7837187319
 21
5.4562418499
 31
0.0
  0
LINE
  5
44B
330
1F
100
AcDbEntity
  8
0
  6
CENTERX2
 62
     7
370
    18
100
AcDbLine
 10
5.2679707004
 20
5.4562418499
 30
0.0
 11
4.6183644012
 21
5.4562418499
 31
0.0
  0
HATCH
  5
44C
330
1F
100
AcDbEntity
  8
0
  6
Continuous
 62
     7
370
    18
100
AcDbHatch
 10
0.0
 20
0.0
 30
0.0
210
0.0
220
0.0
230
1.0
  2
ANSI31
 70
     0
 71
     0
 91
        1
 92
        0
 93
       13
 72
     1
 10
6.685293535028856
 20
5.05472130364988
 11
6.783718731879247
 21
5.05472130364988
 72
     1
 10
6.783718731879247
 20
5.05472130364988
 11
6.783718731879247
 21
6.624151782626402
 72
     2
 10
6.704978574398933
 20
6.624151782626402
 40
0.078740157480315
 50
0.0
 51
89.50000373335833
 73
     1
 72
     1
 10
6.705665698047866
 20
6.702888941967565
 11
5.405765975973736
 21
6.714232910276215
 72
     1
 10
5.405765975973736
 20
6.714232910276215
 11
5.405765975973736
 21
6.714532678405176
 72
     2
 10
5.386080936603657
 20
6.714532678405271
 40
0.0196850393700787
 50
359.9999999997242
 51
449.5416472115713
 73
     1
 72
     1
 10
5.38623841061878
 20
6.734217087894408
 11
5.208915582272948
 21
6.735635659163554
 72
     1
 10
5.208915582272948
 20
6.735635659163554
 11
5.208915582272948
 21
6.656896132099398
 72
     1
 10
5.208915582272948
 20
6.656896132099398
 11
5.130175424792633
 21
6.656896132099573
 72
     1
 10
5.130175424792633
 20
6.656896132099573
 11
5.130175424792633
 21
6.617526368567258
 72
     1
 10
5.130175424792633
 20
6.617526368567258
 11
5.208915582272948
 21
6.617526368567258
 72
     4
 94
        3
 73
     1
 74
     0
 95
       14
 96
       10
 40
0.0
 40
0.0
 40
0.0
 40
0.0
 40
0.0139768949288566
 40
0.0139768949288566
 40
0.0139768949288566
 40
0.0257391620142043
 40
0.0257391620142043
 40
0.0257391620142043
 40
0.0375014290996023
 40
0.0375014290996023
 40
0.0375014290996023
 40
0.0375014290996023
 10
5.208915582272948
 20
6.617526368567258
 42
1.0
 10
5.392332416093335
 20
6.615931058627593
 42
1.0
 10
5.575749243602982
 20
6.614329689446973
 42
1.0
 10
5.759166069426869
 20
6.612728127340838
 42
1.0
 10
5.913520645623722
 20
6.611380331471866
 42
1.0
 10
6.067875220629642
 20
6.61003239921312
 42
1.0
 10
6.222229797275308
 20
6.608684654744798
 42
1.0
 10
6.376584373921365
 20
6.607336910276473
 42
1.0
 10
6.530938952207772
 20
6.60598935358759
 42
1.0
 10
6.685293535028854
 20
6.604642316518595
 42
1.0
 72
     1
 10
6.685293535028854
 20
6.604642316518585
 11
6.685293535028856
 21
5.05472130364988
 97
        0
 75
     0
 76
     1
 52
0.0
 41
0.75
 77
     0
 78
     1
 53
45.0
 43
0.0
 44
0.0
 45
-0.0662912607362388
 46
0.0662912607362388
 79
     0
 98
        1
 10
0.0
 20
0.0
  0
HATCH
  5
44D
330
1F
100
AcDbEntity
  8
0
  6
Continuous
 62
     7
370
    18
100
AcDbHatch
 10
0.0
 20
0.0
 30
0.0
210
0.0
220
0.0
230
1.0
  2
ANSI31
 70
     0
 71
     0
 91
        1
 92
        0
 93
       26
 72
     1
 10
6.80340377124933
 20
4.589984807496307
 11
6.783718731879252
 21
4.589984807496307
 72
     1
 10
6.783718731879252
 20
4.589984807496307
 11
6.783718731879252
 21
5.05472130364988
 72
     1
 10
6.783718731879252
 20
5.05472130364988
 11
6.685293535028857
 21
5.05472130364988
 72
     1
 10
6.685293535028857
 20
5.05472130364988
 11
6.685293535028857
 21
4.64903426527875
 72
     1
 10
6.685293535028856
 20
4.64903426527875
 11
5.208915582272925
 21
4.649034265278558
 72
     1
 10
5.208915582272925
 20
4.649034265278558
 11
5.130175424792637
 21
4.649038191962132
 72
     1
 10
5.130175424792637
 20
4.649038191962132
 11
5.130175424792637
 21
4.609668428429942
 72
     1
 10
5.130175424792637
 20
4.609668428429942
 11
5.208915582272953
 21
4.609668428430019
 72
     1
 10
5.208915582272953
 20
4.609668428430019
 11
5.208915582272953
 21
4.50059504371678
 72
     1
 10
5.208915582272953
 20
4.50059504371678
 11
5.445136054713897
 21
4.50059504371678
 72
     1
 10
5.445136054713897
 20
4.50059504371678
 11
5.445136054713897
 21
4.364413941354575
 72
     1
 10
5.445136054713897
 20
4.364413941354575
 11
5.208915582272953
 21
4.364413941354575
 72
     1
 10
5.208915582272953
 20
4.364413941354575
 11
5.208915582272953
 21
4.176601029577002
 72
     1
 10
5.208915582272953
 20
4.176601029577002
 11
5.386238410618787
 21
4.17801960084635
 72
     2
 10
5.386080936603661
 20
4.197704010335491
 40
0.0196850393700787
 50
270.4583527884407
 51
359.9999999997449
 73
     1
 72
     1
 10
5.40576597597374
 20
4.197704010335403
 11
5.40576597597374
 21
4.198003778464726
 72
     1
 10
5.40576597597374
 20
4.198003778464726
 11
6.705665698047855
 21
4.209347746772924
 72
     2
 10
6.704978574398937
 20
4.288084906114086
 40
0.078740157480315
 50
270.4999962666309
 51
350.4521489754479
 73
     1
 72
     1
 10
6.782627977294609
 20
4.275024177575048
 11
6.80340377124933
 21
4.275024177575048
 72
     2
 10
6.80340377124933
 20
4.294709216945126
 40
0.0196850393700787
 50
270.0000000000034
 51
360.0000000000008
 73
     1
 72
     1
 10
6.823088810619409
 20
4.294709216945126
 11
6.823088810619409
 21
4.353764335055362
 72
     1
 10
6.823088810619409
 20
4.353764335055362
 11
5.523876212194213
 21
4.353764335055362
 72
     1
 10
5.523876212194213
 20
4.353764335055362
 11
5.523876212194213
 21
4.511244650015992
 72
     1
 10
5.523876212194213
 20
4.511244650015992
 11
6.823088810619409
 21
4.511244650015993
 72
     1
 10
6.823088810619409
 20
4.511244650015993
 11
6.823088810619409
 21
4.570299768126228
 72
     2
 10
6.80340377124933
 20
4.570299768126228
 40
0.0196850393700787
 50
0.0
 51
90.0
 73
     1
 97
        0
 75
     0
 76
     1
 52
0.0
 41
0.75
 77
     0
 78
     1
 53
45.0
 43
0.0
 44
0.0
 45
-0.0662912607362388
 46
0.0662912607362388
 79
     0
 98
        1
 10
0.0
 20
0.0
  0
HATCH
  5
44E
330
1F
100
AcDbEntity
  8
0
  6
Continuous
 62
     7
370
    18
100
AcDbHatch
 10
0.0
 20
0.0
 30
0.0
210
0.0
220
0.0
230
1.0
  2
ANSI31
 70
     0
 71
     0
 91
        1
 92
        0
 93
       10
 72
     1
 10
5.031592475090274
 20
4.178022115084559
 11
5.208915582272954
 21
4.176601029576929
 72
     1
 10
5.208915582272954
 20
4.176601029576929
 11
5.208915582272416
 21
4.342775888920833
 72
     4
 94
        3
 73
     1
 74
     0
 95
       14
 96
       10
 40
0.0127278354408947
 40
0.0127278354408947
 40
0.0127278354408947
 40
0.0127278354408947
 40
0.0202457183850711
 40
0.0202457183850711
 40
0.0202457183850711
 40
0.0244374923253328
 40
0.0244374923253328
 40
0.0244374923253328
 40
0.0252295182147872
 40
0.0252295182147872
 40
0.0252295182147872
 40
0.0252295182147872
 10
5.208915582272416
 20
4.342775888920833
 42
1.0
 10
5.110270727511939
 20
4.341054035491725
 42
1.0
 10
5.011625872750376
 20
4.339332182124765
 42
1.0
 10
4.912981017987898
 20
4.337610328810339
 42
1.0
 10
4.857979239614298
 20
4.336650268656974
 42
1.0
 10
4.802977461240413
 20
4.335690208519981
 42
1.0
 10
4.747975682866267
 20
4.334730148397957
 42
1.0
 10
4.737583225386644
 20
4.334548747281649
 42
1.0
 10
4.727190767907012
 20
4.334367346165875
 42
1.0
 10
4.716798310427372
 20
4.334185945050627
 42
1.0
 72
     1
 10
4.716798310427372
 20
4.334185945050627
 11
4.716798310427371
 21
4.286687143889289
 72
     4
 94
        3
 73
     1
 74
     0
 95
       11
 96
        7
 40
0.0060942446064113
 40
0.0060942446064113
 40
0.0060942446064113
 40
0.0060942446064113
 40
0.0073285634352889
 40
0.0073285634352889
 40
0.0073285634352889
 40
0.0085948467555326
 40
0.0085948467555326
 40
0.0085948467555326
 40
0.0085948467555326
 10
4.716798310427371
 20
4.286687143889289
 42
1.0
 10
4.700602367697033
 20
4.286404442589877
 42
1.0
 10
4.684406424966689
 20
4.286121741290859
 42
1.0
 10
4.668210482236336
 20
4.285839039992224
 42
1.0
 10
4.651595121881093
 20
4.285549017729989
 42
1.0
 10
4.634979761525842
 20
4.285258995468158
 42
1.0
 10
4.618364401170584
 20
4.284968973206727
 42
1.0
 72
     1
 10
4.618364401170584
 20
4.284968973206727
 11
4.618364401170592
 21
4.259932341816999
 72
     2
 10
4.677419519280829
 20
4.259932341817567
 40
0.0590551181102362
 50
180.0000000005523
 51
269.4843062649265
 73
     1
 72
     1
 10
4.676887997700886
 20
4.200879615717716
 11
5.012065188572167
 21
4.197862753976675
 72
     1
 10
5.012065188572167
 20
4.197862753976675
 11
5.012065188572167
 21
4.197706522341047
 72
     2
 10
5.031750227942246
 20
4.197706522341047
 40
0.0196850393700787
 50
180.0
 51
269.5408355958827
 73
     1
 97
        0
 75
     0
 76
     1
 52
0.0
 41
0.75
 77
     0
 78
     1
 53
45.0
 43
0.0
 44
0.0
 45
-0.0662912607362388
 46
0.0662912607362388
 79
     0
 98
        1
 10
0.0
 20
0.0
  0
HATCH
  5
44F
330
1F
100
AcDbEntity
  8
0
  6
Continuous
 62
     7
370
    18
100
AcDbHatch
 10
0.0
 20
0.0
 30
0.0
210
0.0
220
0.0
230
1.0
  2
ANSI31
 70
     0
 71
     0
 91
        1
 92
        0
 93
       12
 72
     1
 10
4.716789598020985
 20
4.71798753048363
 11
4.716789598020985
 21
5.054721303649907
 72
     1
 10
4.716789598020985
 20
5.054721303649907
 11
4.618364401170591
 21
5.054721303649906
 72
     1
 10
4.618364401170591
 20
5.054721303649906
 11
4.618364401170583
 21
4.580270632110265
 72
     4
 94
        3
 73
     1
 74
     0
 95
       11
 96
        7
 40
0.0060622801150454
 40
0.0060622801150454
 40
0.0060622801150454
 40
0.0060622801150454
 40
0.0073285634352889
 40
0.0073285634352889
 40
0.0073285634352889
 40
0.0085628822641663
 40
0.0085628822641663
 40
0.0085628822641663
 40
0.0085628822641663
 10
4.618364401170583
 20
4.580270632110265
 42
1.0
 10
4.634979761525839
 20
4.579980609848834
 42
1.0
 10
4.65159512188109
 20
4.579690587587007
 42
1.0
 10
4.668210482236332
 20
4.579400565324772
 42
1.0
 10
4.68440642496668
 20
4.579117864026141
 42
1.0
 10
4.70060236769702
 20
4.578835162727123
 42
1.0
 10
4.716798310427354
 20
4.578552461427714
 42
1.0
 72
     1
 10
4.716798310427354
 20
4.578552461427714
 11
4.716798310427359
 21
4.531053660266372
 72
     4
 94
        3
 73
     1
 74
     0
 95
       14
 96
       10
 40
0.0236454664358781
 40
0.0236454664358781
 40
0.0236454664358781
 40
0.0236454664358781
 40
0.0244374923253327
 40
0.0244374923253327
 40
0.0244374923253327
 40
0.0293249907903993
 40
0.0293249907903993
 40
0.0293249907903993
 40
0.0361471492097705
 40
0.0361471492097705
 40
0.0361471492097705
 40
0.0361471492097705
 10
4.716798310427359
 20
4.531053660266372
 42
1.0
 10
4.727190767907003
 20
4.530872259151126
 42
1.0
 10
4.737583225386638
 20
4.530690858035354
 42
1.0
 10
4.747975682866264
 20
4.530509456919046
 42
1.0
 10
4.812106313766362
 20
4.529390051998932
 42
1.0
 10
4.876236944666106
 20
4.528270647058475
 42
1.0
 10
4.940367575565455
 20
4.527151242095429
 42
1.0
 10
5.029883577801915
 20
4.525588733575391
 42
1.0
 10
5.119399580037608
 20
4.524026225011409
 42
1.0
 10
5.208915582272406
 20
4.522463716396222
 42
1.0
 72
     1
 10
5.208915582272406
 20
4.522463716396223
 11
5.208915582272953
 21
4.580180057525725
 72
     1
 10
5.208915582272953
 20
4.580180057525725
 11
5.090805346052481
 21
4.580180057525837
 72
     1
 10
5.090805346052481
 20
4.580180057525837
 11
5.09080534605248
 21
4.678613966781488
 72
     1
 10
5.09080534605248
 20
4.678613966781488
 11
5.26797070038319
 21
4.678613966781613
 72
     1
 10
5.26797070038319
 20
4.678613966781613
 11
5.26797070038319
 21
4.717987530484054
 72
     1
 10
5.26797070038319
 20
4.717987530484054
 11
4.716789598020985
 21
4.71798753048363
 97
        0
 75
     0
 76
     1
 52
0.0
 41
0.75
 77
     0
 78
     1
 53
45.0
 43
0.0
 44
0.0
 45
-0.0662912607362388
 46
0.0662912607362388
 79
     0
 98
        1
 10
0.0
 20
0.0
  0
HATCH
  5
450
330
1F
100
AcDbEntity
  8
0
  6
Continuous
 62
     7
370
    18
100
AcDbHatch
 10
0.0
 20
0.0
 30
0.0
210
0.0
220
0.0
230
1.0
  2
ANSI31
 70
     0
 71
     0
 91
        1
 92
        0
 93
       15
 72
     1
 10
4.716789598020981
 20
5.05472130364988
 11
4.716789598020978
 21
6.545708357545665
 72
     1
 10
4.716789598020978
 20
6.545708357545665
 11
5.090805346052474
 21
6.54885824264217
 72
     1
 10
5.090805346052474
 20
6.54885824264217
 11
5.267970700383183
 21
6.548858242642485
 72
     1
 10
5.267970700383183
 20
6.548858242642485
 11
5.267970700383183
 21
6.58823180634445
 72
     1
 10
5.267970700383183
 20
6.58823180634445
 11
5.090805346052474
 21
6.588231806344477
 72
     1
 10
5.090805346052474
 20
6.588231806344477
 11
5.090805346052475
 21
6.686665715600252
 72
     1
 10
5.090805346052475
 20
6.686665715600252
 11
5.208915582272946
 21
6.686665715600252
 72
     1
 10
5.208915582272946
 20
6.686665715600252
 11
5.208915582272946
 21
6.735882670228214
 72
     1
 10
5.208915582272946
 20
6.735882670228214
 11
5.031592650848687
 21
6.734463169514205
 72
     2
 10
5.031750227942238
 20
6.714778760849957
 40
0.0196850393700787
 50
90.45865282074888
 51
180.0
 73
     1
 72
     1
 10
5.012065188572159
 20
6.714778760849957
 11
5.012065188572159
 21
6.714620945828893
 72
     1
 10
5.012065188572159
 20
6.714620945828893
 11
4.676887997700833
 21
6.711604084087972
 72
     2
 10
4.677419519280821
 20
6.652551357988122
 40
0.0590551181102362
 50
90.51569373511833
 51
179.9999999999578
 73
     1
 72
     1
 10
4.618364401170584
 20
6.652551357988165
 11
4.618364401170587
 21
5.05472130364988
 72
     1
 10
4.618364401170587
 20
5.05472130364988
 11
4.716789598020981
 21
5.05472130364988
 97
        0
 75
     0
 76
     1
 52
0.0
 41
0.75
 77
     0
 78
     1
 53
45.0
 43
0.0
 44
0.0
 45
-0.0662912607362388
 46
0.0662912607362388
 79
     0
 98
        1
 10
0.0
 20
0.0
  0
DIMENSION
  5
451
330
1F
100
AcDbEntity
  8
0
  6
Continuous
 62
     7
370
    18
100
AcDbDimension
  2
_D_11
 10
4.6183644012
 20
5.2170519684
 30
0.0
 11
4.1453747943
 21
5.2170519684
 31
0.0
 70
   160
  1
<>
 71
     2
 42
-1.0
  3
SLDDIMSTYLE5
100
AcDbAlignedDimension
 13
4.716789598
 23
4.7179875305
 33
0.0
 14
4.6183644012
 24
4.5802706321
 34
0.0
100
AcDbRotatedDimension
  0
DIMENSION
  5
464
330
1F
100
AcDbEntity
  8
0
  6
Continuous
 62
     7
370
    18
100
AcDbDimension
  2
_D_12
 10
6.685293535
 20
5.2170519684
 30
0.0
 11
5.7010415665
 21
5.2170519684
 31
0.0
 70
   160
  1
<>
 71
     2
 42
-1.0
  3
SLDDIMSTYLE0
100
AcDbAlignedDimension
 13
4.716789598
 23
4.7179875305
 33
0.0
 14
6.685293535
 24
4.6490342653
 34
0.0
 50
0.0
100
AcDbRotatedDimension
  0
DIMENSION
  5
476
330
1F
100
AcDbEntity
  8
0
  6
Continuous
 62
     7
370
    18
100
AcDbDimension
  2
_D_13
 10
6.7837187319
 20
5.2170519684
 30
0.0
 11
7.2185184377
 21
5.2170519684
 31
0.0
 70
   160
  1
<>
 71
     2
 42
-1.0
  3
SLDDIMSTYLE5
100
AcDbAlignedDimension
 13
6.685293535
 23
4.6490342653
 33
0.0
 14
6.7837187319
 24
4.5899848075
 34
0.0
100
AcDbRotatedDimension
  0
DIMENSION
  5
488
330
1F
100
AcDbEntity
  8
0
  6
Continuous
 62
     7
370
    18
100
AcDbDimension
  2
_D_14
 10
6.685293535
 20
5.8505806065
 30
0.0
 11
7.2185184377
 21
5.8505806065
 31
0.0
 70
   160
  1
<>
 71
     2
 42
-1.0
  3
SLDDIMSTYLE0
100
AcDbAlignedDimension
 13
6.4097059783
 23
6.0674879343
 33
0.0
 14
6.685293535
 24
6.6046423165
 34
0.0
 50
0.0
100
AcDbRotatedDimension
  0
MTEXT
  5
49B
330
1F
100
AcDbEntity
  8
0
  6
Continuous
 62
     7
370
    18
100
AcDbMText
 10
5.7163284148
 20
3.9154337197
 30
0.0
 40
0.09375
 41
0.0
 71
     2
 72
     1
  1
SECTION A-A
  7
SLDTEXTSTYLE0
 73
     1
 44
1.0
  0
LINE
  5
49C
330
1F
100
AcDbEntity
  8
0
  6
CENTERX2
 62
     7
370
    18
100
AcDbLine
 10
5.3363762122
 20
4.4325044925
 30
0.0
 11
6.8815603972
 21
4.4325044925
 31
0.0
  0
LINE
  5
49D
330
1F
100
AcDbEntity
  8
0
  6
CENTERX2
 62
     7
370
    18
100
AcDbLine
 10
4.5383278876
 20
4.4326198027
 30
0.0
 11
5.2619123861
 21
4.4326198027
 31
0.0
  0
LINE
  5
49E
330
1F
100
AcDbEntity
  8
0
  6
CENTERX2
 62
     7
370
    18
100
AcDbLine
 10
6.872793535
 20
6.2435199192
 30
0.0
 11
6.2282542688
 21
6.2435199192
 31
0.0
  0
ENDSEC
  0
SECTION
  2
OBJECTS
  0
DICTIONARY
  5
C
330
0
100
AcDbDictionary
281
     1
  3
ACAD_GROUP
350
D
  3
ACAD_LAYOUT
350
1A
  3
ACAD_MLINESTYLE
350
17
  3
ACAD_PLOTSETTINGS
350
19
  3
ACAD_PLOTSTYLENAME
350
E
  3
ACAD_SCALELIST
350
47
  0
DICTIONARY
  5
D
102
{ACAD_REACTORS
330
C
102
}
330
C
100
AcDbDictionary
281
     1
  0
DICTIONARY
  5
1A
102
{ACAD_REACTORS
330
C
102
}
330
C
100
AcDbDictionary
281
     1
  3
Layout1
350
1E
  3
Layout2
350
26
  3
Model
350
22
  0
DICTIONARY
  5
17
102
{ACAD_REACTORS
330
C
102
}
330
C
100
AcDbDictionary
281
     1
  3
Standard
350
18
  0
DICTIONARY
  5
19
102
{ACAD_REACTORS
330
C
102
}
330
C
100
AcDbDictionary
281
     1
  0
ACDBDICTIONARYWDFLT
  5
E
102
{ACAD_REACTORS
330
C
102
}
330
C
100
AcDbDictionary
281
     1
  3
Normal
350
F
100
AcDbDictionaryWithDefault
340
F
  0
DICTIONARY
  5
47
102
{ACAD_REACTORS
330
C
102
}
330
C
100
AcDbDictionary
281
     1
  3
A0
350
48
  3
A1
350
49
  3
A2
350
4A
  3
A3
350
4B
  3
A4
350
4C
  3
A5
350
4D
  3
A6
350
4E
  3
A7
350
4F
  3
A8
350
50
  3
A9
350
51
  3
B0
350
52
  3
B1
350
53
  3
B2
350
54
  3
B3
350
55
  3
B4
350
56
  3
B5
350
57
  3
B6
350
58
  3
B7
350
59
  3
B8
350
5A
  3
B9
350
5B
  3
C0
350
5C
  3
C1
350
5D
  3
C2
350
5E
  3
C3
350
5F
  3
C4
350
60
  3
C5
350
61
  3
C6
350
62
  3
C7
350
63
  3
C8
350
64
  3
C9
350
65
  3
D0
350
66
  3
D1
350
67
  3
D2
350
68
  0
LAYOUT
  5
1E
102
{ACAD_REACTORS
330
1A
102
}
330
1A
100
AcDbPlotSettings
  1

  2
none_device
  4

  6

 40
0.0
 41
0.0
 42
0.0
 43
0.0
 44
0.0
 45
0.0
 46
0.0
 47
0.0
 48
0.0
 49
0.0
140
0.0
141
0.0
142
1.0
143
1.0
 70
   688
 72
     0
 73
     0
 74
     5
  7

 75
    16
147
1.0
148
0.0
149
0.0
100
AcDbLayout
  1
Layout1
 70
     1
 71
     1
 10
0.0
 20
0.0
 11
12.0
 21
9.0
 12
0.0
 22
0.0
 32
0.0
 14
1.0000000000E+20
 24
1.0000000000E+20
 34
1.0000000000E+20
 15
-1.0000000000E+20
 25
-1.0000000000E+20
 35
-1.0000000000E+20
146
0.0
 13
0.0
 23
0.0
 33
0.0
 16
1.0
 26
0.0
 36
0.0
 17
0.0
 27
1.0
 37
0.0
 76
     0
330
1B
  0
LAYOUT
  5
26
102
{ACAD_REACTORS
330
1A
102
}
330
1A
100
AcDbPlotSettings
  1

  2
none_device
  4

  6

 40
0.0
 41
0.0
 42
0.0
 43
0.0
 44
0.0
 45
0.0
 46
0.0
 47
0.0
 48
0.0
 49
0.0
140
0.0
141
0.0
142
1.0
143
1.0
 70
   688
 72
     0
 73
     0
 74
     5
  7

 75
    16
147
1.0
148
0.0
149
0.0
100
AcDbLayout
  1
Layout2
 70
     1
 71
     2
 10
0.0
 20
0.0
 11
0.0
 21
0.0
 12
0.0
 22
0.0
 32
0.0
 14
0.0
 24
0.0
 34
0.0
 15
0.0
 25
0.0
 35
0.0
146
0.0
 13
0.0
 23
0.0
 33
0.0
 16
1.0
 26
0.0
 36
0.0
 17
0.0
 27
1.0
 37
0.0
 76
     0
330
23
  0
LAYOUT
  5
22
102
{ACAD_REACTORS
330
1A
102
}
330
1A
100
AcDbPlotSettings
  1

  2
none_device
  4
Letter_(8.50_x_11.00_Inches)
  6

 40
6.35
 41
6.35
 42
6.35000508
 43
6.35000508
 44
215.9
 45
279.4
 46
0.0
 47
0.0
 48
0.0
 49
0.0
140
0.0
141
0.0
142
1.0
143
1.0
 70
  1712
 72
     0
 73
     0
 74
     0
  7

 75
     0
147
1.0
148
0.0
149
0.0
100
AcDbLayout
  1
Model
 70
     1
 71
     0
 10
0.0
 20
0.0
 11
12.75
 21
8.25
 12
0.0
 22
0.0
 32
0.0
 14
0.0
 24
0.0
 34
0.0
 15
12.75
 25
8.25
 35
0.0
146
0.0
 13
0.0
 23
0.0
 33
0.0
 16
1.0
 26
0.0
 36
0.0
 17
0.0
 27
1.0
 37
0.0
 76
     0
330
1F
331
29
  0
MLINESTYLE
  5
18
102
{ACAD_REACTORS
330
17
102
}
330
17
100
AcDbMlineStyle
  2
Standard
 70
     0
  3

 62
   256
 51
90.0
 52
90.0
 71
     2
 49
0.5
 62
   256
  6
BYLAYER
 49
-0.5
 62
   256
  6
BYLAYER
  0
ACDBPLACEHOLDER
  5
F
102
{ACAD_REACTORS
330
E
102
}
330
E
  0
SCALE
  5
48
102
{ACAD_REACTORS
330
47
102
}
330
47
100
AcDbScale
 70
     0
300
1:1
140
1.0
141
1.0
290
     1
  0
SCALE
  5
49
102
{ACAD_REACTORS
330
47
102
}
330
47
100
AcDbScale
 70
     0
300
1:2
140
1.0
141
2.0
290
     0
  0
SCALE
  5
4A
102
{ACAD_REACTORS
330
47
102
}
330
47
100
AcDbScale
 70
     0
300
1:4
140
1.0
141
4.0
290
     0
  0
SCALE
  5
4B
102
{ACAD_REACTORS
330
47
102
}
330
47
100
AcDbScale
 70
     0
300
1:5
140
1.0
141
5.0
290
     0
  0
SCALE
  5
4C
102
{ACAD_REACTORS
330
47
102
}
330
47
100
AcDbScale
 70
     0
300
1:8
140
1.0
141
8.0
290
     0
  0
SCALE
  5
4D
102
{ACAD_REACTORS
330
47
102
}
330
47
100
AcDbScale
 70
     0
300
1:10
140
1.0
141
10.0
290
     0
  0
SCALE
  5
4E
102
{ACAD_REACTORS
330
47
102
}
330
47
100
AcDbScale
 70
     0
300
1:16
140
1.0
141
16.0
290
     0
  0
SCALE
  5
4F
102
{ACAD_REACTORS
330
47
102
}
330
47
100
AcDbScale
 70
     0
300
1:20
140
1.0
141
20.0
290
     0
  0
SCALE
  5
50
102
{ACAD_REACTORS
330
47
102
}
330
47
100
AcDbScale
 70
     0
300
1:30
140
1.0
141
30.0
290
     0
  0
SCALE
  5
51
102
{ACAD_REACTORS
330
47
102
}
330
47
100
AcDbScale
 70
     0
300
1:40
140
1.0
141
40.0
290
     0
  0
SCALE
  5
52
102
{ACAD_REACTORS
330
47
102
}
330
47
100
AcDbScale
 70
     0
300
1:50
140
1.0
141
50.0
290
     0
  0
SCALE
  5
53
102
{ACAD_REACTORS
330
47
102
}
330
47
100
AcDbScale
 70
     0
300
1:100
140
1.0
141
100.0
290
     0
  0
SCALE
  5
54
102
{ACAD_REACTORS
330
47
102
}
330
47
100
AcDbScale
 70
     0
300
2:1
140
2.0
141
1.0
290
     0
  0
SCALE
  5
55
102
{ACAD_REACTORS
330
47
102
}
330
47
100
AcDbScale
 70
     0
300
4:1
140
4.0
141
1.0
290
     0
  0
SCALE
  5
56
102
{ACAD_REACTORS
330
47
102
}
330
47
100
AcDbScale
 70
     0
300
8:1
140
8.0
141
1.0
290
     0
  0
SCALE
  5
57
102
{ACAD_REACTORS
330
47
102
}
330
47
100
AcDbScale
 70
     0
300
10:1
140
10.0
141
1.0
290
     0
  0
SCALE
  5
58
102
{ACAD_REACTORS
330
47
102
}
330
47
100
AcDbScale
 70
     0
300
100:1
140
100.0
141
1.0
290
     0
  0
SCALE
  5
59
102
{ACAD_REACTORS
330
47
102
}
330
47
100
AcDbScale
 70
     0
300
1/128" = 1'-0"
140
0.0078125
141
12.0
290
     0
  0
SCALE
  5
5A
102
{ACAD_REACTORS
330
47
102
}
330
47
100
AcDbScale
 70
     0
300
1/64" = 1'-0"
140
0.015625
141
12.0
290
     0
  0
SCALE
  5
5B
102
{ACAD_REACTORS
330
47
102
}
330
47
100
AcDbScale
 70
     0
300
1/32" = 1'-0"
140
0.03125
141
12.0
290
     0
  0
SCALE
  5
5C
102
{ACAD_REACTORS
330
47
102
}
330
47
100
AcDbScale
 70
     0
300
1/16" = 1'-0"
140
0.0625
141
12.0
290
     0
  0
SCALE
  5
5D
102
{ACAD_REACTORS
330
47
102
}
330
47
100
AcDbScale
 70
     0
300
3/32" = 1'-0"
140
0.09375
141
12.0
290
     0
  0
SCALE
  5
5E
102
{ACAD_REACTORS
330
47
102
}
330
47
100
AcDbScale
 70
     0
300
1/8" = 1'-0"
140
0.125
141
12.0
290
     0
  0
SCALE
  5
5F
102
{ACAD_REACTORS
330
47
102
}
330
47
100
AcDbScale
 70
     0
300
3/16" = 1'-0"
140
0.1875
141
12.0
290
     0
  0
SCALE
  5
60
102
{ACAD_REACTORS
330
47
102
}
330
47
100
AcDbScale
 70
     0
300
1/4" = 1'-0"
140
0.25
141
12.0
290
     0
  0
SCALE
  5
61
102
{ACAD_REACTORS
330
47
102
}
330
47
100
AcDbScale
 70
     0
300
3/8" = 1'-0"
140
0.375
141
12.0
290
     0
  0
SCALE
  5
62
102
{ACAD_REACTORS
330
47
102
}
330
47
100
AcDbScale
 70
     0
300
1/2" = 1'-0"
140
0.5
141
12.0
290
     0
  0
SCALE
  5
63
102
{ACAD_REACTORS
330
47
102
}
330
47
100
AcDbScale
 70
     0
300
3/4" = 1'-0"
140
0.75
141
12.0
290
     0
  0
SCALE
  5
64
102
{ACAD_REACTORS
330
47
102
}
330
47
100
AcDbScale
 70
     0
300
1" = 1'-0"
140
1.0
141
12.0
290
     0
  0
SCALE
  5
65
102
{ACAD_REACTORS
330
47
102
}
330
47
100
AcDbScale
 70
     0
300
1-1/2" = 1'-0"
140
1.5
141
12.0
290
     0
  0
SCALE
  5
66
102
{ACAD_REACTORS
330
47
102
}
330
47
100
AcDbScale
 70
     0
300
3" = 1'-0"
140
3.0
141
12.0
290
     0
  0
SCALE
  5
67
102
{ACAD_REACTORS
330
47
102
}
330
47
100
AcDbScale
 70
     0
300
6" = 1'-0"
140
6.0
141
12.0
290
     0
  0
SCALE
  5
68
102
{ACAD_REACTORS
330
47
102
}
330
47
100
AcDbScale
 70
     0
300
1'-0" = 1'-0"
140
12.0
141
12.0
290
     0
  0
ENDSEC
  0
EOF
