  0
SECTION
  2
HEADER
  9
$ACADVER
  1
AC1015
  9
$ACADMAINTVER
 70
     6
  9
$DWGCODEPAGE
  3
ANSI_1252
  9
$INSBASE
 10
0.0
 20
0.0
 30
0.0
  9
$EXTMIN
 10
0.0
 20
0.0
 30
0.0
  9
$EXTMAX
 10
21.25
 20
13.75
 30
0.0
  9
$LIMMIN
 10
0.0
 20
0.0
  9
$LIMMAX
 10
21.25
 20
13.75
  9
$ORTHOMODE
 70
     0
  9
$REGENMODE
 70
     1
  9
$FILLMODE
 70
     1
  9
$QTEXTMODE
 70
     0
  9
$MIRRTEXT
 70
     1
  9
$LTSCALE
 40
1.25
  9
$ATTMODE
 70
     1
  9
$TEXTSIZE
 40
0.15625
  9
$TRACEWID
 40
0.05
  9
$TEXTSTYLE
  7
Standard
  9
$CLAYER
  8
0
  9
$CELTYPE
  6
ByLayer
  9
$CECOLOR
 62
   256
  9
$CELTSCALE
 40
1.0
  9
$DISPSILH
 70
     0
  9
$DIMSCALE
 40
1.0
  9
$DIMASZ
 40
0.1625
  9
$DIMEXO
 40
0.0625
  9
$DIMDLI
 40
0.38
  9
$DIMRND
 40
0.0
  9
$DIMDLE
 40
0.0
  9
$DIMEXE
 40
0.15625
  9
$DIMTP
 40
0.0
  9
$DIMTM
 40
0.0
  9
$DIMTXT
 40
0.15625
  9
$DIMCEN
 40
0.09
  9
$DIMTSZ
 40
0.0
  9
$DIMTOL
 70
     0
  9
$DIMLIM
 70
     0
  9
$DIMTIH
 70
     1
  9
$DIMTOH
 70
     1
  9
$DIMSE1
 70
     0
  9
$DIMSE2
 70
     0
  9
$DIMTAD
 70
     0
  9
$DIMZIN
 70
     0
  9
$DIMBLK
  1

  9
$DIMASO
 70
     1
  9
$DIMSHO
 70
     1
  9
$DIMPOST
  1

  9
$DIMAPOST
  1

  9
$DIMALT
 70
     0
  9
$DIMALTD
 70
     2
  9
$DIMALTF
 40
25.4
  9
$DIMLFAC
 40
1.0
  9
$DIMTOFL
 70
     0
  9
$DIMTVP
 40
0.0
  9
$DIMTIX
 70
     0
  9
$DIMSOXD
 70
     0
  9
$DIMSAH
 70
     0
  9
$DIMBLK1
  1

  9
$DIMBLK2
  1

  9
$DIMSTYLE
  2
Standard
  9
$DIMCLRD
 70
     0
  9
$DIMCLRE
 70
     0
  9
$DIMCLRT
 70
     0
  9
$DIMTFAC
 40
1.0
  9
$DIMGAP
 40
0.075
  9
$DIMJUST
 70
     0
  9
$DIMSD1
 70
     0
  9
$DIMSD2
 70
     0
  9
$DIMTOLJ
 70
     1
  9
$DIMTZIN
 70
     0
  9
$DIMALTZ
 70
     0
  9
$DIMALTTZ
 70
     0
  9
$DIMUPT
 70
     0
  9
$DIMDEC
 70
     2
  9
$DIMTDEC
 70
     2
  9
$DIMALTU
 70
     2
  9
$DIMALTTD
 70
     2
  9
$DIMTXSTY
  7
Standard
  9
$DIMAUNIT
 70
     0
  9
$DIMADEC
 70
     2
  9
$DIMALTRND
 40
0.0
  9
$DIMAZIN
 70
     0
  9
$DIMDSEP
 70
    46
  9
$DIMATFIT
 70
     3
  9
$DIMFRAC
 70
     0
  9
$DIMLDRBLK
  1

  9
$DIMLUNIT
 70
     2
  9
$DIMLWD
 70
    -2
  9
$DIMLWE
 70
    -2
  9
$DIMTMOVE
 70
     0
  9
$LUNITS
 70
     2
  9
$LUPREC
 70
     2
  9
$SKETCHINC
 40
0.1
  9
$FILLETRAD
 40
0.5
  9
$AUNITS
 70
     0
  9
$AUPREC
 70
     2
  9
$MENU
  1
.
  9
$ELEVATION
 40
0.0
  9
$PELEVATION
 40
0.0
  9
$THICKNESS
 40
0.0
  9
$LIMCHECK
 70
     0
  9
$CHAMFERA
 40
0.0
  9
$CHAMFERB
 40
0.0
  9
$CHAMFERC
 40
0.0
  9
$CHAMFERD
 40
0.0
  9
$SKPOLY
 70
     0
  9
$TDCREATE
 40
2458058.35148331
  9
$TDUCREATE
 40
2458058.518149977
  9
$TDUPDATE
 40
2458058.35148625
  9
$TDUUPDATE
 40
2458058.518152917
  9
$TDINDWG
 40
0.0000000116
  9
$TDUSRTIMER
 40
0.0000000116
  9
$USRTIMER
 70
     1
  9
$ANGBASE
 50
0.0
  9
$ANGDIR
 70
     0
  9
$PDMODE
 70
     0
  9
$PDSIZE
 40
-1.0
  9
$PLINEWID
 40
0.0
  9
$SPLFRAME
 70
     0
  9
$SPLINETYPE
 70
     6
  9
$SPLINESEGS
 70
     8
  9
$HANDSEED
  5
5B1
  9
$SURFTAB1
 70
     6
  9
$SURFTAB2
 70
     6
  9
$SURFTYPE
 70
     6
  9
$SURFU
 70
     6
  9
$SURFV
 70
     6
  9
$UCSBASE
  2

  9
$UCSNAME
  2

  9
$UCSORG
 10
0.0
 20
0.0
 30
0.0
  9
$UCSXDIR
 10
1.0
 20
0.0
 30
0.0
  9
$UCSYDIR
 10
0.0
 20
1.0
 30
0.0
  9
$UCSORTHOREF
  2

  9
$UCSORTHOVIEW
 70
     0
  9
$UCSORGTOP
 10
0.0
 20
0.0
 30
0.0
  9
$UCSORGBOTTOM
 10
0.0
 20
0.0
 30
0.0
  9
$UCSORGLEFT
 10
0.0
 20
0.0
 30
0.0
  9
$UCSORGRIGHT
 10
0.0
 20
0.0
 30
0.0
  9
$UCSORGFRONT
 10
0.0
 20
0.0
 30
0.0
  9
$UCSORGBACK
 10
0.0
 20
0.0
 30
0.0
  9
$PUCSBASE
  2

  9
$PUCSNAME
  2

  9
$PUCSORG
 10
0.0
 20
0.0
 30
0.0
  9
$PUCSXDIR
 10
1.0
 20
0.0
 30
0.0
  9
$PUCSYDIR
 10
0.0
 20
1.0
 30
0.0
  9
$PUCSORTHOREF
  2

  9
$PUCSORTHOVIEW
 70
     0
  9
$PUCSORGTOP
 10
0.0
 20
0.0
 30
0.0
  9
$PUCSORGBOTTOM
 10
0.0
 20
0.0
 30
0.0
  9
$PUCSORGLEFT
 10
0.0
 20
0.0
 30
0.0
  9
$PUCSORGRIGHT
 10
0.0
 20
0.0
 30
0.0
  9
$PUCSORGFRONT
 10
0.0
 20
0.0
 30
0.0
  9
$PUCSORGBACK
 10
0.0
 20
0.0
 30
0.0
  9
$USERI1
 70
     0
  9
$USERI2
 70
     0
  9
$USERI3
 70
     0
  9
$USERI4
 70
     0
  9
$USERI5
 70
     0
  9
$USERR1
 40
0.0
  9
$USERR2
 40
0.0
  9
$USERR3
 40
0.0
  9
$USERR4
 40
0.0
  9
$USERR5
 40
0.0
  9
$WORLDVIEW
 70
     1
  9
$SHADEDGE
 70
     3
  9
$SHADEDIF
 70
    70
  9
$TILEMODE
 70
     1
  9
$MAXACTVP
 70
    64
  9
$PINSBASE
 10
0.0
 20
0.0
 30
0.0
  9
$PLIMCHECK
 70
     0
  9
$PEXTMIN
 10
1.0000000000E+20
 20
1.0000000000E+20
 30
1.0000000000E+20
  9
$PEXTMAX
 10
-1.0000000000E+20
 20
-1.0000000000E+20
 30
-1.0000000000E+20
  9
$PLIMMIN
 10
0.0
 20
0.0
  9
$PLIMMAX
 10
12.0
 20
9.0
  9
$UNITMODE
 70
     0
  9
$VISRETAIN
 70
     1
  9
$PLINEGEN
 70
     0
  9
$PSLTSCALE
 70
     1
  9
$TREEDEPTH
 70
  3020
  9
$CMLSTYLE
  2
Standard
  9
$CMLJUST
 70
     0
  9
$CMLSCALE
 40
1.0
  9
$PROXYGRAPHICS
 70
     1
  9
$MEASUREMENT
 70
     0
  9
$CELWEIGHT
370
    -1
  9
$ENDCAPS
280
     0
  9
$JOINSTYLE
280
     0
  9
$LWDISPLAY
290
     1
  9
$INSUNITS
 70
     1
  9
$HYPERLINKBASE
  1

  9
$STYLESHEET
  1

  9
$XEDIT
290
     1
  9
$CEPSNTYPE
380
     0
  9
$PSTYLEMODE
290
     1
  9
$FINGERPRINTGUID
  2
{94F62DCB-E791-402D-A003-6627D64E4D6D}
  9
$VERSIONGUID
  2
{FAEB1C32-E019-11D5-929B-00C0DF256EC4}
  9
$EXTNAMES
290
     1
  9
$PSVPSCALE
 40
0.0
  9
$OLESTARTUP
290
     0
  0
ENDSEC
  0
SECTION
  2
CLASSES
  0
CLASS
  1
ACDBDICTIONARYWDFLT
  2
AcDbDictionaryWithDefault
  3
ObjectDBX Classes
 90
        0
280
     0
281
     0
  0
CLASS
  1
VISUALSTYLE
  2
AcDbVisualStyle
  3
ObjectDBX Classes
 90
     4095
280
     0
281
     0
  0
CLASS
  1
MATERIAL
  2
AcDbMaterial
  3
ObjectDBX Classes
 90
     1153
280
     0
281
     0
  0
CLASS
  1
SCALE
  2
AcDbScale
  3
ObjectDBX Classes
 90
     1153
280
     0
281
     0
  0
CLASS
  1
TABLESTYLE
  2
AcDbTableStyle
  3
ObjectDBX Classes
 90
     4095
280
     0
281
     0
  0
CLASS
  1
MLEADERSTYLE
  2
AcDbMLeaderStyle
  3
ACDB_MLEADERSTYLE_CLASS
 90
     4095
280
     0
281
     0
  0
CLASS
  1
SUN
  2
AcDbSun
  3
SCENEOE
 90
     1153
280
     0
281
     0
  0
CLASS
  1
ACDBPLACEHOLDER
  2
AcDbPlaceHolder
  3
ObjectDBX Classes
 90
        0
280
     0
281
     0
  0
CLASS
  1
LAYOUT
  2
AcDbLayout
  3
ObjectDBX Classes
 90
        0
280
     0
281
     0
  0
ENDSEC
  0
SECTION
  2
TABLES
  0
TABLE
  2
VPORT
  5
8
330
0
100
AcDbSymbolTable
 70
     1
  0
VPORT
  5
29
330
8
100
AcDbSymbolTableRecord
100
AcDbViewportTableRecord
  2
*Active
 70
     0
 10
0.0
 20
0.0
 11
1.0
 21
1.0
 12
10.625
 22
6.875
 13
0.0
 23
0.0
 14
0.5
 24
0.5
 15
0.5
 25
0.5
 16
0.0
 26
0.0
 36
1.0
 17
0.0
 27
0.0
 37
0.0
 40
13.75
 41
1.5454545455
 42
50.0
 43
0.0
 44
0.0
 50
0.0
 51
0.0
 71
     0
 72
  2000
 73
     1
 74
     3
 75
     0
 76
     0
 77
     0
 78
     0
281
     0
 65
     1
110
0.0
120
0.0
130
0.0
111
1.0
121
0.0
131
0.0
112
0.0
122
1.0
132
0.0
 79
     0
146
0.0
  0
ENDTAB
  0
TABLE
  2
LTYPE
  5
5
330
0
100
AcDbSymbolTable
 70
     6
  0
LTYPE
  5
14
330
5
100
AcDbSymbolTableRecord
100
AcDbLinetypeTableRecord
  2
ByBlock
 70
     0
  3

 72
    65
 73
     0
 40
0.0
  0
LTYPE
  5
15
330
5
100
AcDbSymbolTableRecord
100
AcDbLinetypeTableRecord
  2
ByLayer
 70
     0
  3

 72
    65
 73
     0
 40
0.0
  0
LTYPE
  5
16
330
5
100
AcDbSymbolTableRecord
100
AcDbLinetypeTableRecord
  2
Continuous
 70
     0
  3
Solid line
 72
    65
 73
     0
 40
0.0
  0
LTYPE
  5
6E
330
5
100
AcDbSymbolTableRecord
100
AcDbLinetypeTableRecord
  2
HIDDEN
 70
     0
  3
Hidden __ __ __ __ __ __ __ __ __ __ __ __ __ __
 72
    65
 73
     2
 40
0.075
 49
0.05
 74
     0
 49
-0.025
 74
     0
  0
LTYPE
  5
6F
330
5
100
AcDbSymbolTableRecord
100
AcDbLinetypeTableRecord
  2
PHANTOM
 70
     0
  3
Phantom ______  __  __  ______  __  __  ______
 72
    65
 73
     6
 40
0.5
 49
0.25
 74
     0
 49
-0.05
 74
     0
 49
0.05
 74
     0
 49
-0.05
 74
     0
 49
0.05
 74
     0
 49
-0.05
 74
     0
  0
LTYPE
  5
70
330
5
100
AcDbSymbolTableRecord
100
AcDbLinetypeTableRecord
  2
CENTER
 70
     0
  3
Center ____ _ ____ _ ____ _ ____ _ ____ _ ____
 72
    65
 73
     4
 40
0.4
 49
0.25
 74
     0
 49
-0.05
 74
     0
 49
0.05
 74
     0
 49
-0.05
 74
     0
  0
LTYPE
  5
71
330
5
100
AcDbSymbolTableRecord
100
AcDbLinetypeTableRecord
  2
CENTERX2
 70
     0
  3
Center (2x) ________  __  ________  __  _____
 72
    65
 73
     4
 40
0.8
 49
0.5
 74
     0
 49
-0.1
 74
     0
 49
0.1
 74
     0
 49
-0.1
 74
     0
  0
LTYPE
  5
72
330
5
100
AcDbSymbolTableRecord
100
AcDbLinetypeTableRecord
  2
DOT2
 70
     0
  3
Dot (.5x) ........................................
 72
    65
 73
     2
 40
0.025
 49
0.0
 74
     0
 49
-0.025
 74
     0
  0
ENDTAB
  0
TABLE
  2
LAYER
  5
2
330
0
100
AcDbSymbolTable
 70
     1
  0
LAYER
  5
10
330
2
100
AcDbSymbolTableRecord
100
AcDbLayerTableRecord
  2
0
 70
     0
 62
     7
  6
Continuous
370
    -3
390
F
  0
ENDTAB
  0
TABLE
  2
STYLE
  5
3
330
0
100
AcDbSymbolTable
 70
     5
  0
STYLE
  5
11
330
3
100
AcDbSymbolTableRecord
100
AcDbTextStyleTableRecord
  2
Standard
 70
     0
 40
0.0
 41
1.0
 50
0.0
 71
     0
 42
0.15625
  3
txt
  4

  0
STYLE
  5
A6
330
3
100
AcDbSymbolTableRecord
100
AcDbTextStyleTableRecord
  2
SLDTEXTSTYLE0
 70
     0
 40
0.0
 41
0.75
 50
0.0
 71
     0
 42
0.15625
  3
TXT
  4

  0
STYLE
  5
BB
330
3
100
AcDbSymbolTableRecord
100
AcDbTextStyleTableRecord
  2
SLDTEXTSTYLE1
 70
     0
 40
0.0
 41
0.7
 50
0.0
 71
     0
 42
0.15625
  3
TXT
  4

  0
STYLE
  5
C0
330
3
100
AcDbSymbolTableRecord
100
AcDbTextStyleTableRecord
  2
SLDTEXTSTYLE2
 70
     0
 40
0.0
 41
0.6990740741
 50
0.0
 71
     0
 42
0.15625
  3
TXT
  4

  0
STYLE
  5
C7
330
3
100
AcDbSymbolTableRecord
100
AcDbTextStyleTableRecord
  2
SLDTEXTSTYLE3
 70
     0
 40
0.0
 41
0.6693548387
 50
0.0
 71
     0
 42
0.15625
  3
TXT
  4

  0
ENDTAB
  0
TABLE
  2
VIEW
  5
6
330
0
100
AcDbSymbolTable
 70
     0
  0
ENDTAB
  0
TABLE
  2
UCS
  5
7
330
0
100
AcDbSymbolTable
 70
     0
  0
ENDTAB
  0
TABLE
  2
APPID
  5
9
330
0
100
AcDbSymbolTable
 70
     1
  0
APPID
  5
12
330
9
100
AcDbSymbolTableRecord
100
AcDbRegAppTableRecord
  2
ACAD
 70
     0
  0
ENDTAB
  0
TABLE
  2
DIMSTYLE
  5
A
330
0
100
AcDbSymbolTable
 70
     7
100
AcDbDimStyleTable
  0
DIMSTYLE
105
27
330
A
100
AcDbSymbolTableRecord
100
AcDbDimStyleTableRecord
  2
Standard
 70
     0
178
     0
340
11
  0
DIMSTYLE
105
14B
102
{ACAD_REACTORS
330
14A
330
15F
330
173
330
187
330
2B2
330
2C6
330
43A
330
44E
102
}
330
A
100
AcDbSymbolTableRecord
100
AcDbDimStyleTableRecord
  2
SLDDIMSTYLE0
 70
     0
 41
0.1625
 44
0.0
 45
0.000000001
 78
    12
 79
     3
140
0.15625
147
0.0390625
148
0.000000001
170
     1
173
     1
178
     0
271
     2
272
     2
276
     2
284
    12
340
A6
  0
DIMSTYLE
105
19C
102
{ACAD_REACTORS
330
19B
330
1B0
330
29E
330
2DA
330
555
330
57A
330
58C
102
}
330
A
100
AcDbSymbolTableRecord
100
AcDbDimStyleTableRecord
  2
SLDDIMSTYLE1
 70
     0
 41
0.1625
 44
0.0
 45
0.000000001
 78
    12
 79
     3
140
0.15625
147
0.0390625
148
0.000000001
170
     1
172
     1
173
     1
178
     0
271
     2
272
     2
276
     2
284
    12
289
     0
340
A6
  0
DIMSTYLE
105
1C5
330
A
100
AcDbSymbolTableRecord
100
AcDbDimStyleTableRecord
  2
SLDDIMSTYLE2
 70
     0
 41
0.1625
 44
0.0
 45
0.000000001
146
0.1625
147
0.0
173
     1
178
     0
271
     0
272
     0
276
     2
340
11
  0
DIMSTYLE
105
463
102
{ACAD_REACTORS
330
462
102
}
330
A
100
AcDbSymbolTableRecord
100
AcDbDimStyleTableRecord
  2
SLDDIMSTYLE3
 70
     0
 41
0.1625
 44
0.0
 45
0.000000001
 78
    12
 79
     3
140
0.15625
141
0.0
147
0.0390625
148
0.000000001
170
     1
173
     1
178
     0
271
     3
272
     3
276
     2
284
    12
340
A6
  0
DIMSTYLE
105
568
102
{ACAD_REACTORS
330
567
102
}
330
A
100
AcDbSymbolTableRecord
100
AcDbDimStyleTableRecord
  2
SLDDIMSTYLE4
 70
     0
 41
0.1625
 44
0.0
 45
0.000000001
 78
     4
 79
     1
140
0.15625
147
0.0390625
148
0.000000001
170
     1
173
     1
178
     0
271
     2
272
     2
276
     2
284
    12
340
A6
  0
DIMSTYLE
105
5A7
330
A
100
AcDbSymbolTableRecord
100
AcDbDimStyleTableRecord
  2
SLDDIMSTYLE5
 70
     0
 41
0.05
 44
0.0
 45
0.000000001
146
0.05
147
0.0
173
     1
178
     0
271
     0
272
     0
276
     2
340
11
341
5A8
343
5A8
344
5A8
  0
ENDTAB
  0
TABLE
  2
BLOCK_RECORD
  5
1
330
0
100
AcDbSymbolTable
 70
    42
  0
BLOCK_RECORD
  5
1F
330
1
100
AcDbSymbolTableRecord
100
AcDbBlockTableRecord
  2
*Model_Space
340
22
  0
BLOCK_RECORD
  5
1B
330
1
100
AcDbSymbolTableRecord
100
AcDbBlockTableRecord
  2
*Paper_Space
340
1E
  0
BLOCK_RECORD
  5
23
330
1
100
AcDbSymbolTableRecord
100
AcDbBlockTableRecord
  2
*Paper_Space0
340
26
  0
BLOCK_RECORD
  5
A3
330
1
100
AcDbSymbolTableRecord
100
AcDbBlockTableRecord
  2
SW_NOTE_0
340
0
102
{BLKREFS
331
AB
102
}
  0
BLOCK_RECORD
  5
AC
330
1
100
AcDbSymbolTableRecord
100
AcDbBlockTableRecord
  2
SW_NOTE_1
340
0
102
{BLKREFS
331
B4
102
}
  0
BLOCK_RECORD
  5
B5
330
1
100
AcDbSymbolTableRecord
100
AcDbBlockTableRecord
  2
SW_NOTE_2
340
0
102
{BLKREFS
331
C4
102
}
  0
BLOCK_RECORD
  5
C9
330
1
100
AcDbSymbolTableRecord
100
AcDbBlockTableRecord
  2
SW_NOTE_3
340
0
102
{BLKREFS
331
CE
102
}
  0
BLOCK_RECORD
  5
CF
330
1
100
AcDbSymbolTableRecord
100
AcDbBlockTableRecord
  2
SW_NOTE_4
340
0
102
{BLKREFS
331
D4
102
}
  0
BLOCK_RECORD
  5
D5
330
1
100
AcDbSymbolTableRecord
100
AcDbBlockTableRecord
  2
SW_NOTE_5
340
0
102
{BLKREFS
331
DA
102
}
  0
BLOCK_RECORD
  5
14C
330
1
100
AcDbSymbolTableRecord
100
AcDbBlockTableRecord
  2
_D
340
0
  0
BLOCK_RECORD
  5
160
330
1
100
AcDbSymbolTableRecord
100
AcDbBlockTableRecord
  2
_D_1
340
0
  0
BLOCK_RECORD
  5
174
330
1
100
AcDbSymbolTableRecord
100
AcDbBlockTableRecord
  2
_D_2
340
0
  0
BLOCK_RECORD
  5
188
330
1
100
AcDbSymbolTableRecord
100
AcDbBlockTableRecord
  2
_D_3
340
0
  0
BLOCK_RECORD
  5
19D
330
1
100
AcDbSymbolTableRecord
100
AcDbBlockTableRecord
  2
_D_4
340
0
  0
BLOCK_RECORD
  5
1B1
330
1
100
AcDbSymbolTableRecord
100
AcDbBlockTableRecord
  2
_D_5
340
0
  0
BLOCK_RECORD
  5
1C8
330
1
100
AcDbSymbolTableRecord
100
AcDbBlockTableRecord
  2
SW_CENTERMARKSYMBOL_0
340
0
102
{BLKREFS
331
1D3
102
}
  0
BLOCK_RECORD
  5
1D4
330
1
100
AcDbSymbolTableRecord
100
AcDbBlockTableRecord
  2
SW_CENTERMARKSYMBOL_1
340
0
102
{BLKREFS
331
1DF
102
}
  0
BLOCK_RECORD
  5
1E0
330
1
100
AcDbSymbolTableRecord
100
AcDbBlockTableRecord
  2
SW_CENTERMARKSYMBOL_2
340
0
102
{BLKREFS
331
1EB
102
}
  0
BLOCK_RECORD
  5
1EC
330
1
100
AcDbSymbolTableRecord
100
AcDbBlockTableRecord
  2
SW_CENTERMARKSYMBOL_3
340
0
102
{BLKREFS
331
1F7
102
}
  0
BLOCK_RECORD
  5
1F8
330
1
100
AcDbSymbolTableRecord
100
AcDbBlockTableRecord
  2
SW_CENTERMARKSYMBOL_4
340
0
102
{BLKREFS
331
203
102
}
  0
BLOCK_RECORD
  5
204
330
1
100
AcDbSymbolTableRecord
100
AcDbBlockTableRecord
  2
SW_CENTERMARKSYMBOL_5
340
0
102
{BLKREFS
331
20F
102
}
  0
BLOCK_RECORD
  5
210
330
1
100
AcDbSymbolTableRecord
100
AcDbBlockTableRecord
  2
SW_CENTERMARKSYMBOL_6
340
0
102
{BLKREFS
331
21B
102
}
  0
BLOCK_RECORD
  5
21C
330
1
100
AcDbSymbolTableRecord
100
AcDbBlockTableRecord
  2
SW_CENTERMARKSYMBOL_7
340
0
102
{BLKREFS
331
227
102
}
  0
BLOCK_RECORD
  5
228
330
1
100
AcDbSymbolTableRecord
100
AcDbBlockTableRecord
  2
SW_CENTERMARKSYMBOL_8
340
0
102
{BLKREFS
331
233
102
}
  0
BLOCK_RECORD
  5
234
330
1
100
AcDbSymbolTableRecord
100
AcDbBlockTableRecord
  2
SW_CENTERMARKSYMBOL_9
340
0
102
{BLKREFS
331
23F
102
}
  0
BLOCK_RECORD
  5
240
330
1
100
AcDbSymbolTableRecord
100
AcDbBlockTableRecord
  2
SW_CENTERMARKSYMBOL_10
340
0
102
{BLKREFS
331
24B
102
}
  0
BLOCK_RECORD
  5
24C
330
1
100
AcDbSymbolTableRecord
100
AcDbBlockTableRecord
  2
SW_CENTERMARKSYMBOL_11
340
0
102
{BLKREFS
331
257
102
}
  0
BLOCK_RECORD
  5
29F
330
1
100
AcDbSymbolTableRecord
100
AcDbBlockTableRecord
  2
_D_6
340
0
  0
BLOCK_RECORD
  5
2B3
330
1
100
AcDbSymbolTableRecord
100
AcDbBlockTableRecord
  2
_D_7
340
0
  0
BLOCK_RECORD
  5
2C7
330
1
100
AcDbSymbolTableRecord
100
AcDbBlockTableRecord
  2
_D_8
340
0
  0
BLOCK_RECORD
  5
2DB
330
1
100
AcDbSymbolTableRecord
100
AcDbBlockTableRecord
  2
_D_9
340
0
  0
BLOCK_RECORD
  5
43B
330
1
100
AcDbSymbolTableRecord
100
AcDbBlockTableRecord
  2
_D_10
340
0
  0
BLOCK_RECORD
  5
44F
330
1
100
AcDbSymbolTableRecord
100
AcDbBlockTableRecord
  2
_D_11
340
0
  0
BLOCK_RECORD
  5
464
330
1
100
AcDbSymbolTableRecord
100
AcDbBlockTableRecord
  2
_D_12
340
0
  0
BLOCK_RECORD
  5
474
330
1
100
AcDbSymbolTableRecord
100
AcDbBlockTableRecord
  2
SW_CENTERMARKSYMBOL_12
340
0
102
{BLKREFS
331
47F
102
}
  0
BLOCK_RECORD
  5
480
330
1
100
AcDbSymbolTableRecord
100
AcDbBlockTableRecord
  2
SW_CENTERMARKSYMBOL_13
340
0
102
{BLKREFS
331
48B
102
}
  0
BLOCK_RECORD
  5
48C
330
1
100
AcDbSymbolTableRecord
100
AcDbBlockTableRecord
  2
SW_CENTERMARKSYMBOL_14
340
0
102
{BLKREFS
331
497
102
}
  0
BLOCK_RECORD
  5
498
330
1
100
AcDbSymbolTableRecord
100
AcDbBlockTableRecord
  2
SW_CENTERMARKSYMBOL_15
340
0
102
{BLKREFS
331
4A3
102
}
  0
BLOCK_RECORD
  5
556
330
1
100
AcDbSymbolTableRecord
100
AcDbBlockTableRecord
  2
_D_13
340
0
  0
BLOCK_RECORD
  5
569
330
1
100
AcDbSymbolTableRecord
100
AcDbBlockTableRecord
  2
_D_14
340
0
  0
BLOCK_RECORD
  5
57B
330
1
100
AcDbSymbolTableRecord
100
AcDbBlockTableRecord
  2
_D_15
340
0
  0
BLOCK_RECORD
  5
58D
330
1
100
AcDbSymbolTableRecord
100
AcDbBlockTableRecord
  2
_D_16
340
0
  0
BLOCK_RECORD
  5
5A1
330
1
100
AcDbSymbolTableRecord
100
AcDbBlockTableRecord
  2
SW_NOTE_6
340
0
102
{BLKREFS
331
5A6
102
}
  0
BLOCK_RECORD
  5
5A8
330
1
100
AcDbSymbolTableRecord
100
AcDbBlockTableRecord
  2
_Dot
340
0
  0
ENDTAB
  0
ENDSEC
  0
SECTION
  2
BLOCKS
  0
BLOCK
  5
20
330
1F
100
AcDbEntity
  8
0
100
AcDbBlockBegin
  2
*Model_Space
 70
     0
 10
0.0
 20
0.0
 30
0.0
  3
*Model_Space
  1

  0
ENDBLK
  5
21
330
1F
100
AcDbEntity
  8
0
100
AcDbBlockEnd
  0
BLOCK
  5
1C
330
1B
100
AcDbEntity
 67
     1
  8
0
100
AcDbBlockBegin
  2
*Paper_Space
 70
     0
 10
0.0
 20
0.0
 30
0.0
  3
*Paper_Space
  1

  0
ENDBLK
  5
1D
330
1B
100
AcDbEntity
 67
     1
  8
0
100
AcDbBlockEnd
  0
BLOCK
  5
24
330
23
100
AcDbEntity
  8
0
100
AcDbBlockBegin
  2
*Paper_Space0
 70
     0
 10
0.0
 20
0.0
 30
0.0
  3
*Paper_Space0
  1

  0
ENDBLK
  5
25
330
23
100
AcDbEntity
  8
0
100
AcDbBlockEnd
  0
BLOCK
  5
A4
330
A3
100
AcDbEntity
  8
0
100
AcDbBlockBegin
  2
SW_NOTE_0
 70
     0
 10
0.0
 20
0.0
 30
0.0
  3
SW_NOTE_0
  1

  0
MTEXT
  5
A7
330
A3
100
AcDbEntity
  8
0
  6
Continuous
 62
     0
370
     0
100
AcDbMText
 10
1.2768554687
 20
0.2014168343
 30
0.0
 40
0.15625
 41
0.0
 71
     2
 72
     1
  1
DRAWING FOR REFERENCE
  7
SLDTEXTSTYLE0
 73
     1
 44
1.0
  0
MTEXT
  5
A8
330
A3
100
AcDbEntity
  8
0
  6
Continuous
 62
     0
370
     0
100
AcDbMText
 10
1.2854086615
 20
-0.0268098495
 30
0.0
 40
0.0775
 41
0.0
 71
     2
 72
     1
  1
WE RESERVE THE RIGHT TO MAKE CHANGES TO OUR
  7
SLDTEXTSTYLE0
 73
     1
 44
1.0
  0
MTEXT
  5
A9
330
A3
100
AcDbEntity
  8
0
  6
Continuous
 62
     0
370
     0
100
AcDbMText
 10
1.2790579558
 20
-0.1535224503
 30
0.0
 40
0.0775
 41
0.0
 71
     2
 72
     1
  1
STANDARD PRODUCTS. PLEASE CONSULT WITH BUD INDUSTRIES
  7
SLDTEXTSTYLE0
 73
     1
 44
1.0
  0
MTEXT
  5
AA
330
A3
100
AcDbEntity
  8
0
  6
Continuous
 62
     0
370
     0
100
AcDbMText
 10
1.2920820856
 20
-0.2802350511
 30
0.0
 40
0.0775
 41
0.0
 71
     2
 72
     1
  1
PRIOR TO USING THIS DRAWING FOR DESIGN PURPOSE.
  7
SLDTEXTSTYLE0
 73
     1
 44
1.0
  0
ENDBLK
  5
A5
330
A3
100
AcDbEntity
  8
0
100
AcDbBlockEnd
  0
BLOCK
  5
AD
330
AC
100
AcDbEntity
  8
0
100
AcDbBlockBegin
  2
SW_NOTE_1
 70
     0
 10
0.0
 20
0.0
 30
0.0
  3
SW_NOTE_1
  1

  0
MTEXT
  5
AF
330
AC
100
AcDbEntity
  8
0
  6
Continuous
 62
     0
370
     0
100
AcDbMText
 10
0.0
 20
0.2014168343
 30
0.0
 40
0.15625
 41
0.0
 71
     1
 72
     1
  1
OPTIONAL ACCESSORIES:
  7
SLDTEXTSTYLE0
 73
     1
 44
1.0
  0
MTEXT
  5
B0
330
AC
100
AcDbEntity
  8
0
  6
Continuous
 62
     0
370
     0
100
AcDbMText
 10
0.1171875
 20
-0.0040457588
 30
0.0
 40
0.15625
 41
0.0
 71
     1
 72
     1
  1
INTERNAL STEEL PANEL #PTX-25304
  7
SLDTEXTSTYLE0
 73
     1
 44
1.0
  0
MTEXT
  5
B1
330
AC
100
AcDbEntity
  8
0
  6
Continuous
 62
     0
370
     0
100
AcDbMText
 10
0.1171875
 20
-0.209508352
 30
0.0
 40
0.15625
 41
0.0
 71
     1
 72
     1
  1
INTERNAL PLASTIC PANEL #PTX-25304-P
  7
SLDTEXTSTYLE0
 73
     1
 44
1.0
  0
MTEXT
  5
B2
330
AC
100
AcDbEntity
  8
0
  6
Continuous
 62
     0
370
     0
100
AcDbMText
 10
0.1171875
 20
-0.4149709451
 30
0.0
 40
0.15625
 41
0.0
 71
     1
 72
     1
  1
MOUNTING BRACKET KIT (STAINLESS STEEL) - #NBX-10922
  7
SLDTEXTSTYLE0
 73
     1
 44
1.0
  0
MTEXT
  5
B3
330
AC
100
AcDbEntity
  8
0
  6
Continuous
 62
     0
370
     0
100
AcDbMText
 10
0.1171875
 20
-0.6204335382
 30
0.0
 40
0.15625
 41
0.0
 71
     1
 72
     1
  1
MOUNTING BRACKET KIT (PLASTIC) #PIX-4117
  7
SLDTEXTSTYLE0
 73
     1
 44
1.0
  0
ENDBLK
  5
AE
330
AC
100
AcDbEntity
  8
0
100
AcDbBlockEnd
  0
BLOCK
  5
B6
330
B5
100
AcDbEntity
  8
0
100
AcDbBlockBegin
  2
SW_NOTE_2
 70
     0
 10
0.0
 20
0.0
 30
0.0
  3
SW_NOTE_2
  1

  0
MTEXT
  5
B8
330
B5
100
AcDbEntity
  8
0
  6
Continuous
 62
     0
370
     0
100
AcDbMText
 10
0.0
 20
0.2014168343
 30
0.0
 40
0.15625
 41
0.0
 71
     1
 72
     1
  1
NOTES:
  7
SLDTEXTSTYLE0
 73
     1
 44
1.0
  0
MTEXT
  5
B9
330
B5
100
AcDbEntity
  8
0
  6
Continuous
 62
     0
370
     0
100
AcDbMText
 10
0.0
 20
-0.0040457588
 30
0.0
 40
0.15625
 41
0.0
 71
     1
 72
     1
  1
1- MATERIAL:  BODY - GRAY POLYCARBONATE RESIN 10% GLASS FIBER FILLED
  7
SLDTEXTSTYLE0
 73
     1
 44
1.0
  0
MTEXT
  5
BA
330
B5
100
AcDbEntity
  8
0
  6
Continuous
 62
     0
370
     0
100
AcDbMText
 10
1.2890625
 20
-0.209508352
 30
0.0
 40
0.15625
 41
0.0
 71
     1
 72
     1
  1
COVER - GRAY OR CLEAR (-C SUFFIX) POLYCARBONATE
  7
SLDTEXTSTYLE0
 73
     1
 44
1.0
  0
MTEXT
  5
BC
330
B5
100
AcDbEntity
  8
0
  6
Continuous
 62
     0
370
     0
100
AcDbMText
 10
0.0
 20
-0.6204335382
 30
0.0
 40
0.15625
 41
0.0
 71
     1
 72
     1
  1
2- UL508 / NEMA TYPE 4X WITH IP-67 TUV RATING & UL-94V0
  7
SLDTEXTSTYLE1
 73
     1
 44
1.0
  0
MTEXT
  5
BD
330
B5
100
AcDbEntity
  8
0
  6
Continuous
 62
     0
370
     0
100
AcDbMText
 10
0.0
 20
-1.0313587245
 30
0.0
 40
0.15625
 41
0.0
 71
     1
 72
     1
  1
3- CONTINUOUS POURED FOAM GASKET IN COVER
  7
SLDTEXTSTYLE0
 73
     1
 44
1.0
  0
MTEXT
  5
BE
330
B5
100
AcDbEntity
  8
0
  6
Continuous
 62
     0
370
     0
100
AcDbMText
 10
0.0
 20
-1.4422839108
 30
0.0
 40
0.15625
 41
0.0
 71
     1
 72
     1
  1
4- COVER ATTACHES WITH NON-METALLIC CAPTIVE SCREWS
  7
SLDTEXTSTYLE0
 73
     1
 44
1.0
  0
MTEXT
  5
BF
330
B5
100
AcDbEntity
  8
0
  6
Continuous
 62
     0
370
     0
100
AcDbMText
 10
0.41015625
 20
-1.647746504
 30
0.0
 40
0.15625
 41
0.0
 71
     1
 72
     1
  1
(ITEMS NOT SHOWN)
  7
SLDTEXTSTYLE0
 73
     1
 44
1.0
  0
MTEXT
  5
C1
330
B5
100
AcDbEntity
  8
0
  6
Continuous
 62
     0
370
     0
100
AcDbMText
 10
0.0
 20
-2.0586716903
 30
0.0
 40
0.15625
 41
0.0
 71
     1
 72
     1
  1
5- SUPPLIED WITH TWO M4 x 8mm LG. PAN HEAD ZINC PLATED
  7
SLDTEXTSTYLE2
 73
     1
 44
1.0
  0
MTEXT
  5
C2
330
B5
100
AcDbEntity
  8
0
  6
Continuous
 62
     0
370
     0
100
AcDbMText
 10
0.46875
 20
-2.2641342834
 30
0.0
 40
0.15625
 41
0.0
 71
     1
 72
     1
  1
STEEL SCREWS (ITEMS NOT SHOWN)
  7
SLDTEXTSTYLE0
 73
     1
 44
1.0
  0
MTEXT
  5
C3
330
B5
100
AcDbEntity
  8
0
  6
Continuous
 62
     0
370
     0
100
AcDbMText
 10
0.0
 20
-2.6750594697
 30
0.0
 40
0.15625
 41
0.0
 71
     1
 72
     1
  1
6- DIMENSIONS ARE INCH [MM]
  7
SLDTEXTSTYLE0
 73
     1
 44
1.0
  0
ENDBLK
  5
B7
330
B5
100
AcDbEntity
  8
0
100
AcDbBlockEnd
  0
BLOCK
  5
CA
330
C9
100
AcDbEntity
  8
0
100
AcDbBlockBegin
  2
SW_NOTE_3
 70
     0
 10
0.0
 20
0.0
 30
0.0
  3
SW_NOTE_3
  1

  0
MTEXT
  5
CC
330
C9
100
AcDbEntity
  8
0
  6
Continuous
 62
     0
370
     0
100
AcDbMText
 10
0.2368164062
 20
0.2014168343
 30
0.0
 40
0.15625
 41
0.0
 71
     2
 72
     1
  1
PART
  7
SLDTEXTSTYLE0
 73
     1
 44
1.0
  0
MTEXT
  5
CD
330
C9
100
AcDbEntity
  8
0
  6
Continuous
 62
     0
370
     0
100
AcDbMText
 10
0.2347140875
 20
-0.0040457588
 30
0.0
 40
0.15625
 41
0.0
 71
     2
 72
     1
  1
NAME
  7
SLDTEXTSTYLE0
 73
     1
 44
1.0
  0
ENDBLK
  5
CB
330
C9
100
AcDbEntity
  8
0
100
AcDbBlockEnd
  0
BLOCK
  5
D0
330
CF
100
AcDbEntity
  8
0
100
AcDbBlockBegin
  2
SW_NOTE_4
 70
     0
 10
0.0
 20
0.0
 30
0.0
  3
SW_NOTE_4
  1

  0
MTEXT
  5
D2
330
CF
100
AcDbEntity
  8
0
  6
Continuous
 62
     0
370
     0
100
AcDbMText
 10
0.2368164063
 20
0.2014168343
 30
0.0
 40
0.15625
 41
0.0
 71
     2
 72
     1
  1
PART
  7
SLDTEXTSTYLE0
 73
     1
 44
1.0
  0
MTEXT
  5
D3
330
CF
100
AcDbEntity
  8
0
  6
Continuous
 62
     0
370
     0
100
AcDbMText
 10
0.2438693602
 20
-0.0040457588
 30
0.0
 40
0.15625
 41
0.0
 71
     2
 72
     1
  1
No.
  7
SLDTEXTSTYLE0
 73
     1
 44
1.0
  0
ENDBLK
  5
D1
330
CF
100
AcDbEntity
  8
0
100
AcDbBlockEnd
  0
BLOCK
  5
D6
330
D5
100
AcDbEntity
  8
0
100
AcDbBlockBegin
  2
SW_NOTE_5
 70
     0
 10
0.0
 20
0.0
 30
0.0
  3
SW_NOTE_5
  1

  0
MTEXT
  5
D8
330
D5
100
AcDbEntity
  8
0
  6
Continuous
 62
     0
370
     0
100
AcDbMText
 10
0.458984375
 20
0.2014168343
 30
0.0
 40
0.15625
 41
0.0
 71
     2
 72
     1
  1
REVISION
  7
SLDTEXTSTYLE0
 73
     1
 44
1.0
  0
MTEXT
  5
D9
330
D5
100
AcDbEntity
  8
0
  6
Continuous
 62
     0
370
     0
100
AcDbMText
 10
0.4418674045
 20
-0.0040457588
 30
0.0
 40
0.15625
 41
0.0
 71
     2
 72
     1
  1
DATE
  7
SLDTEXTSTYLE0
 73
     1
 44
1.0
  0
ENDBLK
  5
D7
330
D5
100
AcDbEntity
  8
0
100
AcDbBlockEnd
  0
BLOCK
  5
14D
330
14C
100
AcDbEntity
  8
0
100
AcDbBlockBegin
  2
_D
 70
     0
 10
0.0
 20
0.0
 30
0.0
  3
_D
  1

  0
SOLID
  5
14F
330
14C
100
AcDbEntity
  8
0
  6
Continuous
 62
     7
370
    18
100
AcDbTrace
 10
1.0754927062
 20
11.2118099027
 30
0.0
 11
1.0504927062
 21
11.0493099027
 31
0.0
 12
1.1004927062
 22
11.0493099027
 32
0.0
 13
1.1004927062
 23
11.0493099027
 33
0.0
  0
SOLID
  5
150
330
14C
100
AcDbEntity
  8
0
  6
Continuous
 62
     7
370
    18
100
AcDbTrace
 10
1.0754927062
 20
7.2748020287
 30
0.0
 11
1.1004927062
 21
7.4373020287
 31
0.0
 12
1.0504927062
 22
7.4373020287
 32
0.0
 13
1.0504927062
 23
7.4373020287
 33
0.0
  0
LINE
  5
151
330
14C
100
AcDbEntity
  8
0
  6
Continuous
 62
     7
370
    18
100
AcDbLine
 10
0.9023156339
 20
9.2421123649
 30
0.0
 11
0.8547082125
 21
9.2421123649
 31
0.0
  0
LINE
  5
152
330
14C
100
AcDbEntity
  8
0
  6
Continuous
 62
     7
370
    18
100
AcDbLine
 10
0.8547082125
 20
9.2421123649
 30
0.0
 11
0.8547082125
 21
8.9940654824
 31
0.0
  0
LINE
  5
153
330
14C
100
AcDbEntity
  8
0
  6
Continuous
 62
     7
370
    18
100
AcDbLine
 10
0.8547082125
 20
8.9940654824
 30
0.0
 11
0.9023156339
 21
8.9940654824
 31
0.0
  0
LINE
  5
154
330
14C
100
AcDbEntity
  8
0
  6
Continuous
 62
     7
370
    18
100
AcDbLine
 10
1.2486698015
 20
9.2421123649
 30
0.0
 11
1.2962772229
 21
9.2421123649
 31
0.0
  0
LINE
  5
155
330
14C
100
AcDbEntity
  8
0
  6
Continuous
 62
     7
370
    18
100
AcDbLine
 10
1.2962772229
 20
9.2421123649
 30
0.0
 11
1.2962772229
 21
8.9940654824
 31
0.0
  0
LINE
  5
156
330
14C
100
AcDbEntity
  8
0
  6
Continuous
 62
     7
370
    18
100
AcDbLine
 10
1.2962772229
 20
8.9940654824
 30
0.0
 11
1.2486698015
 21
8.9940654824
 31
0.0
  0
LINE
  5
157
330
14C
100
AcDbEntity
  8
0
  6
Continuous
 62
     7
370
    18
100
AcDbLine
 10
2.5587073157
 20
11.2118099027
 30
0.0
 11
0.9192427062
 21
11.2118099027
 31
0.0
  0
LINE
  5
158
330
14C
100
AcDbEntity
  8
0
  6
Continuous
 62
     7
370
    18
100
AcDbLine
 10
2.5587073157
 20
7.2748020287
 30
0.0
 11
0.9192427062
 21
7.2748020287
 31
0.0
  0
LINE
  5
159
330
14C
100
AcDbEntity
  8
0
  6
Continuous
 62
     7
370
    18
100
AcDbLine
 10
1.0754927062
 20
11.2118099027
 30
0.0
 11
1.0754927062
 21
9.5242846802
 31
0.0
  0
LINE
  5
15A
330
14C
100
AcDbEntity
  8
0
  6
Continuous
 62
     7
370
    18
100
AcDbLine
 10
1.0754927062
 20
7.2748020287
 30
0.0
 11
1.0754927062
 21
8.9623272512
 31
0.0
  0
MTEXT
  5
15B
330
14C
100
AcDbEntity
  8
0
  6
Continuous
 62
     7
370
    18
100
AcDbMText
 10
0.8079688465
 20
9.4776546493
 30
0.0
 40
0.15625
 41
0.0
 71
     1
 72
     1
  1

  7
SLDTEXTSTYLE0
 73
     1
 44
1.0
  0
MTEXT
  5
15C
330
14C
100
AcDbEntity
  8
0
  6
Continuous
 62
     7
370
    18
100
AcDbMText
 10
0.8734527808
 20
9.4752674849
 30
0.0
 40
0.15625
 41
0.0
 71
     1
 72
     1
  1
3.94
  7
SLDTEXTSTYLE0
 73
     1
 44
1.0
  0
MTEXT
  5
15D
330
14C
100
AcDbEntity
  8
0
  6
Continuous
 62
     7
370
    18
100
AcDbMText
 10
0.9023156339
 20
9.195482334
 30
0.0
 40
0.15625
 41
0.0
 71
     1
 72
     1
  1
100
  7
SLDTEXTSTYLE0
 73
     1
 44
1.0
  0
MTEXT
  5
15E
330
14C
100
AcDbEntity
  8
0
  6
Continuous
 62
     7
370
    18
100
AcDbMText
 10
1.4024783828
 20
9.4776546493
 30
0.0
 40
0.15625
 41
0.0
 71
     1
 72
     1
  1

  7
SLDTEXTSTYLE0
 73
     1
 44
1.0
  0
ENDBLK
  5
14E
330
14C
100
AcDbEntity
  8
0
100
AcDbBlockEnd
  0
BLOCK
  5
161
330
160
100
AcDbEntity
  8
0
100
AcDbBlockBegin
  2
_D_1
 70
     0
 10
0.0
 20
0.0
 30
0.0
  3
_D_1
  1

  0
SOLID
  5
163
330
160
100
AcDbEntity
  8
0
  6
Continuous
 62
     7
370
    18
100
AcDbTrace
 10
6.2432545598
 20
11.8899888767
 30
0.0
 11
6.0807545598
 21
11.9149888767
 31
0.0
 12
6.0807545598
 22
11.8649888767
 32
0.0
 13
6.0807545598
 23
11.8649888767
 33
0.0
  0
SOLID
  5
164
330
160
100
AcDbEntity
  8
0
  6
Continuous
 62
     7
370
    18
100
AcDbTrace
 10
2.3062466858
 20
11.8899888767
 30
0.0
 11
2.4687466858
 21
11.8649888767
 31
0.0
 12
2.4687466858
 22
11.9149888767
 32
0.0
 13
2.4687466858
 23
11.9149888767
 33
0.0
  0
LINE
  5
165
330
160
100
AcDbEntity
  8
0
  6
Continuous
 62
     7
370
    18
100
AcDbLine
 10
4.1015735504
 20
11.8887952759
 30
0.0
 11
4.053966129
 21
11.8887952759
 31
0.0
  0
LINE
  5
166
330
160
100
AcDbEntity
  8
0
  6
Continuous
 62
     7
370
    18
100
AcDbLine
 10
4.053966129
 20
11.8887952759
 30
0.0
 11
4.053966129
 21
11.6407483934
 31
0.0
  0
LINE
  5
167
330
160
100
AcDbEntity
  8
0
  6
Continuous
 62
     7
370
    18
100
AcDbLine
 10
4.053966129
 20
11.6407483934
 30
0.0
 11
4.1015735504
 21
11.6407483934
 31
0.0
  0
LINE
  5
168
330
160
100
AcDbEntity
  8
0
  6
Continuous
 62
     7
370
    18
100
AcDbLine
 10
4.4479277181
 20
11.8887952759
 30
0.0
 11
4.4955351394
 21
11.8887952759
 31
0.0
  0
LINE
  5
169
330
160
100
AcDbEntity
  8
0
  6
Continuous
 62
     7
370
    18
100
AcDbLine
 10
4.4955351394
 20
11.8887952759
 30
0.0
 11
4.4955351394
 21
11.6407483934
 31
0.0
  0
LINE
  5
16A
330
160
100
AcDbEntity
  8
0
  6
Continuous
 62
     7
370
    18
100
AcDbLine
 10
4.4955351394
 20
11.6407483934
 30
0.0
 11
4.4479277181
 21
11.6407483934
 31
0.0
  0
LINE
  5
16B
330
160
100
AcDbEntity
  8
0
  6
Continuous
 62
     7
370
    18
100
AcDbLine
 10
6.2432545598
 20
10.9593492728
 30
0.0
 11
6.2432545598
 21
12.0462388767
 31
0.0
  0
LINE
  5
16C
330
160
100
AcDbEntity
  8
0
  6
Continuous
 62
     7
370
    18
100
AcDbLine
 10
2.3062466858
 20
10.9593492728
 30
0.0
 11
2.3062466858
 21
12.0462388767
 31
0.0
  0
LINE
  5
16D
330
160
100
AcDbEntity
  8
0
  6
Continuous
 62
     7
370
    18
100
AcDbLine
 10
6.2432545598
 20
11.8899888767
 30
0.0
 11
4.6325663539
 21
11.8899888767
 31
0.0
  0
LINE
  5
16E
330
160
100
AcDbEntity
  8
0
  6
Continuous
 62
     7
370
    18
100
AcDbLine
 10
2.3062466858
 20
11.8899888767
 30
0.0
 11
3.9169348916
 21
11.8899888767
 31
0.0
  0
MTEXT
  5
16F
330
160
100
AcDbEntity
  8
0
  6
Continuous
 62
     7
370
    18
100
AcDbMText
 10
4.007226763
 20
12.1243375603
 30
0.0
 40
0.15625
 41
0.0
 71
     1
 72
     1
  1

  7
SLDTEXTSTYLE0
 73
     1
 44
1.0
  0
MTEXT
  5
170
330
160
100
AcDbEntity
  8
0
  6
Continuous
 62
     7
370
    18
100
AcDbMText
 10
4.0727106974
 20
12.1219503959
 30
0.0
 40
0.15625
 41
0.0
 71
     1
 72
     1
  1
3.94
  7
SLDTEXTSTYLE0
 73
     1
 44
1.0
  0
MTEXT
  5
171
330
160
100
AcDbEntity
  8
0
  6
Continuous
 62
     7
370
    18
100
AcDbMText
 10
4.1015735504
 20
11.842165245
 30
0.0
 40
0.15625
 41
0.0
 71
     1
 72
     1
  1
100
  7
SLDTEXTSTYLE0
 73
     1
 44
1.0
  0
MTEXT
  5
172
330
160
100
AcDbEntity
  8
0
  6
Continuous
 62
     7
370
    18
100
AcDbMText
 10
4.6017362994
 20
12.1243375603
 30
0.0
 40
0.15625
 41
0.0
 71
     1
 72
     1
  1

  7
SLDTEXTSTYLE0
 73
     1
 44
1.0
  0
ENDBLK
  5
162
330
160
100
AcDbEntity
  8
0
100
AcDbBlockEnd
  0
BLOCK
  5
175
330
174
100
AcDbEntity
  8
0
100
AcDbBlockBegin
  2
_D_2
 70
     0
 10
0.0
 20
0.0
 30
0.0
  3
_D_2
  1

  0
SOLID
  5
177
330
174
100
AcDbEntity
  8
0
  6
Continuous
 62
     7
370
    18
100
AcDbTrace
 10
1.7957218399
 20
10.4244083279
 30
0.0
 11
1.7707218399
 21
10.2619083279
 31
0.0
 12
1.8207218399
 22
10.2619083279
 32
0.0
 13
1.8207218399
 23
10.2619083279
 33
0.0
  0
SOLID
  5
178
330
174
100
AcDbEntity
  8
0
  6
Continuous
 62
     7
370
    18
100
AcDbTrace
 10
1.7957218399
 20
8.0622036035
 30
0.0
 11
1.8207218399
 21
8.2247036035
 31
0.0
 12
1.7707218399
 22
8.2247036035
 32
0.0
 13
1.7707218399
 23
8.2247036035
 33
0.0
  0
LINE
  5
179
330
174
100
AcDbEntity
  8
0
  6
Continuous
 62
     7
370
    18
100
AcDbLine
 10
1.6802704736
 20
9.2421123649
 30
0.0
 11
1.6326630523
 21
9.2421123649
 31
0.0
  0
LINE
  5
17A
330
174
100
AcDbEntity
  8
0
  6
Continuous
 62
     7
370
    18
100
AcDbLine
 10
1.6326630523
 20
9.2421123649
 30
0.0
 11
1.6326630523
 21
8.9940654824
 31
0.0
  0
LINE
  5
17B
330
174
100
AcDbEntity
  8
0
  6
Continuous
 62
     7
370
    18
100
AcDbLine
 10
1.6326630523
 20
8.9940654824
 30
0.0
 11
1.6802704736
 21
8.9940654824
 31
0.0
  0
LINE
  5
17C
330
174
100
AcDbEntity
  8
0
  6
Continuous
 62
     7
370
    18
100
AcDbLine
 10
1.9111732521
 20
9.2421123649
 30
0.0
 11
1.9587806735
 21
9.2421123649
 31
0.0
  0
LINE
  5
17D
330
174
100
AcDbEntity
  8
0
  6
Continuous
 62
     7
370
    18
100
AcDbLine
 10
1.9587806735
 20
9.2421123649
 30
0.0
 11
1.9587806735
 21
8.9940654824
 31
0.0
  0
LINE
  5
17E
330
174
100
AcDbEntity
  8
0
  6
Continuous
 62
     7
370
    18
100
AcDbLine
 10
1.9587806735
 20
8.9940654824
 30
0.0
 11
1.9111732521
 21
8.9940654824
 31
0.0
  0
LINE
  5
17F
330
174
100
AcDbEntity
  8
0
  6
Continuous
 62
     7
370
    18
100
AcDbLine
 10
4.2122506228
 20
10.4244083279
 30
0.0
 11
1.6394718399
 21
10.4244083279
 31
0.0
  0
LINE
  5
180
330
174
100
AcDbEntity
  8
0
  6
Continuous
 62
     7
370
    18
100
AcDbLine
 10
4.2122506228
 20
8.0622036035
 30
0.0
 11
1.6394718399
 21
8.0622036035
 31
0.0
  0
LINE
  5
181
330
174
100
AcDbEntity
  8
0
  6
Continuous
 62
     7
370
    18
100
AcDbLine
 10
1.7957218399
 20
10.4244083279
 30
0.0
 11
1.7957218399
 21
9.5242846802
 31
0.0
  0
LINE
  5
182
330
174
100
AcDbEntity
  8
0
  6
Continuous
 62
     7
370
    18
100
AcDbLine
 10
1.7957218399
 20
8.0622036035
 30
0.0
 11
1.7957218399
 21
8.9623272512
 31
0.0
  0
MTEXT
  5
183
330
174
100
AcDbEntity
  8
0
  6
Continuous
 62
     7
370
    18
100
AcDbMText
 10
1.5859236863
 20
9.4776546493
 30
0.0
 40
0.15625
 41
0.0
 71
     1
 72
     1
  1

  7
SLDTEXTSTYLE0
 73
     1
 44
1.0
  0
MTEXT
  5
184
330
174
100
AcDbEntity
  8
0
  6
Continuous
 62
     7
370
    18
100
AcDbMText
 10
1.5936819145
 20
9.4752674849
 30
0.0
 40
0.15625
 41
0.0
 71
     1
 72
     1
  1
2.36
  7
SLDTEXTSTYLE0
 73
     1
 44
1.0
  0
MTEXT
  5
185
330
174
100
AcDbEntity
  8
0
  6
Continuous
 62
     7
370
    18
100
AcDbMText
 10
1.6802704736
 20
9.195482334
 30
0.0
 40
0.15625
 41
0.0
 71
     1
 72
     1
  1
60
  7
SLDTEXTSTYLE0
 73
     1
 44
1.0
  0
MTEXT
  5
186
330
174
100
AcDbEntity
  8
0
  6
Continuous
 62
     7
370
    18
100
AcDbMText
 10
2.0649818105
 20
9.4776546493
 30
0.0
 40
0.15625
 41
0.0
 71
     1
 72
     1
  1

  7
SLDTEXTSTYLE0
 73
     1
 44
1.0
  0
ENDBLK
  5
176
330
174
100
AcDbEntity
  8
0
100
AcDbBlockEnd
  0
BLOCK
  5
189
330
188
100
AcDbEntity
  8
0
100
AcDbBlockBegin
  2
_D_3
 70
     0
 10
0.0
 20
0.0
 30
0.0
  3
_D_3
  1

  0
SOLID
  5
18B
330
188
100
AcDbEntity
  8
0
  6
Continuous
 62
     7
370
    18
100
AcDbTrace
 10
2.8997506228
 20
6.7642771829
 30
0.0
 11
3.0622506228
 21
6.7392771829
 31
0.0
 12
3.0622506228
 22
6.7892771829
 32
0.0
 13
3.0622506228
 23
6.7892771829
 33
0.0
  0
SOLID
  5
18C
330
188
100
AcDbEntity
  8
0
  6
Continuous
 62
     7
370
    18
100
AcDbTrace
 10
5.6497506228
 20
6.7642771829
 30
0.0
 11
5.4872506228
 21
6.7892771829
 31
0.0
 12
5.4872506228
 22
6.7392771829
 32
0.0
 13
5.4872506228
 23
6.7392771829
 33
0.0
  0
LINE
  5
18D
330
188
100
AcDbEntity
  8
0
  6
Continuous
 62
     7
370
    18
100
AcDbLine
 10
4.0727107088
 20
6.7630835821
 30
0.0
 11
4.0251032875
 21
6.7630835821
 31
0.0
  0
LINE
  5
18E
330
188
100
AcDbEntity
  8
0
  6
Continuous
 62
     7
370
    18
100
AcDbLine
 10
4.0251032875
 20
6.7630835821
 30
0.0
 11
4.0251032875
 21
6.5150366996
 31
0.0
  0
LINE
  5
18F
330
188
100
AcDbEntity
  8
0
  6
Continuous
 62
     7
370
    18
100
AcDbLine
 10
4.0251032875
 20
6.5150366996
 30
0.0
 11
4.0727107088
 21
6.5150366996
 31
0.0
  0
LINE
  5
190
330
188
100
AcDbEntity
  8
0
  6
Continuous
 62
     7
370
    18
100
AcDbLine
 10
4.4767905825
 20
6.7630835821
 30
0.0
 11
4.5243980039
 21
6.7630835821
 31
0.0
  0
LINE
  5
191
330
188
100
AcDbEntity
  8
0
  6
Continuous
 62
     7
370
    18
100
AcDbLine
 10
4.5243980039
 20
6.7630835821
 30
0.0
 11
4.5243980039
 21
6.5150366996
 31
0.0
  0
LINE
  5
192
330
188
100
AcDbEntity
  8
0
  6
Continuous
 62
     7
370
    18
100
AcDbLine
 10
4.5243980039
 20
6.5150366996
 30
0.0
 11
4.4767905825
 21
6.5150366996
 31
0.0
  0
LINE
  5
193
330
188
100
AcDbEntity
  8
0
  6
Continuous
 62
     7
370
    18
100
AcDbLine
 10
2.8997506228
 20
8.2958059657
 30
0.0
 11
2.8997506228
 21
6.6080271829
 31
0.0
  0
LINE
  5
194
330
188
100
AcDbEntity
  8
0
  6
Continuous
 62
     7
370
    18
100
AcDbLine
 10
5.6497506228
 20
8.2958059657
 30
0.0
 11
5.6497506228
 21
6.6080271829
 31
0.0
  0
LINE
  5
195
330
188
100
AcDbEntity
  8
0
  6
Continuous
 62
     7
370
    18
100
AcDbLine
 10
2.8997506228
 20
6.7642771829
 30
0.0
 11
3.8880720501
 21
6.7642771829
 31
0.0
  0
LINE
  5
196
330
188
100
AcDbEntity
  8
0
  6
Continuous
 62
     7
370
    18
100
AcDbLine
 10
5.6497506228
 20
6.7642771829
 30
0.0
 11
4.6614291955
 21
6.7642771829
 31
0.0
  0
MTEXT
  5
197
330
188
100
AcDbEntity
  8
0
  6
Continuous
 62
     7
370
    18
100
AcDbMText
 10
3.9783639215
 20
6.9986258665
 30
0.0
 40
0.15625
 41
0.0
 71
     1
 72
     1
  1

  7
SLDTEXTSTYLE0
 73
     1
 44
1.0
  0
MTEXT
  5
198
330
188
100
AcDbEntity
  8
0
  6
Continuous
 62
     7
370
    18
100
AcDbMText
 10
4.0727106974
 20
6.9962387021
 30
0.0
 40
0.15625
 41
0.0
 71
     1
 72
     1
  1
2.75
  7
SLDTEXTSTYLE0
 73
     1
 44
1.0
  0
MTEXT
  5
199
330
188
100
AcDbEntity
  8
0
  6
Continuous
 62
     7
370
    18
100
AcDbMText
 10
4.0727107088
 20
6.7164535511
 30
0.0
 40
0.15625
 41
0.0
 71
     1
 72
     1
  1
69.9
  7
SLDTEXTSTYLE0
 73
     1
 44
1.0
  0
MTEXT
  5
19A
330
188
100
AcDbEntity
  8
0
  6
Continuous
 62
     7
370
    18
100
AcDbMText
 10
4.6305991409
 20
6.9986258665
 30
0.0
 40
0.15625
 41
0.0
 71
     1
 72
     1
  1

  7
SLDTEXTSTYLE0
 73
     1
 44
1.0
  0
ENDBLK
  5
18A
330
188
100
AcDbEntity
  8
0
100
AcDbBlockEnd
  0
BLOCK
  5
19E
330
19D
100
AcDbEntity
  8
0
100
AcDbBlockBegin
  2
_D_4
 70
     0
 10
0.0
 20
0.0
 30
0.0
  3
_D_4
  1

  0
SOLID
  5
1A0
330
19D
100
AcDbEntity
  8
0
  6
Continuous
 62
     7
370
    18
100
AcDbTrace
 10
7.1832061556
 20
9.2433059657
 30
0.0
 11
7.1582061556
 21
9.0808059657
 31
0.0
 12
7.2082061556
 22
9.0808059657
 32
0.0
 13
7.2082061556
 23
9.0808059657
 33
0.0
  0
SOLID
  5
1A1
330
19D
100
AcDbEntity
  8
0
  6
Continuous
 62
     7
370
    18
100
AcDbTrace
 10
7.1832061556
 20
10.1283059657
 30
0.0
 11
7.2082061556
 21
10.2908059657
 31
0.0
 12
7.1582061556
 22
10.2908059657
 32
0.0
 13
7.1582061556
 23
10.2908059657
 33
0.0
  0
LINE
  5
1A2
330
19D
100
AcDbEntity
  8
0
  6
Continuous
 62
     7
370
    18
100
AcDbLine
 10
6.9811662417
 20
9.6846123649
 30
0.0
 11
6.9335588203
 21
9.6846123649
 31
0.0
  0
LINE
  5
1A3
330
19D
100
AcDbEntity
  8
0
  6
Continuous
 62
     7
370
    18
100
AcDbLine
 10
6.9335588203
 20
9.6846123649
 30
0.0
 11
6.9335588203
 21
9.4365654824
 31
0.0
  0
LINE
  5
1A4
330
19D
100
AcDbEntity
  8
0
  6
Continuous
 62
     7
370
    18
100
AcDbLine
 10
6.9335588203
 20
9.4365654824
 30
0.0
 11
6.9811662417
 21
9.4365654824
 31
0.0
  0
LINE
  5
1A5
330
19D
100
AcDbEntity
  8
0
  6
Continuous
 62
     7
370
    18
100
AcDbLine
 10
7.3852461154
 20
9.6846123649
 30
0.0
 11
7.4328535368
 21
9.6846123649
 31
0.0
  0
LINE
  5
1A6
330
19D
100
AcDbEntity
  8
0
  6
Continuous
 62
     7
370
    18
100
AcDbLine
 10
7.4328535368
 20
9.6846123649
 30
0.0
 11
7.4328535368
 21
9.4365654824
 31
0.0
  0
LINE
  5
1A7
330
19D
100
AcDbEntity
  8
0
  6
Continuous
 62
     7
370
    18
100
AcDbLine
 10
7.4328535368
 20
9.4365654824
 30
0.0
 11
7.3852461154
 21
9.4365654824
 31
0.0
  0
LINE
  5
1A8
330
19D
100
AcDbEntity
  8
0
  6
Continuous
 62
     7
370
    18
100
AcDbLine
 10
5.7122506228
 20
9.2433059657
 30
0.0
 11
7.3394561556
 21
9.2433059657
 31
0.0
  0
LINE
  5
1A9
330
19D
100
AcDbEntity
  8
0
  6
Continuous
 62
     7
370
    18
100
AcDbLine
 10
5.7122506228
 20
10.1283059657
 30
0.0
 11
7.3394561556
 21
10.1283059657
 31
0.0
  0
LINE
  5
1AA
330
19D
100
AcDbEntity
  8
0
  6
Continuous
 62
     7
370
    18
100
AcDbLine
 10
7.1832061556
 20
9.2433059657
 30
0.0
 11
7.1832061556
 21
8.9308059657
 31
0.0
  0
LINE
  5
1AB
330
19D
100
AcDbEntity
  8
0
  6
Continuous
 62
     7
370
    18
100
AcDbLine
 10
7.1832061556
 20
10.1283059657
 30
0.0
 11
7.1832061556
 21
10.4408059657
 31
0.0
  0
MTEXT
  5
1AC
330
19D
100
AcDbEntity
  8
0
  6
Continuous
 62
     7
370
    18
100
AcDbMText
 10
6.8868194543
 20
9.9201546493
 30
0.0
 40
0.15625
 41
0.0
 71
     1
 72
     1
  1

  7
SLDTEXTSTYLE0
 73
     1
 44
1.0
  0
MTEXT
  5
1AD
330
19D
100
AcDbEntity
  8
0
  6
Continuous
 62
     7
370
    18
100
AcDbMText
 10
7.0388919363
 20
9.9177674849
 30
0.0
 40
0.15625
 41
0.0
 71
     1
 72
     1
  1
.89
  7
SLDTEXTSTYLE0
 73
     1
 44
1.0
  0
MTEXT
  5
1AE
330
19D
100
AcDbEntity
  8
0
  6
Continuous
 62
     7
370
    18
100
AcDbMText
 10
6.9811662417
 20
9.637982334
 30
0.0
 40
0.15625
 41
0.0
 71
     1
 72
     1
  1
22.5
  7
SLDTEXTSTYLE0
 73
     1
 44
1.0
  0
MTEXT
  5
1AF
330
19D
100
AcDbEntity
  8
0
  6
Continuous
 62
     7
370
    18
100
AcDbMText
 10
7.5390546738
 20
9.9201546493
 30
0.0
 40
0.15625
 41
0.0
 71
     1
 72
     1
  1

  7
SLDTEXTSTYLE0
 73
     1
 44
1.0
  0
ENDBLK
  5
19F
330
19D
100
AcDbEntity
  8
0
100
AcDbBlockEnd
  0
BLOCK
  5
1B2
330
1B1
100
AcDbEntity
  8
0
100
AcDbBlockBegin
  2
_D_5
 70
     0
 10
0.0
 20
0.0
 30
0.0
  3
_D_5
  1

  0
SOLID
  5
1B4
330
1B1
100
AcDbEntity
  8
0
  6
Continuous
 62
     7
370
    18
100
AcDbTrace
 10
6.6680805743
 20
9.2433059657
 30
0.0
 11
6.6930805743
 21
9.4058059657
 31
0.0
 12
6.6430805743
 22
9.4058059657
 32
0.0
 13
6.6430805743
 23
9.4058059657
 33
0.0
  0
SOLID
  5
1B5
330
1B1
100
AcDbEntity
  8
0
  6
Continuous
 62
     7
370
    18
100
AcDbTrace
 10
6.6680805743
 20
8.3583059657
 30
0.0
 11
6.6430805743
 21
8.1958059657
 31
0.0
 12
6.6930805743
 22
8.1958059657
 32
0.0
 13
6.6930805743
 23
8.1958059657
 33
0.0
  0
LINE
  5
1B6
330
1B1
100
AcDbEntity
  8
0
  6
Continuous
 62
     7
370
    18
100
AcDbLine
 10
6.4660406604
 20
8.7996123649
 30
0.0
 11
6.418433239
 21
8.7996123649
 31
0.0
  0
LINE
  5
1B7
330
1B1
100
AcDbEntity
  8
0
  6
Continuous
 62
     7
370
    18
100
AcDbLine
 10
6.418433239
 20
8.7996123649
 30
0.0
 11
6.418433239
 21
8.5515654824
 31
0.0
  0
LINE
  5
1B8
330
1B1
100
AcDbEntity
  8
0
  6
Continuous
 62
     7
370
    18
100
AcDbLine
 10
6.418433239
 20
8.5515654824
 30
0.0
 11
6.4660406604
 21
8.5515654824
 31
0.0
  0
LINE
  5
1B9
330
1B1
100
AcDbEntity
  8
0
  6
Continuous
 62
     7
370
    18
100
AcDbLine
 10
6.8701205341
 20
8.7996123649
 30
0.0
 11
6.9177279554
 21
8.7996123649
 31
0.0
  0
LINE
  5
1BA
330
1B1
100
AcDbEntity
  8
0
  6
Continuous
 62
     7
370
    18
100
AcDbLine
 10
6.9177279554
 20
8.7996123649
 30
0.0
 11
6.9177279554
 21
8.5515654824
 31
0.0
  0
LINE
  5
1BB
330
1B1
100
AcDbEntity
  8
0
  6
Continuous
 62
     7
370
    18
100
AcDbLine
 10
6.9177279554
 20
8.5515654824
 30
0.0
 11
6.8701205341
 21
8.5515654824
 31
0.0
  0
LINE
  5
1BC
330
1B1
100
AcDbEntity
  8
0
  6
Continuous
 62
     7
370
    18
100
AcDbLine
 10
5.7122506228
 20
9.2433059657
 30
0.0
 11
6.8243305743
 21
9.2433059657
 31
0.0
  0
LINE
  5
1BD
330
1B1
100
AcDbEntity
  8
0
  6
Continuous
 62
     7
370
    18
100
AcDbLine
 10
5.7122506228
 20
8.3583059657
 30
0.0
 11
6.8243305743
 21
8.3583059657
 31
0.0
  0
LINE
  5
1BE
330
1B1
100
AcDbEntity
  8
0
  6
Continuous
 62
     7
370
    18
100
AcDbLine
 10
6.6680805743
 20
9.2433059657
 30
0.0
 11
6.6680805743
 21
9.5558059657
 31
0.0
  0
LINE
  5
1BF
330
1B1
100
AcDbEntity
  8
0
  6
Continuous
 62
     7
370
    18
100
AcDbLine
 10
6.6680805743
 20
8.3583059657
 30
0.0
 11
6.6680805743
 21
8.0458059657
 31
0.0
  0
MTEXT
  5
1C0
330
1B1
100
AcDbEntity
  8
0
  6
Continuous
 62
     7
370
    18
100
AcDbMText
 10
6.371693873
 20
9.0351546493
 30
0.0
 40
0.15625
 41
0.0
 71
     1
 72
     1
  1

  7
SLDTEXTSTYLE0
 73
     1
 44
1.0
  0
MTEXT
  5
1C1
330
1B1
100
AcDbEntity
  8
0
  6
Continuous
 62
     7
370
    18
100
AcDbMText
 10
6.523766355
 20
9.0327674849
 30
0.0
 40
0.15625
 41
0.0
 71
     1
 72
     1
  1
.89
  7
SLDTEXTSTYLE0
 73
     1
 44
1.0
  0
MTEXT
  5
1C2
330
1B1
100
AcDbEntity
  8
0
  6
Continuous
 62
     7
370
    18
100
AcDbMText
 10
6.4660406604
 20
8.752982334
 30
0.0
 40
0.15625
 41
0.0
 71
     1
 72
     1
  1
22.5
  7
SLDTEXTSTYLE0
 73
     1
 44
1.0
  0
MTEXT
  5
1C3
330
1B1
100
AcDbEntity
  8
0
  6
Continuous
 62
     7
370
    18
100
AcDbMText
 10
7.0239290925
 20
9.0351546493
 30
0.0
 40
0.15625
 41
0.0
 71
     1
 72
     1
  1

  7
SLDTEXTSTYLE0
 73
     1
 44
1.0
  0
ENDBLK
  5
1B3
330
1B1
100
AcDbEntity
  8
0
100
AcDbBlockEnd
  0
BLOCK
  5
1C9
330
1C8
100
AcDbEntity
  8
0
100
AcDbBlockBegin
  2
SW_CENTERMARKSYMBOL_0
 70
     0
 10
0.0
 20
0.0
 30
0.0
  3
SW_CENTERMARKSYMBOL_0
  1

  0
LINE
  5
1CB
330
1C8
100
AcDbEntity
  8
0
  6
Continuous
 62
     0
370
    18
100
AcDbLine
 10
0.0
 20
0.0
 30
0.0
 11
0.0
 21
0.1
 31
0.0
  0
LINE
  5
1CC
330
1C8
100
AcDbEntity
  8
0
  6
Continuous
 62
     0
370
    18
100
AcDbLine
 10
0.0
 20
0.0
 30
0.0
 11
-0.1
 21
0.0
 31
0.0
  0
LINE
  5
1CD
330
1C8
100
AcDbEntity
  8
0
  6
Continuous
 62
     0
370
    18
100
AcDbLine
 10
0.0
 20
0.0
 30
0.0
 11
0.0
 21
-0.1
 31
0.0
  0
LINE
  5
1CE
330
1C8
100
AcDbEntity
  8
0
  6
Continuous
 62
     0
370
    18
100
AcDbLine
 10
0.0
 20
0.0
 30
0.0
 11
0.1
 21
0.0
 31
0.0
  0
LINE
  5
1CF
330
1C8
100
AcDbEntity
  8
0
  6
Continuous
 62
     0
370
    18
100
AcDbLine
 10
0.0
 20
0.1
 30
0.0
 11
0.0
 21
0.1826771654
 31
0.0
  0
LINE
  5
1D0
330
1C8
100
AcDbEntity
  8
0
  6
Continuous
 62
     0
370
    18
100
AcDbLine
 10
-0.1
 20
0.0
 30
0.0
 11
-0.1826771654
 21
0.0
 31
0.0
  0
LINE
  5
1D1
330
1C8
100
AcDbEntity
  8
0
  6
Continuous
 62
     0
370
    18
100
AcDbLine
 10
0.0
 20
-0.1
 30
0.0
 11
0.0
 21
-0.1826771654
 31
0.0
  0
LINE
  5
1D2
330
1C8
100
AcDbEntity
  8
0
  6
Continuous
 62
     0
370
    18
100
AcDbLine
 10
0.1
 20
0.0
 30
0.0
 11
0.1826771654
 21
0.0
 31
0.0
  0
ENDBLK
  5
1CA
330
1C8
100
AcDbEntity
  8
0
100
AcDbBlockEnd
  0
BLOCK
  5
1D5
330
1D4
100
AcDbEntity
  8
0
100
AcDbBlockBegin
  2
SW_CENTERMARKSYMBOL_1
 70
     0
 10
0.0
 20
0.0
 30
0.0
  3
SW_CENTERMARKSYMBOL_1
  1

  0
LINE
  5
1D7
330
1D4
100
AcDbEntity
  8
0
  6
Continuous
 62
     0
370
    18
100
AcDbLine
 10
0.0
 20
0.0
 30
0.0
 11
0.0
 21
0.1
 31
0.0
  0
LINE
  5
1D8
330
1D4
100
AcDbEntity
  8
0
  6
Continuous
 62
     0
370
    18
100
AcDbLine
 10
0.0
 20
0.0
 30
0.0
 11
-0.1
 21
0.0
 31
0.0
  0
LINE
  5
1D9
330
1D4
100
AcDbEntity
  8
0
  6
Continuous
 62
     0
370
    18
100
AcDbLine
 10
0.0
 20
0.0
 30
0.0
 11
0.0
 21
-0.1
 31
0.0
  0
LINE
  5
1DA
330
1D4
100
AcDbEntity
  8
0
  6
Continuous
 62
     0
370
    18
100
AcDbLine
 10
0.0
 20
0.0
 30
0.0
 11
0.1
 21
0.0
 31
0.0
  0
LINE
  5
1DB
330
1D4
100
AcDbEntity
  8
0
  6
Continuous
 62
     0
370
    18
100
AcDbLine
 10
0.0
 20
0.1
 30
0.0
 11
0.0
 21
0.1826771654
 31
0.0
  0
LINE
  5
1DC
330
1D4
100
AcDbEntity
  8
0
  6
Continuous
 62
     0
370
    18
100
AcDbLine
 10
-0.1
 20
0.0
 30
0.0
 11
-0.1826771654
 21
0.0
 31
0.0
  0
LINE
  5
1DD
330
1D4
100
AcDbEntity
  8
0
  6
Continuous
 62
     0
370
    18
100
AcDbLine
 10
0.0
 20
-0.1
 30
0.0
 11
0.0
 21
-0.1826771654
 31
0.0
  0
LINE
  5
1DE
330
1D4
100
AcDbEntity
  8
0
  6
Continuous
 62
     0
370
    18
100
AcDbLine
 10
0.1
 20
0.0
 30
0.0
 11
0.1826771654
 21
0.0
 31
0.0
  0
ENDBLK
  5
1D6
330
1D4
100
AcDbEntity
  8
0
100
AcDbBlockEnd
  0
BLOCK
  5
1E1
330
1E0
100
AcDbEntity
  8
0
100
AcDbBlockBegin
  2
SW_CENTERMARKSYMBOL_2
 70
     0
 10
0.0
 20
0.0
 30
0.0
  3
SW_CENTERMARKSYMBOL_2
  1

  0
LINE
  5
1E3
330
1E0
100
AcDbEntity
  8
0
  6
Continuous
 62
     0
370
    18
100
AcDbLine
 10
0.0
 20
0.0
 30
0.0
 11
0.0
 21
0.1
 31
0.0
  0
LINE
  5
1E4
330
1E0
100
AcDbEntity
  8
0
  6
Continuous
 62
     0
370
    18
100
AcDbLine
 10
0.0
 20
0.0
 30
0.0
 11
-0.1
 21
0.0
 31
0.0
  0
LINE
  5
1E5
330
1E0
100
AcDbEntity
  8
0
  6
Continuous
 62
     0
370
    18
100
AcDbLine
 10
0.0
 20
0.0
 30
0.0
 11
0.0
 21
-0.1
 31
0.0
  0
LINE
  5
1E6
330
1E0
100
AcDbEntity
  8
0
  6
Continuous
 62
     0
370
    18
100
AcDbLine
 10
0.0
 20
0.0
 30
0.0
 11
0.1
 21
0.0
 31
0.0
  0
LINE
  5
1E7
330
1E0
100
AcDbEntity
  8
0
  6
Continuous
 62
     0
370
    18
100
AcDbLine
 10
0.0
 20
0.1
 30
0.0
 11
0.0
 21
0.1826771654
 31
0.0
  0
LINE
  5
1E8
330
1E0
100
AcDbEntity
  8
0
  6
Continuous
 62
     0
370
    18
100
AcDbLine
 10
-0.1
 20
0.0
 30
0.0
 11
-0.1826771654
 21
0.0
 31
0.0
  0
LINE
  5
1E9
330
1E0
100
AcDbEntity
  8
0
  6
Continuous
 62
     0
370
    18
100
AcDbLine
 10
0.0
 20
-0.1
 30
0.0
 11
0.0
 21
-0.1826771654
 31
0.0
  0
LINE
  5
1EA
330
1E0
100
AcDbEntity
  8
0
  6
Continuous
 62
     0
370
    18
100
AcDbLine
 10
0.1
 20
0.0
 30
0.0
 11
0.1826771654
 21
0.0
 31
0.0
  0
ENDBLK
  5
1E2
330
1E0
100
AcDbEntity
  8
0
100
AcDbBlockEnd
  0
BLOCK
  5
1ED
330
1EC
100
AcDbEntity
  8
0
100
AcDbBlockBegin
  2
SW_CENTERMARKSYMBOL_3
 70
     0
 10
0.0
 20
0.0
 30
0.0
  3
SW_CENTERMARKSYMBOL_3
  1

  0
LINE
  5
1EF
330
1EC
100
AcDbEntity
  8
0
  6
Continuous
 62
     0
370
    18
100
AcDbLine
 10
0.0
 20
0.0
 30
0.0
 11
0.0
 21
0.1
 31
0.0
  0
LINE
  5
1F0
330
1EC
100
AcDbEntity
  8
0
  6
Continuous
 62
     0
370
    18
100
AcDbLine
 10
0.0
 20
0.0
 30
0.0
 11
-0.1
 21
0.0
 31
0.0
  0
LINE
  5
1F1
330
1EC
100
AcDbEntity
  8
0
  6
Continuous
 62
     0
370
    18
100
AcDbLine
 10
0.0
 20
0.0
 30
0.0
 11
0.0
 21
-0.1
 31
0.0
  0
LINE
  5
1F2
330
1EC
100
AcDbEntity
  8
0
  6
Continuous
 62
     0
370
    18
100
AcDbLine
 10
0.0
 20
0.0
 30
0.0
 11
0.1
 21
0.0
 31
0.0
  0
LINE
  5
1F3
330
1EC
100
AcDbEntity
  8
0
  6
Continuous
 62
     0
370
    18
100
AcDbLine
 10
0.0
 20
0.1
 30
0.0
 11
0.0
 21
0.1826771654
 31
0.0
  0
LINE
  5
1F4
330
1EC
100
AcDbEntity
  8
0
  6
Continuous
 62
     0
370
    18
100
AcDbLine
 10
-0.1
 20
0.0
 30
0.0
 11
-0.1826771654
 21
0.0
 31
0.0
  0
LINE
  5
1F5
330
1EC
100
AcDbEntity
  8
0
  6
Continuous
 62
     0
370
    18
100
AcDbLine
 10
0.0
 20
-0.1
 30
0.0
 11
0.0
 21
-0.1826771654
 31
0.0
  0
LINE
  5
1F6
330
1EC
100
AcDbEntity
  8
0
  6
Continuous
 62
     0
370
    18
100
AcDbLine
 10
0.1
 20
0.0
 30
0.0
 11
0.1826771654
 21
0.0
 31
0.0
  0
ENDBLK
  5
1EE
330
1EC
100
AcDbEntity
  8
0
100
AcDbBlockEnd
  0
BLOCK
  5
1F9
330
1F8
100
AcDbEntity
  8
0
100
AcDbBlockBegin
  2
SW_CENTERMARKSYMBOL_4
 70
     0
 10
0.0
 20
0.0
 30
0.0
  3
SW_CENTERMARKSYMBOL_4
  1

  0
LINE
  5
1FB
330
1F8
100
AcDbEntity
  8
0
  6
Continuous
 62
     0
370
    18
100
AcDbLine
 10
0.0
 20
0.0
 30
0.0
 11
0.0
 21
0.1
 31
0.0
  0
LINE
  5
1FC
330
1F8
100
AcDbEntity
  8
0
  6
Continuous
 62
     0
370
    18
100
AcDbLine
 10
0.0
 20
0.0
 30
0.0
 11
-0.1
 21
0.0
 31
0.0
  0
LINE
  5
1FD
330
1F8
100
AcDbEntity
  8
0
  6
Continuous
 62
     0
370
    18
100
AcDbLine
 10
0.0
 20
0.0
 30
0.0
 11
0.0
 21
-0.1
 31
0.0
  0
LINE
  5
1FE
330
1F8
100
AcDbEntity
  8
0
  6
Continuous
 62
     0
370
    18
100
AcDbLine
 10
0.0
 20
0.0
 30
0.0
 11
0.1
 21
0.0
 31
0.0
  0
LINE
  5
1FF
330
1F8
100
AcDbEntity
  8
0
  6
Continuous
 62
     0
370
    18
100
AcDbLine
 10
0.0
 20
0.1
 30
0.0
 11
0.0
 21
0.1825
 31
0.0
  0
LINE
  5
200
330
1F8
100
AcDbEntity
  8
0
  6
Continuous
 62
     0
370
    18
100
AcDbLine
 10
-0.1
 20
0.0
 30
0.0
 11
-0.1825
 21
0.0
 31
0.0
  0
LINE
  5
201
330
1F8
100
AcDbEntity
  8
0
  6
Continuous
 62
     0
370
    18
100
AcDbLine
 10
0.0
 20
-0.1
 30
0.0
 11
0.0
 21
-0.1825
 31
0.0
  0
LINE
  5
202
330
1F8
100
AcDbEntity
  8
0
  6
Continuous
 62
     0
370
    18
100
AcDbLine
 10
0.1
 20
0.0
 30
0.0
 11
0.1825
 21
0.0
 31
0.0
  0
ENDBLK
  5
1FA
330
1F8
100
AcDbEntity
  8
0
100
AcDbBlockEnd
  0
BLOCK
  5
205
330
204
100
AcDbEntity
  8
0
100
AcDbBlockBegin
  2
SW_CENTERMARKSYMBOL_5
 70
     0
 10
0.0
 20
0.0
 30
0.0
  3
SW_CENTERMARKSYMBOL_5
  1

  0
LINE
  5
207
330
204
100
AcDbEntity
  8
0
  6
Continuous
 62
     0
370
    18
100
AcDbLine
 10
0.0
 20
0.0
 30
0.0
 11
0.0
 21
0.1
 31
0.0
  0
LINE
  5
208
330
204
100
AcDbEntity
  8
0
  6
Continuous
 62
     0
370
    18
100
AcDbLine
 10
0.0
 20
0.0
 30
0.0
 11
-0.1
 21
0.0
 31
0.0
  0
LINE
  5
209
330
204
100
AcDbEntity
  8
0
  6
Continuous
 62
     0
370
    18
100
AcDbLine
 10
0.0
 20
0.0
 30
0.0
 11
0.0
 21
-0.1
 31
0.0
  0
LINE
  5
20A
330
204
100
AcDbEntity
  8
0
  6
Continuous
 62
     0
370
    18
100
AcDbLine
 10
0.0
 20
0.0
 30
0.0
 11
0.1
 21
0.0
 31
0.0
  0
LINE
  5
20B
330
204
100
AcDbEntity
  8
0
  6
Continuous
 62
     0
370
    18
100
AcDbLine
 10
0.0
 20
0.1
 30
0.0
 11
0.0
 21
0.1825
 31
0.0
  0
LINE
  5
20C
330
204
100
AcDbEntity
  8
0
  6
Continuous
 62
     0
370
    18
100
AcDbLine
 10
-0.1
 20
0.0
 30
0.0
 11
-0.1825
 21
0.0
 31
0.0
  0
LINE
  5
20D
330
204
100
AcDbEntity
  8
0
  6
Continuous
 62
     0
370
    18
100
AcDbLine
 10
0.0
 20
-0.1
 30
0.0
 11
0.0
 21
-0.1825
 31
0.0
  0
LINE
  5
20E
330
204
100
AcDbEntity
  8
0
  6
Continuous
 62
     0
370
    18
100
AcDbLine
 10
0.1
 20
0.0
 30
0.0
 11
0.1825
 21
0.0
 31
0.0
  0
ENDBLK
  5
206
330
204
100
AcDbEntity
  8
0
100
AcDbBlockEnd
  0
BLOCK
  5
211
330
210
100
AcDbEntity
  8
0
100
AcDbBlockBegin
  2
SW_CENTERMARKSYMBOL_6
 70
     0
 10
0.0
 20
0.0
 30
0.0
  3
SW_CENTERMARKSYMBOL_6
  1

  0
LINE
  5
213
330
210
100
AcDbEntity
  8
0
  6
Continuous
 62
     0
370
    18
100
AcDbLine
 10
0.0
 20
0.0
 30
0.0
 11
0.0
 21
0.1
 31
0.0
  0
LINE
  5
214
330
210
100
AcDbEntity
  8
0
  6
Continuous
 62
     0
370
    18
100
AcDbLine
 10
0.0
 20
0.0
 30
0.0
 11
-0.1
 21
0.0
 31
0.0
  0
LINE
  5
215
330
210
100
AcDbEntity
  8
0
  6
Continuous
 62
     0
370
    18
100
AcDbLine
 10
0.0
 20
0.0
 30
0.0
 11
0.0
 21
-0.1
 31
0.0
  0
LINE
  5
216
330
210
100
AcDbEntity
  8
0
  6
Continuous
 62
     0
370
    18
100
AcDbLine
 10
0.0
 20
0.0
 30
0.0
 11
0.1
 21
0.0
 31
0.0
  0
LINE
  5
217
330
210
100
AcDbEntity
  8
0
  6
Continuous
 62
     0
370
    18
100
AcDbLine
 10
0.0
 20
0.1
 30
0.0
 11
0.0
 21
0.1825
 31
0.0
  0
LINE
  5
218
330
210
100
AcDbEntity
  8
0
  6
Continuous
 62
     0
370
    18
100
AcDbLine
 10
-0.1
 20
0.0
 30
0.0
 11
-0.1825
 21
0.0
 31
0.0
  0
LINE
  5
219
330
210
100
AcDbEntity
  8
0
  6
Continuous
 62
     0
370
    18
100
AcDbLine
 10
0.0
 20
-0.1
 30
0.0
 11
0.0
 21
-0.1825
 31
0.0
  0
LINE
  5
21A
330
210
100
AcDbEntity
  8
0
  6
Continuous
 62
     0
370
    18
100
AcDbLine
 10
0.1
 20
0.0
 30
0.0
 11
0.1825
 21
0.0
 31
0.0
  0
ENDBLK
  5
212
330
210
100
AcDbEntity
  8
0
100
AcDbBlockEnd
  0
BLOCK
  5
21D
330
21C
100
AcDbEntity
  8
0
100
AcDbBlockBegin
  2
SW_CENTERMARKSYMBOL_7
 70
     0
 10
0.0
 20
0.0
 30
0.0
  3
SW_CENTERMARKSYMBOL_7
  1

  0
LINE
  5
21F
330
21C
100
AcDbEntity
  8
0
  6
Continuous
 62
     0
370
    18
100
AcDbLine
 10
0.0
 20
0.0
 30
0.0
 11
0.0
 21
0.1
 31
0.0
  0
LINE
  5
220
330
21C
100
AcDbEntity
  8
0
  6
Continuous
 62
     0
370
    18
100
AcDbLine
 10
0.0
 20
0.0
 30
0.0
 11
-0.1
 21
0.0
 31
0.0
  0
LINE
  5
221
330
21C
100
AcDbEntity
  8
0
  6
Continuous
 62
     0
370
    18
100
AcDbLine
 10
0.0
 20
0.0
 30
0.0
 11
0.0
 21
-0.1
 31
0.0
  0
LINE
  5
222
330
21C
100
AcDbEntity
  8
0
  6
Continuous
 62
     0
370
    18
100
AcDbLine
 10
0.0
 20
0.0
 30
0.0
 11
0.1
 21
0.0
 31
0.0
  0
LINE
  5
223
330
21C
100
AcDbEntity
  8
0
  6
Continuous
 62
     0
370
    18
100
AcDbLine
 10
0.0
 20
0.1
 30
0.0
 11
0.0
 21
0.1825
 31
0.0
  0
LINE
  5
224
330
21C
100
AcDbEntity
  8
0
  6
Continuous
 62
     0
370
    18
100
AcDbLine
 10
-0.1
 20
0.0
 30
0.0
 11
-0.1825
 21
0.0
 31
0.0
  0
LINE
  5
225
330
21C
100
AcDbEntity
  8
0
  6
Continuous
 62
     0
370
    18
100
AcDbLine
 10
0.0
 20
-0.1
 30
0.0
 11
0.0
 21
-0.1825
 31
0.0
  0
LINE
  5
226
330
21C
100
AcDbEntity
  8
0
  6
Continuous
 62
     0
370
    18
100
AcDbLine
 10
0.1
 20
0.0
 30
0.0
 11
0.1825
 21
0.0
 31
0.0
  0
ENDBLK
  5
21E
330
21C
100
AcDbEntity
  8
0
100
AcDbBlockEnd
  0
BLOCK
  5
229
330
228
100
AcDbEntity
  8
0
100
AcDbBlockBegin
  2
SW_CENTERMARKSYMBOL_8
 70
     0
 10
0.0
 20
0.0
 30
0.0
  3
SW_CENTERMARKSYMBOL_8
  1

  0
LINE
  5
22B
330
228
100
AcDbEntity
  8
0
  6
Continuous
 62
     0
370
    18
100
AcDbLine
 10
0.0
 20
0.0
 30
0.0
 11
0.0
 21
0.1
 31
0.0
  0
LINE
  5
22C
330
228
100
AcDbEntity
  8
0
  6
Continuous
 62
     0
370
    18
100
AcDbLine
 10
0.0
 20
0.0
 30
0.0
 11
-0.1
 21
0.0
 31
0.0
  0
LINE
  5
22D
330
228
100
AcDbEntity
  8
0
  6
Continuous
 62
     0
370
    18
100
AcDbLine
 10
0.0
 20
0.0
 30
0.0
 11
0.0
 21
-0.1
 31
0.0
  0
LINE
  5
22E
330
228
100
AcDbEntity
  8
0
  6
Continuous
 62
     0
370
    18
100
AcDbLine
 10
0.0
 20
0.0
 30
0.0
 11
0.1
 21
0.0
 31
0.0
  0
LINE
  5
22F
330
228
100
AcDbEntity
  8
0
  6
Continuous
 62
     0
370
    18
100
AcDbLine
 10
0.0
 20
0.1
 30
0.0
 11
0.0
 21
0.1825
 31
0.0
  0
LINE
  5
230
330
228
100
AcDbEntity
  8
0
  6
Continuous
 62
     0
370
    18
100
AcDbLine
 10
-0.1
 20
0.0
 30
0.0
 11
-0.1825
 21
0.0
 31
0.0
  0
LINE
  5
231
330
228
100
AcDbEntity
  8
0
  6
Continuous
 62
     0
370
    18
100
AcDbLine
 10
0.0
 20
-0.1
 30
0.0
 11
0.0
 21
-0.1825
 31
0.0
  0
LINE
  5
232
330
228
100
AcDbEntity
  8
0
  6
Continuous
 62
     0
370
    18
100
AcDbLine
 10
0.1
 20
0.0
 30
0.0
 11
0.1825
 21
0.0
 31
0.0
  0
ENDBLK
  5
22A
330
228
100
AcDbEntity
  8
0
100
AcDbBlockEnd
  0
BLOCK
  5
235
330
234
100
AcDbEntity
  8
0
100
AcDbBlockBegin
  2
SW_CENTERMARKSYMBOL_9
 70
     0
 10
0.0
 20
0.0
 30
0.0
  3
SW_CENTERMARKSYMBOL_9
  1

  0
LINE
  5
237
330
234
100
AcDbEntity
  8
0
  6
Continuous
 62
     0
370
    18
100
AcDbLine
 10
0.0
 20
0.0
 30
0.0
 11
0.0
 21
0.1
 31
0.0
  0
LINE
  5
238
330
234
100
AcDbEntity
  8
0
  6
Continuous
 62
     0
370
    18
100
AcDbLine
 10
0.0
 20
0.0
 30
0.0
 11
-0.1
 21
0.0
 31
0.0
  0
LINE
  5
239
330
234
100
AcDbEntity
  8
0
  6
Continuous
 62
     0
370
    18
100
AcDbLine
 10
0.0
 20
0.0
 30
0.0
 11
0.0
 21
-0.1
 31
0.0
  0
LINE
  5
23A
330
234
100
AcDbEntity
  8
0
  6
Continuous
 62
     0
370
    18
100
AcDbLine
 10
0.0
 20
0.0
 30
0.0
 11
0.1
 21
0.0
 31
0.0
  0
LINE
  5
23B
330
234
100
AcDbEntity
  8
0
  6
Continuous
 62
     0
370
    18
100
AcDbLine
 10
0.0
 20
0.1
 30
0.0
 11
0.0
 21
0.1825
 31
0.0
  0
LINE
  5
23C
330
234
100
AcDbEntity
  8
0
  6
Continuous
 62
     0
370
    18
100
AcDbLine
 10
-0.1
 20
0.0
 30
0.0
 11
-0.1825
 21
0.0
 31
0.0
  0
LINE
  5
23D
330
234
100
AcDbEntity
  8
0
  6
Continuous
 62
     0
370
    18
100
AcDbLine
 10
0.0
 20
-0.1
 30
0.0
 11
0.0
 21
-0.1825
 31
0.0
  0
LINE
  5
23E
330
234
100
AcDbEntity
  8
0
  6
Continuous
 62
     0
370
    18
100
AcDbLine
 10
0.1
 20
0.0
 30
0.0
 11
0.1825
 21
0.0
 31
0.0
  0
ENDBLK
  5
236
330
234
100
AcDbEntity
  8
0
100
AcDbBlockEnd
  0
BLOCK
  5
241
330
240
100
AcDbEntity
  8
0
100
AcDbBlockBegin
  2
SW_CENTERMARKSYMBOL_10
 70
     0
 10
0.0
 20
0.0
 30
0.0
  3
SW_CENTERMARKSYMBOL_10
  1

  0
LINE
  5
243
330
240
100
AcDbEntity
  8
0
  6
Continuous
 62
     0
370
    18
100
AcDbLine
 10
0.0
 20
0.0
 30
0.0
 11
0.0
 21
0.1
 31
0.0
  0
LINE
  5
244
330
240
100
AcDbEntity
  8
0
  6
Continuous
 62
     0
370
    18
100
AcDbLine
 10
0.0
 20
0.0
 30
0.0
 11
-0.1
 21
0.0
 31
0.0
  0
LINE
  5
245
330
240
100
AcDbEntity
  8
0
  6
Continuous
 62
     0
370
    18
100
AcDbLine
 10
0.0
 20
0.0
 30
0.0
 11
0.0
 21
-0.1
 31
0.0
  0
LINE
  5
246
330
240
100
AcDbEntity
  8
0
  6
Continuous
 62
     0
370
    18
100
AcDbLine
 10
0.0
 20
0.0
 30
0.0
 11
0.1
 21
0.0
 31
0.0
  0
LINE
  5
247
330
240
100
AcDbEntity
  8
0
  6
Continuous
 62
     0
370
    18
100
AcDbLine
 10
0.0
 20
0.1
 30
0.0
 11
0.0
 21
0.2
 31
0.0
  0
LINE
  5
248
330
240
100
AcDbEntity
  8
0
  6
Continuous
 62
     0
370
    18
100
AcDbLine
 10
-0.1
 20
0.0
 30
0.0
 11
-0.2
 21
0.0
 31
0.0
  0
LINE
  5
249
330
240
100
AcDbEntity
  8
0
  6
Continuous
 62
     0
370
    18
100
AcDbLine
 10
0.0
 20
-0.1
 30
0.0
 11
0.0
 21
-0.2
 31
0.0
  0
LINE
  5
24A
330
240
100
AcDbEntity
  8
0
  6
Continuous
 62
     0
370
    18
100
AcDbLine
 10
0.1
 20
0.0
 30
0.0
 11
0.2
 21
0.0
 31
0.0
  0
ENDBLK
  5
242
330
240
100
AcDbEntity
  8
0
100
AcDbBlockEnd
  0
BLOCK
  5
24D
330
24C
100
AcDbEntity
  8
0
100
AcDbBlockBegin
  2
SW_CENTERMARKSYMBOL_11
 70
     0
 10
0.0
 20
0.0
 30
0.0
  3
SW_CENTERMARKSYMBOL_11
  1

  0
LINE
  5
24F
330
24C
100
AcDbEntity
  8
0
  6
Continuous
 62
     0
370
    18
100
AcDbLine
 10
0.0
 20
0.0
 30
0.0
 11
0.0
 21
0.1
 31
0.0
  0
LINE
  5
250
330
24C
100
AcDbEntity
  8
0
  6
Continuous
 62
     0
370
    18
100
AcDbLine
 10
0.0
 20
0.0
 30
0.0
 11
-0.1
 21
0.0
 31
0.0
  0
LINE
  5
251
330
24C
100
AcDbEntity
  8
0
  6
Continuous
 62
     0
370
    18
100
AcDbLine
 10
0.0
 20
0.0
 30
0.0
 11
0.0
 21
-0.1
 31
0.0
  0
LINE
  5
252
330
24C
100
AcDbEntity
  8
0
  6
Continuous
 62
     0
370
    18
100
AcDbLine
 10
0.0
 20
0.0
 30
0.0
 11
0.1
 21
0.0
 31
0.0
  0
LINE
  5
253
330
24C
100
AcDbEntity
  8
0
  6
Continuous
 62
     0
370
    18
100
AcDbLine
 10
0.0
 20
0.1
 30
0.0
 11
0.0
 21
0.2
 31
0.0
  0
LINE
  5
254
330
24C
100
AcDbEntity
  8
0
  6
Continuous
 62
     0
370
    18
100
AcDbLine
 10
-0.1
 20
0.0
 30
0.0
 11
-0.2
 21
0.0
 31
0.0
  0
LINE
  5
255
330
24C
100
AcDbEntity
  8
0
  6
Continuous
 62
     0
370
    18
100
AcDbLine
 10
0.0
 20
-0.1
 30
0.0
 11
0.0
 21
-0.2
 31
0.0
  0
LINE
  5
256
330
24C
100
AcDbEntity
  8
0
  6
Continuous
 62
     0
370
    18
100
AcDbLine
 10
0.1
 20
0.0
 30
0.0
 11
0.2
 21
0.0
 31
0.0
  0
ENDBLK
  5
24E
330
24C
100
AcDbEntity
  8
0
100
AcDbBlockEnd
  0
BLOCK
  5
2A0
330
29F
100
AcDbEntity
  8
0
100
AcDbBlockBegin
  2
_D_6
 70
     0
 10
0.0
 20
0.0
 30
0.0
  3
_D_6
  1

  0
SOLID
  5
2A2
330
29F
100
AcDbEntity
  8
0
  6
Continuous
 62
     7
370
    18
100
AcDbTrace
 10
7.2133957693
 20
4.253986624
 30
0.0
 11
7.1883957693
 21
4.091486624
 31
0.0
 12
7.2383957693
 22
4.091486624
 32
0.0
 13
7.2383957693
 23
4.091486624
 33
0.0
  0
SOLID
  5
2A3
330
29F
100
AcDbEntity
  8
0
  6
Continuous
 62
     7
370
    18
100
AcDbTrace
 10
7.2133957693
 20
5.0413881988
 30
0.0
 11
7.2383957693
 21
5.2038881988
 31
0.0
 12
7.1883957693
 22
5.2038881988
 32
0.0
 13
7.1883957693
 23
5.2038881988
 33
0.0
  0
LINE
  5
2A4
330
29F
100
AcDbEntity
  8
0
  6
Continuous
 62
     7
370
    18
100
AcDbLine
 10
7.097944403
 20
4.6464938106
 30
0.0
 11
7.0503369816
 21
4.6464938106
 31
0.0
  0
LINE
  5
2A5
330
29F
100
AcDbEntity
  8
0
  6
Continuous
 62
     7
370
    18
100
AcDbLine
 10
7.0503369816
 20
4.6464938106
 30
0.0
 11
7.0503369816
 21
4.3984469281
 31
0.0
  0
LINE
  5
2A6
330
29F
100
AcDbEntity
  8
0
  6
Continuous
 62
     7
370
    18
100
AcDbLine
 10
7.0503369816
 20
4.3984469281
 30
0.0
 11
7.097944403
 21
4.3984469281
 31
0.0
  0
LINE
  5
2A7
330
29F
100
AcDbEntity
  8
0
  6
Continuous
 62
     7
370
    18
100
AcDbLine
 10
7.3288471814
 20
4.6464938106
 30
0.0
 11
7.3764546028
 21
4.6464938106
 31
0.0
  0
LINE
  5
2A8
330
29F
100
AcDbEntity
  8
0
  6
Continuous
 62
     7
370
    18
100
AcDbLine
 10
7.3764546028
 20
4.6464938106
 30
0.0
 11
7.3764546028
 21
4.3984469281
 31
0.0
  0
LINE
  5
2A9
330
29F
100
AcDbEntity
  8
0
  6
Continuous
 62
     7
370
    18
100
AcDbLine
 10
7.3764546028
 20
4.3984469281
 30
0.0
 11
7.3288471814
 21
4.3984469281
 31
0.0
  0
LINE
  5
2AA
330
29F
100
AcDbEntity
  8
0
  6
Continuous
 62
     7
370
    18
100
AcDbLine
 10
6.3057545598
 20
4.253986624
 30
0.0
 11
7.3696457693
 21
4.253986624
 31
0.0
  0
LINE
  5
2AB
330
29F
100
AcDbEntity
  8
0
  6
Continuous
 62
     7
370
    18
100
AcDbLine
 10
6.1981078938
 20
5.0413881988
 30
0.0
 11
7.3696457693
 21
5.0413881988
 31
0.0
  0
LINE
  5
2AC
330
29F
100
AcDbEntity
  8
0
  6
Continuous
 62
     7
370
    18
100
AcDbLine
 10
7.2133957693
 20
4.253986624
 30
0.0
 11
7.2133957693
 21
3.941486624
 31
0.0
  0
LINE
  5
2AD
330
29F
100
AcDbEntity
  8
0
  6
Continuous
 62
     7
370
    18
100
AcDbLine
 10
7.2133957693
 20
5.0413881988
 30
0.0
 11
7.2133957693
 21
5.3538881988
 31
0.0
  0
MTEXT
  5
2AE
330
29F
100
AcDbEntity
  8
0
  6
Continuous
 62
     7
370
    18
100
AcDbMText
 10
7.0035976156
 20
4.882036095
 30
0.0
 40
0.15625
 41
0.0
 71
     1
 72
     1
  1

  7
SLDTEXTSTYLE0
 73
     1
 44
1.0
  0
MTEXT
  5
2AF
330
29F
100
AcDbEntity
  8
0
  6
Continuous
 62
     7
370
    18
100
AcDbMText
 10
7.06908155
 20
4.8796489306
 30
0.0
 40
0.15625
 41
0.0
 71
     1
 72
     1
  1
.79
  7
SLDTEXTSTYLE0
 73
     1
 44
1.0
  0
MTEXT
  5
2B0
330
29F
100
AcDbEntity
  8
0
  6
Continuous
 62
     7
370
    18
100
AcDbMText
 10
7.097944403
 20
4.5998637797
 30
0.0
 40
0.15625
 41
0.0
 71
     1
 72
     1
  1
20
  7
SLDTEXTSTYLE0
 73
     1
 44
1.0
  0
MTEXT
  5
2B1
330
29F
100
AcDbEntity
  8
0
  6
Continuous
 62
     7
370
    18
100
AcDbMText
 10
7.4826557398
 20
4.882036095
 30
0.0
 40
0.15625
 41
0.0
 71
     1
 72
     1
  1

  7
SLDTEXTSTYLE0
 73
     1
 44
1.0
  0
ENDBLK
  5
2A1
330
29F
100
AcDbEntity
  8
0
100
AcDbBlockEnd
  0
BLOCK
  5
2B4
330
2B3
100
AcDbEntity
  8
0
100
AcDbBlockBegin
  2
_D_7
 70
     0
 10
0.0
 20
0.0
 30
0.0
  3
_D_7
  1

  0
SOLID
  5
2B6
330
2B3
100
AcDbEntity
  8
0
  6
Continuous
 62
     7
370
    18
100
AcDbTrace
 10
1.8066597663
 20
5.0413881988
 30
0.0
 11
1.7816597663
 21
4.8788881988
 31
0.0
 12
1.8316597663
 22
4.8788881988
 32
0.0
 13
1.8316597663
 23
4.8788881988
 33
0.0
  0
SOLID
  5
2B7
330
2B3
100
AcDbEntity
  8
0
  6
Continuous
 62
     7
370
    18
100
AcDbTrace
 10
1.8066597663
 20
2.0886322933
 30
0.0
 11
1.8316597663
 21
2.2511322933
 31
0.0
 12
1.7816597663
 22
2.2511322933
 32
0.0
 13
1.7816597663
 23
2.2511322933
 33
0.0
  0
LINE
  5
2B8
330
2B3
100
AcDbEntity
  8
0
  6
Continuous
 62
     7
370
    18
100
AcDbLine
 10
1.6912084
 20
3.5638166452
 30
0.0
 11
1.6436009786
 21
3.5638166452
 31
0.0
  0
LINE
  5
2B9
330
2B3
100
AcDbEntity
  8
0
  6
Continuous
 62
     7
370
    18
100
AcDbLine
 10
1.6436009786
 20
3.5638166452
 30
0.0
 11
1.6436009786
 21
3.3157697628
 31
0.0
  0
LINE
  5
2BA
330
2B3
100
AcDbEntity
  8
0
  6
Continuous
 62
     7
370
    18
100
AcDbLine
 10
1.6436009786
 20
3.3157697628
 30
0.0
 11
1.6912084
 21
3.3157697628
 31
0.0
  0
LINE
  5
2BB
330
2B3
100
AcDbEntity
  8
0
  6
Continuous
 62
     7
370
    18
100
AcDbLine
 10
1.9221111784
 20
3.5638166452
 30
0.0
 11
1.9697185998
 21
3.5638166452
 31
0.0
  0
LINE
  5
2BC
330
2B3
100
AcDbEntity
  8
0
  6
Continuous
 62
     7
370
    18
100
AcDbLine
 10
1.9697185998
 20
3.5638166452
 30
0.0
 11
1.9697185998
 21
3.3157697628
 31
0.0
  0
LINE
  5
2BD
330
2B3
100
AcDbEntity
  8
0
  6
Continuous
 62
     7
370
    18
100
AcDbLine
 10
1.9697185998
 20
3.3157697628
 30
0.0
 11
1.9221111784
 21
3.3157697628
 31
0.0
  0
LINE
  5
2BE
330
2B3
100
AcDbEntity
  8
0
  6
Continuous
 62
     7
370
    18
100
AcDbLine
 10
2.5587073157
 20
5.0413881988
 30
0.0
 11
1.6504097663
 21
5.0413881988
 31
0.0
  0
LINE
  5
2BF
330
2B3
100
AcDbEntity
  8
0
  6
Continuous
 62
     7
370
    18
100
AcDbLine
 10
2.5587073157
 20
2.0886322933
 30
0.0
 11
1.6504097663
 21
2.0886322933
 31
0.0
  0
LINE
  5
2C0
330
2B3
100
AcDbEntity
  8
0
  6
Continuous
 62
     7
370
    18
100
AcDbLine
 10
1.8066597663
 20
5.0413881988
 30
0.0
 11
1.8066597663
 21
3.8459889606
 31
0.0
  0
LINE
  5
2C1
330
2B3
100
AcDbEntity
  8
0
  6
Continuous
 62
     7
370
    18
100
AcDbLine
 10
1.8066597663
 20
2.0886322933
 30
0.0
 11
1.8066597663
 21
3.2840315315
 31
0.0
  0
MTEXT
  5
2C2
330
2B3
100
AcDbEntity
  8
0
  6
Continuous
 62
     7
370
    18
100
AcDbMText
 10
1.5968616126
 20
3.7993589296
 30
0.0
 40
0.15625
 41
0.0
 71
     1
 72
     1
  1

  7
SLDTEXTSTYLE0
 73
     1
 44
1.0
  0
MTEXT
  5
2C3
330
2B3
100
AcDbEntity
  8
0
  6
Continuous
 62
     7
370
    18
100
AcDbMText
 10
1.6046198409
 20
3.7969717653
 30
0.0
 40
0.15625
 41
0.0
 71
     1
 72
     1
  1
2.95
  7
SLDTEXTSTYLE0
 73
     1
 44
1.0
  0
MTEXT
  5
2C4
330
2B3
100
AcDbEntity
  8
0
  6
Continuous
 62
     7
370
    18
100
AcDbMText
 10
1.6912084
 20
3.5171866143
 30
0.0
 40
0.15625
 41
0.0
 71
     1
 72
     1
  1
75
  7
SLDTEXTSTYLE0
 73
     1
 44
1.0
  0
MTEXT
  5
2C5
330
2B3
100
AcDbEntity
  8
0
  6
Continuous
 62
     7
370
    18
100
AcDbMText
 10
2.0759197368
 20
3.7993589296
 30
0.0
 40
0.15625
 41
0.0
 71
     1
 72
     1
  1

  7
SLDTEXTSTYLE0
 73
     1
 44
1.0
  0
ENDBLK
  5
2B5
330
2B3
100
AcDbEntity
  8
0
100
AcDbBlockEnd
  0
BLOCK
  5
2C8
330
2C7
100
AcDbEntity
  8
0
100
AcDbBlockBegin
  2
_D_8
 70
     0
 10
0.0
 20
0.0
 30
0.0
  3
_D_8
  1

  0
SOLID
  5
2CA
330
2C7
100
AcDbEntity
  8
0
  6
Continuous
 62
     7
370
    18
100
AcDbTrace
 10
7.2133957693
 20
4.253986624
 30
0.0
 11
7.1883957693
 21
4.091486624
 31
0.0
 12
7.2383957693
 22
4.091486624
 32
0.0
 13
7.2383957693
 23
4.091486624
 33
0.0
  0
SOLID
  5
2CB
330
2C7
100
AcDbEntity
  8
0
  6
Continuous
 62
     7
370
    18
100
AcDbTrace
 10
7.2133957693
 20
2.0886322933
 30
0.0
 11
7.2383957693
 21
2.2511322933
 31
0.0
 12
7.1883957693
 22
2.2511322933
 32
0.0
 13
7.1883957693
 23
2.2511322933
 33
0.0
  0
LINE
  5
2CC
330
2C7
100
AcDbEntity
  8
0
  6
Continuous
 62
     7
370
    18
100
AcDbLine
 10
7.097944403
 20
3.1701158578
 30
0.0
 11
7.0503369816
 21
3.1701158578
 31
0.0
  0
LINE
  5
2CD
330
2C7
100
AcDbEntity
  8
0
  6
Continuous
 62
     7
370
    18
100
AcDbLine
 10
7.0503369816
 20
3.1701158578
 30
0.0
 11
7.0503369816
 21
2.9220689754
 31
0.0
  0
LINE
  5
2CE
330
2C7
100
AcDbEntity
  8
0
  6
Continuous
 62
     7
370
    18
100
AcDbLine
 10
7.0503369816
 20
2.9220689754
 30
0.0
 11
7.097944403
 21
2.9220689754
 31
0.0
  0
LINE
  5
2CF
330
2C7
100
AcDbEntity
  8
0
  6
Continuous
 62
     7
370
    18
100
AcDbLine
 10
7.3288471814
 20
3.1701158578
 30
0.0
 11
7.3764546028
 21
3.1701158578
 31
0.0
  0
LINE
  5
2D0
330
2C7
100
AcDbEntity
  8
0
  6
Continuous
 62
     7
370
    18
100
AcDbLine
 10
7.3764546028
 20
3.1701158578
 30
0.0
 11
7.3764546028
 21
2.9220689754
 31
0.0
  0
LINE
  5
2D1
330
2C7
100
AcDbEntity
  8
0
  6
Continuous
 62
     7
370
    18
100
AcDbLine
 10
7.3764546028
 20
2.9220689754
 30
0.0
 11
7.3288471814
 21
2.9220689754
 31
0.0
  0
LINE
  5
2D2
330
2C7
100
AcDbEntity
  8
0
  6
Continuous
 62
     7
370
    18
100
AcDbLine
 10
6.3057545598
 20
4.253986624
 30
0.0
 11
7.3696457693
 21
4.253986624
 31
0.0
  0
LINE
  5
2D3
330
2C7
100
AcDbEntity
  8
0
  6
Continuous
 62
     7
370
    18
100
AcDbLine
 10
5.9907939299
 20
2.0886322933
 30
0.0
 11
7.3696457693
 21
2.0886322933
 31
0.0
  0
LINE
  5
2D4
330
2C7
100
AcDbEntity
  8
0
  6
Continuous
 62
     7
370
    18
100
AcDbLine
 10
7.2133957693
 20
4.253986624
 30
0.0
 11
7.2133957693
 21
3.4522881732
 31
0.0
  0
LINE
  5
2D5
330
2C7
100
AcDbEntity
  8
0
  6
Continuous
 62
     7
370
    18
100
AcDbLine
 10
7.2133957693
 20
2.0886322933
 30
0.0
 11
7.2133957693
 21
2.8903307441
 31
0.0
  0
MTEXT
  5
2D6
330
2C7
100
AcDbEntity
  8
0
  6
Continuous
 62
     7
370
    18
100
AcDbMText
 10
7.0035976156
 20
3.4056581422
 30
0.0
 40
0.15625
 41
0.0
 71
     1
 72
     1
  1

  7
SLDTEXTSTYLE0
 73
     1
 44
1.0
  0
MTEXT
  5
2D7
330
2C7
100
AcDbEntity
  8
0
  6
Continuous
 62
     7
370
    18
100
AcDbMText
 10
7.0113558439
 20
3.4032709779
 30
0.0
 40
0.15625
 41
0.0
 71
     1
 72
     1
  1
2.17
  7
SLDTEXTSTYLE0
 73
     1
 44
1.0
  0
MTEXT
  5
2D8
330
2C7
100
AcDbEntity
  8
0
  6
Continuous
 62
     7
370
    18
100
AcDbMText
 10
7.097944403
 20
3.1234858269
 30
0.0
 40
0.15625
 41
0.0
 71
     1
 72
     1
  1
55
  7
SLDTEXTSTYLE0
 73
     1
 44
1.0
  0
MTEXT
  5
2D9
330
2C7
100
AcDbEntity
  8
0
  6
Continuous
 62
     7
370
    18
100
AcDbMText
 10
7.4826557398
 20
3.4056581422
 30
0.0
 40
0.15625
 41
0.0
 71
     1
 72
     1
  1

  7
SLDTEXTSTYLE0
 73
     1
 44
1.0
  0
ENDBLK
  5
2C9
330
2C7
100
AcDbEntity
  8
0
100
AcDbBlockEnd
  0
BLOCK
  5
2DC
330
2DB
100
AcDbEntity
  8
0
100
AcDbBlockBegin
  2
_D_9
 70
     0
 10
0.0
 20
0.0
 30
0.0
  3
_D_9
  1

  0
SOLID
  5
2DE
330
2DB
100
AcDbEntity
  8
0
  6
Continuous
 62
     7
370
    18
100
AcDbTrace
 10
6.6217297144
 20
2.0886322933
 30
0.0
 11
6.6467297144
 21
2.2511322933
 31
0.0
 12
6.5967297144
 22
2.2511322933
 32
0.0
 13
6.5967297144
 23
2.2511322933
 33
0.0
  0
SOLID
  5
2DF
330
2DB
100
AcDbEntity
  8
0
  6
Continuous
 62
     7
370
    18
100
AcDbTrace
 10
6.6217297144
 20
2.0492622145
 30
0.0
 11
6.5967297144
 21
1.8867622145
 31
0.0
 12
6.6467297144
 22
1.8867622145
 32
0.0
 13
6.6467297144
 23
1.8867622145
 33
0.0
  0
LINE
  5
2E0
330
2DB
100
AcDbEntity
  8
0
  6
Continuous
 62
     7
370
    18
100
AcDbLine
 10
6.9682889213
 20
1.6561857584
 30
0.0
 11
6.9206814999
 21
1.6561857584
 31
0.0
  0
LINE
  5
2E1
330
2DB
100
AcDbEntity
  8
0
  6
Continuous
 62
     7
370
    18
100
AcDbLine
 10
6.9206814999
 20
1.6561857584
 30
0.0
 11
6.9206814999
 21
1.4081388759
 31
0.0
  0
LINE
  5
2E2
330
2DB
100
AcDbEntity
  8
0
  6
Continuous
 62
     7
370
    18
100
AcDbLine
 10
6.9206814999
 20
1.4081388759
 30
0.0
 11
6.9682889213
 21
1.4081388759
 31
0.0
  0
LINE
  5
2E3
330
2DB
100
AcDbEntity
  8
0
  6
Continuous
 62
     7
370
    18
100
AcDbLine
 10
7.0837403105
 20
1.6561857584
 30
0.0
 11
7.1313477319
 21
1.6561857584
 31
0.0
  0
LINE
  5
2E4
330
2DB
100
AcDbEntity
  8
0
  6
Continuous
 62
     7
370
    18
100
AcDbLine
 10
7.1313477319
 20
1.6561857584
 30
0.0
 11
7.1313477319
 21
1.4081388759
 31
0.0
  0
LINE
  5
2E5
330
2DB
100
AcDbEntity
  8
0
  6
Continuous
 62
     7
370
    18
100
AcDbLine
 10
7.1313477319
 20
1.4081388759
 30
0.0
 11
7.0837403105
 21
1.4081388759
 31
0.0
  0
LINE
  5
2E6
330
2DB
100
AcDbEntity
  8
0
  6
Continuous
 62
     7
370
    18
100
AcDbLine
 10
6.154750515
 20
2.0886322933
 30
0.0
 11
6.7779797144
 21
2.0886322933
 31
0.0
  0
LINE
  5
2E7
330
2DB
100
AcDbEntity
  8
0
  6
Continuous
 62
     7
370
    18
100
AcDbLine
 10
6.1285892055
 20
2.0492622145
 30
0.0
 11
6.7779797144
 21
2.0492622145
 31
0.0
  0
LINE
  5
2E8
330
2DB
100
AcDbEntity
  8
0
  6
Continuous
 62
     7
370
    18
100
AcDbLine
 10
6.7779797144
 20
1.6573793592
 30
0.0
 11
6.6217297144
 21
1.6573793592
 31
0.0
  0
LINE
  5
2E9
330
2DB
100
AcDbEntity
  8
0
  6
Continuous
 62
     7
370
    18
100
AcDbLine
 10
6.6217297144
 20
1.6573793592
 30
0.0
 11
6.6217297144
 21
2.0492622145
 31
0.0
  0
LINE
  5
2EA
330
2DB
100
AcDbEntity
  8
0
  6
Continuous
 62
     7
370
    18
100
AcDbLine
 10
6.6217297144
 20
2.0886322933
 30
0.0
 11
6.6217297144
 21
2.4011322933
 31
0.0
  0
MTEXT
  5
2EB
330
2DB
100
AcDbEntity
  8
0
  6
Continuous
 62
     7
370
    18
100
AcDbMText
 10
6.8817003852
 20
1.8893408784
 30
0.0
 40
0.15625
 41
0.0
 71
     1
 72
     1
  1
.04
  7
SLDTEXTSTYLE0
 73
     1
 44
1.0
  0
MTEXT
  5
2EC
330
2DB
100
AcDbEntity
  8
0
  6
Continuous
 62
     7
370
    18
100
AcDbMText
 10
6.9682889213
 20
1.6095557275
 30
0.0
 40
0.15625
 41
0.0
 71
     1
 72
     1
  1
1
  7
SLDTEXTSTYLE0
 73
     1
 44
1.0
  0
MTEXT
  5
2ED
330
2DB
100
AcDbEntity
  8
0
  6
Continuous
 62
     7
370
    18
100
AcDbMText
 10
7.2375489033
 20
1.8917280428
 30
0.0
 40
0.15625
 41
0.0
 71
     1
 72
     1
  1
PAD
  7
SLDTEXTSTYLE0
 73
     1
 44
1.0
  0
ENDBLK
  5
2DD
330
2DB
100
AcDbEntity
  8
0
100
AcDbBlockEnd
  0
BLOCK
  5
43C
330
43B
100
AcDbEntity
  8
0
100
AcDbBlockBegin
  2
_D_10
 70
     0
 10
0.0
 20
0.0
 30
0.0
  3
_D_10
  1

  0
SOLID
  5
43E
330
43B
100
AcDbEntity
  8
0
  6
Continuous
 62
     7
370
    18
100
AcDbTrace
 10
13.1927866419
 20
6.8267664537
 30
0.0
 11
13.3552866419
 21
6.8017664537
 31
0.0
 12
13.3552866419
 22
6.8517664537
 32
0.0
 13
13.3552866419
 23
6.8517664537
 33
0.0
  0
SOLID
  5
43F
330
43B
100
AcDbEntity
  8
0
  6
Continuous
 62
     7
370
    18
100
AcDbTrace
 10
16.4211330986
 20
6.8267664537
 30
0.0
 11
16.2586330986
 21
6.8517664537
 31
0.0
 12
16.2586330986
 22
6.8017664537
 32
0.0
 13
16.2586330986
 23
6.8017664537
 33
0.0
  0
LINE
  5
440
330
43B
100
AcDbEntity
  8
0
  6
Continuous
 62
     7
370
    18
100
AcDbLine
 10
14.691508504
 20
6.8255728529
 30
0.0
 11
14.6439010826
 21
6.8255728529
 31
0.0
  0
LINE
  5
441
330
43B
100
AcDbEntity
  8
0
  6
Continuous
 62
     7
370
    18
100
AcDbLine
 10
14.6439010826
 20
6.8255728529
 30
0.0
 11
14.6439010826
 21
6.5775259704
 31
0.0
  0
LINE
  5
442
330
43B
100
AcDbEntity
  8
0
  6
Continuous
 62
     7
370
    18
100
AcDbLine
 10
14.6439010826
 20
6.5775259704
 30
0.0
 11
14.691508504
 21
6.5775259704
 31
0.0
  0
LINE
  5
443
330
43B
100
AcDbEntity
  8
0
  6
Continuous
 62
     7
370
    18
100
AcDbLine
 10
14.9224112824
 20
6.8255728529
 30
0.0
 11
14.9700187038
 21
6.8255728529
 31
0.0
  0
LINE
  5
444
330
43B
100
AcDbEntity
  8
0
  6
Continuous
 62
     7
370
    18
100
AcDbLine
 10
14.9700187038
 20
6.8255728529
 30
0.0
 11
14.9700187038
 21
6.5775259704
 31
0.0
  0
LINE
  5
445
330
43B
100
AcDbEntity
  8
0
  6
Continuous
 62
     7
370
    18
100
AcDbLine
 10
14.9700187038
 20
6.5775259704
 30
0.0
 11
14.9224112824
 21
6.5775259704
 31
0.0
  0
LINE
  5
446
330
43B
100
AcDbEntity
  8
0
  6
Continuous
 62
     7
370
    18
100
AcDbLine
 10
13.1927866419
 20
7.5519413727
 30
0.0
 11
13.1927866419
 21
6.6705164537
 31
0.0
  0
LINE
  5
447
330
43B
100
AcDbEntity
  8
0
  6
Continuous
 62
     7
370
    18
100
AcDbLine
 10
16.4211330986
 20
7.5519413727
 30
0.0
 11
16.4211330986
 21
6.6705164537
 31
0.0
  0
LINE
  5
448
330
43B
100
AcDbEntity
  8
0
  6
Continuous
 62
     7
370
    18
100
AcDbLine
 10
13.1927866419
 20
6.8267664537
 30
0.0
 11
14.5068698452
 21
6.8267664537
 31
0.0
  0
LINE
  5
449
330
43B
100
AcDbEntity
  8
0
  6
Continuous
 62
     7
370
    18
100
AcDbLine
 10
16.4211330986
 20
6.8267664537
 30
0.0
 11
15.1070498953
 21
6.8267664537
 31
0.0
  0
MTEXT
  5
44A
330
43B
100
AcDbEntity
  8
0
  6
Continuous
 62
     7
370
    18
100
AcDbMText
 10
14.5971617166
 20
7.0611151373
 30
0.0
 40
0.15625
 41
0.0
 71
     1
 72
     1
  1

  7
SLDTEXTSTYLE0
 73
     1
 44
1.0
  0
MTEXT
  5
44B
330
43B
100
AcDbEntity
  8
0
  6
Continuous
 62
     7
370
    18
100
AcDbMText
 10
14.6049199449
 20
7.0587279729
 30
0.0
 40
0.15625
 41
0.0
 71
     1
 72
     1
  1
3.23
  7
SLDTEXTSTYLE0
 73
     1
 44
1.0
  0
MTEXT
  5
44C
330
43B
100
AcDbEntity
  8
0
  6
Continuous
 62
     7
370
    18
100
AcDbMText
 10
14.691508504
 20
6.778942822
 30
0.0
 40
0.15625
 41
0.0
 71
     1
 72
     1
  1
82
  7
SLDTEXTSTYLE0
 73
     1
 44
1.0
  0
MTEXT
  5
44D
330
43B
100
AcDbEntity
  8
0
  6
Continuous
 62
     7
370
    18
100
AcDbMText
 10
15.0762198408
 20
7.0611151373
 30
0.0
 40
0.15625
 41
0.0
 71
     1
 72
     1
  1

  7
SLDTEXTSTYLE0
 73
     1
 44
1.0
  0
ENDBLK
  5
43D
330
43B
100
AcDbEntity
  8
0
100
AcDbBlockEnd
  0
BLOCK
  5
450
330
44F
100
AcDbEntity
  8
0
100
AcDbBlockBegin
  2
_D_11
 70
     0
 10
0.0
 20
0.0
 30
0.0
  3
_D_11
  1

  0
SOLID
  5
452
330
44F
100
AcDbEntity
  8
0
  6
Continuous
 62
     7
370
    18
100
AcDbTrace
 10
17.21840324
 20
7.6144413727
 30
0.0
 11
17.24340324
 21
7.7769413727
 31
0.0
 12
17.19340324
 22
7.7769413727
 32
0.0
 13
17.19340324
 23
7.7769413727
 33
0.0
  0
SOLID
  5
453
330
44F
100
AcDbEntity
  8
0
  6
Continuous
 62
     7
370
    18
100
AcDbTrace
 10
17.21840324
 20
10.8427878294
 30
0.0
 11
17.19340324
 21
10.6802878294
 31
0.0
 12
17.24340324
 22
10.6802878294
 32
0.0
 13
17.24340324
 23
10.6802878294
 33
0.0
  0
LINE
  5
454
330
44F
100
AcDbEntity
  8
0
  6
Continuous
 62
     7
370
    18
100
AcDbLine
 10
17.1029518737
 20
9.2274210003
 30
0.0
 11
17.0553444523
 21
9.2274210003
 31
0.0
  0
LINE
  5
455
330
44F
100
AcDbEntity
  8
0
  6
Continuous
 62
     7
370
    18
100
AcDbLine
 10
17.0553444523
 20
9.2274210003
 30
0.0
 11
17.0553444523
 21
8.9793741178
 31
0.0
  0
LINE
  5
456
330
44F
100
AcDbEntity
  8
0
  6
Continuous
 62
     7
370
    18
100
AcDbLine
 10
17.0553444523
 20
8.9793741178
 30
0.0
 11
17.1029518737
 21
8.9793741178
 31
0.0
  0
LINE
  5
457
330
44F
100
AcDbEntity
  8
0
  6
Continuous
 62
     7
370
    18
100
AcDbLine
 10
17.3338546522
 20
9.2274210003
 30
0.0
 11
17.3814620735
 21
9.2274210003
 31
0.0
  0
LINE
  5
458
330
44F
100
AcDbEntity
  8
0
  6
Continuous
 62
     7
370
    18
100
AcDbLine
 10
17.3814620735
 20
9.2274210003
 30
0.0
 11
17.3814620735
 21
8.9793741178
 31
0.0
  0
LINE
  5
459
330
44F
100
AcDbEntity
  8
0
  6
Continuous
 62
     7
370
    18
100
AcDbLine
 10
17.3814620735
 20
8.9793741178
 30
0.0
 11
17.3338546522
 21
8.9793741178
 31
0.0
  0
LINE
  5
45A
330
44F
100
AcDbEntity
  8
0
  6
Continuous
 62
     7
370
    18
100
AcDbLine
 10
16.4836330986
 20
7.6144413727
 30
0.0
 11
17.37465324
 21
7.6144413727
 31
0.0
  0
LINE
  5
45B
330
44F
100
AcDbEntity
  8
0
  6
Continuous
 62
     7
370
    18
100
AcDbLine
 10
16.4836330986
 20
10.8427878294
 30
0.0
 11
17.37465324
 21
10.8427878294
 31
0.0
  0
LINE
  5
45C
330
44F
100
AcDbEntity
  8
0
  6
Continuous
 62
     7
370
    18
100
AcDbLine
 10
17.21840324
 20
7.6144413727
 30
0.0
 11
17.21840324
 21
8.9476358865
 31
0.0
  0
LINE
  5
45D
330
44F
100
AcDbEntity
  8
0
  6
Continuous
 62
     7
370
    18
100
AcDbLine
 10
17.21840324
 20
10.8427878294
 30
0.0
 11
17.21840324
 21
9.5095933156
 31
0.0
  0
MTEXT
  5
45E
330
44F
100
AcDbEntity
  8
0
  6
Continuous
 62
     7
370
    18
100
AcDbMText
 10
17.0086050863
 20
9.4629632846
 30
0.0
 40
0.15625
 41
0.0
 71
     1
 72
     1
  1

  7
SLDTEXTSTYLE0
 73
     1
 44
1.0
  0
MTEXT
  5
45F
330
44F
100
AcDbEntity
  8
0
  6
Continuous
 62
     7
370
    18
100
AcDbMText
 10
17.0163633146
 20
9.4605761203
 30
0.0
 40
0.15625
 41
0.0
 71
     1
 72
     1
  1
3.23
  7
SLDTEXTSTYLE0
 73
     1
 44
1.0
  0
MTEXT
  5
460
330
44F
100
AcDbEntity
  8
0
  6
Continuous
 62
     7
370
    18
100
AcDbMText
 10
17.1029518737
 20
9.1807909693
 30
0.0
 40
0.15625
 41
0.0
 71
     1
 72
     1
  1
82
  7
SLDTEXTSTYLE0
 73
     1
 44
1.0
  0
MTEXT
  5
461
330
44F
100
AcDbEntity
  8
0
  6
Continuous
 62
     7
370
    18
100
AcDbMText
 10
17.4876632106
 20
9.4629632846
 30
0.0
 40
0.15625
 41
0.0
 71
     1
 72
     1
  1

  7
SLDTEXTSTYLE0
 73
     1
 44
1.0
  0
ENDBLK
  5
451
330
44F
100
AcDbEntity
  8
0
100
AcDbBlockEnd
  0
BLOCK
  5
465
330
464
100
AcDbEntity
  8
0
100
AcDbBlockBegin
  2
_D_12
 70
     0
 10
0.0
 20
0.0
 30
0.0
  3
_D_12
  1

  0
SOLID
  5
467
330
464
100
AcDbEntity
  8
0
  6
Continuous
 62
     7
370
    18
100
AcDbTrace
 10
13.1446203017
 20
7.5472437735
 30
0.0
 11
13.0296312327
 21
7.4297330761
 31
0.0
 12
13.0702697807
 22
7.4006039084
 32
0.0
 13
13.0702697807
 23
7.4006039084
 33
0.0
  0
LINE
  5
468
330
464
100
AcDbEntity
  8
0
  6
Continuous
 62
     7
370
    18
100
AcDbLine
 10
11.4945039171
 20
6.7425837831
 30
0.0
 11
11.4468964957
 21
6.7425837831
 31
0.0
  0
LINE
  5
469
330
464
100
AcDbEntity
  8
0
  6
Continuous
 62
     7
370
    18
100
AcDbLine
 10
11.4468964957
 20
6.7425837831
 30
0.0
 11
11.4468964957
 21
6.4945369007
 31
0.0
  0
LINE
  5
46A
330
464
100
AcDbEntity
  8
0
  6
Continuous
 62
     7
370
    18
100
AcDbLine
 10
11.4468964957
 20
6.4945369007
 30
0.0
 11
11.4945039171
 21
6.4945369007
 31
0.0
  0
LINE
  5
46B
330
464
100
AcDbEntity
  8
0
  6
Continuous
 62
     7
370
    18
100
AcDbLine
 10
11.7831323786
 20
6.7425837831
 30
0.0
 11
11.8307398
 21
6.7425837831
 31
0.0
  0
LINE
  5
46C
330
464
100
AcDbEntity
  8
0
  6
Continuous
 62
     7
370
    18
100
AcDbLine
 10
11.8307398
 20
6.7425837831
 30
0.0
 11
11.8307398
 21
6.4945369007
 31
0.0
  0
LINE
  5
46D
330
464
100
AcDbEntity
  8
0
  6
Continuous
 62
     7
370
    18
100
AcDbLine
 10
11.8307398
 20
6.4945369007
 30
0.0
 11
11.7831323786
 21
6.4945369007
 31
0.0
  0
LINE
  5
46E
330
464
100
AcDbEntity
  8
0
  6
Continuous
 62
     7
370
    18
100
AcDbLine
 10
13.1446203017
 20
7.5472437735
 30
0.0
 11
12.5687063409
 21
6.7437773839
 31
0.0
  0
LINE
  5
46F
330
464
100
AcDbEntity
  8
0
  6
Continuous
 62
     7
370
    18
100
AcDbLine
 10
12.5687063409
 20
6.7437773839
 30
0.0
 11
12.4124563409
 21
6.7437773839
 31
0.0
  0
MTEXT
  5
470
330
464
100
AcDbEntity
  8
0
  6
Continuous
 62
     7
370
    18
100
AcDbMText
 10
11.3189559481
 20
6.9757389032
 30
0.0
 40
0.15625
 41
0.0
 71
     1
 72
     1
  1
%%c
  7
SLDTEXTSTYLE0
 73
     1
 44
1.0
  0
MTEXT
  5
471
330
464
100
AcDbEntity
  8
0
  6
Continuous
 62
     7
370
    18
100
AcDbMText
 10
11.5546004739
 20
6.9757389032
 30
0.0
 40
0.15625
 41
0.0
 71
     1
 72
     1
  1
.165
  7
SLDTEXTSTYLE0
 73
     1
 44
1.0
  0
MTEXT
  5
472
330
464
100
AcDbEntity
  8
0
  6
Continuous
 62
     7
370
    18
100
AcDbMText
 10
11.4945039171
 20
6.6959537522
 30
0.0
 40
0.15625
 41
0.0
 71
     1
 72
     1
  1
4.2
  7
SLDTEXTSTYLE0
 73
     1
 44
1.0
  0
MTEXT
  5
473
330
464
100
AcDbEntity
  8
0
  6
Continuous
 62
     7
370
    18
100
AcDbMText
 10
12.0172740746
 20
6.9781260675
 30
0.0
 40
0.15625
 41
0.0
 71
     1
 72
     1
  1
(4X)
  7
SLDTEXTSTYLE0
 73
     1
 44
1.0
  0
ENDBLK
  5
466
330
464
100
AcDbEntity
  8
0
100
AcDbBlockEnd
  0
BLOCK
  5
475
330
474
100
AcDbEntity
  8
0
100
AcDbBlockBegin
  2
SW_CENTERMARKSYMBOL_12
 70
     0
 10
0.0
 20
0.0
 30
0.0
  3
SW_CENTERMARKSYMBOL_12
  1

  0
LINE
  5
477
330
474
100
AcDbEntity
  8
0
  6
Continuous
 62
     0
370
    18
100
AcDbLine
 10
0.0
 20
0.0
 30
0.0
 11
0.0
 21
0.1
 31
0.0
  0
LINE
  5
478
330
474
100
AcDbEntity
  8
0
  6
Continuous
 62
     0
370
    18
100
AcDbLine
 10
0.0
 20
0.0
 30
0.0
 11
-0.1
 21
0.0
 31
0.0
  0
LINE
  5
479
330
474
100
AcDbEntity
  8
0
  6
Continuous
 62
     0
370
    18
100
AcDbLine
 10
0.0
 20
0.0
 30
0.0
 11
0.0
 21
-0.1
 31
0.0
  0
LINE
  5
47A
330
474
100
AcDbEntity
  8
0
  6
Continuous
 62
     0
370
    18
100
AcDbLine
 10
0.0
 20
0.0
 30
0.0
 11
0.1
 21
0.0
 31
0.0
  0
LINE
  5
47B
330
474
100
AcDbEntity
  8
0
  6
Continuous
 62
     0
370
    18
100
AcDbLine
 10
0.0
 20
0.1
 30
0.0
 11
0.0
 21
0.1826771654
 31
0.0
  0
LINE
  5
47C
330
474
100
AcDbEntity
  8
0
  6
Continuous
 62
     0
370
    18
100
AcDbLine
 10
-0.1
 20
0.0
 30
0.0
 11
-0.1826771654
 21
0.0
 31
0.0
  0
LINE
  5
47D
330
474
100
AcDbEntity
  8
0
  6
Continuous
 62
     0
370
    18
100
AcDbLine
 10
0.0
 20
-0.1
 30
0.0
 11
0.0
 21
-0.1826771654
 31
0.0
  0
LINE
  5
47E
330
474
100
AcDbEntity
  8
0
  6
Continuous
 62
     0
370
    18
100
AcDbLine
 10
0.1
 20
0.0
 30
0.0
 11
0.1826771654
 21
0.0
 31
0.0
  0
ENDBLK
  5
476
330
474
100
AcDbEntity
  8
0
100
AcDbBlockEnd
  0
BLOCK
  5
481
330
480
100
AcDbEntity
  8
0
100
AcDbBlockBegin
  2
SW_CENTERMARKSYMBOL_13
 70
     0
 10
0.0
 20
0.0
 30
0.0
  3
SW_CENTERMARKSYMBOL_13
  1

  0
LINE
  5
483
330
480
100
AcDbEntity
  8
0
  6
Continuous
 62
     0
370
    18
100
AcDbLine
 10
0.0
 20
0.0
 30
0.0
 11
0.0
 21
0.1
 31
0.0
  0
LINE
  5
484
330
480
100
AcDbEntity
  8
0
  6
Continuous
 62
     0
370
    18
100
AcDbLine
 10
0.0
 20
0.0
 30
0.0
 11
-0.1
 21
0.0
 31
0.0
  0
LINE
  5
485
330
480
100
AcDbEntity
  8
0
  6
Continuous
 62
     0
370
    18
100
AcDbLine
 10
0.0
 20
0.0
 30
0.0
 11
0.0
 21
-0.1
 31
0.0
  0
LINE
  5
486
330
480
100
AcDbEntity
  8
0
  6
Continuous
 62
     0
370
    18
100
AcDbLine
 10
0.0
 20
0.0
 30
0.0
 11
0.1
 21
0.0
 31
0.0
  0
LINE
  5
487
330
480
100
AcDbEntity
  8
0
  6
Continuous
 62
     0
370
    18
100
AcDbLine
 10
0.0
 20
0.1
 30
0.0
 11
0.0
 21
0.1826771654
 31
0.0
  0
LINE
  5
488
330
480
100
AcDbEntity
  8
0
  6
Continuous
 62
     0
370
    18
100
AcDbLine
 10
-0.1
 20
0.0
 30
0.0
 11
-0.1826771654
 21
0.0
 31
0.0
  0
LINE
  5
489
330
480
100
AcDbEntity
  8
0
  6
Continuous
 62
     0
370
    18
100
AcDbLine
 10
0.0
 20
-0.1
 30
0.0
 11
0.0
 21
-0.1826771654
 31
0.0
  0
LINE
  5
48A
330
480
100
AcDbEntity
  8
0
  6
Continuous
 62
     0
370
    18
100
AcDbLine
 10
0.1
 20
0.0
 30
0.0
 11
0.1826771654
 21
0.0
 31
0.0
  0
ENDBLK
  5
482
330
480
100
AcDbEntity
  8
0
100
AcDbBlockEnd
  0
BLOCK
  5
48D
330
48C
100
AcDbEntity
  8
0
100
AcDbBlockBegin
  2
SW_CENTERMARKSYMBOL_14
 70
     0
 10
0.0
 20
0.0
 30
0.0
  3
SW_CENTERMARKSYMBOL_14
  1

  0
LINE
  5
48F
330
48C
100
AcDbEntity
  8
0
  6
Continuous
 62
     0
370
    18
100
AcDbLine
 10
0.0
 20
0.0
 30
0.0
 11
0.0
 21
0.1
 31
0.0
  0
LINE
  5
490
330
48C
100
AcDbEntity
  8
0
  6
Continuous
 62
     0
370
    18
100
AcDbLine
 10
0.0
 20
0.0
 30
0.0
 11
-0.1
 21
0.0
 31
0.0
  0
LINE
  5
491
330
48C
100
AcDbEntity
  8
0
  6
Continuous
 62
     0
370
    18
100
AcDbLine
 10
0.0
 20
0.0
 30
0.0
 11
0.0
 21
-0.1
 31
0.0
  0
LINE
  5
492
330
48C
100
AcDbEntity
  8
0
  6
Continuous
 62
     0
370
    18
100
AcDbLine
 10
0.0
 20
0.0
 30
0.0
 11
0.1
 21
0.0
 31
0.0
  0
LINE
  5
493
330
48C
100
AcDbEntity
  8
0
  6
Continuous
 62
     0
370
    18
100
AcDbLine
 10
0.0
 20
0.1
 30
0.0
 11
0.0
 21
0.1826771654
 31
0.0
  0
LINE
  5
494
330
48C
100
AcDbEntity
  8
0
  6
Continuous
 62
     0
370
    18
100
AcDbLine
 10
-0.1
 20
0.0
 30
0.0
 11
-0.1826771654
 21
0.0
 31
0.0
  0
LINE
  5
495
330
48C
100
AcDbEntity
  8
0
  6
Continuous
 62
     0
370
    18
100
AcDbLine
 10
0.0
 20
-0.1
 30
0.0
 11
0.0
 21
-0.1826771654
 31
0.0
  0
LINE
  5
496
330
48C
100
AcDbEntity
  8
0
  6
Continuous
 62
     0
370
    18
100
AcDbLine
 10
0.1
 20
0.0
 30
0.0
 11
0.1826771654
 21
0.0
 31
0.0
  0
ENDBLK
  5
48E
330
48C
100
AcDbEntity
  8
0
100
AcDbBlockEnd
  0
BLOCK
  5
499
330
498
100
AcDbEntity
  8
0
100
AcDbBlockBegin
  2
SW_CENTERMARKSYMBOL_15
 70
     0
 10
0.0
 20
0.0
 30
0.0
  3
SW_CENTERMARKSYMBOL_15
  1

  0
LINE
  5
49B
330
498
100
AcDbEntity
  8
0
  6
Continuous
 62
     0
370
    18
100
AcDbLine
 10
0.0
 20
0.0
 30
0.0
 11
0.0
 21
0.1
 31
0.0
  0
LINE
  5
49C
330
498
100
AcDbEntity
  8
0
  6
Continuous
 62
     0
370
    18
100
AcDbLine
 10
0.0
 20
0.0
 30
0.0
 11
-0.1
 21
0.0
 31
0.0
  0
LINE
  5
49D
330
498
100
AcDbEntity
  8
0
  6
Continuous
 62
     0
370
    18
100
AcDbLine
 10
0.0
 20
0.0
 30
0.0
 11
0.0
 21
-0.1
 31
0.0
  0
LINE
  5
49E
330
498
100
AcDbEntity
  8
0
  6
Continuous
 62
     0
370
    18
100
AcDbLine
 10
0.0
 20
0.0
 30
0.0
 11
0.1
 21
0.0
 31
0.0
  0
LINE
  5
49F
330
498
100
AcDbEntity
  8
0
  6
Continuous
 62
     0
370
    18
100
AcDbLine
 10
0.0
 20
0.1
 30
0.0
 11
0.0
 21
0.1826771654
 31
0.0
  0
LINE
  5
4A0
330
498
100
AcDbEntity
  8
0
  6
Continuous
 62
     0
370
    18
100
AcDbLine
 10
-0.1
 20
0.0
 30
0.0
 11
-0.1826771654
 21
0.0
 31
0.0
  0
LINE
  5
4A1
330
498
100
AcDbEntity
  8
0
  6
Continuous
 62
     0
370
    18
100
AcDbLine
 10
0.0
 20
-0.1
 30
0.0
 11
0.0
 21
-0.1826771654
 31
0.0
  0
LINE
  5
4A2
330
498
100
AcDbEntity
  8
0
  6
Continuous
 62
     0
370
    18
100
AcDbLine
 10
0.1
 20
0.0
 30
0.0
 11
0.1826771654
 21
0.0
 31
0.0
  0
ENDBLK
  5
49A
330
498
100
AcDbEntity
  8
0
100
AcDbBlockEnd
  0
BLOCK
  5
557
330
556
100
AcDbEntity
  8
0
100
AcDbBlockBegin
  2
_D_13
 70
     0
 10
0.0
 20
0.0
 30
0.0
  3
_D_13
  1

  0
SOLID
  5
559
330
556
100
AcDbEntity
  8
0
  6
Continuous
 62
     7
370
    18
100
AcDbTrace
 10
11.1655494575
 20
8.6004754279
 30
0.0
 11
11.0030494575
 21
8.6254754279
 31
0.0
 12
11.0030494575
 22
8.5754754279
 32
0.0
 13
11.0030494575
 23
8.5754754279
 33
0.0
  0
SOLID
  5
55A
330
556
100
AcDbEntity
  8
0
  6
Continuous
 62
     7
370
    18
100
AcDbTrace
 10
11.2915337095
 20
8.6004754279
 30
0.0
 11
11.4540337095
 21
8.5754754279
 31
0.0
 12
11.4540337095
 22
8.6254754279
 32
0.0
 13
11.4540337095
 23
8.6254754279
 33
0.0
  0
LINE
  5
55B
330
556
100
AcDbEntity
  8
0
  6
Continuous
 62
     7
370
    18
100
AcDbLine
 10
11.7666742326
 20
8.5992818271
 30
0.0
 11
11.7190668112
 21
8.5992818271
 31
0.0
  0
LINE
  5
55C
330
556
100
AcDbEntity
  8
0
  6
Continuous
 62
     7
370
    18
100
AcDbLine
 10
11.7190668112
 20
8.5992818271
 30
0.0
 11
11.7190668112
 21
8.3512349446
 31
0.0
  0
LINE
  5
55D
330
556
100
AcDbEntity
  8
0
  6
Continuous
 62
     7
370
    18
100
AcDbLine
 10
11.7190668112
 20
8.3512349446
 30
0.0
 11
11.7666742326
 21
8.3512349446
 31
0.0
  0
LINE
  5
55E
330
556
100
AcDbEntity
  8
0
  6
Continuous
 62
     7
370
    18
100
AcDbLine
 10
12.0553026941
 20
8.5992818271
 30
0.0
 11
12.1029101155
 21
8.5992818271
 31
0.0
  0
LINE
  5
55F
330
556
100
AcDbEntity
  8
0
  6
Continuous
 62
     7
370
    18
100
AcDbLine
 10
12.1029101155
 20
8.5992818271
 30
0.0
 11
12.1029101155
 21
8.3512349446
 31
0.0
  0
LINE
  5
560
330
556
100
AcDbEntity
  8
0
  6
Continuous
 62
     7
370
    18
100
AcDbLine
 10
12.1029101155
 20
8.3512349446
 30
0.0
 11
12.0553026941
 21
8.3512349446
 31
0.0
  0
LINE
  5
561
330
556
100
AcDbEntity
  8
0
  6
Continuous
 62
     7
370
    18
100
AcDbLine
 10
11.1655494575
 20
8.6004754279
 30
0.0
 11
10.8530494575
 21
8.6004754279
 31
0.0
  0
LINE
  5
562
330
556
100
AcDbEntity
  8
0
  6
Continuous
 62
     7
370
    18
100
AcDbLine
 10
11.2915337095
 20
8.6004754279
 30
0.0
 11
11.5820355738
 21
8.6004754279
 31
0.0
  0
MTEXT
  5
563
330
556
100
AcDbEntity
  8
0
  6
Continuous
 62
     7
370
    18
100
AcDbMText
 10
11.6723274452
 20
8.8348241115
 30
0.0
 40
0.15625
 41
0.0
 71
     1
 72
     1
  1

  7
SLDTEXTSTYLE0
 73
     1
 44
1.0
  0
MTEXT
  5
564
330
556
100
AcDbEntity
  8
0
  6
Continuous
 62
     7
370
    18
100
AcDbMText
 10
11.7666742211
 20
8.8324369471
 30
0.0
 40
0.15625
 41
0.0
 71
     1
 72
     1
  1
.13
  7
SLDTEXTSTYLE0
 73
     1
 44
1.0
  0
MTEXT
  5
565
330
556
100
AcDbEntity
  8
0
  6
Continuous
 62
     7
370
    18
100
AcDbMText
 10
11.7666742326
 20
8.5526517962
 30
0.0
 40
0.15625
 41
0.0
 71
     1
 72
     1
  1
3.2
  7
SLDTEXTSTYLE0
 73
     1
 44
1.0
  0
MTEXT
  5
566
330
556
100
AcDbEntity
  8
0
  6
Continuous
 62
     7
370
    18
100
AcDbMText
 10
12.2091112525
 20
8.8348241115
 30
0.0
 40
0.15625
 41
0.0
 71
     1
 72
     1
  1

  7
SLDTEXTSTYLE0
 73
     1
 44
1.0
  0
ENDBLK
  5
558
330
556
100
AcDbEntity
  8
0
100
AcDbBlockEnd
  0
BLOCK
  5
56A
330
569
100
AcDbEntity
  8
0
100
AcDbBlockBegin
  2
_D_14
 70
     0
 10
0.0
 20
0.0
 30
0.0
  3
_D_14
  1

  0
SOLID
  5
56C
330
569
100
AcDbEntity
  8
0
  6
Continuous
 62
     7
370
    18
100
AcDbTrace
 10
11.1655494575
 20
8.6004754279
 30
0.0
 11
11.0030494575
 21
8.6254754279
 31
0.0
 12
11.0030494575
 22
8.5754754279
 32
0.0
 13
11.0030494575
 23
8.5754754279
 33
0.0
  0
SOLID
  5
56D
330
569
100
AcDbEntity
  8
0
  6
Continuous
 62
     7
370
    18
100
AcDbTrace
 10
8.4647620559
 20
8.6004754279
 30
0.0
 11
8.6272620559
 21
8.5754754279
 31
0.0
 12
8.6272620559
 22
8.6254754279
 32
0.0
 13
8.6272620559
 23
8.6254754279
 33
0.0
  0
LINE
  5
56E
330
569
100
AcDbEntity
  8
0
  6
Continuous
 62
     7
370
    18
100
AcDbLine
 10
9.6131158428
 20
8.5992818271
 30
0.0
 11
9.5655084214
 21
8.5992818271
 31
0.0
  0
LINE
  5
56F
330
569
100
AcDbEntity
  8
0
  6
Continuous
 62
     7
370
    18
100
AcDbLine
 10
9.5655084214
 20
8.5992818271
 30
0.0
 11
9.5655084214
 21
8.3512349446
 31
0.0
  0
LINE
  5
570
330
569
100
AcDbEntity
  8
0
  6
Continuous
 62
     7
370
    18
100
AcDbLine
 10
9.5655084214
 20
8.3512349446
 30
0.0
 11
9.6131158428
 21
8.3512349446
 31
0.0
  0
LINE
  5
571
330
569
100
AcDbEntity
  8
0
  6
Continuous
 62
     7
370
    18
100
AcDbLine
 10
10.0171957165
 20
8.5992818271
 30
0.0
 11
10.0648031379
 21
8.5992818271
 31
0.0
  0
LINE
  5
572
330
569
100
AcDbEntity
  8
0
  6
Continuous
 62
     7
370
    18
100
AcDbLine
 10
10.0648031379
 20
8.5992818271
 30
0.0
 11
10.0648031379
 21
8.3512349446
 31
0.0
  0
LINE
  5
573
330
569
100
AcDbEntity
  8
0
  6
Continuous
 62
     7
370
    18
100
AcDbLine
 10
10.0648031379
 20
8.3512349446
 30
0.0
 11
10.0171957165
 21
8.3512349446
 31
0.0
  0
LINE
  5
574
330
569
100
AcDbEntity
  8
0
  6
Continuous
 62
     7
370
    18
100
AcDbLine
 10
11.1655494575
 20
8.6004754279
 30
0.0
 11
10.2018343294
 21
8.6004754279
 31
0.0
  0
LINE
  5
575
330
569
100
AcDbEntity
  8
0
  6
Continuous
 62
     7
370
    18
100
AcDbLine
 10
8.4647620559
 20
8.6004754279
 30
0.0
 11
9.428477184
 21
8.6004754279
 31
0.0
  0
MTEXT
  5
576
330
569
100
AcDbEntity
  8
0
  6
Continuous
 62
     7
370
    18
100
AcDbMText
 10
9.5187690554
 20
8.8348241115
 30
0.0
 40
0.15625
 41
0.0
 71
     1
 72
     1
  1

  7
SLDTEXTSTYLE0
 73
     1
 44
1.0
  0
MTEXT
  5
577
330
569
100
AcDbEntity
  8
0
  6
Continuous
 62
     7
370
    18
100
AcDbMText
 10
9.6131158313
 20
8.8324369471
 30
0.0
 40
0.15625
 41
0.0
 71
     1
 72
     1
  1
2.70
  7
SLDTEXTSTYLE0
 73
     1
 44
1.0
  0
MTEXT
  5
578
330
569
100
AcDbEntity
  8
0
  6
Continuous
 62
     7
370
    18
100
AcDbMText
 10
9.6131158428
 20
8.5526517962
 30
0.0
 40
0.15625
 41
0.0
 71
     1
 72
     1
  1
68.6
  7
SLDTEXTSTYLE0
 73
     1
 44
1.0
  0
MTEXT
  5
579
330
569
100
AcDbEntity
  8
0
  6
Continuous
 62
     7
370
    18
100
AcDbMText
 10
10.1710042749
 20
8.8348241115
 30
0.0
 40
0.15625
 41
0.0
 71
     1
 72
     1
  1

  7
SLDTEXTSTYLE0
 73
     1
 44
1.0
  0
ENDBLK
  5
56B
330
569
100
AcDbEntity
  8
0
100
AcDbBlockEnd
  0
BLOCK
  5
57C
330
57B
100
AcDbEntity
  8
0
100
AcDbBlockBegin
  2
_D_15
 70
     0
 10
0.0
 20
0.0
 30
0.0
  3
_D_15
  1

  0
SOLID
  5
57E
330
57B
100
AcDbEntity
  8
0
  6
Continuous
 62
     7
370
    18
100
AcDbTrace
 10
8.4647620559
 20
8.6004754279
 30
0.0
 11
8.6272620559
 21
8.5754754279
 31
0.0
 12
8.6272620559
 22
8.6254754279
 32
0.0
 13
8.6272620559
 23
8.6254754279
 33
0.0
  0
SOLID
  5
57F
330
57B
100
AcDbEntity
  8
0
  6
Continuous
 62
     7
370
    18
100
AcDbTrace
 10
8.3387778039
 20
8.6004754279
 30
0.0
 11
8.1762778039
 21
8.6254754279
 31
0.0
 12
8.1762778039
 22
8.5754754279
 32
0.0
 13
8.1762778039
 23
8.5754754279
 33
0.0
  0
LINE
  5
580
330
57B
100
AcDbEntity
  8
0
  6
Continuous
 62
     7
370
    18
100
AcDbLine
 10
7.5300471695
 20
8.5992818271
 30
0.0
 11
7.4824397481
 21
8.5992818271
 31
0.0
  0
LINE
  5
581
330
57B
100
AcDbEntity
  8
0
  6
Continuous
 62
     7
370
    18
100
AcDbLine
 10
7.4824397481
 20
8.5992818271
 30
0.0
 11
7.4824397481
 21
8.3512349446
 31
0.0
  0
LINE
  5
582
330
57B
100
AcDbEntity
  8
0
  6
Continuous
 62
     7
370
    18
100
AcDbLine
 10
7.4824397481
 20
8.3512349446
 30
0.0
 11
7.5300471695
 21
8.3512349446
 31
0.0
  0
LINE
  5
583
330
57B
100
AcDbEntity
  8
0
  6
Continuous
 62
     7
370
    18
100
AcDbLine
 10
7.818675631
 20
8.5992818271
 30
0.0
 11
7.8662830524
 21
8.5992818271
 31
0.0
  0
LINE
  5
584
330
57B
100
AcDbEntity
  8
0
  6
Continuous
 62
     7
370
    18
100
AcDbLine
 10
7.8662830524
 20
8.5992818271
 30
0.0
 11
7.8662830524
 21
8.3512349446
 31
0.0
  0
LINE
  5
585
330
57B
100
AcDbEntity
  8
0
  6
Continuous
 62
     7
370
    18
100
AcDbLine
 10
7.8662830524
 20
8.3512349446
 30
0.0
 11
7.818675631
 21
8.3512349446
 31
0.0
  0
LINE
  5
586
330
57B
100
AcDbEntity
  8
0
  6
Continuous
 62
     7
370
    18
100
AcDbLine
 10
8.4647620559
 20
8.6004754279
 30
0.0
 11
8.7772620559
 21
8.6004754279
 31
0.0
  0
LINE
  5
587
330
57B
100
AcDbEntity
  8
0
  6
Continuous
 62
     7
370
    18
100
AcDbLine
 10
8.3387778039
 20
8.6004754279
 30
0.0
 11
8.003314244
 21
8.6004754279
 31
0.0
  0
MTEXT
  5
588
330
57B
100
AcDbEntity
  8
0
  6
Continuous
 62
     7
370
    18
100
AcDbMText
 10
7.4357003821
 20
8.8348241115
 30
0.0
 40
0.15625
 41
0.0
 71
     1
 72
     1
  1

  7
SLDTEXTSTYLE0
 73
     1
 44
1.0
  0
MTEXT
  5
589
330
57B
100
AcDbEntity
  8
0
  6
Continuous
 62
     7
370
    18
100
AcDbMText
 10
7.530047158
 20
8.8324369471
 30
0.0
 40
0.15625
 41
0.0
 71
     1
 72
     1
  1
.13
  7
SLDTEXTSTYLE0
 73
     1
 44
1.0
  0
MTEXT
  5
58A
330
57B
100
AcDbEntity
  8
0
  6
Continuous
 62
     7
370
    18
100
AcDbMText
 10
7.5300471695
 20
8.5526517962
 30
0.0
 40
0.15625
 41
0.0
 71
     1
 72
     1
  1
3.2
  7
SLDTEXTSTYLE0
 73
     1
 44
1.0
  0
MTEXT
  5
58B
330
57B
100
AcDbEntity
  8
0
  6
Continuous
 62
     7
370
    18
100
AcDbMText
 10
7.9724841894
 20
8.8348241115
 30
0.0
 40
0.15625
 41
0.0
 71
     1
 72
     1
  1

  7
SLDTEXTSTYLE0
 73
     1
 44
1.0
  0
ENDBLK
  5
57D
330
57B
100
AcDbEntity
  8
0
100
AcDbBlockEnd
  0
BLOCK
  5
58E
330
58D
100
AcDbEntity
  8
0
100
AcDbBlockBegin
  2
_D_16
 70
     0
 10
0.0
 20
0.0
 30
0.0
  3
_D_16
  1

  0
SOLID
  5
590
330
58D
100
AcDbEntity
  8
0
  6
Continuous
 62
     7
370
    18
100
AcDbTrace
 10
10.8955494575
 20
11.5570814821
 30
0.0
 11
10.7330494575
 21
11.5820814821
 31
0.0
 12
10.7330494575
 22
11.5320814821
 32
0.0
 13
10.7330494575
 23
11.5320814821
 33
0.0
  0
SOLID
  5
591
330
58D
100
AcDbEntity
  8
0
  6
Continuous
 62
     7
370
    18
100
AcDbTrace
 10
11.1655494575
 20
11.5570814821
 30
0.0
 11
11.3280494575
 21
11.5320814821
 31
0.0
 12
11.3280494575
 22
11.5820814821
 32
0.0
 13
11.3280494575
 23
11.5820814821
 33
0.0
  0
LINE
  5
592
330
58D
100
AcDbEntity
  8
0
  6
Continuous
 62
     7
370
    18
100
AcDbLine
 10
11.7666742326
 20
11.5558878813
 30
0.0
 11
11.7190668112
 21
11.5558878813
 31
0.0
  0
LINE
  5
593
330
58D
100
AcDbEntity
  8
0
  6
Continuous
 62
     7
370
    18
100
AcDbLine
 10
11.7190668112
 20
11.5558878813
 30
0.0
 11
11.7190668112
 21
11.3078409989
 31
0.0
  0
LINE
  5
594
330
58D
100
AcDbEntity
  8
0
  6
Continuous
 62
     7
370
    18
100
AcDbLine
 10
11.7190668112
 20
11.3078409989
 30
0.0
 11
11.7666742326
 21
11.3078409989
 31
0.0
  0
LINE
  5
595
330
58D
100
AcDbEntity
  8
0
  6
Continuous
 62
     7
370
    18
100
AcDbLine
 10
12.0553026941
 20
11.5558878813
 30
0.0
 11
12.1029101155
 21
11.5558878813
 31
0.0
  0
LINE
  5
596
330
58D
100
AcDbEntity
  8
0
  6
Continuous
 62
     7
370
    18
100
AcDbLine
 10
12.1029101155
 20
11.5558878813
 30
0.0
 11
12.1029101155
 21
11.3078409989
 31
0.0
  0
LINE
  5
597
330
58D
100
AcDbEntity
  8
0
  6
Continuous
 62
     7
370
    18
100
AcDbLine
 10
12.1029101155
 20
11.3078409989
 30
0.0
 11
12.0553026941
 21
11.3078409989
 31
0.0
  0
LINE
  5
598
330
58D
100
AcDbEntity
  8
0
  6
Continuous
 62
     7
370
    18
100
AcDbLine
 10
10.8955494575
 20
10.6769006624
 30
0.0
 11
10.8955494575
 21
11.7133314821
 31
0.0
  0
LINE
  5
599
330
58D
100
AcDbEntity
  8
0
  6
Continuous
 62
     7
370
    18
100
AcDbLine
 10
11.1655494575
 20
11.08297132
 30
0.0
 11
11.1655494575
 21
11.7133314821
 31
0.0
  0
LINE
  5
59A
330
58D
100
AcDbEntity
  8
0
  6
Continuous
 62
     7
370
    18
100
AcDbLine
 10
10.8955494575
 20
11.5570814821
 30
0.0
 11
10.5830494575
 21
11.5570814821
 31
0.0
  0
LINE
  5
59B
330
58D
100
AcDbEntity
  8
0
  6
Continuous
 62
     7
370
    18
100
AcDbLine
 10
11.1655494575
 20
11.5570814821
 30
0.0
 11
11.5820355738
 21
11.5570814821
 31
0.0
  0
MTEXT
  5
59C
330
58D
100
AcDbEntity
  8
0
  6
Continuous
 62
     7
370
    18
100
AcDbMText
 10
11.6723274452
 20
11.7914301657
 30
0.0
 40
0.15625
 41
0.0
 71
     1
 72
     1
  1

  7
SLDTEXTSTYLE0
 73
     1
 44
1.0
  0
MTEXT
  5
59D
330
58D
100
AcDbEntity
  8
0
  6
Continuous
 62
     7
370
    18
100
AcDbMText
 10
11.7666742211
 20
11.7890430014
 30
0.0
 40
0.15625
 41
0.0
 71
     1
 72
     1
  1
.27
  7
SLDTEXTSTYLE0
 73
     1
 44
1.0
  0
MTEXT
  5
59E
330
58D
100
AcDbEntity
  8
0
  6
Continuous
 62
     7
370
    18
100
AcDbMText
 10
11.7666742326
 20
11.5092578504
 30
0.0
 40
0.15625
 41
0.0
 71
     1
 72
     1
  1
6.9
  7
SLDTEXTSTYLE0
 73
     1
 44
1.0
  0
MTEXT
  5
59F
330
58D
100
AcDbEntity
  8
0
  6
Continuous
 62
     7
370
    18
100
AcDbMText
 10
12.2091112525
 20
11.7914301657
 30
0.0
 40
0.15625
 41
0.0
 71
     1
 72
     1
  1

  7
SLDTEXTSTYLE0
 73
     1
 44
1.0
  0
ENDBLK
  5
58F
330
58D
100
AcDbEntity
  8
0
100
AcDbBlockEnd
  0
BLOCK
  5
5A2
330
5A1
100
AcDbEntity
  8
0
100
AcDbBlockBegin
  2
SW_NOTE_6
 70
     0
 10
0.0
 20
0.0
 30
0.0
  3
SW_NOTE_6
  1

  0
MTEXT
  5
5A4
330
5A1
100
AcDbEntity
  8
0
  6
Continuous
 62
     0
370
     0
100
AcDbMText
 10
0.029622042
 20
0.0777627064
 30
0.0
 40
0.15625
 41
0.0
 71
     1
 72
     1
  1
MATING THREAD FOR
  7
SLDTEXTSTYLE0
 73
     1
 44
1.0
  0
MTEXT
  5
5A5
330
5A1
100
AcDbEntity
  8
0
  6
Continuous
 62
     0
370
     0
100
AcDbMText
 10
0.029622042
 20
-0.1276998868
 30
0.0
 40
0.15625
 41
0.0
 71
     1
 72
     1
  1
CAPTIVE SCREW
  7
SLDTEXTSTYLE0
 73
     1
 44
1.0
  0
ENDBLK
  5
5A3
330
5A1
100
AcDbEntity
  8
0
100
AcDbBlockEnd
  0
BLOCK
  5
5A9
330
5A8
100
AcDbEntity
  8
0
100
AcDbBlockBegin
  2
_Dot
 70
     0
 10
0.0
 20
0.0
 30
0.0
  3
_Dot
  1

  0
LWPOLYLINE
  5
5AB
330
5A8
100
AcDbEntity
  8
0
  6
ByBlock
 62
     0
100
AcDbPolyline
 90
        2
 70
     1
 43
0.5
 10
-0.25
 20
0.0
 42
1.0
 10
0.25
 20
0.0
 42
1.0
  0
LINE
  5
5AC
330
5A8
100
AcDbEntity
  8
0
  6
ByBlock
 62
     0
370
    -2
100
AcDbLine
 10
-0.5
 20
0.0
 30
0.0
 11
-1.0
 21
0.0
 31
0.0
  0
ENDBLK
  5
5AA
330
5A8
100
AcDbEntity
  8
0
100
AcDbBlockEnd
  0
ENDSEC
  0
SECTION
  2
ENTITIES
  0
LINE
  5
73
330
1F
100
AcDbEntity
  8
0
  6
Continuous
 62
     7
370
    18
100
AcDbLine
 10
0.3915645058
 20
13.3813414634
 30
0.0
 11
20.8615645058
 21
13.3813414634
 31
0.0
  0
LINE
  5
74
330
1F
100
AcDbEntity
  8
0
  6
Continuous
 62
     7
370
    18
100
AcDbLine
 10
20.8615645058
 20
0.4113414634
 30
0.0
 11
20.8615645058
 21
13.3813414634
 31
0.0
  0
LINE
  5
75
330
1F
100
AcDbEntity
  8
0
  6
Continuous
 62
     7
370
    18
100
AcDbLine
 10
20.8615645058
 20
0.4113414634
 30
0.0
 11
0.3915645058
 21
0.4113414634
 31
0.0
  0
LINE
  5
76
330
1F
100
AcDbEntity
  8
0
  6
Continuous
 62
     7
370
    18
100
AcDbLine
 10
0.3915645058
 20
13.3813414634
 30
0.0
 11
0.3915645058
 21
0.4113414634
 31
0.0
  0
LINE
  5
77
330
1F
100
AcDbEntity
  8
0
  6
Continuous
 62
     7
370
    18
100
AcDbLine
 10
0.3140645058
 20
13.4588414634
 30
0.0
 11
20.9390645058
 21
13.4588414634
 31
0.0
  0
LINE
  5
78
330
1F
100
AcDbEntity
  8
0
  6
Continuous
 62
     7
370
    18
100
AcDbLine
 10
20.9390645058
 20
0.3338414634
 30
0.0
 11
0.3140645058
 21
0.3338414634
 31
0.0
  0
LINE
  5
79
330
1F
100
AcDbEntity
  8
0
  6
Continuous
 62
     7
370
    18
100
AcDbLine
 10
0.3140645058
 20
13.4588414634
 30
0.0
 11
0.3140645058
 21
0.3338414634
 31
0.0
  0
LINE
  5
7A
330
1F
100
AcDbEntity
  8
0
  6
Continuous
 62
     7
370
    18
100
AcDbLine
 10
20.9390645058
 20
0.3338414634
 30
0.0
 11
20.9390645058
 21
13.4588414634
 31
0.0
  0
LINE
  5
7B
330
1F
100
AcDbEntity
  8
0
  6
Continuous
 62
     7
370
    18
100
AcDbLine
 10
0.3915645058
 20
12.8738414634
 30
0.0
 11
20.8615645058
 21
12.8738414634
 31
0.0
  0
LINE
  5
7C
330
1F
100
AcDbEntity
  8
0
  6
Continuous
 62
     7
370
    18
100
AcDbLine
 10
2.3046490259
 20
13.3813414634
 30
0.0
 11
2.3046490259
 21
12.8738414634
 31
0.0
  0
LINE
  5
7D
330
1F
100
AcDbEntity
  8
0
  6
Continuous
 62
     7
370
    18
100
AcDbLine
 10
1.3885398546
 20
13.3813414634
 30
0.0
 11
1.3885398546
 21
12.8738414634
 31
0.0
  0
LINE
  5
7E
330
1F
100
AcDbEntity
  8
0
  6
Continuous
 62
     7
370
    18
100
AcDbLine
 10
19.2990645058
 20
12.8738414634
 30
0.0
 11
19.2990645058
 21
13.3813414634
 31
0.0
  0
LINE
  5
7F
330
1F
100
AcDbEntity
  8
0
  6
Continuous
 62
     7
370
    18
100
AcDbLine
 10
18.3615645058
 20
12.8738414634
 30
0.0
 11
18.3615645058
 21
13.3813414634
 31
0.0
  0
LINE
  5
80
330
1F
100
AcDbEntity
  8
0
  6
Continuous
 62
     7
370
    18
100
AcDbLine
 10
18.2840645058
 20
12.8738414634
 30
0.0
 11
18.2840645058
 21
13.3813414634
 31
0.0
  0
LINE
  5
81
330
1F
100
AcDbEntity
  8
0
  6
Continuous
 62
     7
370
    18
100
AcDbLine
 10
0.5595973965
 20
12.9702001448
 30
0.0
 11
0.5595973965
 21
13.3021185874
 31
0.0
  0
LINE
  5
82
330
1F
100
AcDbEntity
  8
0
  6
Continuous
 62
     7
370
    18
100
AcDbLine
 10
0.7907289304
 20
12.9909450474
 30
0.0
 11
0.7907289304
 21
13.3021185874
 31
0.0
  0
LINE
  5
83
330
1F
100
AcDbEntity
  8
0
  6
Continuous
 62
     7
370
    18
100
AcDbLine
 10
0.8802923998
 20
13.0243549411
 30
0.0
 11
0.8802923998
 21
13.3021185874
 31
0.0
  0
LINE
  5
84
330
1F
100
AcDbEntity
  8
0
  6
Continuous
 62
     7
370
    18
100
AcDbLine
 10
0.8514009581
 20
13.0243549411
 30
0.0
 11
0.8514009581
 21
13.3021185874
 31
0.0
  0
LINE
  5
85
330
1F
100
AcDbEntity
  8
0
  6
Continuous
 62
     7
370
    18
100
AcDbLine
 10
1.0088526519
 20
12.9702001448
 30
0.0
 11
1.0088526519
 21
13.3021185874
 31
0.0
  0
LINE
  5
86
330
1F
100
AcDbEntity
  8
0
  6
Continuous
 62
     7
370
    18
100
AcDbLine
 10
0.9409644274
 20
12.9909450474
 30
0.0
 11
0.9409644274
 21
13.3021185874
 31
0.0
  0
LINE
  5
87
330
1F
100
AcDbEntity
  8
0
  6
Continuous
 62
     7
370
    18
100
AcDbLine
 10
0.8114738331
 20
12.9702001448
 30
0.0
 11
0.9202195248
 21
12.9702001448
 31
0.0
  0
LINE
  5
88
330
1F
100
AcDbEntity
  8
0
  6
Continuous
 62
     7
370
    18
100
AcDbLine
 10
0.5595973965
 20
12.9702001448
 30
0.0
 11
0.6664957309
 21
12.9702001448
 31
0.0
  0
LINE
  5
89
330
1F
100
AcDbEntity
  8
0
  6
Continuous
 62
     7
370
    18
100
AcDbLine
 10
0.6664957309
 20
13.127861405
 30
0.0
 11
0.5754876894
 21
13.127861405
 31
0.0
  0
LINE
  5
8A
330
1F
100
AcDbEntity
  8
0
  6
Continuous
 62
     7
370
    18
100
AcDbLine
 10
0.6664957309
 20
13.1444573271
 30
0.0
 11
0.5754876894
 21
13.1444573271
 31
0.0
  0
LINE
  5
8B
330
1F
100
AcDbEntity
  8
0
  6
Continuous
 62
     7
370
    18
100
AcDbLine
 10
0.5754876894
 20
13.1444573271
 30
0.0
 11
0.5754876894
 21
13.1361593661
 31
0.0
  0
LINE
  5
8C
330
1F
100
AcDbEntity
  8
0
  6
Continuous
 62
     7
370
    18
100
AcDbLine
 10
0.5754876894
 20
13.127861405
 30
0.0
 11
0.5754876894
 21
13.1361593661
 31
0.0
  0
LINE
  5
8D
330
1F
100
AcDbEntity
  8
0
  6
Continuous
 62
     7
370
    18
100
AcDbLine
 10
1.0088526519
 20
12.9702001448
 30
0.0
 11
1.0501395545
 21
12.9702001448
 31
0.0
  0
LINE
  5
8E
330
1F
100
AcDbEntity
  8
0
  6
Continuous
 62
     7
370
    18
100
AcDbLine
 10
1.1663110094
 20
13.0863715997
 30
0.0
 11
1.1663110094
 21
13.1859471325
 31
0.0
  0
LINE
  5
8F
330
1F
100
AcDbEntity
  8
0
  6
Continuous
 62
     7
370
    18
100
AcDbLine
 10
1.1052630371
 20
13.127861405
 30
0.0
 11
1.1052630371
 21
13.1444573271
 31
0.0
  0
LINE
  5
90
330
1F
100
AcDbEntity
  8
0
  6
Continuous
 62
     7
370
    18
100
AcDbLine
 10
1.0536410502
 20
13.127861405
 30
0.0
 11
1.0536410502
 21
13.1444573271
 31
0.0
  0
LINE
  5
91
330
1F
100
AcDbEntity
  8
0
  6
Continuous
 62
     7
370
    18
100
AcDbLine
 10
1.1052630371
 20
13.127861405
 30
0.0
 11
1.0536410502
 21
13.127861405
 31
0.0
  0
LINE
  5
92
330
1F
100
AcDbEntity
  8
0
  6
Continuous
 62
     7
370
    18
100
AcDbLine
 10
1.1052630371
 20
13.1444573271
 30
0.0
 11
1.0536410502
 21
13.1444573271
 31
0.0
  0
LINE
  5
93
330
1F
100
AcDbEntity
  8
0
  6
Continuous
 62
     7
370
    18
100
AcDbLine
 10
0.8802923998
 20
13.3021185874
 30
0.0
 11
0.9409644274
 21
13.3021185874
 31
0.0
  0
LINE
  5
94
330
1F
100
AcDbEntity
  8
0
  6
Continuous
 62
     7
370
    18
100
AcDbLine
 10
0.5595973965
 20
13.3021185874
 30
0.0
 11
0.6664957309
 21
13.3021185874
 31
0.0
  0
LINE
  5
95
330
1F
100
AcDbEntity
  8
0
  6
Continuous
 62
     7
370
    18
100
AcDbLine
 10
0.7907289304
 20
13.3021185874
 30
0.0
 11
0.8514009581
 21
13.3021185874
 31
0.0
  0
LINE
  5
96
330
1F
100
AcDbEntity
  8
0
  6
Continuous
 62
     7
370
    18
100
AcDbLine
 10
1.0088526519
 20
13.3021185874
 30
0.0
 11
1.0501395545
 21
13.3021185874
 31
0.0
  0
LINE
  5
97
330
1F
100
AcDbEntity
  8
0
  6
Continuous
 62
     7
370
    18
100
AcDbLine
 10
1.3126250325
 20
13.3813414634
 30
0.0
 11
1.3126250325
 21
12.8738414634
 31
0.0
  0
LINE
  5
98
330
1F
100
AcDbEntity
  8
0
  6
Continuous
 62
     7
370
    18
100
AcDbLine
 10
10.4789942212
 20
12.8738414634
 30
0.0
 11
10.4789942212
 21
13.3813414634
 31
0.0
  0
LINE
  5
99
330
1F
100
AcDbEntity
  8
0
  6
Continuous
 62
     7
370
    18
100
AcDbLine
 10
10.5564942212
 20
12.8738414634
 30
0.0
 11
10.5564942212
 21
13.3813414634
 31
0.0
  0
LINE
  5
9A
330
1F
100
AcDbEntity
  8
0
  6
Continuous
 62
     7
370
    18
100
AcDbLine
 10
11.4939942212
 20
12.8738414634
 30
0.0
 11
11.4939942212
 21
13.3813414634
 31
0.0
  0
ARC
  5
9B
330
1F
100
AcDbEntity
  8
0
  6
Continuous
 62
     7
370
    18
100
AcDbCircle
 10
0.6664957309
 20
13.2232879573
 30
0.0
 40
0.0788306301232229
100
AcDbArc
 50
270.0
 51
90.0
  0
ARC
  5
9C
330
1F
100
AcDbEntity
  8
0
  6
Continuous
 62
     7
370
    18
100
AcDbCircle
 10
1.0501395545
 20
13.1859471325
 30
0.0
 40
0.1161714549184332
100
AcDbArc
 50
0.0
 51
90.0
  0
ARC
  5
9D
330
1F
100
AcDbEntity
  8
0
  6
Continuous
 62
     7
370
    18
100
AcDbCircle
 10
0.6664957309
 20
13.0490307749
 30
0.0
 40
0.0788306301232229
100
AcDbArc
 50
270.0
 51
90.0
  0
ARC
  5
9E
330
1F
100
AcDbEntity
  8
0
  6
Continuous
 62
     7
370
    18
100
AcDbCircle
 10
0.8114738331
 20
12.9909450474
 30
0.0
 40
0.0207449026640117
100
AcDbArc
 50
180.0
 51
270.0
  0
ARC
  5
9F
330
1F
100
AcDbEntity
  8
0
  6
Continuous
 62
     7
370
    18
100
AcDbCircle
 10
0.8636964777
 20
13.0243549411
 30
0.0
 40
0.0165959221312002
100
AcDbArc
 50
277.4442840975
 51
0.0
  0
ARC
  5
A0
330
1F
100
AcDbEntity
  8
0
  6
Continuous
 62
     7
370
    18
100
AcDbCircle
 10
0.8679968802
 20
13.0243549411
 30
0.0
 40
0.0165959221312139
100
AcDbArc
 50
180.0
 51
262.5557159021
  0
ARC
  5
A1
330
1F
100
AcDbEntity
  8
0
  6
Continuous
 62
     7
370
    18
100
AcDbCircle
 10
1.0501395545
 20
13.0863715997
 30
0.0
 40
0.1161714549184332
100
AcDbArc
 50
270.0
 51
0.0
  0
ARC
  5
A2
330
1F
100
AcDbEntity
  8
0
  6
Continuous
 62
     7
370
    18
100
AcDbCircle
 10
0.9202195248
 20
12.9909450474
 30
0.0
 40
0.0207449026640063
100
AcDbArc
 50
270.0
 51
0.0
  0
INSERT
  5
AB
330
1F
100
AcDbEntity
  8
0
  6
Continuous
 62
     7
370
     0
100
AcDbBlockReference
  2
SW_NOTE_0
 10
17.3710688741
 20
12.3864253948
 30
0.0
  0
INSERT
  5
B4
330
1F
100
AcDbEntity
  8
0
  6
Continuous
 62
     7
370
     0
100
AcDbBlockReference
  2
SW_NOTE_1
 10
8.8830811491
 20
1.4892033757
 30
0.0
  0
INSERT
  5
C4
330
1F
100
AcDbEntity
  8
0
  6
Continuous
 62
     7
370
     0
100
AcDbBlockReference
  2
SW_NOTE_2
 10
8.8559727316
 20
5.1802969019
 30
0.0
  0
MTEXT
  5
C5
330
1F
100
AcDbEntity
  8
0
  6
Continuous
 62
     7
370
     0
100
AcDbMText
 10
20.0872396474
 20
13.2616454301
 30
0.0
 40
0.234375
 41
0.0
 71
     2
 72
     1
  1
5-2-16
  7
SLDTEXTSTYLE0
 73
     1
 44
1.0
  0
MTEXT
  5
C6
330
1F
100
AcDbEntity
  8
0
  6
Continuous
 62
     7
370
     0
100
AcDbMText
 10
6.4367619041
 20
13.2752985484
 30
0.0
 40
0.234375
 41
0.0
 71
     2
 72
     1
  1
NEMA 4X PLASTIC BOX  (PTS SERIES)
  7
SLDTEXTSTYLE0
 73
     1
 44
1.0
  0
MTEXT
  5
C8
330
1F
100
AcDbEntity
  8
0
  6
Continuous
 62
     7
370
     0
100
AcDbMText
 10
14.8582645543
 20
13.2616454416
 30
0.0
 40
0.234375
 41
0.0
 71
     2
 72
     1
  1
PTS-25304     &     PTS-25304-C
  7
SLDTEXTSTYLE3
 73
     1
 44
1.0
  0
INSERT
  5
CE
330
1F
100
AcDbEntity
  8
0
  6
Continuous
 62
     7
370
     0
100
AcDbBlockReference
  2
SW_NOTE_3
 10
1.5855426558
 20
13.1326727974
 30
0.0
  0
INSERT
  5
D4
330
1F
100
AcDbEntity
  8
0
  6
Continuous
 62
     7
370
     0
100
AcDbBlockReference
  2
SW_NOTE_4
 10
10.8048081537
 20
13.1234848198
 30
0.0
  0
INSERT
  5
DA
330
1F
100
AcDbEntity
  8
0
  6
Continuous
 62
     7
370
     0
100
AcDbBlockReference
  2
SW_NOTE_5
 10
18.3857982843
 20
13.1292294119
 30
0.0
  0
ARC
  5
DB
330
1F
100
AcDbEntity
  8
0
  6
Continuous
 62
     7
370
    25
100
AcDbCircle
 10
2.6605773944
 20
10.857479194
 30
0.0
 40
0.226377952755906
100
AcDbArc
 50
115.0000000005
 51
154.9999999999
  0
LINE
  5
DC
330
1F
100
AcDbEntity
  8
0
  6
Continuous
 62
     7
370
    25
100
AcDbLine
 10
2.5399481967
 20
11.116169364
 30
0.0
 11
2.5649058817
 21
11.0626473557
 31
0.0
  0
LINE
  5
DD
330
1F
100
AcDbEntity
  8
0
  6
Continuous
 62
     7
370
    25
100
AcDbLine
 10
2.4554093333
 20
10.9531506606
 30
0.0
 11
2.4018871783
 21
10.9781084923
 31
0.0
  0
ARC
  5
DE
330
1F
100
AcDbEntity
  8
0
  6
Continuous
 62
     7
370
    25
100
AcDbCircle
 10
2.6605773944
 20
10.857479194
 30
0.0
 40
0.285433070866481
100
AcDbArc
 50
115.0000000007
 51
154.9999999999
  0
LINE
  5
DF
330
1F
100
AcDbEntity
  8
0
  6
Continuous
 62
     7
370
    25
100
AcDbLine
 10
2.3849868268
 20
8.0622035837
 30
0.0
 11
2.3849868268
 21
10.4244083287
 31
0.0
  0
ARC
  5
E0
330
1F
100
AcDbEntity
  8
0
  6
Continuous
 62
     7
370
    25
100
AcDbCircle
 10
5.455852985
 20
7.4716524224
 30
0.0
 40
0.1181102362193274
100
AcDbArc
 50
269.9999999997
 51
0.0000000006
  0
LINE
  5
E1
330
1F
100
AcDbEntity
  8
0
  6
Continuous
 62
     7
370
    25
100
AcDbLine
 10
5.4558529586
 20
7.3535421236
 30
0.0
 11
3.093648287
 21
7.3535421236
 31
0.0
  0
ARC
  5
E2
330
1F
100
AcDbEntity
  8
0
  6
Continuous
 62
     7
370
    25
100
AcDbCircle
 10
3.0936482606
 20
7.4716524224
 30
0.0
 40
0.1181102362204713
100
AcDbArc
 50
180.0
 51
270.0
  0
LINE
  5
E3
330
1F
100
AcDbEntity
  8
0
  6
Continuous
 62
     7
370
    25
100
AcDbLine
 10
2.9755380314
 20
7.4716524525
 30
0.0
 11
2.9755380314
 21
7.6291327933
 31
0.0
  0
LINE
  5
E4
330
1F
100
AcDbEntity
  8
0
  6
Continuous
 62
     7
370
    25
100
AcDbLine
 10
2.6605773498
 20
7.9440934015
 30
0.0
 11
2.5030970091
 21
7.9440934015
 31
0.0
  0
ARC
  5
E5
330
1F
100
AcDbEntity
  8
0
  6
Continuous
 62
     7
370
    25
100
AcDbCircle
 10
2.5030970795
 20
8.0622036035
 30
0.0
 40
0.1181102362204718
100
AcDbArc
 50
180.0
 51
270.0
  0
ARC
  5
E6
330
1F
100
AcDbEntity
  8
0
  6
Continuous
 62
     7
370
    25
100
AcDbCircle
 10
2.6605773944
 20
7.6291327373
 30
0.0
 40
0.3149606299212602
100
AcDbArc
 50
0.0
 51
90.0
  0
ARC
  5
E7
330
1F
100
AcDbEntity
  8
0
  6
Continuous
 62
     7
370
    25
100
AcDbCircle
 10
2.5030970795
 20
10.4244083279
 30
0.0
 40
0.0787401574804578
100
AcDbArc
 50
90.0
 51
180.0
  0
LINE
  5
E8
330
1F
100
AcDbEntity
  8
0
  6
Continuous
 62
     7
370
    25
100
AcDbLine
 10
2.6605773498
 20
10.5031484991
 30
0.0
 11
2.5030970091
 21
10.5031484991
 31
0.0
  0
ARC
  5
E9
330
1F
100
AcDbEntity
  8
0
  6
Continuous
 62
     7
370
    25
100
AcDbCircle
 10
2.6605773944
 20
10.857479194
 30
0.0
 40
0.3543307086619354
100
AcDbArc
 50
270.0
 51
360.0
  0
LINE
  5
EA
330
1F
100
AcDbEntity
  8
0
  6
Continuous
 62
     7
370
    25
100
AcDbLine
 10
3.0149080433
 20
11.0149595332
 30
0.0
 11
3.0149080433
 21
10.8574791925
 31
0.0
  0
ARC
  5
EB
330
1F
100
AcDbEntity
  8
0
  6
Continuous
 62
     7
370
    25
100
AcDbCircle
 10
3.0936482606
 20
11.014959509
 30
0.0
 40
0.0787401574803663
100
AcDbArc
 50
90.0000000001
 51
180.0
  0
LINE
  5
EC
330
1F
100
AcDbEntity
  8
0
  6
Continuous
 62
     7
370
    25
100
AcDbLine
 10
5.4558529586
 20
11.0936997036
 30
0.0
 11
3.093648287
 21
11.0936997036
 31
0.0
  0
ARC
  5
ED
330
1F
100
AcDbEntity
  8
0
  6
Continuous
 62
     7
370
    25
100
AcDbCircle
 10
5.455852985
 20
11.014959509
 30
0.0
 40
0.0787401574803193
100
AcDbArc
 50
0.0
 51
90.0000000001
  0
LINE
  5
EE
330
1F
100
AcDbEntity
  8
0
  6
Continuous
 62
     7
370
    25
100
AcDbLine
 10
5.5345932023
 20
10.8574791925
 30
0.0
 11
5.5345932023
 21
11.0149595332
 31
0.0
  0
ARC
  5
EF
330
1F
100
AcDbEntity
  8
0
  6
Continuous
 62
     7
370
    25
100
AcDbCircle
 10
5.8889238511
 20
10.857479194
 30
0.0
 40
0.35433070866147
100
AcDbArc
 50
180.0
 51
269.9999999999
  0
LINE
  5
F0
330
1F
100
AcDbEntity
  8
0
  6
Continuous
 62
     7
370
    25
100
AcDbLine
 10
6.0464042365
 20
10.5031484991
 30
0.0
 11
5.8889238957
 21
10.5031484991
 31
0.0
  0
ARC
  5
F1
330
1F
100
AcDbEntity
  8
0
  6
Continuous
 62
     7
370
    25
100
AcDbCircle
 10
6.0464041661
 20
10.4244083279
 30
0.0
 40
0.0787401574803335
100
AcDbArc
 50
0.0
 51
90.0
  0
LINE
  5
F2
330
1F
100
AcDbEntity
  8
0
  6
Continuous
 62
     7
370
    25
100
AcDbLine
 10
6.1251442602
 20
8.0622035837
 30
0.0
 11
6.1251442602
 21
10.4244083287
 31
0.0
  0
ARC
  5
F3
330
1F
100
AcDbEntity
  8
0
  6
Continuous
 62
     7
370
    25
100
AcDbCircle
 10
6.0464041661
 20
8.0622036035
 30
0.0
 40
0.0787401574803201
100
AcDbArc
 50
270.0
 51
0.0
  0
LINE
  5
F4
330
1F
100
AcDbEntity
  8
0
  6
Continuous
 62
     7
370
    25
100
AcDbLine
 10
5.8889238957
 20
7.9834634133
 30
0.0
 11
6.0464042365
 21
7.9834634133
 31
0.0
  0
ARC
  5
F5
330
1F
100
AcDbEntity
  8
0
  6
Continuous
 62
     7
370
    25
100
AcDbCircle
 10
5.8889238511
 20
7.6291327373
 30
0.0
 40
0.3543307086615854
100
AcDbArc
 50
90.0
 51
180.0
  0
LINE
  5
F6
330
1F
100
AcDbEntity
  8
0
  6
Continuous
 62
     7
370
    25
100
AcDbLine
 10
5.5345932023
 20
7.4716524525
 30
0.0
 11
5.5345932023
 21
7.6291327933
 31
0.0
  0
ARC
  5
F7
330
1F
100
AcDbEntity
  8
0
  6
Continuous
 62
     7
370
    25
100
AcDbCircle
 10
5.455852985
 20
7.4716524224
 30
0.0
 40
0.0787401574801825
100
AcDbArc
 50
269.9999999999
 51
0.0000000004
  0
LINE
  5
F8
330
1F
100
AcDbEntity
  8
0
  6
Continuous
 62
     7
370
    25
100
AcDbLine
 10
3.093648287
 20
7.3929122821
 30
0.0
 11
5.4558529586
 21
7.3929122821
 31
0.0
  0
ARC
  5
F9
330
1F
100
AcDbEntity
  8
0
  6
Continuous
 62
     7
370
    25
100
AcDbCircle
 10
3.0936482606
 20
7.4716524224
 30
0.0
 40
0.0787401574797442
100
AcDbArc
 50
180.0
 51
270.0
  0
LINE
  5
FA
330
1F
100
AcDbEntity
  8
0
  6
Continuous
 62
     7
370
    25
100
AcDbLine
 10
3.0149080433
 20
7.6291327933
 30
0.0
 11
3.0149080433
 21
7.4716524525
 31
0.0
  0
ARC
  5
FB
330
1F
100
AcDbEntity
  8
0
  6
Continuous
 62
     7
370
    25
100
AcDbCircle
 10
2.6605773944
 20
7.6291327373
 30
0.0
 40
0.3543307086615415
100
AcDbArc
 50
360.0
 51
89.9999999999
  0
LINE
  5
FC
330
1F
100
AcDbEntity
  8
0
  6
Continuous
 62
     7
370
    25
100
AcDbLine
 10
2.5030970091
 20
7.9834634133
 30
0.0
 11
2.6605773498
 21
7.9834634133
 31
0.0
  0
ARC
  5
FD
330
1F
100
AcDbEntity
  8
0
  6
Continuous
 62
     7
370
    25
100
AcDbCircle
 10
2.5030970795
 20
8.0622036035
 30
0.0
 40
0.0787401574804374
100
AcDbArc
 50
180.0
 51
270.0
  0
LINE
  5
FE
330
1F
100
AcDbEntity
  8
0
  6
Continuous
 62
     7
370
    25
100
AcDbLine
 10
2.4243569853
 20
10.4244083287
 30
0.0
 11
2.4243569853
 21
8.0622035837
 31
0.0
  0
LINE
  5
FF
330
1F
100
AcDbEntity
  8
0
  6
Continuous
 62
     7
370
    25
100
AcDbLine
 10
5.5739632142
 20
7.6291327933
 30
0.0
 11
5.5739632142
 21
7.4716524525
 31
0.0
  0
ARC
  5
100
330
1F
100
AcDbEntity
  8
0
  6
Continuous
 62
     7
370
    25
100
AcDbCircle
 10
5.8889238511
 20
7.6291327373
 30
0.0
 40
0.3149606299212628
100
AcDbArc
 50
90.0000000003
 51
180.0
  0
LINE
  5
101
330
1F
100
AcDbEntity
  8
0
  6
Continuous
 62
     7
370
    25
100
AcDbLine
 10
6.0464042365
 20
7.9440934015
 30
0.0
 11
5.8889238957
 21
7.9440934015
 31
0.0
  0
ARC
  5
102
330
1F
100
AcDbEntity
  8
0
  6
Continuous
 62
     7
370
    25
100
AcDbCircle
 10
6.0464041661
 20
8.0622036035
 30
0.0
 40
0.1181102362193274
100
AcDbArc
 50
270.0000000002
 51
360.0
  0
LINE
  5
103
330
1F
100
AcDbEntity
  8
0
  6
Continuous
 62
     7
370
    25
100
AcDbLine
 10
6.1645144187
 20
10.4244083287
 30
0.0
 11
6.1645144187
 21
8.0622035837
 31
0.0
  0
ARC
  5
104
330
1F
100
AcDbEntity
  8
0
  6
Continuous
 62
     7
370
    25
100
AcDbCircle
 10
6.0464041661
 20
10.4244083279
 30
0.0
 40
0.1181102362217654
100
AcDbArc
 50
360.0
 51
90.0000000002
  0
LINE
  5
105
330
1F
100
AcDbEntity
  8
0
  6
Continuous
 62
     7
370
    25
100
AcDbLine
 10
5.8889238957
 20
10.5425185109
 30
0.0
 11
6.0464042365
 21
10.5425185109
 31
0.0
  0
ARC
  5
106
330
1F
100
AcDbEntity
  8
0
  6
Continuous
 62
     7
370
    25
100
AcDbCircle
 10
5.8889238511
 20
10.857479194
 30
0.0
 40
0.3149606299212593
100
AcDbArc
 50
180.0
 51
270.0000000002
  0
LINE
  5
107
330
1F
100
AcDbEntity
  8
0
  6
Continuous
 62
     7
370
    25
100
AcDbLine
 10
5.5739632142
 20
11.0149595332
 30
0.0
 11
5.5739632142
 21
10.8574791925
 31
0.0
  0
ARC
  5
108
330
1F
100
AcDbEntity
  8
0
  6
Continuous
 62
     7
370
    25
100
AcDbCircle
 10
5.455852985
 20
11.014959509
 30
0.0
 40
0.118110236220474
100
AcDbArc
 50
0.0
 51
90.0000000001
  0
LINE
  5
109
330
1F
100
AcDbEntity
  8
0
  6
Continuous
 62
     7
370
    25
100
AcDbLine
 10
3.093648287
 20
11.1330697155
 30
0.0
 11
5.4558529586
 21
11.1330697155
 31
0.0
  0
ARC
  5
10A
330
1F
100
AcDbEntity
  8
0
  6
Continuous
 62
     7
370
    25
100
AcDbCircle
 10
3.0936482606
 20
11.014959509
 30
0.0
 40
0.1181102362204727
100
AcDbArc
 50
90.0
 51
180.0
  0
LINE
  5
10B
330
1F
100
AcDbEntity
  8
0
  6
Continuous
 62
     7
370
    25
100
AcDbLine
 10
2.9755380314
 20
10.8574791925
 30
0.0
 11
2.9755380314
 21
11.0149595332
 31
0.0
  0
ARC
  5
10C
330
1F
100
AcDbEntity
  8
0
  6
Continuous
 62
     7
370
    25
100
AcDbCircle
 10
2.6605773944
 20
10.857479194
 30
0.0
 40
0.3149606299212593
100
AcDbArc
 50
270.0
 51
0.0
  0
LINE
  5
10D
330
1F
100
AcDbEntity
  8
0
  6
Continuous
 62
     7
370
    25
100
AcDbLine
 10
2.5030970091
 20
10.5425185109
 30
0.0
 11
2.6605773498
 21
10.5425185109
 31
0.0
  0
ARC
  5
10E
330
1F
100
AcDbEntity
  8
0
  6
Continuous
 62
     7
370
    25
100
AcDbCircle
 10
2.5030970795
 20
10.4244083279
 30
0.0
 40
0.1181102362206179
100
AcDbArc
 50
90.0
 51
180.0
  0
ARC
  5
10F
330
1F
100
AcDbEntity
  8
0
  6
Continuous
 62
     7
370
    25
100
AcDbCircle
 10
5.8889238511
 20
7.6291327373
 30
0.0
 40
0.2263779527559054
100
AcDbArc
 50
343.0
 51
287.0
  0
LINE
  5
110
330
1F
100
AcDbEntity
  8
0
  6
Continuous
 62
     7
370
    25
100
AcDbLine
 10
5.9810094053
 20
7.3279344194
 30
0.0
 11
5.9551104245
 21
7.4126464941
 31
0.0
  0
ARC
  5
111
330
1F
100
AcDbEntity
  8
0
  6
Continuous
 62
     7
370
    25
100
AcDbCircle
 10
5.8889238511
 20
7.6291327373
 30
0.0
 40
0.3149606299213852
100
AcDbArc
 50
287.0
 51
342.9999999991
  0
LINE
  5
112
330
1F
100
AcDbEntity
  8
0
  6
Continuous
 62
     7
370
    25
100
AcDbLine
 10
6.1054101948
 20
7.5629462645
 30
0.0
 11
6.1901222696
 21
7.537047137
 31
0.0
  0
CIRCLE
  5
113
330
1F
100
AcDbEntity
  8
0
  6
Continuous
 62
     7
370
    25
100
AcDbCircle
 10
2.6605773944
 20
7.6291327373
 30
0.0
 40
0.2263779527559056
  0
CIRCLE
  5
114
330
1F
100
AcDbEntity
  8
0
  6
Continuous
 62
     7
370
    25
100
AcDbCircle
 10
5.8889238511
 20
10.857479194
 30
0.0
 40
0.2263779527559056
  0
LINE
  5
115
330
1F
100
AcDbEntity
  8
0
  6
Continuous
 62
     7
370
    25
100
AcDbLine
 10
5.9282939076
 20
11.2118098859
 30
0.0
 11
2.621207338
 21
11.2118098859
 31
0.0
  0
LINE
  5
116
330
1F
100
AcDbEntity
  8
0
  6
Continuous
 62
     7
370
    25
100
AcDbLine
 10
2.621207338
 20
7.2748020998
 30
0.0
 11
5.9282939076
 21
7.2748020998
 31
0.0
  0
LINE
  5
117
330
1F
100
AcDbEntity
  8
0
  6
Continuous
 62
     7
370
    25
100
AcDbLine
 10
6.2432545891
 20
7.5897626347
 30
0.0
 11
6.2432545891
 21
10.8968492043
 31
0.0
  0
LINE
  5
118
330
1F
100
AcDbEntity
  8
0
  6
Continuous
 62
     7
370
    25
100
AcDbLine
 10
2.3062466564
 20
10.8968492043
 30
0.0
 11
2.3062466564
 21
7.5897626347
 31
0.0
  0
ARC
  5
119
330
1F
100
AcDbEntity
  8
0
  6
Continuous
 62
     7
370
    25
100
AcDbCircle
 10
2.6216756219
 20
7.5902310656
 30
0.0
 40
0.3154293133095133
100
AcDbArc
 50
180.0850875864
 51
269.9149390941
  0
ARC
  5
11A
330
1F
100
AcDbEntity
  8
0
  6
Continuous
 62
     7
370
    25
100
AcDbCircle
 10
5.9278255399
 20
10.8963808367
 30
0.0
 40
0.3154293969394992
100
AcDbArc
 50
0.0850760913
 51
89.9149239087
  0
ARC
  5
11B
330
1F
100
AcDbEntity
  8
0
  6
Continuous
 62
     7
370
    25
100
AcDbCircle
 10
2.6216755103
 20
10.896381032
 30
0.0
 40
0.3154292013119188
100
AcDbArc
 50
90.0850406621
 51
179.9149593379
  0
ARC
  5
11C
330
1F
100
AcDbEntity
  8
0
  6
Continuous
 62
     7
370
    25
100
AcDbCircle
 10
5.9278258181
 20
7.5902308711
 30
0.0
 40
0.3154291185229599
100
AcDbArc
 50
270.085025629
 51
359.9149476905
  0
ARC
  5
11D
330
1F
100
AcDbEntity
  8
0
  6
Continuous
 62
     7
370
    25
100
AcDbCircle
 10
2.6605773944
 20
10.857479194
 30
0.0
 40
0.226377952755906
100
AcDbArc
 50
154.9999999999
 51
115.0000000005
  0
ARC
  5
11E
330
1F
100
AcDbEntity
  8
0
  6
Continuous
 62
     7
370
    25
100
AcDbCircle
 10
5.8889238511
 20
7.6291327373
 30
0.0
 40
0.2263779527559054
100
AcDbArc
 50
287.0
 51
343.0
  0
CIRCLE
  5
11F
330
1F
100
AcDbEntity
  8
0
  6
Continuous
 62
     7
370
    25
100
AcDbCircle
 10
2.6605773944
 20
7.6291327373
 30
0.0
 40
0.1968503937007875
  0
CIRCLE
  5
120
330
1F
100
AcDbEntity
  8
0
  6
Continuous
 62
     7
370
    25
100
AcDbCircle
 10
2.6605773944
 20
10.857479194
 30
0.0
 40
0.1968503937007875
  0
CIRCLE
  5
121
330
1F
100
AcDbEntity
  8
0
  6
Continuous
 62
     7
370
    25
100
AcDbCircle
 10
5.8889238511
 20
7.6291327373
 30
0.0
 40
0.1968503937007879
  0
CIRCLE
  5
122
330
1F
100
AcDbEntity
  8
0
  6
Continuous
 62
     7
370
    25
100
AcDbCircle
 10
5.8889238511
 20
10.857479194
 30
0.0
 40
0.1968503937007879
  0
LINE
  5
123
330
1F
100
AcDbEntity
  8
0
  6
Continuous
 62
     7
370
    25
100
AcDbLine
 10
6.084386651
 20
10.493023776
 30
0.0
 11
6.084386651
 21
7.9935882097
 31
0.0
  0
LINE
  5
124
330
1F
100
AcDbEntity
  8
0
  6
Continuous
 62
     7
370
    25
100
AcDbLine
 10
6.0559024068
 20
7.9848758704
 30
0.0
 11
6.084386651
 21
7.9935882097
 31
0.0
  0
LINE
  5
125
330
1F
100
AcDbEntity
  8
0
  6
Continuous
 62
     7
370
    25
100
AcDbLine
 10
6.0519159061
 20
7.9836565711
 30
0.0
 11
6.0519159061
 21
10.5029553413
 31
0.0
  0
LINE
  5
126
330
1F
100
AcDbEntity
  8
0
  6
Continuous
 62
     7
370
    25
100
AcDbLine
 10
6.084386651
 20
10.493023776
 30
0.0
 11
6.0559024068
 21
10.5017359687
 31
0.0
  0
LINE
  5
127
330
1F
100
AcDbEntity
  8
0
  6
Continuous
 62
     7
370
    25
100
AcDbLine
 10
3.025032913
 20
11.0529419478
 30
0.0
 11
5.5244683326
 21
11.0529419478
 31
0.0
  0
LINE
  5
128
330
1F
100
AcDbEntity
  8
0
  6
Continuous
 62
     7
370
    25
100
AcDbLine
 10
5.533180672
 20
11.0244577035
 30
0.0
 11
5.5244683326
 21
11.0529419478
 31
0.0
  0
LINE
  5
129
330
1F
100
AcDbEntity
  8
0
  6
Continuous
 62
     7
370
    25
100
AcDbLine
 10
5.5344000445
 20
11.0204713496
 30
0.0
 11
3.015101201
 21
11.0204713496
 31
0.0
  0
LINE
  5
12A
330
1F
100
AcDbEntity
  8
0
  6
Continuous
 62
     7
370
    25
100
AcDbLine
 10
3.025032913
 20
11.0529419478
 30
0.0
 11
3.0163205736
 21
11.0244577035
 31
0.0
  0
LINE
  5
12B
330
1F
100
AcDbEntity
  8
0
  6
Continuous
 62
     7
370
    25
100
AcDbLine
 10
2.4651145945
 20
7.9935882097
 30
0.0
 11
2.4651145945
 21
10.493023776
 31
0.0
  0
LINE
  5
12C
330
1F
100
AcDbEntity
  8
0
  6
Continuous
 62
     7
370
    25
100
AcDbLine
 10
2.4935988388
 20
10.5017359687
 30
0.0
 11
2.4651145945
 21
10.493023776
 31
0.0
  0
LINE
  5
12D
330
1F
100
AcDbEntity
  8
0
  6
Continuous
 62
     7
370
    25
100
AcDbLine
 10
2.4975853394
 20
10.5029553413
 30
0.0
 11
2.4975853394
 21
7.9836565711
 31
0.0
  0
LINE
  5
12E
330
1F
100
AcDbEntity
  8
0
  6
Continuous
 62
     7
370
    25
100
AcDbLine
 10
2.4651145945
 20
7.9935882097
 30
0.0
 11
2.4935988388
 21
7.9848758704
 31
0.0
  0
LINE
  5
12F
330
1F
100
AcDbEntity
  8
0
  6
Continuous
 62
     7
370
    25
100
AcDbLine
 10
5.5244683326
 20
7.4336700379
 30
0.0
 11
3.025032913
 21
7.4336700379
 31
0.0
  0
LINE
  5
130
330
1F
100
AcDbEntity
  8
0
  6
Continuous
 62
     7
370
    25
100
AcDbLine
 10
3.0163205736
 20
7.4621541355
 30
0.0
 11
3.025032913
 21
7.4336700379
 31
0.0
  0
LINE
  5
131
330
1F
100
AcDbEntity
  8
0
  6
Continuous
 62
     7
370
    25
100
AcDbLine
 10
3.015101201
 20
7.4661406362
 30
0.0
 11
5.5344000445
 21
7.4661406362
 31
0.0
  0
LINE
  5
132
330
1F
100
AcDbEntity
  8
0
  6
Continuous
 62
     7
370
    25
100
AcDbLine
 10
5.5244683326
 20
7.4336700379
 30
0.0
 11
5.533180672
 21
7.4621541355
 31
0.0
  0
CIRCLE
  5
133
330
1F
100
AcDbEntity
  8
0
  6
Continuous
 62
     7
370
    25
100
AcDbCircle
 10
5.6497506228
 20
8.3583059657
 30
0.0
 40
0.1574999999999998
  0
CIRCLE
  5
134
330
1F
100
AcDbEntity
  8
0
  6
Continuous
 62
     7
370
    25
100
AcDbCircle
 10
5.6497506228
 20
8.3583059657
 30
0.0
 40
0.0825000000000005
  0
CIRCLE
  5
135
330
1F
100
AcDbEntity
  8
0
  6
Continuous
 62
     7
370
    25
100
AcDbCircle
 10
5.6497506228
 20
9.2433059657
 30
0.0
 40
0.1574999999999998
  0
CIRCLE
  5
136
330
1F
100
AcDbEntity
  8
0
  6
Continuous
 62
     7
370
    25
100
AcDbCircle
 10
5.6497506228
 20
9.2433059657
 30
0.0
 40
0.0825000000000005
  0
CIRCLE
  5
137
330
1F
100
AcDbEntity
  8
0
  6
Continuous
 62
     7
370
    25
100
AcDbCircle
 10
5.6497506228
 20
10.1283059657
 30
0.0
 40
0.0825000000000005
  0
CIRCLE
  5
138
330
1F
100
AcDbEntity
  8
0
  6
Continuous
 62
     7
370
    25
100
AcDbCircle
 10
5.6497506228
 20
10.1283059657
 30
0.0
 40
0.1574999999999998
  0
CIRCLE
  5
139
330
1F
100
AcDbEntity
  8
0
  6
Continuous
 62
     7
370
    25
100
AcDbCircle
 10
2.8997506228
 20
8.3583059657
 30
0.0
 40
0.1574999999999993
  0
CIRCLE
  5
13A
330
1F
100
AcDbEntity
  8
0
  6
Continuous
 62
     7
370
    25
100
AcDbCircle
 10
2.8997506228
 20
8.3583059657
 30
0.0
 40
0.0825000000000005
  0
CIRCLE
  5
13B
330
1F
100
AcDbEntity
  8
0
  6
Continuous
 62
     7
370
    25
100
AcDbCircle
 10
2.8997506228
 20
10.1283059657
 30
0.0
 40
0.0825000000000005
  0
CIRCLE
  5
13C
330
1F
100
AcDbEntity
  8
0
  6
Continuous
 62
     7
370
    25
100
AcDbCircle
 10
2.8997506228
 20
10.1283059657
 30
0.0
 40
0.1574999999999993
  0
CIRCLE
  5
13D
330
1F
100
AcDbEntity
  8
0
  6
Continuous
 62
     7
370
    25
100
AcDbCircle
 10
2.8997506228
 20
9.2433059657
 30
0.0
 40
0.0825000000000005
  0
CIRCLE
  5
13E
330
1F
100
AcDbEntity
  8
0
  6
Continuous
 62
     7
370
    25
100
AcDbCircle
 10
2.8997506228
 20
9.2433059657
 30
0.0
 40
0.1574999999999993
  0
CIRCLE
  5
13F
330
1F
100
AcDbEntity
  8
0
  6
Continuous
 62
     7
370
    25
100
AcDbCircle
 10
4.2747506228
 20
8.0622036035
 30
0.0
 40
0.21
  0
CIRCLE
  5
140
330
1F
100
AcDbEntity
  8
0
  6
Continuous
 62
     7
370
    25
100
AcDbCircle
 10
4.2747506228
 20
10.4244083279
 30
0.0
 40
0.1000000000000005
  0
CIRCLE
  5
141
330
1F
100
AcDbEntity
  8
0
  6
Continuous
 62
     7
370
    25
100
AcDbCircle
 10
4.2747506228
 20
10.4244083279
 30
0.0
 40
0.21
  0
CIRCLE
  5
142
330
1F
100
AcDbEntity
  8
0
  6
Continuous
 62
     7
370
    25
100
AcDbCircle
 10
4.2747506228
 20
8.0622036035
 30
0.0
 40
0.1000000000000005
  0
CIRCLE
  5
143
330
1F
100
AcDbEntity
  8
0
  6
Continuous
 62
     7
370
    25
100
AcDbCircle
 10
4.2747506228
 20
9.2433059657
 30
0.0
 40
0.5
  0
CIRCLE
  5
144
330
1F
100
AcDbEntity
  8
0
  6
Continuous
 62
     7
370
    25
100
AcDbCircle
 10
5.8889238511
 20
7.6291327373
 30
0.0
 40
0.0826771653543314
  0
CIRCLE
  5
145
330
1F
100
AcDbEntity
  8
0
  6
Continuous
 62
     7
370
    25
100
AcDbCircle
 10
2.6605773944
 20
7.6291327373
 30
0.0
 40
0.0826771653543306
  0
CIRCLE
  5
146
330
1F
100
AcDbEntity
  8
0
  6
Continuous
 62
     7
370
    25
100
AcDbCircle
 10
5.8889238511
 20
10.857479194
 30
0.0
 40
0.0826771653543306
  0
CIRCLE
  5
147
330
1F
100
AcDbEntity
  8
0
  6
Continuous
 62
     7
370
    25
100
AcDbCircle
 10
2.6605773944
 20
10.857479194
 30
0.0
 40
0.0826771653543306
  0
LINE
  5
148
330
1F
100
AcDbEntity
  8
0
  6
CENTERX2
 62
     7
370
    18
100
AcDbLine
 10
2.3062466858
 20
9.2433059657
 30
0.0
 11
6.2432545598
 21
9.2433059657
 31
0.0
  0
LINE
  5
149
330
1F
100
AcDbEntity
  8
0
  6
CENTERX2
 62
     7
370
    18
100
AcDbLine
 10
4.2747506228
 20
7.2748020287
 30
0.0
 11
4.2747506228
 21
11.2118099027
 31
0.0
  0
DIMENSION
  5
14A
330
1F
100
AcDbEntity
  8
0
  6
Continuous
 62
     7
370
    18
100
AcDbDimension
  2
_D
 10
1.0754927062
 20
7.2748020287
 30
0.0
 11
1.0754927062
 21
9.2433059657
 31
0.0
 70
   160
  1
<>
 71
     2
 42
-1.0
  3
SLDDIMSTYLE0
100
AcDbAlignedDimension
 13
2.6212073157
 23
11.2118099027
 33
0.0
 14
2.6212073157
 24
7.2748020287
 34
0.0
 50
90.0
100
AcDbRotatedDimension
  0
DIMENSION
  5
15F
330
1F
100
AcDbEntity
  8
0
  6
Continuous
 62
     7
370
    18
100
AcDbDimension
  2
_D_1
 10
2.3062466858
 20
11.8899888767
 30
0.0
 11
4.2747506228
 21
11.8899888767
 31
0.0
 70
   160
  1
<>
 71
     2
 42
-1.0
  3
SLDDIMSTYLE0
100
AcDbAlignedDimension
 13
6.2432545598
 23
10.8968492728
 33
0.0
 14
2.3062466858
 24
10.8968492728
 34
0.0
 50
0.0
100
AcDbRotatedDimension
  0
DIMENSION
  5
173
330
1F
100
AcDbEntity
  8
0
  6
Continuous
 62
     7
370
    18
100
AcDbDimension
  2
_D_2
 10
1.7957218399
 20
8.0622036035
 30
0.0
 11
1.7957218399
 21
9.2433059657
 31
0.0
 70
   160
  1
<>
 71
     2
 42
-1.0
  3
SLDDIMSTYLE0
100
AcDbAlignedDimension
 13
4.2747506228
 23
10.4244083279
 33
0.0
 14
4.2747506228
 24
8.0622036035
 34
0.0
 50
90.0
100
AcDbRotatedDimension
  0
DIMENSION
  5
187
330
1F
100
AcDbEntity
  8
0
  6
Continuous
 62
     7
370
    18
100
AcDbDimension
  2
_D_3
 10
5.6497506228
 20
6.7642771829
 30
0.0
 11
4.2747506228
 21
6.7642771829
 31
0.0
 70
   160
  1
<>
 71
     2
 42
-1.0
  3
SLDDIMSTYLE0
100
AcDbAlignedDimension
 13
2.8997506228
 23
8.3583059657
 33
0.0
 14
5.6497506228
 24
8.3583059657
 34
0.0
 50
0.0
100
AcDbRotatedDimension
  0
DIMENSION
  5
19B
330
1F
100
AcDbEntity
  8
0
  6
Continuous
 62
     7
370
    18
100
AcDbDimension
  2
_D_4
 10
7.1832061556
 20
10.1283059657
 30
0.0
 11
7.1832061556
 21
9.6858059657
 31
0.0
 70
   160
  1
<>
 71
     2
 42
-1.0
  3
SLDDIMSTYLE1
100
AcDbAlignedDimension
 13
5.6497506228
 23
9.2433059657
 33
0.0
 14
5.6497506228
 24
10.1283059657
 34
0.0
 50
90.0
100
AcDbRotatedDimension
  0
DIMENSION
  5
1B0
330
1F
100
AcDbEntity
  8
0
  6
Continuous
 62
     7
370
    18
100
AcDbDimension
  2
_D_5
 10
6.6680805743
 20
8.3583059657
 30
0.0
 11
6.6680805743
 21
8.8008059657
 31
0.0
 70
   160
  1
<>
 71
     2
 42
-1.0
  3
SLDDIMSTYLE1
100
AcDbAlignedDimension
 13
5.6497506228
 23
9.2433059657
 33
0.0
 14
5.6497506228
 24
8.3583059657
 34
0.0
 50
90.0
100
AcDbRotatedDimension
  0
MTEXT
  5
1C4
330
1F
100
AcDbEntity
  8
0
  6
Continuous
 62
     7
370
     0
100
AcDbMText
 10
6.1872029961
 20
6.3487589648
 30
0.0
 40
0.15625
 41
0.0
 71
     1
 72
     1
  1
M4 THREADED INSERT (2X)
  7
SLDTEXTSTYLE0
 73
     1
 44
1.0
  0
LEADER
  5
1C6
330
1F
100
AcDbEntity
  8
0
  6
Continuous
 62
     7
370
     0
100
AcDbLeader
  3
SLDDIMSTYLE2
 76
     3
 10
4.3439266455
 20
7.9899908769
 30
0.0
 10
5.8500267398
 20
6.2694422616
 30
0.0
 10
6.1625267398
 20
6.2694422616
 30
0.0
  0
MTEXT
  5
1C7
330
1F
100
AcDbEntity
  8
0
  6
Continuous
 62
     7
370
     0
100
AcDbMText
 10
4.2746521097
 20
6.2528617977
 30
0.0
 40
0.15625
 41
0.0
 71
     2
 72
     1
  1
COVER NOT SHOWN
  7
SLDTEXTSTYLE0
 73
     1
 44
1.0
  0
INSERT
  5
1D3
330
1F
100
AcDbEntity
  8
0
  6
Continuous
 62
     7
370
    18
100
AcDbBlockReference
  2
SW_CENTERMARKSYMBOL_0
 10
2.6605773944
 20
7.6291327373
 30
0.0
  0
INSERT
  5
1DF
330
1F
100
AcDbEntity
  8
0
  6
Continuous
 62
     7
370
    18
100
AcDbBlockReference
  2
SW_CENTERMARKSYMBOL_1
 10
2.6605773944
 20
10.857479194
 30
0.0
  0
INSERT
  5
1EB
330
1F
100
AcDbEntity
  8
0
  6
Continuous
 62
     7
370
    18
100
AcDbBlockReference
  2
SW_CENTERMARKSYMBOL_2
 10
5.8889238511
 20
10.857479194
 30
0.0
  0
INSERT
  5
1F7
330
1F
100
AcDbEntity
  8
0
  6
Continuous
 62
     7
370
    18
100
AcDbBlockReference
  2
SW_CENTERMARKSYMBOL_3
 10
5.8889238511
 20
7.6291327373
 30
0.0
  0
INSERT
  5
203
330
1F
100
AcDbEntity
  8
0
  6
Continuous
 62
     7
370
    18
100
AcDbBlockReference
  2
SW_CENTERMARKSYMBOL_4
 10
2.8997506228
 20
10.1283059657
 30
0.0
  0
INSERT
  5
20F
330
1F
100
AcDbEntity
  8
0
  6
Continuous
 62
     7
370
    18
100
AcDbBlockReference
  2
SW_CENTERMARKSYMBOL_5
 10
2.8997506228
 20
9.2433059657
 30
0.0
  0
INSERT
  5
21B
330
1F
100
AcDbEntity
  8
0
  6
Continuous
 62
     7
370
    18
100
AcDbBlockReference
  2
SW_CENTERMARKSYMBOL_6
 10
2.8997506228
 20
8.3583059657
 30
0.0
  0
INSERT
  5
227
330
1F
100
AcDbEntity
  8
0
  6
Continuous
 62
     7
370
    18
100
AcDbBlockReference
  2
SW_CENTERMARKSYMBOL_7
 10
5.6497506228
 20
8.3583059657
 30
0.0
  0
INSERT
  5
233
330
1F
100
AcDbEntity
  8
0
  6
Continuous
 62
     7
370
    18
100
AcDbBlockReference
  2
SW_CENTERMARKSYMBOL_8
 10
5.6497506228
 20
9.2433059657
 30
0.0
  0
INSERT
  5
23F
330
1F
100
AcDbEntity
  8
0
  6
Continuous
 62
     7
370
    18
100
AcDbBlockReference
  2
SW_CENTERMARKSYMBOL_9
 10
5.6497506228
 20
10.1283059657
 30
0.0
  0
INSERT
  5
24B
330
1F
100
AcDbEntity
  8
0
  6
Continuous
 62
     7
370
    18
100
AcDbBlockReference
  2
SW_CENTERMARKSYMBOL_10
 10
4.2747506228
 20
10.4244083279
 30
0.0
  0
INSERT
  5
257
330
1F
100
AcDbEntity
  8
0
  6
Continuous
 62
     7
370
    18
100
AcDbBlockReference
  2
SW_CENTERMARKSYMBOL_11
 10
4.2747506228
 20
8.0622036035
 30
0.0
  0
LINE
  5
258
330
1F
100
AcDbEntity
  8
0
  6
PHANTOM
 62
     7
370
    35
100
AcDbLine
 10
4.2764573274
 20
11.4383773282
 30
0.0
 11
4.2764573274
 21
8.5230624732
 31
0.0
  0
LINE
  5
259
330
1F
100
AcDbEntity
  8
0
  6
PHANTOM
 62
     7
370
    35
100
AcDbLine
 10
2.6605773944
 20
8.5230624732
 30
0.0
 11
4.2764573274
 21
8.5230624732
 31
0.0
  0
LINE
  5
25A
330
1F
100
AcDbEntity
  8
0
  6
PHANTOM
 62
     7
370
    35
100
AcDbLine
 10
2.6605773944
 20
8.5230624732
 30
0.0
 11
2.6605773944
 21
7.0482346032
 31
0.0
  0
LINE
  5
25B
330
1F
100
AcDbEntity
  8
0
  6
Continuous
 62
     7
370
    35
100
AcDbLine
 10
4.2764573274
 20
11.4383773282
 30
0.0
 11
3.6514573274
 21
11.4383773282
 31
0.0
  0
SOLID
  5
25C
330
1F
100
AcDbEntity
  8
0
  6
Continuous
 62
     7
370
    35
100
AcDbTrace
 10
3.6514573274
 20
11.4383773282
 30
0.0
 11
3.9639573274
 21
11.3883773282
 31
0.0
 12
3.9639573274
 22
11.4883773282
 32
0.0
 13
3.9639573274
 23
11.4883773282
 33
0.0
  0
LINE
  5
25D
330
1F
100
AcDbEntity
  8
0
  6
Continuous
 62
     7
370
    35
100
AcDbLine
 10
2.6605773944
 20
7.0482346032
 30
0.0
 11
2.0355773944
 21
7.0482346032
 31
0.0
  0
SOLID
  5
25E
330
1F
100
AcDbEntity
  8
0
  6
Continuous
 62
     7
370
    35
100
AcDbTrace
 10
2.0355773944
 20
7.0482346032
 30
0.0
 11
2.3480773944
 21
6.9982346032
 31
0.0
 12
2.3480773944
 22
7.0982346032
 32
0.0
 13
2.3480773944
 23
7.0982346032
 33
0.0
  0
MTEXT
  5
25F
330
1F
100
AcDbEntity
  8
0
  6
Continuous
 62
     7
100
AcDbMText
 10
3.5252323274
 20
11.6416182242
 30
0.0
 40
0.15625
 41
0.0
 71
     1
 72
     1
  1
A
  7
SLDTEXTSTYLE0
 73
     1
 44
1.0
  0
MTEXT
  5
260
330
1F
100
AcDbEntity
  8
0
  6
Continuous
 62
     7
100
AcDbMText
 10
2.0015843604
 20
6.8865692321
 30
0.0
 40
0.15625
 41
0.0
 71
     1
 72
     1
  1
A
  7
SLDTEXTSTYLE0
 73
     1
 44
1.0
  0
ARC
  5
261
330
1F
100
AcDbEntity
  8
0
  6
Continuous
 62
     7
370
    25
100
AcDbCircle
 10
2.8377427488
 20
2.0689472539
 30
0.0
 40
0.0196850393700787
100
AcDbArc
 50
270.0
 51
0.0
  0
ARC
  5
262
330
1F
100
AcDbEntity
  8
0
  6
Continuous
 62
     7
370
    25
100
AcDbCircle
 10
2.4834120401
 20
2.0689472539
 30
0.0
 40
0.0196850393700787
100
AcDbArc
 50
180.0
 51
270.0
  0
ARC
  5
263
330
1F
100
AcDbEntity
  8
0
  6
Continuous
 62
     7
370
    25
100
AcDbCircle
 10
6.0660892055
 20
2.0689472539
 30
0.0
 40
0.0196850393700787
100
AcDbArc
 50
270.0
 51
0.0
  0
ARC
  5
264
330
1F
100
AcDbEntity
  8
0
  6
Continuous
 62
     7
370
    25
100
AcDbCircle
 10
5.7117584968
 20
2.0689472539
 30
0.0
 40
0.0196850393700787
100
AcDbArc
 50
180.0
 51
270.0
  0
LINE
  5
265
330
1F
100
AcDbEntity
  8
0
  6
Continuous
 62
     7
370
    25
100
AcDbLine
 10
2.8574278491
 20
2.0689472511
 30
0.0
 11
2.8574278491
 21
2.0886322937
 31
0.0
  0
LINE
  5
266
330
1F
100
AcDbEntity
  8
0
  6
Continuous
 62
     7
370
    25
100
AcDbLine
 10
2.4637269972
 20
2.0886322937
 30
0.0
 11
2.4637269972
 21
2.0689472511
 31
0.0
  0
LINE
  5
267
330
1F
100
AcDbEntity
  8
0
  6
Continuous
 62
     7
370
    25
100
AcDbLine
 10
6.0857742483
 20
2.0689472511
 30
0.0
 11
6.0857742483
 21
2.0886322937
 31
0.0
  0
LINE
  5
268
330
1F
100
AcDbEntity
  8
0
  6
Continuous
 62
     7
370
    25
100
AcDbLine
 10
5.6920733964
 20
2.0886322937
 30
0.0
 11
5.6920733964
 21
2.0689472511
 31
0.0
  0
LINE
  5
269
330
1F
100
AcDbEntity
  8
0
  6
Continuous
 62
     7
370
    25
100
AcDbLine
 10
4.0777506169
 20
2.0886322937
 30
0.0
 11
4.0777506169
 21
2.0686322973
 31
0.0
  0
LINE
  5
26A
330
1F
100
AcDbEntity
  8
0
  6
Continuous
 62
     7
370
    25
100
AcDbLine
 10
4.4717506287
 20
2.0686322973
 30
0.0
 11
4.4717506287
 21
2.0886322937
 31
0.0
  0
ARC
  5
26B
330
1F
100
AcDbEntity
  8
0
  6
Continuous
 62
     7
370
    25
100
AcDbCircle
 10
4.4517506228
 20
2.0686322933
 30
0.0
 40
0.0200000000000005
100
AcDbArc
 50
270.0
 51
0.0
  0
ARC
  5
26C
330
1F
100
AcDbEntity
  8
0
  6
Continuous
 62
     7
370
    25
100
AcDbCircle
 10
4.0977506228
 20
2.0686322933
 30
0.0
 40
0.0200000000000005
100
AcDbArc
 50
180.0
 51
270.0
  0
LINE
  5
26D
330
1F
100
AcDbEntity
  8
0
  6
Continuous
 62
     7
370
    25
100
AcDbLine
 10
5.7872506036
 20
2.0486322916
 30
0.0
 11
5.7904238469
 21
2.048885637
 31
0.0
  0
ARC
  5
26E
330
1F
100
AcDbEntity
  8
0
  6
Continuous
 62
     7
370
    25
100
AcDbCircle
 10
5.5122506228
 20
2.0686322933
 30
0.0
 40
0.02
100
AcDbArc
 50
180.0
 51
270.0
  0
LINE
  5
26F
330
1F
100
AcDbEntity
  8
0
  6
Continuous
 62
     7
370
    25
100
AcDbLine
 10
5.4922506581
 20
2.0886322937
 30
0.0
 11
5.4922506581
 21
2.0686322973
 31
0.0
  0
ARC
  5
270
330
1F
100
AcDbEntity
  8
0
  6
Continuous
 62
     7
370
    25
100
AcDbCircle
 10
3.0372506228
 20
2.0686322933
 30
0.0
 40
0.02
100
AcDbArc
 50
270.0
 51
0.0
  0
LINE
  5
271
330
1F
100
AcDbEntity
  8
0
  6
Continuous
 62
     7
370
    25
100
AcDbLine
 10
2.7584979253
 20
2.048987505
 30
0.0
 11
2.762250642
 21
2.0486322916
 31
0.0
  0
LINE
  5
272
330
1F
100
AcDbEntity
  8
0
  6
Continuous
 62
     7
370
    25
100
AcDbLine
 10
3.0572505874
 20
2.0686322973
 30
0.0
 11
3.0572505874
 21
2.0886322937
 31
0.0
  0
LINE
  5
273
330
1F
100
AcDbEntity
  8
0
  6
Continuous
 62
     7
370
    25
100
AcDbLine
 10
6.2432545891
 20
4.253986576
 30
0.0
 11
6.2339887362
 21
4.4321741043
 31
0.0
  0
LINE
  5
274
330
1F
100
AcDbEntity
  8
0
  6
Continuous
 62
     7
370
    25
100
AcDbLine
 10
5.9282939076
 20
4.253986576
 30
0.0
 11
6.2432545891
 21
4.253986576
 31
0.0
  0
LINE
  5
275
330
1F
100
AcDbEntity
  8
0
  6
Continuous
 62
     7
370
    25
100
AcDbLine
 10
5.9282939076
 20
4.253986576
 30
0.0
 11
2.621207338
 21
4.253986576
 31
0.0
  0
LINE
  5
276
330
1F
100
AcDbEntity
  8
0
  6
Continuous
 62
     7
370
    25
100
AcDbLine
 10
2.3155125094
 20
4.4321741043
 30
0.0
 11
2.3062466564
 21
4.253986576
 31
0.0
  0
LINE
  5
277
330
1F
100
AcDbEntity
  8
0
  6
Continuous
 62
     7
370
    25
100
AcDbLine
 10
2.3062466564
 20
4.253986576
 30
0.0
 11
2.621207338
 21
4.253986576
 31
0.0
  0
LINE
  5
278
330
1F
100
AcDbEntity
  8
0
  6
Continuous
 62
     7
370
    25
100
AcDbLine
 10
6.2143303499
 20
4.4508369287
 30
0.0
 11
5.9282939076
 21
4.4508369287
 31
0.0
  0
ARC
  5
279
330
1F
100
AcDbEntity
  8
0
  6
Continuous
 62
     7
370
    25
100
AcDbCircle
 10
6.2143303258
 20
4.4311519783
 30
0.0
 40
0.019685039370079
100
AcDbArc
 50
2.9766994681
 51
90.0000000005
  0
LINE
  5
27A
330
1F
100
AcDbEntity
  8
0
  6
Continuous
 62
     7
370
    25
100
AcDbLine
 10
2.621207338
 20
4.4508369287
 30
0.0
 11
2.3351708956
 21
4.4508369287
 31
0.0
  0
ARC
  5
27B
330
1F
100
AcDbEntity
  8
0
  6
Continuous
 62
     7
370
    25
100
AcDbCircle
 10
2.3351709198
 20
4.4311519783
 30
0.0
 40
0.0196850393700796
100
AcDbArc
 50
90.0
 51
177.0233005319
  0
LINE
  5
27C
330
1F
100
AcDbEntity
  8
0
  6
Continuous
 62
     7
370
    25
100
AcDbLine
 10
5.9282939076
 20
4.4508369287
 30
0.0
 11
2.621207338
 21
4.4508369287
 31
0.0
  0
LINE
  5
27D
330
1F
100
AcDbEntity
  8
0
  6
Continuous
 62
     7
370
    25
100
AcDbLine
 10
6.2038844306
 20
4.4508369287
 30
0.0
 11
6.1946540706
 21
4.9833566169
 31
0.0
  0
LINE
  5
27E
330
1F
100
AcDbEntity
  8
0
  6
Continuous
 62
     7
370
    25
100
AcDbLine
 10
2.354847175
 20
4.9833566169
 30
0.0
 11
2.345616815
 21
4.4508369287
 31
0.0
  0
LINE
  5
27F
330
1F
100
AcDbEntity
  8
0
  6
Continuous
 62
     7
370
    25
100
AcDbLine
 10
2.621207338
 20
5.0413881332
 30
0.0
 11
2.4138933196
 21
5.0413881332
 31
0.0
  0
ARC
  5
280
330
1F
100
AcDbEntity
  8
0
  6
Continuous
 62
     7
370
    25
100
AcDbCircle
 10
2.4138933518
 20
4.9823330807
 30
0.0
 40
0.059055118110237
100
AcDbArc
 50
90.0
 51
179.006972597
  0
LINE
  5
281
330
1F
100
AcDbEntity
  8
0
  6
Continuous
 62
     7
370
    25
100
AcDbLine
 10
6.135607926
 20
5.0413881332
 30
0.0
 11
5.9282939076
 21
5.0413881332
 31
0.0
  0
ARC
  5
282
330
1F
100
AcDbEntity
  8
0
  6
Continuous
 62
     7
370
    25
100
AcDbCircle
 10
6.1356078938
 20
4.9823330807
 30
0.0
 40
0.0590551181102367
100
AcDbArc
 50
0.993027403
 51
90.0
  0
LINE
  5
283
330
1F
100
AcDbEntity
  8
0
  6
Continuous
 62
     7
370
    25
100
AcDbLine
 10
5.9282939076
 20
5.0413881332
 30
0.0
 11
2.621207338
 21
5.0413881332
 31
0.0
  0
LINE
  5
284
330
1F
100
AcDbEntity
  8
0
  6
Continuous
 62
     7
370
    25
100
AcDbLine
 10
6.2401561449
 20
4.0764776666
 30
0.0
 11
6.2432545891
 21
4.253986576
 31
0.0
  0
LINE
  5
285
330
1F
100
AcDbEntity
  8
0
  6
Continuous
 62
     7
370
    25
100
AcDbLine
 10
5.9282939076
 20
4.253986576
 30
0.0
 11
6.2432545891
 21
4.253986576
 31
0.0
  0
LINE
  5
286
330
1F
100
AcDbEntity
  8
0
  6
Continuous
 62
     7
370
    25
100
AcDbLine
 10
2.3093451006
 20
4.0764776666
 30
0.0
 11
2.3062466564
 21
4.253986576
 31
0.0
  0
LINE
  5
287
330
1F
100
AcDbEntity
  8
0
  6
Continuous
 62
     7
370
    25
100
AcDbLine
 10
2.3062466564
 20
4.253986576
 30
0.0
 11
2.621207338
 21
4.253986576
 31
0.0
  0
LINE
  5
288
330
1F
100
AcDbEntity
  8
0
  6
Continuous
 62
     7
370
    25
100
AcDbLine
 10
2.6211105391
 20
4.0571362234
 30
0.0
 11
5.9283907065
 21
4.0571362234
 31
0.0
  0
ARC
  5
289
330
1F
100
AcDbEntity
  8
0
  6
Continuous
 62
     7
370
    25
100
AcDbCircle
 10
6.2204740807
 20
4.0768212869
 30
0.0
 40
0.0196850634958363
100
AcDbArc
 50
270.0001888132
 51
358.9998004925
  0
LINE
  5
28A
330
1F
100
AcDbEntity
  8
0
  6
Continuous
 62
     7
370
    25
100
AcDbLine
 10
5.9283907065
 20
4.0571362234
 30
0.0
 11
6.2204741456
 21
4.0571362234
 31
0.0
  0
ARC
  5
28B
330
1F
100
AcDbEntity
  8
0
  6
Continuous
 62
     7
370
    25
100
AcDbCircle
 10
2.3290271648
 20
4.0768212869
 30
0.0
 40
0.0196850634958341
100
AcDbArc
 50
181.0001995075
 51
269.9998111868
  0
LINE
  5
28C
330
1F
100
AcDbEntity
  8
0
  6
Continuous
 62
     7
370
    25
100
AcDbLine
 10
2.3290270999
 20
4.0571362234
 30
0.0
 11
2.6211105391
 21
4.0571362234
 31
0.0
  0
LINE
  5
28D
330
1F
100
AcDbEntity
  8
0
  6
Continuous
 62
     7
370
    25
100
AcDbLine
 10
2.345616815
 20
4.0571362234
 30
0.0
 11
2.3785224215
 21
2.1660025766
 31
0.0
  0
LINE
  5
28E
330
1F
100
AcDbEntity
  8
0
  6
Continuous
 62
     7
370
    25
100
AcDbLine
 10
6.2038844306
 20
4.0571362234
 30
0.0
 11
6.1709788241
 21
2.1660025766
 31
0.0
  0
LINE
  5
28F
330
1F
100
AcDbEntity
  8
0
  6
Continuous
 62
     7
370
    25
100
AcDbLine
 10
2.457250712
 20
2.0886322937
 30
0.0
 11
2.621207338
 21
2.0886322937
 31
0.0
  0
ARC
  5
290
330
1F
100
AcDbEntity
  8
0
  6
Continuous
 62
     7
370
    25
100
AcDbCircle
 10
2.4572507305
 20
2.1673724508
 30
0.0
 40
0.0787401574803148
100
AcDbArc
 50
180.9968459699
 51
270.0
  0
ARC
  5
291
330
1F
100
AcDbEntity
  8
0
  6
Continuous
 62
     7
370
    25
100
AcDbCircle
 10
6.092250515
 20
2.1673724508
 30
0.0
 40
0.0787401574803158
100
AcDbArc
 50
269.9999999998
 51
359.00315403
  0
LINE
  5
292
330
1F
100
AcDbEntity
  8
0
  6
Continuous
 62
     7
370
    25
100
AcDbLine
 10
5.9282939076
 20
2.0886322937
 30
0.0
 11
6.0922505335
 21
2.0886322937
 31
0.0
  0
LINE
  5
293
330
1F
100
AcDbEntity
  8
0
  6
Continuous
 62
     7
370
    25
100
AcDbLine
 10
2.621207338
 20
2.0886322937
 30
0.0
 11
5.9282939076
 21
2.0886322937
 31
0.0
  0
LINE
  5
294
330
1F
100
AcDbEntity
  8
0
  6
Continuous
 62
     7
370
    25
100
AcDbLine
 10
2.6605773498
 20
2.0492622177
 30
0.0
 11
2.8377427699
 21
2.0492622177
 31
0.0
  0
LINE
  5
295
330
1F
100
AcDbEntity
  8
0
  6
Continuous
 62
     7
370
    25
100
AcDbLine
 10
2.4834120765
 20
2.0492622177
 30
0.0
 11
2.6605773498
 21
2.0492622177
 31
0.0
  0
LINE
  5
296
330
1F
100
AcDbEntity
  8
0
  6
Continuous
 62
     7
370
    25
100
AcDbLine
 10
5.8889238957
 20
2.0492622177
 30
0.0
 11
6.0660891691
 21
2.0492622177
 31
0.0
  0
LINE
  5
297
330
1F
100
AcDbEntity
  8
0
  6
Continuous
 62
     7
370
    25
100
AcDbLine
 10
5.7117584757
 20
2.0492622177
 30
0.0
 11
5.8889238957
 21
2.0492622177
 31
0.0
  0
LINE
  5
298
330
1F
100
AcDbEntity
  8
0
  6
Continuous
 62
     7
370
    25
100
AcDbLine
 10
4.4517506231
 20
2.0486322916
 30
0.0
 11
4.0977525291
 21
2.0486322916
 31
0.0
  0
LINE
  5
299
330
1F
100
AcDbEntity
  8
0
  6
Continuous
 62
     7
370
    25
100
AcDbLine
 10
5.7079228933
 20
2.0486322916
 30
0.0
 11
5.5122507004
 21
2.0486322916
 31
0.0
  0
LINE
  5
29A
330
1F
100
AcDbEntity
  8
0
  6
Continuous
 62
     7
370
    25
100
AcDbLine
 10
3.0372506918
 20
2.0486322916
 30
0.0
 11
2.8412602359
 21
2.0486322916
 31
0.0
  0
LINE
  5
29B
330
1F
100
AcDbEntity
  8
0
  6
Continuous
 62
     7
370
    25
100
AcDbLine
 10
5.8889238957
 20
2.0492622177
 30
0.0
 11
5.9221185789
 21
2.0492622177
 31
0.0
  0
LINE
  5
29C
330
1F
100
AcDbEntity
  8
0
  6
Continuous
 62
     7
370
    25
100
AcDbLine
 10
2.6605773498
 20
2.0492622177
 30
0.0
 11
2.6937721797
 21
2.0492622177
 31
0.0
  0
LINE
  5
29D
330
1F
100
AcDbEntity
  8
0
  6
CENTERX2
 62
     7
370
    18
100
AcDbLine
 10
4.2747506228
 20
5.0413881988
 30
0.0
 11
4.2747506228
 21
2.0492622145
 31
0.0
  0
DIMENSION
  5
29E
330
1F
100
AcDbEntity
  8
0
  6
Continuous
 62
     7
370
    18
100
AcDbDimension
  2
_D_6
 10
7.2133957693
 20
5.0413881988
 30
0.0
 11
7.2133957693
 21
4.6476874114
 31
0.0
 70
   160
  1
<>
 71
     2
 42
-1.0
  3
SLDDIMSTYLE1
100
AcDbAlignedDimension
 13
6.2432545598
 23
4.253986624
 33
0.0
 14
6.1356078938
 24
5.0413881988
 34
0.0
 50
90.0
100
AcDbRotatedDimension
  0
DIMENSION
  5
2B2
330
1F
100
AcDbEntity
  8
0
  6
Continuous
 62
     7
370
    18
100
AcDbDimension
  2
_D_7
 10
1.8066597663
 20
2.0886322933
 30
0.0
 11
1.8066597663
 21
3.565010246
 31
0.0
 70
   160
  1
<>
 71
     2
 42
-1.0
  3
SLDDIMSTYLE0
100
AcDbAlignedDimension
 13
2.6212073157
 23
5.0413881988
 33
0.0
 14
2.6212073157
 24
2.0886322933
 34
0.0
 50
90.0
100
AcDbRotatedDimension
  0
DIMENSION
  5
2C6
330
1F
100
AcDbEntity
  8
0
  6
Continuous
 62
     7
370
    18
100
AcDbDimension
  2
_D_8
 10
7.2133957693
 20
2.0886322933
 30
0.0
 11
7.2133957693
 21
3.1713094586
 31
0.0
 70
   160
  1
<>
 71
     2
 42
-1.0
  3
SLDDIMSTYLE0
100
AcDbAlignedDimension
 13
6.2432545598
 23
4.253986624
 33
0.0
 14
5.9282939299
 24
2.0886322933
 34
0.0
 50
90.0
100
AcDbRotatedDimension
  0
DIMENSION
  5
2DA
330
1F
100
AcDbEntity
  8
0
  6
Continuous
 62
     7
370
    18
100
AcDbDimension
  2
_D_9
 10
6.6217297144
 20
2.0492622145
 30
0.0
 11
6.6217297144
 21
1.6573793592
 31
0.0
 70
   160
  1
<> PAD
 71
     2
 42
-1.0
  3
SLDDIMSTYLE1
100
AcDbAlignedDimension
 13
6.092250515
 23
2.0886322933
 33
0.0
 14
6.0660892055
 24
2.0492622145
 34
0.0
 50
90.0
100
AcDbRotatedDimension
  0
ARC
  5
2EE
330
1F
100
AcDbEntity
  8
0
  6
Continuous
 62
     7
370
    25
100
AcDbCircle
 10
16.9047436336
 20
5.8092341064
 30
0.0
 40
0.1100790870953247
100
AcDbArc
 50
114.5637206051
 51
176.7271776333
  0
ARC
  5
2EF
330
1F
100
AcDbEntity
  8
0
  6
Continuous
 62
     7
370
    25
100
AcDbCircle
 10
20.4022401983
 20
5.807191136
 30
0.0
 40
0.1130246139920002
100
AcDbArc
 50
3.122804613
 51
64.6048987437
  0
LINE
  5
2F0
330
1F
100
AcDbEntity
  8
0
  6
Continuous
 62
     7
370
    25
100
AcDbLine
 10
16.7943039891
 20
5.8145072896
 30
0.0
 11
16.7877113585
 21
5.5039655026
 31
0.0
  0
LINE
  5
2F1
330
1F
100
AcDbEntity
  8
0
  6
Continuous
 62
     7
370
    25
100
AcDbLine
 10
20.5220445858
 20
5.5039654598
 30
0.0
 11
20.5154519553
 21
5.8145072468
 31
0.0
  0
LINE
  5
2F2
330
1F
100
AcDbEntity
  8
0
  6
Continuous
 62
     7
370
    25
100
AcDbLine
 10
20.4510077083
 20
5.9095437284
 30
0.0
 11
18.7806767516
 21
6.8738052648
 31
0.0
  0
LINE
  5
2F3
330
1F
100
AcDbEntity
  8
0
  6
Continuous
 62
     7
370
    25
100
AcDbLine
 10
18.5290791927
 20
6.873805222
 30
0.0
 11
16.8587482361
 21
5.9095436856
 31
0.0
  0
ARC
  5
2F4
330
1F
100
AcDbEntity
  8
0
  6
Continuous
 62
     7
370
    25
100
AcDbCircle
 10
20.4624118208
 20
5.4938400722
 30
0.0
 40
0.0810504106812875
100
AcDbArc
 50
359.7338350552
 51
43.6349138476
  0
ARC
  5
2F5
330
1F
100
AcDbEntity
  8
0
  6
Continuous
 62
     7
370
    25
100
AcDbCircle
 10
16.850076064
 20
5.4934320155
 30
0.0
 40
0.0832247088115903
100
AcDbArc
 50
137.5364841495
 51
176.2286530121
  0
LINE
  5
2F6
330
1F
100
AcDbEntity
  8
0
  6
Continuous
 62
     7
370
    25
100
AcDbLine
 10
20.5500287273
 20
5.3925355829
 30
0.0
 11
20.5434147626
 21
5.496322067
 31
0.0
  0
LINE
  5
2F7
330
1F
100
AcDbEntity
  8
0
  6
Continuous
 62
     7
370
    25
100
AcDbLine
 10
16.7663411077
 20
5.496322067
 30
0.0
 11
16.7597272171
 21
5.3925355401
 31
0.0
  0
ARC
  5
2F8
330
1F
100
AcDbEntity
  8
0
  6
Continuous
 62
     7
370
    25
100
AcDbCircle
 10
18.659205819
 20
6.6520226213
 30
0.0
 40
0.2525081635543076
100
AcDbArc
 50
61.3220979762
 51
90.9820736867
  0
ARC
  5
2F9
330
1F
100
AcDbEntity
  8
0
  6
Continuous
 62
     7
370
    25
100
AcDbCircle
 10
18.6473965159
 20
6.664200607
 30
0.0
 40
0.2404095232572245
100
AcDbArc
 50
88.2166972588
 51
119.4183924318
  0
ARC
  5
2FA
330
1F
100
AcDbEntity
  8
0
  6
Continuous
 62
     7
370
    25
100
AcDbCircle
 10
18.6548779313
 20
2.182357566
 30
0.0
 40
0.3336266746020576
100
AcDbArc
 50
242.4028934389
 51
297.5971224144
  0
LINE
  5
2FB
330
1F
100
AcDbEntity
  8
0
  6
Continuous
 62
     7
370
    25
100
AcDbLine
 10
16.8298252428
 20
2.8510441383
 30
0.0
 11
18.5007257774
 21
1.8864537915
 31
0.0
  0
LINE
  5
2FC
330
1F
100
AcDbEntity
  8
0
  6
Continuous
 62
     7
370
    25
100
AcDbLine
 10
18.8090300928
 20
1.8864537915
 30
0.0
 11
20.4802628629
 21
2.8512359337
 31
0.0
  0
ARC
  5
2FD
330
1F
100
AcDbEntity
  8
0
  6
Continuous
 62
     7
370
    25
100
AcDbCircle
 10
18.6486128649
 20
0.9569622948
 30
0.0
 40
0.2104956340979357
100
AcDbArc
 50
240.2713284529
 51
271.7055904738
  0
ARC
  5
2FE
330
1F
100
AcDbEntity
  8
0
  6
Continuous
 62
     7
370
    25
100
AcDbCircle
 10
18.6590580797
 20
0.9674683132
 30
0.0
 40
0.220947939177995
100
AcDbArc
 50
268.9159677871
 51
298.8622190588
  0
LINE
  5
2FF
330
1F
100
AcDbEntity
  8
0
  6
Continuous
 62
     7
370
    25
100
AcDbLine
 10
16.8736171932
 20
1.7381569504
 30
0.0
 11
18.5439481499
 21
0.773895414
 31
0.0
  0
LINE
  5
300
330
1F
100
AcDbEntity
  8
0
  6
Continuous
 62
     7
370
    25
100
AcDbLine
 10
18.7658077204
 20
0.773895414
 30
0.0
 11
20.4361386771
 21
1.7381569504
 31
0.0
  0
LINE
  5
301
330
1F
100
AcDbEntity
  8
0
  6
Continuous
 62
     7
370
    25
100
AcDbLine
 10
20.2306093807
 20
2.8794861114
 30
0.0
 11
20.2306093807
 21
2.925410799
 31
0.0
  0
LINE
  5
302
330
1F
100
AcDbEntity
  8
0
  6
Continuous
 62
     7
370
    25
100
AcDbLine
 10
17.0791465637
 20
2.9254107563
 30
0.0
 11
17.0791465637
 21
2.8794860687
 31
0.0
  0
LINE
  5
303
330
1F
100
AcDbEntity
  8
0
  6
Continuous
 62
     7
370
    25
100
AcDbLine
 10
20.0323457784
 20
3.0976003255
 30
0.0
 11
20.0323457784
 21
2.8137409991
 31
0.0
  0
LINE
  5
304
330
1F
100
AcDbEntity
  8
0
  6
Continuous
 62
     7
370
    25
100
AcDbLine
 10
17.2774100919
 20
2.8137409991
 30
0.0
 11
17.2774100919
 21
3.0976003255
 31
0.0
  0
LINE
  5
305
330
1F
100
AcDbEntity
  8
0
  6
Continuous
 62
     7
370
    25
100
AcDbLine
 10
20.5479307186
 20
2.9464395701
 30
0.0
 11
20.5501145825
 21
3.0499529861
 31
0.0
  0
LINE
  5
306
330
1F
100
AcDbEntity
  8
0
  6
Continuous
 62
     7
370
    25
100
AcDbLine
 10
16.7596413618
 20
3.0502161114
 30
0.0
 11
16.7618251517
 21
2.9467000013
 31
0.0
  0
ARC
  5
307
330
1F
100
AcDbEntity
  8
0
  6
Continuous
 62
     7
370
    25
100
AcDbCircle
 10
20.4289482187
 20
2.9592761486
 30
0.0
 40
0.1196422662983763
100
AcDbArc
 50
295.1842520491
 51
354.0320646708
  0
ARC
  5
308
330
1F
100
AcDbEntity
  8
0
  6
Continuous
 62
     7
370
    25
100
AcDbCircle
 10
16.878177367
 20
2.9571241244
 30
0.0
 40
0.116584737084516
100
AcDbArc
 50
198.1327823167
 51
245.5355021047
  0
LINE
  5
309
330
1F
100
AcDbEntity
  8
0
  6
Continuous
 62
     7
370
    25
100
AcDbLine
 10
16.7618141142
 20
2.9468358621
 30
0.0
 11
16.7629193431
 21
2.9416759127
 31
0.0
  0
LINE
  5
30A
330
1F
100
AcDbEntity
  8
0
  6
Continuous
 62
     7
370
    25
100
AcDbLine
 10
20.4985421028
 20
1.8326416765
 30
0.0
 11
20.5209689878
 21
2.8850041684
 31
0.0
  0
LINE
  5
30B
330
1F
100
AcDbEntity
  8
0
  6
Continuous
 62
     7
370
    25
100
AcDbLine
 10
16.788801846
 20
2.8843005905
 30
0.0
 11
16.8112137675
 21
1.8326416765
 31
0.0
  0
LINE
  5
30C
330
1F
100
AcDbEntity
  8
0
  6
Continuous
 62
     7
370
    25
100
AcDbLine
 10
20.2306093066
 20
3.2238652071
 30
0.0
 11
20.2306093066
 21
3.2697898947
 31
0.0
  0
LINE
  5
30D
330
1F
100
AcDbEntity
  8
0
  6
Continuous
 62
     7
370
    25
100
AcDbLine
 10
17.0791465637
 20
3.2697898947
 30
0.0
 11
17.0791465637
 21
3.2238652071
 31
0.0
  0
ARC
  5
30E
330
1F
100
AcDbEntity
  8
0
  6
Continuous
 62
     7
370
    25
100
AcDbCircle
 10
20.3860985011
 20
1.8388974786
 30
0.0
 40
0.1123778810436863
100
AcDbArc
 50
296.3864102662
 51
356.6432267281
  0
ARC
  5
30F
330
1F
100
AcDbEntity
  8
0
  6
Continuous
 62
     7
370
    25
100
AcDbCircle
 10
16.9224276614
 20
1.8384077082
 30
0.0
 40
0.1111307238148432
100
AcDbArc
 50
183.6302463056
 51
244.1074363548
  0
ARC
  5
310
330
1F
100
AcDbEntity
  8
0
  6
Continuous
 62
     7
370
    25
100
AcDbCircle
 10
19.2512658658
 20
2.2274165006
 30
0.0
 40
0.2185383432533519
100
AcDbArc
 50
62.4528341714
 51
118.1040853185
  0
ARC
  5
311
330
1F
100
AcDbEntity
  8
0
  6
Continuous
 62
     7
370
    25
100
AcDbCircle
 10
19.1784762211
 20
2.3495090899
 30
0.0
 40
0.0768439132745423
100
AcDbArc
 50
113.1077312844
 51
179.1065663575
  0
LINE
  5
312
330
1F
100
AcDbEntity
  8
0
  6
Continuous
 62
     7
370
    25
100
AcDbLine
 10
19.1014247387
 20
2.3524164434
 30
0.0
 11
19.1014247387
 21
2.2763317462
 31
0.0
  0
LINE
  5
313
330
1F
100
AcDbEntity
  8
0
  6
Continuous
 62
     7
370
    25
100
AcDbLine
 10
18.0728981062
 20
2.3545155845
 30
0.0
 11
18.0728981062
 21
2.4206260709
 31
0.0
  0
LINE
  5
314
330
1F
100
AcDbEntity
  8
0
  6
Continuous
 62
     7
370
    25
100
AcDbLine
 10
18.5198906079
 20
2.521184435
 30
0.0
 11
18.5198906079
 21
2.6786693495
 31
0.0
  0
LINE
  5
315
330
1F
100
AcDbEntity
  8
0
  6
Continuous
 62
     7
370
    25
100
AcDbLine
 10
18.2948906171
 20
2.6786693495
 30
0.0
 11
18.2948906171
 21
2.521184435
 31
0.0
  0
ARC
  5
316
330
1F
100
AcDbEntity
  8
0
  6
Continuous
 62
     7
370
    25
100
AcDbCircle
 10
18.6548779351
 20
5.0294556685
 30
0.0
 40
0.2911637341758334
100
AcDbArc
 50
242.4805315801
 51
297.5194684199
  0
ARC
  5
317
330
1F
100
AcDbEntity
  8
0
  6
Continuous
 62
     7
370
    25
100
AcDbCircle
 10
18.5852323339
 20
4.7675796358
 30
0.0
 40
0.0649895323550177
100
AcDbArc
 50
122.651559499
 51
176.7748077008
  0
ARC
  5
318
330
1F
100
AcDbEntity
  8
0
  6
Continuous
 62
     7
370
    25
100
AcDbCircle
 10
18.6548780134
 20
5.0240369611
 30
0.0
 40
0.2272936135837735
100
AcDbArc
 50
242.5690688559
 51
297.4309077442
  0
ARC
  5
319
330
1F
100
AcDbEntity
  8
0
  6
Continuous
 62
     7
370
    25
100
AcDbCircle
 10
18.7245236303
 20
4.7675796957
 30
0.0
 40
0.064989435206533
100
AcDbArc
 50
3.2251442337
 51
57.3484064034
  0
LINE
  5
31A
330
1F
100
AcDbEntity
  8
0
  6
Continuous
 62
     7
370
    25
100
AcDbLine
 10
18.5156837011
 20
4.4579562013
 30
0.0
 11
18.5203457369
 21
4.7712359795
 31
0.0
  0
LINE
  5
31B
330
1F
100
AcDbEntity
  8
0
  6
Continuous
 62
     7
370
    25
100
AcDbLine
 10
18.7940721692
 20
4.4579562013
 30
0.0
 11
18.7894101333
 21
4.7712359795
 31
0.0
  0
ARC
  5
31C
330
1F
100
AcDbEntity
  8
0
  6
Continuous
 62
     7
370
    25
100
AcDbCircle
 10
18.6548779351
 20
4.7251239028
 30
0.0
 40
0.3012534074810745
100
AcDbArc
 50
242.4805096053
 51
297.5194903947
  0
ARC
  5
31D
330
1F
100
AcDbEntity
  8
0
  6
Continuous
 62
     7
370
    25
100
AcDbCircle
 10
16.9029813961
 20
5.8470076663
 30
0.0
 40
0.0647265419285633
100
AcDbArc
 50
110.9505998757
 51
249.049470339
  0
LINE
  5
31E
330
1F
100
AcDbEntity
  8
0
  6
Continuous
 62
     7
370
    25
100
AcDbLine
 10
16.8798375869
 20
5.9074550759
 30
0.0
 11
18.5501685435
 21
6.8717166123
 31
0.0
  0
ARC
  5
31F
330
1F
100
AcDbEntity
  8
0
  6
Continuous
 62
     7
370
    25
100
AcDbCircle
 10
18.6548779351
 20
6.6699779801
 30
0.0
 40
0.2272939339842568
100
AcDbArc
 50
62.5691119569
 51
117.4308880431
  0
LINE
  5
320
330
1F
100
AcDbEntity
  8
0
  6
Continuous
 62
     7
370
    25
100
AcDbLine
 10
18.7595873268
 20
6.8717166123
 30
0.0
 11
20.4299182834
 21
5.9074550759
 31
0.0
  0
ARC
  5
321
330
1F
100
AcDbEntity
  8
0
  6
Continuous
 62
     7
370
    25
100
AcDbCircle
 10
20.4067744399
 20
5.8470076308
 30
0.0
 40
0.0647265873690565
100
AcDbArc
 50
290.9506168918
 51
69.0493831082
  0
LINE
  5
322
330
1F
100
AcDbEntity
  8
0
  6
Continuous
 62
     7
370
    25
100
AcDbLine
 10
20.4299182834
 20
5.7865601857
 30
0.0
 11
18.7595873268
 21
4.8222986493
 31
0.0
  0
LINE
  5
323
330
1F
100
AcDbEntity
  8
0
  6
Continuous
 62
     7
370
    25
100
AcDbLine
 10
18.5501686176
 20
4.822298692
 30
0.0
 11
16.8798376609
 21
5.7865602284
 31
0.0
  0
LWPOLYLINE
  5
324
330
1F
100
AcDbEntity
  8
0
  6
Continuous
 62
     7
370
    25
100
AcDbPolyline
 90
       37
 70
   128
 43
0.0
 10
18.5361696207
 20
6.7197817466
 10
18.5585865054
 20
6.708922921
 10
18.5839292092
 20
6.7004762698
 10
18.6114277019
 20
6.6946984181
 10
18.6402463207
 20
6.691764911
 10
18.6695095496
 20
6.691764911
 10
18.6983281684
 20
6.6946984181
 10
18.7258266611
 20
6.7004762698
 10
18.7511693649
 20
6.708922921
 10
18.7735863237
 20
6.7197817038
 10
18.7923963253
 20
6.7327227387
 10
18.8070279397
 20
6.7473527702
 10
18.817036557
 20
6.7632273121
 10
18.8221180908
 20
6.7798639466
 10
18.8221180908
 20
6.7967572491
 10
18.817036557
 20
6.8133938836
 10
18.8070279397
 20
6.8292684255
 10
18.7923963253
 20
6.843898457
 10
18.7735862496
 20
6.8568394491
 10
18.7511693649
 20
6.8676982747
 10
18.7258266611
 20
6.8761449259
 10
18.6983282425
 20
6.8819227349
 10
18.6695096237
 20
6.8848562419
 10
18.6402463947
 20
6.8848562419
 10
18.6114277019
 20
6.8819227776
 10
18.5839292833
 20
6.8761448831
 10
18.5585865794
 20
6.8676982319
 10
18.5361696207
 20
6.8568394491
 10
18.5173596191
 20
6.8438984143
 10
18.5027280046
 20
6.8292683827
 10
18.4927193133
 20
6.8133938836
 10
18.4876378535
 20
6.7967572063
 10
18.4876378535
 20
6.7798639038
 10
18.4927193874
 20
6.7632272693
 10
18.5027279305
 20
6.7473527702
 10
18.517359545
 20
6.7327227387
 10
18.5361696207
 20
6.7197817466
  0
LWPOLYLINE
  5
325
330
1F
100
AcDbEntity
  8
0
  6
Continuous
 62
     7
370
    25
100
AcDbPolyline
 90
       37
 70
   128
 43
0.0
 10
20.1667308597
 20
5.7784787795
 10
20.1891477444
 20
5.767619954
 10
20.2144904482
 20
5.7591733027
 10
20.2419888668
 20
5.7533954938
 10
20.2708074856
 20
5.7504619867
 10
20.3000707145
 20
5.7504619867
 10
20.3288894074
 20
5.753395451
 10
20.356387826
 20
5.7591733455
 10
20.3817305298
 20
5.7676199967
 10
20.4041474886
 20
5.7784787795
 10
20.4229574902
 20
5.7914198144
 10
20.4375891047
 20
5.8060498459
 10
20.447597796
 20
5.821924345
 10
20.4526792558
 20
5.8385610223
 10
20.4526792558
 20
5.8554543248
 10
20.4475977219
 20
5.8720909593
 10
20.4375891787
 20
5.8879654584
 10
20.4229575643
 20
5.90259549
 10
20.4041474886
 20
5.915536482
 10
20.3817306039
 20
5.9263953076
 10
20.3563879001
 20
5.9348419588
 10
20.3288894074
 20
5.9406198106
 10
20.3000707886
 20
5.9435533176
 10
20.2708075597
 20
5.9435533176
 10
20.2419889409
 20
5.9406198106
 10
20.2144904482
 20
5.9348419588
 10
20.1891477444
 20
5.9263953076
 10
20.1667307856
 20
5.9155365248
 10
20.147920784
 20
5.90259549
 10
20.1332891695
 20
5.8879654584
 10
20.1232805523
 20
5.8720909165
 10
20.1181990185
 20
5.855454282
 10
20.1181990185
 20
5.8385609795
 10
20.1232805523
 20
5.821924345
 10
20.1332891695
 20
5.8060498031
 10
20.147920784
 20
5.7914197716
 10
20.1667308597
 20
5.7784787795
  0
LWPOLYLINE
  5
326
330
1F
100
AcDbEntity
  8
0
  6
Continuous
 62
     7
370
    25
100
AcDbPolyline
 90
       37
 70
   128
 43
0.0
 10
16.9056083817
 20
5.7784787795
 10
16.9280253404
 20
5.7676199967
 10
16.9533680443
 20
5.7591733455
 10
16.9808665369
 20
5.7533954938
 10
17.0096851557
 20
5.7504619867
 10
17.0389483847
 20
5.7504619867
 10
17.0677670035
 20
5.7533954938
 10
17.0952654961
 20
5.7591733455
 10
17.1206082
 20
5.7676199967
 10
17.1430251587
 20
5.7784787795
 10
17.1618351603
 20
5.7914198144
 10
17.1764667748
 20
5.8060498459
 10
17.186475318
 20
5.821924345
 10
17.1915568518
 20
5.8385609795
 10
17.1915568518
 20
5.855454282
 10
17.186475392
 20
5.8720909593
 10
17.1764667007
 20
5.8879654584
 10
17.1618350863
 20
5.90259549
 10
17.1430250847
 20
5.9155365248
 10
17.1206081259
 20
5.9263953076
 10
17.0952654221
 20
5.9348419588
 10
17.0677670776
 20
5.9406198106
 10
17.0389483847
 20
5.9435532749
 10
17.0096851557
 20
5.9435532749
 10
16.9808664629
 20
5.9406198106
 10
16.9533681184
 20
5.9348419588
 10
16.9280254145
 20
5.9263953076
 10
16.9056084558
 20
5.9155365248
 10
16.8867984542
 20
5.90259549
 10
16.8721668397
 20
5.8879654584
 10
16.8621581484
 20
5.8720909593
 10
16.8570766886
 20
5.855454282
 10
16.8570766886
 20
5.8385609795
 10
16.8621582225
 20
5.821924345
 10
16.8721667656
 20
5.8060498459
 10
16.8867983801
 20
5.7914198144
 10
16.9056083817
 20
5.7784787795
  0
LWPOLYLINE
  5
327
330
1F
100
AcDbEntity
  8
0
  6
Continuous
 62
     7
370
    25
100
AcDbPolyline
 90
       37
 70
   128
 43
0.0
 10
18.5361696207
 20
4.8371758124
 10
18.5585865794
 20
4.8263170297
 10
18.5839292833
 20
4.8178703784
 10
18.6114277019
 20
4.8120925694
 10
18.6402463207
 20
4.8091590624
 10
18.6695095496
 20
4.8091590624
 10
18.6983282425
 20
4.8120925267
 10
18.7258266611
 20
4.8178704212
 10
18.7511693649
 20
4.8263170724
 10
18.7735863237
 20
4.8371758552
 10
18.7923963253
 20
4.85011689
 10
18.8070279397
 20
4.8647469216
 10
18.817036557
 20
4.8806213779
 10
18.8221180168
 20
4.8972580552
 10
18.8221180168
 20
4.9141513577
 10
18.817036557
 20
4.930788035
 10
18.8070279397
 20
4.9466624914
 10
18.7923963253
 20
4.9612925229
 10
18.7735863237
 20
4.9742335577
 10
18.7511693649
 20
4.9850923405
 10
18.7258266611
 20
4.9935389917
 10
18.6983282425
 20
4.9993168862
 10
18.6695095496
 20
5.0022503505
 10
18.6402463207
 20
5.0022503505
 10
18.6114277019
 20
4.9993168435
 10
18.5839292833
 20
4.9935390345
 10
18.5585865794
 20
4.9850923833
 10
18.5361696207
 20
4.9742336005
 10
18.5173596191
 20
4.9612925656
 10
18.5027280046
 20
4.9466625341
 10
18.4927193874
 20
4.9307879922
 10
18.4876378535
 20
4.9141513577
 10
18.4876378535
 20
4.8972580552
 10
18.4927193874
 20
4.8806214207
 10
18.5027280046
 20
4.8647468788
 10
18.5173596191
 20
4.8501168473
 10
18.5361696207
 20
4.8371758124
  0
LINE
  5
328
330
1F
100
AcDbEntity
  8
0
  6
Continuous
 62
     7
370
    25
100
AcDbLine
 10
16.8500147803
 20
5.7354975159
 30
0.0
 11
18.5203457369
 21
4.7712359795
 31
0.0
  0
ARC
  5
329
330
1F
100
AcDbEntity
  8
0
  6
Continuous
 62
     7
370
    25
100
AcDbCircle
 10
16.9149013772
 20
5.7318411722
 30
0.0
 40
0.0649895323550192
100
AcDbArc
 50
122.651559499
 51
176.7748077008
  0
LINE
  5
32A
330
1F
100
AcDbEntity
  8
0
  6
Continuous
 62
     7
370
    25
100
AcDbLine
 10
18.7894101333
 20
4.7712359795
 30
0.0
 11
20.45974109
 21
5.7354975159
 31
0.0
  0
ARC
  5
32B
330
1F
100
AcDbEntity
  8
0
  6
Continuous
 62
     7
370
    25
100
AcDbCircle
 10
20.394854587
 20
5.7318412321
 30
0.0
 40
0.0649894352065187
100
AcDbArc
 50
3.2251442337
 51
57.3484064034
  0
LINE
  5
32C
330
1F
100
AcDbEntity
  8
0
  6
Continuous
 62
     7
370
    25
100
AcDbLine
 10
16.8453527444
 20
5.4222177377
 30
0.0
 11
16.8500147803
 21
5.7354975159
 31
0.0
  0
LINE
  5
32D
330
1F
100
AcDbEntity
  8
0
  6
Continuous
 62
     7
370
    25
100
AcDbLine
 10
16.8453527444
 20
5.4222177377
 30
0.0
 11
18.5156837011
 21
4.4579562013
 31
0.0
  0
LINE
  5
32E
330
1F
100
AcDbEntity
  8
0
  6
Continuous
 62
     7
370
    25
100
AcDbLine
 10
20.4644031258
 20
5.4222177377
 30
0.0
 11
20.45974109
 21
5.7354975159
 31
0.0
  0
LINE
  5
32F
330
1F
100
AcDbEntity
  8
0
  6
Continuous
 62
     7
370
    25
100
AcDbLine
 10
18.7940721692
 20
4.4579562013
 30
0.0
 11
20.4644031258
 21
5.4222177377
 31
0.0
  0
ARC
  5
330
330
1F
100
AcDbEntity
  8
0
  6
Continuous
 62
     7
370
    25
100
AcDbCircle
 10
18.6548779351
 20
4.7335192879
 30
0.0
 40
0.3331626144714521
100
AcDbArc
 50
242.3910174084
 51
297.6089825916
  0
ARC
  5
331
330
1F
100
AcDbEntity
  8
0
  6
Continuous
 62
     7
370
    25
100
AcDbCircle
 10
18.5221760346
 20
4.43660374
 30
0.0
 40
0.0217630096138628
100
AcDbArc
 50
122.7346217303
 51
175.546628611
  0
ARC
  5
332
330
1F
100
AcDbEntity
  8
0
  6
Continuous
 62
     7
370
    25
100
AcDbCircle
 10
18.6548779351
 20
4.7332544273
 30
0.0
 40
0.3136032845014238
100
AcDbArc
 50
242.569116008
 51
297.430883992
  0
ARC
  5
333
330
1F
100
AcDbEntity
  8
0
  6
Continuous
 62
     7
370
    25
100
AcDbCircle
 10
18.7875798357
 20
4.43660374
 30
0.0
 40
0.0217630096138776
100
AcDbArc
 50
4.453371389
 51
57.2653782697
  0
LINE
  5
334
330
1F
100
AcDbEntity
  8
0
  6
Continuous
 62
     7
370
    25
100
AcDbLine
 10
18.5004787307
 20
4.4382935889
 30
0.0
 11
18.4957988423
 21
4.3316649838
 31
0.0
  0
LINE
  5
335
330
1F
100
AcDbEntity
  8
0
  6
Continuous
 62
     7
370
    25
100
AcDbLine
 10
18.8139571021
 20
4.331664941
 30
0.0
 11
18.8092771396
 21
4.4382935889
 31
0.0
  0
ARC
  5
336
330
1F
100
AcDbEntity
  8
0
  6
Continuous
 62
     7
370
    25
100
AcDbCircle
 10
18.6548780131
 20
4.6358395363
 30
0.0
 40
0.3432613304059173
100
AcDbArc
 50
242.3910422244
 51
297.6089423733
  0
LINE
  5
337
330
1F
100
AcDbEntity
  8
0
  6
Continuous
 62
     7
370
    25
100
AcDbLine
 10
20.4696791118
 20
5.4191719758
 30
0.0
 11
18.7993481552
 21
4.4549104394
 31
0.0
  0
LINE
  5
338
330
1F
100
AcDbEntity
  8
0
  6
Continuous
 62
     7
370
    25
100
AcDbLine
 10
18.5104077151
 20
4.4549104394
 30
0.0
 11
16.8400767584
 21
5.4191719758
 31
0.0
  0
ARC
  5
339
330
1F
100
AcDbEntity
  8
0
  6
Continuous
 62
     7
370
    25
100
AcDbCircle
 10
20.4263875372
 20
5.5102188201
 30
0.0
 40
0.0958612303139277
100
AcDbArc
 50
293.3638622389
 51
356.2597418335
  0
ARC
  5
33A
330
1F
100
AcDbEntity
  8
0
  6
Continuous
 62
     7
370
    25
100
AcDbCircle
 10
16.8857383928
 20
5.5118898893
 30
0.0
 40
0.098346811608547
100
AcDbArc
 50
184.621671465
 51
245.7546268749
  0
LINE
  5
33B
330
1F
100
AcDbEntity
  8
0
  6
Continuous
 62
     7
370
    25
100
AcDbLine
 10
18.8092771396
 20
4.4382935889
 30
0.0
 11
20.4796080963
 21
5.4025551253
 31
0.0
  0
ARC
  5
33C
330
1F
100
AcDbEntity
  8
0
  6
Continuous
 62
     7
370
    25
100
AcDbCircle
 10
20.4579107923
 20
5.4008652764
 30
0.0
 40
0.0217630096138553
100
AcDbArc
 50
4.453371389
 51
57.2653782697
  0
LINE
  5
33D
330
1F
100
AcDbEntity
  8
0
  6
Continuous
 62
     7
370
    25
100
AcDbLine
 10
16.830147774
 20
5.4025551253
 30
0.0
 11
18.5004787307
 21
4.4382935889
 31
0.0
  0
ARC
  5
33E
330
1F
100
AcDbEntity
  8
0
  6
Continuous
 62
     7
370
    25
100
AcDbCircle
 10
16.8518450779
 20
5.4008652764
 30
0.0
 40
0.021763009613885
100
AcDbArc
 50
122.7346217304
 51
175.546628611
  0
LINE
  5
33F
330
1F
100
AcDbEntity
  8
0
  6
Continuous
 62
     7
370
    25
100
AcDbLine
 10
20.4796080963
 20
5.4025551253
 30
0.0
 11
20.4842880588
 21
5.2959264774
 31
0.0
  0
LINE
  5
340
330
1F
100
AcDbEntity
  8
0
  6
Continuous
 62
     7
370
    25
100
AcDbLine
 10
20.4842880588
 20
5.2959264774
 30
0.0
 11
18.8139571021
 21
4.331664941
 31
0.0
  0
LINE
  5
341
330
1F
100
AcDbEntity
  8
0
  6
Continuous
 62
     7
370
    25
100
AcDbLine
 10
16.8254678856
 20
5.2959265202
 30
0.0
 11
16.830147774
 21
5.4025551253
 31
0.0
  0
LINE
  5
342
330
1F
100
AcDbEntity
  8
0
  6
Continuous
 62
     7
370
    25
100
AcDbLine
 10
18.4957988423
 20
4.3316649838
 30
0.0
 11
16.8254678856
 21
5.2959265202
 31
0.0
  0
LINE
  5
343
330
1F
100
AcDbEntity
  8
0
  6
Continuous
 62
     7
370
    25
100
AcDbLine
 10
20.5435315079
 20
5.4938078157
 30
0.0
 11
20.5434147626
 21
5.496322067
 31
0.0
  0
LINE
  5
344
330
1F
100
AcDbEntity
  8
0
  6
Continuous
 62
     7
370
    25
100
AcDbLine
 10
16.7665259298
 20
5.4986405032
 30
0.0
 11
16.7663411077
 21
5.496322067
 31
0.0
  0
ARC
  5
345
330
1F
100
AcDbEntity
  8
0
  6
Continuous
 62
     7
370
    25
100
AcDbCircle
 10
20.4413453772
 20
5.3958203531
 30
0.0
 40
0.1087329771072971
100
AcDbArc
 50
293.2620483084
 51
358.268859042
  0
ARC
  5
346
330
1F
100
AcDbEntity
  8
0
  6
Continuous
 62
     7
370
    25
100
AcDbCircle
 10
16.8684104679
 20
5.3958203313
 30
0.0
 40
0.1087328785015478
100
AcDbArc
 50
181.7311535339
 51
246.7379862999
  0
ARC
  5
347
330
1F
100
AcDbEntity
  8
0
  6
Continuous
 62
     7
370
    25
100
AcDbCircle
 10
18.6548780138
 20
2.3049723175
 30
0.0
 40
0.3478936289432039
100
AcDbArc
 50
242.7893124151
 51
297.2106721826
  0
LINE
  5
348
330
1F
100
AcDbEntity
  8
0
  6
Continuous
 62
     7
370
    25
100
AcDbLine
 10
16.8254678856
 20
2.9598412323
 30
0.0
 11
18.4957988423
 21
1.9955796959
 31
0.0
  0
ARC
  5
349
330
1F
100
AcDbEntity
  8
0
  6
Continuous
 62
     7
370
    25
100
AcDbCircle
 10
16.8595289264
 20
3.051675673
 30
0.0
 40
0.0979475318527788
100
AcDbArc
 50
110.3496697426
 51
249.6503764743
  0
LINE
  5
34A
330
1F
100
AcDbEntity
  8
0
  6
Continuous
 62
     7
370
    25
100
AcDbLine
 10
18.4957987682
 20
4.1077716226
 30
0.0
 11
18.2978345111
 21
3.9934892896
 31
0.0
  0
LINE
  5
34B
330
1F
100
AcDbEntity
  8
0
  6
Continuous
 62
     7
370
    25
100
AcDbLine
 10
17.1029846156
 20
3.3037171271
 30
0.0
 11
16.8254678115
 21
3.1435100862
 31
0.0
  0
ARC
  5
34C
330
1F
100
AcDbEntity
  8
0
  6
Continuous
 62
     7
370
    25
100
AcDbCircle
 10
18.683456283
 20
3.8791441591
 30
0.0
 40
0.2632507946085733
100
AcDbArc
 50
60.2822257506
 51
81.0062803354
  0
ARC
  5
34D
330
1F
100
AcDbEntity
  8
0
  6
Continuous
 62
     7
370
    25
100
AcDbCircle
 10
18.6251244409
 20
3.8819128397
 30
0.0
 40
0.2602639418794944
100
AcDbArc
 50
98.8358849521
 51
119.7952486123
  0
LINE
  5
34E
330
1F
100
AcDbEntity
  8
0
  6
Continuous
 62
     7
370
    25
100
AcDbLine
 10
20.4842880588
 20
3.1435100862
 30
0.0
 11
20.2067712917
 21
3.3037171057
 31
0.0
  0
LINE
  5
34F
330
1F
100
AcDbEntity
  8
0
  6
Continuous
 62
     7
370
    25
100
AcDbLine
 10
19.0119213592
 20
3.9934892896
 30
0.0
 11
18.8139571021
 21
4.1077716226
 31
0.0
  0
ARC
  5
350
330
1F
100
AcDbEntity
  8
0
  6
Continuous
 62
     7
370
    25
100
AcDbCircle
 10
20.4502269395
 20
3.0516756379
 30
0.0
 40
0.0979475663066294
100
AcDbArc
 50
290.349665006
 51
69.650334994
  0
LINE
  5
351
330
1F
100
AcDbEntity
  8
0
  6
Continuous
 62
     7
370
    25
100
AcDbLine
 10
18.8139571021
 20
1.9955796532
 30
0.0
 11
20.4842880588
 21
2.9598411896
 31
0.0
  0
LWPOLYLINE
  5
352
330
1F
100
AcDbEntity
  8
0
  6
Continuous
 62
     7
370
    25
100
AcDbPolyline
 90
       31
 70
   128
 43
0.0
 10
18.5789651615
 20
2.0279525744
 10
18.5550301428
 20
2.0369485259
 10
18.5342102841
 20
2.0482352027
 10
18.5171549443
 20
2.0614604026
 10
18.5043963668
 20
2.0762115838
 10
18.4963324189
 20
2.0920285657
 10
18.4932148884
 20
2.108417812
 10
18.4951408163
 20
2.1248680393
 10
18.5020503482
 20
2.1408660829
 10
18.513727698
 20
2.1559127616
 10
18.5298087771
 20
2.1695386577
 10
18.5497916398
 20
2.1813186997
 10
18.5730530763
 20
2.1908854189
 10
18.5988672062
 20
2.1979402814
 10
18.6264288124
 20
2.2022631397
 10
18.6548780092
 20
2.2037192878
 10
18.683327132
 20
2.2022631824
 10
18.7108887382
 20
2.1979402387
 10
18.7367028681
 20
2.1908853761
 10
18.7599643046
 20
2.1813187425
 10
18.7799472414
 20
2.1695386577
 10
18.7960281723
 20
2.1559127616
 10
18.8077055961
 20
2.1408660401
 10
18.814615054
 20
2.1248680393
 10
18.8165409818
 20
2.108417812
 10
18.8134234514
 20
2.0920285657
 10
18.8053595776
 20
2.0762116265
 10
18.7926009259
 20
2.0614604026
 10
18.7755456603
 20
2.0482351599
 10
18.7547257275
 20
2.0369485259
 10
18.730790857
 20
2.0279525744
  0
LINE
  5
353
330
1F
100
AcDbEntity
  8
0
  6
Continuous
 62
     7
370
    25
100
AcDbLine
 10
18.5492600632
 20
1.9957012305
 30
0.0
 11
18.5789651615
 21
2.0279525744
 31
0.0
  0
ARC
  5
354
330
1F
100
AcDbEntity
  8
0
  6
Continuous
 62
     7
370
    25
100
AcDbCircle
 10
18.6548780444
 20
2.352424884
 30
0.0
 40
0.3720308090663973
100
AcDbArc
 50
253.5071439308
 51
286.4928328707
  0
LINE
  5
355
330
1F
100
AcDbEntity
  8
0
  6
Continuous
 62
     7
370
    25
100
AcDbLine
 10
18.730790857
 20
2.0279525744
 30
0.0
 11
18.7604958811
 21
1.9957011877
 31
0.0
  0
LWPOLYLINE
  5
356
330
1F
100
AcDbEntity
  8
0
  6
Continuous
 62
     7
370
    25
100
AcDbPolyline
 90
       13
 70
   128
 43
0.0
 10
18.7101821177
 20
4.0806957176
 10
18.7365143421
 20
4.073555071
 10
18.7602039437
 20
4.0638060928
 10
18.7804840033
 20
4.0517643367
 10
18.7966980506
 20
4.0378196369
 10
18.8083213241
 20
4.0224234074
 10
18.8149773646
 20
4.0060740169
 10
18.8164509042
 20
3.9893007095
 10
18.8126941634
 20
3.9726464563
 10
18.8038287764
 20
3.9566503371
 10
18.7901416437
 20
3.9418302635
 10
18.7720758937
 20
3.9286658737
 10
18.7695572017
 20
3.9271701263
  0
LWPOLYLINE
  5
357
330
1F
100
AcDbEntity
  8
0
  6
Continuous
 62
     7
370
    25
100
AcDbPolyline
 90
       13
 70
   128
 43
0.0
 10
18.5401986686
 20
3.9271701263
 10
18.5376799766
 20
3.9286658737
 10
18.5196142266
 20
3.9418302635
 10
18.5059271679
 20
3.9566503799
 10
18.4970617069
 20
3.9726464563
 10
18.4933049661
 20
3.9893007095
 10
18.4947785057
 20
4.0060740169
 10
18.5014345462
 20
4.0224234074
 10
18.5130578197
 20
4.0378196369
 10
18.529271867
 20
4.0517643367
 10
18.5495520007
 20
4.06380605
 10
18.5732416022
 20
4.0735550282
 10
18.5995738266
 20
4.0806956749
  0
LINE
  5
358
330
1F
100
AcDbEntity
  8
0
  6
Continuous
 62
     7
370
    25
100
AcDbLine
 10
18.7101821177
 20
4.0806957176
 30
0.0
 11
18.7246092797
 21
4.1035783813
 31
0.0
  0
LINE
  5
359
330
1F
100
AcDbEntity
  8
0
  6
Continuous
 62
     7
370
    25
100
AcDbLine
 10
18.5851466647
 20
4.1035784241
 30
0.0
 11
18.5995738266
 21
4.0806956749
 31
0.0
  0
LINE
  5
35A
330
1F
100
AcDbEntity
  8
0
  6
Continuous
 62
     7
370
    25
100
AcDbLine
 10
17.1833959001
 20
3.1435101076
 30
0.0
 11
17.1038563167
 21
3.1894273318
 31
0.0
  0
ARC
  5
35B
330
1F
100
AcDbEntity
  8
0
  6
Continuous
 62
     7
370
    25
100
AcDbCircle
 10
17.1259372368
 20
3.0288365273
 30
0.0
 40
0.128263510060998
100
AcDbArc
 50
20.9215070738
 51
63.3862551198
  0
ARC
  5
35C
330
1F
100
AcDbEntity
  8
0
  6
Continuous
 62
     7
370
    25
100
AcDbCircle
 10
17.1213674703
 20
2.8836964603
 30
0.0
 40
0.0424303235119454
100
AcDbArc
 50
185.6948738213
 51
245.6252062526
  0
LINE
  5
35D
330
1F
100
AcDbEntity
  8
0
  6
Continuous
 62
     7
370
    25
100
AcDbLine
 10
18.2969498465
 20
2.1562899164
 30
0.0
 11
17.1038563167
 21
2.8450481505
 31
0.0
  0
ARC
  5
35E
330
1F
100
AcDbEntity
  8
0
  6
Continuous
 62
     7
370
    25
100
AcDbCircle
 10
18.356604532
 20
2.2714231657
 30
0.0
 40
0.1296701453482918
100
AcDbArc
 50
242.6096983272
 51
297.3903222092
  0
LINE
  5
35F
330
1F
100
AcDbEntity
  8
0
  6
Continuous
 62
     7
370
    25
100
AcDbLine
 10
18.4957988423
 20
2.2022071619
 30
0.0
 11
18.4162592588
 21
2.1562899378
 31
0.0
  0
ARC
  5
360
330
1F
100
AcDbEntity
  8
0
  6
Continuous
 62
     7
370
    25
100
AcDbCircle
 10
18.6548779703
 20
1.8980327702
 30
0.0
 40
0.3432611680830574
100
AcDbArc
 50
62.3910284166
 51
117.6089638822
  0
LINE
  5
361
330
1F
100
AcDbEntity
  8
0
  6
Continuous
 62
     7
370
    25
100
AcDbLine
 10
18.8934967226
 20
2.1562899164
 30
0.0
 11
18.8139571391
 21
2.2022071405
 31
0.0
  0
ARC
  5
362
330
1F
100
AcDbEntity
  8
0
  6
Continuous
 62
     7
370
    25
100
AcDbCircle
 10
18.9531513732
 20
2.2714228634
 30
0.0
 40
0.1296698609279938
100
AcDbArc
 50
242.6096505911
 51
297.3903494089
  0
LINE
  5
363
330
1F
100
AcDbEntity
  8
0
  6
Continuous
 62
     7
370
    25
100
AcDbLine
 10
20.2058995907
 20
2.8450481719
 30
0.0
 11
19.0128060237
 21
2.1562899164
 31
0.0
  0
ARC
  5
364
330
1F
100
AcDbEntity
  8
0
  6
Continuous
 62
     7
370
    25
100
AcDbCircle
 10
20.1883883497
 20
2.8836965872
 30
0.0
 40
0.0424304556180694
100
AcDbArc
 50
294.3748423988
 51
354.3050298683
  0
ARC
  5
365
330
1F
100
AcDbEntity
  8
0
  6
Continuous
 62
     7
370
    25
100
AcDbCircle
 10
20.1838185065
 20
3.0288366762
 30
0.0
 40
0.128263284329224
100
AcDbArc
 50
116.6137134384
 51
159.0785051364
  0
LINE
  5
366
330
1F
100
AcDbEntity
  8
0
  6
Continuous
 62
     7
370
    25
100
AcDbLine
 10
20.2058995907
 20
3.1894273104
 30
0.0
 11
20.1263600072
 21
3.1435100862
 31
0.0
  0
ARC
  5
367
330
1F
100
AcDbEntity
  8
0
  6
Continuous
 62
     7
370
    25
100
AcDbCircle
 10
20.1883885869
 20
3.2280754698
 30
0.0
 40
0.0424301246543682
100
AcDbArc
 50
294.374693127
 51
354.3052744581
  0
ARC
  5
368
330
1F
100
AcDbEntity
  8
0
  6
Continuous
 62
     7
370
    25
100
AcDbCircle
 10
17.1213672248
 20
3.2280754706
 30
0.0
 40
0.0424300664849244
100
AcDbArc
 50
185.6947344954
 51
245.6254129785
  0
LWPOLYLINE
  5
369
330
1F
100
AcDbEntity
  8
0
  6
Continuous
 62
     7
370
    25
100
AcDbPolyline
 90
       36
 70
   128
 43
0.0
 10
16.9099786282
 20
3.1176816851
 10
16.9322319509
 20
3.1284067456
 10
16.9574449459
 20
3.1366656213
 10
16.984807285
 20
3.1421928775
 10
17.0134395261
 20
3.1448107882
 10
17.0424212625
 20
3.1444353225
 10
17.070821124
 20
3.1410784117
 10
17.097726334
 20
3.1348480768
 10
17.1222721175
 20
3.1259444522
 10
17.1436694805
 20
3.1146538412
 10
17.1612308402
 20
3.1013390513
 10
17.1743915818
 20
3.0864279764
 10
17.1827288738
 20
3.0703999982
 10
17.1859745574
 20
3.0537701631
 10
17.1840244805
 20
3.0370730179
 10
17.1769413121
 20
3.0208452475
 10
17.1649526908
 20
3.0056083558
 10
17.148443743
 20
2.9918521158
 10
17.1279453784
 20
2.9800186618
 10
17.104116364
 20
2.9704882918
 10
17.0777223593
 20
2.9635673653
 10
17.0496119907
 20
2.9594783392
 10
17.020688553
 20
2.9583525838
 10
16.9918817865
 20
2.9602263198
 10
16.9641174315
 20
2.9650392933
 10
16.9382879677
 20
2.9726368705
 10
16.9152235019
 20
2.9827747849
 10
16.8956654708
 20
2.9951272196
 10
16.8802422695
 20
3.0092971988
 10
16.8694498436
 20
3.0248292459
 10
16.8636349474
 20
3.0412241797
 10
16.8629845514
 20
3.05795498
 10
16.867519397
 20
3.074484021
 10
16.877093849
 20
3.0902799203
 10
16.8914001913
 20
3.1048350726
 10
16.9099786282
 20
3.1176816851
  0
LWPOLYLINE
  5
36A
330
1F
100
AcDbEntity
  8
0
  6
Continuous
 62
     7
370
    25
100
AcDbPolyline
 90
       36
 70
   128
 43
0.0
 10
20.1711010322
 20
3.1176816423
 10
20.1933543548
 20
3.1284067029
 10
20.2185673499
 20
3.1366655785
 10
20.245929689
 20
3.1421928347
 10
20.274561856
 20
3.1448107882
 10
20.3035436664
 20
3.1444352798
 10
20.331943602
 20
3.1410784117
 10
20.3588487379
 20
3.134848034
 10
20.3833945214
 20
3.125944495
 10
20.4047919585
 20
3.1146538412
 10
20.4223532441
 20
3.1013390085
 10
20.4355139857
 20
3.0864280192
 10
20.4438512037
 20
3.0703999982
 10
20.4470970355
 20
3.0537701631
 10
20.4451469585
 20
3.0370730179
 10
20.438063716
 20
3.0208452048
 10
20.4260750206
 20
3.0056083558
 10
20.409566221
 20
2.9918521158
 10
20.3890677824
 20
2.980018619
 10
20.3652386938
 20
2.9704882918
 10
20.3388448374
 20
2.9635673653
 10
20.3107343946
 20
2.9594782965
 10
20.2818109569
 20
2.958352541
 10
20.2530041163
 20
2.9602263198
 10
20.2252397613
 20
2.9650392933
 10
20.1994103716
 20
2.9726368277
 10
20.1763459058
 20
2.9827747421
 10
20.1567878006
 20
2.9951272196
 10
20.1413647475
 20
3.0092971988
 10
20.1305722475
 20
3.0248292031
 10
20.1247573513
 20
3.041224137
 10
20.1241068812
 20
3.05795498
 10
20.1286418009
 20
3.0744839782
 10
20.138216327
 20
3.0902799203
 10
20.1525226693
 20
3.1048350726
 10
20.1711010322
 20
3.1176816423
  0
ARC
  5
36B
330
1F
100
AcDbEntity
  8
0
  6
Continuous
 62
     7
370
    25
100
AcDbCircle
 10
18.6548779308
 20
2.1974473121
 30
0.0
 40
0.3428262034115074
100
AcDbArc
 50
242.6570659834
 51
297.3429495767
  0
LINE
  5
36C
330
1F
100
AcDbEntity
  8
0
  6
Continuous
 62
     7
370
    25
100
AcDbLine
 10
18.4974126097
 20
1.8929239495
 30
0.0
 11
18.4957988423
 21
1.9955796959
 31
0.0
  0
LINE
  5
36D
330
1F
100
AcDbEntity
  8
0
  6
Continuous
 62
     7
370
    25
100
AcDbLine
 10
18.8123433347
 20
1.8929239922
 30
0.0
 11
18.8139571021
 21
1.9955796532
 31
0.0
  0
LINE
  5
36E
330
1F
100
AcDbEntity
  8
0
  6
Continuous
 62
     7
370
    25
100
AcDbLine
 10
17.1038563167
 20
3.3042278129
 30
0.0
 11
18.2969498836
 21
3.9929860684
 31
0.0
  0
ARC
  5
36F
330
1F
100
AcDbEntity
  8
0
  6
Continuous
 62
     7
370
    25
100
AcDbCircle
 10
18.3566045341
 20
3.877853141
 30
0.0
 40
0.129669843503428
100
AcDbArc
 50
62.6096466019
 51
117.3903533981
  0
LINE
  5
370
330
1F
100
AcDbEntity
  8
0
  6
Continuous
 62
     7
370
    25
100
AcDbLine
 10
18.4162591847
 20
3.9929860684
 30
0.0
 11
18.4957987682
 21
3.9470688443
 31
0.0
  0
ARC
  5
371
330
1F
100
AcDbEntity
  8
0
  6
Continuous
 62
     7
370
    25
100
AcDbCircle
 10
18.6548779351
 20
4.2512434627
 30
0.0
 40
0.3432613871058188
100
AcDbArc
 50
242.3910478984
 51
297.6089521016
  0
LINE
  5
372
330
1F
100
AcDbEntity
  8
0
  6
Continuous
 62
     7
370
    25
100
AcDbLine
 10
18.8139571021
 20
3.9470688443
 30
0.0
 11
18.8934966856
 21
3.9929860684
 31
0.0
  0
ARC
  5
373
330
1F
100
AcDbEntity
  8
0
  6
Continuous
 62
     7
370
    25
100
AcDbCircle
 10
18.953151334
 20
3.8778530199
 30
0.0
 40
0.1296699500393801
100
AcDbArc
 50
62.6096515083
 51
117.3903279553
  0
LINE
  5
374
330
1F
100
AcDbEntity
  8
0
  6
Continuous
 62
     7
370
    25
100
AcDbLine
 10
19.0128060237
 20
3.992986047
 30
0.0
 11
20.2058995536
 21
3.3042278129
 31
0.0
  0
ARC
  5
375
330
1F
100
AcDbEntity
  8
0
  6
Continuous
 62
     7
370
    25
100
AcDbCircle
 10
20.1928292481
 20
3.2697898984
 30
0.0
 40
0.036834804734355
100
AcDbArc
 50
290.7834398295
 51
69.216621793
  0
LINE
  5
376
330
1F
100
AcDbEntity
  8
0
  6
Continuous
 62
     7
370
    25
100
AcDbLine
 10
20.2058995907
 20
3.235351998
 30
0.0
 11
20.1263600072
 21
3.1894347738
 31
0.0
  0
LWPOLYLINE
  5
377
330
1F
100
AcDbEntity
  8
0
  6
Continuous
 62
     7
370
    25
100
AcDbPolyline
 90
       11
 70
   128
 43
0.0
 10
20.1263600072
 20
3.0057658772
 10
20.1034330283
 20
3.0212626014
 10
20.0849877818
 20
3.0386390059
 10
20.0714782117
 20
3.0574671966
 10
20.0632369975
 20
3.0772836573
 10
20.0604672586
 20
3.0976003683
 10
20.0632370716
 20
3.1179170365
 10
20.0714782117
 20
3.1377334544
 10
20.0849877078
 20
3.1565616879
 10
20.1034331024
 20
3.1739380924
 10
20.1263600072
 20
3.1894347738
  0
LINE
  5
378
330
1F
100
AcDbEntity
  8
0
  6
Continuous
 62
     7
370
    25
100
AcDbLine
 10
20.1263600072
 20
3.0057658772
 30
0.0
 11
20.2058995907
 21
2.959848653
 31
0.0
  0
ARC
  5
379
330
1F
100
AcDbEntity
  8
0
  6
Continuous
 62
     7
370
    25
100
AcDbCircle
 10
20.1928292906
 20
2.9254107563
 30
0.0
 40
0.0368347862294957
100
AcDbArc
 50
290.7833800433
 51
69.2166199567
  0
LINE
  5
37A
330
1F
100
AcDbEntity
  8
0
  6
Continuous
 62
     7
370
    25
100
AcDbLine
 10
20.2058995907
 20
2.8909728595
 30
0.0
 11
19.0128060237
 21
2.202214604
 31
0.0
  0
ARC
  5
37B
330
1F
100
AcDbEntity
  8
0
  6
Continuous
 62
     7
370
    25
100
AcDbCircle
 10
18.9531513732
 20
2.317347551
 30
0.0
 40
0.1296698609279946
100
AcDbArc
 50
242.6096505911
 51
297.3903494089
  0
LINE
  5
37C
330
1F
100
AcDbEntity
  8
0
  6
Continuous
 62
     7
370
    25
100
AcDbLine
 10
18.8934967226
 20
2.202214604
 30
0.0
 11
18.8139571391
 21
2.2481318281
 31
0.0
  0
ARC
  5
37D
330
1F
100
AcDbEntity
  8
0
  6
Continuous
 62
     7
370
    25
100
AcDbCircle
 10
18.6548779703
 20
1.9439574579
 30
0.0
 40
0.343261168083061
100
AcDbArc
 50
62.3910284166
 51
117.6089638822
  0
LINE
  5
37E
330
1F
100
AcDbEntity
  8
0
  6
Continuous
 62
     7
370
    25
100
AcDbLine
 10
18.4957988423
 20
2.2481318495
 30
0.0
 11
18.4162592588
 21
2.2022146254
 31
0.0
  0
ARC
  5
37F
330
1F
100
AcDbEntity
  8
0
  6
Continuous
 62
     7
370
    25
100
AcDbCircle
 10
18.356604532
 20
2.3173478533
 30
0.0
 40
0.1296701453482887
100
AcDbArc
 50
242.6096983272
 51
297.3903222092
  0
LINE
  5
380
330
1F
100
AcDbEntity
  8
0
  6
Continuous
 62
     7
370
    25
100
AcDbLine
 10
18.2969498465
 20
2.202214604
 30
0.0
 11
17.1038563167
 21
2.8909728382
 31
0.0
  0
ARC
  5
381
330
1F
100
AcDbEntity
  8
0
  6
Continuous
 62
     7
370
    25
100
AcDbCircle
 10
17.1169266924
 20
2.9254107599
 30
0.0
 40
0.0368348364840489
100
AcDbArc
 50
110.7834145993
 51
249.2165237782
  0
LINE
  5
382
330
1F
100
AcDbEntity
  8
0
  6
Continuous
 62
     7
370
    25
100
AcDbLine
 10
17.1038563537
 20
2.9598486958
 30
0.0
 11
17.1833959372
 21
3.0057659199
 31
0.0
  0
LWPOLYLINE
  5
383
330
1F
100
AcDbEntity
  8
0
  6
Continuous
 62
     7
370
    25
100
AcDbPolyline
 90
       11
 70
   128
 43
0.0
 10
17.1833959001
 20
3.1894347952
 10
17.206322842
 20
3.1739380496
 10
17.2247681625
 20
3.1565616879
 10
17.2382777327
 20
3.1377334972
 10
17.2465188728
 20
3.1179169937
 10
17.2492886858
 20
3.0976003255
 10
17.2465188728
 20
3.0772836573
 10
17.2382777327
 20
3.0574672394
 10
17.2247682366
 20
3.0386390059
 10
17.206322842
 20
3.0212626014
 10
17.1833959372
 20
3.0057659199
  0
LINE
  5
384
330
1F
100
AcDbEntity
  8
0
  6
Continuous
 62
     7
370
    25
100
AcDbLine
 10
17.1833959001
 20
3.1894347952
 30
0.0
 11
17.1038563167
 21
3.2353520194
 31
0.0
  0
ARC
  5
385
330
1F
100
AcDbEntity
  8
0
  6
Continuous
 62
     7
370
    25
100
AcDbCircle
 10
17.1169266205
 20
3.2697899161
 30
0.0
 40
0.0368347875691892
100
AcDbArc
 50
110.7833855339
 51
249.2166144661
  0
ARC
  5
386
330
1F
100
AcDbEntity
  8
0
  6
Continuous
 62
     7
370
    25
100
AcDbCircle
 10
18.3566046125
 20
3.90475165
 30
0.0
 40
0.0864464034629582
100
AcDbArc
 50
62.6096320632
 51
117.390429546
  0
LINE
  5
387
330
1F
100
AcDbEntity
  8
0
  6
Continuous
 62
     7
370
    25
100
AcDbLine
 10
18.3168348165
 20
3.981506741
 30
0.0
 11
17.1237412496
 21
3.2927484854
 31
0.0
  0
ARC
  5
388
330
1F
100
AcDbEntity
  8
0
  6
Continuous
 62
     7
370
    25
100
AcDbCircle
 10
17.132454718
 20
3.2697898807
 30
0.0
 40
0.024556507571352
100
AcDbArc
 50
110.783232537
 51
249.2165825954
  0
LINE
  5
389
330
1F
100
AcDbEntity
  8
0
  6
Continuous
 62
     7
370
    25
100
AcDbLine
 10
17.1237411755
 20
3.246831304
 30
0.0
 11
17.203280759
 21
3.2009140799
 31
0.0
  0
LWPOLYLINE
  5
38A
330
1F
100
AcDbEntity
  8
0
  6
Continuous
 62
     7
370
    25
100
AcDbPolyline
 90
       12
 70
   128
 43
0.0
 10
17.203280759
 20
3.2009140799
 10
17.2269283959
 20
3.1851594261
 10
17.2464514627
 20
3.1676223155
 10
17.2614524991
 20
3.1486597612
 10
17.2716261599
 20
3.1286577486
 10
17.2767652516
 20
3.1080235168
 10
17.2767652516
 20
3.0871771342
 10
17.2716261599
 20
3.0665429025
 10
17.2614525732
 20
3.0465409326
 10
17.2464515368
 20
3.0275783783
 10
17.22692847
 20
3.0100412677
 10
17.203280796
 20
2.9942866353
  0
LINE
  5
38B
330
1F
100
AcDbEntity
  8
0
  6
Continuous
 62
     7
370
    25
100
AcDbLine
 10
17.203280796
 20
2.9942866353
 30
0.0
 11
17.1237412125
 21
2.9483694111
 31
0.0
  0
ARC
  5
38C
330
1F
100
AcDbEntity
  8
0
  6
Continuous
 62
     7
370
    25
100
AcDbCircle
 10
17.1324547936
 20
2.9254107954
 30
0.0
 40
0.0245565578257416
100
AcDbArc
 50
110.783469238
 51
249.2166231957
  0
LINE
  5
38D
330
1F
100
AcDbEntity
  8
0
  6
Continuous
 62
     7
370
    25
100
AcDbLine
 10
17.1237412496
 20
2.9024521656
 30
0.0
 11
18.3168347794
 21
2.2136939314
 31
0.0
  0
ARC
  5
38E
330
1F
100
AcDbEntity
  8
0
  6
Continuous
 62
     7
370
    25
100
AcDbCircle
 10
18.3566046103
 20
2.2904493906
 30
0.0
 40
0.0864467463832886
100
AcDbArc
 50
242.6096621481
 51
297.3903070474
  0
LINE
  5
38F
330
1F
100
AcDbEntity
  8
0
  6
Continuous
 62
     7
370
    25
100
AcDbLine
 10
18.3963744
 20
2.21369391
 30
0.0
 11
18.4759139834
 21
2.2596111342
 31
0.0
  0
ARC
  5
390
330
1F
100
AcDbEntity
  8
0
  6
Continuous
 62
     7
370
    25
100
AcDbCircle
 10
18.6548779702
 20
1.9159502928
 30
0.0
 40
0.3874672663286554
100
AcDbArc
 50
62.4914050075
 51
117.5085881471
  0
LINE
  5
391
330
1F
100
AcDbEntity
  8
0
  6
Continuous
 62
     7
370
    25
100
AcDbLine
 10
18.833841998
 20
2.2596111128
 30
0.0
 11
18.9133815814
 21
2.2136938886
 31
0.0
  0
ARC
  5
392
330
1F
100
AcDbEntity
  8
0
  6
Continuous
 62
     7
370
    25
100
AcDbCircle
 10
18.9531512949
 20
2.2904490687
 30
0.0
 40
0.0864464445396403
100
AcDbArc
 50
242.6096461696
 51
297.3904154396
  0
LINE
  5
393
330
1F
100
AcDbEntity
  8
0
  6
Continuous
 62
     7
370
    25
100
AcDbLine
 10
18.9929210908
 20
2.2136939314
 30
0.0
 11
20.1860146578
 21
2.902452187
 31
0.0
  0
ARC
  5
394
330
1F
100
AcDbEntity
  8
0
  6
Continuous
 62
     7
370
    25
100
AcDbCircle
 10
20.1773012037
 20
2.9254107917
 30
0.0
 40
0.0245565024660155
100
AcDbArc
 50
290.7832011512
 51
69.2166139812
  0
LINE
  5
395
330
1F
100
AcDbEntity
  8
0
  6
Continuous
 62
     7
370
    25
100
AcDbLine
 10
20.1860147318
 20
2.9483693684
 30
0.0
 11
20.1064751484
 21
2.9942865925
 31
0.0
  0
LWPOLYLINE
  5
396
330
1F
100
AcDbEntity
  8
0
  6
Continuous
 62
     7
370
    25
100
AcDbPolyline
 90
       12
 70
   128
 43
0.0
 10
20.1064751484
 20
2.9942865925
 10
20.0828274744
 20
3.0100412249
 10
20.0633044817
 20
3.0275783783
 10
20.0483034452
 20
3.0465409326
 10
20.0381297844
 20
3.0665429452
 10
20.0329906187
 20
3.0871771342
 10
20.0329906187
 20
3.1080235168
 10
20.0381297844
 20
3.1286577913
 10
20.0483033711
 20
3.1486597612
 10
20.0633044076
 20
3.1676223155
 10
20.0828274744
 20
3.1851594261
 10
20.1064751484
 20
3.2009140585
  0
LINE
  5
397
330
1F
100
AcDbEntity
  8
0
  6
Continuous
 62
     7
370
    25
100
AcDbLine
 10
20.1064751484
 20
3.2009140585
 30
0.0
 11
20.1860147318
 21
3.2468312827
 31
0.0
  0
ARC
  5
398
330
1F
100
AcDbEntity
  8
0
  6
Continuous
 62
     7
370
    25
100
AcDbCircle
 10
20.177301122
 20
3.2697898984
 30
0.0
 40
0.0245565680366335
100
AcDbArc
 50
290.7835320103
 51
69.2165604233
  0
LINE
  5
399
330
1F
100
AcDbEntity
  8
0
  6
Continuous
 62
     7
370
    25
100
AcDbLine
 10
20.1860146948
 20
3.2927485282
 30
0.0
 11
18.9929211649
 21
3.9815067624
 31
0.0
  0
ARC
  5
39A
330
1F
100
AcDbEntity
  8
0
  6
Continuous
 62
     7
370
    25
100
AcDbCircle
 10
18.953151334
 20
3.9047512107
 30
0.0
 40
0.0864468285386749
100
AcDbArc
 50
62.6096903613
 51
117.3902788341
  0
LINE
  5
39B
330
1F
100
AcDbEntity
  8
0
  6
Continuous
 62
     7
370
    25
100
AcDbLine
 10
18.9133815444
 20
3.9815067838
 30
0.0
 11
18.8338419609
 21
3.9355895596
 31
0.0
  0
ARC
  5
39C
330
1F
100
AcDbEntity
  8
0
  6
Continuous
 62
     7
370
    25
100
AcDbCircle
 10
18.6548779351
 20
4.2792505089
 30
0.0
 40
0.3874673800475212
100
AcDbArc
 50
242.4914140997
 51
297.5085859003
  0
LINE
  5
39D
330
1F
100
AcDbEntity
  8
0
  6
Continuous
 62
     7
370
    25
100
AcDbLine
 10
18.4759139094
 20
3.9355895596
 30
0.0
 11
18.3963743259
 21
3.9815067838
 31
0.0
  0
ARC
  5
39E
330
1F
100
AcDbEntity
  8
0
  6
Continuous
 62
     7
370
    25
100
AcDbCircle
 10
18.5903329897
 20
2.0145212932
 30
0.0
 40
0.1054649564122995
100
AcDbArc
 50
118.1726192692
 51
144.3904069941
  0
LWPOLYLINE
  5
39F
330
1F
100
AcDbEntity
  8
0
  6
Continuous
 62
     7
370
    25
100
AcDbPolyline
 90
       13
 70
   128
 43
0.0
 10
18.8051662366
 20
2.0759292237
 10
18.8049527467
 20
2.0762380635
 10
18.7917920792
 20
2.0911490955
 10
18.7742307195
 20
2.1044638855
 10
18.7528332824
 20
2.1157545393
 10
18.728287573
 20
2.1246581211
 10
18.701382363
 20
2.1308884559
 10
18.6729825015
 20
2.1342453668
 10
18.6440006911
 20
2.1346208752
 10
18.615368524
 20
2.1320029218
 10
18.5880061849
 20
2.1264756656
 10
18.5627931899
 20
2.1182167899
 10
18.5405398672
 20
2.1074917293
  0
LINE
  5
3A0
330
1F
100
AcDbEntity
  8
0
  6
Continuous
 62
     7
370
    25
100
AcDbLine
 10
18.5789651615
 20
1.9881163803
 30
0.0
 11
18.5789651615
 21
2.0279525744
 31
0.0
  0
LINE
  5
3A1
330
1F
100
AcDbEntity
  8
0
  6
Continuous
 62
     7
370
    25
100
AcDbLine
 10
18.730790857
 20
1.9881163803
 30
0.0
 11
18.730790857
 21
2.0279525744
 31
0.0
  0
ARC
  5
3A2
330
1F
100
AcDbEntity
  8
0
  6
Continuous
 62
     7
370
    25
100
AcDbCircle
 10
18.6548780132
 20
1.0341184855
 30
0.0
 40
0.2652838346830271
100
AcDbArc
 50
242.4805301544
 51
297.5194498562
  0
LINE
  5
3A3
330
1F
100
AcDbEntity
  8
0
  6
Continuous
 62
     7
370
    25
100
AcDbLine
 10
20.4827719989
 20
2.857241934
 30
0.0
 11
18.8123433347
 21
1.8929239922
 31
0.0
  0
LINE
  5
3A4
330
1F
100
AcDbEntity
  8
0
  6
Continuous
 62
     7
370
    25
100
AcDbLine
 10
20.4842880588
 20
2.9598411896
 30
0.0
 11
20.4827719989
 21
2.857241934
 31
0.0
  0
LINE
  5
3A5
330
1F
100
AcDbEntity
  8
0
  6
Continuous
 62
     7
370
    25
100
AcDbLine
 10
18.4974126097
 20
1.8929239495
 30
0.0
 11
16.8269838714
 21
2.857241934
 31
0.0
  0
LINE
  5
3A6
330
1F
100
AcDbEntity
  8
0
  6
Continuous
 62
     7
370
    25
100
AcDbLine
 10
16.8269838714
 20
2.857241934
 30
0.0
 11
16.8254678856
 21
2.9598412323
 31
0.0
  0
LWPOLYLINE
  5
3A7
330
1F
100
AcDbEntity
  8
0
  6
Continuous
 62
     7
370
    25
100
AcDbPolyline
 90
       13
 70
   128
 43
0.0
 10
18.5554534928
 20
2.0988822765
 10
18.5760663804
 20
2.1087073742
 10
18.5995278248
 20
2.1161029782
 10
18.6249896445
 20
2.1208016442
 10
18.6515318031
 20
2.1226336856
 10
18.6781948553
 20
2.1215328186
 10
18.7040152077
 20
2.1175388136
 10
18.728059564
 20
2.1107960836
 10
18.7494590011
 20
2.1015482964
 10
18.767439933
 20
2.0901296507
 10
18.7813527042
 20
2.0769529022
 10
18.7906942581
 20
2.0624943105
 10
18.7915705149
 20
2.060506438
  0
ARC
  5
3A8
330
1F
100
AcDbEntity
  8
0
  6
Continuous
 62
     7
370
    25
100
AcDbCircle
 10
18.5938990607
 20
2.0242624849
 30
0.0
 40
0.0839414974830407
100
AcDbArc
 50
117.2584042706
 51
154.4196878669
  0
LINE
  5
3A9
330
1F
100
AcDbEntity
  8
0
  6
Continuous
 62
     7
370
    25
100
AcDbLine
 10
18.5323036163
 20
0.798850489
 30
0.0
 11
16.8619726596
 21
1.7631120254
 31
0.0
  0
LINE
  5
3AA
330
1F
100
AcDbEntity
  8
0
  6
Continuous
 62
     7
370
    25
100
AcDbLine
 10
20.4477832848
 20
1.7631119827
 30
0.0
 11
18.7774523281
 21
0.7988504463
 31
0.0
  0
LINE
  5
3AB
330
1F
100
AcDbEntity
  8
0
  6
Continuous
 62
     7
370
    25
100
AcDbLine
 10
18.4957988423
 20
2.2022071619
 30
0.0
 11
18.4957988423
 21
2.2481318495
 31
0.0
  0
LINE
  5
3AC
330
1F
100
AcDbEntity
  8
0
  6
Continuous
 62
     7
370
    25
100
AcDbLine
 10
18.8139571391
 20
2.2481318281
 30
0.0
 11
18.8139571391
 21
2.2022071405
 31
0.0
  0
LINE
  5
3AD
330
1F
100
AcDbEntity
  8
0
  6
Continuous
 62
     7
370
    25
100
AcDbLine
 10
18.4162592588
 20
2.1562899378
 30
0.0
 11
18.4162592588
 21
2.2022146254
 31
0.0
  0
LINE
  5
3AE
330
1F
100
AcDbEntity
  8
0
  6
Continuous
 62
     7
370
    25
100
AcDbLine
 10
18.2969498465
 20
2.1562899164
 30
0.0
 11
18.2969498465
 21
2.202214604
 31
0.0
  0
LINE
  5
3AF
330
1F
100
AcDbEntity
  8
0
  6
Continuous
 62
     7
370
    25
100
AcDbLine
 10
19.0128060237
 20
2.1562899164
 30
0.0
 11
19.0128060237
 21
2.202214604
 31
0.0
  0
LINE
  5
3B0
330
1F
100
AcDbEntity
  8
0
  6
Continuous
 62
     7
370
    25
100
AcDbLine
 10
18.8934967226
 20
2.1562899164
 30
0.0
 11
18.8934967226
 21
2.202214604
 31
0.0
  0
LINE
  5
3B1
330
1F
100
AcDbEntity
  8
0
  6
Continuous
 62
     7
370
    25
100
AcDbLine
 10
17.1038563167
 20
2.8450481505
 30
0.0
 11
17.1038563167
 21
2.8909728382
 31
0.0
  0
LINE
  5
3B2
330
1F
100
AcDbEntity
  8
0
  6
Continuous
 62
     7
370
    25
100
AcDbLine
 10
20.2058995907
 20
2.8450481719
 30
0.0
 11
20.2058995907
 21
2.8909728595
 31
0.0
  0
LWPOLYLINE
  5
3B3
330
1F
100
AcDbEntity
  8
0
  6
Continuous
 62
     7
370
    25
100
AcDbPolyline
 90
       17
 70
   128
 43
0.0
 10
18.2948906171
 20
2.521184435
 10
18.2952617058
 20
2.5159136116
 10
18.2998459608
 20
2.5021216638
 10
18.3094588587
 20
2.4892210835
 10
18.3236510114
 20
2.4778150745
 10
18.341758726
 20
2.4684369221
 10
18.3629352284
 20
2.4615252539
 10
18.3861904795
 20
2.4574031501
 10
18.410437029
 20
2.4562633895
 10
18.4345410914
 20
2.4581592771
 10
18.4573756222
 20
2.4630021425
 10
18.4778729496
 20
2.4705655514
 10
18.4950745915
 20
2.4804958479
 10
18.5081761826
 20
2.4923286817
 10
18.5165652174
 20
2.5055107972
 10
18.519849347
 20
2.5194257762
 10
18.5198906079
 20
2.521184435
  0
LINE
  5
3B4
330
1F
100
AcDbEntity
  8
0
  6
Continuous
 62
     7
370
    25
100
AcDbLine
 10
18.3934929529
 20
2.7476836552
 30
0.0
 11
18.3839811701
 21
2.7421926199
 31
0.0
  0
LINE
  5
3B5
330
1F
100
AcDbEntity
  8
0
  6
Continuous
 62
     7
370
    25
100
AcDbLine
 10
18.2973531217
 20
2.692183312
 30
0.0
 11
17.9369886777
 21
2.4841493466
 31
0.0
  0
LINE
  5
3B6
330
1F
100
AcDbEntity
  8
0
  6
Continuous
 62
     7
370
    25
100
AcDbLine
 10
18.3963743259
 20
2.7461329137
 30
0.0
 11
18.3934929529
 21
2.7476836552
 31
0.0
  0
LINE
  5
3B7
330
1F
100
AcDbEntity
  8
0
  6
Continuous
 62
     7
370
    25
100
AcDbLine
 10
18.4009233202
 20
2.7435068352
 30
0.0
 11
18.3963743259
 21
2.7461329137
 31
0.0
  0
ARC
  5
3B8
330
1F
100
AcDbEntity
  8
0
  6
Continuous
 62
     7
370
    25
100
AcDbCircle
 10
18.6535389035
 20
3.0512407942
 30
0.0
 40
0.3946236392393199
100
AcDbArc
 50
250.2006043836
 51
297.1871714729
  0
LINE
  5
3B9
330
1F
100
AcDbEntity
  8
0
  6
Continuous
 62
     7
370
    25
100
AcDbLine
 10
18.9133815444
 20
2.7461329137
 30
0.0
 11
18.8338419609
 21
2.7002156895
 31
0.0
  0
LINE
  5
3BA
330
1F
100
AcDbEntity
  8
0
  6
Continuous
 62
     7
370
    25
100
AcDbLine
 10
18.9162629914
 20
2.747683698
 30
0.0
 11
18.9133815444
 21
2.7461329137
 31
0.0
  0
LINE
  5
3BB
330
1F
100
AcDbEntity
  8
0
  6
Continuous
 62
     7
370
    25
100
AcDbLine
 10
19.4170908677
 20
2.4585619191
 30
0.0
 11
18.9162629914
 21
2.747683698
 31
0.0
  0
ARC
  5
3BC
330
1F
100
AcDbEntity
  8
0
  6
Continuous
 62
     7
370
    25
100
AcDbCircle
 10
16.9597690511
 20
2.9558276196
 30
0.0
 40
0.1054607205028467
100
AcDbArc
 50
118.1721880352
 51
144.3910322719
  0
LWPOLYLINE
  5
3BD
330
1F
100
AcDbEntity
  8
0
  6
Continuous
 62
     7
370
    25
100
AcDbPolyline
 90
       13
 70
   128
 43
0.0
 10
17.1746050717
 20
3.017232148
 10
17.1743915818
 20
3.0175409878
 10
17.1612308402
 20
3.0324520626
 10
17.1436694805
 20
3.0457668525
 10
17.1222721175
 20
3.0570574636
 10
17.097726334
 20
3.0659610881
 10
17.070821124
 20
3.072191423
 10
17.0424212625
 20
3.0755483339
 10
17.0134395261
 20
3.0759237995
 10
16.984807285
 20
3.0733058889
 10
16.9574449459
 20
3.0677786326
 10
16.9322319509
 20
3.059519757
 10
16.9099786282
 20
3.0487946964
  0
ARC
  5
3BE
330
1F
100
AcDbEntity
  8
0
  6
Continuous
 62
     7
370
    25
100
AcDbCircle
 10
20.220894199
 20
2.955824285
 30
0.0
 40
0.1054649179645667
100
AcDbArc
 50
118.1726578451
 51
144.390408509
  0
LWPOLYLINE
  5
3BF
330
1F
100
AcDbEntity
  8
0
  6
Continuous
 62
     7
370
    25
100
AcDbPolyline
 90
       13
 70
   128
 43
0.0
 10
20.4357274756
 20
3.0172321908
 10
20.4355139857
 20
3.0175410305
 10
20.4223532441
 20
3.0324520198
 10
20.4047919585
 20
3.0457668525
 10
20.3833945214
 20
3.0570575063
 10
20.3588487379
 20
3.0659610454
 10
20.331943602
 20
3.072191423
 10
20.3035436664
 20
3.0755482911
 10
20.274561856
 20
3.0759237995
 10
20.245929689
 20
3.0733058461
 10
20.2185673499
 20
3.0677785899
 10
20.1933543548
 20
3.0595197142
 10
20.1711010322
 20
3.0487946536
  0
LINE
  5
3C0
330
1F
100
AcDbEntity
  8
0
  6
Continuous
 62
     7
370
    25
100
AcDbLine
 10
20.1263600072
 20
3.1894347738
 30
0.0
 11
20.1263600072
 21
3.1435100862
 31
0.0
  0
LINE
  5
3C1
330
1F
100
AcDbEntity
  8
0
  6
Continuous
 62
     7
370
    25
100
AcDbLine
 10
17.1833959001
 20
3.1435101076
 30
0.0
 11
17.1833959001
 21
3.1894347952
 31
0.0
  0
LWPOLYLINE
  5
3C2
330
1F
100
AcDbEntity
  8
0
  6
Continuous
 62
     7
370
    25
100
AcDbPolyline
 90
       13
 70
   128
 43
0.0
 10
16.9248923279
 20
3.0401852008
 10
16.9455052155
 20
3.0500102985
 10
16.9689666599
 20
3.0574059025
 10
16.9944284796
 20
3.0621045685
 10
17.0209706382
 20
3.0639366099
 10
17.0476336904
 20
3.0628357429
 10
17.0734540428
 20
3.0588417379
 10
17.0974983991
 20
3.0520990079
 10
17.1188978362
 20
3.0428512207
 10
17.136878768
 20
3.031432575
 10
17.1507914652
 20
3.0182558692
 10
17.1601330932
 20
3.0037972348
 10
17.16100935
 20
3.0018093623
  0
ARC
  5
3C3
330
1F
100
AcDbEntity
  8
0
  6
Continuous
 62
     7
370
    25
100
AcDbCircle
 10
16.9633385485
 20
2.9655645888
 30
0.0
 40
0.0839425257094882
100
AcDbArc
 50
117.2585438332
 51
154.419370648
  0
LWPOLYLINE
  5
3C4
330
1F
100
AcDbEntity
  8
0
  6
Continuous
 62
     7
370
    25
100
AcDbPolyline
 90
       13
 70
   128
 43
0.0
 10
20.1860146578
 20
3.0401852008
 10
20.2066276194
 20
3.0500103413
 10
20.2300889897
 20
3.0574059025
 10
20.2555508835
 20
3.0621046113
 10
20.282092968
 20
3.0639366099
 10
20.3087560203
 20
3.0628357429
 10
20.3345763726
 20
3.0588417379
 10
20.3586207289
 20
3.0520990079
 10
20.380020166
 20
3.0428512207
 10
20.398001172
 20
3.0314326178
 10
20.4119139432
 20
3.0182558692
 10
20.4212554971
 20
3.0037972775
 10
20.4221316798
 20
3.0018093623
  0
ARC
  5
3C5
330
1F
100
AcDbEntity
  8
0
  6
Continuous
 62
     7
370
    25
100
AcDbCircle
 10
20.2244598517
 20
2.9655658781
 30
0.0
 40
0.0839409092969718
100
AcDbArc
 50
117.2583239447
 51
154.4198182102
  0
ARC
  5
3C6
330
1F
100
AcDbEntity
  8
0
  6
Continuous
 62
     7
370
    25
100
AcDbCircle
 10
20.4365264792
 20
2.9590782986
 30
0.0
 40
0.1118449518316184
100
AcDbArc
 50
294.4235575688
 51
353.5201888408
  0
LWPOLYLINE
  5
3C7
330
1F
100
AcDbEntity
  8
0
  6
Continuous
 62
     7
370
    25
100
AcDbPolyline
 90
        3
 70
   128
 43
0.0
 10
16.762053457
 20
2.9467141133
 10
16.7661208768
 20
2.9230489159
 10
16.7661497668
 20
2.9229939218
  0
LINE
  5
3C8
330
1F
100
AcDbEntity
  8
0
  6
Continuous
 62
     7
370
    25
100
AcDbLine
 10
20.2058995907
 20
3.1894273104
 30
0.0
 11
20.2058995907
 21
3.235351998
 31
0.0
  0
LINE
  5
3C9
330
1F
100
AcDbEntity
  8
0
  6
Continuous
 62
     7
370
    25
100
AcDbLine
 10
17.1038563167
 20
3.1894273318
 30
0.0
 11
17.1038563167
 21
3.2353520194
 31
0.0
  0
LINE
  5
3CA
330
1F
100
AcDbEntity
  8
0
  6
Continuous
 62
     7
370
    25
100
AcDbLine
 10
18.9929211649
 20
3.9815067624
 30
0.0
 11
18.9929211649
 21
3.8207703985
 31
0.0
  0
LINE
  5
3CB
330
1F
100
AcDbEntity
  8
0
  6
Continuous
 62
     7
370
    25
100
AcDbLine
 10
20.0876782954
 20
3.1887805593
 30
0.0
 11
18.9929211649
 21
3.8207703985
 31
0.0
  0
LINE
  5
3CC
330
1F
100
AcDbEntity
  8
0
  6
Continuous
 62
     7
370
    25
100
AcDbLine
 10
18.3168348165
 20
3.8207703771
 30
0.0
 11
18.3168348165
 21
3.981506741
 31
0.0
  0
LINE
  5
3CD
330
1F
100
AcDbEntity
  8
0
  6
Continuous
 62
     7
370
    25
100
AcDbLine
 10
18.3168348165
 20
3.8207703771
 30
0.0
 11
17.222077686
 21
3.188780538
 31
0.0
  0
ARC
  5
3CE
330
1F
100
AcDbEntity
  8
0
  6
Continuous
 62
     7
370
    25
100
AcDbCircle
 10
18.3566046125
 20
3.7440152861
 30
0.0
 40
0.0864464034629562
100
AcDbArc
 50
62.6096320632
 51
117.390429546
  0
ARC
  5
3CF
330
1F
100
AcDbEntity
  8
0
  6
Continuous
 62
     7
370
    25
100
AcDbCircle
 10
18.3619474692
 20
3.7581897646
 30
0.0
 40
0.0714251137846331
100
AcDbArc
 50
61.18393723
 51
81.8471702277
  0
LINE
  5
3D0
330
1F
100
AcDbEntity
  8
0
  6
Continuous
 62
     7
370
    25
100
AcDbLine
 10
17.2391327664
 20
3.1748584815
 30
0.0
 11
18.3720765522
 21
3.8288930075
 31
0.0
  0
LINE
  5
3D1
330
1F
100
AcDbEntity
  8
0
  6
Continuous
 62
     7
370
    25
100
AcDbLine
 10
18.9376793922
 20
3.8288929648
 30
0.0
 11
20.0706231409
 21
3.1748584602
 31
0.0
  0
ARC
  5
3D2
330
1F
100
AcDbEntity
  8
0
  6
Continuous
 62
     7
370
    25
100
AcDbCircle
 10
18.9476941588
 20
3.7585310455
 30
0.0
 40
0.0710710576311288
100
AcDbArc
 50
98.1006245655
 51
118.8679815221
  0
ARC
  5
3D3
330
1F
100
AcDbEntity
  8
0
  6
Continuous
 62
     7
370
    25
100
AcDbCircle
 10
18.953151334
 20
3.7440148468
 30
0.0
 40
0.0864468285386647
100
AcDbArc
 50
62.6096903613
 51
117.3902788341
  0
LINE
  5
3D4
330
1F
100
AcDbEntity
  8
0
  6
Continuous
 62
     7
370
    25
100
AcDbLine
 10
18.9376793922
 20
3.8288929648
 30
0.0
 11
18.9162629914
 21
2.747683698
 31
0.0
  0
LINE
  5
3D5
330
1F
100
AcDbEntity
  8
0
  6
Continuous
 62
     7
370
    25
100
AcDbLine
 10
18.3934929529
 20
2.7476836552
 30
0.0
 11
18.3720765522
 21
3.8288930075
 31
0.0
  0
LINE
  5
3D6
330
1F
100
AcDbEntity
  8
0
  6
Continuous
 62
     7
370
    25
100
AcDbLine
 10
18.8338419609
 20
2.7002156895
 30
0.0
 11
18.8338419609
 21
3.9355895596
 31
0.0
  0
LINE
  5
3D7
330
1F
100
AcDbEntity
  8
0
  6
Continuous
 62
     7
370
    25
100
AcDbLine
 10
19.1014453552
 20
2.3509812362
 30
0.0
 11
19.1014247387
 21
2.3524164434
 31
0.0
  0
LWPOLYLINE
  5
3D8
330
1F
100
AcDbEntity
  8
0
  6
Continuous
 62
     7
370
    25
100
AcDbPolyline
 90
        7
 70
   128
 43
0.0
 10
19.2009171096
 20
2.3932387455
 10
19.1891633078
 20
2.3842909487
 10
19.182027077
 20
2.3738442506
 10
19.1800378064
 20
2.3626735104
 10
19.1833429507
 20
2.3516071658
 10
19.191697446
 20
2.3414659913
 10
19.2019286423
 20
2.3343514006
  0
ARC
  5
3D9
330
1F
100
AcDbEntity
  8
0
  6
Continuous
 62
     7
370
    25
100
AcDbCircle
 10
19.2513770402
 20
2.2979994418
 30
0.0
 40
0.1077809332148238
100
AcDbArc
 50
61.4283686006
 51
117.9156516104
  0
LINE
  5
3DA
330
1F
100
AcDbEntity
  8
0
  6
Continuous
 62
     7
370
    25
100
AcDbLine
 10
18.5995738266
 20
4.0806956749
 30
0.0
 11
18.5995738266
 21
4.1266203625
 31
0.0
  0
ARC
  5
3DB
330
1F
100
AcDbEntity
  8
0
  6
Continuous
 62
     7
370
    25
100
AcDbCircle
 10
18.6548780758
 20
3.8587251174
 30
0.0
 40
0.2735441870703309
100
AcDbArc
 50
78.3357713914
 51
101.6642729124
  0
LINE
  5
3DC
330
1F
100
AcDbEntity
  8
0
  6
Continuous
 62
     7
370
    25
100
AcDbLine
 10
18.7101821177
 20
4.1266204052
 30
0.0
 11
18.7101821177
 21
4.0806957176
 31
0.0
  0
ARC
  5
3DD
330
1F
100
AcDbEntity
  8
0
  6
Continuous
 62
     7
370
    25
100
AcDbCircle
 10
18.5903302604
 20
3.8971306114
 30
0.0
 40
0.1054606820505591
100
AcDbArc
 50
118.1722266113
 51
144.391033787
  0
LWPOLYLINE
  5
3DE
330
1F
100
AcDbEntity
  8
0
  6
Continuous
 62
     7
370
    25
100
AcDbPolyline
 90
       13
 70
   128
 43
0.0
 10
18.8051663107
 20
3.9585351151
 10
18.8049528208
 20
3.9588439549
 10
18.7917920051
 20
3.9737549869
 10
18.7742307195
 20
3.9870698196
 10
18.7528333565
 20
3.9983604306
 10
18.7282874989
 20
4.0072640125
 10
18.701382363
 20
4.0134943901
 10
18.6729824274
 20
4.0168512582
 10
18.6440006911
 20
4.0172267238
 10
18.61536845
 20
4.0146088132
 10
18.5880061109
 20
4.009081557
 10
18.5627931158
 20
4.0008226813
 10
18.5405397932
 20
3.9900976207
  0
LINE
  5
3DF
330
1F
100
AcDbEntity
  8
0
  6
Continuous
 62
     7
370
    25
100
AcDbLine
 10
18.9133815444
 20
3.9815067838
 30
0.0
 11
18.9133815444
 21
3.8207704199
 31
0.0
  0
LINE
  5
3E0
330
1F
100
AcDbEntity
  8
0
  6
Continuous
 62
     7
370
    25
100
AcDbLine
 10
18.9133815444
 20
3.8207704199
 30
0.0
 11
18.9133815444
 21
2.7461329137
 31
0.0
  0
LINE
  5
3E1
330
1F
100
AcDbEntity
  8
0
  6
Continuous
 62
     7
370
    25
100
AcDbLine
 10
18.3963743259
 20
2.7461329137
 30
0.0
 11
18.3963743259
 21
3.8207704199
 31
0.0
  0
LINE
  5
3E2
330
1F
100
AcDbEntity
  8
0
  6
Continuous
 62
     7
370
    25
100
AcDbLine
 10
18.3963743259
 20
3.9815067838
 30
0.0
 11
18.3963743259
 21
3.8207704199
 31
0.0
  0
LWPOLYLINE
  5
3E3
330
1F
100
AcDbEntity
  8
0
  6
Continuous
 62
     7
370
    25
100
AcDbPolyline
 90
       17
 70
   128
 43
0.0
 10
17.8798454087
 20
2.4659625394
 10
17.8899157274
 20
2.4712449706
 10
17.9104130409
 20
2.4788083715
 10
17.9332475486
 20
2.4836512662
 10
17.957351685
 20
2.4855471111
 10
17.9815981604
 20
2.4844073933
 10
18.0048534023
 20
2.4802852841
 10
18.0260299788
 20
2.4733735732
 10
18.0441376378
 20
2.4639954742
 10
18.058329772
 20
2.4525894545
 10
18.0679426791
 20
2.4396888795
 10
18.0725269434
 20
2.4258969371
 10
18.0718682137
 20
2.4118585206
 10
18.0659972227
 20
2.3982300907
 10
18.0551885601
 20
2.3856488619
 10
18.0399475789
 20
2.3747031351
 10
18.0399475789
 20
2.3747031351
  0
LINE
  5
3E4
330
1F
100
AcDbEntity
  8
0
  6
Continuous
 62
     7
370
    25
100
AcDbLine
 10
17.9187292765
 20
2.4446809716
 30
0.0
 11
17.9177319409
 21
2.4440911099
 31
0.0
  0
LWPOLYLINE
  5
3E5
330
1F
100
AcDbEntity
  8
0
  6
Continuous
 62
     7
370
    25
100
AcDbPolyline
 90
       13
 70
   128
 43
0.0
 10
18.0010450807
 20
2.3959954581
 10
18.0078118477
 20
2.4004250867
 10
18.0160198152
 20
2.4093903846
 10
18.0192854348
 20
2.4193540849
 10
18.0173187183
 20
2.4294307776
 10
18.0102943207
 20
2.4387251505
 10
17.9988364796
 20
2.4464113021
 10
17.9839631519
 20
2.4518063756
 10
17.9669960194
 20
2.4544309039
 10
17.9494425766
 20
2.4540517553
 10
17.932862626
 20
2.4507025633
 10
17.9187292765
 20
2.4446809716
 10
17.9187292765
 20
2.4446809716
  0
LWPOLYLINE
  5
3E6
330
1F
100
AcDbEntity
  8
0
  6
Continuous
 62
     7
370
    25
100
AcDbPolyline
 90
       13
 70
   128
 43
0.0
 10
18.5554534928
 20
3.9814881252
 10
18.5760664545
 20
3.9913132656
 10
18.5995278248
 20
3.9987088268
 10
18.6249897186
 20
4.0034075356
 10
18.6515318031
 20
4.0052395342
 10
18.6781948553
 20
4.0041386673
 10
18.7040152077
 20
4.0001446622
 10
18.728059564
 20
3.9934019322
 10
18.7494590011
 20
3.984154145
 10
18.767440007
 20
3.9727355421
 10
18.7813527042
 20
3.9595588363
 10
18.7906943322
 20
3.9451002019
 10
18.7915705149
 20
3.9431122866
  0
ARC
  5
3E7
330
1F
100
AcDbEntity
  8
0
  6
Continuous
 62
     7
370
    25
100
AcDbCircle
 10
18.5938993394
 20
3.9068679821
 30
0.0
 40
0.0839419375125698
100
AcDbArc
 50
117.2584635077
 51
154.4195009906
  0
LINE
  5
3E8
330
1F
100
AcDbEntity
  8
0
  6
Continuous
 62
     7
370
    25
100
AcDbLine
 10
18.5995738266
 20
4.1266203625
 30
0.0
 11
18.5851466647
 21
4.1495031117
 31
0.0
  0
ARC
  5
3E9
330
1F
100
AcDbEntity
  8
0
  6
Continuous
 62
     7
370
    25
100
AcDbCircle
 10
18.6548778686
 20
3.8117252643
 30
0.0
 40
0.344900442091532
100
AcDbArc
 50
78.3356265154
 51
101.6643383471
  0
LINE
  5
3EA
330
1F
100
AcDbEntity
  8
0
  6
Continuous
 62
     7
370
    25
100
AcDbLine
 10
18.7246092797
 20
4.1495030689
 30
0.0
 11
18.7101821177
 21
4.1266204052
 31
0.0
  0
LINE
  5
3EB
330
1F
100
AcDbEntity
  8
0
  6
Continuous
 62
     7
370
    25
100
AcDbLine
 10
18.5851466647
 20
4.1035784241
 30
0.0
 11
18.5851466647
 21
4.1495031117
 31
0.0
  0
LINE
  5
3EC
330
1F
100
AcDbEntity
  8
0
  6
Continuous
 62
     7
370
    25
100
AcDbLine
 10
18.7246092797
 20
4.1495030689
 30
0.0
 11
18.7246092797
 21
4.1035783813
 31
0.0
  0
LWPOLYLINE
  5
3ED
330
1F
100
AcDbEntity
  8
0
  6
Continuous
 62
     7
370
    25
100
AcDbPolyline
 90
       30
 70
   128
 43
0.0
 10
18.4869400852
 20
2.6327464164
 10
18.4679794851
 20
2.6239479906
 10
18.4461857732
 20
2.6177082691
 10
18.4225781008
 20
2.6143190289
 10
18.3982602151
 20
2.6139387523
 10
18.3743692723
 20
2.6165851864
 10
18.3520223904
 20
2.6221345942
 10
18.3322644625
 20
2.6303275496
 10
18.3160193399
 20
2.640780868
 10
18.3040466081
 20
2.6530058454
 10
18.2969061411
 20
2.6664308161
 10
18.294931878
 20
2.6804280084
 10
18.2982159335
 20
2.6943430302
 10
18.3066049683
 20
2.7075251028
 10
18.3197065965
 20
2.7193579581
 10
18.3369082383
 20
2.7292882545
 10
18.3574055287
 20
2.7368516421
 10
18.3802400595
 20
2.7416945502
 10
18.404344196
 20
2.7435903951
 10
18.4285906714
 20
2.7424506772
 10
18.4518459225
 20
2.7383285734
 10
18.473022499
 20
2.7314168625
 10
18.4911301395
 20
2.7220387528
 10
18.5053222551
 20
2.7106327224
 10
18.5149351901
 20
2.6977321635
 10
18.5195194451
 20
2.6839402157
 10
18.5188607154
 20
2.6699017992
 10
18.5129897429
 20
2.65627338
 10
18.5021810571
 20
2.6436921379
 10
18.4869400852
 20
2.6327464164
  0
LWPOLYLINE
  5
3EE
330
1F
100
AcDbEntity
  8
0
  6
Continuous
 62
     7
370
    25
100
AcDbPolyline
 90
       22
 70
   128
 43
0.0
 10
18.3657217828
 20
2.7027242529
 10
18.3552909268
 20
2.6945652305
 10
18.3494893274
 20
2.6849938288
 10
18.3488325608
 20
2.6748604473
 10
18.3533788883
 20
2.6650655409
 10
18.3627244423
 20
2.6564793515
 10
18.3760386715
 20
2.64986487
 10
18.3921387513
 20
2.6458097769
 10
18.4095939957
 20
2.644674421
 10
18.4268534917
 20
2.6465596177
 10
18.442383512
 20
2.6512979685
 10
18.4548043355
 20
2.6584683573
 10
18.4630123261
 20
2.6674336685
 10
18.4662779365
 20
2.6773973635
 10
18.4643112292
 20
2.6874740616
 10
18.4572868039
 20
2.6967684185
 10
18.4458289813
 20
2.7044545807
 10
18.4309556536
 20
2.7098496542
 10
18.4139885025
 20
2.7124741719
 10
18.396435069
 20
2.7120950285
 10
18.3798551184
 20
2.7087458365
 10
18.3657217828
 20
2.7027242529
  0
LWPOLYLINE
  5
3EF
330
1F
100
AcDbEntity
  8
0
  6
Continuous
 62
     8
370
    25
100
AcDbPolyline
 90
        7
 70
   128
 43
0.0
 10
16.8400767584
 20
5.4191719758
 10
16.8162004828
 20
5.4357402311
 10
16.7970415786
 20
5.4557271054
 10
16.7845705679
 20
5.4784044603
 10
16.7802352857
 20
5.5025729014
 10
16.7845705679
 20
5.5267412569
 10
16.7883404204
 20
5.5335963273
  0
LWPOLYLINE
  5
3F0
330
1F
100
AcDbEntity
  8
0
  6
Continuous
 62
     8
370
    25
100
AcDbPolyline
 90
        7
 70
   128
 43
0.0
 10
20.521415524
 20
5.53359637
 10
20.5251853024
 20
5.5267412569
 10
20.5295206587
 20
5.5025728586
 10
20.5251853765
 20
5.4784045031
 10
20.5127143658
 20
5.4557271481
 10
20.4935555356
 20
5.4357402311
 10
20.4696791118
 20
5.4191719758
  0
ARC
  5
3F1
330
1F
100
AcDbEntity
  8
0
  6
Continuous
 62
     8
370
    25
100
AcDbCircle
 10
16.8888660734
 20
5.8219504544
 30
0.0
 40
0.094781504262941
100
AcDbArc
 50
184.0676385036
 51
245.8012119046
  0
ARC
  5
3F2
330
1F
100
AcDbEntity
  8
0
  6
Continuous
 62
     8
370
    25
100
AcDbCircle
 10
16.8675751523
 20
5.891247087
 30
0.0
 40
0.0203240302278699
100
AcDbArc
 50
52.8900419817
 51
115.3897103372
  0
ARC
  5
3F3
330
1F
100
AcDbEntity
  8
0
  6
Continuous
 62
     8
370
    25
100
AcDbCircle
 10
20.4227980197
 20
5.8207752215
 30
0.0
 40
0.0929358784361746
100
AcDbArc
 50
293.4226954083
 51
355.631959783
  0
ARC
  5
3F4
330
1F
100
AcDbEntity
  8
0
  6
Continuous
 62
     8
370
    25
100
AcDbCircle
 10
20.4422434266
 20
5.8906149169
 30
0.0
 40
0.0208686394342355
100
AcDbArc
 50
65.4453156331
 51
126.2000220919
  0
ARC
  5
3F5
330
1F
100
AcDbEntity
  8
0
  6
Continuous
 62
     8
370
    25
100
AcDbCircle
 10
18.7718999143
 20
6.854910449
 30
0.0
 40
0.0208337931456244
100
AcDbArc
 50
65.0846442762
 51
126.2273754761
  0
ARC
  5
3F6
330
1F
100
AcDbEntity
  8
0
  6
Continuous
 62
     8
370
    25
100
AcDbCircle
 10
18.5378563959
 20
6.8549141932
 30
0.0
 40
0.0208305128238643
100
AcDbArc
 50
53.7675142218
 51
114.9206566547
  0
ARC
  5
3F7
330
1F
100
AcDbEntity
  8
0
  6
Continuous
 62
     8
370
    25
100
AcDbCircle
 10
20.4373314174
 20
5.5001861928
 30
0.0
 40
0.1063914607848739
100
AcDbArc
 50
293.4138108517
 51
356.5629444027
  0
ARC
  5
3F8
330
1F
100
AcDbEntity
  8
0
  6
Continuous
 62
     8
370
    25
100
AcDbCircle
 10
16.8718268172
 20
5.4995100397
 30
0.0
 40
0.1055338716568325
100
AcDbArc
 50
181.7310572088
 51
246.7380658343
  0
LWPOLYLINE
  5
3F9
330
1F
100
AcDbEntity
  8
0
  6
Continuous
 62
     8
370
    25
100
AcDbPolyline
 90
        3
 70
   128
 43
0.0
 10
18.5003367991
 20
1.8867046027
 10
18.4982185674
 20
1.8890574889
 10
18.4974126097
 20
1.8929239495
  0
LWPOLYLINE
  5
3FA
330
1F
100
AcDbEntity
  8
0
  6
Continuous
 62
     8
370
    25
100
AcDbPolyline
 90
        3
 70
   128
 43
0.0
 10
18.8123433347
 20
1.8929239922
 10
18.811537451
 20
1.8890574889
 10
18.8094192193
 20
1.8867046882
  0
LINE
  5
3FB
330
1F
100
AcDbEntity
  8
0
  6
Continuous
 62
     8
370
    25
100
AcDbLine
 10
18.793868976
 20
1.8788761835
 30
0.0
 11
18.7774523281
 21
0.7988504463
 31
0.0
  0
LINE
  5
3FC
330
1F
100
AcDbEntity
  8
0
  6
Continuous
 62
     8
370
    25
100
AcDbLine
 10
18.5158753383
 20
1.8796407534
 30
0.0
 11
18.5323036163
 21
0.798850489
 31
0.0
  0
LWPOLYLINE
  5
3FD
330
1F
100
AcDbEntity
  8
0
  6
Continuous
 62
     8
370
    25
100
AcDbPolyline
 90
        3
 70
   128
 43
0.0
 10
16.8269838714
 20
2.857241934
 10
16.8277898291
 20
2.8533754734
 10
16.8299084312
 20
2.8510221167
  0
LWPOLYLINE
  5
3FE
330
1F
100
AcDbEntity
  8
0
  6
Continuous
 62
     8
370
    25
100
AcDbPolyline
 90
        3
 70
   128
 43
0.0
 10
20.4798474391
 20
2.8510221167
 10
20.4819661153
 20
2.8533754307
 10
20.4827719989
 20
2.857241934
  0
LINE
  5
3FF
330
1F
100
AcDbEntity
  8
0
  6
Continuous
 62
     8
370
    25
100
AcDbLine
 10
16.8455740124
 20
2.8419525423
 30
0.0
 11
16.8619726596
 21
1.7631120254
 31
0.0
  0
LINE
  5
400
330
1F
100
AcDbEntity
  8
0
  6
Continuous
 62
     8
370
    25
100
AcDbLine
 10
20.4641818579
 20
2.8419525423
 30
0.0
 11
20.4477832848
 21
1.7631119827
 31
0.0
  0
ARC
  5
401
330
1F
100
AcDbEntity
  8
0
  6
Continuous
 62
     8
370
    25
100
AcDbCircle
 10
18.7497021774
 20
0.7966086417
 30
0.0
 40
0.0278405558556609
100
AcDbArc
 50
305.2675929005
 51
4.6186274664
  0
ARC
  5
402
330
1F
100
AcDbEntity
  8
0
  6
Continuous
 62
     8
370
    25
100
AcDbCircle
 10
18.5600362397
 20
0.7966051222
 30
0.0
 40
0.0278233727972778
100
AcDbArc
 50
175.3711545212
 51
234.8499673591
  0
ARC
  5
403
330
1F
100
AcDbEntity
  8
0
  6
Continuous
 62
     8
370
    25
100
AcDbCircle
 10
16.8897363426
 20
1.7608727884
 30
0.0
 40
0.0278538377045334
100
AcDbArc
 50
175.3888784503
 51
234.640503927
  0
ARC
  5
404
330
1F
100
AcDbEntity
  8
0
  6
Continuous
 62
     8
370
    25
100
AcDbCircle
 10
20.4200195498
 20
1.7608728567
 30
0.0
 40
0.0278538806312669
100
AcDbArc
 50
305.3593777871
 51
4.6108852556
  0
LINE
  5
405
330
1F
100
AcDbEntity
  8
0
  6
Continuous
 62
     8
370
    25
100
AcDbLine
 10
20.1860147318
 20
2.9483693684
 30
0.0
 11
20.1860147318
 21
2.9024522084
 31
0.0
  0
LINE
  5
406
330
1F
100
AcDbEntity
  8
0
  6
Continuous
 62
     8
370
    25
100
AcDbLine
 10
17.1237412125
 20
2.9483694111
 30
0.0
 11
17.1237412125
 21
2.9024522512
 31
0.0
  0
LINE
  5
407
330
1F
100
AcDbEntity
  8
0
  6
Continuous
 62
     8
370
    25
100
AcDbLine
 10
17.203280796
 20
2.9942866353
 30
0.0
 11
17.203280796
 21
2.8565349843
 31
0.0
  0
LINE
  5
408
330
1F
100
AcDbEntity
  8
0
  6
Continuous
 62
     8
370
    25
100
AcDbLine
 10
20.1064751484
 20
2.8565349415
 30
0.0
 11
20.1064751484
 21
2.9942865925
 31
0.0
  0
ARC
  5
409
330
1F
100
AcDbEntity
  8
0
  6
Continuous
 62
     8
370
    25
100
AcDbCircle
 10
16.8856836407
 20
2.9725693065
 30
0.0
 40
0.1294065909576399
100
AcDbArc
 50
202.5257021662
 51
243.0246412537
  0
ARC
  5
40A
330
1F
100
AcDbEntity
  8
0
  6
Continuous
 62
     8
370
    25
100
AcDbCircle
 10
20.4115835836
 20
1.8428314766
 30
0.0
 40
0.0875535040951735
100
AcDbArc
 50
294.4222500656
 51
353.3165592396
  0
ARC
  5
40B
330
1F
100
AcDbEntity
  8
0
  6
Continuous
 62
     8
370
    25
100
AcDbCircle
 10
16.8960681404
 20
1.8412954694
 30
0.0
 40
0.0852945058320895
100
AcDbArc
 50
185.8231232747
 51
246.4381806254
  0
LINE
  5
40C
330
1F
100
AcDbEntity
  8
0
  6
Continuous
 62
     8
370
    25
100
AcDbLine
 10
20.1860146948
 20
3.2927485282
 30
0.0
 11
20.1860146948
 21
3.2468313682
 31
0.0
  0
LINE
  5
40D
330
1F
100
AcDbEntity
  8
0
  6
Continuous
 62
     8
370
    25
100
AcDbLine
 10
17.1237412496
 20
3.2927484854
 30
0.0
 11
17.1237412496
 21
3.2468313255
 31
0.0
  0
LINE
  5
40E
330
1F
100
AcDbEntity
  8
0
  6
Continuous
 62
     8
370
    25
100
AcDbLine
 10
18.4759139094
 20
3.9355895596
 30
0.0
 11
18.4759139094
 21
2.730176901
 31
0.0
  0
LWPOLYLINE
  5
40F
330
1F
100
AcDbEntity
  8
0
  6
Continuous
 62
     8
370
    25
100
AcDbPolyline
 90
       10
 70
   128
 43
0.0
 10
19.1554602462
 20
2.4194804342
 10
19.1385824042
 20
2.4076081026
 10
19.1260411037
 20
2.3940631101
 10
19.1183181507
 20
2.3793658861
 10
19.1157104367
 20
2.3640813021
 10
19.1183181646
 20
2.3487967314
 10
19.1260410689
 20
2.334099514
 10
19.1385824273
 20
2.3205544988
 10
19.1554602462
 20
2.3086821913
 10
19.1564670703
 20
2.3081069938
  0
ARC
  5
410
330
1F
100
AcDbEntity
  8
0
  6
Continuous
 62
     8
370
    25
100
AcDbCircle
 10
19.2513740418
 20
2.2369997582
 30
0.0
 40
0.2061520150735232
100
AcDbArc
 50
61.9278744945
 51
117.7268959755
  0
ARC
  5
411
330
1F
100
AcDbEntity
  8
0
  6
Continuous
 62
     8
370
    25
100
AcDbCircle
 10
19.1736885847
 20
2.3592381211
 30
0.0
 40
0.0727135500268491
100
AcDbArc
 50
186.5202055853
 51
239.3761907897
  0
ARC
  5
412
330
1F
100
AcDbEntity
  8
0
  6
Continuous
 62
     7
370
    25
100
AcDbCircle
 10
13.1534165632
 20
7.575071294
 30
0.0
 40
0.3149606299212637
100
AcDbArc
 50
180.0
 51
270.0
  0
LINE
  5
413
330
1F
100
AcDbEntity
  8
0
  6
Continuous
 62
     7
370
    25
100
AcDbLine
 10
12.8384559039
 20
10.8821578397
 30
0.0
 11
12.8384559039
 21
7.5750712701
 31
0.0
  0
ARC
  5
414
330
1F
100
AcDbEntity
  8
0
  6
Continuous
 62
     7
370
    25
100
AcDbCircle
 10
13.1534165632
 20
10.8821579081
 30
0.0
 40
0.3149606299214387
100
AcDbArc
 50
90.0
 51
180.0
  0
LINE
  5
415
330
1F
100
AcDbEntity
  8
0
  6
Continuous
 62
     7
370
    25
100
AcDbLine
 10
16.4605031551
 20
11.1971185212
 30
0.0
 11
13.1534165855
 21
11.1971185212
 31
0.0
  0
ARC
  5
416
330
1F
100
AcDbEntity
  8
0
  6
Continuous
 62
     7
370
    25
100
AcDbCircle
 10
16.4605031773
 20
10.8821579081
 30
0.0
 40
0.3149606299212611
100
AcDbArc
 50
0.0
 51
90.0
  0
LINE
  5
417
330
1F
100
AcDbEntity
  8
0
  6
Continuous
 62
     7
370
    25
100
AcDbLine
 10
16.7754638366
 20
7.5750712701
 30
0.0
 11
16.7754638366
 21
10.8821578397
 31
0.0
  0
ARC
  5
418
330
1F
100
AcDbEntity
  8
0
  6
Continuous
 62
     7
370
    25
100
AcDbCircle
 10
16.4605031773
 20
7.575071294
 30
0.0
 40
0.3149606299209751
100
AcDbArc
 50
270.0
 51
0.0
  0
LINE
  5
419
330
1F
100
AcDbEntity
  8
0
  6
Continuous
 62
     7
370
    25
100
AcDbLine
 10
13.1534165855
 20
7.2601107352
 30
0.0
 11
16.4605031551
 21
7.2601107352
 31
0.0
  0
CIRCLE
  5
41A
330
1F
100
AcDbEntity
  8
0
  6
Continuous
 62
     7
370
    25
100
AcDbCircle
 10
16.1819598703
 20
8.343614601
 30
0.0
 40
0.1575000000000024
  0
CIRCLE
  5
41B
330
1F
100
AcDbEntity
  8
0
  6
Continuous
 62
     7
370
    25
100
AcDbCircle
 10
16.1819598703
 20
10.113614601
 30
0.0
 40
0.1575000000000024
  0
CIRCLE
  5
41C
330
1F
100
AcDbEntity
  8
0
  6
Continuous
 62
     7
370
    25
100
AcDbCircle
 10
16.1819598703
 20
9.228614601
 30
0.0
 40
0.1575000000000024
  0
CIRCLE
  5
41D
330
1F
100
AcDbEntity
  8
0
  6
Continuous
 62
     7
370
    25
100
AcDbCircle
 10
14.8069598703
 20
8.0475122388
 30
0.0
 40
0.197000000000001
  0
CIRCLE
  5
41E
330
1F
100
AcDbEntity
  8
0
  6
Continuous
 62
     7
370
    25
100
AcDbCircle
 10
14.8069598703
 20
10.4097169633
 30
0.0
 40
0.197000000000001
  0
CIRCLE
  5
41F
330
1F
100
AcDbEntity
  8
0
  6
Continuous
 62
     7
370
    25
100
AcDbCircle
 10
13.4319598703
 20
9.228614601
 30
0.0
 40
0.1575000000000006
  0
CIRCLE
  5
420
330
1F
100
AcDbEntity
  8
0
  6
Continuous
 62
     7
370
    25
100
AcDbCircle
 10
13.4319598703
 20
10.113614601
 30
0.0
 40
0.1575000000000006
  0
CIRCLE
  5
421
330
1F
100
AcDbEntity
  8
0
  6
Continuous
 62
     7
370
    25
100
AcDbCircle
 10
13.4319598703
 20
8.343614601
 30
0.0
 40
0.1575000000000006
  0
CIRCLE
  5
422
330
1F
100
AcDbEntity
  8
0
  6
Continuous
 62
     7
370
    25
100
AcDbCircle
 10
13.1927866419
 20
7.6144413727
 30
0.0
 40
0.0826771653543279
  0
CIRCLE
  5
423
330
1F
100
AcDbEntity
  8
0
  6
Continuous
 62
     7
370
    25
100
AcDbCircle
 10
13.1927866419
 20
10.8427878294
 30
0.0
 40
0.0826771653543314
  0
CIRCLE
  5
424
330
1F
100
AcDbEntity
  8
0
  6
Continuous
 62
     7
370
    25
100
AcDbCircle
 10
16.4211330986
 20
7.6144413727
 30
0.0
 40
0.0826771653543297
  0
CIRCLE
  5
425
330
1F
100
AcDbEntity
  8
0
  6
Continuous
 62
     7
370
    25
100
AcDbCircle
 10
16.4211330986
 20
10.8427878294
 30
0.0
 40
0.0826771653543297
  0
CIRCLE
  5
426
330
1F
100
AcDbEntity
  8
0
  6
Continuous
 62
     7
370
    25
100
AcDbCircle
 10
13.1927866419
 20
7.6144413727
 30
0.0
 40
0.1968503937007879
  0
CIRCLE
  5
427
330
1F
100
AcDbEntity
  8
0
  6
Continuous
 62
     7
370
    25
100
AcDbCircle
 10
13.1927866419
 20
10.8427878294
 30
0.0
 40
0.1968503937007871
  0
CIRCLE
  5
428
330
1F
100
AcDbEntity
  8
0
  6
Continuous
 62
     7
370
    25
100
AcDbCircle
 10
16.4211330986
 20
7.6144413727
 30
0.0
 40
0.1968503937007871
  0
CIRCLE
  5
429
330
1F
100
AcDbEntity
  8
0
  6
Continuous
 62
     7
370
    25
100
AcDbCircle
 10
16.4211330986
 20
10.8427878294
 30
0.0
 40
0.1968503937007871
  0
CIRCLE
  5
42A
330
1F
100
AcDbEntity
  8
0
  6
Continuous
 62
     7
370
    25
100
AcDbCircle
 10
14.8069598703
 20
9.228614601
 30
0.0
 40
0.3149606299212611
  0
CIRCLE
  5
42B
330
1F
100
AcDbEntity
  8
0
  6
Continuous
 62
     7
370
    25
100
AcDbCircle
 10
14.8069598703
 20
9.228614601
 30
0.0
 40
0.1325000000000021
  0
ARC
  5
42C
330
1F
100
AcDbEntity
  8
0
  6
Continuous
 62
     7
370
    25
100
AcDbCircle
 10
16.4605031773
 20
10.8821579081
 30
0.0
 40
0.2755905511811108
100
AcDbArc
 50
0.0000000001
 51
90.0
  0
LINE
  5
42D
330
1F
100
AcDbEntity
  8
0
  6
Continuous
 62
     7
370
    25
100
AcDbLine
 10
16.4605031551
 20
11.1577485094
 30
0.0
 11
13.1534165855
 21
11.1577485094
 31
0.0
  0
ARC
  5
42E
330
1F
100
AcDbEntity
  8
0
  6
Continuous
 62
     7
370
    25
100
AcDbCircle
 10
13.1534165632
 20
10.8821579081
 30
0.0
 40
0.2755905511810699
100
AcDbArc
 50
90.0
 51
179.9999999998
  0
LINE
  5
42F
330
1F
100
AcDbEntity
  8
0
  6
Continuous
 62
     7
370
    25
100
AcDbLine
 10
12.8778260624
 20
10.8821578397
 30
0.0
 11
12.8778260624
 21
7.5750712701
 31
0.0
  0
LINE
  5
430
330
1F
100
AcDbEntity
  8
0
  6
Continuous
 62
     7
370
    25
100
AcDbLine
 10
13.1534165855
 20
7.2994807471
 30
0.0
 11
16.4605031551
 21
7.2994807471
 31
0.0
  0
ARC
  5
431
330
1F
100
AcDbEntity
  8
0
  6
Continuous
 62
     7
370
    25
100
AcDbCircle
 10
13.1534165632
 20
7.575071294
 30
0.0
 40
0.2755905511813186
100
AcDbArc
 50
179.9999999999
 51
270.0
  0
LINE
  5
432
330
1F
100
AcDbEntity
  8
0
  6
Continuous
 62
     7
370
    25
100
AcDbLine
 10
16.7360936781
 20
7.5750712701
 30
0.0
 11
16.7360936781
 21
10.8821578397
 31
0.0
  0
ARC
  5
433
330
1F
100
AcDbEntity
  8
0
  6
Continuous
 62
     7
370
    25
100
AcDbCircle
 10
16.4605031773
 20
7.575071294
 30
0.0
 40
0.2755905511811063
100
AcDbArc
 50
270.0
 51
0.0
  0
ARC
  5
434
330
1F
100
AcDbEntity
  8
0
  6
Continuous
 62
     7
370
    25
100
AcDbCircle
 10
16.4600349827
 20
10.8816896673
 30
0.0
 40
0.3154292013119224
100
AcDbArc
 50
0.0850406621
 51
89.9149593379
  0
ARC
  5
435
330
1F
100
AcDbEntity
  8
0
  6
Continuous
 62
     7
370
    25
100
AcDbCircle
 10
13.1538846749
 20
7.5755395064
 30
0.0
 40
0.3154291185229582
100
AcDbArc
 50
180.0850523095
 51
269.914974371
  0
ARC
  5
436
330
1F
100
AcDbEntity
  8
0
  6
Continuous
 62
     7
370
    25
100
AcDbCircle
 10
13.1538849531
 20
10.881689472
 30
0.0
 40
0.3154293969394983
100
AcDbArc
 50
90.0850760913
 51
179.9149239087
  0
ARC
  5
437
330
1F
100
AcDbEntity
  8
0
  6
Continuous
 62
     7
370
    25
100
AcDbCircle
 10
16.4600348711
 20
7.5755397009
 30
0.0
 40
0.315429313309516
100
AcDbArc
 50
270.0850609059
 51
359.9149124136
  0
LINE
  5
438
330
1F
100
AcDbEntity
  8
0
  6
CENTERX2
 62
     7
370
    18
100
AcDbLine
 10
12.8415543627
 20
9.228614601
 30
0.0
 11
16.7754638073
 21
9.228614601
 31
0.0
  0
LINE
  5
439
330
1F
100
AcDbEntity
  8
0
  6
CENTERX2
 62
     7
370
    18
100
AcDbLine
 10
14.8069598703
 20
11.1940201086
 30
0.0
 11
14.8069598703
 21
7.260110664
 31
0.0
  0
DIMENSION
  5
43A
330
1F
100
AcDbEntity
  8
0
  6
Continuous
 62
     7
370
    18
100
AcDbDimension
  2
_D_10
 10
16.4211330986
 20
6.8267664537
 30
0.0
 11
14.8069598703
 21
6.8267664537
 31
0.0
 70
   160
  1
<>
 71
     2
 42
-1.0
  3
SLDDIMSTYLE0
100
AcDbAlignedDimension
 13
13.1927866419
 23
7.6144413727
 33
0.0
 14
16.4211330986
 24
7.6144413727
 34
0.0
 50
0.0
100
AcDbRotatedDimension
  0
DIMENSION
  5
44E
330
1F
100
AcDbEntity
  8
0
  6
Continuous
 62
     7
370
    18
100
AcDbDimension
  2
_D_11
 10
17.21840324
 20
10.8427878294
 30
0.0
 11
17.21840324
 21
9.228614601
 31
0.0
 70
   160
  1
<>
 71
     2
 42
-1.0
  3
SLDDIMSTYLE0
100
AcDbAlignedDimension
 13
16.4211330986
 23
7.6144413727
 33
0.0
 14
16.4211330986
 24
10.8427878294
 34
0.0
 50
90.0
100
AcDbRotatedDimension
  0
DIMENSION
  5
462
330
1F
100
AcDbEntity
  8
0
  6
Continuous
 62
     7
370
    18
100
AcDbDimension
  2
_D_12
 10
13.2409529822
 20
7.6816389719
 30
0.0
 11
11.8657061445
 21
6.7437773839
 31
0.0
 70
   163
  1
<> (4X)
 71
     1
 42
-1.0
  3
SLDDIMSTYLE3
100
AcDbDiametricDimension
 15
13.1446203017
 25
7.5472437735
 35
0.0
 40
0.0
  0
INSERT
  5
47F
330
1F
100
AcDbEntity
  8
0
  6
Continuous
 62
     7
370
    18
100
AcDbBlockReference
  2
SW_CENTERMARKSYMBOL_12
 10
13.1927866419
 20
7.6144413727
 30
0.0
  0
INSERT
  5
48B
330
1F
100
AcDbEntity
  8
0
  6
Continuous
 62
     7
370
    18
100
AcDbBlockReference
  2
SW_CENTERMARKSYMBOL_13
 10
13.1927866419
 20
10.8427878294
 30
0.0
  0
INSERT
  5
497
330
1F
100
AcDbEntity
  8
0
  6
Continuous
 62
     7
370
    18
100
AcDbBlockReference
  2
SW_CENTERMARKSYMBOL_14
 10
16.4211330986
 20
10.8427878294
 30
0.0
  0
INSERT
  5
4A3
330
1F
100
AcDbEntity
  8
0
  6
Continuous
 62
     7
370
    18
100
AcDbBlockReference
  2
SW_CENTERMARKSYMBOL_15
 10
16.4211330986
 20
7.6144413727
 30
0.0
  0
LINE
  5
4A4
330
1F
100
AcDbEntity
  8
0
  6
Continuous
 62
     7
370
    25
100
AcDbLine
 10
11.291533709
 20
10.2274083044
 30
0.0
 11
11.3115337055
 21
10.2274083044
 31
0.0
  0
LINE
  5
4A5
330
1F
100
AcDbEntity
  8
0
  6
Continuous
 62
     7
370
    25
100
AcDbLine
 10
11.3115337055
 20
10.6214082796
 30
0.0
 11
11.291533709
 21
10.6214082796
 31
0.0
  0
LINE
  5
4A6
330
1F
100
AcDbEntity
  8
0
  6
Continuous
 62
     7
370
    25
100
AcDbLine
 10
11.291533709
 20
9.3758059705
 30
0.0
 11
11.2230263171
 21
9.3758059705
 31
0.0
  0
LINE
  5
4A7
330
1F
100
AcDbEntity
  8
0
  6
Continuous
 62
     7
370
    25
100
AcDbLine
 10
11.2230263171
 20
9.1108059648
 30
0.0
 11
11.291533709
 21
9.1108059648
 31
0.0
  0
LINE
  5
4A8
330
1F
100
AcDbEntity
  8
0
  6
Continuous
 62
     7
370
    25
100
AcDbLine
 10
11.1655494511
 20
10.6344083694
 30
0.0
 11
10.9155494724
 21
10.6344083694
 31
0.0
  0
LINE
  5
4A9
330
1F
100
AcDbEntity
  8
0
  6
Continuous
 62
     7
370
    25
100
AcDbLine
 10
10.9155494724
 20
10.2144083613
 30
0.0
 11
11.1655494511
 21
10.2144083613
 31
0.0
  0
ARC
  5
4AA
330
1F
100
AcDbEntity
  8
0
  6
Continuous
 62
     7
370
    25
100
AcDbCircle
 10
11.3115337095
 20
9.3808059657
 30
0.0
 40
0.0199999999999996
100
AcDbArc
 50
0.0
 51
90.0
  0
ARC
  5
4AB
330
1F
100
AcDbEntity
  8
0
  6
Continuous
 62
     7
370
    25
100
AcDbCircle
 10
11.3115337095
 20
9.1058059657
 30
0.0
 40
0.0200000000000014
100
AcDbArc
 50
270.0
 51
0.0
  0
LINE
  5
4AC
330
1F
100
AcDbEntity
  8
0
  6
Continuous
 62
     7
370
    25
100
AcDbLine
 10
11.3115337055
 20
9.4008059684
 30
0.0
 11
11.291533709
 21
9.4008059684
 31
0.0
  0
LINE
  5
4AD
330
1F
100
AcDbEntity
  8
0
  6
Continuous
 62
     7
370
    25
100
AcDbLine
 10
11.291533709
 20
9.0858059669
 30
0.0
 11
11.3115337055
 21
9.0858059669
 31
0.0
  0
ARC
  5
4AE
330
1F
100
AcDbEntity
  8
0
  6
Continuous
 62
     7
370
    25
100
AcDbCircle
 10
11.3115337095
 20
9.9908059657
 30
0.0
 40
0.0199999999999996
100
AcDbArc
 50
270.0
 51
0.0
  0
LINE
  5
4AF
330
1F
100
AcDbEntity
  8
0
  6
Continuous
 62
     7
370
    25
100
AcDbLine
 10
11.291533709
 20
9.970805982
 30
0.0
 11
11.3115337055
 21
9.970805982
 31
0.0
  0
LINE
  5
4B0
330
1F
100
AcDbEntity
  8
0
  6
Continuous
 62
     7
370
    25
100
AcDbLine
 10
11.0474065625
 20
9.4008059684
 30
0.0
 11
10.8955337003
 21
9.4008059684
 31
0.0
  0
LINE
  5
4B1
330
1F
100
AcDbEntity
  8
0
  6
Continuous
 62
     7
370
    25
100
AcDbLine
 10
10.8955337003
 20
9.0858059669
 30
0.0
 11
11.0476295666
 21
9.0858059669
 31
0.0
  0
LINE
  5
4B2
330
1F
100
AcDbEntity
  8
0
  6
Continuous
 62
     7
370
    25
100
AcDbLine
 10
10.8955494668
 20
10.2858059698
 30
0.0
 11
10.8955337003
 21
10.2858059698
 31
0.0
  0
LINE
  5
4B3
330
1F
100
AcDbEntity
  8
0
  6
Continuous
 62
     7
370
    25
100
AcDbLine
 10
10.8955337003
 20
9.970805982
 30
0.0
 11
11.1655494511
 21
9.970805982
 31
0.0
  0
ARC
  5
4B4
330
1F
100
AcDbEntity
  8
0
  6
Continuous
 62
     7
370
    25
100
AcDbCircle
 10
11.3112187488
 20
11.0346445484
 30
0.0
 40
0.0196850393700778
100
AcDbArc
 50
0.0
 51
90.0
  0
ARC
  5
4B5
330
1F
100
AcDbEntity
  8
0
  6
Continuous
 62
     7
370
    25
100
AcDbCircle
 10
11.3112187488
 20
10.6803138397
 30
0.0
 40
0.0196850393700778
100
AcDbArc
 50
270.0
 51
0.0
  0
LINE
  5
4B6
330
1F
100
AcDbEntity
  8
0
  6
Continuous
 62
     7
370
    25
100
AcDbLine
 10
11.3112187516
 20
11.0543295451
 30
0.0
 11
11.291533709
 21
11.0543295451
 31
0.0
  0
LINE
  5
4B7
330
1F
100
AcDbEntity
  8
0
  6
Continuous
 62
     7
370
    25
100
AcDbLine
 10
11.291533709
 20
10.6606288398
 30
0.0
 11
11.3112187516
 21
10.6606288398
 31
0.0
  0
LINE
  5
4B8
330
1F
100
AcDbEntity
  8
0
  6
Continuous
 62
     7
370
    25
100
AcDbLine
 10
9.1261794267
 20
11.2118098859
 30
0.0
 11
9.1261794267
 21
11.172439874
 31
0.0
  0
LINE
  5
4B9
330
1F
100
AcDbEntity
  8
0
  6
Continuous
 62
     7
370
    25
100
AcDbLine
 10
8.9883840185
 20
11.172439874
 30
0.0
 11
9.1261794267
 21
11.172439874
 31
0.0
  0
LINE
  5
4BA
330
1F
100
AcDbEntity
  8
0
  6
Continuous
 62
     7
370
    25
100
AcDbLine
 10
8.9883840185
 20
11.0543295451
 30
0.0
 11
8.9883840185
 21
11.172439874
 31
0.0
  0
LINE
  5
4BB
330
1F
100
AcDbEntity
  8
0
  6
Continuous
 62
     7
370
    25
100
AcDbLine
 10
8.9883840185
 20
11.0543295451
 30
0.0
 11
9.2049195971
 21
11.0543295451
 31
0.0
  0
LINE
  5
4BC
330
1F
100
AcDbEntity
  8
0
  6
Continuous
 62
     7
370
    25
100
AcDbLine
 10
8.3387778695
 20
11.1041632227
 30
0.0
 11
8.3387778695
 21
8.5230624732
 31
0.0
  0
ARC
  5
4BD
330
1F
100
AcDbEntity
  8
0
  6
Continuous
 62
     7
370
    25
100
AcDbCircle
 10
8.3978329221
 20
11.1041632367
 30
0.0
 40
0.059055118110237
100
AcDbArc
 50
90.993027403
 51
179.9999999999
  0
LINE
  5
4BE
330
1F
100
AcDbEntity
  8
0
  6
Continuous
 62
     7
370
    25
100
AcDbLine
 10
8.4647622008
 20
11.0055106424
 30
0.0
 11
8.4647622008
 21
8.5230624732
 31
0.0
  0
LINE
  5
4BF
330
1F
100
AcDbEntity
  8
0
  6
Continuous
 62
     7
370
    25
100
AcDbLine
 10
8.9293290741
 20
11.1828856467
 30
0.0
 11
8.9293290741
 21
11.172439874
 31
0.0
  0
ARC
  5
4C0
330
1F
100
AcDbEntity
  8
0
  6
Continuous
 62
     7
370
    25
100
AcDbCircle
 10
8.9490140244
 20
11.1828856687
 30
0.0
 40
0.0196850393700799
100
AcDbArc
 50
92.9766994682
 51
180.0000000005
  0
LINE
  5
4C1
330
1F
100
AcDbEntity
  8
0
  6
Continuous
 62
     7
370
    25
100
AcDbLine
 10
8.3968093858
 20
11.163209514
 30
0.0
 11
8.9293290741
 21
11.172439874
 31
0.0
  0
LINE
  5
4C2
330
1F
100
AcDbEntity
  8
0
  6
Continuous
 62
     7
370
    25
100
AcDbLine
 10
9.1261794267
 20
11.2118098859
 30
0.0
 11
8.9479918985
 21
11.2025441796
 31
0.0
  0
LINE
  5
4C3
330
1F
100
AcDbEntity
  8
0
  6
Continuous
 62
     7
370
    25
100
AcDbLine
 10
9.2049195971
 20
11.0149595332
 30
0.0
 11
9.2049195971
 21
11.0543295451
 31
0.0
  0
LINE
  5
4C4
330
1F
100
AcDbEntity
  8
0
  6
Continuous
 62
     7
370
    25
100
AcDbLine
 10
9.1261794267
 20
11.0149595332
 30
0.0
 11
9.2049195971
 21
11.0149595332
 31
0.0
  0
LINE
  5
4C5
330
1F
100
AcDbEntity
  8
0
  6
Continuous
 62
     7
370
    25
100
AcDbLine
 10
9.1261794267
 20
11.0149595332
 30
0.0
 11
8.4647622008
 21
11.0055106424
 31
0.0
  0
LINE
  5
4C6
330
1F
100
AcDbEntity
  8
0
  6
Continuous
 62
     7
370
    25
100
AcDbLine
 10
9.2049195971
 20
10.8574791925
 30
0.0
 11
9.2049195971
 21
11.0149595332
 31
0.0
  0
LINE
  5
4C7
330
1F
100
AcDbEntity
  8
0
  6
Continuous
 62
     7
370
    25
100
AcDbLine
 10
8.4647622008
 20
10.4244083287
 30
0.0
 11
9.2049195971
 21
10.4244083287
 31
0.0
  0
LINE
  5
4C8
330
1F
100
AcDbEntity
  8
0
  6
Continuous
 62
     7
370
    25
100
AcDbLine
 10
9.2049195971
 20
10.4244083287
 30
0.0
 11
9.2049195971
 21
10.8574791925
 31
0.0
  0
LINE
  5
4C9
330
1F
100
AcDbEntity
  8
0
  6
Continuous
 62
     7
370
    25
100
AcDbLine
 10
8.7718487333
 20
7.4015737287
 30
0.0
 11
8.3387778695
 21
7.394102175
 31
0.0
  0
LINE
  5
4CA
330
1F
100
AcDbEntity
  8
0
  6
Continuous
 62
     7
370
    25
100
AcDbLine
 10
8.3387778695
 20
7.8641632648
 30
0.0
 11
8.7718487333
 21
7.8566918578
 31
0.0
  0
LINE
  5
4CB
330
1F
100
AcDbEntity
  8
0
  6
Continuous
 62
     7
370
    25
100
AcDbLine
 10
8.3387778695
 20
7.8641632648
 30
0.0
 11
8.3387778695
 21
7.394102175
 31
0.0
  0
LINE
  5
4CC
330
1F
100
AcDbEntity
  8
0
  6
Continuous
 62
     7
370
    25
100
AcDbLine
 10
8.7718487333
 20
7.8358256855
 30
0.0
 11
8.850588757
 21
7.8358256855
 31
0.0
  0
LINE
  5
4CD
330
1F
100
AcDbEntity
  8
0
  6
Continuous
 62
     7
370
    25
100
AcDbLine
 10
9.1261794267
 20
7.9047233163
 30
0.0
 11
8.9883840185
 21
7.9047233163
 31
0.0
  0
LINE
  5
4CE
330
1F
100
AcDbEntity
  8
0
  6
Continuous
 62
     7
370
    25
100
AcDbLine
 10
9.2049195971
 20
8.0228334985
 30
0.0
 11
8.9883840185
 21
8.0228334985
 31
0.0
  0
LINE
  5
4CF
330
1F
100
AcDbEntity
  8
0
  6
Continuous
 62
     7
370
    25
100
AcDbLine
 10
8.7718487333
 20
7.8566918578
 30
0.0
 11
8.7718487333
 21
7.8358256855
 31
0.0
  0
LINE
  5
4D0
330
1F
100
AcDbEntity
  8
0
  6
Continuous
 62
     7
370
    25
100
AcDbLine
 10
8.4647622008
 20
8.0622035837
 30
0.0
 11
9.2049195971
 21
8.0622035837
 31
0.0
  0
LINE
  5
4D1
330
1F
100
AcDbEntity
  8
0
  6
Continuous
 62
     7
370
    25
100
AcDbLine
 10
8.850588757
 20
7.8456682252
 30
0.0
 11
8.850588757
 21
7.8358256855
 31
0.0
  0
LINE
  5
4D2
330
1F
100
AcDbEntity
  8
0
  6
Continuous
 62
     7
370
    25
100
AcDbLine
 10
9.1261794267
 20
7.8456682252
 30
0.0
 11
8.850588757
 21
7.8456682252
 31
0.0
  0
LINE
  5
4D3
330
1F
100
AcDbEntity
  8
0
  6
Continuous
 62
     7
370
    25
100
AcDbLine
 10
8.9883840185
 20
7.9047233163
 30
0.0
 11
8.9883840185
 21
8.0228334985
 31
0.0
  0
LINE
  5
4D4
330
1F
100
AcDbEntity
  8
0
  6
Continuous
 62
     7
370
    25
100
AcDbLine
 10
9.1261794267
 20
7.9047233163
 30
0.0
 11
9.1261794267
 21
7.8456682252
 31
0.0
  0
LINE
  5
4D5
330
1F
100
AcDbEntity
  8
0
  6
Continuous
 62
     7
370
    25
100
AcDbLine
 10
8.3387778695
 20
8.5230624732
 30
0.0
 11
8.3387778695
 21
7.8641632648
 31
0.0
  0
LINE
  5
4D6
330
1F
100
AcDbEntity
  8
0
  6
Continuous
 62
     7
370
    25
100
AcDbLine
 10
8.4647622008
 20
8.5230624732
 30
0.0
 11
8.4647622008
 21
8.0622035837
 31
0.0
  0
LINE
  5
4D7
330
1F
100
AcDbEntity
  8
0
  6
Continuous
 62
     7
370
    25
100
AcDbLine
 10
9.2049195971
 20
8.0228334985
 30
0.0
 11
9.2049195971
 21
8.0622035837
 31
0.0
  0
LINE
  5
4D8
330
1F
100
AcDbEntity
  8
0
  6
Continuous
 62
     7
370
    25
100
AcDbLine
 10
8.850588757
 20
7.4224397543
 30
0.0
 11
8.7718487333
 21
7.4224397543
 31
0.0
  0
LINE
  5
4D9
330
1F
100
AcDbEntity
  8
0
  6
Continuous
 62
     7
370
    25
100
AcDbLine
 10
9.1261794267
 20
7.4125973614
 30
0.0
 11
8.850588757
 21
7.4125973614
 31
0.0
  0
LINE
  5
4DA
330
1F
100
AcDbEntity
  8
0
  6
Continuous
 62
     7
370
    25
100
AcDbLine
 10
8.7718487333
 20
7.4224397543
 30
0.0
 11
8.7718487333
 21
7.4015737287
 31
0.0
  0
ARC
  5
4DB
330
1F
100
AcDbEntity
  8
0
  6
Continuous
 62
     7
370
    25
100
AcDbCircle
 10
8.3978329221
 20
7.3824486947
 30
0.0
 40
0.059055118110237
100
AcDbArc
 50
180.0
 51
269.006972597
  0
ARC
  5
4DC
330
1F
100
AcDbEntity
  8
0
  6
Continuous
 62
     7
370
    25
100
AcDbCircle
 10
8.9490140244
 20
7.3037262627
 30
0.0
 40
0.0196850393700784
100
AcDbArc
 50
180.0000000011
 51
267.0233005319
  0
LINE
  5
4DD
330
1F
100
AcDbEntity
  8
0
  6
Continuous
 62
     7
370
    25
100
AcDbLine
 10
8.9293290741
 20
7.3141721117
 30
0.0
 11
8.3968093858
 21
7.3234024717
 31
0.0
  0
LINE
  5
4DE
330
1F
100
AcDbEntity
  8
0
  6
Continuous
 62
     7
370
    25
100
AcDbLine
 10
8.9479918985
 20
7.2840678061
 30
0.0
 11
9.1261794267
 21
7.2748020998
 31
0.0
  0
LINE
  5
4DF
330
1F
100
AcDbEntity
  8
0
  6
Continuous
 62
     7
370
    25
100
AcDbLine
 10
8.850588757
 20
7.4224397543
 30
0.0
 11
8.850588757
 21
7.4125973614
 31
0.0
  0
LINE
  5
4E0
330
1F
100
AcDbEntity
  8
0
  6
Continuous
 62
     7
370
    25
100
AcDbLine
 10
9.1261794267
 20
7.4125973614
 30
0.0
 11
9.1261794267
 21
7.2748020998
 31
0.0
  0
LINE
  5
4E1
330
1F
100
AcDbEntity
  8
0
  6
Continuous
 62
     7
370
    25
100
AcDbLine
 10
8.3387778695
 20
7.394102175
 30
0.0
 11
8.3387778695
 21
7.382448763
 31
0.0
  0
LINE
  5
4E2
330
1F
100
AcDbEntity
  8
0
  6
Continuous
 62
     7
370
    25
100
AcDbLine
 10
8.9293290741
 20
7.3141721117
 30
0.0
 11
8.9293290741
 21
7.3037261924
 31
0.0
  0
LINE
  5
4E3
330
1F
100
AcDbEntity
  8
0
  6
Continuous
 62
     7
370
    25
100
AcDbLine
 10
8.850588757
 20
7.7737875755
 30
0.0
 11
8.7718487333
 21
7.7737875755
 31
0.0
  0
LINE
  5
4E4
330
1F
100
AcDbEntity
  8
0
  6
Continuous
 62
     7
370
    25
100
AcDbLine
 10
8.7718487333
 20
7.8358256855
 30
0.0
 11
8.7718487333
 21
7.7737875755
 31
0.0
  0
LINE
  5
4E5
330
1F
100
AcDbEntity
  8
0
  6
Continuous
 62
     7
370
    25
100
AcDbLine
 10
8.850588757
 20
7.8358256855
 30
0.0
 11
8.850588757
 21
7.7737875755
 31
0.0
  0
LINE
  5
4E6
330
1F
100
AcDbEntity
  8
0
  6
Continuous
 62
     7
370
    25
100
AcDbLine
 10
8.7718487333
 20
7.4844778643
 30
0.0
 11
8.850588757
 21
7.4844778643
 31
0.0
  0
LINE
  5
4E7
330
1F
100
AcDbEntity
  8
0
  6
Continuous
 62
     7
370
    25
100
AcDbLine
 10
8.7718487333
 20
7.4844778643
 30
0.0
 11
8.7718487333
 21
7.4224397543
 31
0.0
  0
LINE
  5
4E8
330
1F
100
AcDbEntity
  8
0
  6
Continuous
 62
     7
370
    25
100
AcDbLine
 10
8.850588757
 20
7.4844778643
 30
0.0
 11
8.850588757
 21
7.4224397543
 31
0.0
  0
LINE
  5
4E9
330
1F
100
AcDbEntity
  8
0
  6
Continuous
 62
     7
370
    25
100
AcDbLine
 10
9.1261794267
 20
7.6291327933
 30
0.0
 11
9.1261794267
 21
7.4125973614
 31
0.0
  0
LINE
  5
4EA
330
1F
100
AcDbEntity
  8
0
  6
Continuous
 62
     7
370
    25
100
AcDbLine
 10
8.7718487333
 20
7.7737875755
 30
0.0
 11
8.7718487333
 21
7.4844778643
 31
0.0
  0
LINE
  5
4EB
330
1F
100
AcDbEntity
  8
0
  6
Continuous
 62
     7
370
    25
100
AcDbLine
 10
8.850588757
 20
7.7737875755
 30
0.0
 11
8.850588757
 21
7.4844778643
 31
0.0
  0
LINE
  5
4EC
330
1F
100
AcDbEntity
  8
0
  6
Continuous
 62
     7
370
    25
100
AcDbLine
 10
9.2049195971
 20
8.0622035837
 30
0.0
 11
9.2049195971
 21
10.4244083287
 31
0.0
  0
LINE
  5
4ED
330
1F
100
AcDbEntity
  8
0
  6
Continuous
 62
     7
370
    25
100
AcDbLine
 10
9.1261794267
 20
7.6951471373
 30
0.0
 11
9.1261794267
 21
7.6291327933
 31
0.0
  0
ARC
  5
4EE
330
1F
100
AcDbEntity
  8
0
  6
Continuous
 62
     7
370
    25
100
AcDbCircle
 10
12.0357304298
 20
9.2364083215
 30
0.0
 40
1.000180973454582
100
AcDbArc
 50
179.9907061114
 51
209.5386263301
  0
LINE
  5
4EF
330
1F
100
AcDbEntity
  8
0
  6
Continuous
 62
     7
370
    25
100
AcDbLine
 10
11.0355494695
 20
9.2365705598
 30
0.0
 11
11.0355494695
 21
9.2500413709
 31
0.0
  0
ARC
  5
4F0
330
1F
100
AcDbEntity
  8
0
  6
Continuous
 62
     7
370
    25
100
AcDbCircle
 10
12.0357598752
 20
9.2501958671
 30
0.0
 40
1.000210417605261
100
AcDbArc
 50
150.4618184868
 51
180.0088501213
  0
LINE
  5
4F1
330
1F
100
AcDbEntity
  8
0
  6
Continuous
 62
     7
370
    25
100
AcDbLine
 10
11.1655494511
 20
9.7433030535
 30
0.0
 11
11.1655494511
 21
10.2144152545
 31
0.0
  0
LINE
  5
4F2
330
1F
100
AcDbEntity
  8
0
  6
Continuous
 62
     7
370
    25
100
AcDbLine
 10
10.9155494724
 20
10.2144152545
 30
0.0
 11
11.1655494511
 21
10.2144152545
 31
0.0
  0
ARC
  5
4F3
330
1F
100
AcDbEntity
  8
0
  6
Continuous
 62
     7
370
    25
100
AcDbCircle
 10
10.9155497685
 20
10.2344155562
 30
0.0
 40
0.0200003017201562
100
AcDbArc
 50
179.9988524815
 51
269.9991517739
  0
LINE
  5
4F4
330
1F
100
AcDbEntity
  8
0
  6
Continuous
 62
     7
370
    25
100
AcDbLine
 10
10.8955494668
 20
10.2344159568
 30
0.0
 11
10.8955494668
 21
10.324422857
 31
0.0
  0
LINE
  5
4F5
330
1F
100
AcDbEntity
  8
0
  6
Continuous
 62
     7
370
    25
100
AcDbLine
 10
11.1955494595
 20
10.324422857
 30
0.0
 11
10.8955494668
 21
10.324422857
 31
0.0
  0
LINE
  5
4F6
330
1F
100
AcDbEntity
  8
0
  6
Continuous
 62
     7
370
    25
100
AcDbLine
 10
11.1955494595
 20
10.324422857
 30
0.0
 11
11.1955494595
 21
10.5243938003
 31
0.0
  0
LINE
  5
4F7
330
1F
100
AcDbEntity
  8
0
  6
Continuous
 62
     7
370
    25
100
AcDbLine
 10
10.8955494668
 20
10.5243938003
 30
0.0
 11
11.1955494595
 21
10.5243938003
 31
0.0
  0
LINE
  5
4F8
330
1F
100
AcDbEntity
  8
0
  6
Continuous
 62
     7
370
    25
100
AcDbLine
 10
10.8955494668
 20
10.5243938003
 30
0.0
 11
10.8955494668
 21
10.6144006272
 31
0.0
  0
ARC
  5
4F9
330
1F
100
AcDbEntity
  8
0
  6
Continuous
 62
     7
370
    25
100
AcDbCircle
 10
10.9155496228
 20
10.6144011735
 30
0.0
 40
0.020000155984324
100
AcDbArc
 50
90.0004307233
 51
180.0015650213
  0
LINE
  5
4FA
330
1F
100
AcDbEntity
  8
0
  6
Continuous
 62
     7
370
    25
100
AcDbLine
 10
11.1655494511
 20
10.6344013295
 30
0.0
 11
10.9155494724
 21
10.6344013295
 31
0.0
  0
LINE
  5
4FB
330
1F
100
AcDbEntity
  8
0
  6
Continuous
 62
     7
370
    25
100
AcDbLine
 10
11.1655494511
 20
10.6344013295
 30
0.0
 11
11.1655494511
 21
11.0204713496
 31
0.0
  0
LINE
  5
4FC
330
1F
100
AcDbEntity
  8
0
  6
Continuous
 62
     7
370
    25
100
AcDbLine
 10
9.3230297794
 20
11.0529419478
 30
0.0
 11
11.1655494511
 21
11.0204713496
 31
0.0
  0
LINE
  5
4FD
330
1F
100
AcDbEntity
  8
0
  6
Continuous
 62
     7
370
    25
100
AcDbLine
 10
9.3230297794
 20
11.0529419478
 30
0.0
 11
9.3230297794
 21
11.0936997036
 31
0.0
  0
LINE
  5
4FE
330
1F
100
AcDbEntity
  8
0
  6
Continuous
 62
     7
370
    25
100
AcDbLine
 10
9.0474392563
 20
11.0936997036
 30
0.0
 11
9.3230297794
 21
11.0936997036
 31
0.0
  0
LINE
  5
4FF
330
1F
100
AcDbEntity
  8
0
  6
Continuous
 62
     7
370
    25
100
AcDbLine
 10
9.0474392563
 20
11.1330697155
 30
0.0
 11
9.0474392563
 21
11.0936997036
 31
0.0
  0
LINE
  5
500
330
1F
100
AcDbEntity
  8
0
  6
Continuous
 62
     7
370
    25
100
AcDbLine
 10
9.0474392563
 20
11.1330697155
 30
0.0
 11
9.1261794267
 21
11.1330697155
 31
0.0
  0
LINE
  5
501
330
1F
100
AcDbEntity
  8
0
  6
Continuous
 62
     7
370
    25
100
AcDbLine
 10
9.1261794267
 20
11.1330697155
 30
0.0
 11
9.1261794267
 21
11.2118098859
 31
0.0
  0
LINE
  5
502
330
1F
100
AcDbEntity
  8
0
  6
Continuous
 62
     7
370
    25
100
AcDbLine
 10
11.3115337055
 20
10.6214009463
 30
0.0
 11
11.291533709
 21
10.6214009463
 31
0.0
  0
ARC
  5
503
330
1F
100
AcDbEntity
  8
0
  6
Continuous
 62
     7
370
    25
100
AcDbCircle
 10
11.3115331934
 20
10.6014004286
 30
0.0
 40
0.0200005177212416
100
AcDbArc
 50
359.9990511096
 51
89.9985329979
  0
LINE
  5
504
330
1F
100
AcDbEntity
  8
0
  6
Continuous
 62
     7
370
    25
100
AcDbLine
 10
11.3315337111
 20
10.6014000974
 30
0.0
 11
11.3315337111
 21
10.24741656
 31
0.0
  0
ARC
  5
505
330
1F
100
AcDbEntity
  8
0
  6
Continuous
 62
     7
370
    25
100
AcDbCircle
 10
11.3115332624
 20
10.2474161597
 30
0.0
 40
0.0200004486855146
100
AcDbArc
 50
270.0012692352
 51
0.0011466573
  0
LINE
  5
506
330
1F
100
AcDbEntity
  8
0
  6
Continuous
 62
     7
370
    25
100
AcDbLine
 10
11.291533709
 20
10.227415711
 30
0.0
 11
11.3115337055
 21
10.227415711
 31
0.0
  0
ARC
  5
507
330
1F
100
AcDbEntity
  8
0
  6
Continuous
 62
     7
370
    25
100
AcDbCircle
 10
11.8115369164
 20
9.2589322572
 30
0.0
 40
0.6000013493826373
100
AcDbArc
 50
150.0739552111
 51
168.7686681808
  0
LINE
  5
508
330
1F
100
AcDbEntity
  8
0
  6
Continuous
 62
     7
370
    25
100
AcDbLine
 10
11.2230263171
 20
9.3757949707
 30
0.0
 11
11.291533709
 21
9.3757949707
 31
0.0
  0
LINE
  5
509
330
1F
100
AcDbEntity
  8
0
  6
Continuous
 62
     7
370
    25
100
AcDbLine
 10
11.291533709
 20
9.3757949707
 30
0.0
 11
11.291533709
 21
9.11081696
 31
0.0
  0
LINE
  5
50A
330
1F
100
AcDbEntity
  8
0
  6
Continuous
 62
     7
370
    25
100
AcDbLine
 10
11.291533709
 20
9.11081696
 30
0.0
 11
11.2230263171
 21
9.11081696
 31
0.0
  0
ARC
  5
50B
330
1F
100
AcDbEntity
  8
0
  6
Continuous
 62
     7
370
    25
100
AcDbCircle
 10
11.8115364438
 20
9.2276795261
 30
0.0
 40
0.6000008571024047
100
AcDbArc
 50
191.231326806
 51
209.9260535907
  0
LINE
  5
50C
330
1F
100
AcDbEntity
  8
0
  6
Continuous
 62
     7
370
    25
100
AcDbLine
 10
11.1655494511
 20
8.5230624732
 30
0.0
 11
11.1655494511
 21
8.7433088955
 31
0.0
  0
LINE
  5
50D
330
1F
100
AcDbEntity
  8
0
  6
Continuous
 62
     7
370
    25
100
AcDbLine
 10
9.3036883361
 20
11.2087114417
 30
0.0
 11
9.1261794267
 21
11.2118098859
 31
0.0
  0
LINE
  5
50E
330
1F
100
AcDbEntity
  8
0
  6
Continuous
 62
     7
370
    25
100
AcDbLine
 10
9.3230297794
 20
11.172439874
 30
0.0
 11
9.3230297794
 21
11.1890294424
 31
0.0
  0
ARC
  5
50F
330
1F
100
AcDbEntity
  8
0
  6
Continuous
 62
     7
370
    25
100
AcDbCircle
 10
9.3033447331
 20
11.189029432
 30
0.0
 40
0.01968503937008
100
AcDbArc
 50
0.0
 51
89.0000000016
  0
LINE
  5
510
330
1F
100
AcDbEntity
  8
0
  6
Continuous
 62
     7
370
    25
100
AcDbLine
 10
9.3230297794
 20
11.172439874
 30
0.0
 11
11.2141634262
 21
11.1395341208
 31
0.0
  0
LINE
  5
511
330
1F
100
AcDbEntity
  8
0
  6
Continuous
 62
     7
370
    25
100
AcDbLine
 10
11.291533709
 20
10.6214009463
 30
0.0
 11
11.291533709
 21
11.0608058303
 31
0.0
  0
LINE
  5
512
330
1F
100
AcDbEntity
  8
0
  6
Continuous
 62
     7
370
    25
100
AcDbLine
 10
11.291533709
 20
8.5230624732
 30
0.0
 11
11.291533709
 21
8.9283499679
 31
0.0
  0
LINE
  5
513
330
1F
100
AcDbEntity
  8
0
  6
Continuous
 62
     7
370
    25
100
AcDbLine
 10
11.291533709
 20
9.5582619811
 30
0.0
 11
11.291533709
 21
10.227415711
 31
0.0
  0
ARC
  5
514
330
1F
100
AcDbEntity
  8
0
  6
Continuous
 62
     7
370
    25
100
AcDbCircle
 10
11.212793552
 20
11.0608058579
 30
0.0
 40
0.0787401574803166
100
AcDbArc
 50
359.9999999999
 51
89.0031540301
  0
LINE
  5
515
330
1F
100
AcDbEntity
  8
0
  6
Continuous
 62
     7
370
    25
100
AcDbLine
 10
11.291533709
 20
8.9283499679
 30
0.0
 11
11.291533709
 21
9.1108059648
 31
0.0
  0
LINE
  5
516
330
1F
100
AcDbEntity
  8
0
  6
Continuous
 62
     7
370
    25
100
AcDbLine
 10
11.291533709
 20
9.3758059705
 30
0.0
 11
11.291533709
 21
9.5582619811
 31
0.0
  0
LINE
  5
517
330
1F
100
AcDbEntity
  8
0
  6
Continuous
 62
     7
370
    25
100
AcDbLine
 10
10.8955494668
 20
10.5243938003
 30
0.0
 11
10.8955494668
 21
10.324422857
 31
0.0
  0
LINE
  5
518
330
1F
100
AcDbEntity
  8
0
  6
Continuous
 62
     7
370
    25
100
AcDbLine
 10
11.0355494695
 20
9.2500413709
 30
0.0
 11
11.0355494695
 21
9.2502542459
 31
0.0
  0
LINE
  5
519
330
1F
100
AcDbEntity
  8
0
  6
Continuous
 62
     7
370
    25
100
AcDbLine
 10
11.0355494695
 20
9.2363576848
 30
0.0
 11
11.0355494695
 21
9.2365705598
 31
0.0
  0
LINE
  5
51A
330
1F
100
AcDbEntity
  8
0
  6
Continuous
 62
     7
370
    25
100
AcDbLine
 10
9.0474392563
 20
11.0936997036
 30
0.0
 11
9.0474392563
 21
11.0543295451
 31
0.0
  0
LINE
  5
51B
330
1F
100
AcDbEntity
  8
0
  6
Continuous
 62
     7
370
    25
100
AcDbLine
 10
11.3315337111
 20
9.2433059654
 30
0.0
 11
11.3315337111
 21
9.1058059679
 31
0.0
  0
LINE
  5
51C
330
1F
100
AcDbEntity
  8
0
  6
Continuous
 62
     7
370
    25
100
AcDbLine
 10
11.3315337111
 20
9.3808059628
 30
0.0
 11
11.3315337111
 21
9.2433059654
 31
0.0
  0
LINE
  5
51D
330
1F
100
AcDbEntity
  8
0
  6
Continuous
 62
     7
370
    25
100
AcDbLine
 10
11.3315337111
 20
10.1283059759
 30
0.0
 11
11.3315337111
 21
9.990805951
 31
0.0
  0
LINE
  5
51E
330
1F
100
AcDbEntity
  8
0
  6
Continuous
 62
     7
370
    25
100
AcDbLine
 10
11.3315337111
 20
10.24741656
 30
0.0
 11
11.3315337111
 21
10.1283059759
 31
0.0
  0
LINE
  5
51F
330
1F
100
AcDbEntity
  8
0
  6
Continuous
 62
     7
370
    25
100
AcDbLine
 10
10.8955337003
 20
9.2433059654
 30
0.0
 11
10.8955337003
 21
9.0858059669
 31
0.0
  0
LINE
  5
520
330
1F
100
AcDbEntity
  8
0
  6
Continuous
 62
     7
370
    25
100
AcDbLine
 10
10.8955337003
 20
9.4008059684
 30
0.0
 11
10.8955337003
 21
9.2433059654
 31
0.0
  0
LINE
  5
521
330
1F
100
AcDbEntity
  8
0
  6
Continuous
 62
     7
370
    25
100
AcDbLine
 10
10.8955337003
 20
10.1283059759
 30
0.0
 11
10.8955337003
 21
9.970805982
 31
0.0
  0
LINE
  5
522
330
1F
100
AcDbEntity
  8
0
  6
Continuous
 62
     7
370
    25
100
AcDbLine
 10
10.8955337003
 20
10.2858059698
 30
0.0
 11
10.8955337003
 21
10.1283059759
 31
0.0
  0
LINE
  5
523
330
1F
100
AcDbEntity
  8
0
  6
Continuous
 62
     7
370
    25
100
AcDbLine
 10
9.3230297794
 20
11.0149595332
 30
0.0
 11
9.3230297794
 21
11.0529419478
 31
0.0
  0
LINE
  5
524
330
1F
100
AcDbEntity
  8
0
  6
Continuous
 62
     7
370
    25
100
AcDbLine
 10
9.2049195971
 20
10.5031484991
 30
0.0
 11
10.8955494668
 21
10.5031484991
 31
0.0
  0
LINE
  5
525
330
1F
100
AcDbEntity
  8
0
  6
Continuous
 62
     7
370
    25
100
AcDbLine
 10
11.3309037851
 20
10.6803137724
 30
0.0
 11
11.3309037851
 21
11.0346446125
 31
0.0
  0
LINE
  5
526
330
1F
100
AcDbEntity
  8
0
  6
Continuous
 62
     7
370
    25
100
AcDbLine
 10
11.291533709
 20
7.8259831459
 30
0.0
 11
11.3112187516
 21
7.8259831459
 31
0.0
  0
ARC
  5
527
330
1F
100
AcDbEntity
  8
0
  6
Continuous
 62
     7
370
    25
100
AcDbCircle
 10
11.3112187488
 20
7.8062980917
 30
0.0
 40
0.0196850393700778
100
AcDbArc
 50
360.0
 51
90.0
  0
LINE
  5
528
330
1F
100
AcDbEntity
  8
0
  6
Continuous
 62
     7
370
    25
100
AcDbLine
 10
11.3309037851
 20
7.7118098915
 30
0.0
 11
11.3309037851
 21
7.8062980666
 31
0.0
  0
LINE
  5
529
330
1F
100
AcDbEntity
  8
0
  6
Continuous
 62
     7
370
    25
100
AcDbLine
 10
11.0946833197
 20
7.7118098915
 30
0.0
 11
11.3309037851
 21
7.7118098915
 31
0.0
  0
LINE
  5
52A
330
1F
100
AcDbEntity
  8
0
  6
Continuous
 62
     7
370
    25
100
AcDbLine
 10
11.0946833197
 20
7.7118098915
 30
0.0
 11
11.0946833197
 21
7.8259831459
 31
0.0
  0
LINE
  5
52B
330
1F
100
AcDbEntity
  8
0
  6
Continuous
 62
     7
370
    25
100
AcDbLine
 10
9.244289609
 20
7.8259831459
 30
0.0
 11
11.0946833197
 21
7.8259831459
 31
0.0
  0
LINE
  5
52C
330
1F
100
AcDbEntity
  8
0
  6
Continuous
 62
     7
370
    25
100
AcDbLine
 10
9.244289609
 20
7.8259831459
 30
0.0
 11
9.244289609
 21
7.8555106181
 31
0.0
  0
LINE
  5
52D
330
1F
100
AcDbEntity
  8
0
  6
Continuous
 62
     7
370
    25
100
AcDbLine
 10
9.1261794267
 20
7.8555106181
 30
0.0
 11
9.244289609
 21
7.8555106181
 31
0.0
  0
LINE
  5
52E
330
1F
100
AcDbEntity
  8
0
  6
Continuous
 62
     7
370
    25
100
AcDbLine
 10
9.1261794267
 20
7.9440934015
 30
0.0
 11
9.0474392563
 21
7.9440934015
 31
0.0
  0
LINE
  5
52F
330
1F
100
AcDbEntity
  8
0
  6
Continuous
 62
     7
370
    25
100
AcDbLine
 10
11.1655494511
 20
7.9834634133
 30
0.0
 11
9.0474392563
 21
7.9834634133
 31
0.0
  0
LINE
  5
530
330
1F
100
AcDbEntity
  8
0
  6
Continuous
 62
     7
370
    25
100
AcDbLine
 10
9.0474392563
 20
7.9834634133
 30
0.0
 11
9.0474392563
 21
7.9440934015
 31
0.0
  0
LINE
  5
531
330
1F
100
AcDbEntity
  8
0
  6
Continuous
 62
     7
370
    25
100
AcDbLine
 10
9.1261794267
 20
7.8555106181
 30
0.0
 11
9.1261794267
 21
7.9440934015
 31
0.0
  0
LINE
  5
532
330
1F
100
AcDbEntity
  8
0
  6
Continuous
 62
     7
370
    25
100
AcDbLine
 10
11.1655494511
 20
7.9834634133
 30
0.0
 11
11.1655494511
 21
8.5230624732
 31
0.0
  0
LINE
  5
533
330
1F
100
AcDbEntity
  8
0
  6
Continuous
 62
     7
370
    25
100
AcDbLine
 10
11.291533709
 20
7.8259831459
 30
0.0
 11
11.291533709
 21
8.5230624732
 31
0.0
  0
LINE
  5
534
330
1F
100
AcDbEntity
  8
0
  6
Continuous
 62
     7
370
    25
100
AcDbLine
 10
11.0946833197
 20
7.432282294
 30
0.0
 11
9.244289609
 21
7.432282294
 31
0.0
  0
LINE
  5
535
330
1F
100
AcDbEntity
  8
0
  6
Continuous
 62
     7
370
    25
100
AcDbLine
 10
11.0946833197
 20
7.432282294
 30
0.0
 11
11.0946833197
 21
7.5464555484
 31
0.0
  0
LINE
  5
536
330
1F
100
AcDbEntity
  8
0
  6
Continuous
 62
     7
370
    25
100
AcDbLine
 10
11.3309037851
 20
7.5464555484
 30
0.0
 11
11.0946833197
 21
7.5464555484
 31
0.0
  0
ARC
  5
537
330
1F
100
AcDbEntity
  8
0
  6
Continuous
 62
     7
370
    25
100
AcDbCircle
 10
11.3112187488
 20
7.451967383
 30
0.0
 40
0.0196850393700787
100
AcDbArc
 50
270.0
 51
0.0
  0
LINE
  5
538
330
1F
100
AcDbEntity
  8
0
  6
Continuous
 62
     7
370
    25
100
AcDbLine
 10
11.3112187516
 20
7.432282294
 30
0.0
 11
11.291533709
 21
7.432282294
 31
0.0
  0
ARC
  5
539
330
1F
100
AcDbEntity
  8
0
  6
Continuous
 62
     7
370
    25
100
AcDbCircle
 10
11.212793552
 20
7.4258060735
 30
0.0
 40
0.0787401574803166
100
AcDbArc
 50
270.9968459699
 51
0.0
  0
LINE
  5
53A
330
1F
100
AcDbEntity
  8
0
  6
Continuous
 62
     7
370
    25
100
AcDbLine
 10
11.2141634262
 20
7.3470778649
 30
0.0
 11
9.3230297794
 21
7.3141721117
 31
0.0
  0
ARC
  5
53B
330
1F
100
AcDbEntity
  8
0
  6
Continuous
 62
     7
370
    25
100
AcDbCircle
 10
9.3033447331
 20
7.2975824994
 30
0.0
 40
0.01968503937008
100
AcDbArc
 50
270.9999999984
 51
0.0
  0
LINE
  5
53C
330
1F
100
AcDbEntity
  8
0
  6
Continuous
 62
     7
370
    25
100
AcDbLine
 10
9.1261794267
 20
7.2748020998
 30
0.0
 11
9.3036883361
 21
7.2779003974
 31
0.0
  0
LINE
  5
53D
330
1F
100
AcDbEntity
  8
0
  6
Continuous
 62
     7
370
    25
100
AcDbLine
 10
9.244289609
 20
7.4027548217
 30
0.0
 11
9.1261794267
 21
7.4027548217
 31
0.0
  0
LINE
  5
53E
330
1F
100
AcDbEntity
  8
0
  6
Continuous
 62
     7
370
    25
100
AcDbLine
 10
9.244289609
 20
7.4027548217
 30
0.0
 11
9.244289609
 21
7.432282294
 31
0.0
  0
LINE
  5
53F
330
1F
100
AcDbEntity
  8
0
  6
Continuous
 62
     7
370
    25
100
AcDbLine
 10
11.3309037851
 20
7.4519673732
 30
0.0
 11
11.3309037851
 21
7.5464555484
 31
0.0
  0
LINE
  5
540
330
1F
100
AcDbEntity
  8
0
  6
Continuous
 62
     7
370
    25
100
AcDbLine
 10
9.1261794267
 20
7.2748020998
 30
0.0
 11
9.1261794267
 21
7.4027548217
 31
0.0
  0
LINE
  5
541
330
1F
100
AcDbEntity
  8
0
  6
Continuous
 62
     7
370
    25
100
AcDbLine
 10
9.3230297794
 20
7.2975825434
 30
0.0
 11
9.3230297794
 21
7.3141721117
 31
0.0
  0
LINE
  5
542
330
1F
100
AcDbEntity
  8
0
  6
Continuous
 62
     7
370
    25
100
AcDbLine
 10
11.291533709
 20
7.4258060088
 30
0.0
 11
11.291533709
 21
7.432282294
 31
0.0
  0
LINE
  5
543
330
1F
100
AcDbEntity
  8
0
  6
Continuous
 62
     7
370
    25
100
AcDbLine
 10
11.0946833197
 20
7.5464555484
 30
0.0
 11
11.0946833197
 21
7.7118098915
 31
0.0
  0
LINE
  5
544
330
1F
100
AcDbEntity
  8
0
  6
Continuous
 62
     7
370
    25
100
AcDbLine
 10
11.3309037851
 20
7.5464555484
 30
0.0
 11
11.3309037851
 21
7.7118098915
 31
0.0
  0
LINE
  5
545
330
1F
100
AcDbEntity
  8
0
  6
Continuous
 62
     7
370
    25
100
AcDbLine
 10
9.244289609
 20
7.432282294
 30
0.0
 11
9.244289609
 21
7.8259831459
 31
0.0
  0
LINE
  5
546
330
1F
100
AcDbEntity
  8
0
  6
Continuous
 62
     7
370
    25
100
AcDbLine
 10
9.1261794267
 20
7.6951471373
 30
0.0
 11
9.1261794267
 21
7.8456682252
 31
0.0
  0
LINE
  5
547
330
1F
100
AcDbEntity
  8
0
  6
Continuous
 62
     7
370
    25
100
AcDbLine
 10
9.0474392563
 20
8.0228334985
 30
0.0
 11
9.0474392563
 21
7.9834634133
 31
0.0
  0
LINE
  5
548
330
1F
100
AcDbEntity
  8
0
  6
Continuous
 62
     7
370
    25
100
AcDbLine
 10
9.3230297794
 20
10.493023776
 30
0.0
 11
9.3230297794
 21
10.5031484991
 31
0.0
  0
LINE
  5
549
330
1F
100
AcDbEntity
  8
0
  6
Continuous
 62
     7
370
    25
100
AcDbLine
 10
10.8955494668
 20
10.5014999848
 30
0.0
 11
9.3230297794
 21
10.493023776
 31
0.0
  0
LINE
  5
54A
330
1F
100
AcDbEntity
  8
0
  6
Continuous
 62
     7
370
    25
100
AcDbLine
 10
9.3230297794
 20
7.9935882097
 30
0.0
 11
11.1655494511
 21
7.9836565711
 31
0.0
  0
LINE
  5
54B
330
1F
100
AcDbEntity
  8
0
  6
Continuous
 62
     7
370
    25
100
AcDbLine
 10
9.3230297794
 20
7.9834634133
 30
0.0
 11
9.3230297794
 21
7.9935882097
 31
0.0
  0
LINE
  5
54C
330
1F
100
AcDbEntity
  8
0
  6
Continuous
 62
     7
370
    25
100
AcDbLine
 10
9.3230297794
 20
7.9935882097
 30
0.0
 11
9.3230297794
 21
10.493023776
 31
0.0
  0
LINE
  5
54D
330
1F
100
AcDbEntity
  8
0
  6
CENTERX2
 62
     7
370
    18
100
AcDbLine
 10
9.2049195362
 20
9.2433059657
 30
0.0
 11
11.2915337095
 21
9.2433059657
 31
0.0
  0
LINE
  5
54E
330
1F
100
AcDbEntity
  8
0
  6
CENTERX2
 62
     7
370
    18
100
AcDbLine
 10
9.2049195362
 20
9.2433059657
 30
0.0
 11
8.3387778039
 21
9.2433059657
 31
0.0
  0
HATCH
  5
54F
330
1F
100
AcDbEntity
  8
0
  6
Continuous
 62
     7
370
    18
100
AcDbHatch
 10
0.0
 20
0.0
 30
0.0
210
0.0
220
0.0
230
1.0
  2
ANSI31
 70
     0
 71
     0
 91
        1
 92
        0
 93
       40
 72
     1
 10
11.16554945749242
 20
8.743308878544287
 11
11.16554945749242
 21
8.523062473239506
 72
     1
 10
11.16554945749242
 20
8.523062473239506
 11
11.29153370946092
 21
8.523062473239504
 72
     1
 10
11.29153370946092
 20
8.523062473239504
 11
11.29153370946092
 21
8.928349959942294
 72
     4
 94
        3
 73
     1
 74
     0
 95
       11
 96
        7
 40
0.0897497956402325
 40
0.0897497956402325
 40
0.0897497956402325
 40
0.0897497956402325
 40
0.0915917027951144
 40
0.0915917027951144
 40
0.0915917027951144
 40
0.0947607232110328
 40
0.0947607232110328
 40
0.0947607232110328
 40
0.0947607232110328
 10
11.29153370946092
 20
8.928349959942294
 42
1.0
 10
11.27955462516451
 20
8.949160307623501
 42
1.0
 10
11.26880776217871
 20
8.970729745086672
 42
1.0
 10
11.25940898684522
 20
8.992825718779265
 42
1.0
 10
11.24329893058141
 20
9.030699523265577
 42
1.0
 10
11.23104265737974
 20
9.070447447834386
 42
1.0
 10
11.22302632231341
 20
9.110816958002273
 42
1.0
 72
     1
 10
11.22302632231341
 20
9.110816958002273
 11
11.29153370946092
 21
9.110816958002273
 72
     1
 10
11.29153370946092
 20
9.110816958002273
 11
11.29153370946092
 21
9.375794973388288
 72
     1
 10
11.29153370946092
 20
9.375794973388288
 11
11.22302632231342
 21
9.375794973388288
 72
     4
 94
        3
 73
     1
 74
     0
 95
       11
 96
        7
 40
0.0033918884541144
 40
0.0033918884541144
 40
0.0033918884541144
 40
0.0033918884541144
 40
0.0037088763105181
 40
0.0037088763105181
 40
0.0037088763105181
 40
0.0084126632640081
 40
0.0084126632640081
 40
0.0084126632640081
 40
0.0084126632640081
 10
11.22302632231342
 20
9.375794973388288
 42
1.0
 10
11.22383585994285
 20
9.379871728824849
 42
1.0
 10
11.2246878062925
 20
9.383940291731744
 42
1.0
 10
11.2255818856293
 20
9.387999344355508
 42
1.0
 10
11.2386742624987
 20
9.447437745955105
 42
1.0
 10
11.26117012570631
 20
9.505513637840641
 42
1.0
 10
11.29153370946092
 20
9.558261971448266
 42
1.0
 72
     1
 10
11.29153370946092
 20
9.558261971448266
 11
11.29153370946093
 21
10.22741572103498
 72
     1
 10
11.29153370946093
 20
10.22741572103498
 11
11.31153370946093
 21
10.22741572103498
 72
     4
 94
        3
 73
     1
 74
     0
 95
       23
 96
       19
 40
0.0018103472760946
 40
0.0018103472760946
 40
0.0018103472760946
 40
0.0018103472760946
 40
0.0018274771462339
 40
0.0018274771462339
 40
0.0018274771462339
 40
0.001999545978468
 40
0.001999545978468
 40
0.001999545978468
 40
0.0021716214119736
 40
0.0021716214119736
 40
0.0021716214119736
 40
0.0023437035734438
 40
0.0023437035734438
 40
0.0023437035734438
 40
0.0025157898030152
 40
0.0025157898030152
 40
0.0025157898030152
 40
0.0026114538930785
 40
0.0026114538930785
 40
0.0026114538930785
 40
0.0026114538930785
 10
11.31153370946093
 20
10.22741572103498
 42
1.0
 10
11.31175914501779
 20
10.22741572103498
 42
1.0
 10
11.3119846127927
 20
10.22741953385719
 42
1.0
 10
11.31220991944974
 20
10.22742715623172
 42
1.0
 10
11.3144470965185
 20
10.22750284241756
 42
1.0
 10
11.31670205891734
 20
10.22796583663973
 42
1.0
 10
11.31878806439927
 20
10.22877779154308
 42
1.0
 10
11.32087414857956
 20
10.22958977707891
 42
1.0
 10
11.3228488039923
 20
10.2307731465992
 42
1.0
 10
11.32454850222682
 20
10.23222988735486
 42
1.0
 10
11.32624826625587
 20
10.23368668450029
 42
1.0
 10
11.32771993822223
 20
10.23545705738234
 42
1.0
 10
11.32884165019374
 20
10.23739437974331
 42
1.0
 10
11.32996338876687
 20
10.23933174804825
 42
1.0
 10
11.33076609319631
 20
10.24148951231832
 42
1.0
 10
11.3311832996616
 20
10.24368897410266
 42
1.0
 10
11.33141588120433
 20
10.24491511573168
 42
1.0
 10
11.33153370946093
 20
10.24616855105833
 42
1.0
 10
11.33153370946093
 20
10.24741655645433
 42
1.0
 72
     1
 10
11.33153370946093
 20
10.24741655645433
 11
11.33153370946093
 21
10.60140009934568
 72
     4
 94
        3
 73
     1
 74
     0
 95
       23
 96
       19
 40
0.0027216933633972
 40
0.0027216933633972
 40
0.0027216933633972
 40
0.0027216933633972
 40
0.0028599465233385
 40
0.0028599465233385
 40
0.0028599465233385
 40
0.0030320214005407
 40
0.0030320214005407
 40
0.0030320214005407
 40
0.0032040966251072
 40
0.0032040966251072
 40
0.0032040966251072
 40
0.0033108411963942
 40
0.0033108411963942
 40
0.0033108411963942
 40
0.0034829050816148
 40
0.0034829050816148
 40
0.0034829050816148
 40
0.0035222464777346
 40
0.0035222464777346
 40
0.0035222464777346
 40
0.0035222464777346
 10
11.33153370946093
 20
10.60140009934568
 42
1.0
 10
11.33153370946093
 20
10.60319964576332
 42
1.0
 10
11.33128641142561
 20
10.60501535385384
 42
1.0
 10
11.33080514137673
 20
10.60674935109989
 42
1.0
 10
11.33020646745516
 20
10.60890634992772
 42
1.0
 10
11.32922714717685
 20
10.61098973772562
 42
1.0
 10
11.32794826137066
 20
10.61282699260788
 42
1.0
 10
11.32666937402876
 20
10.61466424969634
 42
1.0
 10
11.32505564625045
 20
10.61630604520202
 42
1.0
 10
11.32324070407672
 20
10.61761640826179
 42
1.0
 10
11.32210493892864
 20
10.61843641493536
 42
1.0
 10
11.32087585059746
 20
10.61914026128334
 42
1.0
 10
11.31959380602395
 20
10.6197048276017
 42
1.0
 10
11.31754524379032
 20
10.62060694072793
 42
1.0
 10
11.31531268135399
 20
10.62116781207131
 42
1.0
 10
11.3130809948641
 20
10.62134099038527
 42
1.0
 10
11.31256639321919
 20
10.62138092334433
 42
1.0
 10
11.31204985817416
 20
10.62140093476503
 42
1.0
 10
11.31153370946093
 20
10.62140093476503
 42
1.0
 72
     1
 10
11.31153370946093
 20
10.62140093476503
 11
11.29153370946093
 21
10.62140093476503
 72
     1
 10
11.29153370946093
 20
10.62140093476503
 11
11.29153370946093
 21
11.06080585793478
 72
     2
 10
11.21279355198062
 20
11.06080585793496
 40
0.078740157480315
 50
359.9999999998715
 51
449.0031540300537
 73
     1
 72
     1
 10
11.21416342336533
 20
11.13953409843615
 11
9.32302977245328
 21
11.17243982396186
 72
     1
 10
9.32302977245328
 20
11.17243982396186
 11
9.323029772453056
 21
11.18902943199033
 72
     2
 10
9.303344733082977
 20
11.18902943199033
 40
0.0196850393700787
 50
0.0
 51
89.00000000155347
 73
     1
 72
     1
 10
9.303688284390264
 20
11.20871147323357
 11
9.12617937875227
 21
11.21180990270202
 72
     1
 10
9.12617937875227
 20
11.21180990270202
 11
9.12617937875227
 21
11.13306974522282
 72
     1
 10
9.12617937875227
 20
11.13306974522282
 11
9.047439221271953
 21
11.13306974522285
 72
     1
 10
9.047439221271953
 20
11.13306974522285
 11
9.047439221271953
 21
11.09369966648272
 72
     1
 10
9.047439221271953
 20
11.09369966648272
 11
9.323029772453054
 21
11.09369966648269
 72
     1
 10
9.323029772453054
 20
11.09369966648269
 11
9.323029772453054
 21
11.05294195382407
 72
     1
 10
9.323029772453054
 20
11.05294195382407
 11
11.16554945749244
 21
11.02047132002425
 72
     1
 10
11.16554945749244
 20
11.02047132002425
 11
11.16554945749242
 21
10.6344013924509
 72
     1
 10
11.16554945749242
 20
10.6344013924509
 11
10.91554945749242
 21
10.6344013924509
 72
     4
 94
        3
 73
     1
 74
     0
 95
       23
 96
       19
 40
0.0028777778450627
 40
0.0028777778450627
 40
0.0028777778450627
 40
0.0028777778450627
 40
0.0030320107355104
 40
0.0030320107355104
 40
0.0030320107355104
 40
0.0032040770731314
 40
0.0032040770731314
 40
0.0032040770731314
 40
0.0033108477145101
 40
0.0033108477145101
 40
0.0033108477145101
 40
0.0034829296739389
 40
0.0034829296739389
 40
0.0034829296739389
 40
0.0036550134238528
 40
0.0036550134238528
 40
0.0036550134238528
 40
0.0036783074469834
 40
0.0036783074469834
 40
0.0036783074469834
 40
0.0036783074469834
 10
10.91554945749242
 20
10.6344013924509
 42
1.0
 10
10.9135427114358
 20
10.6344013924509
 42
1.0
 10
10.91151362635447
 20
10.63409247349918
 42
1.0
 10
10.90959779960623
 20
10.63349528206715
 42
1.0
 10
10.90746078238855
 20
10.63282914230599
 42
1.0
 10
10.90540930624287
 20
10.63178485479219
 42
1.0
 10
10.90361324879751
 20
10.63044890478451
 42
1.0
 10
10.9024889729102
 20
10.62961264178849
 42
1.0
 10
10.9014473962998
 20
10.62865234208609
 42
1.0
 10
10.90052274160039
 20
10.62759956207292
 42
1.0
 10
10.89904545191768
 20
10.62591757089004
 42
1.0
 10
10.89783820157004
 20
10.62395731464386
 42
1.0
 10
10.89700095870735
 20
10.62188113942612
 42
1.0
 10
10.89616370689913
 20
10.61980494202547
 42
1.0
 10
10.89567337573157
 20
10.61755555650242
 42
1.0
 10
10.89557056253925
 20
10.61531926142253
 42
1.0
 10
10.89555649621678
 20
10.61501330411265
 42
1.0
 10
10.89554945749242
 20
10.61470694286287
 42
1.0
 10
10.89554945749242
 20
10.61440066237558
 42
1.0
 72
     1
 10
10.89554945749242
 20
10.61440066237558
 11
10.89554945749242
 21
10.52439376263666
 72
     1
 10
10.89554945749242
 20
10.52439376263666
 11
11.19554945749242
 21
10.52439376263666
 72
     1
 10
11.19554945749242
 20
10.52439376263666
 11
11.19554945749242
 21
10.32442289316335
 72
     1
 10
11.19554945749242
 20
10.32442289316335
 11
10.89554945749242
 21
10.32442289316335
 72
     1
 10
10.89554945749242
 20
10.32442289316335
 11
10.89554945749242
 21
10.23441599342443
 72
     4
 94
        3
 73
     1
 74
     0
 95
       23
 96
       19
 40
0.0006128972027998
 40
0.0006128972027998
 40
0.0006128972027998
 40
0.0006128972027998
 40
0.0006230152929322
 40
0.0006230152929322
 40
0.0006230152929322
 40
0.0007950920341809
 40
0.0007950920341809
 40
0.0007950920341809
 40
0.0009671626743733
 40
0.0009671626743733
 40
0.0009671626743733
 40
0.001139228558015
 40
0.001139228558015
 40
0.001139228558015
 40
0.0013112925596514
 40
0.0013112925596514
 40
0.0013112925596514
 40
0.0014140672051484
 40
0.0014140672051484
 40
0.0014140672051484
 40
0.0014140672051484
 10
10.89554945749242
 20
10.23441599342443
 42
1.0
 10
10.89554945749242
 20
10.23428269114626
 42
1.0
 10
10.89555079023036
 20
10.23414938220765
 42
1.0
 10
10.89555345530744
 20
10.23401610657324
 42
1.0
 10
10.89559821041138
 20
10.2317779856107
 42
1.0
 10
10.8960299813917
 20
10.22951672741199
 42
1.0
 10
10.89681302282112
 20
10.22741957825609
 42
1.0
 10
10.89759603683571
 20
10.22532250252287
 42
1.0
 10
10.89875189215355
 20
10.22333168896214
 42
1.0
 10
10.9001848894642
 20
10.22161199239426
 42
1.0
 10
10.90161784732354
 20
10.21989234317069
 42
1.0
 10
10.90336745234706
 20
10.21839637025285
 42
1.0
 10
10.90528883497527
 20
10.21724795809914
 42
1.0
 10
10.90721019616185
 20
10.2160995587611
 42
1.0
 10
10.90935632239076
 20
10.21526704061976
 42
1.0
 10
10.91154949891068
 20
10.21481935032351
 42
1.0
 10
10.91286252801989
 20
10.21455132338379
 42
1.0
 10
10.91420935157046
 20
10.21441526334911
 42
1.0
 10
10.91554945749242
 20
10.21441526334911
 42
1.0
 72
     1
 10
10.91554945749242
 20
10.21441526334911
 11
11.16554945749242
 21
10.2144152633491
 72
     1
 10
11.16554945749242
 20
10.2144152633491
 11
11.16554945749242
 21
9.743303052846274
 72
     4
 94
        3
 73
     1
 74
     0
 95
       20
 96
       16
 40
0.1483310135032074
 40
0.1483310135032074
 40
0.1483310135032074
 40
0.1483310135032074
 40
0.1493466198135779
 40
0.1493466198135779
 40
0.1493466198135779
 40
0.1579942053329256
 40
0.1579942053329256
 40
0.1579942053329256
 40
0.1607757437573989
 40
0.1607757437573989
 40
0.1607757437573989
 40
0.1614691764968142
 40
0.1614691764968142
 40
0.1614691764968142
 40
0.1615148303486414
 40
0.1615148303486414
 40
0.1615148303486414
 40
0.1615148303486414
 10
11.16554945749242
 20
9.743303052846276
 42
1.0
 10
11.15899606810709
 20
9.731739393837282
 42
1.0
 10
11.15267201689306
 20
9.720042728152743
 42
1.0
 10
11.14658484297799
 20
9.708226999828183
 42
1.0
 10
11.09532669676021
 20
9.60873052764259
 42
1.0
 10
11.0605399281362
 20
9.499012124859302
 42
1.0
 10
11.04510517499423
 20
9.388157653021185
 42
1.0
 10
11.04007656873438
 20
9.35204152690696
 42
1.0
 10
11.0370219200887
 20
9.315595630185157
 42
1.0
 10
11.03596809588923
 20
9.27914633799763
 42
1.0
 10
11.03570500998352
 20
9.2700468173635
 42
1.0
 10
11.0355666561789
 20
9.260942863817261
 42
1.0
 10
11.03555099628799
 20
9.251839554268939
 42
1.0
 10
11.0355499651881
 20
9.251240161751028
 42
1.0
 10
11.03554945749242
 20
9.25064076811779
 42
1.0
 10
11.03554945749242
 20
9.25004137471301
 42
1.0
 72
     1
 10
11.03554945749242
 20
9.25004137471301
 11
11.03554945749242
 21
9.236570556677552
 72
     4
 94
        3
 73
     1
 74
     0
 95
       14
 96
       10
 40
0.000171057817261
 40
0.000171057817261
 40
0.000171057817261
 40
0.000171057817261
 40
0.0034956535209885
 40
0.0034956535209885
 40
0.0034956535209885
 40
0.012143199439296
 40
0.012143199439296
 40
0.012143199439296
 40
0.013358759240111
 40
0.013358759240111
 40
0.013358759240111
 40
0.013358759240111
 10
11.03554945749242
 20
9.236570556677552
 42
1.0
 10
11.03554945749242
 20
9.19302395154873
 42
1.0
 10
11.03838888605862
 20
9.149384226442242
 42
1.0
 10
11.04405649322526
 20
9.106208017168495
 42
1.0
 10
11.05862339707079
 20
8.995236372449044
 42
1.0
 10
11.09255053205955
 20
8.88524934451533
 42
1.0
 10
11.14302846912095
 20
8.785355007892024
 42
1.0
 10
11.15019907893624
 20
8.771164584265719
 42
1.0
 10
11.15771034541178
 20
8.757141235162171
 42
1.0
 10
11.16554945749242
 20
8.743308878544287
 42
1.0
 97
        0
 75
     0
 76
     1
 52
0.0
 41
1.25
 77
     0
 78
     1
 53
45.0
 43
0.0
 44
0.0
 45
-0.110485434560398
 46
0.1104854345603981
 79
     0
 98
        1
 10
0.0
 20
0.0
  0
HATCH
  5
550
330
1F
100
AcDbEntity
  8
0
  6
Continuous
 62
     7
370
    18
100
AcDbHatch
 10
0.0
 20
0.0
 30
0.0
210
0.0
220
0.0
230
1.0
  2
ANSI31
 70
     0
 71
     0
 91
        1
 92
        0
 93
       15
 72
     1
 10
11.16554945749242
 20
8.523062473239506
 11
11.16554945749242
 21
7.983463446010347
 72
     1
 10
11.16554945749242
 20
7.983463446010347
 11
9.047439221271947
 21
7.983463446010312
 72
     1
 10
9.047439221271947
 20
7.983463446010312
 11
9.047439221271947
 21
7.944093367270019
 72
     1
 10
9.047439221271947
 20
7.944093367270019
 11
9.126179378752264
 21
7.944093367270019
 72
     1
 10
9.126179378752264
 20
7.944093367270019
 11
9.126179378752262
 21
7.855510690104667
 72
     1
 10
9.126179378752262
 20
7.855510690104667
 11
9.244289614972736
 21
7.855510690104665
 72
     1
 10
9.244289614972736
 20
7.855510690104665
 11
9.244289614972736
 21
7.825983131049552
 72
     1
 10
9.244289614972736
 20
7.825983131049552
 11
11.09468331576014
 21
7.825983131049544
 72
     1
 10
11.09468331576014
 20
7.825983131049544
 11
11.09468331576014
 21
7.711809902703084
 72
     1
 10
11.09468331576014
 20
7.711809902703084
 11
11.33090378820108
 21
7.711809902703083
 72
     1
 10
11.33090378820108
 20
7.711809902703083
 11
11.33090378820108
 21
7.806298091678855
 72
     2
 10
11.311218748831
 20
7.806298091679461
 40
0.0196850393700787
 50
0.0
 51
90.0
 73
     1
 72
     1
 10
11.311218748831
 20
7.825983131049541
 11
11.29153370946092
 21
7.825983131049541
 72
     1
 10
11.29153370946092
 20
7.825983131049541
 11
11.29153370946093
 21
8.523062473239504
 72
     1
 10
11.29153370946093
 20
8.523062473239504
 11
11.16554945749242
 21
8.523062473239506
 97
        0
 75
     0
 76
     1
 52
0.0
 41
1.25
 77
     0
 78
     1
 53
45.0
 43
0.0
 44
0.0
 45
-0.110485434560398
 46
0.1104854345603981
 79
     0
 98
        1
 10
0.0
 20
0.0
  0
HATCH
  5
551
330
1F
100
AcDbEntity
  8
0
  6
Continuous
 62
     7
370
    18
100
AcDbHatch
 10
0.0
 20
0.0
 30
0.0
210
0.0
220
0.0
230
1.0
  2
ANSI31
 70
     0
 71
     0
 91
        1
 92
        0
 93
       15
 72
     1
 10
9.244289614972734
 20
7.432282343647977
 11
9.244289614972734
 21
7.402754784592855
 72
     1
 10
9.244289614972734
 20
7.402754784592855
 11
9.12617937875226
 21
7.402754784592855
 72
     1
 10
9.12617937875226
 20
7.402754784592855
 11
9.12617937875226
 21
7.274802028688559
 72
     1
 10
9.12617937875226
 20
7.274802028688559
 11
9.303688284390256
 21
7.277900458157002
 72
     2
 10
9.30334473308297
 20
7.297582499400247
 40
0.0196850393700787
 50
270.9999999984474
 51
360.0000000000008
 73
     1
 72
     1
 10
9.323029772453049
 20
7.297582499400247
 11
9.323029772453049
 21
7.314172107428716
 72
     1
 10
9.323029772453049
 20
7.314172107428716
 11
11.21416342336532
 21
7.347077832954407
 72
     2
 10
11.21279355198061
 20
7.425806073455603
 40
0.078740157480315
 50
270.9968459699492
 51
360.0000000000008
 73
     1
 72
     1
 10
11.29153370946092
 20
7.425806073455603
 11
11.29153370946092
 21
7.432282343647965
 72
     1
 10
11.29153370946092
 20
7.432282343647965
 11
11.311218748831
 21
7.432282343647965
 72
     2
 10
11.311218748831
 20
7.451967383018045
 40
0.0196850393700787
 50
270.0000000000008
 51
360.0000000000008
 73
     1
 72
     1
 10
11.33090378820108
 20
7.451967383018045
 11
11.33090378820108
 21
7.546455571994422
 72
     1
 10
11.33090378820108
 20
7.546455571994422
 11
11.09468331576014
 21
7.546455571994423
 72
     1
 10
11.09468331576014
 20
7.546455571994423
 11
11.09468331576014
 21
7.432282343647969
 72
     1
 10
11.09468331576014
 20
7.432282343647969
 11
9.244289614972734
 21
7.432282343647977
 97
        0
 75
     0
 76
     1
 52
0.0
 41
1.25
 77
     0
 78
     1
 53
45.0
 43
0.0
 44
0.0
 45
-0.110485434560398
 46
0.1104854345603981
 79
     0
 98
        1
 10
0.0
 20
0.0
  0
HATCH
  5
552
330
1F
100
AcDbEntity
  8
0
  6
Continuous
 62
     7
370
    18
100
AcDbHatch
 10
0.0
 20
0.0
 30
0.0
210
0.0
220
0.0
230
1.0
  2
ANSI31
 70
     0
 71
     0
 91
        1
 92
        0
 93
       12
 72
     1
 10
9.126179378752296
 20
7.27480202868662
 11
9.126179378752278
 21
7.41259730427682
 72
     1
 10
9.126179378752278
 20
7.41259730427682
 11
8.850588827571174
 21
7.412597304276678
 72
     1
 10
8.850588827571174
 20
7.412597304276678
 11
8.850588827571174
 21
7.422439823961463
 72
     1
 10
8.850588827571174
 20
7.422439823961463
 11
8.771848670090861
 21
7.422439823961463
 72
     1
 10
8.771848670090861
 20
7.422439823961463
 11
8.771848670091808
 21
7.401573682229432
 72
     1
 10
8.771848670091808
 20
7.401573682229432
 11
8.338777803949126
 21
7.394102225536237
 72
     1
 10
8.338777803949126
 20
7.394102225536237
 11
8.338777803949126
 21
7.382448694687028
 72
     2
 10
8.397832922059363
 20
7.382448694687024
 40
0.0590551181102362
 50
179.9999999999966
 51
269.0069725970025
 73
     1
 72
     1
 10
8.396809453748263
 20
7.323402445969344
 11
8.92932898505149
 21
7.314172107426425
 72
     1
 10
8.92932898505149
 20
7.314172107426425
 11
8.92932898505149
 21
7.303726262687874
 72
     2
 10
8.949014024421567
 20
7.303726262688237
 40
0.0196850393700787
 50
180.0000000010556
 51
267.0233005318691
 73
     1
 72
     1
 10
8.947991783511009
 20
7.284067783639176
 11
9.126179378752296
 21
7.27480202868662
 97
        0
 75
     0
 76
     1
 52
0.0
 41
1.25
 77
     0
 78
     1
 53
45.0
 43
0.0
 44
0.0
 45
-0.110485434560398
 46
0.1104854345603981
 79
     0
 98
        1
 10
0.0
 20
0.0
  0
HATCH
  5
553
330
1F
100
AcDbEntity
  8
0
  6
Continuous
 62
     7
370
    18
100
AcDbHatch
 10
0.0
 20
0.0
 30
0.0
210
0.0
220
0.0
230
1.0
  2
ANSI31
 70
     0
 71
     0
 91
        1
 92
        0
 93
       14
 72
     1
 10
8.464762055917632
 20
8.062203603489182
 11
8.464762055917632
 21
8.52306247323957
 72
     1
 10
8.464762055917632
 20
8.52306247323957
 11
8.338777803949128
 21
8.52306247323957
 72
     1
 10
8.338777803949128
 20
8.52306247323957
 11
8.338777803949126
 21
7.864163249158788
 72
     1
 10
8.338777803949126
 20
7.864163249158788
 11
8.771848670091808
 21
7.856691792465594
 72
     1
 10
8.771848670091808
 20
7.856691792465594
 11
8.771848670090861
 21
7.835825650733261
 72
     1
 10
8.771848670090861
 20
7.835825650733261
 11
8.850588827571174
 21
7.835825650733261
 72
     1
 10
8.850588827571174
 20
7.835825650733261
 11
8.850588827571174
 21
7.845668170418337
 72
     1
 10
8.850588827571174
 20
7.845668170418337
 11
9.126179378752278
 21
7.845668170418123
 72
     1
 10
9.126179378752278
 20
7.845668170418123
 11
9.126179378752278
 21
7.904723288528358
 72
     1
 10
9.126179378752278
 20
7.904723288528358
 11
8.988384103161726
 21
7.904723288528359
 72
     1
 10
8.988384103161726
 20
7.904723288528359
 11
8.988384103161726
 21
8.022833524748831
 72
     1
 10
8.988384103161726
 20
8.022833524748831
 11
9.204919536232593
 21
8.022833524748828
 72
     1
 10
9.204919536232593
 20
8.022833524748828
 11
9.204919536232591
 21
8.062203603488978
 72
     1
 10
9.204919536232591
 20
8.062203603488978
 11
8.464762055917632
 21
8.062203603489182
 97
        0
 75
     0
 76
     1
 52
0.0
 41
1.25
 77
     0
 78
     1
 53
45.0
 43
0.0
 44
0.0
 45
-0.110485434560398
 46
0.1104854345603981
 79
     0
 98
        1
 10
0.0
 20
0.0
  0
HATCH
  5
554
330
1F
100
AcDbEntity
  8
0
  6
Continuous
 62
     7
370
    18
100
AcDbHatch
 10
0.0
 20
0.0
 30
0.0
210
0.0
220
0.0
230
1.0
  2
ANSI31
 70
     0
 71
     0
 91
        1
 92
        0
 93
       15
 72
     1
 10
8.464762055917625
 20
8.523062473239515
 11
8.464762055917626
 21
11.00551069010409
 72
     1
 10
8.464762055917626
 20
11.00551069010409
 11
9.126179378752271
 21
11.01495950900123
 72
     1
 10
9.126179378752271
 20
11.01495950900123
 11
9.204919536232586
 21
11.0149595090013
 72
     1
 10
9.204919536232586
 20
11.0149595090013
 11
9.204919536232586
 21
11.05432958774139
 72
     1
 10
9.204919536232586
 20
11.05432958774139
 11
8.988384103161719
 21
11.05432958774139
 72
     1
 10
8.988384103161719
 20
11.05432958774139
 11
8.988384103161719
 21
11.17243982396193
 72
     1
 10
8.988384103161719
 20
11.17243982396193
 11
9.126179378752271
 21
11.17243982396186
 72
     1
 10
9.126179378752271
 20
11.17243982396186
 11
9.126179378752262
 21
11.2118099027022
 72
     1
 10
9.126179378752262
 20
11.2118099027022
 11
8.947991783510973
 21
11.20254414774932
 72
     2
 10
8.949014024421562
 20
11.18288566870026
 40
0.0196850393700787
 50
92.97669946821989
 51
180.000000000523
 73
     1
 72
     1
 10
8.929328985051484
 20
11.18288566870008
 11
8.929328985051482
 21
11.17243982396204
 72
     1
 10
8.929328985051482
 20
11.17243982396204
 11
8.396809453748215
 21
11.16320948541912
 72
     2
 10
8.397832922059358
 20
11.10416323670144
 40
0.0590551181102362
 50
90.99302740303973
 51
179.9999999998552
 73
     1
 72
     1
 10
8.338777803949121
 20
11.10416323670159
 11
8.338777803949121
 21
8.523062473239515
 72
     1
 10
8.338777803949121
 20
8.523062473239515
 11
8.464762055917625
 21
8.523062473239515
 97
        0
 75
     0
 76
     1
 52
0.0
 41
1.25
 77
     0
 78
     1
 53
45.0
 43
0.0
 44
0.0
 45
-0.110485434560398
 46
0.1104854345603981
 79
     0
 98
        1
 10
0.0
 20
0.0
  0
DIMENSION
  5
555
330
1F
100
AcDbEntity
  8
0
  6
Continuous
 62
     7
370
    18
100
AcDbDimension
  2
_D_13
 10
11.2915337095
 20
8.6004754279
 30
0.0
 11
11.9109884404
 21
8.6004754279
 31
0.0
 70
   160
  1
<>
 71
     2
 42
-1.0
  3
SLDDIMSTYLE1
100
AcDbAlignedDimension
 13
11.1655494575
 23
8.7433088785
 33
0.0
 14
11.2915337095
 24
8.9283499599
 34
0.0
100
AcDbRotatedDimension
  0
DIMENSION
  5
567
330
1F
100
AcDbEntity
  8
0
  6
Continuous
 62
     7
370
    18
100
AcDbDimension
  2
_D_14
 10
8.4647620559
 20
8.6004754279
 30
0.0
 11
9.8151557567
 21
8.6004754279
 31
0.0
 70
   160
  1
<>
 71
     2
 42
-1.0
  3
SLDDIMSTYLE4
100
AcDbAlignedDimension
 13
11.1655494575
 23
8.7433088785
 33
0.0
 14
8.4647620559
 24
8.0622036035
 34
0.0
 50
0.0
100
AcDbRotatedDimension
  0
DIMENSION
  5
57A
330
1F
100
AcDbEntity
  8
0
  6
Continuous
 62
     7
370
    18
100
AcDbDimension
  2
_D_15
 10
8.3387778039
 20
8.6004754279
 30
0.0
 11
7.6743613773
 21
8.6004754279
 31
0.0
 70
   160
  1
<>
 71
     2
 42
-1.0
  3
SLDDIMSTYLE1
100
AcDbAlignedDimension
 13
8.4647620559
 23
8.0622036035
 33
0.0
 14
8.3387778039
 24
7.8641632492
 34
0.0
100
AcDbRotatedDimension
  0
DIMENSION
  5
58C
330
1F
100
AcDbEntity
  8
0
  6
Continuous
 62
     7
370
    18
100
AcDbDimension
  2
_D_16
 10
11.1655494575
 20
11.5570814821
 30
0.0
 11
11.9109884404
 21
11.5570814821
 31
0.0
 70
   160
  1
<>
 71
     2
 42
-1.0
  3
SLDDIMSTYLE1
100
AcDbAlignedDimension
 13
10.8955494575
 23
10.6144006624
 33
0.0
 14
11.1655494575
 24
11.02047132
 34
0.0
 50
0.0
100
AcDbRotatedDimension
  0
MTEXT
  5
5A0
330
1F
100
AcDbEntity
  8
0
  6
Continuous
 62
     7
370
    18
100
AcDbMText
 10
9.8081570927
 20
6.8768767078
 30
0.0
 40
0.15625
 41
0.0
 71
     2
 72
     1
  1
SECTION A-A
  7
SLDTEXTSTYLE0
 73
     1
 44
1.0
  0
INSERT
  5
5A6
102
{ACAD_REACTORS
330
5AD
102
}
330
1F
100
AcDbEntity
  8
0
  6
Continuous
 62
     7
370
     0
100
AcDbBlockReference
  2
SW_NOTE_6
 10
11.1691263484
 20
6.2011704487
 30
0.0
  0
LEADER
  5
5AD
330
1F
100
AcDbEntity
  8
0
  6
Continuous
 62
     7
370
     0
100
AcDbLeader
  3
SLDDIMSTYLE5
 73
     2
 76
     3
 10
10.2559872175
 20
7.5656794596
 30
0.0
 10
10.8566263484
 20
6.2011704487
 30
0.0
 10
11.1691263484
 20
6.2011704487
 30
0.0
340
5A6
  0
LINE
  5
5AE
330
1F
100
AcDbEntity
  8
0
  6
CENTERX2
 62
     7
370
    18
100
AcDbLine
 10
8.931789615
 20
7.6291327373
 30
0.0
 11
11.4071833158
 21
7.6291327373
 31
0.0
  0
LINE
  5
5AF
330
1F
100
AcDbEntity
  8
0
  6
CENTERX2
 62
     7
370
    18
100
AcDbLine
 10
8.1687562957
 20
7.6291327373
 30
0.0
 11
9.1468486701
 21
7.6291327373
 31
0.0
  0
LINE
  5
5B0
330
1F
100
AcDbEntity
  8
0
  6
CENTERX2
 62
     7
370
    18
100
AcDbLine
 10
11.5080494575
 20
10.4244083279
 30
0.0
 11
10.5830494575
 21
10.4244083279
 31
0.0
  0
ENDSEC
  0
SECTION
  2
OBJECTS
  0
DICTIONARY
  5
C
330
0
100
AcDbDictionary
281
     1
  3
ACAD_GROUP
350
D
  3
ACAD_LAYOUT
350
1A
  3
ACAD_MLINESTYLE
350
17
  3
ACAD_PLOTSETTINGS
350
19
  3
ACAD_PLOTSTYLENAME
350
E
  3
ACAD_SCALELIST
350
47
  0
DICTIONARY
  5
D
102
{ACAD_REACTORS
330
C
102
}
330
C
100
AcDbDictionary
281
     1
  0
DICTIONARY
  5
1A
102
{ACAD_REACTORS
330
C
102
}
330
C
100
AcDbDictionary
281
     1
  3
Layout1
350
1E
  3
Layout2
350
26
  3
Model
350
22
  0
DICTIONARY
  5
17
102
{ACAD_REACTORS
330
C
102
}
330
C
100
AcDbDictionary
281
     1
  3
Standard
350
18
  0
DICTIONARY
  5
19
102
{ACAD_REACTORS
330
C
102
}
330
C
100
AcDbDictionary
281
     1
  0
ACDBDICTIONARYWDFLT
  5
E
102
{ACAD_REACTORS
330
C
102
}
330
C
100
AcDbDictionary
281
     1
  3
Normal
350
F
100
AcDbDictionaryWithDefault
340
F
  0
DICTIONARY
  5
47
102
{ACAD_REACTORS
330
C
102
}
330
C
100
AcDbDictionary
281
     1
  3
A0
350
48
  3
A1
350
49
  3
A2
350
4A
  3
A3
350
4B
  3
A4
350
4C
  3
A5
350
4D
  3
A6
350
4E
  3
A7
350
4F
  3
A8
350
50
  3
A9
350
51
  3
B0
350
52
  3
B1
350
53
  3
B2
350
54
  3
B3
350
55
  3
B4
350
56
  3
B5
350
57
  3
B6
350
58
  3
B7
350
59
  3
B8
350
5A
  3
B9
350
5B
  3
C0
350
5C
  3
C1
350
5D
  3
C2
350
5E
  3
C3
350
5F
  3
C4
350
60
  3
C5
350
61
  3
C6
350
62
  3
C7
350
63
  3
C8
350
64
  3
C9
350
65
  3
D0
350
66
  3
D1
350
67
  3
D2
350
68
  0
LAYOUT
  5
1E
102
{ACAD_REACTORS
330
1A
102
}
330
1A
100
AcDbPlotSettings
  1

  2
none_device
  4

  6

 40
0.0
 41
0.0
 42
0.0
 43
0.0
 44
0.0
 45
0.0
 46
0.0
 47
0.0
 48
0.0
 49
0.0
140
0.0
141
0.0
142
1.0
143
1.0
 70
   688
 72
     0
 73
     0
 74
     5
  7

 75
    16
147
1.0
148
0.0
149
0.0
100
AcDbLayout
  1
Layout1
 70
     1
 71
     1
 10
0.0
 20
0.0
 11
12.0
 21
9.0
 12
0.0
 22
0.0
 32
0.0
 14
1.0000000000E+20
 24
1.0000000000E+20
 34
1.0000000000E+20
 15
-1.0000000000E+20
 25
-1.0000000000E+20
 35
-1.0000000000E+20
146
0.0
 13
0.0
 23
0.0
 33
0.0
 16
1.0
 26
0.0
 36
0.0
 17
0.0
 27
1.0
 37
0.0
 76
     0
330
1B
  0
LAYOUT
  5
26
102
{ACAD_REACTORS
330
1A
102
}
330
1A
100
AcDbPlotSettings
  1

  2
none_device
  4

  6

 40
0.0
 41
0.0
 42
0.0
 43
0.0
 44
0.0
 45
0.0
 46
0.0
 47
0.0
 48
0.0
 49
0.0
140
0.0
141
0.0
142
1.0
143
1.0
 70
   688
 72
     0
 73
     0
 74
     5
  7

 75
    16
147
1.0
148
0.0
149
0.0
100
AcDbLayout
  1
Layout2
 70
     1
 71
     2
 10
0.0
 20
0.0
 11
0.0
 21
0.0
 12
0.0
 22
0.0
 32
0.0
 14
0.0
 24
0.0
 34
0.0
 15
0.0
 25
0.0
 35
0.0
146
0.0
 13
0.0
 23
0.0
 33
0.0
 16
1.0
 26
0.0
 36
0.0
 17
0.0
 27
1.0
 37
0.0
 76
     0
330
23
  0
LAYOUT
  5
22
102
{ACAD_REACTORS
330
1A
102
}
330
1A
100
AcDbPlotSettings
  1

  2
none_device
  4
Letter_(8.50_x_11.00_Inches)
  6

 40
6.35
 41
6.35
 42
6.35000508
 43
6.35000508
 44
215.9
 45
279.4
 46
0.0
 47
0.0
 48
0.0
 49
0.0
140
0.0
141
0.0
142
1.0
143
1.0
 70
  1712
 72
     0
 73
     0
 74
     0
  7

 75
     0
147
1.0
148
0.0
149
0.0
100
AcDbLayout
  1
Model
 70
     1
 71
     0
 10
0.0
 20
0.0
 11
21.25
 21
13.75
 12
0.0
 22
0.0
 32
0.0
 14
0.0
 24
0.0
 34
0.0
 15
21.25
 25
13.75
 35
0.0
146
0.0
 13
0.0
 23
0.0
 33
0.0
 16
1.0
 26
0.0
 36
0.0
 17
0.0
 27
1.0
 37
0.0
 76
     0
330
1F
331
29
  0
MLINESTYLE
  5
18
102
{ACAD_REACTORS
330
17
102
}
330
17
100
AcDbMlineStyle
  2
Standard
 70
     0
  3

 62
   256
 51
90.0
 52
90.0
 71
     2
 49
0.5
 62
   256
  6
BYLAYER
 49
-0.5
 62
   256
  6
BYLAYER
  0
ACDBPLACEHOLDER
  5
F
102
{ACAD_REACTORS
330
E
102
}
330
E
  0
SCALE
  5
48
102
{ACAD_REACTORS
330
47
102
}
330
47
100
AcDbScale
 70
     0
300
1:1
140
1.0
141
1.0
290
     1
  0
SCALE
  5
49
102
{ACAD_REACTORS
330
47
102
}
330
47
100
AcDbScale
 70
     0
300
1:2
140
1.0
141
2.0
290
     0
  0
SCALE
  5
4A
102
{ACAD_REACTORS
330
47
102
}
330
47
100
AcDbScale
 70
     0
300
1:4
140
1.0
141
4.0
290
     0
  0
SCALE
  5
4B
102
{ACAD_REACTORS
330
47
102
}
330
47
100
AcDbScale
 70
     0
300
1:5
140
1.0
141
5.0
290
     0
  0
SCALE
  5
4C
102
{ACAD_REACTORS
330
47
102
}
330
47
100
AcDbScale
 70
     0
300
1:8
140
1.0
141
8.0
290
     0
  0
SCALE
  5
4D
102
{ACAD_REACTORS
330
47
102
}
330
47
100
AcDbScale
 70
     0
300
1:10
140
1.0
141
10.0
290
     0
  0
SCALE
  5
4E
102
{ACAD_REACTORS
330
47
102
}
330
47
100
AcDbScale
 70
     0
300
1:16
140
1.0
141
16.0
290
     0
  0
SCALE
  5
4F
102
{ACAD_REACTORS
330
47
102
}
330
47
100
AcDbScale
 70
     0
300
1:20
140
1.0
141
20.0
290
     0
  0
SCALE
  5
50
102
{ACAD_REACTORS
330
47
102
}
330
47
100
AcDbScale
 70
     0
300
1:30
140
1.0
141
30.0
290
     0
  0
SCALE
  5
51
102
{ACAD_REACTORS
330
47
102
}
330
47
100
AcDbScale
 70
     0
300
1:40
140
1.0
141
40.0
290
     0
  0
SCALE
  5
52
102
{ACAD_REACTORS
330
47
102
}
330
47
100
AcDbScale
 70
     0
300
1:50
140
1.0
141
50.0
290
     0
  0
SCALE
  5
53
102
{ACAD_REACTORS
330
47
102
}
330
47
100
AcDbScale
 70
     0
300
1:100
140
1.0
141
100.0
290
     0
  0
SCALE
  5
54
102
{ACAD_REACTORS
330
47
102
}
330
47
100
AcDbScale
 70
     0
300
2:1
140
2.0
141
1.0
290
     0
  0
SCALE
  5
55
102
{ACAD_REACTORS
330
47
102
}
330
47
100
AcDbScale
 70
     0
300
4:1
140
4.0
141
1.0
290
     0
  0
SCALE
  5
56
102
{ACAD_REACTORS
330
47
102
}
330
47
100
AcDbScale
 70
     0
300
8:1
140
8.0
141
1.0
290
     0
  0
SCALE
  5
57
102
{ACAD_REACTORS
330
47
102
}
330
47
100
AcDbScale
 70
     0
300
10:1
140
10.0
141
1.0
290
     0
  0
SCALE
  5
58
102
{ACAD_REACTORS
330
47
102
}
330
47
100
AcDbScale
 70
     0
300
100:1
140
100.0
141
1.0
290
     0
  0
SCALE
  5
59
102
{ACAD_REACTORS
330
47
102
}
330
47
100
AcDbScale
 70
     0
300
1/128" = 1'-0"
140
0.0078125
141
12.0
290
     0
  0
SCALE
  5
5A
102
{ACAD_REACTORS
330
47
102
}
330
47
100
AcDbScale
 70
     0
300
1/64" = 1'-0"
140
0.015625
141
12.0
290
     0
  0
SCALE
  5
5B
102
{ACAD_REACTORS
330
47
102
}
330
47
100
AcDbScale
 70
     0
300
1/32" = 1'-0"
140
0.03125
141
12.0
290
     0
  0
SCALE
  5
5C
102
{ACAD_REACTORS
330
47
102
}
330
47
100
AcDbScale
 70
     0
300
1/16" = 1'-0"
140
0.0625
141
12.0
290
     0
  0
SCALE
  5
5D
102
{ACAD_REACTORS
330
47
102
}
330
47
100
AcDbScale
 70
     0
300
3/32" = 1'-0"
140
0.09375
141
12.0
290
     0
  0
SCALE
  5
5E
102
{ACAD_REACTORS
330
47
102
}
330
47
100
AcDbScale
 70
     0
300
1/8" = 1'-0"
140
0.125
141
12.0
290
     0
  0
SCALE
  5
5F
102
{ACAD_REACTORS
330
47
102
}
330
47
100
AcDbScale
 70
     0
300
3/16" = 1'-0"
140
0.1875
141
12.0
290
     0
  0
SCALE
  5
60
102
{ACAD_REACTORS
330
47
102
}
330
47
100
AcDbScale
 70
     0
300
1/4" = 1'-0"
140
0.25
141
12.0
290
     0
  0
SCALE
  5
61
102
{ACAD_REACTORS
330
47
102
}
330
47
100
AcDbScale
 70
     0
300
3/8" = 1'-0"
140
0.375
141
12.0
290
     0
  0
SCALE
  5
62
102
{ACAD_REACTORS
330
47
102
}
330
47
100
AcDbScale
 70
     0
300
1/2" = 1'-0"
140
0.5
141
12.0
290
     0
  0
SCALE
  5
63
102
{ACAD_REACTORS
330
47
102
}
330
47
100
AcDbScale
 70
     0
300
3/4" = 1'-0"
140
0.75
141
12.0
290
     0
  0
SCALE
  5
64
102
{ACAD_REACTORS
330
47
102
}
330
47
100
AcDbScale
 70
     0
300
1" = 1'-0"
140
1.0
141
12.0
290
     0
  0
SCALE
  5
65
102
{ACAD_REACTORS
330
47
102
}
330
47
100
AcDbScale
 70
     0
300
1-1/2" = 1'-0"
140
1.5
141
12.0
290
     0
  0
SCALE
  5
66
102
{ACAD_REACTORS
330
47
102
}
330
47
100
AcDbScale
 70
     0
300
3" = 1'-0"
140
3.0
141
12.0
290
     0
  0
SCALE
  5
67
102
{ACAD_REACTORS
330
47
102
}
330
47
100
AcDbScale
 70
     0
300
6" = 1'-0"
140
6.0
141
12.0
290
     0
  0
SCALE
  5
68
102
{ACAD_REACTORS
330
47
102
}
330
47
100
AcDbScale
 70
     0
300
1'-0" = 1'-0"
140
12.0
141
12.0
290
     0
  0
ENDSEC
  0
EOF
