  0
SECTION
  2
HEADER
  9
$ACADVER
  1
AC1015
  9
$ACADMAINTVER
 70
     6
  9
$DWGCODEPAGE
  3
ANSI_1252
  9
$INSBASE
 10
0.0
 20
0.0
 30
0.0
  9
$EXTMIN
 10
0.0
 20
0.0
 30
0.0
  9
$EXTMAX
 10
21.25
 20
13.75
 30
0.0
  9
$LIMMIN
 10
0.0
 20
0.0
  9
$LIMMAX
 10
21.25
 20
13.75
  9
$ORTHOMODE
 70
     0
  9
$REGENMODE
 70
     1
  9
$FILLMODE
 70
     1
  9
$QTEXTMODE
 70
     0
  9
$MIRRTEXT
 70
     1
  9
$LTSCALE
 40
1.25
  9
$ATTMODE
 70
     1
  9
$TEXTSIZE
 40
0.15625
  9
$TRACEWID
 40
0.05
  9
$TEXTSTYLE
  7
Standard
  9
$CLAYER
  8
0
  9
$CELTYPE
  6
ByLayer
  9
$CECOLOR
 62
   256
  9
$CELTSCALE
 40
1.0
  9
$DISPSILH
 70
     0
  9
$DIMSCALE
 40
1.0
  9
$DIMASZ
 40
0.1625
  9
$DIMEXO
 40
0.0625
  9
$DIMDLI
 40
0.38
  9
$DIMRND
 40
0.0
  9
$DIMDLE
 40
0.0
  9
$DIMEXE
 40
0.15625
  9
$DIMTP
 40
0.0
  9
$DIMTM
 40
0.0
  9
$DIMTXT
 40
0.15625
  9
$DIMCEN
 40
0.09
  9
$DIMTSZ
 40
0.0
  9
$DIMTOL
 70
     0
  9
$DIMLIM
 70
     0
  9
$DIMTIH
 70
     1
  9
$DIMTOH
 70
     1
  9
$DIMSE1
 70
     0
  9
$DIMSE2
 70
     0
  9
$DIMTAD
 70
     0
  9
$DIMZIN
 70
     0
  9
$DIMBLK
  1

  9
$DIMASO
 70
     1
  9
$DIMSHO
 70
     1
  9
$DIMPOST
  1

  9
$DIMAPOST
  1

  9
$DIMALT
 70
     0
  9
$DIMALTD
 70
     2
  9
$DIMALTF
 40
25.4
  9
$DIMLFAC
 40
1.0
  9
$DIMTOFL
 70
     0
  9
$DIMTVP
 40
0.0
  9
$DIMTIX
 70
     0
  9
$DIMSOXD
 70
     0
  9
$DIMSAH
 70
     0
  9
$DIMBLK1
  1

  9
$DIMBLK2
  1

  9
$DIMSTYLE
  2
Standard
  9
$DIMCLRD
 70
     0
  9
$DIMCLRE
 70
     0
  9
$DIMCLRT
 70
     0
  9
$DIMTFAC
 40
1.0
  9
$DIMGAP
 40
0.075
  9
$DIMJUST
 70
     0
  9
$DIMSD1
 70
     0
  9
$DIMSD2
 70
     0
  9
$DIMTOLJ
 70
     1
  9
$DIMTZIN
 70
     0
  9
$DIMALTZ
 70
     0
  9
$DIMALTTZ
 70
     0
  9
$DIMUPT
 70
     0
  9
$DIMDEC
 70
     2
  9
$DIMTDEC
 70
     2
  9
$DIMALTU
 70
     2
  9
$DIMALTTD
 70
     2
  9
$DIMTXSTY
  7
Standard
  9
$DIMAUNIT
 70
     0
  9
$DIMADEC
 70
     2
  9
$DIMALTRND
 40
0.0
  9
$DIMAZIN
 70
     0
  9
$DIMDSEP
 70
    46
  9
$DIMATFIT
 70
     3
  9
$DIMFRAC
 70
     0
  9
$DIMLDRBLK
  1

  9
$DIMLUNIT
 70
     2
  9
$DIMLWD
 70
    -2
  9
$DIMLWE
 70
    -2
  9
$DIMTMOVE
 70
     0
  9
$LUNITS
 70
     2
  9
$LUPREC
 70
     2
  9
$SKETCHINC
 40
0.1
  9
$FILLETRAD
 40
0.5
  9
$AUNITS
 70
     0
  9
$AUPREC
 70
     2
  9
$MENU
  1
.
  9
$ELEVATION
 40
0.0
  9
$PELEVATION
 40
0.0
  9
$THICKNESS
 40
0.0
  9
$LIMCHECK
 70
     0
  9
$CHAMFERA
 40
0.0
  9
$CHAMFERB
 40
0.0
  9
$CHAMFERC
 40
0.0
  9
$CHAMFERD
 40
0.0
  9
$SKPOLY
 70
     0
  9
$TDCREATE
 40
2458058.352085266
  9
$TDUCREATE
 40
2458058.518751933
  9
$TDUPDATE
 40
2458058.35208919
  9
$TDUUPDATE
 40
2458058.518755856
  9
$TDINDWG
 40
0.0000000116
  9
$TDUSRTIMER
 40
0.0000000116
  9
$USRTIMER
 70
     1
  9
$ANGBASE
 50
0.0
  9
$ANGDIR
 70
     0
  9
$PDMODE
 70
     0
  9
$PDSIZE
 40
-1.0
  9
$PLINEWID
 40
0.0
  9
$SPLFRAME
 70
     0
  9
$SPLINETYPE
 70
     6
  9
$SPLINESEGS
 70
     8
  9
$HANDSEED
  5
5C8
  9
$SURFTAB1
 70
     6
  9
$SURFTAB2
 70
     6
  9
$SURFTYPE
 70
     6
  9
$SURFU
 70
     6
  9
$SURFV
 70
     6
  9
$UCSBASE
  2

  9
$UCSNAME
  2

  9
$UCSORG
 10
0.0
 20
0.0
 30
0.0
  9
$UCSXDIR
 10
1.0
 20
0.0
 30
0.0
  9
$UCSYDIR
 10
0.0
 20
1.0
 30
0.0
  9
$UCSORTHOREF
  2

  9
$UCSORTHOVIEW
 70
     0
  9
$UCSORGTOP
 10
0.0
 20
0.0
 30
0.0
  9
$UCSORGBOTTOM
 10
0.0
 20
0.0
 30
0.0
  9
$UCSORGLEFT
 10
0.0
 20
0.0
 30
0.0
  9
$UCSORGRIGHT
 10
0.0
 20
0.0
 30
0.0
  9
$UCSORGFRONT
 10
0.0
 20
0.0
 30
0.0
  9
$UCSORGBACK
 10
0.0
 20
0.0
 30
0.0
  9
$PUCSBASE
  2

  9
$PUCSNAME
  2

  9
$PUCSORG
 10
0.0
 20
0.0
 30
0.0
  9
$PUCSXDIR
 10
1.0
 20
0.0
 30
0.0
  9
$PUCSYDIR
 10
0.0
 20
1.0
 30
0.0
  9
$PUCSORTHOREF
  2

  9
$PUCSORTHOVIEW
 70
     0
  9
$PUCSORGTOP
 10
0.0
 20
0.0
 30
0.0
  9
$PUCSORGBOTTOM
 10
0.0
 20
0.0
 30
0.0
  9
$PUCSORGLEFT
 10
0.0
 20
0.0
 30
0.0
  9
$PUCSORGRIGHT
 10
0.0
 20
0.0
 30
0.0
  9
$PUCSORGFRONT
 10
0.0
 20
0.0
 30
0.0
  9
$PUCSORGBACK
 10
0.0
 20
0.0
 30
0.0
  9
$USERI1
 70
     0
  9
$USERI2
 70
     0
  9
$USERI3
 70
     0
  9
$USERI4
 70
     0
  9
$USERI5
 70
     0
  9
$USERR1
 40
0.0
  9
$USERR2
 40
0.0
  9
$USERR3
 40
0.0
  9
$USERR4
 40
0.0
  9
$USERR5
 40
0.0
  9
$WORLDVIEW
 70
     1
  9
$SHADEDGE
 70
     3
  9
$SHADEDIF
 70
    70
  9
$TILEMODE
 70
     1
  9
$MAXACTVP
 70
    64
  9
$PINSBASE
 10
0.0
 20
0.0
 30
0.0
  9
$PLIMCHECK
 70
     0
  9
$PEXTMIN
 10
1.0000000000E+20
 20
1.0000000000E+20
 30
1.0000000000E+20
  9
$PEXTMAX
 10
-1.0000000000E+20
 20
-1.0000000000E+20
 30
-1.0000000000E+20
  9
$PLIMMIN
 10
0.0
 20
0.0
  9
$PLIMMAX
 10
12.0
 20
9.0
  9
$UNITMODE
 70
     0
  9
$VISRETAIN
 70
     1
  9
$PLINEGEN
 70
     0
  9
$PSLTSCALE
 70
     1
  9
$TREEDEPTH
 70
  3020
  9
$CMLSTYLE
  2
Standard
  9
$CMLJUST
 70
     0
  9
$CMLSCALE
 40
1.0
  9
$PROXYGRAPHICS
 70
     1
  9
$MEASUREMENT
 70
     0
  9
$CELWEIGHT
370
    -1
  9
$ENDCAPS
280
     0
  9
$JOINSTYLE
280
     0
  9
$LWDISPLAY
290
     1
  9
$INSUNITS
 70
     1
  9
$HYPERLINKBASE
  1

  9
$STYLESHEET
  1

  9
$XEDIT
290
     1
  9
$CEPSNTYPE
380
     0
  9
$PSTYLEMODE
290
     1
  9
$FINGERPRINTGUID
  2
{D9A2D6F1-3280-4A5C-8457-12ECB5CE6A31}
  9
$VERSIONGUID
  2
{FAEB1C32-E019-11D5-929B-00C0DF256EC4}
  9
$EXTNAMES
290
     1
  9
$PSVPSCALE
 40
0.0
  9
$OLESTARTUP
290
     0
  0
ENDSEC
  0
SECTION
  2
CLASSES
  0
CLASS
  1
ACDBDICTIONARYWDFLT
  2
AcDbDictionaryWithDefault
  3
ObjectDBX Classes
 90
        0
280
     0
281
     0
  0
CLASS
  1
VISUALSTYLE
  2
AcDbVisualStyle
  3
ObjectDBX Classes
 90
     4095
280
     0
281
     0
  0
CLASS
  1
MATERIAL
  2
AcDbMaterial
  3
ObjectDBX Classes
 90
     1153
280
     0
281
     0
  0
CLASS
  1
SCALE
  2
AcDbScale
  3
ObjectDBX Classes
 90
     1153
280
     0
281
     0
  0
CLASS
  1
TABLESTYLE
  2
AcDbTableStyle
  3
ObjectDBX Classes
 90
     4095
280
     0
281
     0
  0
CLASS
  1
MLEADERSTYLE
  2
AcDbMLeaderStyle
  3
ACDB_MLEADERSTYLE_CLASS
 90
     4095
280
     0
281
     0
  0
CLASS
  1
SUN
  2
AcDbSun
  3
SCENEOE
 90
     1153
280
     0
281
     0
  0
CLASS
  1
ACDBPLACEHOLDER
  2
AcDbPlaceHolder
  3
ObjectDBX Classes
 90
        0
280
     0
281
     0
  0
CLASS
  1
LAYOUT
  2
AcDbLayout
  3
ObjectDBX Classes
 90
        0
280
     0
281
     0
  0
ENDSEC
  0
SECTION
  2
TABLES
  0
TABLE
  2
VPORT
  5
8
330
0
100
AcDbSymbolTable
 70
     1
  0
VPORT
  5
29
330
8
100
AcDbSymbolTableRecord
100
AcDbViewportTableRecord
  2
*Active
 70
     0
 10
0.0
 20
0.0
 11
1.0
 21
1.0
 12
10.625
 22
6.875
 13
0.0
 23
0.0
 14
0.5
 24
0.5
 15
0.5
 25
0.5
 16
0.0
 26
0.0
 36
1.0
 17
0.0
 27
0.0
 37
0.0
 40
13.75
 41
1.5454545455
 42
50.0
 43
0.0
 44
0.0
 50
0.0
 51
0.0
 71
     0
 72
  2000
 73
     1
 74
     3
 75
     0
 76
     0
 77
     0
 78
     0
281
     0
 65
     1
110
0.0
120
0.0
130
0.0
111
1.0
121
0.0
131
0.0
112
0.0
122
1.0
132
0.0
 79
     0
146
0.0
  0
ENDTAB
  0
TABLE
  2
LTYPE
  5
5
330
0
100
AcDbSymbolTable
 70
     6
  0
LTYPE
  5
14
330
5
100
AcDbSymbolTableRecord
100
AcDbLinetypeTableRecord
  2
ByBlock
 70
     0
  3

 72
    65
 73
     0
 40
0.0
  0
LTYPE
  5
15
330
5
100
AcDbSymbolTableRecord
100
AcDbLinetypeTableRecord
  2
ByLayer
 70
     0
  3

 72
    65
 73
     0
 40
0.0
  0
LTYPE
  5
16
330
5
100
AcDbSymbolTableRecord
100
AcDbLinetypeTableRecord
  2
Continuous
 70
     0
  3
Solid line
 72
    65
 73
     0
 40
0.0
  0
LTYPE
  5
6E
330
5
100
AcDbSymbolTableRecord
100
AcDbLinetypeTableRecord
  2
HIDDEN
 70
     0
  3
Hidden __ __ __ __ __ __ __ __ __ __ __ __ __ __
 72
    65
 73
     2
 40
0.075
 49
0.05
 74
     0
 49
-0.025
 74
     0
  0
LTYPE
  5
6F
330
5
100
AcDbSymbolTableRecord
100
AcDbLinetypeTableRecord
  2
PHANTOM
 70
     0
  3
Phantom ______  __  __  ______  __  __  ______
 72
    65
 73
     6
 40
0.5
 49
0.25
 74
     0
 49
-0.05
 74
     0
 49
0.05
 74
     0
 49
-0.05
 74
     0
 49
0.05
 74
     0
 49
-0.05
 74
     0
  0
LTYPE
  5
70
330
5
100
AcDbSymbolTableRecord
100
AcDbLinetypeTableRecord
  2
CENTER
 70
     0
  3
Center ____ _ ____ _ ____ _ ____ _ ____ _ ____
 72
    65
 73
     4
 40
0.4
 49
0.25
 74
     0
 49
-0.05
 74
     0
 49
0.05
 74
     0
 49
-0.05
 74
     0
  0
LTYPE
  5
71
330
5
100
AcDbSymbolTableRecord
100
AcDbLinetypeTableRecord
  2
CENTERX2
 70
     0
  3
Center (2x) ________  __  ________  __  _____
 72
    65
 73
     4
 40
0.8
 49
0.5
 74
     0
 49
-0.1
 74
     0
 49
0.1
 74
     0
 49
-0.1
 74
     0
  0
LTYPE
  5
72
330
5
100
AcDbSymbolTableRecord
100
AcDbLinetypeTableRecord
  2
DOT2
 70
     0
  3
Dot (.5x) ........................................
 72
    65
 73
     2
 40
0.025
 49
0.0
 74
     0
 49
-0.025
 74
     0
  0
ENDTAB
  0
TABLE
  2
LAYER
  5
2
330
0
100
AcDbSymbolTable
 70
     1
  0
LAYER
  5
10
330
2
100
AcDbSymbolTableRecord
100
AcDbLayerTableRecord
  2
0
 70
     0
 62
     7
  6
Continuous
370
    -3
390
F
  0
ENDTAB
  0
TABLE
  2
STYLE
  5
3
330
0
100
AcDbSymbolTable
 70
     6
  0
STYLE
  5
11
330
3
100
AcDbSymbolTableRecord
100
AcDbTextStyleTableRecord
  2
Standard
 70
     0
 40
0.0
 41
1.0
 50
0.0
 71
     0
 42
0.15625
  3
txt
  4

  0
STYLE
  5
A6
330
3
100
AcDbSymbolTableRecord
100
AcDbTextStyleTableRecord
  2
SLDTEXTSTYLE0
 70
     0
 40
0.0
 41
0.75
 50
0.0
 71
     0
 42
0.15625
  3
TXT
  4

  0
STYLE
  5
BB
330
3
100
AcDbSymbolTableRecord
100
AcDbTextStyleTableRecord
  2
SLDTEXTSTYLE1
 70
     0
 40
0.0
 41
0.6944444444
 50
0.0
 71
     0
 42
0.15625
  3
TXT
  4

  0
STYLE
  5
C1
330
3
100
AcDbSymbolTableRecord
100
AcDbTextStyleTableRecord
  2
SLDTEXTSTYLE2
 70
     0
 40
0.0
 41
0.6989795918
 50
0.0
 71
     0
 42
0.15625
  3
TXT
  4

  0
STYLE
  5
C9
330
3
100
AcDbSymbolTableRecord
100
AcDbTextStyleTableRecord
  2
SLDTEXTSTYLE3
 70
     0
 40
0.0
 41
0.6693548387
 50
0.0
 71
     0
 42
0.15625
  3
TXT
  4

  0
STYLE
  5
1BB
330
3
100
AcDbSymbolTableRecord
100
AcDbTextStyleTableRecord
  2
SLDTEXTSTYLE4
 70
     0
 40
0.0
 41
0.6923076923
 50
0.0
 71
     0
 42
0.15625
  3
TXT
  4

  0
ENDTAB
  0
TABLE
  2
VIEW
  5
6
330
0
100
AcDbSymbolTable
 70
     0
  0
ENDTAB
  0
TABLE
  2
UCS
  5
7
330
0
100
AcDbSymbolTable
 70
     0
  0
ENDTAB
  0
TABLE
  2
APPID
  5
9
330
0
100
AcDbSymbolTable
 70
     1
  0
APPID
  5
12
330
9
100
AcDbSymbolTableRecord
100
AcDbRegAppTableRecord
  2
ACAD
 70
     0
  0
ENDTAB
  0
TABLE
  2
DIMSTYLE
  5
A
330
0
100
AcDbSymbolTable
 70
     8
100
AcDbDimStyleTable
  0
DIMSTYLE
105
27
330
A
100
AcDbSymbolTableRecord
100
AcDbDimStyleTableRecord
  2
Standard
 70
     0
178
     0
340
11
  0
DIMSTYLE
105
15A
102
{ACAD_REACTORS
330
159
330
16E
330
182
330
196
330
1CF
330
25F
330
288
330
405
330
419
330
44F
330
463
330
5B5
102
}
330
A
100
AcDbSymbolTableRecord
100
AcDbDimStyleTableRecord
  2
SLDDIMSTYLE0
 70
     0
 41
0.1625
 44
0.0
 45
0.000000001
 78
    12
 79
     3
140
0.15625
147
0.0390625
148
0.000000001
170
     1
173
     1
178
     0
271
     2
272
     2
276
     2
284
    12
340
A6
  0
DIMSTYLE
105
1AB
102
{ACAD_REACTORS
330
1AA
330
1BD
330
42D
330
43E
102
}
330
A
100
AcDbSymbolTableRecord
100
AcDbDimStyleTableRecord
  2
SLDDIMSTYLE1
 70
     0
 41
0.1625
 44
0.0
 45
0.000000001
 78
    12
 79
     3
140
0.15625
141
0.0
147
0.0390625
148
0.000000001
170
     1
173
     1
178
     0
271
     2
272
     2
276
     2
284
    12
340
A6
  0
DIMSTYLE
105
1E4
330
A
100
AcDbSymbolTableRecord
100
AcDbDimStyleTableRecord
  2
SLDDIMSTYLE2
 70
     0
 41
0.1625
 44
0.0
 45
0.000000001
146
0.1625
147
0.0
173
     1
178
     0
271
     0
272
     0
276
     2
340
11
  0
DIMSTYLE
105
274
102
{ACAD_REACTORS
330
273
330
29C
330
56B
330
57E
330
5A3
102
}
330
A
100
AcDbSymbolTableRecord
100
AcDbDimStyleTableRecord
  2
SLDDIMSTYLE3
 70
     0
 41
0.1625
 44
0.0
 45
0.000000001
 78
    12
 79
     3
140
0.15625
147
0.0390625
148
0.000000001
170
     1
172
     1
173
     1
178
     0
271
     2
272
     2
276
     2
284
    12
289
     0
340
A6
  0
DIMSTYLE
105
478
102
{ACAD_REACTORS
330
477
102
}
330
A
100
AcDbSymbolTableRecord
100
AcDbDimStyleTableRecord
  2
SLDDIMSTYLE4
 70
     0
 41
0.1625
 44
0.0
 45
0.000000001
 78
    12
 79
     3
140
0.15625
141
0.0
147
0.0390625
148
0.000000001
170
     1
173
     1
178
     0
271
     3
272
     3
276
     2
284
    12
340
A6
  0
DIMSTYLE
105
48A
102
{ACAD_REACTORS
330
489
102
}
330
A
100
AcDbSymbolTableRecord
100
AcDbDimStyleTableRecord
  2
SLDDIMSTYLE5
 70
     0
 41
0.1625
 44
0.0
 45
0.000000001
 78
    12
 79
     3
140
0.15625
141
0.0
147
0.0390625
148
0.000000001
170
     1
173
     1
178
     0
271
     2
272
     2
276
     2
284
    12
340
A6
  0
DIMSTYLE
105
591
102
{ACAD_REACTORS
330
590
102
}
330
A
100
AcDbSymbolTableRecord
100
AcDbDimStyleTableRecord
  2
SLDDIMSTYLE6
 70
     0
 41
0.1625
 44
0.0
 45
0.000000001
 78
     4
 79
     1
140
0.15625
147
0.0390625
148
0.000000001
170
     1
172
     1
173
     1
178
     0
271
     2
272
     2
276
     2
284
    12
289
     0
340
A6
  0
ENDTAB
  0
TABLE
  2
BLOCK_RECORD
  5
1
330
0
100
AcDbSymbolTable
 70
    39
  0
BLOCK_RECORD
  5
1F
330
1
100
AcDbSymbolTableRecord
100
AcDbBlockTableRecord
  2
*Model_Space
340
22
  0
BLOCK_RECORD
  5
1B
330
1
100
AcDbSymbolTableRecord
100
AcDbBlockTableRecord
  2
*Paper_Space
340
1E
  0
BLOCK_RECORD
  5
23
330
1
100
AcDbSymbolTableRecord
100
AcDbBlockTableRecord
  2
*Paper_Space0
340
26
  0
BLOCK_RECORD
  5
A3
330
1
100
AcDbSymbolTableRecord
100
AcDbBlockTableRecord
  2
SW_NOTE_0
340
0
102
{BLKREFS
331
AB
102
}
  0
BLOCK_RECORD
  5
AC
330
1
100
AcDbSymbolTableRecord
100
AcDbBlockTableRecord
  2
SW_NOTE_1
340
0
102
{BLKREFS
331
B4
102
}
  0
BLOCK_RECORD
  5
B5
330
1
100
AcDbSymbolTableRecord
100
AcDbBlockTableRecord
  2
SW_NOTE_2
340
0
102
{BLKREFS
331
C5
102
}
  0
BLOCK_RECORD
  5
CB
330
1
100
AcDbSymbolTableRecord
100
AcDbBlockTableRecord
  2
SW_NOTE_3
340
0
102
{BLKREFS
331
D0
102
}
  0
BLOCK_RECORD
  5
D1
330
1
100
AcDbSymbolTableRecord
100
AcDbBlockTableRecord
  2
SW_NOTE_4
340
0
102
{BLKREFS
331
D6
102
}
  0
BLOCK_RECORD
  5
D7
330
1
100
AcDbSymbolTableRecord
100
AcDbBlockTableRecord
  2
SW_NOTE_5
340
0
102
{BLKREFS
331
DC
102
}
  0
BLOCK_RECORD
  5
15B
330
1
100
AcDbSymbolTableRecord
100
AcDbBlockTableRecord
  2
_D
340
0
  0
BLOCK_RECORD
  5
16F
330
1
100
AcDbSymbolTableRecord
100
AcDbBlockTableRecord
  2
_D_1
340
0
  0
BLOCK_RECORD
  5
183
330
1
100
AcDbSymbolTableRecord
100
AcDbBlockTableRecord
  2
_D_2
340
0
  0
BLOCK_RECORD
  5
197
330
1
100
AcDbSymbolTableRecord
100
AcDbBlockTableRecord
  2
_D_3
340
0
  0
BLOCK_RECORD
  5
1AC
330
1
100
AcDbSymbolTableRecord
100
AcDbBlockTableRecord
  2
_D_4
340
0
  0
BLOCK_RECORD
  5
1BE
330
1
100
AcDbSymbolTableRecord
100
AcDbBlockTableRecord
  2
_D_5
340
0
  0
BLOCK_RECORD
  5
1D0
330
1
100
AcDbSymbolTableRecord
100
AcDbBlockTableRecord
  2
_D_6
340
0
  0
BLOCK_RECORD
  5
1E7
330
1
100
AcDbSymbolTableRecord
100
AcDbBlockTableRecord
  2
SW_CENTERMARKSYMBOL_0
340
0
102
{BLKREFS
331
1F2
102
}
  0
BLOCK_RECORD
  5
1F3
330
1
100
AcDbSymbolTableRecord
100
AcDbBlockTableRecord
  2
SW_CENTERMARKSYMBOL_1
340
0
102
{BLKREFS
331
1FE
102
}
  0
BLOCK_RECORD
  5
1FF
330
1
100
AcDbSymbolTableRecord
100
AcDbBlockTableRecord
  2
SW_CENTERMARKSYMBOL_2
340
0
102
{BLKREFS
331
20A
102
}
  0
BLOCK_RECORD
  5
20B
330
1
100
AcDbSymbolTableRecord
100
AcDbBlockTableRecord
  2
SW_CENTERMARKSYMBOL_3
340
0
102
{BLKREFS
331
216
102
}
  0
BLOCK_RECORD
  5
260
330
1
100
AcDbSymbolTableRecord
100
AcDbBlockTableRecord
  2
_D_7
340
0
  0
BLOCK_RECORD
  5
275
330
1
100
AcDbSymbolTableRecord
100
AcDbBlockTableRecord
  2
_D_8
340
0
  0
BLOCK_RECORD
  5
289
330
1
100
AcDbSymbolTableRecord
100
AcDbBlockTableRecord
  2
_D_9
340
0
  0
BLOCK_RECORD
  5
29D
330
1
100
AcDbSymbolTableRecord
100
AcDbBlockTableRecord
  2
_D_10
340
0
  0
BLOCK_RECORD
  5
406
330
1
100
AcDbSymbolTableRecord
100
AcDbBlockTableRecord
  2
_D_11
340
0
  0
BLOCK_RECORD
  5
41A
330
1
100
AcDbSymbolTableRecord
100
AcDbBlockTableRecord
  2
_D_12
340
0
  0
BLOCK_RECORD
  5
42E
330
1
100
AcDbSymbolTableRecord
100
AcDbBlockTableRecord
  2
_D_13
340
0
  0
BLOCK_RECORD
  5
43F
330
1
100
AcDbSymbolTableRecord
100
AcDbBlockTableRecord
  2
_D_14
340
0
  0
BLOCK_RECORD
  5
450
330
1
100
AcDbSymbolTableRecord
100
AcDbBlockTableRecord
  2
_D_15
340
0
  0
BLOCK_RECORD
  5
464
330
1
100
AcDbSymbolTableRecord
100
AcDbBlockTableRecord
  2
_D_16
340
0
  0
BLOCK_RECORD
  5
479
330
1
100
AcDbSymbolTableRecord
100
AcDbBlockTableRecord
  2
_D_17
340
0
  0
BLOCK_RECORD
  5
48B
330
1
100
AcDbSymbolTableRecord
100
AcDbBlockTableRecord
  2
_D_18
340
0
  0
BLOCK_RECORD
  5
49A
330
1
100
AcDbSymbolTableRecord
100
AcDbBlockTableRecord
  2
SW_CENTERMARKSYMBOL_4
340
0
102
{BLKREFS
331
4A5
102
}
  0
BLOCK_RECORD
  5
4A6
330
1
100
AcDbSymbolTableRecord
100
AcDbBlockTableRecord
  2
SW_CENTERMARKSYMBOL_5
340
0
102
{BLKREFS
331
4B1
102
}
  0
BLOCK_RECORD
  5
4B2
330
1
100
AcDbSymbolTableRecord
100
AcDbBlockTableRecord
  2
SW_CENTERMARKSYMBOL_6
340
0
102
{BLKREFS
331
4BD
102
}
  0
BLOCK_RECORD
  5
4BE
330
1
100
AcDbSymbolTableRecord
100
AcDbBlockTableRecord
  2
SW_CENTERMARKSYMBOL_7
340
0
102
{BLKREFS
331
4C9
102
}
  0
BLOCK_RECORD
  5
56C
330
1
100
AcDbSymbolTableRecord
100
AcDbBlockTableRecord
  2
_D_19
340
0
  0
BLOCK_RECORD
  5
57F
330
1
100
AcDbSymbolTableRecord
100
AcDbBlockTableRecord
  2
_D_20
340
0
  0
BLOCK_RECORD
  5
592
330
1
100
AcDbSymbolTableRecord
100
AcDbBlockTableRecord
  2
_D_21
340
0
  0
BLOCK_RECORD
  5
5A4
330
1
100
AcDbSymbolTableRecord
100
AcDbBlockTableRecord
  2
_D_22
340
0
  0
BLOCK_RECORD
  5
5B6
330
1
100
AcDbSymbolTableRecord
100
AcDbBlockTableRecord
  2
_D_23
340
0
  0
ENDTAB
  0
ENDSEC
  0
SECTION
  2
BLOCKS
  0
BLOCK
  5
20
330
1F
100
AcDbEntity
  8
0
100
AcDbBlockBegin
  2
*Model_Space
 70
     0
 10
0.0
 20
0.0
 30
0.0
  3
*Model_Space
  1

  0
ENDBLK
  5
21
330
1F
100
AcDbEntity
  8
0
100
AcDbBlockEnd
  0
BLOCK
  5
1C
330
1B
100
AcDbEntity
 67
     1
  8
0
100
AcDbBlockBegin
  2
*Paper_Space
 70
     0
 10
0.0
 20
0.0
 30
0.0
  3
*Paper_Space
  1

  0
ENDBLK
  5
1D
330
1B
100
AcDbEntity
 67
     1
  8
0
100
AcDbBlockEnd
  0
BLOCK
  5
24
330
23
100
AcDbEntity
  8
0
100
AcDbBlockBegin
  2
*Paper_Space0
 70
     0
 10
0.0
 20
0.0
 30
0.0
  3
*Paper_Space0
  1

  0
ENDBLK
  5
25
330
23
100
AcDbEntity
  8
0
100
AcDbBlockEnd
  0
BLOCK
  5
A4
330
A3
100
AcDbEntity
  8
0
100
AcDbBlockBegin
  2
SW_NOTE_0
 70
     0
 10
0.0
 20
0.0
 30
0.0
  3
SW_NOTE_0
  1

  0
MTEXT
  5
A7
330
A3
100
AcDbEntity
  8
0
  6
Continuous
 62
     0
370
     0
100
AcDbMText
 10
1.2768554687
 20
0.2014168343
 30
0.0
 40
0.15625
 41
0.0
 71
     2
 72
     1
  1
DRAWING FOR REFERENCE
  7
SLDTEXTSTYLE0
 73
     1
 44
1.0
  0
MTEXT
  5
A8
330
A3
100
AcDbEntity
  8
0
  6
Continuous
 62
     0
370
     0
100
AcDbMText
 10
1.2854086615
 20
-0.0268098495
 30
0.0
 40
0.0775
 41
0.0
 71
     2
 72
     1
  1
WE RESERVE THE RIGHT TO MAKE CHANGES TO OUR
  7
SLDTEXTSTYLE0
 73
     1
 44
1.0
  0
MTEXT
  5
A9
330
A3
100
AcDbEntity
  8
0
  6
Continuous
 62
     0
370
     0
100
AcDbMText
 10
1.2790579558
 20
-0.1535224503
 30
0.0
 40
0.0775
 41
0.0
 71
     2
 72
     1
  1
STANDARD PRODUCTS. PLEASE CONSULT WITH BUD INDUSTRIES
  7
SLDTEXTSTYLE0
 73
     1
 44
1.0
  0
MTEXT
  5
AA
330
A3
100
AcDbEntity
  8
0
  6
Continuous
 62
     0
370
     0
100
AcDbMText
 10
1.2920820856
 20
-0.2802350511
 30
0.0
 40
0.0775
 41
0.0
 71
     2
 72
     1
  1
PRIOR TO USING THIS DRAWING FOR DESIGN PURPOSE.
  7
SLDTEXTSTYLE0
 73
     1
 44
1.0
  0
ENDBLK
  5
A5
330
A3
100
AcDbEntity
  8
0
100
AcDbBlockEnd
  0
BLOCK
  5
AD
330
AC
100
AcDbEntity
  8
0
100
AcDbBlockBegin
  2
SW_NOTE_1
 70
     0
 10
0.0
 20
0.0
 30
0.0
  3
SW_NOTE_1
  1

  0
MTEXT
  5
AF
330
AC
100
AcDbEntity
  8
0
  6
Continuous
 62
     0
370
     0
100
AcDbMText
 10
0.0
 20
0.2014168343
 30
0.0
 40
0.15625
 41
0.0
 71
     1
 72
     1
  1
OPTIONAL ACCESSORIES:
  7
SLDTEXTSTYLE0
 73
     1
 44
1.0
  0
MTEXT
  5
B0
330
AC
100
AcDbEntity
  8
0
  6
Continuous
 62
     0
370
     0
100
AcDbMText
 10
0.1171875
 20
-0.0040457588
 30
0.0
 40
0.15625
 41
0.0
 71
     1
 72
     1
  1
STEEL INTERNAL PANEL #PTX-25308
  7
SLDTEXTSTYLE0
 73
     1
 44
1.0
  0
MTEXT
  5
B1
330
AC
100
AcDbEntity
  8
0
  6
Continuous
 62
     0
370
     0
100
AcDbMText
 10
0.1171875
 20
-0.209508352
 30
0.0
 40
0.15625
 41
0.0
 71
     1
 72
     1
  1
PLASTIC INTERNAL PANEL #PTX-25308-P
  7
SLDTEXTSTYLE0
 73
     1
 44
1.0
  0
MTEXT
  5
B2
330
AC
100
AcDbEntity
  8
0
  6
Continuous
 62
     0
370
     0
100
AcDbMText
 10
0.1171875
 20
-0.4149709451
 30
0.0
 40
0.15625
 41
0.0
 71
     1
 72
     1
  1
STEEL EXTERNAL BRACKET #NBX-10922
  7
SLDTEXTSTYLE0
 73
     1
 44
1.0
  0
MTEXT
  5
B3
330
AC
100
AcDbEntity
  8
0
  6
Continuous
 62
     0
370
     0
100
AcDbMText
 10
0.1171875
 20
-0.6204335382
 30
0.0
 40
0.15625
 41
0.0
 71
     1
 72
     1
  1
PLASTIC EXTERNAL BRACKET #PIX-4117
  7
SLDTEXTSTYLE0
 73
     1
 44
1.0
  0
ENDBLK
  5
AE
330
AC
100
AcDbEntity
  8
0
100
AcDbBlockEnd
  0
BLOCK
  5
B6
330
B5
100
AcDbEntity
  8
0
100
AcDbBlockBegin
  2
SW_NOTE_2
 70
     0
 10
0.0
 20
0.0
 30
0.0
  3
SW_NOTE_2
  1

  0
MTEXT
  5
B8
330
B5
100
AcDbEntity
  8
0
  6
Continuous
 62
     0
370
     0
100
AcDbMText
 10
0.0
 20
0.2014168343
 30
0.0
 40
0.15625
 41
0.0
 71
     1
 72
     1
  1
NOTES:
  7
SLDTEXTSTYLE0
 73
     1
 44
1.0
  0
MTEXT
  5
B9
330
B5
100
AcDbEntity
  8
0
  6
Continuous
 62
     0
370
     0
100
AcDbMText
 10
0.0
 20
-0.0040457588
 30
0.0
 40
0.15625
 41
0.0
 71
     1
 72
     1
  1
1- MATERIAL:  BODY - POLYCARBONATE WITH 10% FIBERGLASS
  7
SLDTEXTSTYLE0
 73
     1
 44
1.0
  0
MTEXT
  5
BA
330
B5
100
AcDbEntity
  8
0
  6
Continuous
 62
     0
370
     0
100
AcDbMText
 10
1.2890625
 20
-0.209508352
 30
0.0
 40
0.15625
 41
0.0
 71
     1
 72
     1
  1
COVER - POLYCARBONATE
  7
SLDTEXTSTYLE0
 73
     1
 44
1.0
  0
MTEXT
  5
BC
330
B5
100
AcDbEntity
  8
0
  6
Continuous
 62
     0
370
     0
100
AcDbMText
 10
0.0
 20
-0.6204335382
 30
0.0
 40
0.15625
 41
0.0
 71
     1
 72
     1
  1
2- COLOR:  NO SUFFIX - GRAY BODY & GRAY COVER
  7
SLDTEXTSTYLE1
 73
     1
 44
1.0
  0
MTEXT
  5
BD
330
B5
100
AcDbEntity
  8
0
  6
Continuous
 62
     0
370
     0
100
AcDbMText
 10
1.11328125
 20
-0.8258961314
 30
0.0
 40
0.15625
 41
0.0
 71
     1
 72
     1
  1
(-C) SUFFIX - GRAY BODY & CLEAR COVER
  7
SLDTEXTSTYLE0
 73
     1
 44
1.0
  0
MTEXT
  5
BE
330
B5
100
AcDbEntity
  8
0
  6
Continuous
 62
     0
370
     0
100
AcDbMText
 10
0.0
 20
-1.2368213177
 30
0.0
 40
0.15625
 41
0.0
 71
     1
 72
     1
  1
3- COVER ATTACHES WITH NON-METALLIC CAPTIVE SCREWS
  7
SLDTEXTSTYLE0
 73
     1
 44
1.0
  0
MTEXT
  5
BF
330
B5
100
AcDbEntity
  8
0
  6
Continuous
 62
     0
370
     0
100
AcDbMText
 10
0.3515625
 20
-1.4422839108
 30
0.0
 40
0.15625
 41
0.0
 71
     1
 72
     1
  1
1.4"[36.5mm]  LENGTH (ITEMS NOT SHOWN)
  7
SLDTEXTSTYLE0
 73
     1
 44
1.0
  0
MTEXT
  5
C0
330
B5
100
AcDbEntity
  8
0
  6
Continuous
 62
     0
370
     0
100
AcDbMText
 10
0.41015625
 20
-1.647746504
 30
0.0
 40
0.15625
 41
0.0
 71
     1
 72
     1
  1
GASKET IS INSTALLED IN COVER
  7
SLDTEXTSTYLE0
 73
     1
 44
1.0
  0
MTEXT
  5
C2
330
B5
100
AcDbEntity
  8
0
  6
Continuous
 62
     0
370
     0
100
AcDbMText
 10
0.0
 20
-2.0586716903
 30
0.0
 40
0.15625
 41
0.0
 71
     1
 72
     1
  1
4- SUPPLIED WITH TWO M4 x 8mm LG. PAN HEAD SCREWS
  7
SLDTEXTSTYLE2
 73
     1
 44
1.0
  0
MTEXT
  5
C3
330
B5
100
AcDbEntity
  8
0
  6
Continuous
 62
     0
370
     0
100
AcDbMText
 10
0.41015625
 20
-2.2641342834
 30
0.0
 40
0.15625
 41
0.0
 71
     1
 72
     1
  1
(ITEMS NOT SHOWN)
  7
SLDTEXTSTYLE0
 73
     1
 44
1.0
  0
MTEXT
  5
C4
330
B5
100
AcDbEntity
  8
0
  6
Continuous
 62
     0
370
     0
100
AcDbMText
 10
0.0
 20
-2.6750594697
 30
0.0
 40
0.15625
 41
0.0
 71
     1
 72
     1
  1
5- DIMENSIONS ARE INCH [MM]
  7
SLDTEXTSTYLE0
 73
     1
 44
1.0
  0
ENDBLK
  5
B7
330
B5
100
AcDbEntity
  8
0
100
AcDbBlockEnd
  0
BLOCK
  5
CC
330
CB
100
AcDbEntity
  8
0
100
AcDbBlockBegin
  2
SW_NOTE_3
 70
     0
 10
0.0
 20
0.0
 30
0.0
  3
SW_NOTE_3
  1

  0
MTEXT
  5
CE
330
CB
100
AcDbEntity
  8
0
  6
Continuous
 62
     0
370
     0
100
AcDbMText
 10
0.2368164062
 20
0.2014168343
 30
0.0
 40
0.15625
 41
0.0
 71
     2
 72
     1
  1
PART
  7
SLDTEXTSTYLE0
 73
     1
 44
1.0
  0
MTEXT
  5
CF
330
CB
100
AcDbEntity
  8
0
  6
Continuous
 62
     0
370
     0
100
AcDbMText
 10
0.2347140875
 20
-0.0040457588
 30
0.0
 40
0.15625
 41
0.0
 71
     2
 72
     1
  1
NAME
  7
SLDTEXTSTYLE0
 73
     1
 44
1.0
  0
ENDBLK
  5
CD
330
CB
100
AcDbEntity
  8
0
100
AcDbBlockEnd
  0
BLOCK
  5
D2
330
D1
100
AcDbEntity
  8
0
100
AcDbBlockBegin
  2
SW_NOTE_4
 70
     0
 10
0.0
 20
0.0
 30
0.0
  3
SW_NOTE_4
  1

  0
MTEXT
  5
D4
330
D1
100
AcDbEntity
  8
0
  6
Continuous
 62
     0
370
     0
100
AcDbMText
 10
0.2368164063
 20
0.2014168343
 30
0.0
 40
0.15625
 41
0.0
 71
     2
 72
     1
  1
PART
  7
SLDTEXTSTYLE0
 73
     1
 44
1.0
  0
MTEXT
  5
D5
330
D1
100
AcDbEntity
  8
0
  6
Continuous
 62
     0
370
     0
100
AcDbMText
 10
0.2438693602
 20
-0.0040457588
 30
0.0
 40
0.15625
 41
0.0
 71
     2
 72
     1
  1
No.
  7
SLDTEXTSTYLE0
 73
     1
 44
1.0
  0
ENDBLK
  5
D3
330
D1
100
AcDbEntity
  8
0
100
AcDbBlockEnd
  0
BLOCK
  5
D8
330
D7
100
AcDbEntity
  8
0
100
AcDbBlockBegin
  2
SW_NOTE_5
 70
     0
 10
0.0
 20
0.0
 30
0.0
  3
SW_NOTE_5
  1

  0
MTEXT
  5
DA
330
D7
100
AcDbEntity
  8
0
  6
Continuous
 62
     0
370
     0
100
AcDbMText
 10
0.458984375
 20
0.2014168343
 30
0.0
 40
0.15625
 41
0.0
 71
     2
 72
     1
  1
REVISION
  7
SLDTEXTSTYLE0
 73
     1
 44
1.0
  0
MTEXT
  5
DB
330
D7
100
AcDbEntity
  8
0
  6
Continuous
 62
     0
370
     0
100
AcDbMText
 10
0.4418674045
 20
-0.0040457588
 30
0.0
 40
0.15625
 41
0.0
 71
     2
 72
     1
  1
DATE
  7
SLDTEXTSTYLE0
 73
     1
 44
1.0
  0
ENDBLK
  5
D9
330
D7
100
AcDbEntity
  8
0
100
AcDbBlockEnd
  0
BLOCK
  5
15C
330
15B
100
AcDbEntity
  8
0
100
AcDbBlockBegin
  2
_D
 70
     0
 10
0.0
 20
0.0
 30
0.0
  3
_D
  1

  0
SOLID
  5
15E
330
15B
100
AcDbEntity
  8
0
  6
Continuous
 62
     7
370
    18
100
AcDbTrace
 10
1.095557329
 20
10.7706074304
 30
0.0
 11
1.070557329
 21
10.6081074304
 31
0.0
 12
1.120557329
 22
10.6081074304
 32
0.0
 13
1.120557329
 23
10.6081074304
 33
0.0
  0
SOLID
  5
15F
330
15B
100
AcDbEntity
  8
0
  6
Continuous
 62
     7
370
    18
100
AcDbTrace
 10
1.095557329
 20
6.439898769
 30
0.0
 11
1.120557329
 21
6.602398769
 31
0.0
 12
1.070557329
 22
6.602398769
 32
0.0
 13
1.070557329
 23
6.602398769
 33
0.0
  0
LINE
  5
160
330
15B
100
AcDbEntity
  8
0
  6
Continuous
 62
     7
370
    18
100
AcDbLine
 10
0.9223802566
 20
8.6040594989
 30
0.0
 11
0.8747728352
 21
8.6040594989
 31
0.0
  0
LINE
  5
161
330
15B
100
AcDbEntity
  8
0
  6
Continuous
 62
     7
370
    18
100
AcDbLine
 10
0.8747728352
 20
8.6040594989
 30
0.0
 11
0.8747728352
 21
8.3560126164
 31
0.0
  0
LINE
  5
162
330
15B
100
AcDbEntity
  8
0
  6
Continuous
 62
     7
370
    18
100
AcDbLine
 10
0.8747728352
 20
8.3560126164
 30
0.0
 11
0.9223802566
 21
8.3560126164
 31
0.0
  0
LINE
  5
163
330
15B
100
AcDbEntity
  8
0
  6
Continuous
 62
     7
370
    18
100
AcDbLine
 10
1.2687344242
 20
8.6040594989
 30
0.0
 11
1.3163418456
 21
8.6040594989
 31
0.0
  0
LINE
  5
164
330
15B
100
AcDbEntity
  8
0
  6
Continuous
 62
     7
370
    18
100
AcDbLine
 10
1.3163418456
 20
8.6040594989
 30
0.0
 11
1.3163418456
 21
8.3560126164
 31
0.0
  0
LINE
  5
165
330
15B
100
AcDbEntity
  8
0
  6
Continuous
 62
     7
370
    18
100
AcDbLine
 10
1.3163418456
 20
8.3560126164
 30
0.0
 11
1.2687344242
 21
8.3560126164
 31
0.0
  0
LINE
  5
166
330
15B
100
AcDbEntity
  8
0
  6
Continuous
 62
     7
370
    18
100
AcDbLine
 10
2.8548715157
 20
10.7706074304
 30
0.0
 11
0.939307329
 21
10.7706074304
 31
0.0
  0
LINE
  5
167
330
15B
100
AcDbEntity
  8
0
  6
Continuous
 62
     7
370
    18
100
AcDbLine
 10
2.8548715157
 20
6.439898769
 30
0.0
 11
0.939307329
 21
6.439898769
 31
0.0
  0
LINE
  5
168
330
15B
100
AcDbEntity
  8
0
  6
Continuous
 62
     7
370
    18
100
AcDbLine
 10
1.095557329
 20
10.7706074304
 30
0.0
 11
1.095557329
 21
8.8862318142
 31
0.0
  0
LINE
  5
169
330
15B
100
AcDbEntity
  8
0
  6
Continuous
 62
     7
370
    18
100
AcDbLine
 10
1.095557329
 20
6.439898769
 30
0.0
 11
1.095557329
 21
8.3242743852
 31
0.0
  0
MTEXT
  5
16A
330
15B
100
AcDbEntity
  8
0
  6
Continuous
 62
     7
370
    18
100
AcDbMText
 10
0.8280334692
 20
8.8396017833
 30
0.0
 40
0.15625
 41
0.0
 71
     1
 72
     1
  1

  7
SLDTEXTSTYLE0
 73
     1
 44
1.0
  0
MTEXT
  5
16B
330
15B
100
AcDbEntity
  8
0
  6
Continuous
 62
     7
370
    18
100
AcDbMText
 10
0.8935174036
 20
8.8372146189
 30
0.0
 40
0.15625
 41
0.0
 71
     1
 72
     1
  1
4.33
  7
SLDTEXTSTYLE0
 73
     1
 44
1.0
  0
MTEXT
  5
16C
330
15B
100
AcDbEntity
  8
0
  6
Continuous
 62
     7
370
    18
100
AcDbMText
 10
0.9223802566
 20
8.557429468
 30
0.0
 40
0.15625
 41
0.0
 71
     1
 72
     1
  1
110
  7
SLDTEXTSTYLE0
 73
     1
 44
1.0
  0
MTEXT
  5
16D
330
15B
100
AcDbEntity
  8
0
  6
Continuous
 62
     7
370
    18
100
AcDbMText
 10
1.4225430056
 20
8.8396017833
 30
0.0
 40
0.15625
 41
0.0
 71
     1
 72
     1
  1

  7
SLDTEXTSTYLE0
 73
     1
 44
1.0
  0
ENDBLK
  5
15D
330
15B
100
AcDbEntity
  8
0
100
AcDbBlockEnd
  0
BLOCK
  5
170
330
16F
100
AcDbEntity
  8
0
100
AcDbBlockBegin
  2
_D_1
 70
     0
 10
0.0
 20
0.0
 30
0.0
  3
_D_1
  1

  0
SOLID
  5
172
330
16F
100
AcDbEntity
  8
0
  6
Continuous
 62
     7
370
    18
100
AcDbTrace
 10
2.6024108858
 20
12.2055200015
 30
0.0
 11
2.7649108858
 21
12.1805200015
 31
0.0
 12
2.7649108858
 22
12.2305200015
 32
0.0
 13
2.7649108858
 23
12.2305200015
 33
0.0
  0
SOLID
  5
173
330
16F
100
AcDbEntity
  8
0
  6
Continuous
 62
     7
370
    18
100
AcDbTrace
 10
5.752017185
 20
12.2055200015
 30
0.0
 11
5.589517185
 21
12.2305200015
 31
0.0
 12
5.589517185
 22
12.1805200015
 32
0.0
 13
5.589517185
 23
12.1805200015
 33
0.0
  0
LINE
  5
174
330
16F
100
AcDbEntity
  8
0
  6
Continuous
 62
     7
370
    18
100
AcDbLine
 10
4.0617626691
 20
12.2043264008
 30
0.0
 11
4.0141552477
 21
12.2043264008
 31
0.0
  0
LINE
  5
175
330
16F
100
AcDbEntity
  8
0
  6
Continuous
 62
     7
370
    18
100
AcDbLine
 10
4.0141552477
 20
12.2043264008
 30
0.0
 11
4.0141552477
 21
11.9562795183
 31
0.0
  0
LINE
  5
176
330
16F
100
AcDbEntity
  8
0
  6
Continuous
 62
     7
370
    18
100
AcDbLine
 10
4.0141552477
 20
11.9562795183
 30
0.0
 11
4.0617626691
 21
11.9562795183
 31
0.0
  0
LINE
  5
177
330
16F
100
AcDbEntity
  8
0
  6
Continuous
 62
     7
370
    18
100
AcDbLine
 10
4.2926654475
 20
12.2043264008
 30
0.0
 11
4.3402728689
 21
12.2043264008
 31
0.0
  0
LINE
  5
178
330
16F
100
AcDbEntity
  8
0
  6
Continuous
 62
     7
370
    18
100
AcDbLine
 10
4.3402728689
 20
12.2043264008
 30
0.0
 11
4.3402728689
 21
11.9562795183
 31
0.0
  0
LINE
  5
179
330
16F
100
AcDbEntity
  8
0
  6
Continuous
 62
     7
370
    18
100
AcDbLine
 10
4.3402728689
 20
11.9562795183
 30
0.0
 11
4.2926654475
 21
11.9562795183
 31
0.0
  0
LINE
  5
17A
330
16F
100
AcDbEntity
  8
0
  6
Continuous
 62
     7
370
    18
100
AcDbLine
 10
2.6024108858
 20
10.5181468005
 30
0.0
 11
2.6024108858
 21
12.3617700015
 31
0.0
  0
LINE
  5
17B
330
16F
100
AcDbEntity
  8
0
  6
Continuous
 62
     7
370
    18
100
AcDbLine
 10
5.752017185
 20
10.5181468005
 30
0.0
 11
5.752017185
 21
12.3617700015
 31
0.0
  0
LINE
  5
17C
330
16F
100
AcDbEntity
  8
0
  6
Continuous
 62
     7
370
    18
100
AcDbLine
 10
2.6024108858
 20
12.2055200015
 30
0.0
 11
3.8771099697
 21
12.2055200015
 31
0.0
  0
LINE
  5
17D
330
16F
100
AcDbEntity
  8
0
  6
Continuous
 62
     7
370
    18
100
AcDbLine
 10
5.752017185
 20
12.2055200015
 30
0.0
 11
4.4773181011
 21
12.2055200015
 31
0.0
  0
MTEXT
  5
17E
330
16F
100
AcDbEntity
  8
0
  6
Continuous
 62
     7
370
    18
100
AcDbMText
 10
3.9674158817
 20
12.4398686851
 30
0.0
 40
0.15625
 41
0.0
 71
     1
 72
     1
  1

  7
SLDTEXTSTYLE0
 73
     1
 44
1.0
  0
MTEXT
  5
17F
330
16F
100
AcDbEntity
  8
0
  6
Continuous
 62
     7
370
    18
100
AcDbMText
 10
3.97517411
 20
12.4374815208
 30
0.0
 40
0.15625
 41
0.0
 71
     1
 72
     1
  1
3.15
  7
SLDTEXTSTYLE0
 73
     1
 44
1.0
  0
MTEXT
  5
180
330
16F
100
AcDbEntity
  8
0
  6
Continuous
 62
     7
370
    18
100
AcDbMText
 10
4.0617626691
 20
12.1576963698
 30
0.0
 40
0.15625
 41
0.0
 71
     1
 72
     1
  1
80
  7
SLDTEXTSTYLE0
 73
     1
 44
1.0
  0
MTEXT
  5
181
330
16F
100
AcDbEntity
  8
0
  6
Continuous
 62
     7
370
    18
100
AcDbMText
 10
4.4464740059
 20
12.4398686851
 30
0.0
 40
0.15625
 41
0.0
 71
     1
 72
     1
  1

  7
SLDTEXTSTYLE0
 73
     1
 44
1.0
  0
ENDBLK
  5
171
330
16F
100
AcDbEntity
  8
0
100
AcDbBlockEnd
  0
BLOCK
  5
184
330
183
100
AcDbEntity
  8
0
100
AcDbBlockBegin
  2
_D_2
 70
     0
 10
0.0
 20
0.0
 30
0.0
  3
_D_2
  1

  0
SOLID
  5
186
330
183
100
AcDbEntity
  8
0
  6
Continuous
 62
     7
370
    18
100
AcDbTrace
 10
1.8150083267
 20
6.6261192414
 30
0.0
 11
1.8400083267
 21
6.7886192414
 31
0.0
 12
1.7900083267
 22
6.7886192414
 32
0.0
 13
1.7900083267
 23
6.7886192414
 33
0.0
  0
SOLID
  5
187
330
183
100
AcDbEntity
  8
0
  6
Continuous
 62
     7
370
    18
100
AcDbTrace
 10
1.8150083267
 20
10.584386958
 30
0.0
 11
1.7900083267
 21
10.421886958
 31
0.0
 12
1.8400083267
 22
10.421886958
 32
0.0
 13
1.8400083267
 23
10.421886958
 33
0.0
  0
LINE
  5
188
330
183
100
AcDbEntity
  8
0
  6
Continuous
 62
     7
370
    18
100
AcDbLine
 10
1.5552427067
 20
8.6040594989
 30
0.0
 11
1.5076352853
 21
8.6040594989
 31
0.0
  0
LINE
  5
189
330
183
100
AcDbEntity
  8
0
  6
Continuous
 62
     7
370
    18
100
AcDbLine
 10
1.5076352853
 20
8.6040594989
 30
0.0
 11
1.5076352853
 21
8.3560126164
 31
0.0
  0
LINE
  5
18A
330
183
100
AcDbEntity
  8
0
  6
Continuous
 62
     7
370
    18
100
AcDbLine
 10
1.5076352853
 20
8.3560126164
 30
0.0
 11
1.5552427067
 21
8.3560126164
 31
0.0
  0
LINE
  5
18B
330
183
100
AcDbEntity
  8
0
  6
Continuous
 62
     7
370
    18
100
AcDbLine
 10
2.0747739467
 20
8.6040594989
 30
0.0
 11
2.1223813681
 21
8.6040594989
 31
0.0
  0
LINE
  5
18C
330
183
100
AcDbEntity
  8
0
  6
Continuous
 62
     7
370
    18
100
AcDbLine
 10
2.1223813681
 20
8.6040594989
 30
0.0
 11
2.1223813681
 21
8.3560126164
 31
0.0
  0
LINE
  5
18D
330
183
100
AcDbEntity
  8
0
  6
Continuous
 62
     7
370
    18
100
AcDbLine
 10
2.1223813681
 20
8.3560126164
 30
0.0
 11
2.0747739467
 21
8.3560126164
 31
0.0
  0
LINE
  5
18E
330
183
100
AcDbEntity
  8
0
  6
Continuous
 62
     7
370
    18
100
AcDbLine
 10
3.2773124606
 20
6.6261192414
 30
0.0
 11
1.6587583267
 21
6.6261192414
 31
0.0
  0
LINE
  5
18F
330
183
100
AcDbEntity
  8
0
  6
Continuous
 62
     7
370
    18
100
AcDbLine
 10
3.2773124606
 20
10.584386958
 30
0.0
 11
1.6587583267
 21
10.584386958
 31
0.0
  0
LINE
  5
190
330
183
100
AcDbEntity
  8
0
  6
Continuous
 62
     7
370
    18
100
AcDbLine
 10
1.8150083267
 20
6.6261192414
 30
0.0
 11
1.8150083267
 21
8.3242743852
 31
0.0
  0
LINE
  5
191
330
183
100
AcDbEntity
  8
0
  6
Continuous
 62
     7
370
    18
100
AcDbLine
 10
1.8150083267
 20
10.584386958
 30
0.0
 11
1.8150083267
 21
8.8862318142
 31
0.0
  0
MTEXT
  5
192
330
183
100
AcDbEntity
  8
0
  6
Continuous
 62
     7
370
    18
100
AcDbMText
 10
1.4608959193
 20
8.8396017833
 30
0.0
 40
0.15625
 41
0.0
 71
     1
 72
     1
  1

  7
SLDTEXTSTYLE0
 73
     1
 44
1.0
  0
MTEXT
  5
193
330
183
100
AcDbEntity
  8
0
  6
Continuous
 62
     7
370
    18
100
AcDbMText
 10
1.6129683784
 20
8.8372146189
 30
0.0
 40
0.15625
 41
0.0
 71
     1
 72
     1
  1
3.96
  7
SLDTEXTSTYLE0
 73
     1
 44
1.0
  0
MTEXT
  5
194
330
183
100
AcDbEntity
  8
0
  6
Continuous
 62
     7
370
    18
100
AcDbMText
 10
1.5552427067
 20
8.557429468
 30
0.0
 40
0.15625
 41
0.0
 71
     1
 72
     1
  1
100.5
  7
SLDTEXTSTYLE0
 73
     1
 44
1.0
  0
MTEXT
  5
195
330
183
100
AcDbEntity
  8
0
  6
Continuous
 62
     7
370
    18
100
AcDbMText
 10
2.2285825051
 20
8.8396017833
 30
0.0
 40
0.15625
 41
0.0
 71
     1
 72
     1
  1

  7
SLDTEXTSTYLE0
 73
     1
 44
1.0
  0
ENDBLK
  5
185
330
183
100
AcDbEntity
  8
0
100
AcDbBlockEnd
  0
BLOCK
  5
198
330
197
100
AcDbEntity
  8
0
100
AcDbBlockBegin
  2
_D_3
 70
     0
 10
0.0
 20
0.0
 30
0.0
  3
_D_3
  1

  0
SOLID
  5
19A
330
197
100
AcDbEntity
  8
0
  6
Continuous
 62
     7
370
    18
100
AcDbTrace
 10
3.3897140354
 20
11.4707434412
 30
0.0
 11
3.5522140354
 21
11.4457434412
 31
0.0
 12
3.5522140354
 22
11.4957434412
 32
0.0
 13
3.5522140354
 23
11.4957434412
 33
0.0
  0
SOLID
  5
19B
330
197
100
AcDbEntity
  8
0
  6
Continuous
 62
     7
370
    18
100
AcDbTrace
 10
4.9647140354
 20
11.4707434412
 30
0.0
 11
4.8022140354
 21
11.4957434412
 31
0.0
 12
4.8022140354
 22
11.4457434412
 32
0.0
 13
4.8022140354
 23
11.4457434412
 33
0.0
  0
LINE
  5
19C
330
197
100
AcDbEntity
  8
0
  6
Continuous
 62
     7
370
    18
100
AcDbLine
 10
4.0617626691
 20
11.4695498404
 30
0.0
 11
4.0141552477
 21
11.4695498404
 31
0.0
  0
LINE
  5
19D
330
197
100
AcDbEntity
  8
0
  6
Continuous
 62
     7
370
    18
100
AcDbLine
 10
4.0141552477
 20
11.4695498404
 30
0.0
 11
4.0141552477
 21
11.221502958
 31
0.0
  0
LINE
  5
19E
330
197
100
AcDbEntity
  8
0
  6
Continuous
 62
     7
370
    18
100
AcDbLine
 10
4.0141552477
 20
11.221502958
 30
0.0
 11
4.0617626691
 21
11.221502958
 31
0.0
  0
LINE
  5
19F
330
197
100
AcDbEntity
  8
0
  6
Continuous
 62
     7
370
    18
100
AcDbLine
 10
4.2926654475
 20
11.4695498404
 30
0.0
 11
4.3402728689
 21
11.4695498404
 31
0.0
  0
LINE
  5
1A0
330
197
100
AcDbEntity
  8
0
  6
Continuous
 62
     7
370
    18
100
AcDbLine
 10
4.3402728689
 20
11.4695498404
 30
0.0
 11
4.3402728689
 21
11.221502958
 31
0.0
  0
LINE
  5
1A1
330
197
100
AcDbEntity
  8
0
  6
Continuous
 62
     7
370
    18
100
AcDbLine
 10
4.3402728689
 20
11.221502958
 30
0.0
 11
4.2926654475
 21
11.221502958
 31
0.0
  0
LINE
  5
1A2
330
197
100
AcDbEntity
  8
0
  6
Continuous
 62
     7
370
    18
100
AcDbLine
 10
3.3897140354
 20
8.6677530997
 30
0.0
 11
3.3897140354
 21
11.6269934412
 31
0.0
  0
LINE
  5
1A3
330
197
100
AcDbEntity
  8
0
  6
Continuous
 62
     7
370
    18
100
AcDbLine
 10
4.9647140354
 20
8.6677530997
 30
0.0
 11
4.9647140354
 21
11.6269934412
 31
0.0
  0
LINE
  5
1A4
330
197
100
AcDbEntity
  8
0
  6
Continuous
 62
     7
370
    18
100
AcDbLine
 10
3.3897140354
 20
11.4707434412
 30
0.0
 11
3.8771099697
 21
11.4707434412
 31
0.0
  0
LINE
  5
1A5
330
197
100
AcDbEntity
  8
0
  6
Continuous
 62
     7
370
    18
100
AcDbLine
 10
4.9647140354
 20
11.4707434412
 30
0.0
 11
4.4773181011
 21
11.4707434412
 31
0.0
  0
MTEXT
  5
1A6
330
197
100
AcDbEntity
  8
0
  6
Continuous
 62
     7
370
    18
100
AcDbMText
 10
3.9674158817
 20
11.7050921248
 30
0.0
 40
0.15625
 41
0.0
 71
     1
 72
     1
  1

  7
SLDTEXTSTYLE0
 73
     1
 44
1.0
  0
MTEXT
  5
1A7
330
197
100
AcDbEntity
  8
0
  6
Continuous
 62
     7
370
    18
100
AcDbMText
 10
3.97517411
 20
11.7027049605
 30
0.0
 40
0.15625
 41
0.0
 71
     1
 72
     1
  1
1.58
  7
SLDTEXTSTYLE0
 73
     1
 44
1.0
  0
MTEXT
  5
1A8
330
197
100
AcDbEntity
  8
0
  6
Continuous
 62
     7
370
    18
100
AcDbMText
 10
4.0617626691
 20
11.4229198095
 30
0.0
 40
0.15625
 41
0.0
 71
     1
 72
     1
  1
40
  7
SLDTEXTSTYLE0
 73
     1
 44
1.0
  0
MTEXT
  5
1A9
330
197
100
AcDbEntity
  8
0
  6
Continuous
 62
     7
370
    18
100
AcDbMText
 10
4.4464740059
 20
11.7050921248
 30
0.0
 40
0.15625
 41
0.0
 71
     1
 72
     1
  1

  7
SLDTEXTSTYLE0
 73
     1
 44
1.0
  0
ENDBLK
  5
199
330
197
100
AcDbEntity
  8
0
100
AcDbBlockEnd
  0
BLOCK
  5
1AD
330
1AC
100
AcDbEntity
  8
0
100
AcDbBlockBegin
  2
_D_4
 70
     0
 10
0.0
 20
0.0
 30
0.0
  3
_D_4
  1

  0
SOLID
  5
1AF
330
1AC
100
AcDbEntity
  8
0
  6
Continuous
 62
     7
370
    18
100
AcDbTrace
 10
5.0012903427
 20
8.6792018911
 30
0.0
 11
5.095743309
 21
8.8137748718
 31
0.0
 12
5.0509258597
 22
8.8359423308
 32
0.0
 13
5.0509258597
 23
8.8359423308
 33
0.0
  0
LINE
  5
1B0
330
1AC
100
AcDbEntity
  8
0
  6
Continuous
 62
     7
370
    18
100
AcDbLine
 10
6.7687495364
 20
11.6972894865
 30
0.0
 11
6.721142115
 21
11.6972894865
 31
0.0
  0
LINE
  5
1B1
330
1AC
100
AcDbEntity
  8
0
  6
Continuous
 62
     7
370
    18
100
AcDbLine
 10
6.721142115
 20
11.6972894865
 30
0.0
 11
6.721142115
 21
11.449242604
 31
0.0
  0
LINE
  5
1B2
330
1AC
100
AcDbEntity
  8
0
  6
Continuous
 62
     7
370
    18
100
AcDbLine
 10
6.721142115
 20
11.449242604
 30
0.0
 11
6.7687495364
 21
11.449242604
 31
0.0
  0
LINE
  5
1B3
330
1AC
100
AcDbEntity
  8
0
  6
Continuous
 62
     7
370
    18
100
AcDbLine
 10
7.0573779979
 20
11.6972894865
 30
0.0
 11
7.1049854193
 21
11.6972894865
 31
0.0
  0
LINE
  5
1B4
330
1AC
100
AcDbEntity
  8
0
  6
Continuous
 62
     7
370
    18
100
AcDbLine
 10
7.1049854193
 20
11.6972894865
 30
0.0
 11
7.1049854193
 21
11.449242604
 31
0.0
  0
LINE
  5
1B5
330
1AC
100
AcDbEntity
  8
0
  6
Continuous
 62
     7
370
    18
100
AcDbLine
 10
7.1049854193
 20
11.449242604
 30
0.0
 11
7.0573779979
 21
11.449242604
 31
0.0
  0
LINE
  5
1B6
330
1AC
100
AcDbEntity
  8
0
  6
Continuous
 62
     7
370
    18
100
AcDbLine
 10
5.0012903427
 20
8.6792018911
 30
0.0
 11
6.4946772506
 21
11.6984830873
 31
0.0
  0
LINE
  5
1B7
330
1AC
100
AcDbEntity
  8
0
  6
Continuous
 62
     7
370
    18
100
AcDbLine
 10
6.4946772506
 20
11.6984830873
 30
0.0
 11
6.6509272506
 21
11.6984830873
 31
0.0
  0
MTEXT
  5
1B8
330
1AC
100
AcDbEntity
  8
0
  6
Continuous
 62
     7
370
    18
100
AcDbMText
 10
6.6509272506
 20
11.9304446065
 30
0.0
 40
0.15625
 41
0.0
 71
     1
 72
     1
  1
%%c
  7
SLDTEXTSTYLE0
 73
     1
 44
1.0
  0
MTEXT
  5
1B9
330
1AC
100
AcDbEntity
  8
0
  6
Continuous
 62
     7
370
    18
100
AcDbMText
 10
6.8865717763
 20
11.9304446065
 30
0.0
 40
0.15625
 41
0.0
 71
     1
 72
     1
  1
.14
  7
SLDTEXTSTYLE0
 73
     1
 44
1.0
  0
MTEXT
  5
1BA
330
1AC
100
AcDbEntity
  8
0
  6
Continuous
 62
     7
370
    18
100
AcDbMText
 10
6.7687495364
 20
11.6506594556
 30
0.0
 40
0.15625
 41
0.0
 71
     1
 72
     1
  1
3.6
  7
SLDTEXTSTYLE0
 73
     1
 44
1.0
  0
MTEXT
  5
1BC
330
1AC
100
AcDbEntity
  8
0
  6
Continuous
 62
     7
370
    18
100
AcDbMText
 10
7.2337940108
 20
11.9328317709
 30
0.0
 40
0.15625
 41
0.0
 71
     1
 72
     1
  1
X 0.270 DP 2X
  7
SLDTEXTSTYLE4
 73
     1
 44
1.0
  0
ENDBLK
  5
1AE
330
1AC
100
AcDbEntity
  8
0
100
AcDbBlockEnd
  0
BLOCK
  5
1BF
330
1BE
100
AcDbEntity
  8
0
100
AcDbBlockBegin
  2
_D_5
 70
     0
 10
0.0
 20
0.0
 30
0.0
  3
_D_5
  1

  0
SOLID
  5
1C1
330
1BE
100
AcDbEntity
  8
0
  6
Continuous
 62
     7
370
    18
100
AcDbTrace
 10
3.9651748968
 20
8.9145497271
 30
0.0
 11
3.8939110453
 21
9.0627142082
 31
0.0
 12
3.8526714949
 22
9.0344423231
 32
0.0
 13
3.8526714949
 23
9.0344423231
 33
0.0
  0
LINE
  5
1C2
330
1BE
100
AcDbEntity
  8
0
  6
Continuous
 62
     7
370
    18
100
AcDbLine
 10
1.0513215882
 20
12.0237636744
 30
0.0
 11
1.0037141668
 21
12.0237636744
 31
0.0
  0
LINE
  5
1C3
330
1BE
100
AcDbEntity
  8
0
  6
Continuous
 62
     7
370
    18
100
AcDbLine
 10
1.0037141668
 20
12.0237636744
 30
0.0
 11
1.0037141668
 21
11.775716792
 31
0.0
  0
LINE
  5
1C4
330
1BE
100
AcDbEntity
  8
0
  6
Continuous
 62
     7
370
    18
100
AcDbLine
 10
1.0037141668
 20
11.775716792
 30
0.0
 11
1.0513215882
 21
11.775716792
 31
0.0
  0
LINE
  5
1C5
330
1BE
100
AcDbEntity
  8
0
  6
Continuous
 62
     7
370
    18
100
AcDbLine
 10
1.4554014619
 20
12.0237636744
 30
0.0
 11
1.5030088833
 21
12.0237636744
 31
0.0
  0
LINE
  5
1C6
330
1BE
100
AcDbEntity
  8
0
  6
Continuous
 62
     7
370
    18
100
AcDbLine
 10
1.5030088833
 20
12.0237636744
 30
0.0
 11
1.5030088833
 21
11.775716792
 31
0.0
  0
LINE
  5
1C7
330
1BE
100
AcDbEntity
  8
0
  6
Continuous
 62
     7
370
    18
100
AcDbLine
 10
1.5030088833
 20
11.775716792
 30
0.0
 11
1.4554014619
 21
11.775716792
 31
0.0
  0
LINE
  5
1C8
330
1BE
100
AcDbEntity
  8
0
  6
Continuous
 62
     7
370
    18
100
AcDbLine
 10
3.9651748968
 20
8.9145497271
 30
0.0
 11
2.073022951
 21
11.6745883659
 31
0.0
  0
LINE
  5
1C9
330
1BE
100
AcDbEntity
  8
0
  6
Continuous
 62
     7
370
    18
100
AcDbLine
 10
2.073022951
 20
11.6745883659
 30
0.0
 11
1.955835451
 21
11.6745883659
 31
0.0
  0
MTEXT
  5
1CA
330
1BE
100
AcDbEntity
  8
0
  6
Continuous
 62
     7
370
    18
100
AcDbMText
 10
0.9912250085
 20
12.2569187945
 30
0.0
 40
0.15625
 41
0.0
 71
     1
 72
     1
  1
%%c
  7
SLDTEXTSTYLE0
 73
     1
 44
1.0
  0
MTEXT
  5
1CB
330
1BE
100
AcDbEntity
  8
0
  6
Continuous
 62
     7
370
    18
100
AcDbMText
 10
1.2268695342
 20
12.2569187945
 30
0.0
 40
0.15625
 41
0.0
 71
     1
 72
     1
  1
.75
  7
SLDTEXTSTYLE0
 73
     1
 44
1.0
  0
MTEXT
  5
1CC
330
1BE
100
AcDbEntity
  8
0
  6
Continuous
 62
     7
370
    18
100
AcDbMText
 10
1.0513215882
 20
11.9771336435
 30
0.0
 40
0.15625
 41
0.0
 71
     1
 72
     1
  1
19.1
  7
SLDTEXTSTYLE0
 73
     1
 44
1.0
  0
MTEXT
  5
1CD
330
1BE
100
AcDbEntity
  8
0
  6
Continuous
 62
     7
370
    18
100
AcDbMText
 10
0.6290125761
 20
11.6973485183
 30
0.0
 40
0.15625
 41
0.0
 71
     1
 72
     1
  1
REF. DOMED
  7
SLDTEXTSTYLE0
 73
     1
 44
1.0
  0
MTEXT
  5
1CE
330
1BE
100
AcDbEntity
  8
0
  6
Continuous
 62
     7
370
    18
100
AcDbMText
 10
0.6831575256
 20
11.4493016359
 30
0.0
 40
0.15625
 41
0.0
 71
     1
 72
     1
  1
GATE AREA
  7
SLDTEXTSTYLE0
 73
     1
 44
1.0
  0
ENDBLK
  5
1C0
330
1BE
100
AcDbEntity
  8
0
100
AcDbBlockEnd
  0
BLOCK
  5
1D1
330
1D0
100
AcDbEntity
  8
0
100
AcDbBlockBegin
  2
_D_6
 70
     0
 10
0.0
 20
0.0
 30
0.0
  3
_D_6
  1

  0
SOLID
  5
1D3
330
1D0
100
AcDbEntity
  8
0
  6
Continuous
 62
     7
370
    18
100
AcDbTrace
 10
6.3466483131
 20
10.1800562493
 30
0.0
 11
6.3216483131
 21
10.0175562493
 31
0.0
 12
6.3716483131
 22
10.0175562493
 32
0.0
 13
6.3716483131
 23
10.0175562493
 33
0.0
  0
SOLID
  5
1D4
330
1D0
100
AcDbEntity
  8
0
  6
Continuous
 62
     7
370
    18
100
AcDbTrace
 10
6.3466483131
 20
7.0304499501
 30
0.0
 11
6.3716483131
 21
7.1929499501
 31
0.0
 12
6.3216483131
 22
7.1929499501
 32
0.0
 13
6.3216483131
 23
7.1929499501
 33
0.0
  0
LINE
  5
1D5
330
1D0
100
AcDbEntity
  8
0
  6
Continuous
 62
     7
370
    18
100
AcDbLine
 10
6.2311969468
 20
8.6040594989
 30
0.0
 11
6.1835895254
 21
8.6040594989
 31
0.0
  0
LINE
  5
1D6
330
1D0
100
AcDbEntity
  8
0
  6
Continuous
 62
     7
370
    18
100
AcDbLine
 10
6.1835895254
 20
8.6040594989
 30
0.0
 11
6.1835895254
 21
8.3560126164
 31
0.0
  0
LINE
  5
1D7
330
1D0
100
AcDbEntity
  8
0
  6
Continuous
 62
     7
370
    18
100
AcDbLine
 10
6.1835895254
 20
8.3560126164
 30
0.0
 11
6.2311969468
 21
8.3560126164
 31
0.0
  0
LINE
  5
1D8
330
1D0
100
AcDbEntity
  8
0
  6
Continuous
 62
     7
370
    18
100
AcDbLine
 10
6.4620997252
 20
8.6040594989
 30
0.0
 11
6.5097071466
 21
8.6040594989
 31
0.0
  0
LINE
  5
1D9
330
1D0
100
AcDbEntity
  8
0
  6
Continuous
 62
     7
370
    18
100
AcDbLine
 10
6.5097071466
 20
8.6040594989
 30
0.0
 11
6.5097071466
 21
8.3560126164
 31
0.0
  0
LINE
  5
1DA
330
1D0
100
AcDbEntity
  8
0
  6
Continuous
 62
     7
370
    18
100
AcDbLine
 10
6.5097071466
 20
8.3560126164
 30
0.0
 11
6.4620997252
 21
8.3560126164
 31
0.0
  0
LINE
  5
1DB
330
1D0
100
AcDbEntity
  8
0
  6
Continuous
 62
     7
370
    18
100
AcDbLine
 10
4.2397140354
 20
10.1800562493
 30
0.0
 11
6.5028983131
 21
10.1800562493
 31
0.0
  0
LINE
  5
1DC
330
1D0
100
AcDbEntity
  8
0
  6
Continuous
 62
     7
370
    18
100
AcDbLine
 10
4.2397140354
 20
7.0304499501
 30
0.0
 11
6.5028983131
 21
7.0304499501
 31
0.0
  0
LINE
  5
1DD
330
1D0
100
AcDbEntity
  8
0
  6
Continuous
 62
     7
370
    18
100
AcDbLine
 10
6.3466483131
 20
10.1800562493
 30
0.0
 11
6.3466483131
 21
8.8862318142
 31
0.0
  0
LINE
  5
1DE
330
1D0
100
AcDbEntity
  8
0
  6
Continuous
 62
     7
370
    18
100
AcDbLine
 10
6.3466483131
 20
7.0304499501
 30
0.0
 11
6.3466483131
 21
8.3242743852
 31
0.0
  0
MTEXT
  5
1DF
330
1D0
100
AcDbEntity
  8
0
  6
Continuous
 62
     7
370
    18
100
AcDbMText
 10
6.1368501594
 20
8.8396017833
 30
0.0
 40
0.15625
 41
0.0
 71
     1
 72
     1
  1

  7
SLDTEXTSTYLE0
 73
     1
 44
1.0
  0
MTEXT
  5
1E0
330
1D0
100
AcDbEntity
  8
0
  6
Continuous
 62
     7
370
    18
100
AcDbMText
 10
6.1446083877
 20
8.8372146189
 30
0.0
 40
0.15625
 41
0.0
 71
     1
 72
     1
  1
3.15
  7
SLDTEXTSTYLE0
 73
     1
 44
1.0
  0
MTEXT
  5
1E1
330
1D0
100
AcDbEntity
  8
0
  6
Continuous
 62
     7
370
    18
100
AcDbMText
 10
6.2311969468
 20
8.557429468
 30
0.0
 40
0.15625
 41
0.0
 71
     1
 72
     1
  1
80
  7
SLDTEXTSTYLE0
 73
     1
 44
1.0
  0
MTEXT
  5
1E2
330
1D0
100
AcDbEntity
  8
0
  6
Continuous
 62
     7
370
    18
100
AcDbMText
 10
6.6159082836
 20
8.8396017833
 30
0.0
 40
0.15625
 41
0.0
 71
     1
 72
     1
  1

  7
SLDTEXTSTYLE0
 73
     1
 44
1.0
  0
ENDBLK
  5
1D2
330
1D0
100
AcDbEntity
  8
0
100
AcDbBlockEnd
  0
BLOCK
  5
1E8
330
1E7
100
AcDbEntity
  8
0
100
AcDbBlockBegin
  2
SW_CENTERMARKSYMBOL_0
 70
     0
 10
0.0
 20
0.0
 30
0.0
  3
SW_CENTERMARKSYMBOL_0
  1

  0
LINE
  5
1EA
330
1E7
100
AcDbEntity
  8
0
  6
Continuous
 62
     0
370
    18
100
AcDbLine
 10
0.0
 20
0.0
 30
0.0
 11
0.0
 21
0.1
 31
0.0
  0
LINE
  5
1EB
330
1E7
100
AcDbEntity
  8
0
  6
Continuous
 62
     0
370
    18
100
AcDbLine
 10
0.0
 20
0.0
 30
0.0
 11
-0.1
 21
0.0
 31
0.0
  0
LINE
  5
1EC
330
1E7
100
AcDbEntity
  8
0
  6
Continuous
 62
     0
370
    18
100
AcDbLine
 10
0.0
 20
0.0
 30
0.0
 11
0.0
 21
-0.1
 31
0.0
  0
LINE
  5
1ED
330
1E7
100
AcDbEntity
  8
0
  6
Continuous
 62
     0
370
    18
100
AcDbLine
 10
0.0
 20
0.0
 30
0.0
 11
0.1
 21
0.0
 31
0.0
  0
LINE
  5
1EE
330
1E7
100
AcDbEntity
  8
0
  6
Continuous
 62
     0
370
    18
100
AcDbLine
 10
0.0
 20
0.1
 30
0.0
 11
0.0
 21
0.1787401575
 31
0.0
  0
LINE
  5
1EF
330
1E7
100
AcDbEntity
  8
0
  6
Continuous
 62
     0
370
    18
100
AcDbLine
 10
-0.1
 20
0.0
 30
0.0
 11
-0.1787401575
 21
0.0
 31
0.0
  0
LINE
  5
1F0
330
1E7
100
AcDbEntity
  8
0
  6
Continuous
 62
     0
370
    18
100
AcDbLine
 10
0.0
 20
-0.1
 30
0.0
 11
0.0
 21
-0.1787401575
 31
0.0
  0
LINE
  5
1F1
330
1E7
100
AcDbEntity
  8
0
  6
Continuous
 62
     0
370
    18
100
AcDbLine
 10
0.1
 20
0.0
 30
0.0
 11
0.1787401575
 21
0.0
 31
0.0
  0
ENDBLK
  5
1E9
330
1E7
100
AcDbEntity
  8
0
100
AcDbBlockEnd
  0
BLOCK
  5
1F4
330
1F3
100
AcDbEntity
  8
0
100
AcDbBlockBegin
  2
SW_CENTERMARKSYMBOL_1
 70
     0
 10
0.0
 20
0.0
 30
0.0
  3
SW_CENTERMARKSYMBOL_1
  1

  0
LINE
  5
1F6
330
1F3
100
AcDbEntity
  8
0
  6
Continuous
 62
     0
370
    18
100
AcDbLine
 10
0.0
 20
0.0
 30
0.0
 11
0.0
 21
0.1
 31
0.0
  0
LINE
  5
1F7
330
1F3
100
AcDbEntity
  8
0
  6
Continuous
 62
     0
370
    18
100
AcDbLine
 10
0.0
 20
0.0
 30
0.0
 11
-0.1
 21
0.0
 31
0.0
  0
LINE
  5
1F8
330
1F3
100
AcDbEntity
  8
0
  6
Continuous
 62
     0
370
    18
100
AcDbLine
 10
0.0
 20
0.0
 30
0.0
 11
0.0
 21
-0.1
 31
0.0
  0
LINE
  5
1F9
330
1F3
100
AcDbEntity
  8
0
  6
Continuous
 62
     0
370
    18
100
AcDbLine
 10
0.0
 20
0.0
 30
0.0
 11
0.1
 21
0.0
 31
0.0
  0
LINE
  5
1FA
330
1F3
100
AcDbEntity
  8
0
  6
Continuous
 62
     0
370
    18
100
AcDbLine
 10
0.0
 20
0.1
 30
0.0
 11
0.0
 21
0.1787401575
 31
0.0
  0
LINE
  5
1FB
330
1F3
100
AcDbEntity
  8
0
  6
Continuous
 62
     0
370
    18
100
AcDbLine
 10
-0.1
 20
0.0
 30
0.0
 11
-0.1787401575
 21
0.0
 31
0.0
  0
LINE
  5
1FC
330
1F3
100
AcDbEntity
  8
0
  6
Continuous
 62
     0
370
    18
100
AcDbLine
 10
0.0
 20
-0.1
 30
0.0
 11
0.0
 21
-0.1787401575
 31
0.0
  0
LINE
  5
1FD
330
1F3
100
AcDbEntity
  8
0
  6
Continuous
 62
     0
370
    18
100
AcDbLine
 10
0.1
 20
0.0
 30
0.0
 11
0.1787401575
 21
0.0
 31
0.0
  0
ENDBLK
  5
1F5
330
1F3
100
AcDbEntity
  8
0
100
AcDbBlockEnd
  0
BLOCK
  5
200
330
1FF
100
AcDbEntity
  8
0
100
AcDbBlockBegin
  2
SW_CENTERMARKSYMBOL_2
 70
     0
 10
0.0
 20
0.0
 30
0.0
  3
SW_CENTERMARKSYMBOL_2
  1

  0
LINE
  5
202
330
1FF
100
AcDbEntity
  8
0
  6
Continuous
 62
     0
370
    18
100
AcDbLine
 10
0.0
 20
0.0
 30
0.0
 11
0.0
 21
0.1
 31
0.0
  0
LINE
  5
203
330
1FF
100
AcDbEntity
  8
0
  6
Continuous
 62
     0
370
    18
100
AcDbLine
 10
0.0
 20
0.0
 30
0.0
 11
-0.1
 21
0.0
 31
0.0
  0
LINE
  5
204
330
1FF
100
AcDbEntity
  8
0
  6
Continuous
 62
     0
370
    18
100
AcDbLine
 10
0.0
 20
0.0
 30
0.0
 11
0.0
 21
-0.1
 31
0.0
  0
LINE
  5
205
330
1FF
100
AcDbEntity
  8
0
  6
Continuous
 62
     0
370
    18
100
AcDbLine
 10
0.0
 20
0.0
 30
0.0
 11
0.1
 21
0.0
 31
0.0
  0
LINE
  5
206
330
1FF
100
AcDbEntity
  8
0
  6
Continuous
 62
     0
370
    18
100
AcDbLine
 10
0.0
 20
0.1
 30
0.0
 11
0.0
 21
0.1787401575
 31
0.0
  0
LINE
  5
207
330
1FF
100
AcDbEntity
  8
0
  6
Continuous
 62
     0
370
    18
100
AcDbLine
 10
-0.1
 20
0.0
 30
0.0
 11
-0.1787401575
 21
0.0
 31
0.0
  0
LINE
  5
208
330
1FF
100
AcDbEntity
  8
0
  6
Continuous
 62
     0
370
    18
100
AcDbLine
 10
0.0
 20
-0.1
 30
0.0
 11
0.0
 21
-0.1787401575
 31
0.0
  0
LINE
  5
209
330
1FF
100
AcDbEntity
  8
0
  6
Continuous
 62
     0
370
    18
100
AcDbLine
 10
0.1
 20
0.0
 30
0.0
 11
0.1787401575
 21
0.0
 31
0.0
  0
ENDBLK
  5
201
330
1FF
100
AcDbEntity
  8
0
100
AcDbBlockEnd
  0
BLOCK
  5
20C
330
20B
100
AcDbEntity
  8
0
100
AcDbBlockBegin
  2
SW_CENTERMARKSYMBOL_3
 70
     0
 10
0.0
 20
0.0
 30
0.0
  3
SW_CENTERMARKSYMBOL_3
  1

  0
LINE
  5
20E
330
20B
100
AcDbEntity
  8
0
  6
Continuous
 62
     0
370
    18
100
AcDbLine
 10
0.0
 20
0.0
 30
0.0
 11
0.0
 21
0.1
 31
0.0
  0
LINE
  5
20F
330
20B
100
AcDbEntity
  8
0
  6
Continuous
 62
     0
370
    18
100
AcDbLine
 10
0.0
 20
0.0
 30
0.0
 11
-0.1
 21
0.0
 31
0.0
  0
LINE
  5
210
330
20B
100
AcDbEntity
  8
0
  6
Continuous
 62
     0
370
    18
100
AcDbLine
 10
0.0
 20
0.0
 30
0.0
 11
0.0
 21
-0.1
 31
0.0
  0
LINE
  5
211
330
20B
100
AcDbEntity
  8
0
  6
Continuous
 62
     0
370
    18
100
AcDbLine
 10
0.0
 20
0.0
 30
0.0
 11
0.1
 21
0.0
 31
0.0
  0
LINE
  5
212
330
20B
100
AcDbEntity
  8
0
  6
Continuous
 62
     0
370
    18
100
AcDbLine
 10
0.0
 20
0.1
 30
0.0
 11
0.0
 21
0.1787401575
 31
0.0
  0
LINE
  5
213
330
20B
100
AcDbEntity
  8
0
  6
Continuous
 62
     0
370
    18
100
AcDbLine
 10
-0.1
 20
0.0
 30
0.0
 11
-0.1787401575
 21
0.0
 31
0.0
  0
LINE
  5
214
330
20B
100
AcDbEntity
  8
0
  6
Continuous
 62
     0
370
    18
100
AcDbLine
 10
0.0
 20
-0.1
 30
0.0
 11
0.0
 21
-0.1787401575
 31
0.0
  0
LINE
  5
215
330
20B
100
AcDbEntity
  8
0
  6
Continuous
 62
     0
370
    18
100
AcDbLine
 10
0.1
 20
0.0
 30
0.0
 11
0.1787401575
 21
0.0
 31
0.0
  0
ENDBLK
  5
20D
330
20B
100
AcDbEntity
  8
0
100
AcDbBlockEnd
  0
BLOCK
  5
261
330
260
100
AcDbEntity
  8
0
100
AcDbBlockBegin
  2
_D_7
 70
     0
 10
0.0
 20
0.0
 30
0.0
  3
_D_7
  1

  0
SOLID
  5
263
330
260
100
AcDbEntity
  8
0
  6
Continuous
 62
     7
370
    18
100
AcDbTrace
 10
2.0711407063
 20
4.0418677105
 30
0.0
 11
2.0461407063
 21
3.8793677105
 31
0.0
 12
2.0961407063
 22
3.8793677105
 32
0.0
 13
2.0961407063
 23
3.8793677105
 33
0.0
  0
SOLID
  5
264
330
260
100
AcDbEntity
  8
0
  6
Continuous
 62
     7
370
    18
100
AcDbTrace
 10
2.0711407063
 20
1.2859621987
 30
0.0
 11
2.0961407063
 21
1.4484621987
 31
0.0
 12
2.0461407063
 22
1.4484621987
 32
0.0
 13
2.0461407063
 23
1.4484621987
 33
0.0
  0
LINE
  5
265
330
260
100
AcDbEntity
  8
0
  6
Continuous
 62
     7
370
    18
100
AcDbLine
 10
1.95568934
 20
2.6627213538
 30
0.0
 11
1.9080819186
 21
2.6627213538
 31
0.0
  0
LINE
  5
266
330
260
100
AcDbEntity
  8
0
  6
Continuous
 62
     7
370
    18
100
AcDbLine
 10
1.9080819186
 20
2.6627213538
 30
0.0
 11
1.9080819186
 21
2.4146744714
 31
0.0
  0
LINE
  5
267
330
260
100
AcDbEntity
  8
0
  6
Continuous
 62
     7
370
    18
100
AcDbLine
 10
1.9080819186
 20
2.4146744714
 30
0.0
 11
1.95568934
 21
2.4146744714
 31
0.0
  0
LINE
  5
268
330
260
100
AcDbEntity
  8
0
  6
Continuous
 62
     7
370
    18
100
AcDbLine
 10
2.1865921184
 20
2.6627213538
 30
0.0
 11
2.2341995398
 21
2.6627213538
 31
0.0
  0
LINE
  5
269
330
260
100
AcDbEntity
  8
0
  6
Continuous
 62
     7
370
    18
100
AcDbLine
 10
2.2341995398
 20
2.6627213538
 30
0.0
 11
2.2341995398
 21
2.4146744714
 31
0.0
  0
LINE
  5
26A
330
260
100
AcDbEntity
  8
0
  6
Continuous
 62
     7
370
    18
100
AcDbLine
 10
2.2341995398
 20
2.4146744714
 30
0.0
 11
2.1865921184
 21
2.4146744714
 31
0.0
  0
LINE
  5
26B
330
260
100
AcDbEntity
  8
0
  6
Continuous
 62
     7
370
    18
100
AcDbLine
 10
2.9753409353
 20
4.0418677105
 30
0.0
 11
1.9148907063
 21
4.0418677105
 31
0.0
  0
LINE
  5
26C
330
260
100
AcDbEntity
  8
0
  6
Continuous
 62
     7
370
    18
100
AcDbLine
 10
2.8548715157
 20
1.2859621987
 30
0.0
 11
1.9148907063
 21
1.2859621987
 31
0.0
  0
LINE
  5
26D
330
260
100
AcDbEntity
  8
0
  6
Continuous
 62
     7
370
    18
100
AcDbLine
 10
2.0711407063
 20
4.0418677105
 30
0.0
 11
2.0711407063
 21
2.9448936691
 31
0.0
  0
LINE
  5
26E
330
260
100
AcDbEntity
  8
0
  6
Continuous
 62
     7
370
    18
100
AcDbLine
 10
2.0711407063
 20
1.2859621987
 30
0.0
 11
2.0711407063
 21
2.3829362401
 31
0.0
  0
MTEXT
  5
26F
330
260
100
AcDbEntity
  8
0
  6
Continuous
 62
     7
370
    18
100
AcDbMText
 10
1.8613425526
 20
2.8982636382
 30
0.0
 40
0.15625
 41
0.0
 71
     1
 72
     1
  1

  7
SLDTEXTSTYLE0
 73
     1
 44
1.0
  0
MTEXT
  5
270
330
260
100
AcDbEntity
  8
0
  6
Continuous
 62
     7
370
    18
100
AcDbMText
 10
1.8691007809
 20
2.8958764739
 30
0.0
 40
0.15625
 41
0.0
 71
     1
 72
     1
  1
2.76
  7
SLDTEXTSTYLE0
 73
     1
 44
1.0
  0
MTEXT
  5
271
330
260
100
AcDbEntity
  8
0
  6
Continuous
 62
     7
370
    18
100
AcDbMText
 10
1.95568934
 20
2.6160913229
 30
0.0
 40
0.15625
 41
0.0
 71
     1
 72
     1
  1
70
  7
SLDTEXTSTYLE0
 73
     1
 44
1.0
  0
MTEXT
  5
272
330
260
100
AcDbEntity
  8
0
  6
Continuous
 62
     7
370
    18
100
AcDbMText
 10
2.3404006768
 20
2.8982636382
 30
0.0
 40
0.15625
 41
0.0
 71
     1
 72
     1
  1

  7
SLDTEXTSTYLE0
 73
     1
 44
1.0
  0
ENDBLK
  5
262
330
260
100
AcDbEntity
  8
0
100
AcDbBlockEnd
  0
BLOCK
  5
276
330
275
100
AcDbEntity
  8
0
100
AcDbBlockBegin
  2
_D_8
 70
     0
 10
0.0
 20
0.0
 30
0.0
  3
_D_8
  1

  0
SOLID
  5
278
330
275
100
AcDbEntity
  8
0
  6
Continuous
 62
     7
370
    18
100
AcDbTrace
 10
6.2441441535
 20
3.2544661357
 30
0.0
 11
6.2191441535
 21
3.0919661357
 31
0.0
 12
6.2691441535
 22
3.0919661357
 32
0.0
 13
6.2691441535
 23
3.0919661357
 33
0.0
  0
SOLID
  5
279
330
275
100
AcDbEntity
  8
0
  6
Continuous
 62
     7
370
    18
100
AcDbTrace
 10
6.2441441535
 20
4.0418677105
 30
0.0
 11
6.2691441535
 21
4.2043677105
 31
0.0
 12
6.2191441535
 22
4.2043677105
 32
0.0
 13
6.2191441535
 23
4.2043677105
 33
0.0
  0
LINE
  5
27A
330
275
100
AcDbEntity
  8
0
  6
Continuous
 62
     7
370
    18
100
AcDbLine
 10
6.1286927872
 20
3.6469733223
 30
0.0
 11
6.0810853658
 21
3.6469733223
 31
0.0
  0
LINE
  5
27B
330
275
100
AcDbEntity
  8
0
  6
Continuous
 62
     7
370
    18
100
AcDbLine
 10
6.0810853658
 20
3.6469733223
 30
0.0
 11
6.0810853658
 21
3.3989264399
 31
0.0
  0
LINE
  5
27C
330
275
100
AcDbEntity
  8
0
  6
Continuous
 62
     7
370
    18
100
AcDbLine
 10
6.0810853658
 20
3.3989264399
 30
0.0
 11
6.1286927872
 21
3.3989264399
 31
0.0
  0
LINE
  5
27D
330
275
100
AcDbEntity
  8
0
  6
Continuous
 62
     7
370
    18
100
AcDbLine
 10
6.3595955656
 20
3.6469733223
 30
0.0
 11
6.407202987
 21
3.6469733223
 31
0.0
  0
LINE
  5
27E
330
275
100
AcDbEntity
  8
0
  6
Continuous
 62
     7
370
    18
100
AcDbLine
 10
6.407202987
 20
3.6469733223
 30
0.0
 11
6.407202987
 21
3.3989264399
 31
0.0
  0
LINE
  5
27F
330
275
100
AcDbEntity
  8
0
  6
Continuous
 62
     7
370
    18
100
AcDbLine
 10
6.407202987
 20
3.3989264399
 30
0.0
 11
6.3595955656
 21
3.3989264399
 31
0.0
  0
LINE
  5
280
330
275
100
AcDbEntity
  8
0
  6
Continuous
 62
     7
370
    18
100
AcDbLine
 10
5.8144778149
 20
3.2544661357
 30
0.0
 11
6.4003941535
 21
3.2544661357
 31
0.0
  0
LINE
  5
281
330
275
100
AcDbEntity
  8
0
  6
Continuous
 62
     7
370
    18
100
AcDbLine
 10
5.2337780117
 20
4.0418677105
 30
0.0
 11
6.4003941535
 21
4.0418677105
 31
0.0
  0
LINE
  5
282
330
275
100
AcDbEntity
  8
0
  6
Continuous
 62
     7
370
    18
100
AcDbLine
 10
6.2441441535
 20
3.2544661357
 30
0.0
 11
6.2441441535
 21
2.9419661357
 31
0.0
  0
LINE
  5
283
330
275
100
AcDbEntity
  8
0
  6
Continuous
 62
     7
370
    18
100
AcDbLine
 10
6.2441441535
 20
4.0418677105
 30
0.0
 11
6.2441441535
 21
4.3543677105
 31
0.0
  0
MTEXT
  5
284
330
275
100
AcDbEntity
  8
0
  6
Continuous
 62
     7
370
    18
100
AcDbMText
 10
6.0343459998
 20
3.8825156067
 30
0.0
 40
0.15625
 41
0.0
 71
     1
 72
     1
  1

  7
SLDTEXTSTYLE0
 73
     1
 44
1.0
  0
MTEXT
  5
285
330
275
100
AcDbEntity
  8
0
  6
Continuous
 62
     7
370
    18
100
AcDbMText
 10
6.0998299341
 20
3.8801284424
 30
0.0
 40
0.15625
 41
0.0
 71
     1
 72
     1
  1
.79
  7
SLDTEXTSTYLE0
 73
     1
 44
1.0
  0
MTEXT
  5
286
330
275
100
AcDbEntity
  8
0
  6
Continuous
 62
     7
370
    18
100
AcDbMText
 10
6.1286927872
 20
3.6003432914
 30
0.0
 40
0.15625
 41
0.0
 71
     1
 72
     1
  1
20
  7
SLDTEXTSTYLE0
 73
     1
 44
1.0
  0
MTEXT
  5
287
330
275
100
AcDbEntity
  8
0
  6
Continuous
 62
     7
370
    18
100
AcDbMText
 10
6.513404124
 20
3.8825156067
 30
0.0
 40
0.15625
 41
0.0
 71
     1
 72
     1
  1

  7
SLDTEXTSTYLE0
 73
     1
 44
1.0
  0
ENDBLK
  5
277
330
275
100
AcDbEntity
  8
0
100
AcDbBlockEnd
  0
BLOCK
  5
28A
330
289
100
AcDbEntity
  8
0
100
AcDbBlockBegin
  2
_D_9
 70
     0
 10
0.0
 20
0.0
 30
0.0
  3
_D_9
  1

  0
SOLID
  5
28C
330
289
100
AcDbEntity
  8
0
  6
Continuous
 62
     7
370
    18
100
AcDbTrace
 10
6.2441441535
 20
3.2544661357
 30
0.0
 11
6.2191441535
 21
3.0919661357
 31
0.0
 12
6.2691441535
 22
3.0919661357
 32
0.0
 13
6.2691441535
 23
3.0919661357
 33
0.0
  0
SOLID
  5
28D
330
289
100
AcDbEntity
  8
0
  6
Continuous
 62
     7
370
    18
100
AcDbTrace
 10
6.2441441535
 20
1.2859621987
 30
0.0
 11
6.2691441535
 21
1.4484621987
 31
0.0
 12
6.2191441535
 22
1.4484621987
 32
0.0
 13
6.2191441535
 23
1.4484621987
 33
0.0
  0
LINE
  5
28E
330
289
100
AcDbEntity
  8
0
  6
Continuous
 62
     7
370
    18
100
AcDbLine
 10
6.1286927872
 20
2.2690205664
 30
0.0
 11
6.0810853658
 21
2.2690205664
 31
0.0
  0
LINE
  5
28F
330
289
100
AcDbEntity
  8
0
  6
Continuous
 62
     7
370
    18
100
AcDbLine
 10
6.0810853658
 20
2.2690205664
 30
0.0
 11
6.0810853658
 21
2.020973684
 31
0.0
  0
LINE
  5
290
330
289
100
AcDbEntity
  8
0
  6
Continuous
 62
     7
370
    18
100
AcDbLine
 10
6.0810853658
 20
2.020973684
 30
0.0
 11
6.1286927872
 21
2.020973684
 31
0.0
  0
LINE
  5
291
330
289
100
AcDbEntity
  8
0
  6
Continuous
 62
     7
370
    18
100
AcDbLine
 10
6.3595955656
 20
2.2690205664
 30
0.0
 11
6.407202987
 21
2.2690205664
 31
0.0
  0
LINE
  5
292
330
289
100
AcDbEntity
  8
0
  6
Continuous
 62
     7
370
    18
100
AcDbLine
 10
6.407202987
 20
2.2690205664
 30
0.0
 11
6.407202987
 21
2.020973684
 31
0.0
  0
LINE
  5
293
330
289
100
AcDbEntity
  8
0
  6
Continuous
 62
     7
370
    18
100
AcDbLine
 10
6.407202987
 20
2.020973684
 30
0.0
 11
6.3595955656
 21
2.020973684
 31
0.0
  0
LINE
  5
294
330
289
100
AcDbEntity
  8
0
  6
Continuous
 62
     7
370
    18
100
AcDbLine
 10
5.814517185
 20
3.2544661357
 30
0.0
 11
6.4003941535
 21
3.2544661357
 31
0.0
  0
LINE
  5
295
330
289
100
AcDbEntity
  8
0
  6
Continuous
 62
     7
370
    18
100
AcDbLine
 10
5.499556555
 20
1.2859621987
 30
0.0
 11
6.4003941535
 21
1.2859621987
 31
0.0
  0
LINE
  5
296
330
289
100
AcDbEntity
  8
0
  6
Continuous
 62
     7
370
    18
100
AcDbLine
 10
6.2441441535
 20
3.2544661357
 30
0.0
 11
6.2441441535
 21
2.5511928817
 31
0.0
  0
LINE
  5
297
330
289
100
AcDbEntity
  8
0
  6
Continuous
 62
     7
370
    18
100
AcDbLine
 10
6.2441441535
 20
1.2859621987
 30
0.0
 11
6.2441441535
 21
1.9892354527
 31
0.0
  0
MTEXT
  5
298
330
289
100
AcDbEntity
  8
0
  6
Continuous
 62
     7
370
    18
100
AcDbMText
 10
6.0343459998
 20
2.5045628508
 30
0.0
 40
0.15625
 41
0.0
 71
     1
 72
     1
  1

  7
SLDTEXTSTYLE0
 73
     1
 44
1.0
  0
MTEXT
  5
299
330
289
100
AcDbEntity
  8
0
  6
Continuous
 62
     7
370
    18
100
AcDbMText
 10
6.0421042281
 20
2.5021756864
 30
0.0
 40
0.15625
 41
0.0
 71
     1
 72
     1
  1
1.97
  7
SLDTEXTSTYLE0
 73
     1
 44
1.0
  0
MTEXT
  5
29A
330
289
100
AcDbEntity
  8
0
  6
Continuous
 62
     7
370
    18
100
AcDbMText
 10
6.1286927872
 20
2.2223905355
 30
0.0
 40
0.15625
 41
0.0
 71
     1
 72
     1
  1
50
  7
SLDTEXTSTYLE0
 73
     1
 44
1.0
  0
MTEXT
  5
29B
330
289
100
AcDbEntity
  8
0
  6
Continuous
 62
     7
370
    18
100
AcDbMText
 10
6.513404124
 20
2.5045628508
 30
0.0
 40
0.15625
 41
0.0
 71
     1
 72
     1
  1

  7
SLDTEXTSTYLE0
 73
     1
 44
1.0
  0
ENDBLK
  5
28B
330
289
100
AcDbEntity
  8
0
100
AcDbBlockEnd
  0
BLOCK
  5
29E
330
29D
100
AcDbEntity
  8
0
100
AcDbBlockBegin
  2
_D_10
 70
     0
 10
0.0
 20
0.0
 30
0.0
  3
_D_10
  1

  0
SOLID
  5
2A0
330
29D
100
AcDbEntity
  8
0
  6
Continuous
 62
     7
370
    18
100
AcDbTrace
 10
6.2441441535
 20
1.2859621987
 30
0.0
 11
6.2691441535
 21
1.4484621987
 31
0.0
 12
6.2191441535
 22
1.4484621987
 32
0.0
 13
6.2191441535
 23
1.4484621987
 33
0.0
  0
SOLID
  5
2A1
330
29D
100
AcDbEntity
  8
0
  6
Continuous
 62
     7
370
    18
100
AcDbTrace
 10
6.2441441535
 20
1.24659212
 30
0.0
 11
6.2191441535
 21
1.08409212
 31
0.0
 12
6.2691441535
 22
1.08409212
 32
0.0
 13
6.2691441535
 23
1.08409212
 33
0.0
  0
LINE
  5
2A2
330
29D
100
AcDbEntity
  8
0
  6
Continuous
 62
     7
370
    18
100
AcDbLine
 10
6.5907454823
 20
0.753115755
 30
0.0
 11
6.5431380609
 21
0.753115755
 31
0.0
  0
LINE
  5
2A3
330
29D
100
AcDbEntity
  8
0
  6
Continuous
 62
     7
370
    18
100
AcDbLine
 10
6.5431380609
 20
0.753115755
 30
0.0
 11
6.5431380609
 21
0.5050688726
 31
0.0
  0
LINE
  5
2A4
330
29D
100
AcDbEntity
  8
0
  6
Continuous
 62
     7
370
    18
100
AcDbLine
 10
6.5431380609
 20
0.5050688726
 30
0.0
 11
6.5907454823
 21
0.5050688726
 31
0.0
  0
LINE
  5
2A5
330
29D
100
AcDbEntity
  8
0
  6
Continuous
 62
     7
370
    18
100
AcDbLine
 10
6.7061968715
 20
0.753115755
 30
0.0
 11
6.7538042929
 21
0.753115755
 31
0.0
  0
LINE
  5
2A6
330
29D
100
AcDbEntity
  8
0
  6
Continuous
 62
     7
370
    18
100
AcDbLine
 10
6.7538042929
 20
0.753115755
 30
0.0
 11
6.7538042929
 21
0.5050688726
 31
0.0
  0
LINE
  5
2A7
330
29D
100
AcDbEntity
  8
0
  6
Continuous
 62
     7
370
    18
100
AcDbLine
 10
6.7538042929
 20
0.5050688726
 30
0.0
 11
6.7061968715
 21
0.5050688726
 31
0.0
  0
LINE
  5
2A8
330
29D
100
AcDbEntity
  8
0
  6
Continuous
 62
     7
370
    18
100
AcDbLine
 10
5.499556555
 20
1.2859621987
 30
0.0
 11
6.4003941535
 21
1.2859621987
 31
0.0
  0
LINE
  5
2A9
330
29D
100
AcDbEntity
  8
0
  6
Continuous
 62
     7
370
    18
100
AcDbLine
 10
5.6767219094
 20
1.24659212
 30
0.0
 11
6.4003941535
 21
1.24659212
 31
0.0
  0
LINE
  5
2AA
330
29D
100
AcDbEntity
  8
0
  6
Continuous
 62
     7
370
    18
100
AcDbLine
 10
6.4003941535
 20
0.7543093558
 30
0.0
 11
6.2441441535
 21
0.7543093558
 31
0.0
  0
LINE
  5
2AB
330
29D
100
AcDbEntity
  8
0
  6
Continuous
 62
     7
370
    18
100
AcDbLine
 10
6.2441441535
 20
0.7543093558
 30
0.0
 11
6.2441441535
 21
1.24659212
 31
0.0
  0
LINE
  5
2AC
330
29D
100
AcDbEntity
  8
0
  6
Continuous
 62
     7
370
    18
100
AcDbLine
 10
6.2441441535
 20
1.2859621987
 30
0.0
 11
6.2441441535
 21
1.5984621987
 31
0.0
  0
MTEXT
  5
2AD
330
29D
100
AcDbEntity
  8
0
  6
Continuous
 62
     7
370
    18
100
AcDbMText
 10
6.5041569461
 20
0.9862708751
 30
0.0
 40
0.15625
 41
0.0
 71
     1
 72
     1
  1
.04
  7
SLDTEXTSTYLE0
 73
     1
 44
1.0
  0
MTEXT
  5
2AE
330
29D
100
AcDbEntity
  8
0
  6
Continuous
 62
     7
370
    18
100
AcDbMText
 10
6.5907454823
 20
0.7064857241
 30
0.0
 40
0.15625
 41
0.0
 71
     1
 72
     1
  1
1
  7
SLDTEXTSTYLE0
 73
     1
 44
1.0
  0
MTEXT
  5
2AF
330
29D
100
AcDbEntity
  8
0
  6
Continuous
 62
     7
370
    18
100
AcDbMText
 10
6.8600054643
 20
0.9886580394
 30
0.0
 40
0.15625
 41
0.0
 71
     1
 72
     1
  1
PAD TYP.
  7
SLDTEXTSTYLE0
 73
     1
 44
1.0
  0
ENDBLK
  5
29F
330
29D
100
AcDbEntity
  8
0
100
AcDbBlockEnd
  0
BLOCK
  5
407
330
406
100
AcDbEntity
  8
0
100
AcDbBlockBegin
  2
_D_11
 70
     0
 10
0.0
 20
0.0
 30
0.0
  3
_D_11
  1

  0
SOLID
  5
409
330
406
100
AcDbEntity
  8
0
  6
Continuous
 62
     7
370
    18
100
AcDbTrace
 10
12.8656027332
 20
5.1199614857
 30
0.0
 11
13.0281027332
 21
5.0949614857
 31
0.0
 12
13.0281027332
 22
5.1449614857
 32
0.0
 13
13.0281027332
 23
5.1449614857
 33
0.0
  0
SOLID
  5
40A
330
406
100
AcDbEntity
  8
0
  6
Continuous
 62
     7
370
    18
100
AcDbTrace
 10
15.3065476151
 20
5.1199614857
 30
0.0
 11
15.1440476151
 21
5.1449614857
 31
0.0
 12
15.1440476151
 22
5.0949614857
 32
0.0
 13
15.1440476151
 23
5.0949614857
 33
0.0
  0
LINE
  5
40B
330
406
100
AcDbEntity
  8
0
  6
Continuous
 62
     7
370
    18
100
AcDbLine
 10
13.9706238079
 20
5.1187678849
 30
0.0
 11
13.9230163865
 21
5.1187678849
 31
0.0
  0
LINE
  5
40C
330
406
100
AcDbEntity
  8
0
  6
Continuous
 62
     7
370
    18
100
AcDbLine
 10
13.9230163865
 20
5.1187678849
 30
0.0
 11
13.9230163865
 21
4.8707210024
 31
0.0
  0
LINE
  5
40D
330
406
100
AcDbEntity
  8
0
  6
Continuous
 62
     7
370
    18
100
AcDbLine
 10
13.9230163865
 20
4.8707210024
 30
0.0
 11
13.9706238079
 21
4.8707210024
 31
0.0
  0
LINE
  5
40E
330
406
100
AcDbEntity
  8
0
  6
Continuous
 62
     7
370
    18
100
AcDbLine
 10
14.2015265863
 20
5.1187678849
 30
0.0
 11
14.2491340077
 21
5.1187678849
 31
0.0
  0
LINE
  5
40F
330
406
100
AcDbEntity
  8
0
  6
Continuous
 62
     7
370
    18
100
AcDbLine
 10
14.2491340077
 20
5.1187678849
 30
0.0
 11
14.2491340077
 21
4.8707210024
 31
0.0
  0
LINE
  5
410
330
406
100
AcDbEntity
  8
0
  6
Continuous
 62
     7
370
    18
100
AcDbLine
 10
14.2491340077
 20
4.8707210024
 30
0.0
 11
14.2015265863
 21
4.8707210024
 31
0.0
  0
LINE
  5
411
330
406
100
AcDbEntity
  8
0
  6
Continuous
 62
     7
370
    18
100
AcDbLine
 10
12.8656027332
 20
6.717038113
 30
0.0
 11
12.8656027332
 21
4.9637114857
 31
0.0
  0
LINE
  5
412
330
406
100
AcDbEntity
  8
0
  6
Continuous
 62
     7
370
    18
100
AcDbLine
 10
15.3065476151
 20
6.717038113
 30
0.0
 11
15.3065476151
 21
4.9637114857
 31
0.0
  0
LINE
  5
413
330
406
100
AcDbEntity
  8
0
  6
Continuous
 62
     7
370
    18
100
AcDbLine
 10
12.8656027332
 20
5.1199614857
 30
0.0
 11
13.7859711085
 21
5.1199614857
 31
0.0
  0
LINE
  5
414
330
406
100
AcDbEntity
  8
0
  6
Continuous
 62
     7
370
    18
100
AcDbLine
 10
15.3065476151
 20
5.1199614857
 30
0.0
 11
14.3861792398
 21
5.1199614857
 31
0.0
  0
MTEXT
  5
415
330
406
100
AcDbEntity
  8
0
  6
Continuous
 62
     7
370
    18
100
AcDbMText
 10
13.8762770205
 20
5.3543101693
 30
0.0
 40
0.15625
 41
0.0
 71
     1
 72
     1
  1

  7
SLDTEXTSTYLE0
 73
     1
 44
1.0
  0
MTEXT
  5
416
330
406
100
AcDbEntity
  8
0
  6
Continuous
 62
     7
370
    18
100
AcDbMText
 10
13.8840352488
 20
5.3519230049
 30
0.0
 40
0.15625
 41
0.0
 71
     1
 72
     1
  1
2.44
  7
SLDTEXTSTYLE0
 73
     1
 44
1.0
  0
MTEXT
  5
417
330
406
100
AcDbEntity
  8
0
  6
Continuous
 62
     7
370
    18
100
AcDbMText
 10
13.9706238079
 20
5.072137854
 30
0.0
 40
0.15625
 41
0.0
 71
     1
 72
     1
  1
62
  7
SLDTEXTSTYLE0
 73
     1
 44
1.0
  0
MTEXT
  5
418
330
406
100
AcDbEntity
  8
0
  6
Continuous
 62
     7
370
    18
100
AcDbMText
 10
14.3553351447
 20
5.3543101693
 30
0.0
 40
0.15625
 41
0.0
 71
     1
 72
     1
  1

  7
SLDTEXTSTYLE0
 73
     1
 44
1.0
  0
ENDBLK
  5
408
330
406
100
AcDbEntity
  8
0
100
AcDbBlockEnd
  0
BLOCK
  5
41B
330
41A
100
AcDbEntity
  8
0
100
AcDbBlockBegin
  2
_D_12
 70
     0
 10
0.0
 20
0.0
 30
0.0
  3
_D_12
  1

  0
SOLID
  5
41D
330
41A
100
AcDbEntity
  8
0
  6
Continuous
 62
     7
370
    18
100
AcDbTrace
 10
17.5593158299
 20
6.779538113
 30
0.0
 11
17.5843158299
 21
6.942038113
 31
0.0
 12
17.5343158299
 22
6.942038113
 32
0.0
 13
17.5343158299
 23
6.942038113
 33
0.0
  0
SOLID
  5
41E
330
41A
100
AcDbEntity
  8
0
  6
Continuous
 62
     7
370
    18
100
AcDbTrace
 10
17.5593158299
 20
10.4015853571
 30
0.0
 11
17.5343158299
 21
10.2390853571
 31
0.0
 12
17.5843158299
 22
10.2390853571
 32
0.0
 13
17.5843158299
 23
10.2390853571
 33
0.0
  0
LINE
  5
41F
330
41A
100
AcDbEntity
  8
0
  6
Continuous
 62
     7
370
    18
100
AcDbLine
 10
17.4438644636
 20
8.5893681343
 30
0.0
 11
17.3962570422
 21
8.5893681343
 31
0.0
  0
LINE
  5
420
330
41A
100
AcDbEntity
  8
0
  6
Continuous
 62
     7
370
    18
100
AcDbLine
 10
17.3962570422
 20
8.5893681343
 30
0.0
 11
17.3962570422
 21
8.3413212518
 31
0.0
  0
LINE
  5
421
330
41A
100
AcDbEntity
  8
0
  6
Continuous
 62
     7
370
    18
100
AcDbLine
 10
17.3962570422
 20
8.3413212518
 30
0.0
 11
17.4438644636
 21
8.3413212518
 31
0.0
  0
LINE
  5
422
330
41A
100
AcDbEntity
  8
0
  6
Continuous
 62
     7
370
    18
100
AcDbLine
 10
17.674767242
 20
8.5893681343
 30
0.0
 11
17.7223746634
 21
8.5893681343
 31
0.0
  0
LINE
  5
423
330
41A
100
AcDbEntity
  8
0
  6
Continuous
 62
     7
370
    18
100
AcDbLine
 10
17.7223746634
 20
8.5893681343
 30
0.0
 11
17.7223746634
 21
8.3413212518
 31
0.0
  0
LINE
  5
424
330
41A
100
AcDbEntity
  8
0
  6
Continuous
 62
     7
370
    18
100
AcDbLine
 10
17.7223746634
 20
8.3413212518
 30
0.0
 11
17.674767242
 21
8.3413212518
 31
0.0
  0
LINE
  5
425
330
41A
100
AcDbEntity
  8
0
  6
Continuous
 62
     7
370
    18
100
AcDbLine
 10
15.3690476151
 20
6.779538113
 30
0.0
 11
17.7155658299
 21
6.779538113
 31
0.0
  0
LINE
  5
426
330
41A
100
AcDbEntity
  8
0
  6
Continuous
 62
     7
370
    18
100
AcDbLine
 10
15.3690476151
 20
10.4015853571
 30
0.0
 11
17.7155658299
 21
10.4015853571
 31
0.0
  0
LINE
  5
427
330
41A
100
AcDbEntity
  8
0
  6
Continuous
 62
     7
370
    18
100
AcDbLine
 10
17.5593158299
 20
6.779538113
 30
0.0
 11
17.5593158299
 21
8.3095830205
 31
0.0
  0
LINE
  5
428
330
41A
100
AcDbEntity
  8
0
  6
Continuous
 62
     7
370
    18
100
AcDbLine
 10
17.5593158299
 20
10.4015853571
 30
0.0
 11
17.5593158299
 21
8.8715404496
 31
0.0
  0
MTEXT
  5
429
330
41A
100
AcDbEntity
  8
0
  6
Continuous
 62
     7
370
    18
100
AcDbMText
 10
17.3495176762
 20
8.8249104187
 30
0.0
 40
0.15625
 41
0.0
 71
     1
 72
     1
  1

  7
SLDTEXTSTYLE0
 73
     1
 44
1.0
  0
MTEXT
  5
42A
330
41A
100
AcDbEntity
  8
0
  6
Continuous
 62
     7
370
    18
100
AcDbMText
 10
17.3572759045
 20
8.8225232543
 30
0.0
 40
0.15625
 41
0.0
 71
     1
 72
     1
  1
3.62
  7
SLDTEXTSTYLE0
 73
     1
 44
1.0
  0
MTEXT
  5
42B
330
41A
100
AcDbEntity
  8
0
  6
Continuous
 62
     7
370
    18
100
AcDbMText
 10
17.4438644636
 20
8.5427381033
 30
0.0
 40
0.15625
 41
0.0
 71
     1
 72
     1
  1
92
  7
SLDTEXTSTYLE0
 73
     1
 44
1.0
  0
MTEXT
  5
42C
330
41A
100
AcDbEntity
  8
0
  6
Continuous
 62
     7
370
    18
100
AcDbMText
 10
17.8285758004
 20
8.8249104187
 30
0.0
 40
0.15625
 41
0.0
 71
     1
 72
     1
  1

  7
SLDTEXTSTYLE0
 73
     1
 44
1.0
  0
ENDBLK
  5
41C
330
41A
100
AcDbEntity
  8
0
100
AcDbBlockEnd
  0
BLOCK
  5
42F
330
42E
100
AcDbEntity
  8
0
100
AcDbBlockBegin
  2
_D_13
 70
     0
 10
0.0
 20
0.0
 30
0.0
  3
_D_13
  1

  0
SOLID
  5
431
330
42E
100
AcDbEntity
  8
0
  6
Continuous
 62
     7
370
    18
100
AcDbTrace
 10
14.1365236307
 20
10.3556410806
 30
0.0
 11
14.2023339085
 21
10.5063071263
 31
0.0
 12
14.1540037547
 22
10.5191210343
 32
0.0
 13
14.1540037547
 23
10.5191210343
 33
0.0
  0
LINE
  5
432
330
42E
100
AcDbEntity
  8
0
  6
Continuous
 62
     7
370
    18
100
AcDbLine
 10
14.6777652981
 20
11.2532670868
 30
0.0
 11
14.6301578767
 21
11.2532670868
 31
0.0
  0
LINE
  5
433
330
42E
100
AcDbEntity
  8
0
  6
Continuous
 62
     7
370
    18
100
AcDbLine
 10
14.6301578767
 20
11.2532670868
 30
0.0
 11
14.6301578767
 21
11.0052202043
 31
0.0
  0
LINE
  5
434
330
42E
100
AcDbEntity
  8
0
  6
Continuous
 62
     7
370
    18
100
AcDbLine
 10
14.6301578767
 20
11.0052202043
 30
0.0
 11
14.6777652981
 21
11.0052202043
 31
0.0
  0
LINE
  5
435
330
42E
100
AcDbEntity
  8
0
  6
Continuous
 62
     7
370
    18
100
AcDbLine
 10
14.9086680765
 20
11.2532670868
 30
0.0
 11
14.9562754979
 21
11.2532670868
 31
0.0
  0
LINE
  5
436
330
42E
100
AcDbEntity
  8
0
  6
Continuous
 62
     7
370
    18
100
AcDbLine
 10
14.9562754979
 20
11.2532670868
 30
0.0
 11
14.9562754979
 21
11.0052202043
 31
0.0
  0
LINE
  5
437
330
42E
100
AcDbEntity
  8
0
  6
Continuous
 62
     7
370
    18
100
AcDbLine
 10
14.9562754979
 20
11.0052202043
 30
0.0
 11
14.9086680765
 21
11.0052202043
 31
0.0
  0
LINE
  5
438
330
42E
100
AcDbEntity
  8
0
  6
Continuous
 62
     7
370
    18
100
AcDbLine
 10
14.1365236307
 20
10.3556410806
 30
0.0
 11
14.3748301708
 21
11.2544606876
 31
0.0
  0
LINE
  5
439
330
42E
100
AcDbEntity
  8
0
  6
Continuous
 62
     7
370
    18
100
AcDbLine
 10
14.3748301708
 20
11.2544606876
 30
0.0
 11
14.5310801708
 21
11.2544606876
 31
0.0
  0
MTEXT
  5
43A
330
42E
100
AcDbEntity
  8
0
  6
Continuous
 62
     7
370
    18
100
AcDbMText
 10
14.5310801708
 20
11.4864222068
 30
0.0
 40
0.15625
 41
0.0
 71
     1
 72
     1
  1
%%c
  7
SLDTEXTSTYLE0
 73
     1
 44
1.0
  0
MTEXT
  5
43B
330
42E
100
AcDbEntity
  8
0
  6
Continuous
 62
     7
370
    18
100
AcDbMText
 10
14.7667246965
 20
11.4864222068
 30
0.0
 40
0.15625
 41
0.0
 71
     1
 72
     1
  1
.39
  7
SLDTEXTSTYLE0
 73
     1
 44
1.0
  0
MTEXT
  5
43C
330
42E
100
AcDbEntity
  8
0
  6
Continuous
 62
     7
370
    18
100
AcDbMText
 10
14.6777652981
 20
11.2066370559
 30
0.0
 40
0.15625
 41
0.0
 71
     1
 72
     1
  1
10
  7
SLDTEXTSTYLE0
 73
     1
 44
1.0
  0
MTEXT
  5
43D
330
42E
100
AcDbEntity
  8
0
  6
Continuous
 62
     7
370
    18
100
AcDbMText
 10
15.113946931
 20
11.4888093712
 30
0.0
 40
0.15625
 41
0.0
 71
     1
 72
     1
  1
2X
  7
SLDTEXTSTYLE0
 73
     1
 44
1.0
  0
ENDBLK
  5
430
330
42E
100
AcDbEntity
  8
0
100
AcDbBlockEnd
  0
BLOCK
  5
440
330
43F
100
AcDbEntity
  8
0
100
AcDbBlockBegin
  2
_D_14
 70
     0
 10
0.0
 20
0.0
 30
0.0
  3
_D_14
  1

  0
SOLID
  5
442
330
43F
100
AcDbEntity
  8
0
  6
Continuous
 62
     7
370
    18
100
AcDbTrace
 10
13.3392122493
 20
8.7427290053
 30
0.0
 11
13.4052929252
 21
8.8932766531
 31
0.0
 12
13.3569858553
 22
8.9061773119
 32
0.0
 13
13.3569858553
 23
8.9061773119
 33
0.0
  0
LINE
  5
443
330
43F
100
AcDbEntity
  8
0
  6
Continuous
 62
     7
370
    18
100
AcDbLine
 10
14.5756160927
 20
12.0207927412
 30
0.0
 11
14.5280086713
 21
12.0207927412
 31
0.0
  0
LINE
  5
444
330
43F
100
AcDbEntity
  8
0
  6
Continuous
 62
     7
370
    18
100
AcDbLine
 10
14.5280086713
 20
12.0207927412
 30
0.0
 11
14.5280086713
 21
11.7727458588
 31
0.0
  0
LINE
  5
445
330
43F
100
AcDbEntity
  8
0
  6
Continuous
 62
     7
370
    18
100
AcDbLine
 10
14.5280086713
 20
11.7727458588
 30
0.0
 11
14.5756160927
 21
11.7727458588
 31
0.0
  0
LINE
  5
446
330
43F
100
AcDbEntity
  8
0
  6
Continuous
 62
     7
370
    18
100
AcDbLine
 10
14.6910674819
 20
12.0207927412
 30
0.0
 11
14.7386749033
 21
12.0207927412
 31
0.0
  0
LINE
  5
447
330
43F
100
AcDbEntity
  8
0
  6
Continuous
 62
     7
370
    18
100
AcDbLine
 10
14.7386749033
 20
12.0207927412
 30
0.0
 11
14.7386749033
 21
11.7727458588
 31
0.0
  0
LINE
  5
448
330
43F
100
AcDbEntity
  8
0
  6
Continuous
 62
     7
370
    18
100
AcDbLine
 10
14.7386749033
 20
11.7727458588
 30
0.0
 11
14.6910674819
 21
11.7727458588
 31
0.0
  0
LINE
  5
449
330
43F
100
AcDbEntity
  8
0
  6
Continuous
 62
     7
370
    18
100
AcDbLine
 10
13.3392122493
 20
8.7427290053
 30
0.0
 11
14.2149552822
 21
12.021986342
 31
0.0
  0
LINE
  5
44A
330
43F
100
AcDbEntity
  8
0
  6
Continuous
 62
     7
370
    18
100
AcDbLine
 10
14.2149552822
 20
12.021986342
 30
0.0
 11
14.3712052822
 21
12.021986342
 31
0.0
  0
MTEXT
  5
44B
330
43F
100
AcDbEntity
  8
0
  6
Continuous
 62
     7
370
    18
100
AcDbMText
 10
14.3712052822
 20
12.2539478613
 30
0.0
 40
0.15625
 41
0.0
 71
     1
 72
     1
  1
%%c
  7
SLDTEXTSTYLE0
 73
     1
 44
1.0
  0
MTEXT
  5
44C
330
43F
100
AcDbEntity
  8
0
  6
Continuous
 62
     7
370
    18
100
AcDbMText
 10
14.6068498079
 20
12.2539478613
 30
0.0
 40
0.15625
 41
0.0
 71
     1
 72
     1
  1
.32
  7
SLDTEXTSTYLE0
 73
     1
 44
1.0
  0
MTEXT
  5
44D
330
43F
100
AcDbEntity
  8
0
  6
Continuous
 62
     7
370
    18
100
AcDbMText
 10
14.5756160927
 20
11.9741627103
 30
0.0
 40
0.15625
 41
0.0
 71
     1
 72
     1
  1
8
  7
SLDTEXTSTYLE0
 73
     1
 44
1.0
  0
MTEXT
  5
44E
330
43F
100
AcDbEntity
  8
0
  6
Continuous
 62
     7
370
    18
100
AcDbMText
 10
14.9540720424
 20
12.2563350256
 30
0.0
 40
0.15625
 41
0.0
 71
     1
 72
     1
  1
2X
  7
SLDTEXTSTYLE0
 73
     1
 44
1.0
  0
ENDBLK
  5
441
330
43F
100
AcDbEntity
  8
0
100
AcDbBlockEnd
  0
BLOCK
  5
451
330
450
100
AcDbEntity
  8
0
100
AcDbBlockBegin
  2
_D_15
 70
     0
 10
0.0
 20
0.0
 30
0.0
  3
_D_15
  1

  0
SOLID
  5
453
330
450
100
AcDbEntity
  8
0
  6
Continuous
 62
     7
370
    18
100
AcDbTrace
 10
17.0388320639
 20
10.1653648847
 30
0.0
 11
17.0138320639
 21
10.0028648847
 31
0.0
 12
17.0638320639
 22
10.0028648847
 32
0.0
 13
17.0638320639
 23
10.0028648847
 33
0.0
  0
SOLID
  5
454
330
450
100
AcDbEntity
  8
0
  6
Continuous
 62
     7
370
    18
100
AcDbTrace
 10
17.0388320639
 20
7.0157585854
 30
0.0
 11
17.0638320639
 21
7.1782585854
 31
0.0
 12
17.0138320639
 22
7.1782585854
 32
0.0
 13
17.0138320639
 23
7.1782585854
 33
0.0
  0
LINE
  5
455
330
450
100
AcDbEntity
  8
0
  6
Continuous
 62
     7
370
    18
100
AcDbLine
 10
16.9233806976
 20
8.5893681343
 30
0.0
 11
16.8757732762
 21
8.5893681343
 31
0.0
  0
LINE
  5
456
330
450
100
AcDbEntity
  8
0
  6
Continuous
 62
     7
370
    18
100
AcDbLine
 10
16.8757732762
 20
8.5893681343
 30
0.0
 11
16.8757732762
 21
8.3413212518
 31
0.0
  0
LINE
  5
457
330
450
100
AcDbEntity
  8
0
  6
Continuous
 62
     7
370
    18
100
AcDbLine
 10
16.8757732762
 20
8.3413212518
 30
0.0
 11
16.9233806976
 21
8.3413212518
 31
0.0
  0
LINE
  5
458
330
450
100
AcDbEntity
  8
0
  6
Continuous
 62
     7
370
    18
100
AcDbLine
 10
17.154283476
 20
8.5893681343
 30
0.0
 11
17.2018908974
 21
8.5893681343
 31
0.0
  0
LINE
  5
459
330
450
100
AcDbEntity
  8
0
  6
Continuous
 62
     7
370
    18
100
AcDbLine
 10
17.2018908974
 20
8.5893681343
 30
0.0
 11
17.2018908974
 21
8.3413212518
 31
0.0
  0
LINE
  5
45A
330
450
100
AcDbEntity
  8
0
  6
Continuous
 62
     7
370
    18
100
AcDbLine
 10
17.2018908974
 20
8.3413212518
 30
0.0
 11
17.154283476
 21
8.3413212518
 31
0.0
  0
LINE
  5
45B
330
450
100
AcDbEntity
  8
0
  6
Continuous
 62
     7
370
    18
100
AcDbLine
 10
14.1485751742
 20
10.1653648847
 30
0.0
 11
17.1950820639
 21
10.1653648847
 31
0.0
  0
LINE
  5
45C
330
450
100
AcDbEntity
  8
0
  6
Continuous
 62
     7
370
    18
100
AcDbLine
 10
14.1485751742
 20
7.0157585854
 30
0.0
 11
17.1950820639
 21
7.0157585854
 31
0.0
  0
LINE
  5
45D
330
450
100
AcDbEntity
  8
0
  6
Continuous
 62
     7
370
    18
100
AcDbLine
 10
17.0388320639
 20
10.1653648847
 30
0.0
 11
17.0388320639
 21
8.8715404496
 31
0.0
  0
LINE
  5
45E
330
450
100
AcDbEntity
  8
0
  6
Continuous
 62
     7
370
    18
100
AcDbLine
 10
17.0388320639
 20
7.0157585854
 30
0.0
 11
17.0388320639
 21
8.3095830205
 31
0.0
  0
MTEXT
  5
45F
330
450
100
AcDbEntity
  8
0
  6
Continuous
 62
     7
370
    18
100
AcDbMText
 10
16.8290339102
 20
8.8249104187
 30
0.0
 40
0.15625
 41
0.0
 71
     1
 72
     1
  1

  7
SLDTEXTSTYLE0
 73
     1
 44
1.0
  0
MTEXT
  5
460
330
450
100
AcDbEntity
  8
0
  6
Continuous
 62
     7
370
    18
100
AcDbMText
 10
16.8367921385
 20
8.8225232543
 30
0.0
 40
0.15625
 41
0.0
 71
     1
 72
     1
  1
3.15
  7
SLDTEXTSTYLE0
 73
     1
 44
1.0
  0
MTEXT
  5
461
330
450
100
AcDbEntity
  8
0
  6
Continuous
 62
     7
370
    18
100
AcDbMText
 10
16.9233806976
 20
8.5427381033
 30
0.0
 40
0.15625
 41
0.0
 71
     1
 72
     1
  1
80
  7
SLDTEXTSTYLE0
 73
     1
 44
1.0
  0
MTEXT
  5
462
330
450
100
AcDbEntity
  8
0
  6
Continuous
 62
     7
370
    18
100
AcDbMText
 10
17.3080920345
 20
8.8249104187
 30
0.0
 40
0.15625
 41
0.0
 71
     1
 72
     1
  1

  7
SLDTEXTSTYLE0
 73
     1
 44
1.0
  0
ENDBLK
  5
452
330
450
100
AcDbEntity
  8
0
100
AcDbBlockEnd
  0
BLOCK
  5
465
330
464
100
AcDbEntity
  8
0
100
AcDbBlockBegin
  2
_D_16
 70
     0
 10
0.0
 20
0.0
 30
0.0
  3
_D_16
  1

  0
SOLID
  5
467
330
464
100
AcDbEntity
  8
0
  6
Continuous
 62
     7
370
    18
100
AcDbTrace
 10
13.2985751742
 20
5.8024921933
 30
0.0
 11
13.4610751742
 21
5.7774921933
 31
0.0
 12
13.4610751742
 22
5.8274921933
 32
0.0
 13
13.4610751742
 23
5.8274921933
 33
0.0
  0
SOLID
  5
468
330
464
100
AcDbEntity
  8
0
  6
Continuous
 62
     7
370
    18
100
AcDbTrace
 10
14.8735751742
 20
5.8024921933
 30
0.0
 11
14.7110751742
 21
5.8274921933
 31
0.0
 12
14.7110751742
 22
5.7774921933
 32
0.0
 13
14.7110751742
 23
5.7774921933
 33
0.0
  0
LINE
  5
469
330
464
100
AcDbEntity
  8
0
  6
Continuous
 62
     7
370
    18
100
AcDbLine
 10
13.9706238079
 20
5.8012985925
 30
0.0
 11
13.9230163865
 21
5.8012985925
 31
0.0
  0
LINE
  5
46A
330
464
100
AcDbEntity
  8
0
  6
Continuous
 62
     7
370
    18
100
AcDbLine
 10
13.9230163865
 20
5.8012985925
 30
0.0
 11
13.9230163865
 21
5.5532517101
 31
0.0
  0
LINE
  5
46B
330
464
100
AcDbEntity
  8
0
  6
Continuous
 62
     7
370
    18
100
AcDbLine
 10
13.9230163865
 20
5.5532517101
 30
0.0
 11
13.9706238079
 21
5.5532517101
 31
0.0
  0
LINE
  5
46C
330
464
100
AcDbEntity
  8
0
  6
Continuous
 62
     7
370
    18
100
AcDbLine
 10
14.2015265863
 20
5.8012985925
 30
0.0
 11
14.2491340077
 21
5.8012985925
 31
0.0
  0
LINE
  5
46D
330
464
100
AcDbEntity
  8
0
  6
Continuous
 62
     7
370
    18
100
AcDbLine
 10
14.2491340077
 20
5.8012985925
 30
0.0
 11
14.2491340077
 21
5.5532517101
 31
0.0
  0
LINE
  5
46E
330
464
100
AcDbEntity
  8
0
  6
Continuous
 62
     7
370
    18
100
AcDbLine
 10
14.2491340077
 20
5.5532517101
 30
0.0
 11
14.2015265863
 21
5.5532517101
 31
0.0
  0
LINE
  5
46F
330
464
100
AcDbEntity
  8
0
  6
Continuous
 62
     7
370
    18
100
AcDbLine
 10
13.2985751742
 20
8.5280617351
 30
0.0
 11
13.2985751742
 21
5.6462421933
 31
0.0
  0
LINE
  5
470
330
464
100
AcDbEntity
  8
0
  6
Continuous
 62
     7
370
    18
100
AcDbLine
 10
14.8735751742
 20
8.5280617351
 30
0.0
 11
14.8735751742
 21
5.6462421933
 31
0.0
  0
LINE
  5
471
330
464
100
AcDbEntity
  8
0
  6
Continuous
 62
     7
370
    18
100
AcDbLine
 10
13.2985751742
 20
5.8024921933
 30
0.0
 11
13.7859711085
 21
5.8024921933
 31
0.0
  0
LINE
  5
472
330
464
100
AcDbEntity
  8
0
  6
Continuous
 62
     7
370
    18
100
AcDbLine
 10
14.8735751742
 20
5.8024921933
 30
0.0
 11
14.3861792398
 21
5.8024921933
 31
0.0
  0
MTEXT
  5
473
330
464
100
AcDbEntity
  8
0
  6
Continuous
 62
     7
370
    18
100
AcDbMText
 10
13.8762770205
 20
6.0368408769
 30
0.0
 40
0.15625
 41
0.0
 71
     1
 72
     1
  1

  7
SLDTEXTSTYLE0
 73
     1
 44
1.0
  0
MTEXT
  5
474
330
464
100
AcDbEntity
  8
0
  6
Continuous
 62
     7
370
    18
100
AcDbMText
 10
13.8840352488
 20
6.0344537126
 30
0.0
 40
0.15625
 41
0.0
 71
     1
 72
     1
  1
1.58
  7
SLDTEXTSTYLE0
 73
     1
 44
1.0
  0
MTEXT
  5
475
330
464
100
AcDbEntity
  8
0
  6
Continuous
 62
     7
370
    18
100
AcDbMText
 10
13.9706238079
 20
5.7546685616
 30
0.0
 40
0.15625
 41
0.0
 71
     1
 72
     1
  1
40
  7
SLDTEXTSTYLE0
 73
     1
 44
1.0
  0
MTEXT
  5
476
330
464
100
AcDbEntity
  8
0
  6
Continuous
 62
     7
370
    18
100
AcDbMText
 10
14.3553351447
 20
6.0368408769
 30
0.0
 40
0.15625
 41
0.0
 71
     1
 72
     1
  1

  7
SLDTEXTSTYLE0
 73
     1
 44
1.0
  0
ENDBLK
  5
466
330
464
100
AcDbEntity
  8
0
100
AcDbBlockEnd
  0
BLOCK
  5
47A
330
479
100
AcDbEntity
  8
0
100
AcDbBlockBegin
  2
_D_17
 70
     0
 10
0.0
 20
0.0
 30
0.0
  3
_D_17
  1

  0
SOLID
  5
47C
330
479
100
AcDbEntity
  8
0
  6
Continuous
 62
     7
370
    18
100
AcDbTrace
 10
12.823413681
 20
6.7074802621
 30
0.0
 11
12.7197350313
 21
6.5798793703
 31
0.0
 12
12.762883445
 22
6.5546164648
 32
0.0
 13
12.762883445
 23
6.5546164648
 33
0.0
  0
LINE
  5
47D
330
479
100
AcDbEntity
  8
0
  6
Continuous
 62
     7
370
    18
100
AcDbLine
 10
11.4695674039
 20
5.96623862
 30
0.0
 11
11.4219599825
 21
5.96623862
 31
0.0
  0
LINE
  5
47E
330
479
100
AcDbEntity
  8
0
  6
Continuous
 62
     7
370
    18
100
AcDbLine
 10
11.4219599825
 20
5.96623862
 30
0.0
 11
11.4219599825
 21
5.7181917376
 31
0.0
  0
LINE
  5
47F
330
479
100
AcDbEntity
  8
0
  6
Continuous
 62
     7
370
    18
100
AcDbLine
 10
11.4219599825
 20
5.7181917376
 30
0.0
 11
11.4695674039
 21
5.7181917376
 31
0.0
  0
LINE
  5
480
330
479
100
AcDbEntity
  8
0
  6
Continuous
 62
     7
370
    18
100
AcDbLine
 10
11.7581958655
 20
5.96623862
 30
0.0
 11
11.8058032869
 21
5.96623862
 31
0.0
  0
LINE
  5
481
330
479
100
AcDbEntity
  8
0
  6
Continuous
 62
     7
370
    18
100
AcDbLine
 10
11.8058032869
 20
5.96623862
 30
0.0
 11
11.8058032869
 21
5.7181917376
 31
0.0
  0
LINE
  5
482
330
479
100
AcDbEntity
  8
0
  6
Continuous
 62
     7
370
    18
100
AcDbLine
 10
11.8058032869
 20
5.7181917376
 30
0.0
 11
11.7581958655
 21
5.7181917376
 31
0.0
  0
LINE
  5
483
330
479
100
AcDbEntity
  8
0
  6
Continuous
 62
     7
370
    18
100
AcDbLine
 10
12.823413681
 20
6.7074802621
 30
0.0
 11
12.3901239694
 21
5.9674322208
 31
0.0
  0
LINE
  5
484
330
479
100
AcDbEntity
  8
0
  6
Continuous
 62
     7
370
    18
100
AcDbLine
 10
12.3901239694
 20
5.9674322208
 30
0.0
 11
12.2338739694
 21
5.9674322208
 31
0.0
  0
MTEXT
  5
485
330
479
100
AcDbEntity
  8
0
  6
Continuous
 62
     7
370
    18
100
AcDbMText
 10
11.294019435
 20
6.1993937401
 30
0.0
 40
0.15625
 41
0.0
 71
     1
 72
     1
  1
%%c
  7
SLDTEXTSTYLE0
 73
     1
 44
1.0
  0
MTEXT
  5
486
330
479
100
AcDbEntity
  8
0
  6
Continuous
 62
     7
370
    18
100
AcDbMText
 10
11.5296639607
 20
6.1993937401
 30
0.0
 40
0.15625
 41
0.0
 71
     1
 72
     1
  1
.167
  7
SLDTEXTSTYLE0
 73
     1
 44
1.0
  0
MTEXT
  5
487
330
479
100
AcDbEntity
  8
0
  6
Continuous
 62
     7
370
    18
100
AcDbMText
 10
11.4695674039
 20
5.9196085891
 30
0.0
 40
0.15625
 41
0.0
 71
     1
 72
     1
  1
4.2
  7
SLDTEXTSTYLE0
 73
     1
 44
1.0
  0
MTEXT
  5
488
330
479
100
AcDbEntity
  8
0
  6
Continuous
 62
     7
370
    18
100
AcDbMText
 10
11.9923375615
 20
6.2017809044
 30
0.0
 40
0.15625
 41
0.0
 71
     1
 72
     1
  1
4X
  7
SLDTEXTSTYLE0
 73
     1
 44
1.0
  0
ENDBLK
  5
47B
330
479
100
AcDbEntity
  8
0
100
AcDbBlockEnd
  0
BLOCK
  5
48C
330
48B
100
AcDbEntity
  8
0
100
AcDbBlockBegin
  2
_D_18
 70
     0
 10
0.0
 20
0.0
 30
0.0
  3
_D_18
  1

  0
SOLID
  5
48E
330
48B
100
AcDbEntity
  8
0
  6
Continuous
 62
     7
370
    18
100
AcDbTrace
 10
14.3683034827
 20
8.7517206065
 30
0.0
 11
14.5218144733
 21
8.8105901723
 31
0.0
 12
14.4970208008
 22
8.8540099121
 32
0.0
 13
14.4970208008
 23
8.8540099121
 33
0.0
  0
LINE
  5
48F
330
48B
100
AcDbEntity
  8
0
  6
Continuous
 62
     7
370
    18
100
AcDbLine
 10
16.1467861216
 20
9.6466864258
 30
0.0
 11
16.0991787002
 21
9.6466864258
 31
0.0
  0
LINE
  5
490
330
48B
100
AcDbEntity
  8
0
  6
Continuous
 62
     7
370
    18
100
AcDbLine
 10
16.0991787002
 20
9.6466864258
 30
0.0
 11
16.0991787002
 21
9.3986395433
 31
0.0
  0
LINE
  5
491
330
48B
100
AcDbEntity
  8
0
  6
Continuous
 62
     7
370
    18
100
AcDbLine
 10
16.0991787002
 20
9.3986395433
 30
0.0
 11
16.1467861216
 21
9.3986395433
 31
0.0
  0
LINE
  5
492
330
48B
100
AcDbEntity
  8
0
  6
Continuous
 62
     7
370
    18
100
AcDbLine
 10
16.5508659953
 20
9.6466864258
 30
0.0
 11
16.5984734167
 21
9.6466864258
 31
0.0
  0
LINE
  5
493
330
48B
100
AcDbEntity
  8
0
  6
Continuous
 62
     7
370
    18
100
AcDbLine
 10
16.5984734167
 20
9.6466864258
 30
0.0
 11
16.5984734167
 21
9.3986395433
 31
0.0
  0
LINE
  5
494
330
48B
100
AcDbEntity
  8
0
  6
Continuous
 62
     7
370
    18
100
AcDbLine
 10
16.5984734167
 20
9.3986395433
 30
0.0
 11
16.5508659953
 21
9.3986395433
 31
0.0
  0
LINE
  5
495
330
48B
100
AcDbEntity
  8
0
  6
Continuous
 62
     7
370
    18
100
AcDbLine
 10
14.3683034827
 20
8.7517206065
 30
0.0
 11
15.8953212788
 21
9.6236829759
 31
0.0
  0
LINE
  5
496
330
48B
100
AcDbEntity
  8
0
  6
Continuous
 62
     7
370
    18
100
AcDbLine
 10
15.8953212788
 20
9.6236829759
 30
0.0
 11
16.0515712788
 21
9.6236829759
 31
0.0
  0
MTEXT
  5
497
330
48B
100
AcDbEntity
  8
0
  6
Continuous
 62
     7
370
    18
100
AcDbMText
 10
16.0866895419
 20
9.8798415458
 30
0.0
 40
0.15625
 41
0.0
 71
     1
 72
     1
  1
%%c
  7
SLDTEXTSTYLE0
 73
     1
 44
1.0
  0
MTEXT
  5
498
330
48B
100
AcDbEntity
  8
0
  6
Continuous
 62
     7
370
    18
100
AcDbMText
 10
16.3223340676
 20
9.8798415458
 30
0.0
 40
0.15625
 41
0.0
 71
     1
 72
     1
  1
.65
  7
SLDTEXTSTYLE0
 73
     1
 44
1.0
  0
MTEXT
  5
499
330
48B
100
AcDbEntity
  8
0
  6
Continuous
 62
     7
370
    18
100
AcDbMText
 10
16.1467861216
 20
9.6000563949
 30
0.0
 40
0.15625
 41
0.0
 71
     1
 72
     1
  1
16.5
  7
SLDTEXTSTYLE0
 73
     1
 44
1.0
  0
ENDBLK
  5
48D
330
48B
100
AcDbEntity
  8
0
100
AcDbBlockEnd
  0
BLOCK
  5
49B
330
49A
100
AcDbEntity
  8
0
100
AcDbBlockBegin
  2
SW_CENTERMARKSYMBOL_4
 70
     0
 10
0.0
 20
0.0
 30
0.0
  3
SW_CENTERMARKSYMBOL_4
  1

  0
LINE
  5
49D
330
49A
100
AcDbEntity
  8
0
  6
Continuous
 62
     0
370
    18
100
AcDbLine
 10
0.0
 20
0.0
 30
0.0
 11
0.0
 21
0.1
 31
0.0
  0
LINE
  5
49E
330
49A
100
AcDbEntity
  8
0
  6
Continuous
 62
     0
370
    18
100
AcDbLine
 10
0.0
 20
0.0
 30
0.0
 11
-0.1
 21
0.0
 31
0.0
  0
LINE
  5
49F
330
49A
100
AcDbEntity
  8
0
  6
Continuous
 62
     0
370
    18
100
AcDbLine
 10
0.0
 20
0.0
 30
0.0
 11
0.0
 21
-0.1
 31
0.0
  0
LINE
  5
4A0
330
49A
100
AcDbEntity
  8
0
  6
Continuous
 62
     0
370
    18
100
AcDbLine
 10
0.0
 20
0.0
 30
0.0
 11
0.1
 21
0.0
 31
0.0
  0
LINE
  5
4A1
330
49A
100
AcDbEntity
  8
0
  6
Continuous
 62
     0
370
    18
100
AcDbLine
 10
0.0
 20
0.1
 30
0.0
 11
0.0
 21
0.1787401575
 31
0.0
  0
LINE
  5
4A2
330
49A
100
AcDbEntity
  8
0
  6
Continuous
 62
     0
370
    18
100
AcDbLine
 10
-0.1
 20
0.0
 30
0.0
 11
-0.1787401575
 21
0.0
 31
0.0
  0
LINE
  5
4A3
330
49A
100
AcDbEntity
  8
0
  6
Continuous
 62
     0
370
    18
100
AcDbLine
 10
0.0
 20
-0.1
 30
0.0
 11
0.0
 21
-0.1787401575
 31
0.0
  0
LINE
  5
4A4
330
49A
100
AcDbEntity
  8
0
  6
Continuous
 62
     0
370
    18
100
AcDbLine
 10
0.1
 20
0.0
 30
0.0
 11
0.1787401575
 21
0.0
 31
0.0
  0
ENDBLK
  5
49C
330
49A
100
AcDbEntity
  8
0
100
AcDbBlockEnd
  0
BLOCK
  5
4A7
330
4A6
100
AcDbEntity
  8
0
100
AcDbBlockBegin
  2
SW_CENTERMARKSYMBOL_5
 70
     0
 10
0.0
 20
0.0
 30
0.0
  3
SW_CENTERMARKSYMBOL_5
  1

  0
LINE
  5
4A9
330
4A6
100
AcDbEntity
  8
0
  6
Continuous
 62
     0
370
    18
100
AcDbLine
 10
0.0
 20
0.0
 30
0.0
 11
0.0
 21
0.1
 31
0.0
  0
LINE
  5
4AA
330
4A6
100
AcDbEntity
  8
0
  6
Continuous
 62
     0
370
    18
100
AcDbLine
 10
0.0
 20
0.0
 30
0.0
 11
-0.1
 21
0.0
 31
0.0
  0
LINE
  5
4AB
330
4A6
100
AcDbEntity
  8
0
  6
Continuous
 62
     0
370
    18
100
AcDbLine
 10
0.0
 20
0.0
 30
0.0
 11
0.0
 21
-0.1
 31
0.0
  0
LINE
  5
4AC
330
4A6
100
AcDbEntity
  8
0
  6
Continuous
 62
     0
370
    18
100
AcDbLine
 10
0.0
 20
0.0
 30
0.0
 11
0.1
 21
0.0
 31
0.0
  0
LINE
  5
4AD
330
4A6
100
AcDbEntity
  8
0
  6
Continuous
 62
     0
370
    18
100
AcDbLine
 10
0.0
 20
0.1
 30
0.0
 11
0.0
 21
0.1787401575
 31
0.0
  0
LINE
  5
4AE
330
4A6
100
AcDbEntity
  8
0
  6
Continuous
 62
     0
370
    18
100
AcDbLine
 10
-0.1
 20
0.0
 30
0.0
 11
-0.1787401575
 21
0.0
 31
0.0
  0
LINE
  5
4AF
330
4A6
100
AcDbEntity
  8
0
  6
Continuous
 62
     0
370
    18
100
AcDbLine
 10
0.0
 20
-0.1
 30
0.0
 11
0.0
 21
-0.1787401575
 31
0.0
  0
LINE
  5
4B0
330
4A6
100
AcDbEntity
  8
0
  6
Continuous
 62
     0
370
    18
100
AcDbLine
 10
0.1
 20
0.0
 30
0.0
 11
0.1787401575
 21
0.0
 31
0.0
  0
ENDBLK
  5
4A8
330
4A6
100
AcDbEntity
  8
0
100
AcDbBlockEnd
  0
BLOCK
  5
4B3
330
4B2
100
AcDbEntity
  8
0
100
AcDbBlockBegin
  2
SW_CENTERMARKSYMBOL_6
 70
     0
 10
0.0
 20
0.0
 30
0.0
  3
SW_CENTERMARKSYMBOL_6
  1

  0
LINE
  5
4B5
330
4B2
100
AcDbEntity
  8
0
  6
Continuous
 62
     0
370
    18
100
AcDbLine
 10
0.0
 20
0.0
 30
0.0
 11
0.0
 21
0.1
 31
0.0
  0
LINE
  5
4B6
330
4B2
100
AcDbEntity
  8
0
  6
Continuous
 62
     0
370
    18
100
AcDbLine
 10
0.0
 20
0.0
 30
0.0
 11
-0.1
 21
0.0
 31
0.0
  0
LINE
  5
4B7
330
4B2
100
AcDbEntity
  8
0
  6
Continuous
 62
     0
370
    18
100
AcDbLine
 10
0.0
 20
0.0
 30
0.0
 11
0.0
 21
-0.1
 31
0.0
  0
LINE
  5
4B8
330
4B2
100
AcDbEntity
  8
0
  6
Continuous
 62
     0
370
    18
100
AcDbLine
 10
0.0
 20
0.0
 30
0.0
 11
0.1
 21
0.0
 31
0.0
  0
LINE
  5
4B9
330
4B2
100
AcDbEntity
  8
0
  6
Continuous
 62
     0
370
    18
100
AcDbLine
 10
0.0
 20
0.1
 30
0.0
 11
0.0
 21
0.1787401575
 31
0.0
  0
LINE
  5
4BA
330
4B2
100
AcDbEntity
  8
0
  6
Continuous
 62
     0
370
    18
100
AcDbLine
 10
-0.1
 20
0.0
 30
0.0
 11
-0.1787401575
 21
0.0
 31
0.0
  0
LINE
  5
4BB
330
4B2
100
AcDbEntity
  8
0
  6
Continuous
 62
     0
370
    18
100
AcDbLine
 10
0.0
 20
-0.1
 30
0.0
 11
0.0
 21
-0.1787401575
 31
0.0
  0
LINE
  5
4BC
330
4B2
100
AcDbEntity
  8
0
  6
Continuous
 62
     0
370
    18
100
AcDbLine
 10
0.1
 20
0.0
 30
0.0
 11
0.1787401575
 21
0.0
 31
0.0
  0
ENDBLK
  5
4B4
330
4B2
100
AcDbEntity
  8
0
100
AcDbBlockEnd
  0
BLOCK
  5
4BF
330
4BE
100
AcDbEntity
  8
0
100
AcDbBlockBegin
  2
SW_CENTERMARKSYMBOL_7
 70
     0
 10
0.0
 20
0.0
 30
0.0
  3
SW_CENTERMARKSYMBOL_7
  1

  0
LINE
  5
4C1
330
4BE
100
AcDbEntity
  8
0
  6
Continuous
 62
     0
370
    18
100
AcDbLine
 10
0.0
 20
0.0
 30
0.0
 11
0.0
 21
0.1
 31
0.0
  0
LINE
  5
4C2
330
4BE
100
AcDbEntity
  8
0
  6
Continuous
 62
     0
370
    18
100
AcDbLine
 10
0.0
 20
0.0
 30
0.0
 11
-0.1
 21
0.0
 31
0.0
  0
LINE
  5
4C3
330
4BE
100
AcDbEntity
  8
0
  6
Continuous
 62
     0
370
    18
100
AcDbLine
 10
0.0
 20
0.0
 30
0.0
 11
0.0
 21
-0.1
 31
0.0
  0
LINE
  5
4C4
330
4BE
100
AcDbEntity
  8
0
  6
Continuous
 62
     0
370
    18
100
AcDbLine
 10
0.0
 20
0.0
 30
0.0
 11
0.1
 21
0.0
 31
0.0
  0
LINE
  5
4C5
330
4BE
100
AcDbEntity
  8
0
  6
Continuous
 62
     0
370
    18
100
AcDbLine
 10
0.0
 20
0.1
 30
0.0
 11
0.0
 21
0.1787401575
 31
0.0
  0
LINE
  5
4C6
330
4BE
100
AcDbEntity
  8
0
  6
Continuous
 62
     0
370
    18
100
AcDbLine
 10
-0.1
 20
0.0
 30
0.0
 11
-0.1787401575
 21
0.0
 31
0.0
  0
LINE
  5
4C7
330
4BE
100
AcDbEntity
  8
0
  6
Continuous
 62
     0
370
    18
100
AcDbLine
 10
0.0
 20
-0.1
 30
0.0
 11
0.0
 21
-0.1787401575
 31
0.0
  0
LINE
  5
4C8
330
4BE
100
AcDbEntity
  8
0
  6
Continuous
 62
     0
370
    18
100
AcDbLine
 10
0.1
 20
0.0
 30
0.0
 11
0.1787401575
 21
0.0
 31
0.0
  0
ENDBLK
  5
4C0
330
4BE
100
AcDbEntity
  8
0
100
AcDbBlockEnd
  0
BLOCK
  5
56D
330
56C
100
AcDbEntity
  8
0
100
AcDbBlockBegin
  2
_D_19
 70
     0
 10
0.0
 20
0.0
 30
0.0
  3
_D_19
  1

  0
SOLID
  5
56F
330
56C
100
AcDbEntity
  8
0
  6
Continuous
 62
     7
370
    18
100
AcDbTrace
 10
10.6313936451
 20
8.2422177955
 30
0.0
 11
10.4688936451
 21
8.2672177955
 31
0.0
 12
10.4688936451
 22
8.2172177955
 32
0.0
 13
10.4688936451
 23
8.2172177955
 33
0.0
  0
SOLID
  5
570
330
56C
100
AcDbEntity
  8
0
  6
Continuous
 62
     7
370
    18
100
AcDbTrace
 10
10.7193936451
 20
8.2422177955
 30
0.0
 11
10.8818936451
 21
8.2172177955
 31
0.0
 12
10.8818936451
 22
8.2672177955
 32
0.0
 13
10.8818936451
 23
8.2672177955
 33
0.0
  0
LINE
  5
571
330
56C
100
AcDbEntity
  8
0
  6
Continuous
 62
     7
370
    18
100
AcDbLine
 10
11.6196722257
 20
8.2410241947
 30
0.0
 11
11.5720648043
 21
8.2410241947
 31
0.0
  0
LINE
  5
572
330
56C
100
AcDbEntity
  8
0
  6
Continuous
 62
     7
370
    18
100
AcDbLine
 10
11.5720648043
 20
8.2410241947
 30
0.0
 11
11.5720648043
 21
7.9929773123
 31
0.0
  0
LINE
  5
573
330
56C
100
AcDbEntity
  8
0
  6
Continuous
 62
     7
370
    18
100
AcDbLine
 10
11.5720648043
 20
7.9929773123
 30
0.0
 11
11.6196722257
 21
7.9929773123
 31
0.0
  0
LINE
  5
574
330
56C
100
AcDbEntity
  8
0
  6
Continuous
 62
     7
370
    18
100
AcDbLine
 10
11.9083006872
 20
8.2410241947
 30
0.0
 11
11.9559081086
 21
8.2410241947
 31
0.0
  0
LINE
  5
575
330
56C
100
AcDbEntity
  8
0
  6
Continuous
 62
     7
370
    18
100
AcDbLine
 10
11.9559081086
 20
8.2410241947
 30
0.0
 11
11.9559081086
 21
7.9929773123
 31
0.0
  0
LINE
  5
576
330
56C
100
AcDbEntity
  8
0
  6
Continuous
 62
     7
370
    18
100
AcDbLine
 10
11.9559081086
 20
7.9929773123
 30
0.0
 11
11.9083006872
 21
7.9929773123
 31
0.0
  0
LINE
  5
577
330
56C
100
AcDbEntity
  8
0
  6
Continuous
 62
     7
370
    18
100
AcDbLine
 10
10.6313936451
 20
8.4577002582
 30
0.0
 11
10.6313936451
 21
8.0859677955
 31
0.0
  0
LINE
  5
578
330
56C
100
AcDbEntity
  8
0
  6
Continuous
 62
     7
370
    18
100
AcDbLine
 10
10.6313936451
 20
8.2422177955
 30
0.0
 11
10.3188936451
 21
8.2422177955
 31
0.0
  0
LINE
  5
579
330
56C
100
AcDbEntity
  8
0
  6
Continuous
 62
     7
370
    18
100
AcDbLine
 10
10.7193936451
 20
8.2422177955
 30
0.0
 11
11.4350195263
 21
8.2422177955
 31
0.0
  0
MTEXT
  5
57A
330
56C
100
AcDbEntity
  8
0
  6
Continuous
 62
     7
370
    18
100
AcDbMText
 10
11.5253254383
 20
8.4765664791
 30
0.0
 40
0.15625
 41
0.0
 71
     1
 72
     1
  1

  7
SLDTEXTSTYLE0
 73
     1
 44
1.0
  0
MTEXT
  5
57B
330
56C
100
AcDbEntity
  8
0
  6
Continuous
 62
     7
370
    18
100
AcDbMText
 10
11.6196722142
 20
8.4741793148
 30
0.0
 40
0.15625
 41
0.0
 71
     1
 72
     1
  1
.09
  7
SLDTEXTSTYLE0
 73
     1
 44
1.0
  0
MTEXT
  5
57C
330
56C
100
AcDbEntity
  8
0
  6
Continuous
 62
     7
370
    18
100
AcDbMText
 10
11.6196722257
 20
8.1943941638
 30
0.0
 40
0.15625
 41
0.0
 71
     1
 72
     1
  1
2.2
  7
SLDTEXTSTYLE0
 73
     1
 44
1.0
  0
MTEXT
  5
57D
330
56C
100
AcDbEntity
  8
0
  6
Continuous
 62
     7
370
    18
100
AcDbMText
 10
12.0621092457
 20
8.4765664791
 30
0.0
 40
0.15625
 41
0.0
 71
     1
 72
     1
  1

  7
SLDTEXTSTYLE0
 73
     1
 44
1.0
  0
ENDBLK
  5
56E
330
56C
100
AcDbEntity
  8
0
100
AcDbBlockEnd
  0
BLOCK
  5
580
330
57F
100
AcDbEntity
  8
0
100
AcDbBlockBegin
  2
_D_20
 70
     0
 10
0.0
 20
0.0
 30
0.0
  3
_D_20
  1

  0
SOLID
  5
582
330
57F
100
AcDbEntity
  8
0
  6
Continuous
 62
     7
370
    18
100
AcDbTrace
 10
10.4413936451
 20
9.3190743235
 30
0.0
 11
10.2788936451
 21
9.3440743235
 31
0.0
 12
10.2788936451
 22
9.2940743235
 32
0.0
 13
10.2788936451
 23
9.2940743235
 33
0.0
  0
SOLID
  5
583
330
57F
100
AcDbEntity
  8
0
  6
Continuous
 62
     7
370
    18
100
AcDbTrace
 10
10.7113936451
 20
9.3190743235
 30
0.0
 11
10.8738936451
 21
9.2940743235
 31
0.0
 12
10.8738936451
 22
9.3440743235
 32
0.0
 13
10.8738936451
 23
9.3440743235
 33
0.0
  0
LINE
  5
584
330
57F
100
AcDbEntity
  8
0
  6
Continuous
 62
     7
370
    18
100
AcDbLine
 10
11.3943032885
 20
9.3178807227
 30
0.0
 11
11.3466958671
 21
9.3178807227
 31
0.0
  0
LINE
  5
585
330
57F
100
AcDbEntity
  8
0
  6
Continuous
 62
     7
370
    18
100
AcDbLine
 10
11.3466958671
 20
9.3178807227
 30
0.0
 11
11.3466958671
 21
9.0698338402
 31
0.0
  0
LINE
  5
586
330
57F
100
AcDbEntity
  8
0
  6
Continuous
 62
     7
370
    18
100
AcDbLine
 10
11.3466958671
 20
9.0698338402
 30
0.0
 11
11.3943032885
 21
9.0698338402
 31
0.0
  0
LINE
  5
587
330
57F
100
AcDbEntity
  8
0
  6
Continuous
 62
     7
370
    18
100
AcDbLine
 10
11.6829317501
 20
9.3178807227
 30
0.0
 11
11.7305391715
 21
9.3178807227
 31
0.0
  0
LINE
  5
588
330
57F
100
AcDbEntity
  8
0
  6
Continuous
 62
     7
370
    18
100
AcDbLine
 10
11.7305391715
 20
9.3178807227
 30
0.0
 11
11.7305391715
 21
9.0698338402
 31
0.0
  0
LINE
  5
589
330
57F
100
AcDbEntity
  8
0
  6
Continuous
 62
     7
370
    18
100
AcDbLine
 10
11.7305391715
 20
9.0698338402
 30
0.0
 11
11.6829317501
 21
9.0698338402
 31
0.0
  0
LINE
  5
58A
330
57F
100
AcDbEntity
  8
0
  6
Continuous
 62
     7
370
    18
100
AcDbLine
 10
10.4413936451
 20
8.8052530997
 30
0.0
 11
10.4413936451
 21
9.4753243235
 31
0.0
  0
LINE
  5
58B
330
57F
100
AcDbEntity
  8
0
  6
Continuous
 62
     7
370
    18
100
AcDbLine
 10
10.4413936451
 20
9.3190743235
 30
0.0
 11
10.1288936451
 21
9.3190743235
 31
0.0
  0
LINE
  5
58C
330
57F
100
AcDbEntity
  8
0
  6
Continuous
 62
     7
370
    18
100
AcDbLine
 10
10.7113936451
 20
9.3190743235
 30
0.0
 11
11.2673762837
 21
9.3190743235
 31
0.0
  0
MTEXT
  5
58D
330
57F
100
AcDbEntity
  8
0
  6
Continuous
 62
     7
370
    18
100
AcDbMText
 10
11.3943032771
 20
9.5510358427
 30
0.0
 40
0.15625
 41
0.0
 71
     1
 72
     1
  1
.27
  7
SLDTEXTSTYLE0
 73
     1
 44
1.0
  0
MTEXT
  5
58E
330
57F
100
AcDbEntity
  8
0
  6
Continuous
 62
     7
370
    18
100
AcDbMText
 10
11.3943032885
 20
9.2712506918
 30
0.0
 40
0.15625
 41
0.0
 71
     1
 72
     1
  1
6.9
  7
SLDTEXTSTYLE0
 73
     1
 44
1.0
  0
MTEXT
  5
58F
330
57F
100
AcDbEntity
  8
0
  6
Continuous
 62
     7
370
    18
100
AcDbMText
 10
11.83674032
 20
9.5534230071
 30
0.0
 40
0.15625
 41
0.0
 71
     1
 72
     1
  1
TYP.
  7
SLDTEXTSTYLE0
 73
     1
 44
1.0
  0
ENDBLK
  5
581
330
57F
100
AcDbEntity
  8
0
100
AcDbBlockEnd
  0
BLOCK
  5
593
330
592
100
AcDbEntity
  8
0
100
AcDbBlockBegin
  2
_D_21
 70
     0
 10
0.0
 20
0.0
 30
0.0
  3
_D_21
  1

  0
SOLID
  5
595
330
592
100
AcDbEntity
  8
0
  6
Continuous
 62
     7
370
    18
100
AcDbTrace
 10
8.1777086057
 20
7.6469736786
 30
0.0
 11
8.3402086057
 21
7.6219736786
 31
0.0
 12
8.3402086057
 22
7.6719736786
 32
0.0
 13
8.3402086057
 23
7.6719736786
 33
0.0
  0
SOLID
  5
596
330
592
100
AcDbEntity
  8
0
  6
Continuous
 62
     7
370
    18
100
AcDbTrace
 10
8.0735983695
 20
7.6469736786
 30
0.0
 11
7.9110983695
 21
7.6719736786
 31
0.0
 12
7.9110983695
 22
7.6219736786
 32
0.0
 13
7.9110983695
 23
7.6219736786
 33
0.0
  0
LINE
  5
597
330
592
100
AcDbEntity
  8
0
  6
Continuous
 62
     7
370
    18
100
AcDbLine
 10
7.1760888516
 20
7.6457800778
 30
0.0
 11
7.1284814302
 21
7.6457800778
 31
0.0
  0
LINE
  5
598
330
592
100
AcDbEntity
  8
0
  6
Continuous
 62
     7
370
    18
100
AcDbLine
 10
7.1284814302
 20
7.6457800778
 30
0.0
 11
7.1284814302
 21
7.3977331954
 31
0.0
  0
LINE
  5
599
330
592
100
AcDbEntity
  8
0
  6
Continuous
 62
     7
370
    18
100
AcDbLine
 10
7.1284814302
 20
7.3977331954
 30
0.0
 11
7.1760888516
 21
7.3977331954
 31
0.0
  0
LINE
  5
59A
330
592
100
AcDbEntity
  8
0
  6
Continuous
 62
     7
370
    18
100
AcDbLine
 10
7.4647173131
 20
7.6457800778
 30
0.0
 11
7.5123247345
 21
7.6457800778
 31
0.0
  0
LINE
  5
59B
330
592
100
AcDbEntity
  8
0
  6
Continuous
 62
     7
370
    18
100
AcDbLine
 10
7.5123247345
 20
7.6457800778
 30
0.0
 11
7.5123247345
 21
7.3977331954
 31
0.0
  0
LINE
  5
59C
330
592
100
AcDbEntity
  8
0
  6
Continuous
 62
     7
370
    18
100
AcDbLine
 10
7.5123247345
 20
7.3977331954
 30
0.0
 11
7.4647173131
 21
7.3977331954
 31
0.0
  0
LINE
  5
59D
330
592
100
AcDbEntity
  8
0
  6
Continuous
 62
     7
370
    18
100
AcDbLine
 10
8.1777086057
 20
7.6469736786
 30
0.0
 11
8.4902086057
 21
7.6469736786
 31
0.0
  0
LINE
  5
59E
330
592
100
AcDbEntity
  8
0
  6
Continuous
 62
     7
370
    18
100
AcDbLine
 10
8.0735983695
 20
7.6469736786
 30
0.0
 11
7.6493699667
 21
7.6469736786
 31
0.0
  0
MTEXT
  5
59F
330
592
100
AcDbEntity
  8
0
  6
Continuous
 62
     7
370
    18
100
AcDbMText
 10
7.0817420642
 20
7.8813223622
 30
0.0
 40
0.15625
 41
0.0
 71
     1
 72
     1
  1

  7
SLDTEXTSTYLE0
 73
     1
 44
1.0
  0
MTEXT
  5
5A0
330
592
100
AcDbEntity
  8
0
  6
Continuous
 62
     7
370
    18
100
AcDbMText
 10
7.1760888401
 20
7.8789351979
 30
0.0
 40
0.15625
 41
0.0
 71
     1
 72
     1
  1
.10
  7
SLDTEXTSTYLE0
 73
     1
 44
1.0
  0
MTEXT
  5
5A1
330
592
100
AcDbEntity
  8
0
  6
Continuous
 62
     7
370
    18
100
AcDbMText
 10
7.1760888516
 20
7.5991500469
 30
0.0
 40
0.15625
 41
0.0
 71
     1
 72
     1
  1
2.6
  7
SLDTEXTSTYLE0
 73
     1
 44
1.0
  0
MTEXT
  5
5A2
330
592
100
AcDbEntity
  8
0
  6
Continuous
 62
     7
370
    18
100
AcDbMText
 10
7.6185258716
 20
7.8813223622
 30
0.0
 40
0.15625
 41
0.0
 71
     1
 72
     1
  1

  7
SLDTEXTSTYLE0
 73
     1
 44
1.0
  0
ENDBLK
  5
594
330
592
100
AcDbEntity
  8
0
100
AcDbBlockEnd
  0
BLOCK
  5
5A5
330
5A4
100
AcDbEntity
  8
0
100
AcDbBlockBegin
  2
_D_22
 70
     0
 10
0.0
 20
0.0
 30
0.0
  3
_D_22
  1

  0
SOLID
  5
5A7
330
5A4
100
AcDbEntity
  8
0
  6
Continuous
 62
     7
370
    18
100
AcDbTrace
 10
10.7193936451
 20
7.6469736786
 30
0.0
 11
10.5568936451
 21
7.6719736786
 31
0.0
 12
10.5568936451
 22
7.6219736786
 32
0.0
 13
10.5568936451
 23
7.6219736786
 33
0.0
  0
SOLID
  5
5A8
330
5A4
100
AcDbEntity
  8
0
  6
Continuous
 62
     7
370
    18
100
AcDbTrace
 10
10.8295038813
 20
7.6469736786
 30
0.0
 11
10.9920038813
 21
7.6219736786
 31
0.0
 12
10.9920038813
 22
7.6719736786
 32
0.0
 13
10.9920038813
 23
7.6719736786
 33
0.0
  0
LINE
  5
5A9
330
5A4
100
AcDbEntity
  8
0
  6
Continuous
 62
     7
370
    18
100
AcDbLine
 10
11.5130719807
 20
7.6457800778
 30
0.0
 11
11.4654645593
 21
7.6457800778
 31
0.0
  0
LINE
  5
5AA
330
5A4
100
AcDbEntity
  8
0
  6
Continuous
 62
     7
370
    18
100
AcDbLine
 10
11.4654645593
 20
7.6457800778
 30
0.0
 11
11.4654645593
 21
7.3977331954
 31
0.0
  0
LINE
  5
5AB
330
5A4
100
AcDbEntity
  8
0
  6
Continuous
 62
     7
370
    18
100
AcDbLine
 10
11.4654645593
 20
7.3977331954
 30
0.0
 11
11.5130719807
 21
7.3977331954
 31
0.0
  0
LINE
  5
5AC
330
5A4
100
AcDbEntity
  8
0
  6
Continuous
 62
     7
370
    18
100
AcDbLine
 10
11.8017004422
 20
7.6457800778
 30
0.0
 11
11.8493078636
 21
7.6457800778
 31
0.0
  0
LINE
  5
5AD
330
5A4
100
AcDbEntity
  8
0
  6
Continuous
 62
     7
370
    18
100
AcDbLine
 10
11.8493078636
 20
7.6457800778
 30
0.0
 11
11.8493078636
 21
7.3977331954
 31
0.0
  0
LINE
  5
5AE
330
5A4
100
AcDbEntity
  8
0
  6
Continuous
 62
     7
370
    18
100
AcDbLine
 10
11.8493078636
 20
7.3977331954
 30
0.0
 11
11.8017004422
 21
7.3977331954
 31
0.0
  0
LINE
  5
5AF
330
5A4
100
AcDbEntity
  8
0
  6
Continuous
 62
     7
370
    18
100
AcDbLine
 10
10.7193936451
 20
7.6469736786
 30
0.0
 11
10.4068936451
 21
7.6469736786
 31
0.0
  0
LINE
  5
5B0
330
5A4
100
AcDbEntity
  8
0
  6
Continuous
 62
     7
370
    18
100
AcDbLine
 10
10.8295038813
 20
7.6469736786
 30
0.0
 11
11.3284192813
 21
7.6469736786
 31
0.0
  0
MTEXT
  5
5B1
330
5A4
100
AcDbEntity
  8
0
  6
Continuous
 62
     7
370
    18
100
AcDbMText
 10
11.4187251933
 20
7.8813223622
 30
0.0
 40
0.15625
 41
0.0
 71
     1
 72
     1
  1

  7
SLDTEXTSTYLE0
 73
     1
 44
1.0
  0
MTEXT
  5
5B2
330
5A4
100
AcDbEntity
  8
0
  6
Continuous
 62
     7
370
    18
100
AcDbMText
 10
11.5130719692
 20
7.8789351979
 30
0.0
 40
0.15625
 41
0.0
 71
     1
 72
     1
  1
.11
  7
SLDTEXTSTYLE0
 73
     1
 44
1.0
  0
MTEXT
  5
5B3
330
5A4
100
AcDbEntity
  8
0
  6
Continuous
 62
     7
370
    18
100
AcDbMText
 10
11.5130719807
 20
7.5991500469
 30
0.0
 40
0.15625
 41
0.0
 71
     1
 72
     1
  1
2.8
  7
SLDTEXTSTYLE0
 73
     1
 44
1.0
  0
MTEXT
  5
5B4
330
5A4
100
AcDbEntity
  8
0
  6
Continuous
 62
     7
370
    18
100
AcDbMText
 10
11.9555090006
 20
7.8813223622
 30
0.0
 40
0.15625
 41
0.0
 71
     1
 72
     1
  1

  7
SLDTEXTSTYLE0
 73
     1
 44
1.0
  0
ENDBLK
  5
5A6
330
5A4
100
AcDbEntity
  8
0
100
AcDbBlockEnd
  0
BLOCK
  5
5B7
330
5B6
100
AcDbEntity
  8
0
100
AcDbBlockBegin
  2
_D_23
 70
     0
 10
0.0
 20
0.0
 30
0.0
  3
_D_23
  1

  0
SOLID
  5
5B9
330
5B6
100
AcDbEntity
  8
0
  6
Continuous
 62
     7
370
    18
100
AcDbTrace
 10
10.7193936451
 20
7.6469736786
 30
0.0
 11
10.5568936451
 21
7.6719736786
 31
0.0
 12
10.5568936451
 22
7.6219736786
 32
0.0
 13
10.5568936451
 23
7.6219736786
 33
0.0
  0
SOLID
  5
5BA
330
5B6
100
AcDbEntity
  8
0
  6
Continuous
 62
     7
370
    18
100
AcDbTrace
 10
8.1777086057
 20
7.6469736786
 30
0.0
 11
8.3402086057
 21
7.6219736786
 31
0.0
 12
8.3402086057
 22
7.6719736786
 32
0.0
 13
8.3402086057
 23
7.6719736786
 33
0.0
  0
LINE
  5
5BB
330
5B6
100
AcDbEntity
  8
0
  6
Continuous
 62
     7
370
    18
100
AcDbLine
 10
9.2465112114
 20
7.6457800778
 30
0.0
 11
9.19890379
 21
7.6457800778
 31
0.0
  0
LINE
  5
5BC
330
5B6
100
AcDbEntity
  8
0
  6
Continuous
 62
     7
370
    18
100
AcDbLine
 10
9.19890379
 20
7.6457800778
 30
0.0
 11
9.19890379
 21
7.3977331954
 31
0.0
  0
LINE
  5
5BD
330
5B6
100
AcDbEntity
  8
0
  6
Continuous
 62
     7
370
    18
100
AcDbLine
 10
9.19890379
 20
7.3977331954
 30
0.0
 11
9.2465112114
 21
7.3977331954
 31
0.0
  0
LINE
  5
5BE
330
5B6
100
AcDbEntity
  8
0
  6
Continuous
 62
     7
370
    18
100
AcDbLine
 10
9.6505910851
 20
7.6457800778
 30
0.0
 11
9.6981985065
 21
7.6457800778
 31
0.0
  0
LINE
  5
5BF
330
5B6
100
AcDbEntity
  8
0
  6
Continuous
 62
     7
370
    18
100
AcDbLine
 10
9.6981985065
 20
7.6457800778
 30
0.0
 11
9.6981985065
 21
7.3977331954
 31
0.0
  0
LINE
  5
5C0
330
5B6
100
AcDbEntity
  8
0
  6
Continuous
 62
     7
370
    18
100
AcDbLine
 10
9.6981985065
 20
7.3977331954
 30
0.0
 11
9.6505910851
 21
7.3977331954
 31
0.0
  0
LINE
  5
5C1
330
5B6
100
AcDbEntity
  8
0
  6
Continuous
 62
     7
370
    18
100
AcDbLine
 10
10.7193936451
 20
7.6469736786
 30
0.0
 11
9.8352437387
 21
7.6469736786
 31
0.0
  0
LINE
  5
5C2
330
5B6
100
AcDbEntity
  8
0
  6
Continuous
 62
     7
370
    18
100
AcDbLine
 10
8.1777086057
 20
7.6469736786
 30
0.0
 11
9.061858512
 21
7.6469736786
 31
0.0
  0
MTEXT
  5
5C3
330
5B6
100
AcDbEntity
  8
0
  6
Continuous
 62
     7
370
    18
100
AcDbMText
 10
9.152164424
 20
7.8813223622
 30
0.0
 40
0.15625
 41
0.0
 71
     1
 72
     1
  1

  7
SLDTEXTSTYLE0
 73
     1
 44
1.0
  0
MTEXT
  5
5C4
330
5B6
100
AcDbEntity
  8
0
  6
Continuous
 62
     7
370
    18
100
AcDbMText
 10
9.2465112
 20
7.8789351979
 30
0.0
 40
0.15625
 41
0.0
 71
     1
 72
     1
  1
2.54
  7
SLDTEXTSTYLE0
 73
     1
 44
1.0
  0
MTEXT
  5
5C5
330
5B6
100
AcDbEntity
  8
0
  6
Continuous
 62
     7
370
    18
100
AcDbMText
 10
9.2465112114
 20
7.5991500469
 30
0.0
 40
0.15625
 41
0.0
 71
     1
 72
     1
  1
64.6
  7
SLDTEXTSTYLE0
 73
     1
 44
1.0
  0
MTEXT
  5
5C6
330
5B6
100
AcDbEntity
  8
0
  6
Continuous
 62
     7
370
    18
100
AcDbMText
 10
9.8043996435
 20
7.8813223622
 30
0.0
 40
0.15625
 41
0.0
 71
     1
 72
     1
  1

  7
SLDTEXTSTYLE0
 73
     1
 44
1.0
  0
ENDBLK
  5
5B8
330
5B6
100
AcDbEntity
  8
0
100
AcDbBlockEnd
  0
ENDSEC
  0
SECTION
  2
ENTITIES
  0
LINE
  5
73
330
1F
100
AcDbEntity
  8
0
  6
Continuous
 62
     7
370
    18
100
AcDbLine
 10
0.3915645058
 20
13.3813414634
 30
0.0
 11
20.8615645058
 21
13.3813414634
 31
0.0
  0
LINE
  5
74
330
1F
100
AcDbEntity
  8
0
  6
Continuous
 62
     7
370
    18
100
AcDbLine
 10
20.8615645058
 20
0.4113414634
 30
0.0
 11
20.8615645058
 21
13.3813414634
 31
0.0
  0
LINE
  5
75
330
1F
100
AcDbEntity
  8
0
  6
Continuous
 62
     7
370
    18
100
AcDbLine
 10
20.8615645058
 20
0.4113414634
 30
0.0
 11
0.3915645058
 21
0.4113414634
 31
0.0
  0
LINE
  5
76
330
1F
100
AcDbEntity
  8
0
  6
Continuous
 62
     7
370
    18
100
AcDbLine
 10
0.3915645058
 20
13.3813414634
 30
0.0
 11
0.3915645058
 21
0.4113414634
 31
0.0
  0
LINE
  5
77
330
1F
100
AcDbEntity
  8
0
  6
Continuous
 62
     7
370
    18
100
AcDbLine
 10
0.3140645058
 20
13.4588414634
 30
0.0
 11
20.9390645058
 21
13.4588414634
 31
0.0
  0
LINE
  5
78
330
1F
100
AcDbEntity
  8
0
  6
Continuous
 62
     7
370
    18
100
AcDbLine
 10
20.9390645058
 20
0.3338414634
 30
0.0
 11
0.3140645058
 21
0.3338414634
 31
0.0
  0
LINE
  5
79
330
1F
100
AcDbEntity
  8
0
  6
Continuous
 62
     7
370
    18
100
AcDbLine
 10
0.3140645058
 20
13.4588414634
 30
0.0
 11
0.3140645058
 21
0.3338414634
 31
0.0
  0
LINE
  5
7A
330
1F
100
AcDbEntity
  8
0
  6
Continuous
 62
     7
370
    18
100
AcDbLine
 10
20.9390645058
 20
0.3338414634
 30
0.0
 11
20.9390645058
 21
13.4588414634
 31
0.0
  0
LINE
  5
7B
330
1F
100
AcDbEntity
  8
0
  6
Continuous
 62
     7
370
    18
100
AcDbLine
 10
0.3915645058
 20
12.8738414634
 30
0.0
 11
20.8615645058
 21
12.8738414634
 31
0.0
  0
LINE
  5
7C
330
1F
100
AcDbEntity
  8
0
  6
Continuous
 62
     7
370
    18
100
AcDbLine
 10
2.3046490259
 20
13.3813414634
 30
0.0
 11
2.3046490259
 21
12.8738414634
 31
0.0
  0
LINE
  5
7D
330
1F
100
AcDbEntity
  8
0
  6
Continuous
 62
     7
370
    18
100
AcDbLine
 10
1.3885398546
 20
13.3813414634
 30
0.0
 11
1.3885398546
 21
12.8738414634
 31
0.0
  0
LINE
  5
7E
330
1F
100
AcDbEntity
  8
0
  6
Continuous
 62
     7
370
    18
100
AcDbLine
 10
19.2990645058
 20
12.8738414634
 30
0.0
 11
19.2990645058
 21
13.3813414634
 31
0.0
  0
LINE
  5
7F
330
1F
100
AcDbEntity
  8
0
  6
Continuous
 62
     7
370
    18
100
AcDbLine
 10
18.3615645058
 20
12.8738414634
 30
0.0
 11
18.3615645058
 21
13.3813414634
 31
0.0
  0
LINE
  5
80
330
1F
100
AcDbEntity
  8
0
  6
Continuous
 62
     7
370
    18
100
AcDbLine
 10
18.2840645058
 20
12.8738414634
 30
0.0
 11
18.2840645058
 21
13.3813414634
 31
0.0
  0
LINE
  5
81
330
1F
100
AcDbEntity
  8
0
  6
Continuous
 62
     7
370
    18
100
AcDbLine
 10
0.5595973965
 20
12.9702001448
 30
0.0
 11
0.5595973965
 21
13.3021185874
 31
0.0
  0
LINE
  5
82
330
1F
100
AcDbEntity
  8
0
  6
Continuous
 62
     7
370
    18
100
AcDbLine
 10
0.7907289304
 20
12.9909450474
 30
0.0
 11
0.7907289304
 21
13.3021185874
 31
0.0
  0
LINE
  5
83
330
1F
100
AcDbEntity
  8
0
  6
Continuous
 62
     7
370
    18
100
AcDbLine
 10
0.8802923998
 20
13.0243549411
 30
0.0
 11
0.8802923998
 21
13.3021185874
 31
0.0
  0
LINE
  5
84
330
1F
100
AcDbEntity
  8
0
  6
Continuous
 62
     7
370
    18
100
AcDbLine
 10
0.8514009581
 20
13.0243549411
 30
0.0
 11
0.8514009581
 21
13.3021185874
 31
0.0
  0
LINE
  5
85
330
1F
100
AcDbEntity
  8
0
  6
Continuous
 62
     7
370
    18
100
AcDbLine
 10
1.0088526519
 20
12.9702001448
 30
0.0
 11
1.0088526519
 21
13.3021185874
 31
0.0
  0
LINE
  5
86
330
1F
100
AcDbEntity
  8
0
  6
Continuous
 62
     7
370
    18
100
AcDbLine
 10
0.9409644274
 20
12.9909450474
 30
0.0
 11
0.9409644274
 21
13.3021185874
 31
0.0
  0
LINE
  5
87
330
1F
100
AcDbEntity
  8
0
  6
Continuous
 62
     7
370
    18
100
AcDbLine
 10
0.8114738331
 20
12.9702001448
 30
0.0
 11
0.9202195248
 21
12.9702001448
 31
0.0
  0
LINE
  5
88
330
1F
100
AcDbEntity
  8
0
  6
Continuous
 62
     7
370
    18
100
AcDbLine
 10
0.5595973965
 20
12.9702001448
 30
0.0
 11
0.6664957309
 21
12.9702001448
 31
0.0
  0
LINE
  5
89
330
1F
100
AcDbEntity
  8
0
  6
Continuous
 62
     7
370
    18
100
AcDbLine
 10
0.6664957309
 20
13.127861405
 30
0.0
 11
0.5754876894
 21
13.127861405
 31
0.0
  0
LINE
  5
8A
330
1F
100
AcDbEntity
  8
0
  6
Continuous
 62
     7
370
    18
100
AcDbLine
 10
0.6664957309
 20
13.1444573271
 30
0.0
 11
0.5754876894
 21
13.1444573271
 31
0.0
  0
LINE
  5
8B
330
1F
100
AcDbEntity
  8
0
  6
Continuous
 62
     7
370
    18
100
AcDbLine
 10
0.5754876894
 20
13.1444573271
 30
0.0
 11
0.5754876894
 21
13.1361593661
 31
0.0
  0
LINE
  5
8C
330
1F
100
AcDbEntity
  8
0
  6
Continuous
 62
     7
370
    18
100
AcDbLine
 10
0.5754876894
 20
13.127861405
 30
0.0
 11
0.5754876894
 21
13.1361593661
 31
0.0
  0
LINE
  5
8D
330
1F
100
AcDbEntity
  8
0
  6
Continuous
 62
     7
370
    18
100
AcDbLine
 10
1.0088526519
 20
12.9702001448
 30
0.0
 11
1.0501395545
 21
12.9702001448
 31
0.0
  0
LINE
  5
8E
330
1F
100
AcDbEntity
  8
0
  6
Continuous
 62
     7
370
    18
100
AcDbLine
 10
1.1663110094
 20
13.0863715997
 30
0.0
 11
1.1663110094
 21
13.1859471325
 31
0.0
  0
LINE
  5
8F
330
1F
100
AcDbEntity
  8
0
  6
Continuous
 62
     7
370
    18
100
AcDbLine
 10
1.1052630371
 20
13.127861405
 30
0.0
 11
1.1052630371
 21
13.1444573271
 31
0.0
  0
LINE
  5
90
330
1F
100
AcDbEntity
  8
0
  6
Continuous
 62
     7
370
    18
100
AcDbLine
 10
1.0536410502
 20
13.127861405
 30
0.0
 11
1.0536410502
 21
13.1444573271
 31
0.0
  0
LINE
  5
91
330
1F
100
AcDbEntity
  8
0
  6
Continuous
 62
     7
370
    18
100
AcDbLine
 10
1.1052630371
 20
13.127861405
 30
0.0
 11
1.0536410502
 21
13.127861405
 31
0.0
  0
LINE
  5
92
330
1F
100
AcDbEntity
  8
0
  6
Continuous
 62
     7
370
    18
100
AcDbLine
 10
1.1052630371
 20
13.1444573271
 30
0.0
 11
1.0536410502
 21
13.1444573271
 31
0.0
  0
LINE
  5
93
330
1F
100
AcDbEntity
  8
0
  6
Continuous
 62
     7
370
    18
100
AcDbLine
 10
0.8802923998
 20
13.3021185874
 30
0.0
 11
0.9409644274
 21
13.3021185874
 31
0.0
  0
LINE
  5
94
330
1F
100
AcDbEntity
  8
0
  6
Continuous
 62
     7
370
    18
100
AcDbLine
 10
0.5595973965
 20
13.3021185874
 30
0.0
 11
0.6664957309
 21
13.3021185874
 31
0.0
  0
LINE
  5
95
330
1F
100
AcDbEntity
  8
0
  6
Continuous
 62
     7
370
    18
100
AcDbLine
 10
0.7907289304
 20
13.3021185874
 30
0.0
 11
0.8514009581
 21
13.3021185874
 31
0.0
  0
LINE
  5
96
330
1F
100
AcDbEntity
  8
0
  6
Continuous
 62
     7
370
    18
100
AcDbLine
 10
1.0088526519
 20
13.3021185874
 30
0.0
 11
1.0501395545
 21
13.3021185874
 31
0.0
  0
LINE
  5
97
330
1F
100
AcDbEntity
  8
0
  6
Continuous
 62
     7
370
    18
100
AcDbLine
 10
1.3126250325
 20
13.3813414634
 30
0.0
 11
1.3126250325
 21
12.8738414634
 31
0.0
  0
LINE
  5
98
330
1F
100
AcDbEntity
  8
0
  6
Continuous
 62
     7
370
    18
100
AcDbLine
 10
10.4789942212
 20
12.8738414634
 30
0.0
 11
10.4789942212
 21
13.3813414634
 31
0.0
  0
LINE
  5
99
330
1F
100
AcDbEntity
  8
0
  6
Continuous
 62
     7
370
    18
100
AcDbLine
 10
10.5564942212
 20
12.8738414634
 30
0.0
 11
10.5564942212
 21
13.3813414634
 31
0.0
  0
LINE
  5
9A
330
1F
100
AcDbEntity
  8
0
  6
Continuous
 62
     7
370
    18
100
AcDbLine
 10
11.4939942212
 20
12.8738414634
 30
0.0
 11
11.4939942212
 21
13.3813414634
 31
0.0
  0
ARC
  5
9B
330
1F
100
AcDbEntity
  8
0
  6
Continuous
 62
     7
370
    18
100
AcDbCircle
 10
0.6664957309
 20
13.2232879573
 30
0.0
 40
0.0788306301232229
100
AcDbArc
 50
270.0
 51
90.0
  0
ARC
  5
9C
330
1F
100
AcDbEntity
  8
0
  6
Continuous
 62
     7
370
    18
100
AcDbCircle
 10
1.0501395545
 20
13.1859471325
 30
0.0
 40
0.1161714549184332
100
AcDbArc
 50
0.0
 51
90.0
  0
ARC
  5
9D
330
1F
100
AcDbEntity
  8
0
  6
Continuous
 62
     7
370
    18
100
AcDbCircle
 10
0.6664957309
 20
13.0490307749
 30
0.0
 40
0.0788306301232229
100
AcDbArc
 50
270.0
 51
90.0
  0
ARC
  5
9E
330
1F
100
AcDbEntity
  8
0
  6
Continuous
 62
     7
370
    18
100
AcDbCircle
 10
0.8114738331
 20
12.9909450474
 30
0.0
 40
0.0207449026640117
100
AcDbArc
 50
180.0
 51
270.0
  0
ARC
  5
9F
330
1F
100
AcDbEntity
  8
0
  6
Continuous
 62
     7
370
    18
100
AcDbCircle
 10
0.8636964777
 20
13.0243549411
 30
0.0
 40
0.0165959221312002
100
AcDbArc
 50
277.4442840975
 51
0.0
  0
ARC
  5
A0
330
1F
100
AcDbEntity
  8
0
  6
Continuous
 62
     7
370
    18
100
AcDbCircle
 10
0.8679968802
 20
13.0243549411
 30
0.0
 40
0.0165959221312139
100
AcDbArc
 50
180.0
 51
262.5557159021
  0
ARC
  5
A1
330
1F
100
AcDbEntity
  8
0
  6
Continuous
 62
     7
370
    18
100
AcDbCircle
 10
1.0501395545
 20
13.0863715997
 30
0.0
 40
0.1161714549184332
100
AcDbArc
 50
270.0
 51
0.0
  0
ARC
  5
A2
330
1F
100
AcDbEntity
  8
0
  6
Continuous
 62
     7
370
    18
100
AcDbCircle
 10
0.9202195248
 20
12.9909450474
 30
0.0
 40
0.0207449026640063
100
AcDbArc
 50
270.0
 51
0.0
  0
INSERT
  5
AB
330
1F
100
AcDbEntity
  8
0
  6
Continuous
 62
     7
370
     0
100
AcDbBlockReference
  2
SW_NOTE_0
 10
17.3710688741
 20
12.3864253948
 30
0.0
  0
INSERT
  5
B4
330
1F
100
AcDbEntity
  8
0
  6
Continuous
 62
     7
370
     0
100
AcDbBlockReference
  2
SW_NOTE_1
 10
8.0853328805
 20
1.279752738
 30
0.0
  0
INSERT
  5
C5
330
1F
100
AcDbEntity
  8
0
  6
Continuous
 62
     7
370
     0
100
AcDbBlockReference
  2
SW_NOTE_2
 10
8.0788639103
 20
4.4846187343
 30
0.0
  0
MTEXT
  5
C6
330
1F
100
AcDbEntity
  8
0
  6
Continuous
 62
     7
370
     0
100
AcDbMText
 10
7.4558407059
 20
11.6930849324
 30
0.0
 40
0.15625
 41
0.0
 71
     1
 72
     1
  1
[6.9]
  7
SLDTEXTSTYLE0
 73
     1
 44
1.0
  0
MTEXT
  5
C7
330
1F
100
AcDbEntity
  8
0
  6
Continuous
 62
     7
370
     0
100
AcDbMText
 10
20.0872396474
 20
13.2616454301
 30
0.0
 40
0.234375
 41
0.0
 71
     2
 72
     1
  1
5-2-16
  7
SLDTEXTSTYLE0
 73
     1
 44
1.0
  0
MTEXT
  5
C8
330
1F
100
AcDbEntity
  8
0
  6
Continuous
 62
     7
370
     0
100
AcDbMText
 10
6.4367619041
 20
13.2752985484
 30
0.0
 40
0.234375
 41
0.0
 71
     2
 72
     1
  1
NEMA 4X PLASTIC BOX  (PTS SERIES)
  7
SLDTEXTSTYLE0
 73
     1
 44
1.0
  0
MTEXT
  5
CA
330
1F
100
AcDbEntity
  8
0
  6
Continuous
 62
     7
370
     0
100
AcDbMText
 10
14.8589157468
 20
13.2616454416
 30
0.0
 40
0.234375
 41
0.0
 71
     2
 72
     1
  1
PTS-25308     &     PTS-25308-C
  7
SLDTEXTSTYLE3
 73
     1
 44
1.0
  0
INSERT
  5
D0
330
1F
100
AcDbEntity
  8
0
  6
Continuous
 62
     7
370
     0
100
AcDbBlockReference
  2
SW_NOTE_3
 10
1.5855426558
 20
13.1326727974
 30
0.0
  0
INSERT
  5
D6
330
1F
100
AcDbEntity
  8
0
  6
Continuous
 62
     7
370
     0
100
AcDbBlockReference
  2
SW_NOTE_4
 10
10.8048081537
 20
13.1234848198
 30
0.0
  0
INSERT
  5
DC
330
1F
100
AcDbEntity
  8
0
  6
Continuous
 62
     7
370
     0
100
AcDbBlockReference
  2
SW_NOTE_5
 10
18.3857982843
 20
13.1292294119
 30
0.0
  0
ARC
  5
DD
330
1F
100
AcDbEntity
  8
0
  6
Continuous
 62
     7
370
    25
100
AcDbCircle
 10
2.9567415944
 20
10.4162767217
 30
0.0
 40
0.2854330708661418
100
AcDbArc
 50
115.0
 51
154.9999999999
  0
ARC
  5
DE
330
1F
100
AcDbEntity
  8
0
  6
Continuous
 62
     7
370
    25
100
AcDbCircle
 10
2.9567415944
 20
10.4162767217
 30
0.0
 40
0.2263779527559063
100
AcDbArc
 50
114.9999999999
 51
154.9999999999
  0
LINE
  5
DF
330
1F
100
AcDbEntity
  8
0
  6
Continuous
 62
     7
370
    25
100
AcDbLine
 10
2.7515734512
 20
10.5119481934
 30
0.0
 11
2.6980514428
 21
10.5369058784
 31
0.0
  0
LINE
  5
E0
330
1F
100
AcDbEntity
  8
0
  6
Continuous
 62
     7
370
    25
100
AcDbLine
 10
2.8361123146
 20
10.6749668969
 30
0.0
 11
2.8610701462
 21
10.6214448885
 31
0.0
  0
LINE
  5
E1
330
1F
100
AcDbEntity
  8
0
  6
Continuous
 62
     7
370
    25
100
AcDbLine
 10
4.9724895949
 20
6.5107649487
 30
0.0
 11
3.3819384758
 21
6.5107649487
 31
0.0
  0
LINE
  5
E2
330
1F
100
AcDbEntity
  8
0
  6
Continuous
 62
     7
370
    25
100
AcDbLine
 10
3.2638282202
 20
6.628875131
 30
0.0
 11
3.2638282202
 21
6.833599486
 31
0.0
  0
ARC
  5
E3
330
1F
100
AcDbEntity
  8
0
  6
Continuous
 62
     7
370
    25
100
AcDbCircle
 10
2.9961116732
 20
6.8335995564
 30
0.0
 40
0.2677165354331286
100
AcDbArc
 50
360.0
 51
90.0
  0
LINE
  5
E4
330
1F
100
AcDbEntity
  8
0
  6
Continuous
 62
     7
370
    25
100
AcDbLine
 10
2.9961116996
 20
7.1013161533
 30
0.0
 11
2.7913872712
 21
7.1013161533
 31
0.0
  0
ARC
  5
E5
330
1F
100
AcDbEntity
  8
0
  6
Continuous
 62
     7
370
    25
100
AcDbCircle
 10
2.7913872637
 20
7.219426328
 30
0.0
 40
0.1181102362204696
100
AcDbArc
 50
180.0
 51
270.0
  0
LINE
  5
E6
330
1F
100
AcDbEntity
  8
0
  6
Continuous
 62
     7
370
    25
100
AcDbLine
 10
2.673277089
 20
7.2194263356
 30
0.0
 11
2.673277089
 21
9.9910798638
 31
0.0
  0
LINE
  5
E7
330
1F
100
AcDbEntity
  8
0
  6
Continuous
 62
     7
370
    25
100
AcDbLine
 10
2.7913872712
 20
10.1091900461
 30
0.0
 11
2.9961116996
 21
10.1091900461
 31
0.0
  0
ARC
  5
E8
330
1F
100
AcDbEntity
  8
0
  6
Continuous
 62
     7
370
    25
100
AcDbCircle
 10
2.9961116732
 20
10.376906643
 30
0.0
 40
0.2677165354331863
100
AcDbArc
 50
270.0
 51
360.0
  0
LINE
  5
E9
330
1F
100
AcDbEntity
  8
0
  6
Continuous
 62
     7
370
    25
100
AcDbLine
 10
3.2638282202
 20
10.3769067134
 30
0.0
 11
3.2638282202
 21
10.5816310684
 31
0.0
  0
ARC
  5
EA
330
1F
100
AcDbEntity
  8
0
  6
Continuous
 62
     7
370
    25
100
AcDbCircle
 10
3.3819384448
 20
10.5816310525
 30
0.0
 40
0.1181102362204713
100
AcDbArc
 50
90.0
 51
180.0
  0
LINE
  5
EB
330
1F
100
AcDbEntity
  8
0
  6
Continuous
 62
     7
370
    25
100
AcDbLine
 10
3.3819384758
 20
10.6997412507
 30
0.0
 11
4.9724895949
 21
10.6997412507
 31
0.0
  0
LINE
  5
EC
330
1F
100
AcDbEntity
  8
0
  6
Continuous
 62
     7
370
    25
100
AcDbLine
 10
5.0905998505
 20
10.5816310684
 30
0.0
 11
5.0905998505
 21
10.3769067134
 31
0.0
  0
ARC
  5
ED
330
1F
100
AcDbEntity
  8
0
  6
Continuous
 62
     7
370
    25
100
AcDbCircle
 10
5.3583163976
 20
10.376906643
 30
0.0
 40
0.2677165354330411
100
AcDbArc
 50
180.0
 51
270.0
  0
LINE
  5
EE
330
1F
100
AcDbEntity
  8
0
  6
Continuous
 62
     7
370
    25
100
AcDbLine
 10
5.3583163712
 20
10.1091900461
 30
0.0
 11
5.5630407995
 21
10.1091900461
 31
0.0
  0
ARC
  5
EF
330
1F
100
AcDbEntity
  8
0
  6
Continuous
 62
     7
370
    25
100
AcDbCircle
 10
5.563040807
 20
9.9910798714
 30
0.0
 40
0.118110236220474
100
AcDbArc
 50
360.0
 51
90.0
  0
LINE
  5
F0
330
1F
100
AcDbEntity
  8
0
  6
Continuous
 62
     7
370
    25
100
AcDbLine
 10
5.6811509818
 20
9.9910798638
 30
0.0
 11
5.6811509818
 21
7.2194263356
 31
0.0
  0
ARC
  5
F1
330
1F
100
AcDbEntity
  8
0
  6
Continuous
 62
     7
370
    25
100
AcDbCircle
 10
5.3583163976
 20
6.8335995564
 30
0.0
 40
0.2677165354330464
100
AcDbArc
 50
90.0
 51
180.0
  0
LINE
  5
F2
330
1F
100
AcDbEntity
  8
0
  6
Continuous
 62
     7
370
    25
100
AcDbLine
 10
5.0905998505
 20
6.833599486
 30
0.0
 11
5.0905998505
 21
6.628875131
 31
0.0
  0
ARC
  5
F3
330
1F
100
AcDbEntity
  8
0
  6
Continuous
 62
     7
370
    25
100
AcDbCircle
 10
4.9724896259
 20
6.6288751469
 30
0.0
 40
0.1181102362204856
100
AcDbArc
 50
270.0
 51
0.0
  0
LINE
  5
F4
330
1F
100
AcDbEntity
  8
0
  6
Continuous
 62
     7
370
    25
100
AcDbLine
 10
5.6339069675
 20
7.2194263356
 30
0.0
 11
5.6339069675
 21
9.9910798638
 31
0.0
  0
LINE
  5
F5
330
1F
100
AcDbEntity
  8
0
  6
Continuous
 62
     7
370
    25
100
AcDbLine
 10
4.9724895949
 20
10.6524972364
 30
0.0
 11
3.3819384758
 21
10.6524972364
 31
0.0
  0
LINE
  5
F6
330
1F
100
AcDbEntity
  8
0
  6
Continuous
 62
     7
370
    25
100
AcDbLine
 10
2.7205211032
 20
9.9910798638
 30
0.0
 11
2.7205211032
 21
7.2194263356
 31
0.0
  0
LINE
  5
F7
330
1F
100
AcDbEntity
  8
0
  6
Continuous
 62
     7
370
    25
100
AcDbLine
 10
3.3819384758
 20
6.558008963
 30
0.0
 11
4.9724895949
 21
6.558008963
 31
0.0
  0
LINE
  5
F8
330
1F
100
AcDbEntity
  8
0
  6
Continuous
 62
     7
370
    25
100
AcDbLine
 10
5.5630407995
 20
7.1013161533
 30
0.0
 11
5.3583163712
 21
7.1013161533
 31
0.0
  0
ARC
  5
F9
330
1F
100
AcDbEntity
  8
0
  6
Continuous
 62
     7
370
    25
100
AcDbCircle
 10
5.563040807
 20
7.219426328
 30
0.0
 40
0.1181102362204731
100
AcDbArc
 50
270.0
 51
360.0
  0
ARC
  5
FA
330
1F
100
AcDbEntity
  8
0
  6
Continuous
 62
     7
370
    25
100
AcDbCircle
 10
3.3819384448
 20
6.6288751469
 30
0.0
 40
0.118110236220355
100
AcDbArc
 50
180.0
 51
270.0
  0
ARC
  5
FB
330
1F
100
AcDbEntity
  8
0
  6
Continuous
 62
     7
370
    25
100
AcDbCircle
 10
4.9724896259
 20
10.5816310525
 30
0.0
 40
0.1181102362204731
100
AcDbArc
 50
360.0
 51
90.0
  0
ARC
  5
FC
330
1F
100
AcDbEntity
  8
0
  6
Continuous
 62
     7
370
    25
100
AcDbCircle
 10
2.7913872637
 20
9.9910798714
 30
0.0
 40
0.1181102362204651
100
AcDbArc
 50
90.0
 51
180.0
  0
LINE
  5
FD
330
1F
100
AcDbEntity
  8
0
  6
Continuous
 62
     7
370
    25
100
AcDbLine
 10
2.7913872712
 20
7.1485601675
 30
0.0
 11
2.9961116996
 21
7.1485601675
 31
0.0
  0
LINE
  5
FE
330
1F
100
AcDbEntity
  8
0
  6
Continuous
 62
     7
370
    25
100
AcDbLine
 10
3.3110723078
 20
6.833599486
 30
0.0
 11
3.3110723078
 21
6.628875131
 31
0.0
  0
ARC
  5
FF
330
1F
100
AcDbEntity
  8
0
  6
Continuous
 62
     7
370
    25
100
AcDbCircle
 10
2.9961116732
 20
6.8335995564
 30
0.0
 40
0.3149606299213206
100
AcDbArc
 50
360.0
 51
90.0
  0
LINE
  5
100
330
1F
100
AcDbEntity
  8
0
  6
Continuous
 62
     7
370
    25
100
AcDbLine
 10
3.3110723078
 20
10.5816310684
 30
0.0
 11
3.3110723078
 21
10.3769067134
 31
0.0
  0
LINE
  5
101
330
1F
100
AcDbEntity
  8
0
  6
Continuous
 62
     7
370
    25
100
AcDbLine
 10
2.9961116996
 20
10.0619460319
 30
0.0
 11
2.7913872712
 21
10.0619460319
 31
0.0
  0
ARC
  5
102
330
1F
100
AcDbEntity
  8
0
  6
Continuous
 62
     7
370
    25
100
AcDbCircle
 10
2.9961116732
 20
10.376906643
 30
0.0
 40
0.3149606299213343
100
AcDbArc
 50
270.0
 51
0.0
  0
ARC
  5
103
330
1F
100
AcDbEntity
  8
0
  6
Continuous
 62
     7
370
    25
100
AcDbCircle
 10
3.3819384448
 20
6.6288751469
 30
0.0
 40
0.0708661417323997
100
AcDbArc
 50
180.0
 51
270.0
  0
LINE
  5
104
330
1F
100
AcDbEntity
  8
0
  6
Continuous
 62
     7
370
    25
100
AcDbLine
 10
5.043355763
 20
10.3769067134
 30
0.0
 11
5.043355763
 21
10.5816310684
 31
0.0
  0
ARC
  5
105
330
1F
100
AcDbEntity
  8
0
  6
Continuous
 62
     7
370
    25
100
AcDbCircle
 10
5.3583163976
 20
10.376906643
 30
0.0
 40
0.3149606299212611
100
AcDbArc
 50
180.0
 51
270.0
  0
LINE
  5
106
330
1F
100
AcDbEntity
  8
0
  6
Continuous
 62
     7
370
    25
100
AcDbLine
 10
5.5630407995
 20
10.0619460319
 30
0.0
 11
5.3583163712
 21
10.0619460319
 31
0.0
  0
ARC
  5
107
330
1F
100
AcDbEntity
  8
0
  6
Continuous
 62
     7
370
    25
100
AcDbCircle
 10
5.563040807
 20
9.9910798714
 30
0.0
 40
0.0708661417322833
100
AcDbArc
 50
0.0
 51
90.0
  0
ARC
  5
108
330
1F
100
AcDbEntity
  8
0
  6
Continuous
 62
     7
370
    25
100
AcDbCircle
 10
2.7913872637
 20
7.219426328
 30
0.0
 40
0.0708661417322807
100
AcDbArc
 50
180.0
 51
270.0
  0
ARC
  5
109
330
1F
100
AcDbEntity
  8
0
  6
Continuous
 62
     7
370
    25
100
AcDbCircle
 10
2.7913872637
 20
9.9910798714
 30
0.0
 40
0.0708661417323939
100
AcDbArc
 50
90.0
 51
180.0
  0
LINE
  5
10A
330
1F
100
AcDbEntity
  8
0
  6
Continuous
 62
     7
370
    25
100
AcDbLine
 10
5.3583163712
 20
7.1485601675
 30
0.0
 11
5.5630407995
 21
7.1485601675
 31
0.0
  0
ARC
  5
10B
330
1F
100
AcDbEntity
  8
0
  6
Continuous
 62
     7
370
    25
100
AcDbCircle
 10
5.3583163976
 20
6.8335995564
 30
0.0
 40
0.3149606299212628
100
AcDbArc
 50
90.0
 51
180.0
  0
LINE
  5
10C
330
1F
100
AcDbEntity
  8
0
  6
Continuous
 62
     7
370
    25
100
AcDbLine
 10
5.043355763
 20
6.628875131
 30
0.0
 11
5.043355763
 21
6.833599486
 31
0.0
  0
ARC
  5
10D
330
1F
100
AcDbEntity
  8
0
  6
Continuous
 62
     7
370
    25
100
AcDbCircle
 10
4.9724896259
 20
6.6288751469
 30
0.0
 40
0.0708661417323757
100
AcDbArc
 50
270.0
 51
0.0
  0
ARC
  5
10E
330
1F
100
AcDbEntity
  8
0
  6
Continuous
 62
     7
370
    25
100
AcDbCircle
 10
3.3819384448
 20
10.5816310525
 30
0.0
 40
0.0708661417322549
100
AcDbArc
 50
90.0
 51
180.0
  0
ARC
  5
10F
330
1F
100
AcDbEntity
  8
0
  6
Continuous
 62
     7
370
    25
100
AcDbCircle
 10
5.563040807
 20
7.219426328
 30
0.0
 40
0.07086614173231
100
AcDbArc
 50
270.0
 51
360.0
  0
ARC
  5
110
330
1F
100
AcDbEntity
  8
0
  6
Continuous
 62
     7
370
    25
100
AcDbCircle
 10
4.9724896259
 20
10.5816310525
 30
0.0
 40
0.0708661417322567
100
AcDbArc
 50
0.0
 51
90.0
  0
CIRCLE
  5
111
330
1F
100
AcDbEntity
  8
0
  6
Continuous
 62
     7
370
    25
100
AcDbCircle
 10
2.9567415944
 20
6.7942294777
 30
0.0
 40
0.2263779527559056
  0
CIRCLE
  5
112
330
1F
100
AcDbEntity
  8
0
  6
Continuous
 62
     7
370
    25
100
AcDbCircle
 10
5.3976864763
 20
10.4162767217
 30
0.0
 40
0.2263779527559056
  0
ARC
  5
113
330
1F
100
AcDbEntity
  8
0
  6
Continuous
 62
     7
370
    25
100
AcDbCircle
 10
5.3976864763
 20
6.7942294777
 30
0.0
 40
0.2263779527559051
100
AcDbArc
 50
343.0
 51
287.0
  0
LINE
  5
114
330
1F
100
AcDbEntity
  8
0
  6
Continuous
 62
     7
370
    25
100
AcDbLine
 10
5.4897721126
 20
6.4930311003
 30
0.0
 11
5.4638729851
 21
6.577743175
 31
0.0
  0
ARC
  5
115
330
1F
100
AcDbEntity
  8
0
  6
Continuous
 62
     7
370
    25
100
AcDbCircle
 10
5.3976864763
 20
6.7942294777
 30
0.0
 40
0.3149606299212602
100
AcDbArc
 50
287.0
 51
343.0
  0
LINE
  5
116
330
1F
100
AcDbEntity
  8
0
  6
Continuous
 62
     7
370
    25
100
AcDbLine
 10
5.6141727555
 20
6.7280429454
 30
0.0
 11
5.6988848302
 21
6.7021439646
 31
0.0
  0
LINE
  5
117
330
1F
100
AcDbEntity
  8
0
  6
Continuous
 62
     7
370
    25
100
AcDbLine
 10
2.9173714558
 20
6.4398987807
 30
0.0
 11
5.4370566149
 21
6.4398987807
 31
0.0
  0
ARC
  5
118
330
1F
100
AcDbEntity
  8
0
  6
Continuous
 62
     7
370
    25
100
AcDbCircle
 10
5.437056555
 20
6.7548593989
 30
0.0
 40
0.3149606299212611
100
AcDbArc
 50
270.0
 51
360.0
  0
ARC
  5
119
330
1F
100
AcDbEntity
  8
0
  6
Continuous
 62
     7
370
    25
100
AcDbCircle
 10
2.9173715157
 20
6.7548593989
 30
0.0
 40
0.3149606299212646
100
AcDbArc
 50
180.0
 51
270.0
  0
LINE
  5
11A
330
1F
100
AcDbEntity
  8
0
  6
Continuous
 62
     7
370
    25
100
AcDbLine
 10
5.7520171498
 20
6.7548594623
 30
0.0
 11
5.7520171498
 21
10.4556467371
 31
0.0
  0
ARC
  5
11B
330
1F
100
AcDbEntity
  8
0
  6
Continuous
 62
     7
370
    25
100
AcDbCircle
 10
5.437056555
 20
10.4556468005
 30
0.0
 40
0.3149606299212611
100
AcDbArc
 50
360.0
 51
90.0
  0
LINE
  5
11C
330
1F
100
AcDbEntity
  8
0
  6
Continuous
 62
     7
370
    25
100
AcDbLine
 10
5.4370566149
 20
10.7706074187
 30
0.0
 11
2.9173714558
 21
10.7706074187
 31
0.0
  0
LINE
  5
11D
330
1F
100
AcDbEntity
  8
0
  6
Continuous
 62
     7
370
    25
100
AcDbLine
 10
2.602410921
 20
10.4556467371
 30
0.0
 11
2.602410921
 21
6.7548594623
 31
0.0
  0
ARC
  5
11E
330
1F
100
AcDbEntity
  8
0
  6
Continuous
 62
     7
370
    25
100
AcDbCircle
 10
2.9173715157
 20
10.4556468005
 30
0.0
 40
0.3149606299212611
100
AcDbArc
 50
90.0
 51
180.0
  0
ARC
  5
11F
330
1F
100
AcDbEntity
  8
0
  6
Continuous
 62
     7
370
    25
100
AcDbCircle
 10
2.9567415944
 20
10.4162767217
 30
0.0
 40
0.2263779527559058
100
AcDbArc
 50
154.9999999999
 51
114.9999999999
  0
CIRCLE
  5
120
330
1F
100
AcDbEntity
  8
0
  6
Continuous
 62
     7
370
    25
100
AcDbCircle
 10
2.9567415944
 20
10.4162767217
 30
0.0
 40
0.1702165354330707
  0
CIRCLE
  5
121
330
1F
100
AcDbEntity
  8
0
  6
Continuous
 62
     7
370
    25
100
AcDbCircle
 10
5.3976864763
 20
10.4162767217
 30
0.0
 40
0.1702165354330711
  0
CIRCLE
  5
122
330
1F
100
AcDbEntity
  8
0
  6
Continuous
 62
     7
370
    25
100
AcDbCircle
 10
2.9567415944
 20
6.7942294777
 30
0.0
 40
0.1702165354330707
  0
CIRCLE
  5
123
330
1F
100
AcDbEntity
  8
0
  6
Continuous
 62
     7
370
    25
100
AcDbCircle
 10
5.3976864763
 20
6.7942294777
 30
0.0
 40
0.1702165354330702
  0
LINE
  5
124
330
1F
100
AcDbEntity
  8
0
  6
Continuous
 62
     7
370
    25
100
AcDbLine
 10
2.8171602668
 20
10.0332058572
 30
0.0
 11
2.9961116996
 21
10.0332058572
 31
0.0
  0
LINE
  5
125
330
1F
100
AcDbEntity
  8
0
  6
Continuous
 62
     7
370
    25
100
AcDbLine
 10
2.7598912617
 20
7.1559440156
 30
0.0
 11
2.7598912617
 21
10.0545621838
 31
0.0
  0
LINE
  5
126
330
1F
100
AcDbEntity
  8
0
  6
Continuous
 62
     7
370
    25
100
AcDbLine
 10
2.7886312897
 20
7.1773003422
 30
0.0
 11
2.7598912617
 21
7.1559440156
 31
0.0
  0
LINE
  5
127
330
1F
100
AcDbEntity
  8
0
  6
Continuous
 62
     7
370
    25
100
AcDbLine
 10
2.7886312897
 20
10.0332058572
 30
0.0
 11
2.7598912617
 21
10.0545621838
 31
0.0
  0
LINE
  5
128
330
1F
100
AcDbEntity
  8
0
  6
Continuous
 62
     7
370
    25
100
AcDbLine
 10
2.7886312897
 20
10.0332058572
 30
0.0
 11
2.7886312897
 21
7.1773003422
 31
0.0
  0
LINE
  5
129
330
1F
100
AcDbEntity
  8
0
  6
Continuous
 62
     7
370
    25
100
AcDbLine
 10
5.0146155883
 20
6.833599486
 30
0.0
 11
5.0146155883
 21
6.6546481266
 31
0.0
  0
LINE
  5
12A
330
1F
100
AcDbEntity
  8
0
  6
Continuous
 62
     7
370
    25
100
AcDbLine
 10
3.3398124824
 20
10.3769067134
 30
0.0
 11
3.3398124824
 21
10.5558580728
 31
0.0
  0
LINE
  5
12B
330
1F
100
AcDbEntity
  8
0
  6
Continuous
 62
     7
370
    25
100
AcDbLine
 10
5.3583163712
 20
10.0332058572
 30
0.0
 11
5.5372678039
 21
10.0332058572
 31
0.0
  0
LINE
  5
12C
330
1F
100
AcDbEntity
  8
0
  6
Continuous
 62
     7
370
    25
100
AcDbLine
 10
3.3184560825
 20
10.6131270779
 30
0.0
 11
5.0359719883
 21
10.6131270779
 31
0.0
  0
LINE
  5
12D
330
1F
100
AcDbEntity
  8
0
  6
Continuous
 62
     7
370
    25
100
AcDbLine
 10
3.3398124824
 20
10.5843869032
 30
0.0
 11
3.3184560825
 21
10.6131270779
 31
0.0
  0
LINE
  5
12E
330
1F
100
AcDbEntity
  8
0
  6
Continuous
 62
     7
370
    25
100
AcDbLine
 10
5.0146155883
 20
10.5843869032
 30
0.0
 11
5.0359719883
 21
10.6131270779
 31
0.0
  0
LINE
  5
12F
330
1F
100
AcDbEntity
  8
0
  6
Continuous
 62
     7
370
    25
100
AcDbLine
 10
5.0146155883
 20
10.5843869032
 30
0.0
 11
3.3398124824
 21
10.5843869032
 31
0.0
  0
LINE
  5
130
330
1F
100
AcDbEntity
  8
0
  6
Continuous
 62
     7
370
    25
100
AcDbLine
 10
5.5372678039
 20
7.1773003422
 30
0.0
 11
5.3583163712
 21
7.1773003422
 31
0.0
  0
LINE
  5
131
330
1F
100
AcDbEntity
  8
0
  6
Continuous
 62
     7
370
    25
100
AcDbLine
 10
2.9961116996
 20
7.1773003422
 30
0.0
 11
2.8171602668
 21
7.1773003422
 31
0.0
  0
LINE
  5
132
330
1F
100
AcDbEntity
  8
0
  6
Continuous
 62
     7
370
    25
100
AcDbLine
 10
5.594536809
 20
10.0545621838
 30
0.0
 11
5.594536809
 21
7.1559440156
 31
0.0
  0
LINE
  5
133
330
1F
100
AcDbEntity
  8
0
  6
Continuous
 62
     7
370
    25
100
AcDbLine
 10
5.565796781
 20
10.0332058572
 30
0.0
 11
5.594536809
 21
10.0545621838
 31
0.0
  0
LINE
  5
134
330
1F
100
AcDbEntity
  8
0
  6
Continuous
 62
     7
370
    25
100
AcDbLine
 10
5.565796781
 20
7.1773003422
 30
0.0
 11
5.594536809
 21
7.1559440156
 31
0.0
  0
LINE
  5
135
330
1F
100
AcDbEntity
  8
0
  6
Continuous
 62
     7
370
    25
100
AcDbLine
 10
5.565796781
 20
7.1773003422
 30
0.0
 11
5.565796781
 21
10.0332058572
 31
0.0
  0
LINE
  5
136
330
1F
100
AcDbEntity
  8
0
  6
Continuous
 62
     7
370
    25
100
AcDbLine
 10
5.0359719883
 20
6.5973791215
 30
0.0
 11
3.3184560825
 21
6.5973791215
 31
0.0
  0
LINE
  5
137
330
1F
100
AcDbEntity
  8
0
  6
Continuous
 62
     7
370
    25
100
AcDbLine
 10
5.0359719883
 20
6.5973791215
 30
0.0
 11
5.0146155883
 21
6.6261192962
 31
0.0
  0
LINE
  5
138
330
1F
100
AcDbEntity
  8
0
  6
Continuous
 62
     7
370
    25
100
AcDbLine
 10
3.3398124824
 20
6.6261192962
 30
0.0
 11
3.3184560825
 21
6.5973791215
 31
0.0
  0
LINE
  5
139
330
1F
100
AcDbEntity
  8
0
  6
Continuous
 62
     7
370
    25
100
AcDbLine
 10
5.0146155883
 20
6.6261192962
 30
0.0
 11
3.3398124824
 21
6.6261192962
 31
0.0
  0
LINE
  5
13A
330
1F
100
AcDbEntity
  8
0
  6
Continuous
 62
     7
370
    25
100
AcDbLine
 10
3.3398124824
 20
6.6546481266
 30
0.0
 11
3.3398124824
 21
6.833599486
 31
0.0
  0
LINE
  5
13B
330
1F
100
AcDbEntity
  8
0
  6
Continuous
 62
     7
370
    25
100
AcDbLine
 10
5.0146155883
 20
10.5558580728
 30
0.0
 11
5.0146155883
 21
10.3769067134
 31
0.0
  0
LINE
  5
13C
330
1F
100
AcDbEntity
  8
0
  6
Continuous
 62
     7
370
    25
100
AcDbLine
 10
2.8171602668
 20
10.0332058572
 30
0.0
 11
2.7886312897
 21
10.0332058572
 31
0.0
  0
LINE
  5
13D
330
1F
100
AcDbEntity
  8
0
  6
Continuous
 62
     7
370
    25
100
AcDbLine
 10
5.0146155883
 20
6.6261192962
 30
0.0
 11
5.0146155883
 21
6.6546481266
 31
0.0
  0
LINE
  5
13E
330
1F
100
AcDbEntity
  8
0
  6
Continuous
 62
     7
370
    25
100
AcDbLine
 10
3.3398124824
 20
10.5843869032
 30
0.0
 11
3.3398124824
 21
10.5558580728
 31
0.0
  0
LINE
  5
13F
330
1F
100
AcDbEntity
  8
0
  6
Continuous
 62
     7
370
    25
100
AcDbLine
 10
2.7886312897
 20
7.1773003422
 30
0.0
 11
2.8171602668
 21
7.1773003422
 31
0.0
  0
LINE
  5
140
330
1F
100
AcDbEntity
  8
0
  6
Continuous
 62
     7
370
    25
100
AcDbLine
 10
5.565796781
 20
10.0332058572
 30
0.0
 11
5.5372678039
 21
10.0332058572
 31
0.0
  0
LINE
  5
141
330
1F
100
AcDbEntity
  8
0
  6
Continuous
 62
     7
370
    25
100
AcDbLine
 10
5.5372678039
 20
7.1773003422
 30
0.0
 11
5.565796781
 21
7.1773003422
 31
0.0
  0
LINE
  5
142
330
1F
100
AcDbEntity
  8
0
  6
Continuous
 62
     7
370
    25
100
AcDbLine
 10
5.0146155883
 20
10.5558580728
 30
0.0
 11
5.0146155883
 21
10.5843869032
 31
0.0
  0
LINE
  5
143
330
1F
100
AcDbEntity
  8
0
  6
Continuous
 62
     7
370
    25
100
AcDbLine
 10
3.3398124824
 20
6.6546481266
 30
0.0
 11
3.3398124824
 21
6.6261192962
 31
0.0
  0
ARC
  5
144
330
1F
100
AcDbEntity
  8
0
  6
Continuous
 62
     7
370
    25
100
AcDbCircle
 10
2.9961116732
 20
10.376906643
 30
0.0
 40
0.3437007874015747
100
AcDbArc
 50
270.0
 51
0.0
  0
ARC
  5
145
330
1F
100
AcDbEntity
  8
0
  6
Continuous
 62
     7
370
    25
100
AcDbCircle
 10
2.9961116732
 20
6.8335995564
 30
0.0
 40
0.3437007874015814
100
AcDbArc
 50
360.0
 51
90.0
  0
ARC
  5
146
330
1F
100
AcDbEntity
  8
0
  6
Continuous
 62
     7
370
    25
100
AcDbCircle
 10
5.3583163976
 20
6.8335995564
 30
0.0
 40
0.3437007874015787
100
AcDbArc
 50
90.0
 51
180.0
  0
ARC
  5
147
330
1F
100
AcDbEntity
  8
0
  6
Continuous
 62
     7
370
    25
100
AcDbCircle
 10
5.3583163976
 20
10.376906643
 30
0.0
 40
0.3437007874015752
100
AcDbArc
 50
180.0
 51
270.0
  0
CIRCLE
  5
148
330
1F
100
AcDbEntity
  8
0
  6
Continuous
 62
     7
370
    25
100
AcDbCircle
 10
4.1772140354
 20
7.0304499501
 30
0.0
 40
0.0999999999999996
  0
CIRCLE
  5
149
330
1F
100
AcDbEntity
  8
0
  6
Continuous
 62
     7
370
    25
100
AcDbCircle
 10
4.1772140354
 20
10.1800562493
 30
0.0
 40
0.0999999999999996
  0
CIRCLE
  5
14A
330
1F
100
AcDbEntity
  8
0
  6
Continuous
 62
     7
370
    25
100
AcDbCircle
 10
4.1772140354
 20
7.0304499501
 30
0.0
 40
0.1968503937009167
  0
CIRCLE
  5
14B
330
1F
100
AcDbEntity
  8
0
  6
Continuous
 62
     7
370
    25
100
AcDbCircle
 10
4.1772140354
 20
10.1800562493
 30
0.0
 40
0.1968503937009167
  0
CIRCLE
  5
14C
330
1F
100
AcDbEntity
  8
0
  6
Continuous
 62
     7
370
    25
100
AcDbCircle
 10
3.3897140354
 20
8.6052530997
 30
0.0
 40
0.0699999999999998
  0
CIRCLE
  5
14D
330
1F
100
AcDbEntity
  8
0
  6
Continuous
 62
     7
370
    25
100
AcDbCircle
 10
3.3897140354
 20
8.6052530997
 30
0.0
 40
0.062526955328766
  0
CIRCLE
  5
14E
330
1F
100
AcDbEntity
  8
0
  6
Continuous
 62
     7
370
    25
100
AcDbCircle
 10
4.9647140354
 20
8.6052530997
 30
0.0
 40
0.0699999999999994
  0
CIRCLE
  5
14F
330
1F
100
AcDbEntity
  8
0
  6
Continuous
 62
     7
370
    25
100
AcDbCircle
 10
4.9647140354
 20
8.6052530997
 30
0.0
 40
0.0625269553287664
  0
CIRCLE
  5
150
330
1F
100
AcDbEntity
  8
0
  6
Continuous
 62
     7
370
    25
100
AcDbCircle
 10
3.3897140354
 20
8.6052530997
 30
0.0
 40
0.1575000000000002
  0
CIRCLE
  5
151
330
1F
100
AcDbEntity
  8
0
  6
Continuous
 62
     7
370
    25
100
AcDbCircle
 10
4.9647140354
 20
8.6052530997
 30
0.0
 40
0.1574999999999998
  0
CIRCLE
  5
152
330
1F
100
AcDbEntity
  8
0
  6
Continuous
 62
     7
370
    25
100
AcDbCircle
 10
2.9567415944
 20
10.4162767217
 30
0.0
 40
0.0835000000000004
  0
CIRCLE
  5
153
330
1F
100
AcDbEntity
  8
0
  6
Continuous
 62
     7
370
    25
100
AcDbCircle
 10
5.3976864763
 20
6.7942294777
 30
0.0
 40
0.0834999999999999
  0
CIRCLE
  5
154
330
1F
100
AcDbEntity
  8
0
  6
Continuous
 62
     7
370
    25
100
AcDbCircle
 10
5.3976864763
 20
10.4162767217
 30
0.0
 40
0.0834999999999999
  0
CIRCLE
  5
155
330
1F
100
AcDbEntity
  8
0
  6
Continuous
 62
     7
370
    25
100
AcDbCircle
 10
2.9567415944
 20
6.7942294777
 30
0.0
 40
0.0835000000000004
  0
CIRCLE
  5
156
330
1F
100
AcDbEntity
  8
0
  6
Continuous
 62
     7
370
    25
100
AcDbCircle
 10
4.1772140354
 20
8.6052530997
 30
0.0
 40
0.3749999999999996
  0
LINE
  5
157
330
1F
100
AcDbEntity
  8
0
  6
CENTERX2
 62
     7
370
    18
100
AcDbLine
 10
2.6024108858
 20
8.6052530997
 30
0.0
 11
5.752017185
 21
8.6052530997
 31
0.0
  0
LINE
  5
158
330
1F
100
AcDbEntity
  8
0
  6
CENTERX2
 62
     7
370
    18
100
AcDbLine
 10
4.1772140354
 20
6.439898769
 30
0.0
 11
4.1772140354
 21
10.7706074304
 31
0.0
  0
DIMENSION
  5
159
330
1F
100
AcDbEntity
  8
0
  6
Continuous
 62
     7
370
    18
100
AcDbDimension
  2
_D
 10
1.095557329
 20
6.439898769
 30
0.0
 11
1.095557329
 21
8.6052530997
 31
0.0
 70
   160
  1
<>
 71
     2
 42
-1.0
  3
SLDDIMSTYLE0
100
AcDbAlignedDimension
 13
2.9173715157
 23
10.7706074304
 33
0.0
 14
2.9173715157
 24
6.439898769
 34
0.0
 50
90.0
100
AcDbRotatedDimension
  0
DIMENSION
  5
16E
330
1F
100
AcDbEntity
  8
0
  6
Continuous
 62
     7
370
    18
100
AcDbDimension
  2
_D_1
 10
5.752017185
 20
12.2055200015
 30
0.0
 11
4.1772140354
 21
12.2055200015
 31
0.0
 70
   160
  1
<>
 71
     2
 42
-1.0
  3
SLDDIMSTYLE0
100
AcDbAlignedDimension
 13
2.6024108858
 23
10.4556468005
 33
0.0
 14
5.752017185
 24
10.4556468005
 34
0.0
 50
0.0
100
AcDbRotatedDimension
  0
DIMENSION
  5
182
330
1F
100
AcDbEntity
  8
0
  6
Continuous
 62
     7
370
    18
100
AcDbDimension
  2
_D_2
 10
1.8150083267
 20
10.584386958
 30
0.0
 11
1.8150083267
 21
8.6052530997
 31
0.0
 70
   160
  1
<>
 71
     2
 42
-1.0
  3
SLDDIMSTYLE0
100
AcDbAlignedDimension
 13
3.3398124606
 23
6.6261192414
 33
0.0
 14
3.3398124606
 24
10.584386958
 34
0.0
 50
90.0
100
AcDbRotatedDimension
  0
DIMENSION
  5
196
330
1F
100
AcDbEntity
  8
0
  6
Continuous
 62
     7
370
    18
100
AcDbDimension
  2
_D_3
 10
4.9647140354
 20
11.4707434412
 30
0.0
 11
4.1772140354
 21
11.4707434412
 31
0.0
 70
   160
  1
<>
 71
     2
 42
-1.0
  3
SLDDIMSTYLE0
100
AcDbAlignedDimension
 13
3.3897140354
 23
8.6052530997
 33
0.0
 14
4.9647140354
 24
8.6052530997
 34
0.0
 50
0.0
100
AcDbRotatedDimension
  0
DIMENSION
  5
1AA
330
1F
100
AcDbEntity
  8
0
  6
Continuous
 62
     7
370
    18
100
AcDbDimension
  2
_D_4
 10
4.9281377281
 20
8.5313043083
 30
0.0
 11
7.6120654391
 21
11.6984830873
 31
0.0
 70
   163
  1
<> X 0.270 DP 2X
 71
     1
 42
-1.0
  3
SLDDIMSTYLE1
100
AcDbDiametricDimension
 15
5.0012903427
 25
8.6792018911
 35
0.0
 40
0.0
  0
DIMENSION
  5
1BD
330
1F
100
AcDbEntity
  8
0
  6
Continuous
 62
     7
370
    18
100
AcDbDimension
  2
_D_5
 10
4.3892531739
 20
8.2959564723
 30
0.0
 11
1.2533615136
 21
11.752713365
 31
0.0
 70
   163
  1
<>\PREF. DOMED\PGATE AREA
 71
     1
 42
-1.0
  3
SLDDIMSTYLE1
100
AcDbDiametricDimension
 15
3.9651748968
 25
8.9145497271
 35
0.0
 40
0.0
  0
DIMENSION
  5
1CF
330
1F
100
AcDbEntity
  8
0
  6
Continuous
 62
     7
370
    18
100
AcDbDimension
  2
_D_6
 10
6.3466483131
 20
7.0304499501
 30
0.0
 11
6.3466483131
 21
8.6052530997
 31
0.0
 70
   160
  1
<>
 71
     2
 42
-1.0
  3
SLDDIMSTYLE0
100
AcDbAlignedDimension
 13
4.1772140354
 23
10.1800562493
 33
0.0
 14
4.1772140354
 24
7.0304499501
 34
0.0
 50
90.0
100
AcDbRotatedDimension
  0
MTEXT
  5
1E3
330
1F
100
AcDbEntity
  8
0
  6
Continuous
 62
     7
370
     0
100
AcDbMText
 10
5.0761188804
 20
6.0778826617
 30
0.0
 40
0.15625
 41
0.0
 71
     1
 72
     1
  1
M4 THREADED INSERT (2X)
  7
SLDTEXTSTYLE0
 73
     1
 44
1.0
  0
LEADER
  5
1E5
330
1F
100
AcDbEntity
  8
0
  6
Continuous
 62
     7
370
     0
100
AcDbLeader
  3
SLDDIMSTYLE2
 76
     3
 10
4.2187795863
 20
6.9394977375
 30
0.0
 10
4.7349204633
 20
6.0020443279
 30
0.0
 10
5.0474204633
 20
6.0020443279
 30
0.0
  0
MTEXT
  5
1E6
330
1F
100
AcDbEntity
  8
0
  6
Continuous
 62
     7
370
     0
100
AcDbMText
 10
4.2281431468
 20
5.7766242642
 30
0.0
 40
0.15625
 41
0.0
 71
     2
 72
     1
  1
COVER NOT SHOWN
  7
SLDTEXTSTYLE0
 73
     1
 44
1.0
  0
INSERT
  5
1F2
330
1F
100
AcDbEntity
  8
0
  6
Continuous
 62
     7
370
    18
100
AcDbBlockReference
  2
SW_CENTERMARKSYMBOL_0
 10
2.9567415944
 20
6.7942294777
 30
0.0
  0
INSERT
  5
1FE
330
1F
100
AcDbEntity
  8
0
  6
Continuous
 62
     7
370
    18
100
AcDbBlockReference
  2
SW_CENTERMARKSYMBOL_1
 10
2.9567415944
 20
10.4162767217
 30
0.0
  0
INSERT
  5
20A
330
1F
100
AcDbEntity
  8
0
  6
Continuous
 62
     7
370
    18
100
AcDbBlockReference
  2
SW_CENTERMARKSYMBOL_2
 10
5.3976864763
 20
10.4162767217
 30
0.0
  0
INSERT
  5
216
330
1F
100
AcDbEntity
  8
0
  6
Continuous
 62
     7
370
    18
100
AcDbBlockReference
  2
SW_CENTERMARKSYMBOL_3
 10
5.3976864763
 20
6.7942294777
 30
0.0
  0
LINE
  5
217
330
1F
100
AcDbEntity
  8
0
  6
PHANTOM
 62
     7
370
    35
100
AcDbLine
 10
4.1772401446
 20
11.0227639341
 30
0.0
 11
4.1772401446
 21
8.1396558742
 31
0.0
  0
LINE
  5
218
330
1F
100
AcDbEntity
  8
0
  6
PHANTOM
 62
     7
370
    35
100
AcDbLine
 10
4.1772401446
 20
8.1396558742
 30
0.0
 11
3.5714378998
 21
8.1396558742
 31
0.0
  0
LINE
  5
219
330
1F
100
AcDbEntity
  8
0
  6
PHANTOM
 62
     7
370
    35
100
AcDbLine
 10
3.5714378998
 20
8.1396558742
 30
0.0
 11
3.5714378998
 21
6.0150877466
 31
0.0
  0
LINE
  5
21A
330
1F
100
AcDbEntity
  8
0
  6
Continuous
 62
     7
370
    35
100
AcDbLine
 10
4.1772401446
 20
11.0227639341
 30
0.0
 11
3.5522401446
 21
11.0227639341
 31
0.0
  0
SOLID
  5
21B
330
1F
100
AcDbEntity
  8
0
  6
Continuous
 62
     7
370
    35
100
AcDbTrace
 10
3.5522401446
 20
11.0227639341
 30
0.0
 11
3.8647401446
 21
10.9727639341
 31
0.0
 12
3.8647401446
 22
11.0727639341
 32
0.0
 13
3.8647401446
 23
11.0727639341
 33
0.0
  0
LINE
  5
21C
330
1F
100
AcDbEntity
  8
0
  6
Continuous
 62
     7
370
    35
100
AcDbLine
 10
3.5714378998
 20
6.0150877466
 30
0.0
 11
2.9464378998
 21
6.0150877466
 31
0.0
  0
SOLID
  5
21D
330
1F
100
AcDbEntity
  8
0
  6
Continuous
 62
     7
370
    35
100
AcDbTrace
 10
2.9464378998
 20
6.0150877466
 30
0.0
 11
3.2589378998
 21
5.9650877466
 31
0.0
 12
3.2589378998
 22
6.0650877466
 32
0.0
 13
3.2589378998
 23
6.0650877466
 33
0.0
  0
MTEXT
  5
21E
330
1F
100
AcDbEntity
  8
0
  6
Continuous
 62
     7
100
AcDbMText
 10
3.5172234215
 20
11.2995842798
 30
0.0
 40
0.15625
 41
0.0
 71
     1
 72
     1
  1
A
  7
SLDTEXTSTYLE0
 73
     1
 44
1.0
  0
MTEXT
  5
21F
330
1F
100
AcDbEntity
  8
0
  6
Continuous
 62
     7
100
AcDbMText
 10
2.9320861345
 20
5.9709361646
 30
0.0
 40
0.15625
 41
0.0
 71
     1
 72
     1
  1
A
  7
SLDTEXTSTYLE0
 73
     1
 44
1.0
  0
ARC
  5
220
330
1F
100
AcDbEntity
  8
0
  6
Continuous
 62
     7
370
    25
100
AcDbCircle
 10
5.6142219094
 20
1.2662771593
 30
0.0
 40
0.0196850393700787
100
AcDbArc
 50
270.0
 51
0.0
  0
ARC
  5
221
330
1F
100
AcDbEntity
  8
0
  6
Continuous
 62
     7
370
    25
100
AcDbCircle
 10
5.1811510432
 20
1.2662771593
 30
0.0
 40
0.0196850393700787
100
AcDbArc
 50
180.0
 51
270.0
  0
ARC
  5
222
330
1F
100
AcDbEntity
  8
0
  6
Continuous
 62
     7
370
    25
100
AcDbCircle
 10
3.1732770275
 20
1.2662771593
 30
0.0
 40
0.0196850393700787
100
AcDbArc
 50
270.0
 51
0.0
  0
ARC
  5
223
330
1F
100
AcDbEntity
  8
0
  6
Continuous
 62
     7
370
    25
100
AcDbCircle
 10
2.7402061613
 20
1.2662771593
 30
0.0
 40
0.0196850393700787
100
AcDbArc
 50
180.0
 51
270.0
  0
LINE
  5
224
330
1F
100
AcDbEntity
  8
0
  6
Continuous
 62
     7
370
    25
100
AcDbLine
 10
5.6339069675
 20
1.2662771077
 30
0.0
 11
5.6339069675
 21
1.285962187
 31
0.0
  0
LINE
  5
225
330
1F
100
AcDbEntity
  8
0
  6
Continuous
 62
     7
370
    25
100
AcDbLine
 10
5.1614660185
 20
1.285962187
 30
0.0
 11
5.1614660185
 21
1.2662771077
 31
0.0
  0
LINE
  5
226
330
1F
100
AcDbEntity
  8
0
  6
Continuous
 62
     7
370
    25
100
AcDbLine
 10
3.1929620522
 20
1.2662771077
 30
0.0
 11
3.1929620522
 21
1.285962187
 31
0.0
  0
LINE
  5
227
330
1F
100
AcDbEntity
  8
0
  6
Continuous
 62
     7
370
    25
100
AcDbLine
 10
2.7205211032
 20
1.285962187
 30
0.0
 11
2.7205211032
 21
1.2662771077
 31
0.0
  0
ARC
  5
228
330
1F
100
AcDbEntity
  8
0
  6
Continuous
 62
     7
370
    25
100
AcDbCircle
 10
4.000048681
 20
1.2662771593
 30
0.0
 40
0.0196850393700785
100
AcDbArc
 50
180.0
 51
270.0
  0
ARC
  5
229
330
1F
100
AcDbEntity
  8
0
  6
Continuous
 62
     7
370
    25
100
AcDbCircle
 10
4.3543793897
 20
1.2662771593
 30
0.0
 40
0.0196850393700791
100
AcDbArc
 50
270.0
 51
360.0
  0
LINE
  5
22A
330
1F
100
AcDbEntity
  8
0
  6
Continuous
 62
     7
370
    25
100
AcDbLine
 10
3.9803636461
 20
1.285962187
 30
0.0
 11
3.9803636461
 21
1.2662771077
 31
0.0
  0
LINE
  5
22B
330
1F
100
AcDbEntity
  8
0
  6
Continuous
 62
     7
370
    25
100
AcDbLine
 10
4.3740644247
 20
1.2662771077
 30
0.0
 11
4.3740644247
 21
1.285962187
 31
0.0
  0
ARC
  5
22C
330
1F
100
AcDbEntity
  8
0
  6
Continuous
 62
     7
370
    25
100
AcDbCircle
 10
4.8272140354
 20
1.26659212
 30
0.0
 40
0.0200000000000005
100
AcDbArc
 50
180.0
 51
270.0
  0
ARC
  5
22D
330
1F
100
AcDbEntity
  8
0
  6
Continuous
 62
     7
370
    25
100
AcDbCircle
 10
5.1022140354
 20
1.26659212
 30
0.0
 40
0.0200000000000005
100
AcDbArc
 50
270.0
 51
0.0
  0
LINE
  5
22E
330
1F
100
AcDbEntity
  8
0
  6
Continuous
 62
     7
370
    25
100
AcDbLine
 10
4.8072140109
 20
1.285962187
 30
0.0
 11
4.8072140109
 21
1.2665921441
 31
0.0
  0
LINE
  5
22F
330
1F
100
AcDbEntity
  8
0
  6
Continuous
 62
     7
370
    25
100
AcDbLine
 10
5.122214072
 20
1.2665921441
 30
0.0
 11
5.122214072
 21
1.285962187
 31
0.0
  0
ARC
  5
230
330
1F
100
AcDbEntity
  8
0
  6
Continuous
 62
     7
370
    25
100
AcDbCircle
 10
3.2522140354
 20
1.26659212
 30
0.0
 40
0.02
100
AcDbArc
 50
180.0
 51
270.0
  0
ARC
  5
231
330
1F
100
AcDbEntity
  8
0
  6
Continuous
 62
     7
370
    25
100
AcDbCircle
 10
3.5272140354
 20
1.26659212
 30
0.0
 40
0.02
100
AcDbArc
 50
270.0
 51
0.0
  0
LINE
  5
232
330
1F
100
AcDbEntity
  8
0
  6
Continuous
 62
     7
370
    25
100
AcDbLine
 10
3.2322139987
 20
1.285962187
 30
0.0
 11
3.2322139987
 21
1.2665921441
 31
0.0
  0
LINE
  5
233
330
1F
100
AcDbEntity
  8
0
  6
Continuous
 62
     7
370
    25
100
AcDbLine
 10
3.5472140598
 20
1.2665921441
 30
0.0
 11
3.5472140598
 21
1.285962187
 31
0.0
  0
LINE
  5
234
330
1F
100
AcDbEntity
  8
0
  6
Continuous
 62
     7
370
    25
100
AcDbLine
 10
5.7519778436
 20
3.2544661533
 30
0.0
 11
5.7427119906
 21
3.4326537182
 31
0.0
  0
LINE
  5
235
330
1F
100
AcDbEntity
  8
0
  6
Continuous
 62
     7
370
    25
100
AcDbLine
 10
2.6117160801
 20
3.4326537182
 30
0.0
 11
2.6024502272
 21
3.2544661533
 31
0.0
  0
LINE
  5
236
330
1F
100
AcDbEntity
  8
0
  6
Continuous
 62
     7
370
    25
100
AcDbLine
 10
5.7230536044
 20
3.4513165426
 30
0.0
 11
5.437017162
 21
3.4513165426
 31
0.0
  0
ARC
  5
237
330
1F
100
AcDbEntity
  8
0
  6
Continuous
 62
     7
370
    25
100
AcDbCircle
 10
5.7230535809
 20
3.43163149
 30
0.0
 40
0.0196850393700791
100
AcDbArc
 50
2.9766994681
 51
90.0
  0
LINE
  5
238
330
1F
100
AcDbEntity
  8
0
  6
Continuous
 62
     7
370
    25
100
AcDbLine
 10
2.9174109087
 20
3.4513165426
 30
0.0
 11
2.6313744664
 21
3.4513165426
 31
0.0
  0
ARC
  5
239
330
1F
100
AcDbEntity
  8
0
  6
Continuous
 62
     7
370
    25
100
AcDbCircle
 10
2.6313744898
 20
3.43163149
 30
0.0
 40
0.0196850393700787
100
AcDbArc
 50
90.0
 51
177.0233005319
  0
LINE
  5
23A
330
1F
100
AcDbEntity
  8
0
  6
Continuous
 62
     7
370
    25
100
AcDbLine
 10
5.437017162
 20
3.4513165426
 30
0.0
 11
2.9174109087
 21
3.4513165426
 31
0.0
  0
LINE
  5
23B
330
1F
100
AcDbEntity
  8
0
  6
Continuous
 62
     7
370
    25
100
AcDbLine
 10
2.6521895992
 20
3.4513165426
 30
0.0
 11
2.6702582838
 21
3.9659759297
 31
0.0
  0
LINE
  5
23C
330
1F
100
AcDbEntity
  8
0
  6
Continuous
 62
     7
370
    25
100
AcDbLine
 10
5.6841697869
 20
3.965975971
 30
0.0
 11
5.7022384715
 21
3.4513165426
 31
0.0
  0
ARC
  5
23D
330
1F
100
AcDbEntity
  8
0
  6
Continuous
 62
     7
370
    25
100
AcDbCircle
 10
2.9587934342
 20
6.7154239441
 30
0.0
 40
2.674724555228491
100
AcDbArc
 50
269.1018162001
 51
271.6935386448
  0
LINE
  5
23E
330
1F
100
AcDbEntity
  8
0
  6
Continuous
 62
     7
370
    25
100
AcDbLine
 10
5.3165871066
 20
4.0418677105
 30
0.0
 11
3.0378409642
 21
4.0418677105
 31
0.0
  0
ARC
  5
23F
330
1F
100
AcDbEntity
  8
0
  6
Continuous
 62
     7
370
    25
100
AcDbCircle
 10
5.3926872838
 20
6.2907841184
 30
0.0
 40
2.250203601184032
100
AcDbArc
 50
268.0619306785
 51
271.1427168653
  0
ARC
  5
240
330
1F
100
AcDbEntity
  8
0
  6
Continuous
 62
     7
370
    25
100
AcDbCircle
 10
2.8327298083
 20
1.375912708
 30
0.0
 40
2.666426765370185
100
AcDbArc
 50
88.1918149892
 51
92.1083041179
  0
ARC
  5
241
330
1F
100
AcDbEntity
  8
0
  6
Continuous
 62
     7
370
    25
100
AcDbCircle
 10
2.748946912
 20
3.9631275391
 30
0.0
 40
0.0787401645092682
100
AcDbArc
 50
100.4783591558
 51
177.9269015686
  0
ARC
  5
242
330
1F
100
AcDbEntity
  8
0
  6
Continuous
 62
     7
370
    25
100
AcDbCircle
 10
5.520593769
 20
0.9542556733
 30
0.0
 40
3.087872814945181
100
AcDbArc
 50
88.1590463057
 51
91.5408287779
  0
ARC
  5
243
330
1F
100
AcDbEntity
  8
0
  6
Continuous
 62
     7
370
    25
100
AcDbCircle
 10
5.6054809212
 20
3.9631273404
 30
0.0
 40
0.0787404090400288
100
AcDbArc
 50
2.0732367141
 51
79.5218236009
  0
LINE
  5
244
330
1F
100
AcDbEntity
  8
0
  6
Continuous
 62
     7
370
    25
100
AcDbLine
 10
3.0378409642
 20
4.0418677105
 30
0.0
 11
2.7489469748
 21
4.0418677105
 31
0.0
  0
LINE
  5
245
330
1F
100
AcDbEntity
  8
0
  6
Continuous
 62
     7
370
    25
100
AcDbLine
 10
5.6054810959
 20
4.0418677105
 30
0.0
 11
5.3159810869
 21
4.0418677105
 31
0.0
  0
LINE
  5
246
330
1F
100
AcDbEntity
  8
0
  6
Continuous
 62
     7
370
    25
100
AcDbLine
 10
5.74882176
 20
3.0769465374
 30
0.0
 11
5.7520171498
 21
3.2544661533
 31
0.0
  0
LINE
  5
247
330
1F
100
AcDbEntity
  8
0
  6
Continuous
 62
     7
370
    25
100
AcDbLine
 10
5.7520171498
 20
3.2544661533
 30
0.0
 11
5.4370566149
 21
3.2544661533
 31
0.0
  0
LINE
  5
248
330
1F
100
AcDbEntity
  8
0
  6
Continuous
 62
     7
370
    25
100
AcDbLine
 10
2.9173714558
 20
3.2544661533
 30
0.0
 11
5.4370566149
 21
3.2544661533
 31
0.0
  0
LINE
  5
249
330
1F
100
AcDbEntity
  8
0
  6
Continuous
 62
     7
370
    25
100
AcDbLine
 10
2.602410921
 20
3.2544661533
 30
0.0
 11
2.6056063107
 21
3.0769465374
 31
0.0
  0
LINE
  5
24A
330
1F
100
AcDbEntity
  8
0
  6
Continuous
 62
     7
370
    25
100
AcDbLine
 10
2.9173714558
 20
3.2544661533
 30
0.0
 11
2.602410921
 21
3.2544661533
 31
0.0
  0
ARC
  5
24B
330
1F
100
AcDbEntity
  8
0
  6
Continuous
 62
     7
370
    25
100
AcDbCircle
 10
5.7291399805
 20
3.0773007814
 30
0.0
 40
0.0196850393700787
100
AcDbArc
 50
270.0
 51
358.9687873301
  0
LINE
  5
24C
330
1F
100
AcDbEntity
  8
0
  6
Continuous
 62
     7
370
    25
100
AcDbLine
 10
5.4370566149
 20
3.0576157273
 30
0.0
 11
5.7291399074
 21
3.0576157273
 31
0.0
  0
LINE
  5
24D
330
1F
100
AcDbEntity
  8
0
  6
Continuous
 62
     7
370
    25
100
AcDbLine
 10
2.6252881633
 20
3.0576157273
 30
0.0
 11
2.9173714558
 21
3.0576157273
 31
0.0
  0
ARC
  5
24E
330
1F
100
AcDbEntity
  8
0
  6
Continuous
 62
     7
370
    25
100
AcDbCircle
 10
2.6252880902
 20
3.0773007814
 30
0.0
 40
0.0196850393700787
100
AcDbArc
 50
181.0312126699
 51
270.0
  0
LINE
  5
24F
330
1F
100
AcDbEntity
  8
0
  6
Continuous
 62
     7
370
    25
100
AcDbLine
 10
2.9173714558
 20
3.0576157273
 30
0.0
 11
5.4370566149
 21
3.0576157273
 31
0.0
  0
LINE
  5
250
330
1F
100
AcDbEntity
  8
0
  6
Continuous
 62
     7
370
    25
100
AcDbLine
 10
2.6417809328
 20
3.0576157273
 30
0.0
 11
2.6567970793
 21
1.3249912028
 31
0.0
  0
LINE
  5
251
330
1F
100
AcDbEntity
  8
0
  6
Continuous
 62
     7
370
    25
100
AcDbLine
 10
5.7126471379
 20
3.0576157273
 30
0.0
 11
5.6976309914
 21
1.3249912028
 31
0.0
  0
ARC
  5
252
330
1F
100
AcDbEntity
  8
0
  6
Continuous
 62
     7
370
    25
100
AcDbCircle
 10
5.6582624256
 20
1.3253322774
 30
0.0
 40
0.0393700787401579
100
AcDbArc
 50
270.0
 51
359.5034490095
  0
LINE
  5
253
330
1F
100
AcDbEntity
  8
0
  6
Continuous
 62
     7
370
    25
100
AcDbLine
 10
5.4370566149
 20
1.285962187
 30
0.0
 11
5.6582624462
 21
1.285962187
 31
0.0
  0
LINE
  5
254
330
1F
100
AcDbEntity
  8
0
  6
Continuous
 62
     7
370
    25
100
AcDbLine
 10
2.6961656246
 20
1.285962187
 30
0.0
 11
2.9173714558
 21
1.285962187
 31
0.0
  0
ARC
  5
255
330
1F
100
AcDbEntity
  8
0
  6
Continuous
 62
     7
370
    25
100
AcDbCircle
 10
2.6961656451
 20
1.3253322774
 30
0.0
 40
0.0393700787401579
100
AcDbArc
 50
180.4965509905
 51
269.9999999998
  0
LINE
  5
256
330
1F
100
AcDbEntity
  8
0
  6
Continuous
 62
     7
370
    25
100
AcDbLine
 10
2.9173714558
 20
1.285962187
 30
0.0
 11
5.4370566149
 21
1.285962187
 31
0.0
  0
LINE
  5
257
330
1F
100
AcDbEntity
  8
0
  6
Continuous
 62
     7
370
    25
100
AcDbLine
 10
5.3976864564
 20
1.2465920284
 30
0.0
 11
5.6142218883
 21
1.2465920284
 31
0.0
  0
LINE
  5
258
330
1F
100
AcDbEntity
  8
0
  6
Continuous
 62
     7
370
    25
100
AcDbLine
 10
5.1811510245
 20
1.2465920284
 30
0.0
 11
5.3976864564
 21
1.2465920284
 31
0.0
  0
LINE
  5
259
330
1F
100
AcDbEntity
  8
0
  6
Continuous
 62
     7
370
    25
100
AcDbLine
 10
2.9567416144
 20
1.2465920284
 30
0.0
 11
3.1732770463
 21
1.2465920284
 31
0.0
  0
LINE
  5
25A
330
1F
100
AcDbEntity
  8
0
  6
Continuous
 62
     7
370
    25
100
AcDbLine
 10
2.7402061825
 20
1.2465920284
 30
0.0
 11
2.9567416144
 21
1.2465920284
 31
0.0
  0
LINE
  5
25B
330
1F
100
AcDbEntity
  8
0
  6
Continuous
 62
     7
370
    25
100
AcDbLine
 10
4.0000486887
 20
1.2465920284
 30
0.0
 11
4.3543793821
 21
1.2465920284
 31
0.0
  0
LINE
  5
25C
330
1F
100
AcDbEntity
  8
0
  6
Continuous
 62
     7
370
    25
100
AcDbLine
 10
4.8272140532
 20
1.2465920284
 30
0.0
 11
5.1022140297
 21
1.2465920284
 31
0.0
  0
LINE
  5
25D
330
1F
100
AcDbEntity
  8
0
  6
Continuous
 62
     7
370
    25
100
AcDbLine
 10
3.252214041
 20
1.2465920284
 30
0.0
 11
3.5272140176
 21
1.2465920284
 31
0.0
  0
LINE
  5
25E
330
1F
100
AcDbEntity
  8
0
  6
CENTERX2
 62
     7
370
    18
100
AcDbLine
 10
4.1772140354
 20
4.0418677105
 30
0.0
 11
4.1772140354
 21
1.24659212
 31
0.0
  0
DIMENSION
  5
25F
330
1F
100
AcDbEntity
  8
0
  6
Continuous
 62
     7
370
    18
100
AcDbDimension
  2
_D_7
 10
2.0711407063
 20
1.2859621987
 30
0.0
 11
2.0711407063
 21
2.6639149546
 31
0.0
 70
   160
  1
<>
 71
     2
 42
-1.0
  3
SLDDIMSTYLE0
100
AcDbAlignedDimension
 13
3.0378409353
 23
4.0418677105
 33
0.0
 14
2.9173715157
 24
1.2859621987
 34
0.0
 50
90.0
100
AcDbRotatedDimension
  0
DIMENSION
  5
273
330
1F
100
AcDbEntity
  8
0
  6
Continuous
 62
     7
370
    18
100
AcDbDimension
  2
_D_8
 10
6.2441441535
 20
4.0418677105
 30
0.0
 11
6.2441441535
 21
3.6481669231
 31
0.0
 70
   160
  1
<>
 71
     2
 42
-1.0
  3
SLDDIMSTYLE3
100
AcDbAlignedDimension
 13
5.7519778149
 23
3.2544661357
 33
0.0
 14
5.1712780117
 24
4.0418677105
 34
0.0
 50
90.0
100
AcDbRotatedDimension
  0
DIMENSION
  5
288
330
1F
100
AcDbEntity
  8
0
  6
Continuous
 62
     7
370
    18
100
AcDbDimension
  2
_D_9
 10
6.2441441535
 20
1.2859621987
 30
0.0
 11
6.2441441535
 21
2.2702141672
 31
0.0
 70
   160
  1
<>
 71
     2
 42
-1.0
  3
SLDDIMSTYLE0
100
AcDbAlignedDimension
 13
5.752017185
 23
3.2544661357
 33
0.0
 14
5.437056555
 24
1.2859621987
 34
0.0
 50
90.0
100
AcDbRotatedDimension
  0
DIMENSION
  5
29C
330
1F
100
AcDbEntity
  8
0
  6
Continuous
 62
     7
370
    18
100
AcDbDimension
  2
_D_10
 10
6.2441441535
 20
1.24659212
 30
0.0
 11
6.2441441535
 21
0.7543093558
 31
0.0
 70
   160
  1
<> PAD TYP.
 71
     2
 42
-1.0
  3
SLDDIMSTYLE3
100
AcDbAlignedDimension
 13
5.437056555
 23
1.2859621987
 33
0.0
 14
5.6142219094
 24
1.24659212
 34
0.0
 50
90.0
100
AcDbRotatedDimension
  0
ARC
  5
2B0
330
1F
100
AcDbEntity
  8
0
  6
Continuous
 62
     7
370
    25
100
AcDbCircle
 10
16.6595360154
 20
5.695239426
 30
0.0
 40
0.137910556605164
100
AcDbArc
 50
118.2106887592
 51
174.6770157866
  0
LINE
  5
2B1
330
1F
100
AcDbEntity
  8
0
  6
Continuous
 62
     7
370
    25
100
AcDbLine
 10
16.5223197488
 20
5.710531179
 30
0.0
 11
16.5055699025
 21
5.3594064919
 31
0.0
  0
LINE
  5
2B2
330
1F
100
AcDbEntity
  8
0
  6
Continuous
 62
     7
370
    25
100
AcDbLine
 10
18.7809613058
 20
7.0791079977
 30
0.0
 11
16.5938047551
 21
5.8164893965
 31
0.0
  0
ARC
  5
2B3
330
1F
100
AcDbEntity
  8
0
  6
Continuous
 62
     7
370
    25
100
AcDbCircle
 10
16.5787992592
 20
5.3440975825
 30
0.0
 40
0.1036424609761699
100
AcDbArc
 50
132.7315318791
 51
173.3985432773
  0
LINE
  5
2B4
330
1F
100
AcDbEntity
  8
0
  6
Continuous
 62
     7
370
    25
100
AcDbLine
 10
16.4745584194
 20
5.3486790041
 30
0.0
 11
16.4668422137
 21
5.2275949223
 31
0.0
  0
ARC
  5
2B5
330
1F
100
AcDbEntity
  8
0
  6
Continuous
 62
     7
370
    25
100
AcDbCircle
 10
20.4625627039
 20
6.0985711786
 30
0.0
 40
0.1394964298453823
100
AcDbArc
 50
5.6572929812
 51
62.6615263849
  0
LINE
  5
2B6
330
1F
100
AcDbEntity
  8
0
  6
Continuous
 62
     7
370
    25
100
AcDbLine
 10
20.6180439791
 20
5.7615832774
 30
0.0
 11
20.60128333
 21
6.1144668728
 31
0.0
  0
LINE
  5
2B7
330
1F
100
AcDbEntity
  8
0
  6
Continuous
 62
     7
370
    25
100
AcDbLine
 10
20.5271949987
 20
6.2221896861
 30
0.0
 11
19.0453906057
 21
7.0776171539
 31
0.0
  0
ARC
  5
2B8
330
1F
100
AcDbEntity
  8
0
  6
Continuous
 62
     7
370
    25
100
AcDbCircle
 10
20.5466041288
 20
5.7463181848
 30
0.0
 40
0.1018901561568214
100
AcDbArc
 50
4.5457698618
 51
47.6903277367
  0
LINE
  5
2B9
330
1F
100
AcDbEntity
  8
0
  6
Continuous
 62
     7
370
    25
100
AcDbLine
 10
20.6567600873
 20
5.6293606056
 30
0.0
 11
20.6490437951
 21
5.7504446375
 31
0.0
  0
ARC
  5
2BA
330
1F
100
AcDbEntity
  8
0
  6
Continuous
 62
     7
370
    25
100
AcDbCircle
 10
18.9117417457
 20
6.82369995
 30
0.0
 40
0.2869072500411693
100
AcDbArc
 50
62.1952426451
 51
117.1529351729
  0
ARC
  5
2BB
330
1F
100
AcDbEntity
  8
0
  6
Continuous
 62
     7
370
    25
100
AcDbCircle
 10
18.2062621249
 20
2.1224850642
 30
0.0
 40
0.3623551352795367
100
AcDbArc
 50
241.5861229547
 51
271.194446244
  0
ARC
  5
2BC
330
1F
100
AcDbEntity
  8
0
  6
Continuous
 62
     7
370
    25
100
AcDbCircle
 10
18.2218999677
 20
2.1209088822
 30
0.0
 40
0.3607908025627826
100
AcDbArc
 50
268.7160460421
 51
298.4652304086
  0
LINE
  5
2BD
330
1F
100
AcDbEntity
  8
0
  6
Continuous
 62
     7
370
    25
100
AcDbLine
 10
18.3941288049
 20
1.803561515
 30
0.0
 11
20.5748386197
 21
3.0624584948
 31
0.0
  0
LINE
  5
2BE
330
1F
100
AcDbEntity
  8
0
  6
Continuous
 62
     7
370
    25
100
AcDbLine
 10
16.5487635948
 20
2.6606828831
 30
0.0
 11
18.0335023135
 21
1.8035614651
 31
0.0
  0
ARC
  5
2BF
330
1F
100
AcDbEntity
  8
0
  6
Continuous
 62
     7
370
    25
100
AcDbCircle
 10
18.2080736439
 20
0.8814264791
 30
0.0
 40
0.2957085152953136
100
AcDbArc
 50
241.5484268985
 51
271.1126014217
  0
ARC
  5
2C0
330
1F
100
AcDbEntity
  8
0
  6
Continuous
 62
     7
370
    25
100
AcDbCircle
 10
18.2212401136
 20
0.8741204153
 30
0.0
 40
0.2884422719947676
100
AcDbArc
 50
268.5250251582
 51
298.844609231
  0
LINE
  5
2C1
330
1F
100
AcDbEntity
  8
0
  6
Continuous
 62
     7
370
    25
100
AcDbLine
 10
18.3605652457
 20
0.6213369667
 30
0.0
 11
20.5412750606
 21
1.8802339464
 31
0.0
  0
LINE
  5
2C2
330
1F
100
AcDbEntity
  8
0
  6
Continuous
 62
     7
370
    25
100
AcDbLine
 10
16.582327154
 20
1.4784583348
 30
0.0
 11
18.0670658727
 21
0.6213369168
 31
0.0
  0
LINE
  5
2C3
330
1F
100
AcDbEntity
  8
0
  6
Continuous
 62
     7
370
    25
100
AcDbLine
 10
16.8301634657
 20
2.7474910345
 30
0.0
 11
16.8301634657
 21
2.6939122323
 31
0.0
  0
LINE
  5
2C4
330
1F
100
AcDbEntity
  8
0
  6
Continuous
 62
     7
370
    25
100
AcDbLine
 10
17.0843402561
 20
2.7608530326
 30
0.0
 11
17.0843402561
 21
2.9483788403
 31
0.0
  0
LINE
  5
2C5
330
1F
100
AcDbEntity
  8
0
  6
Continuous
 62
     7
370
    25
100
AcDbLine
 10
16.466630909
 20
2.8928718246
 30
0.0
 11
16.4692935203
 21
2.7720979892
 31
0.0
  0
LINE
  5
2C6
330
1F
100
AcDbEntity
  8
0
  6
Continuous
 62
     7
370
    25
100
AcDbLine
 10
17.0876252869
 20
2.6074680097
 30
0.0
 11
17.0843402561
 21
2.7617839976
 31
0.0
  0
ARC
  5
2C7
330
1F
100
AcDbEntity
  8
0
  6
Continuous
 62
     7
370
    25
100
AcDbCircle
 10
16.607157201
 20
2.7859656474
 30
0.0
 40
0.1378808820666096
100
AcDbArc
 50
184.9482250001
 51
245.0986307833
  0
LINE
  5
2C8
330
1F
100
AcDbEntity
  8
0
  6
Continuous
 62
     7
370
    25
100
AcDbLine
 10
16.5000650063
 20
2.6994997018
 30
0.0
 11
16.5119355735
 21
1.5811194052
 31
0.0
  0
LINE
  5
2C9
330
1F
100
AcDbEntity
  8
0
  6
Continuous
 62
     7
370
    25
100
AcDbLine
 10
20.2934389217
 20
3.0956878439
 30
0.0
 11
20.2934389217
 21
3.1492666461
 31
0.0
  0
LINE
  5
2CA
330
1F
100
AcDbEntity
  8
0
  6
Continuous
 62
     7
370
    25
100
AcDbLine
 10
16.8301633793
 20
3.1492666461
 30
0.0
 11
16.8301633793
 21
3.0956878439
 31
0.0
  0
LINE
  5
2CB
330
1F
100
AcDbEntity
  8
0
  6
Continuous
 62
     7
370
    25
100
AcDbLine
 10
20.0392620449
 20
3.350154452
 30
0.0
 11
20.0392620449
 21
3.1626286442
 31
0.0
  0
LINE
  5
2CC
330
1F
100
AcDbEntity
  8
0
  6
Continuous
 62
     7
370
    25
100
AcDbLine
 10
20.6543087807
 20
3.1738736508
 30
0.0
 11
20.6569713919
 21
3.2946474862
 31
0.0
  0
LINE
  5
2CD
330
1F
100
AcDbEntity
  8
0
  6
Continuous
 62
     7
370
    25
100
AcDbLine
 10
20.0392620449
 20
3.1635596092
 30
0.0
 11
20.035977014
 21
3.0092436213
 31
0.0
  0
ARC
  5
2CE
330
1F
100
AcDbEntity
  8
0
  6
Continuous
 62
     7
370
    25
100
AcDbCircle
 10
20.5164288135
 20
3.1888149798
 30
0.0
 40
0.1389340567466262
100
AcDbArc
 50
294.7395598523
 51
352.166444358
  0
LINE
  5
2CF
330
1F
100
AcDbEntity
  8
0
  6
Continuous
 62
     7
370
    25
100
AcDbLine
 10
20.6116667275
 20
1.9828950668
 30
0.0
 11
20.623542048
 21
3.1017234077
 31
0.0
  0
LINE
  5
2D0
330
1F
100
AcDbEntity
  8
0
  6
Continuous
 62
     7
370
    25
100
AcDbLine
 10
20.2934388353
 20
3.4974634556
 30
0.0
 11
20.2934388353
 21
3.5510422578
 31
0.0
  0
ARC
  5
2D1
330
1F
100
AcDbEntity
  8
0
  6
Continuous
 62
     7
370
    25
100
AcDbCircle
 10
16.6342235788
 20
1.5892948063
 30
0.0
 40
0.1222428568243034
100
AcDbArc
 50
185.1844230284
 51
244.9447994979
  0
LWPOLYLINE
  5
2D2
330
1F
100
AcDbEntity
  8
0
  6
Continuous
 62
     7
370
    25
100
AcDbPolyline
 90
       12
 70
   128
 43
0.0
 10
18.2246320069
 20
2.2954846724
 10
18.2182386913
 20
2.3080744847
 10
18.2064318504
 20
2.3217038444
 10
18.1904597262
 20
2.3337895591
 10
18.1707635523
 20
2.3437977912
 10
18.1482516577
 20
2.3512213825
 10
18.1239198587
 20
2.3557898188
 10
18.0986715853
 20
2.3573950234
 10
18.0733958779
 20
2.3560044238
 10
18.0489764593
 20
2.3516479285
 10
18.0262594353
 20
2.344406964
 10
18.0084070145
 20
2.3357902784
  0
ARC
  5
2D3
330
1F
100
AcDbEntity
  8
0
  6
Continuous
 62
     7
370
    25
100
AcDbCircle
 10
18.0371138934
 20
2.271827842
 30
0.0
 40
0.0701090448130434
100
AcDbArc
 50
114.1709437493
 51
175.1966663326
  0
LINE
  5
2D4
330
1F
100
AcDbEntity
  8
0
  6
Continuous
 62
     7
370
    25
100
AcDbLine
 10
17.9665123434
 20
2.2745827942
 30
0.0
 11
17.9665123434
 21
2.2163427137
 31
0.0
  0
ARC
  5
2D5
330
1F
100
AcDbEntity
  8
0
  6
Continuous
 62
     7
370
    25
100
AcDbCircle
 10
20.4885980547
 20
1.9919741184
 30
0.0
 40
0.1233461508276887
100
AcDbArc
 50
295.1941486855
 51
354.130004145
  0
ARC
  5
2D6
330
1F
100
AcDbEntity
  8
0
  6
Continuous
 62
     7
370
    25
100
AcDbCircle
 10
18.2144171788
 20
5.1352391295
 30
0.0
 40
0.3168162639092197
100
AcDbArc
 50
249.9951311396
 51
289.2785342839
  0
ARC
  5
2D7
330
1F
100
AcDbEntity
  8
0
  6
Continuous
 62
     7
370
    25
100
AcDbCircle
 10
18.2525950531
 20
4.7558177956
 30
0.0
 40
0.1042766699028722
100
AcDbArc
 50
4.1432394942
 51
50.4296688775
  0
ARC
  5
2D8
330
1F
100
AcDbEntity
  8
0
  6
Continuous
 62
     7
370
    25
100
AcDbCircle
 10
18.2116810127
 20
5.0528183648
 30
0.0
 40
0.323716190558819
100
AcDbArc
 50
243.410099482
 51
296.5943233516
  0
ARC
  5
2D9
330
1F
100
AcDbEntity
  8
0
  6
Continuous
 62
     7
370
    25
100
AcDbCircle
 10
18.1704974278
 20
4.7559704318
 30
0.0
 40
0.1039738043557923
100
AcDbArc
 50
128.3179116233
 51
175.9351789671
  0
LINE
  5
2DA
330
1F
100
AcDbEntity
  8
0
  6
Continuous
 62
     7
370
    25
100
AcDbLine
 10
18.0581008522
 20
4.4059916932
 30
0.0
 11
18.0667851702
 21
4.7633406163
 31
0.0
  0
LINE
  5
2DB
330
1F
100
AcDbEntity
  8
0
  6
Continuous
 62
     7
370
    25
100
AcDbLine
 10
18.3565992003
 20
4.7633518021
 30
0.0
 11
18.3480399366
 21
4.3959174469
 31
0.0
  0
ARC
  5
2DC
330
1F
100
AcDbEntity
  8
0
  6
Continuous
 62
     7
370
    25
100
AcDbCircle
 10
18.2140760694
 20
4.7177003824
 30
0.0
 40
0.3485549817526798
100
AcDbArc
 50
243.4171773129
 51
292.6028164835
  0
ARC
  5
2DD
330
1F
100
AcDbEntity
  8
0
  6
Continuous
 62
     7
370
    25
100
AcDbCircle
 10
18.2770984777
 20
4.9674189613
 30
0.0
 40
0.137748939468846
100
AcDbArc
 50
287.7171560492
 51
324.4513590635
  0
ARC
  5
2DE
330
1F
100
AcDbEntity
  8
0
  6
Continuous
 62
     7
370
    25
100
AcDbCircle
 10
18.152720134
 20
4.9720210885
 30
0.0
 40
0.1423453776230362
100
AcDbArc
 50
218.6207253518
 51
250.8539464997
  0
LWPOLYLINE
  5
2DF
330
1F
100
AcDbEntity
  8
0
  6
Continuous
 62
     7
370
    25
100
AcDbPolyline
 90
       24
 70
   128
 43
0.0
 10
18.3891740785
 20
4.8873325702
 10
18.3984651736
 20
4.9051693619
 10
18.4023553394
 20
4.9236592273
 10
18.4007308432
 20
4.9422613475
 10
18.3936392177
 20
4.9604316109
 10
18.381287792
 20
4.9776385284
 10
18.3640379013
 20
4.9933787494
 10
18.342394257
 20
5.0071918794
 10
18.3169897359
 20
5.0186738511
 10
18.2885676204
 20
5.0274888727
 10
18.2579590853
 20
5.0333790327
 10
18.2260596906
 20
5.0361720823
 10
18.1938023311
 20
5.0357862749
 10
18.1621307046
 20
5.032232911
 10
18.1319710946
 20
5.0256159634
 10
18.104205752
 20
5.0161289844
 10
18.0796468383
 20
5.0040493931
 10
18.059012703
 20
4.9897306174
 10
18.0429070118
 20
4.9735914927
 10
18.0318007278
 20
4.956104013
 10
18.0260187589
 20
4.9377797859
 10
18.0257302784
 20
4.9191547657
 10
18.0309435829
 20
4.9007737626
 10
18.041506438
 20
4.8831744771
  0
LWPOLYLINE
  5
2E0
330
1F
100
AcDbEntity
  8
0
  6
Continuous
 62
     7
370
    25
100
AcDbPolyline
 90
       24
 70
   128
 43
0.0
 10
16.6987423965
 20
5.6583356585
 10
16.7292285564
 20
5.652237852
 10
16.7610688377
 20
5.6492282754
 10
16.7933318146
 20
5.6493948116
 10
16.8250737463
 20
5.6527326713
 10
16.8553662319
 20
5.6591441925
 10
16.8833230451
 20
5.6684418101
 10
16.9081265796
 20
5.6803536429
 10
16.9290513128
 20
5.694531202
 10
16.945485023
 20
5.7105597931
 10
16.9569471544
 20
5.7279705654
 10
16.9631024282
 20
5.7462542062
 10
16.9637707385
 20
5.7648759834
 10
16.9589325105
 20
5.783291112
 10
16.9487293486
 20
5.8009610432
 10
16.9334596287
 20
5.8173687812
 10
16.9135701154
 20
5.8320344991
 10
16.8896424797
 20
5.844529109
 10
16.8623766629
 20
5.8544872589
 10
16.832570178
 20
5.8616175852
 10
16.8010949482
 20
5.8657114935
 10
16.7688716394
 20
5.8666492952
 10
16.7368427828
 20
5.8644035502
 10
16.7059452054
 20
5.8590399152
  0
LINE
  5
2E1
330
1F
100
AcDbEntity
  8
0
  6
Continuous
 62
     7
370
    25
100
AcDbLine
 10
16.7059452054
 20
5.8590399152
 30
0.0
 11
18.7344282225
 21
7.0300582351
 31
0.0
  0
LWPOLYLINE
  5
2E2
330
1F
100
AcDbEntity
  8
0
  6
Continuous
 62
     7
370
    25
100
AcDbPolyline
 90
       24
 70
   128
 43
0.0
 10
18.7344282225
 20
7.0300582351
 10
18.7251363496
 20
7.0122193978
 10
18.7212467023
 20
6.9937273373
 10
18.7228729269
 20
6.9751232215
 10
18.7299674909
 20
6.956951162
 10
18.7423228921
 20
6.9397429473
 10
18.7595776224
 20
6.9240020278
 10
18.7812267978
 20
6.9101888978
 10
18.8066370228
 20
6.8987077244
 10
18.8350648422
 20
6.889894399
 10
18.8656786924
 20
6.8840068583
 10
18.8975826675
 20
6.8812172512
 10
18.9298434839
 20
6.8816072494
 10
18.9615172278
 20
6.8851653779
 10
18.9916771834
 20
6.891787614
 10
19.0194411001
 20
6.9012802057
 10
19.0439964272
 20
6.9133653599
 10
19.0646249883
 20
6.9276895487
 10
19.0807230742
 20
6.9438336626
 10
19.0918197652
 20
6.961325383
 10
19.0975904127
 20
6.9796529529
 10
19.097866189
 20
6.9982801183
 10
19.0926389704
 20
7.0166619696
 10
19.0820617258
 20
7.0342605816
  0
LINE
  5
2E3
330
1F
100
AcDbEntity
  8
0
  6
Continuous
 62
     7
370
    25
100
AcDbLine
 10
19.0820617258
 20
7.0342605816
 30
0.0
 11
20.4249365619
 21
6.2590354399
 31
0.0
  0
LWPOLYLINE
  5
2E4
330
1F
100
AcDbEntity
  8
0
  6
Continuous
 62
     7
370
    25
100
AcDbPolyline
 90
       24
 70
   128
 43
0.0
 10
20.4249365619
 20
6.2590354399
 10
20.3944515686
 20
6.2651415532
 10
20.3626098182
 20
6.2681591623
 10
20.330343125
 20
6.26799996
 10
20.298595403
 20
6.2646686361
 10
20.2682955714
 20
6.2582626527
 10
20.2403301159
 20
6.2489694255
 10
20.2155172045
 20
6.2370608107
 10
20.1945828351
 20
6.2228853221
 10
20.1781394022
 20
6.2068575542
 10
20.16666811
 20
6.1894465824
 10
20.1605045828
 20
6.1711617193
 10
20.159829013
 20
6.1525379464
 10
20.1646612777
 20
6.1341201736
 10
20.1748599025
 20
6.1164471741
 10
20.190126684
 20
6.1000361432
 10
20.2100148145
 20
6.0853671325
 10
20.2339424502
 20
6.0728693296
 10
20.2612094769
 20
6.0629083858
 10
20.2910182089
 20
6.0557757645
 10
20.3224965499
 20
6.05168016
 10
20.3547233156
 20
6.0507413604
 10
20.3867559748
 20
6.052986806
 10
20.4176570956
 20
6.0583508901
  0
LINE
  5
2E5
330
1F
100
AcDbEntity
  8
0
  6
Continuous
 62
     7
370
    25
100
AcDbLine
 10
20.4176570956
 20
6.0583508901
 30
0.0
 11
18.3891740785
 21
4.8873325702
 31
0.0
  0
LINE
  5
2E6
330
1F
100
AcDbEntity
  8
0
  6
Continuous
 62
     7
370
    25
100
AcDbLine
 10
18.041506438
 20
4.8831744771
 30
0.0
 11
16.6987423965
 21
5.6583356585
 31
0.0
  0
ARC
  5
2E7
330
1F
100
AcDbEntity
  8
0
  6
Continuous
 62
     7
370
    25
100
AcDbCircle
 10
20.3870507967
 20
6.2409973378
 30
0.0
 40
0.1851930625213809
100
AcDbArc
 50
279.5127444325
 51
309.4322782165
  0
ARC
  5
2E8
330
1F
100
AcDbEntity
  8
0
  6
Continuous
 62
     7
370
    25
100
AcDbCircle
 10
20.4409170132
 20
6.0179200829
 30
0.0
 40
0.1023327264412386
100
AcDbArc
 50
4.2564792749
 51
51.4542721312
  0
LINE
  5
2E9
330
1F
100
AcDbEntity
  8
0
  6
Continuous
 62
     7
370
    25
100
AcDbLine
 10
18.3565992003
 20
4.7633518021
 30
0.0
 11
20.5429674854
 21
6.0255153471
 31
0.0
  0
ARC
  5
2EA
330
1F
100
AcDbEntity
  8
0
  6
Continuous
 62
     7
370
    25
100
AcDbCircle
 10
16.7365941619
 20
5.8402400445
 30
0.0
 40
0.1858008659410208
100
AcDbArc
 50
231.4087432439
 51
258.2452905941
  0
LINE
  5
2EB
330
1F
100
AcDbEntity
  8
0
  6
Continuous
 62
     7
370
    25
100
AcDbLine
 10
16.58072435
 20
5.6212252672
 30
0.0
 11
18.0667851702
 21
4.7633406163
 31
0.0
  0
ARC
  5
2EC
330
1F
100
AcDbEntity
  8
0
  6
Continuous
 62
     7
370
    25
100
AcDbCircle
 10
16.6825573266
 20
5.6137826577
 30
0.0
 40
0.1021045913253106
100
AcDbArc
 50
127.2920082321
 51
175.8198878691
  0
LINE
  5
2ED
330
1F
100
AcDbEntity
  8
0
  6
Continuous
 62
     7
370
    25
100
AcDbLine
 10
20.5728208981
 20
5.680256158
 30
0.0
 11
20.5429674854
 21
6.0255153471
 31
0.0
  0
LINE
  5
2EE
330
1F
100
AcDbEntity
  8
0
  6
Continuous
 62
     7
370
    25
100
AcDbLine
 10
18.3480399366
 20
4.3959174469
 30
0.0
 11
20.5728208981
 21
5.680256158
 31
0.0
  0
LINE
  5
2EF
330
1F
100
AcDbEntity
  8
0
  6
Continuous
 62
     7
370
    25
100
AcDbLine
 10
16.58072435
 20
5.6212252672
 30
0.0
 11
16.5682324002
 21
5.2660744432
 31
0.0
  0
LINE
  5
2F0
330
1F
100
AcDbEntity
  8
0
  6
Continuous
 62
     7
370
    25
100
AcDbLine
 10
16.5682324002
 20
5.2660744432
 30
0.0
 11
18.0581008522
 21
4.4059916932
 31
0.0
  0
ARC
  5
2F1
330
1F
100
AcDbEntity
  8
0
  6
Continuous
 62
     7
370
    25
100
AcDbCircle
 10
18.2138241538
 20
4.7266201214
 30
0.0
 40
0.3886901375947319
100
AcDbArc
 50
242.3910505883
 51
297.6089652809
  0
ARC
  5
2F2
330
1F
100
AcDbEntity
  8
0
  6
Continuous
 62
     7
370
    25
100
AcDbCircle
 10
18.059004395
 20
4.380218691
 30
0.0
 40
0.0253892608921346
100
AcDbArc
 50
122.7333611181
 51
175.5476426348
  0
ARC
  5
2F3
330
1F
100
AcDbEntity
  8
0
  6
Continuous
 62
     7
370
    25
100
AcDbCircle
 10
18.2138242447
 20
4.7263104297
 30
0.0
 40
0.3658702674342633
100
AcDbArc
 50
242.5690972197
 51
297.4309027803
  0
ARC
  5
2F4
330
1F
100
AcDbEntity
  8
0
  6
Continuous
 62
     7
370
    25
100
AcDbCircle
 10
18.3686444698
 20
4.380219023
 30
0.0
 40
0.0253887786400646
100
AcDbArc
 50
4.4518034591
 51
57.2669461996
  0
LINE
  5
2F5
330
1F
100
AcDbEntity
  8
0
  6
Continuous
 62
     7
370
    25
100
AcDbLine
 10
18.0282318833
 20
4.2577898224
 30
0.0
 11
18.0336917531
 21
4.3821896621
 31
0.0
  0
LINE
  5
2F6
330
1F
100
AcDbEntity
  8
0
  6
Continuous
 62
     7
370
    25
100
AcDbLine
 10
18.3994166062
 20
4.2577898224
 30
0.0
 11
18.39395665
 21
4.382189712
 31
0.0
  0
ARC
  5
2F7
330
1F
100
AcDbEntity
  8
0
  6
Continuous
 62
     7
370
    25
100
AcDbCircle
 10
18.2138242447
 20
4.6126602107
 30
0.0
 40
0.4004716182901276
100
AcDbArc
 50
242.3910478984
 51
297.6089521016
  0
LINE
  5
2F8
330
1F
100
AcDbEntity
  8
0
  6
Continuous
 62
     7
370
    25
100
AcDbLine
 10
20.5630188693
 20
5.6604361978
 30
0.0
 11
18.3823728348
 21
4.4015760377
 31
0.0
  0
LINE
  5
2F9
330
1F
100
AcDbEntity
  8
0
  6
Continuous
 62
     7
370
    25
100
AcDbLine
 10
18.0452756547
 20
4.4015760377
 30
0.0
 11
16.5605834317
 21
5.2586706143
 31
0.0
  0
ARC
  5
2FA
330
1F
100
AcDbEntity
  8
0
  6
Continuous
 62
     7
370
    25
100
AcDbCircle
 10
20.5184080732
 20
5.7637195748
 30
0.0
 40
0.0996338167934595
100
AcDbArc
 50
303.1017863223
 51
358.7718868697
  0
ARC
  5
2FB
330
1F
100
AcDbEntity
  8
0
  6
Continuous
 62
     7
370
    25
100
AcDbCircle
 10
16.61040601
 20
5.3612574234
 30
0.0
 40
0.1041076994364513
100
AcDbArc
 50
181.0325565202
 51
246.1028585526
  0
LINE
  5
2FC
330
1F
100
AcDbEntity
  8
0
  6
Continuous
 62
     7
370
    25
100
AcDbLine
 10
16.5489995301
 20
5.2392842387
 30
0.0
 11
18.0336917531
 21
4.3821896621
 31
0.0
  0
ARC
  5
2FD
330
1F
100
AcDbEntity
  8
0
  6
Continuous
 62
     7
370
    25
100
AcDbCircle
 10
16.574312172
 20
5.2373132676
 30
0.0
 40
0.0253892608921275
100
AcDbArc
 50
122.7333611181
 51
175.5476426348
  0
LINE
  5
2FE
330
1F
100
AcDbEntity
  8
0
  6
Continuous
 62
     7
370
    25
100
AcDbLine
 10
18.39395665
 20
4.382189712
 30
0.0
 11
20.5746026845
 21
5.6410498722
 31
0.0
  0
ARC
  5
2FF
330
1F
100
AcDbEntity
  8
0
  6
Continuous
 62
     7
370
    25
100
AcDbCircle
 10
20.5492905043
 20
5.6390791832
 30
0.0
 40
0.0253887786400569
100
AcDbArc
 50
4.4518034591
 51
57.2669461996
  0
LINE
  5
300
330
1F
100
AcDbEntity
  8
0
  6
Continuous
 62
     7
370
    25
100
AcDbLine
 10
20.5800626407
 20
5.5166499826
 30
0.0
 11
20.5746026845
 21
5.6410498722
 31
0.0
  0
LINE
  5
301
330
1F
100
AcDbEntity
  8
0
  6
Continuous
 62
     7
370
    25
100
AcDbLine
 10
18.3994166062
 20
4.2577898224
 30
0.0
 11
20.5800626407
 21
5.5166499826
 31
0.0
  0
LINE
  5
302
330
1F
100
AcDbEntity
  8
0
  6
Continuous
 62
     7
370
    25
100
AcDbLine
 10
16.5435396603
 20
5.114884399
 30
0.0
 11
16.5489995301
 21
5.2392842387
 31
0.0
  0
LINE
  5
303
330
1F
100
AcDbEntity
  8
0
  6
Continuous
 62
     7
370
    25
100
AcDbLine
 10
16.5435396603
 20
5.114884399
 30
0.0
 11
18.0282318833
 21
4.2577898224
 31
0.0
  0
ARC
  5
304
330
1F
100
AcDbEntity
  8
0
  6
Continuous
 62
     7
370
    25
100
AcDbCircle
 10
16.662566256
 20
5.7569374683
 30
0.0
 40
0.0747569671479969
100
AcDbArc
 50
125.7185959404
 51
235.9408150984
  0
ARC
  5
305
330
1F
100
AcDbEntity
  8
0
  6
Continuous
 62
     7
370
    25
100
AcDbCircle
 10
16.7600636071
 20
5.6330917195
 30
0.0
 40
0.232338951895522
100
AcDbArc
 50
103.469555994
 51
127.4072679512
  0
ARC
  5
306
330
1F
100
AcDbEntity
  8
0
  6
Continuous
 62
     7
370
    25
100
AcDbCircle
 10
18.8627252821
 20
6.9221949473
 30
0.0
 40
0.1676145112238411
100
AcDbArc
 50
110.296185011
 51
139.9452004332
  0
LINE
  5
307
330
1F
100
AcDbEntity
  8
0
  6
Continuous
 62
     7
370
    25
100
AcDbLine
 10
16.475229841
 20
5.3552305445
 30
0.0
 11
16.4745584194
 21
5.3486790041
 31
0.0
  0
ARC
  5
308
330
1F
100
AcDbEntity
  8
0
  6
Continuous
 62
     7
370
    25
100
AcDbCircle
 10
16.5936395198
 20
5.2314273012
 30
0.0
 40
0.1268552086909064
100
AcDbArc
 50
181.7312064197
 51
246.7379334141
  0
ARC
  5
309
330
1F
100
AcDbEntity
  8
0
  6
Continuous
 62
     7
370
    25
100
AcDbCircle
 10
20.3672118795
 20
6.0403470104
 30
0.0
 40
0.226178619974443
100
AcDbArc
 50
53.6951193233
 51
75.2135421986
  0
ARC
  5
30A
330
1F
100
AcDbEntity
  8
0
  6
Continuous
 62
     7
370
    25
100
AcDbCircle
 10
20.4599681289
 20
6.1590527903
 30
0.0
 40
0.0757189446696807
100
AcDbArc
 50
306.191809016
 51
57.0714581794
  0
ARC
  5
30B
330
1F
100
AcDbEntity
  8
0
  6
Continuous
 62
     7
370
    25
100
AcDbCircle
 10
18.9590094237
 20
6.924308731
 30
0.0
 40
0.1650190246631724
100
AcDbArc
 50
41.7819837091
 51
68.2814452181
  0
LINE
  5
30C
330
1F
100
AcDbEntity
  8
0
  6
Continuous
 62
     7
370
    25
100
AcDbLine
 10
20.6490437951
 20
5.7504446375
 30
0.0
 11
20.6487469316
 21
5.7539595105
 31
0.0
  0
ARC
  5
30D
330
1F
100
AcDbEntity
  8
0
  6
Continuous
 62
     7
370
    25
100
AcDbCircle
 10
20.5299628455
 20
5.6331928376
 30
0.0
 40
0.1268551399585188
100
AcDbArc
 50
293.2620483084
 51
358.268859042
  0
ARC
  5
30E
330
1F
100
AcDbEntity
  8
0
  6
Continuous
 62
     7
370
    25
100
AcDbCircle
 10
18.9100911329
 20
6.8084564019
 30
0.0
 40
0.2907501419486579
100
AcDbArc
 50
67.7732503016
 51
111.2769403959
  0
LINE
  5
30F
330
1F
100
AcDbEntity
  8
0
  6
Continuous
 62
     7
370
    25
100
AcDbLine
 10
18.397524976
 20
1.8108321384
 30
0.0
 11
18.3994078774
 21
1.9305385053
 31
0.0
  0
ARC
  5
310
330
1F
100
AcDbEntity
  8
0
  6
Continuous
 62
     7
370
    25
100
AcDbCircle
 10
18.2138155115
 20
2.1621019621
 30
0.0
 40
0.3964084464392393
100
AcDbArc
 50
242.3910443739
 51
297.6089711863
  0
LINE
  5
311
330
1F
100
AcDbEntity
  8
0
  6
Continuous
 62
     7
370
    25
100
AcDbLine
 10
18.028223241
 20
1.9305384554
 30
0.0
 11
18.0301061424
 21
1.8108320885
 31
0.0
  0
ARC
  5
312
330
1F
100
AcDbEntity
  8
0
  6
Continuous
 62
     7
370
    25
100
AcDbCircle
 10
18.2138155115
 20
2.2854083144
 30
0.0
 40
0.4004711072372838
100
AcDbArc
 50
242.3910243372
 51
297.6089910651
  0
ARC
  5
313
330
1F
100
AcDbEntity
  8
0
  6
Continuous
 62
     7
370
    25
100
AcDbCircle
 10
18.8859788863
 20
3.9696429653
 30
0.0
 40
0.3331190246720817
100
AcDbArc
 50
99.947578293
 51
119.0560922419
  0
ARC
  5
314
330
1F
100
AcDbEntity
  8
0
  6
Continuous
 62
     7
370
    25
100
AcDbCircle
 10
18.9335949882
 20
3.9696438107
 30
0.0
 40
0.333118139383794
100
AcDbArc
 50
60.9439001041
 51
80.0524481974
  0
LINE
  5
315
330
1F
100
AcDbEntity
  8
0
  6
Continuous
 62
     7
370
    25
100
AcDbLine
 10
20.5801177787
 20
3.4037158145
 30
0.0
 11
20.2849691491
 21
3.5741014916
 31
0.0
  0
LINE
  5
316
330
1F
100
AcDbEntity
  8
0
  6
Continuous
 62
     7
370
    25
100
AcDbLine
 10
19.297716428
 20
4.1440303563
 30
0.0
 11
19.09537906
 21
4.2608372325
 31
0.0
  0
LWPOLYLINE
  5
317
330
1F
100
AcDbEntity
  8
0
  6
Continuous
 62
     7
370
    25
100
AcDbPolyline
 90
       11
 70
   128
 43
0.0
 10
20.5801177787
 20
3.4037158145
 10
20.6068658343
 20
3.3856363528
 10
20.6283854613
 20
3.3653638809
 10
20.6441465401
 20
3.3433976086
 10
20.6537612035
 20
3.3202784543
 10
20.656992652
 20
3.2965756747
 10
20.6537612035
 20
3.2728728951
 10
20.6441466266
 20
3.249753691
 10
20.6283853749
 20
3.2277874186
 10
20.6068658343
 20
3.2075149966
 10
20.5801176923
 20
3.189435485
  0
LINE
  5
318
330
1F
100
AcDbEntity
  8
0
  6
Continuous
 62
     7
370
    25
100
AcDbLine
 10
18.3994078774
 20
1.9305385053
 30
0.0
 11
20.5801176923
 21
3.189435485
 31
0.0
  0
LINE
  5
319
330
1F
100
AcDbEntity
  8
0
  6
Continuous
 62
     7
370
    25
100
AcDbLine
 10
16.5434845223
 20
2.7876598733
 30
0.0
 11
18.028223241
 21
1.9305384554
 31
0.0
  0
LWPOLYLINE
  5
31A
330
1F
100
AcDbEntity
  8
0
  6
Continuous
 62
     7
370
    25
100
AcDbPolyline
 90
       11
 70
   128
 43
0.0
 10
16.5434845223
 20
2.7876598733
 10
16.5167364667
 20
2.8057393351
 10
16.4952168396
 20
2.8260118069
 10
16.4794557608
 20
2.8479780793
 10
16.4698410974
 20
2.8710972336
 10
16.4666096489
 20
2.8948000132
 10
16.4698410974
 20
2.9185027927
 10
16.4794556744
 20
2.9416219969
 10
16.4952169261
 20
2.9635882693
 10
16.5167364667
 20
2.9838606913
 10
16.5434846087
 20
3.0019402029
  0
LINE
  5
31B
330
1F
100
AcDbEntity
  8
0
  6
Continuous
 62
     7
370
    25
100
AcDbLine
 10
18.7241944235
 20
4.2608371826
 30
0.0
 11
18.521857142
 21
4.1440303563
 31
0.0
  0
LINE
  5
31C
330
1F
100
AcDbEntity
  8
0
  6
Continuous
 62
     7
370
    25
100
AcDbLine
 10
16.838633195
 20
3.172325855
 30
0.0
 11
16.5434846087
 21
3.0019402029
 31
0.0
  0
LINE
  5
31D
330
1F
100
AcDbEntity
  8
0
  6
Continuous
 62
     7
370
    25
100
AcDbLine
 10
18.8284335497
 20
4.2559450677
 30
0.0
 11
18.8452652386
 21
4.2292486268
 31
0.0
  0
LWPOLYLINE
  5
31E
330
1F
100
AcDbEntity
  8
0
  6
Continuous
 62
     7
370
    25
100
AcDbPolyline
 90
       13
 70
   128
 43
0.0
 10
18.9743083313
 20
4.2292486268
 10
19.0041109272
 20
4.2212258996
 10
19.0310475582
 20
4.2103375314
 10
19.0542997104
 20
4.1969143497
 10
19.0731609609
 20
4.1813641636
 10
19.0870582378
 20
4.1641594912
 10
19.0955690613
 20
4.1458230158
 10
19.0984350695
 20
4.1269119953
 10
19.0955690181
 20
4.1080009499
 10
19.0870581946
 20
4.0896645244
 10
19.0731609609
 20
4.0724598271
 10
19.0542997104
 20
4.056909641
 10
19.0468741457
 20
4.0520976012
  0
LWPOLYLINE
  5
31F
330
1F
100
AcDbEntity
  8
0
  6
Continuous
 62
     7
370
    25
100
AcDbPolyline
 90
       13
 70
   128
 43
0.0
 10
18.7726994242
 20
4.0520976012
 10
18.7652738595
 20
4.056909641
 10
18.746412609
 20
4.0724598271
 10
18.7325153322
 20
4.0896644995
 10
18.7240044654
 20
4.1080009998
 10
18.7211385005
 20
4.1269119953
 10
18.7240045518
 20
4.1458230408
 10
18.7325153322
 20
4.1641594912
 10
18.746412609
 20
4.1813641636
 10
18.7652737731
 20
4.1969143996
 10
18.7885259253
 20
4.2103375813
 10
18.8154626427
 20
4.2212258996
 10
18.8452652386
 20
4.2292486268
  0
LINE
  5
320
330
1F
100
AcDbEntity
  8
0
  6
Continuous
 62
     7
370
    25
100
AcDbLine
 10
18.9743083313
 20
4.2292486268
 30
0.0
 11
18.9911399338
 21
4.2559451176
 31
0.0
  0
LWPOLYLINE
  5
321
330
1F
100
AcDbEntity
  8
0
  6
Continuous
 62
     7
370
    25
100
AcDbPolyline
 90
       37
 70
   128
 43
0.0
 10
16.6420804751
 20
2.9718070183
 10
16.6672707532
 20
2.9840092667
 10
16.6957487413
 20
2.9935008357
 10
16.7266491706
 20
2.9999935547
 10
16.75903314
 20
3.0032899548
 10
16.7919168082
 20
3.0032899548
 10
16.8243007775
 20
2.9999935547
 10
16.8552011205
 20
2.9935008856
 10
16.883679195
 20
2.9840092667
 10
16.9088694731
 20
2.9718070183
 10
16.9300066344
 20
2.9572650052
 10
16.9464483821
 20
2.9408249628
 10
16.9576952765
 20
2.9229865495
 10
16.9634054278
 20
2.9042916819
 10
16.9634053846
 20
2.8853083693
 10
16.9576952333
 20
2.8666135017
 10
16.9464483388
 20
2.8487750386
 10
16.9300066344
 20
2.832335071
 10
16.9088694299
 20
2.817793033
 10
16.8836791518
 20
2.8055907845
 10
16.8552012069
 20
2.7960991906
 10
16.8243007343
 20
2.7896064966
 10
16.7919167649
 20
2.7863100965
 10
16.75903314
 20
2.7863100715
 10
16.7266491706
 20
2.7896064717
 10
16.6957487845
 20
2.7960991657
 10
16.66727071
 20
2.8055907845
 10
16.6420804751
 20
2.817793008
 10
16.6209432706
 20
2.832335046
 10
16.6045015229
 20
2.8487750885
 10
16.5932546717
 20
2.8666134768
 10
16.5875445204
 20
2.8853083444
 10
16.5875445204
 20
2.9042916819
 10
16.5932546717
 20
2.9229865495
 10
16.6045016093
 20
2.9408249877
 10
16.6209432706
 20
2.9572649803
 10
16.6420804751
 20
2.9718070183
  0
LWPOLYLINE
  5
322
330
1F
100
AcDbEntity
  8
0
  6
Continuous
 62
     7
370
    25
100
AcDbPolyline
 90
       37
 70
   128
 43
0.0
 10
20.2147328711
 20
3.3735826549
 10
20.2399231492
 20
3.3857849033
 10
20.2684010941
 20
3.3952764973
 10
20.2993015666
 20
3.4017691913
 10
20.331685536
 20
3.4050655914
 10
20.3645691609
 20
3.4050656164
 10
20.3969531303
 20
3.4017692162
 10
20.4278535165
 20
3.3952765222
 10
20.456331591
 20
3.3857849033
 10
20.4815218259
 20
3.3735826798
 10
20.5026590304
 20
3.3590406418
 10
20.519100778
 20
3.3426005994
 10
20.5303476293
 20
3.3247622111
 10
20.5360577806
 20
3.3060673435
 10
20.5360577806
 20
3.2870840059
 10
20.5303476293
 20
3.2683891383
 10
20.5191006916
 20
3.2505507002
 10
20.5026590304
 20
3.2341107076
 10
20.4815218259
 20
3.2195686696
 10
20.4563315478
 20
3.2073664211
 10
20.4278535597
 20
3.1978748521
 10
20.3969531303
 20
3.1913821332
 10
20.3645691609
 20
3.1880857331
 10
20.3316854928
 20
3.1880857331
 10
20.2993015234
 20
3.1913821332
 10
20.2684011805
 20
3.1978748023
 10
20.239923106
 20
3.2073664211
 10
20.2147328279
 20
3.2195686696
 10
20.1935956666
 20
3.2341106826
 10
20.1771539189
 20
3.2505507251
 10
20.1659070244
 20
3.2683891383
 10
20.1601968732
 20
3.2870840059
 10
20.1601969164
 20
3.3060673185
 10
20.1659070676
 20
3.3247621861
 10
20.1771539621
 20
3.3426006492
 10
20.1935956666
 20
3.3590406169
 10
20.2147328711
 20
3.3735826549
  0
LINE
  5
323
330
1F
100
AcDbEntity
  8
0
  6
Continuous
 62
     7
370
    25
100
AcDbLine
 10
18.0560620001
 20
2.1823178563
 30
0.0
 11
17.935427017
 21
2.1126767629
 31
0.0
  0
ARC
  5
324
330
1F
100
AcDbEntity
  8
0
  6
Continuous
 62
     7
370
    25
100
AcDbCircle
 10
18.2138155637
 20
1.8806780013
 30
0.0
 40
0.3404009238203495
100
AcDbArc
 50
62.3910595664
 51
117.6089585539
  0
LINE
  5
325
330
1F
100
AcDbEntity
  8
0
  6
Continuous
 62
     7
370
    25
100
AcDbLine
 10
18.4922040582
 20
2.1126767879
 30
0.0
 11
18.3715690319
 21
2.1823179062
 31
0.0
  0
ARC
  5
326
330
1F
100
AcDbEntity
  8
0
  6
Continuous
 62
     7
370
    25
100
AcDbCircle
 10
18.5618011505
 20
2.2469983828
 30
0.0
 40
0.151281347583586
100
AcDbArc
 50
242.6096198147
 51
297.3903801853
  0
LINE
  5
327
330
1F
100
AcDbEntity
  8
0
  6
Continuous
 62
     7
370
    25
100
AcDbLine
 10
20.2646107469
 20
3.0555102977
 30
0.0
 11
18.6313982428
 21
2.1126767879
 31
0.0
  0
ARC
  5
328
330
1F
100
AcDbEntity
  8
0
  6
Continuous
 62
     7
370
    25
100
AcDbCircle
 10
20.244181256
 20
3.1006000194
 30
0.0
 40
0.0495019908464998
100
AcDbArc
 50
294.3745823789
 51
354.3050597706
  0
ARC
  5
329
330
1F
100
AcDbEntity
  8
0
  6
Continuous
 62
     7
370
    25
100
AcDbCircle
 10
20.2023470967
 20
3.2721614526
 30
0.0
 40
0.1293971422650413
100
AcDbArc
 50
116.8143991791
 51
156.6898018989
  0
LINE
  5
32A
330
1F
100
AcDbEntity
  8
0
  6
Continuous
 62
     7
370
    25
100
AcDbLine
 10
20.2646107902
 20
3.4572859343
 30
0.0
 11
20.1439758071
 21
3.387644841
 31
0.0
  0
ARC
  5
32B
330
1F
100
AcDbEntity
  8
0
  6
Continuous
 62
     7
370
    25
100
AcDbCircle
 10
20.2441813973
 20
3.5023754297
 30
0.0
 40
0.0495017442324119
100
AcDbArc
 50
294.3745870215
 51
354.3052655047
  0
ARC
  5
32C
330
1F
100
AcDbEntity
  8
0
  6
Continuous
 62
     7
370
    25
100
AcDbCircle
 10
16.879421045
 20
3.1006000194
 30
0.0
 40
0.0495019908465135
100
AcDbArc
 50
185.6949402294
 51
245.6254176211
  0
LINE
  5
32D
330
1F
100
AcDbEntity
  8
0
  6
Continuous
 62
     7
370
    25
100
AcDbLine
 10
16.9796265803
 20
2.9858691794
 30
0.0
 11
16.858991554
 21
3.0555102977
 31
0.0
  0
ARC
  5
32E
330
1F
100
AcDbEntity
  8
0
  6
Continuous
 62
     7
370
    25
100
AcDbCircle
 10
16.921254853
 20
2.8703855391
 30
0.0
 40
0.1293975645750556
100
AcDbArc
 50
23.3102390056
 51
63.1854781746
  0
ARC
  5
32F
330
1F
100
AcDbEntity
  8
0
  6
Continuous
 62
     7
370
    25
100
AcDbCircle
 10
16.879420644
 20
2.698823958
 30
0.0
 40
0.04950146117242
100
AcDbArc
 50
185.6944782848
 51
245.6256494481
  0
LINE
  5
330
330
1F
100
AcDbEntity
  8
0
  6
Continuous
 62
     7
370
    25
100
AcDbLine
 10
17.7962327892
 20
2.1126767879
 30
0.0
 11
16.858991554
 21
2.6537346362
 31
0.0
  0
ARC
  5
331
330
1F
100
AcDbEntity
  8
0
  6
Continuous
 62
     7
370
    25
100
AcDbCircle
 10
17.8658299272
 20
2.246998576
 30
0.0
 40
0.1512815401269177
100
AcDbArc
 50
242.6096381147
 51
297.3903413489
  0
LWPOLYLINE
  5
332
330
1F
100
AcDbEntity
  8
0
  6
Continuous
 62
     7
370
    25
100
AcDbPolyline
 90
       32
 70
   128
 43
0.0
 10
18.1252505269
 20
1.9683068635
 10
18.0981748411
 20
1.9784198752
 10
18.0744785603
 20
1.9910473449
 10
18.0548540204
 20
2.0058202287
 10
18.0398747255
 20
2.0223067696
 10
18.029978409
 20
2.0400252697
 10
18.025454286
 20
2.058457935
 10
18.0264346272
 20
2.0770661169
 10
18.0328906104
 20
2.0953059783
 10
18.0446337899
 20
2.1126446082
 10
18.0613208496
 20
2.1285752383
 10
18.0824641038
 20
2.1426323355
 10
18.1074458428
 20
2.1544051718
 10
18.1355360069
 20
2.1635496738
 10
18.1659136626
 20
2.1697986751
 10
18.1976912006
 20
2.1729694995
 10
18.2299398746
 20
2.1729694746
 10
18.2617173694
 20
2.1697986751
 10
18.2920949818
 20
2.1635496988
 10
18.3201851892
 20
2.1544052217
 10
18.3451669714
 20
2.1426323604
 10
18.366310312
 20
2.1285752133
 10
18.3829972421
 20
2.1126446082
 10
18.3947404216
 20
2.0953059783
 10
18.4011964048
 20
2.0770661169
 10
18.4021767892
 20
2.05845796
 10
18.397652623
 20
2.0400252697
 10
18.3877563065
 20
2.0223067696
 10
18.3727770981
 20
2.0058201788
 10
18.3531524717
 20
1.9910473449
 10
18.3294561909
 20
1.9784198752
 10
18.302380505
 20
1.9683068635
  0
LINE
  5
333
330
1F
100
AcDbEntity
  8
0
  6
Continuous
 62
     7
370
    25
100
AcDbLine
 10
18.0905946654
 20
1.9306802457
 30
0.0
 11
18.1252505269
 21
1.9683068635
 31
0.0
  0
ARC
  5
334
330
1F
100
AcDbEntity
  8
0
  6
Continuous
 62
     7
370
    25
100
AcDbCircle
 10
18.213815475
 20
2.3468576251
 30
0.0
 40
0.4340356886451187
100
AcDbArc
 50
253.5071571524
 51
286.4928660461
  0
LINE
  5
335
330
1F
100
AcDbEntity
  8
0
  6
Continuous
 62
     7
370
    25
100
AcDbLine
 10
18.302380505
 20
1.9683068635
 30
0.0
 11
18.337036453
 21
1.9306802956
 31
0.0
  0
LINE
  5
336
330
1F
100
AcDbEntity
  8
0
  6
Continuous
 62
     7
370
    25
100
AcDbLine
 10
17.7962327892
 20
2.1662555901
 30
0.0
 11
16.858991554
 21
2.7073134384
 31
0.0
  0
ARC
  5
337
330
1F
100
AcDbEntity
  8
0
  6
Continuous
 62
     7
370
    25
100
AcDbCircle
 10
16.8742402227
 20
2.7474910053
 30
0.0
 40
0.0429739313374544
100
AcDbArc
 50
110.7834134148
 51
249.2166482076
  0
LINE
  5
338
330
1F
100
AcDbEntity
  8
0
  6
Continuous
 62
     7
370
    25
100
AcDbLine
 10
16.8589915108
 20
2.7876685557
 30
0.0
 11
16.9796264939
 21
2.8573096491
 31
0.0
  0
LWPOLYLINE
  5
339
330
1F
100
AcDbEntity
  8
0
  6
Continuous
 62
     7
370
    25
100
AcDbPolyline
 90
       11
 70
   128
 43
0.0
 10
16.9796265803
 20
3.0394479816
 10
17.0023623541
 20
3.0240803967
 10
17.0206540328
 20
3.0068488081
 10
17.034051006
 20
2.9881774891
 10
17.0422234828
 20
2.9685262354
 10
17.0449701838
 20
2.9483788403
 10
17.0422234828
 20
2.9282314453
 10
17.034051006
 20
2.9085801417
 10
17.0206540328
 20
2.8899088226
 10
17.0023623973
 20
2.872677259
 10
16.9796264939
 20
2.8573096491
  0
LINE
  5
33A
330
1F
100
AcDbEntity
  8
0
  6
Continuous
 62
     7
370
    25
100
AcDbLine
 10
16.9796265803
 20
3.0394479816
 30
0.0
 11
16.858991554
 21
3.1090891
 31
0.0
  0
ARC
  5
33B
330
1F
100
AcDbEntity
  8
0
  6
Continuous
 62
     7
370
    25
100
AcDbCircle
 10
16.8742401951
 20
3.1492666461
 30
0.0
 40
0.042973902229257
100
AcDbArc
 50
110.7833272141
 51
249.2166727859
  0
LINE
  5
33C
330
1F
100
AcDbEntity
  8
0
  6
Continuous
 62
     7
370
    25
100
AcDbLine
 10
16.858991554
 20
3.1894441923
 30
0.0
 11
18.4922040582
 21
4.1322777022
 31
0.0
  0
ARC
  5
33D
330
1F
100
AcDbEntity
  8
0
  6
Continuous
 62
     7
370
    25
100
AcDbCircle
 10
18.5618011505
 20
3.9979561073
 30
0.0
 40
0.1512813475835812
100
AcDbArc
 50
62.6096198147
 51
117.3903801853
  0
LINE
  5
33E
330
1F
100
AcDbEntity
  8
0
  6
Continuous
 62
     7
370
    25
100
AcDbLine
 10
18.6313982428
 20
4.1322777022
 30
0.0
 11
18.7520332691
 21
4.0626365839
 31
0.0
  0
ARC
  5
33F
330
1F
100
AcDbEntity
  8
0
  6
Continuous
 62
     7
370
    25
100
AcDbCircle
 10
18.9097867373
 20
4.3642764888
 30
0.0
 40
0.3404009238203526
100
AcDbArc
 50
242.3910595664
 51
297.6089585539
  0
LINE
  5
340
330
1F
100
AcDbEntity
  8
0
  6
Continuous
 62
     7
370
    25
100
AcDbLine
 10
19.0675403008
 20
4.0626366338
 30
0.0
 11
19.1881752839
 21
4.1322777271
 31
0.0
  0
ARC
  5
341
330
1F
100
AcDbEntity
  8
0
  6
Continuous
 62
     7
370
    25
100
AcDbCircle
 10
19.2577723738
 20
3.9979559141
 30
0.0
 40
0.1512815401269238
100
AcDbArc
 50
62.6096381147
 51
117.3903413489
  0
LINE
  5
342
330
1F
100
AcDbEntity
  8
0
  6
Continuous
 62
     7
370
    25
100
AcDbLine
 10
19.3273695118
 20
4.1322777022
 30
0.0
 11
20.2646107469
 21
3.5912198539
 31
0.0
  0
ARC
  5
343
330
1F
100
AcDbEntity
  8
0
  6
Continuous
 62
     7
370
    25
100
AcDbCircle
 10
20.2493620783
 20
3.551042287
 30
0.0
 40
0.0429739313374535
100
AcDbArc
 50
290.7834134148
 51
69.2166482076
  0
LINE
  5
344
330
1F
100
AcDbEntity
  8
0
  6
Continuous
 62
     7
370
    25
100
AcDbLine
 10
20.2646107902
 20
3.5108647366
 30
0.0
 11
20.1439758071
 21
3.4412236432
 31
0.0
  0
LWPOLYLINE
  5
345
330
1F
100
AcDbEntity
  8
0
  6
Continuous
 62
     7
370
    25
100
AcDbPolyline
 90
       11
 70
   128
 43
0.0
 10
20.1439757206
 20
3.2590853107
 10
20.1212399468
 20
3.2744528956
 10
20.1029482682
 20
3.2916844842
 10
20.089551295
 20
3.3103558032
 10
20.0813788182
 20
3.3300070569
 10
20.0786321172
 20
3.350154452
 10
20.0813788182
 20
3.370301847
 10
20.089551295
 20
3.3899531506
 10
20.1029482682
 20
3.4086244697
 10
20.1212399036
 20
3.4258560333
 10
20.1439758071
 20
3.4412236432
  0
LINE
  5
346
330
1F
100
AcDbEntity
  8
0
  6
Continuous
 62
     7
370
    25
100
AcDbLine
 10
20.1439757206
 20
3.2590853107
 30
0.0
 11
20.2646107469
 21
3.1894441923
 31
0.0
  0
ARC
  5
347
330
1F
100
AcDbEntity
  8
0
  6
Continuous
 62
     7
370
    25
100
AcDbCircle
 10
20.2493621059
 20
3.1492666461
 30
0.0
 40
0.0429739022292579
100
AcDbArc
 50
290.7833272141
 51
69.2166727859
  0
LINE
  5
348
330
1F
100
AcDbEntity
  8
0
  6
Continuous
 62
     7
370
    25
100
AcDbLine
 10
20.2646107469
 20
3.1090891
 30
0.0
 11
18.6313982428
 21
2.1662555901
 31
0.0
  0
ARC
  5
349
330
1F
100
AcDbEntity
  8
0
  6
Continuous
 62
     7
370
    25
100
AcDbCircle
 10
18.5618011505
 20
2.300577185
 30
0.0
 40
0.151281347583588
100
AcDbArc
 50
242.6096198147
 51
297.3903801853
  0
LINE
  5
34A
330
1F
100
AcDbEntity
  8
0
  6
Continuous
 62
     7
370
    25
100
AcDbLine
 10
18.4922040582
 20
2.1662555901
 30
0.0
 11
18.3715690319
 21
2.2358967084
 31
0.0
  0
ARC
  5
34B
330
1F
100
AcDbEntity
  8
0
  6
Continuous
 62
     7
370
    25
100
AcDbCircle
 10
18.2138155637
 20
1.9342568035
 30
0.0
 40
0.3404009238203465
100
AcDbArc
 50
62.3910595664
 51
117.6089585539
  0
LINE
  5
34C
330
1F
100
AcDbEntity
  8
0
  6
Continuous
 62
     7
370
    25
100
AcDbLine
 10
18.0560620001
 20
2.2358966585
 30
0.0
 11
17.935427017
 21
2.1662555651
 31
0.0
  0
ARC
  5
34D
330
1F
100
AcDbEntity
  8
0
  6
Continuous
 62
     7
370
    25
100
AcDbCircle
 10
17.8658299272
 20
2.3005773782
 30
0.0
 40
0.151281540126915
100
AcDbArc
 50
242.6096381147
 51
297.3903413489
  0
ARC
  5
34E
330
1F
100
AcDbEntity
  8
0
  6
Continuous
 62
     7
370
    25
100
AcDbCircle
 10
16.8959796008
 20
2.7474909846
 30
0.0
 40
0.0257843812110112
100
AcDbArc
 50
110.7834356936
 51
249.2165643064
  0
LINE
  5
34F
330
1F
100
AcDbEntity
  8
0
  6
Continuous
 62
     7
370
    25
100
AcDbLine
 10
16.8868303564
 20
2.7233844369
 30
0.0
 11
17.8240715915
 21
2.1823265886
 31
0.0
  0
ARC
  5
350
330
1F
100
AcDbEntity
  8
0
  6
Continuous
 62
     7
370
    25
100
AcDbCircle
 10
17.8658298815
 20
2.2629197965
 30
0.0
 40
0.0907690472088087
100
AcDbArc
 50
242.6096732947
 51
297.3903267053
  0
LINE
  5
351
330
1F
100
AcDbEntity
  8
0
  6
Continuous
 62
     7
370
    25
100
AcDbLine
 10
17.9075881715
 20
2.1823265886
 30
0.0
 11
18.0282231546
 21
2.251967682
 31
0.0
  0
ARC
  5
352
330
1F
100
AcDbEntity
  8
0
  6
Continuous
 62
     7
370
    25
100
AcDbCircle
 10
18.2138155182
 20
1.8970975833
 30
0.0
 40
0.4004713627635799
100
AcDbArc
 50
62.3910361178
 51
117.6089715834
  0
LINE
  5
353
330
1F
100
AcDbEntity
  8
0
  6
Continuous
 62
     7
370
    25
100
AcDbLine
 10
18.3994078342
 20
2.2519677069
 30
0.0
 11
18.5200428605
 21
2.1823265886
 31
0.0
  0
ARC
  5
354
330
1F
100
AcDbEntity
  8
0
  6
Continuous
 62
     7
370
    25
100
AcDbCircle
 10
18.5618011505
 20
2.2629196967
 30
0.0
 40
0.0907689586282651
100
AcDbArc
 50
242.6096443234
 51
297.3903556766
  0
LINE
  5
355
330
1F
100
AcDbEntity
  8
0
  6
Continuous
 62
     7
370
    25
100
AcDbLine
 10
18.6035594405
 20
2.1823265886
 30
0.0
 11
20.2367719446
 21
3.1251600985
 31
0.0
  0
ARC
  5
356
330
1F
100
AcDbEntity
  8
0
  6
Continuous
 62
     7
370
    25
100
AcDbCircle
 10
20.2276227257
 20
3.1492666461
 30
0.0
 40
0.0257843721287685
100
AcDbArc
 50
290.7833825183
 51
69.2166174817
  0
LINE
  5
357
330
1F
100
AcDbEntity
  8
0
  6
Continuous
 62
     7
370
    25
100
AcDbLine
 10
20.2367719446
 20
3.1733731938
 30
0.0
 11
20.1161369183
 21
3.2430143122
 31
0.0
  0
LWPOLYLINE
  5
358
330
1F
100
AcDbEntity
  8
0
  6
Continuous
 62
     7
370
    25
100
AcDbPolyline
 90
       11
 70
   128
 43
0.0
 10
20.1161369183
 20
3.2430143122
 10
20.0893888195
 20
3.2610937988
 10
20.0678692356
 20
3.2813662458
 10
20.0521081568
 20
3.3033325181
 10
20.0424934934
 20
3.3264516724
 10
20.0392620449
 20
3.350154452
 10
20.0424934502
 20
3.3738572565
 10
20.0521080704
 20
3.3969764357
 10
20.067869322
 20
3.4189427081
 10
20.0893888195
 20
3.439215155
 10
20.1161369615
 20
3.4572946666
  0
LINE
  5
359
330
1F
100
AcDbEntity
  8
0
  6
Continuous
 62
     7
370
    25
100
AcDbLine
 10
20.1161369615
 20
3.4572946666
 30
0.0
 11
20.2367719446
 21
3.52693576
 31
0.0
  0
ARC
  5
35A
330
1F
100
AcDbEntity
  8
0
  6
Continuous
 62
     7
370
    25
100
AcDbCircle
 10
20.2276227001
 20
3.5510423077
 30
0.0
 40
0.0257843812110117
100
AcDbArc
 50
290.7834356936
 51
69.2165643064
  0
LINE
  5
35B
330
1F
100
AcDbEntity
  8
0
  6
Continuous
 62
     7
370
    25
100
AcDbLine
 10
20.2367719446
 20
3.5751488554
 30
0.0
 11
19.2995307094
 21
4.1162067037
 31
0.0
  0
ARC
  5
35C
330
1F
100
AcDbEntity
  8
0
  6
Continuous
 62
     7
370
    25
100
AcDbCircle
 10
19.2577724195
 20
4.0356134958
 30
0.0
 40
0.0907690472088083
100
AcDbArc
 50
62.6096732947
 51
117.3903267053
  0
LINE
  5
35D
330
1F
100
AcDbEntity
  8
0
  6
Continuous
 62
     7
370
    25
100
AcDbLine
 10
19.2160141295
 20
4.1162067037
 30
0.0
 11
19.0953791464
 21
4.0465656103
 31
0.0
  0
ARC
  5
35E
330
1F
100
AcDbEntity
  8
0
  6
Continuous
 62
     7
370
    25
100
AcDbCircle
 10
18.9097867827
 20
4.401435709
 30
0.0
 40
0.4004713627635666
100
AcDbArc
 50
242.3910361178
 51
297.6089715834
  0
LINE
  5
35F
330
1F
100
AcDbEntity
  8
0
  6
Continuous
 62
     7
370
    25
100
AcDbLine
 10
18.7241944667
 20
4.0465655854
 30
0.0
 11
18.6035594405
 21
4.1162067037
 31
0.0
  0
ARC
  5
360
330
1F
100
AcDbEntity
  8
0
  6
Continuous
 62
     7
370
    25
100
AcDbCircle
 10
18.5618011505
 20
4.0356135956
 30
0.0
 40
0.0907689586282698
100
AcDbArc
 50
62.6096443234
 51
117.3903556766
  0
LINE
  5
361
330
1F
100
AcDbEntity
  8
0
  6
Continuous
 62
     7
370
    25
100
AcDbLine
 10
18.5200428605
 20
4.1162067037
 30
0.0
 11
16.8868303564
 21
3.1733731938
 31
0.0
  0
ARC
  5
362
330
1F
100
AcDbEntity
  8
0
  6
Continuous
 62
     7
370
    25
100
AcDbCircle
 10
16.8959795752
 20
3.1492666461
 30
0.0
 40
0.0257843721287681
100
AcDbArc
 50
110.7833825183
 51
249.2166174817
  0
LINE
  5
363
330
1F
100
AcDbEntity
  8
0
  6
Continuous
 62
     7
370
    25
100
AcDbLine
 10
16.8868303564
 20
3.1251600985
 30
0.0
 11
17.0074653827
 21
3.0555189801
 31
0.0
  0
LWPOLYLINE
  5
364
330
1F
100
AcDbEntity
  8
0
  6
Continuous
 62
     7
370
    25
100
AcDbPolyline
 90
       11
 70
   128
 43
0.0
 10
17.0074653827
 20
3.0555189801
 10
17.0342134815
 20
3.0374394935
 10
17.0557330653
 20
3.0171670465
 10
17.0714941441
 20
2.9952007742
 10
17.0811088075
 20
2.9720816199
 10
17.0843402561
 20
2.9483788403
 10
17.0811088508
 20
2.9246760358
 10
17.0714942306
 20
2.9015568566
 10
17.0557329789
 20
2.8795905842
 10
17.0342134815
 20
2.8593181373
 10
17.0074653395
 20
2.8412386257
  0
LINE
  5
365
330
1F
100
AcDbEntity
  8
0
  6
Continuous
 62
     7
370
    25
100
AcDbLine
 10
17.0074653395
 20
2.8412386257
 30
0.0
 11
16.8868303564
 21
2.7715975323
 31
0.0
  0
LWPOLYLINE
  5
366
330
1F
100
AcDbEntity
  8
0
  6
Continuous
 62
     7
370
    25
100
AcDbPolyline
 90
       16
 70
   128
 43
0.0
 10
18.3891519542
 20
2.0242795711
 10
18.3829972421
 20
2.0322764048
 10
18.366310312
 20
2.04820701
 10
18.3451669714
 20
2.0622641571
 10
18.3201851892
 20
2.0740370184
 10
18.2920949818
 20
2.0831814955
 10
18.2617173694
 20
2.0894304718
 10
18.2299398746
 20
2.0926012713
 10
18.1976912006
 20
2.0926012962
 10
18.1659136626
 20
2.0894304718
 10
18.1355360069
 20
2.0831814705
 10
18.1074458428
 20
2.0740369685
 10
18.0824641038
 20
2.0622641321
 10
18.0613208496
 20
2.048207035
 10
18.0446337899
 20
2.0322764048
 10
18.0384792075
 20
2.0242795961
  0
LWPOLYLINE
  5
367
330
1F
100
AcDbEntity
  8
0
  6
Continuous
 62
     7
370
    25
100
AcDbPolyline
 90
       13
 70
   128
 43
0.0
 10
18.1135144774
 20
2.0419980463
 10
18.1350094738
 20
2.0521817037
 10
18.1595329972
 20
2.0597488259
 10
18.1861425165
 20
2.0644086482
 10
18.2138155592
 20
2.0659821115
 10
18.2414885587
 20
2.0644086731
 10
18.268098078
 20
2.0597488509
 10
18.292621515
 20
2.0521816787
 10
18.3141165978
 20
2.0419980713
 10
18.3317570348
 20
2.0295892241
 10
18.3448651817
 20
2.0154321452
 10
18.3529371052
 20
2.0000707967
 10
18.3549645062
 20
1.9922100159
  0
ARC
  5
368
330
1F
100
AcDbEntity
  8
0
  6
Continuous
 62
     7
370
    25
100
AcDbCircle
 10
18.145253894
 20
1.9743073523
 30
0.0
 40
0.0747624279553834
100
AcDbArc
 50
115.121360377
 51
166.1452477666
  0
LINE
  5
369
330
1F
100
AcDbEntity
  8
0
  6
Continuous
 62
     7
370
    25
100
AcDbLine
 10
18.1252505269
 20
1.9218312537
 30
0.0
 11
18.1252505269
 21
1.9683068635
 31
0.0
  0
LINE
  5
36A
330
1F
100
AcDbEntity
  8
0
  6
Continuous
 62
     7
370
    25
100
AcDbLine
 10
18.302380505
 20
1.9218312537
 30
0.0
 11
18.302380505
 21
1.9683068635
 31
0.0
  0
ARC
  5
36B
330
1F
100
AcDbEntity
  8
0
  6
Continuous
 62
     7
370
    25
100
AcDbCircle
 10
18.2138155113
 20
0.9308389259
 30
0.0
 40
0.3323123209739574
100
AcDbArc
 50
242.4805282404
 51
297.5194903766
  0
LINE
  5
36C
330
1F
100
AcDbEntity
  8
0
  6
Continuous
 62
     7
370
    25
100
AcDbLine
 10
20.5782347908
 20
3.0697291181
 30
0.0
 11
18.397524976
 21
1.8108321384
 31
0.0
  0
LINE
  5
36D
330
1F
100
AcDbEntity
  8
0
  6
Continuous
 62
     7
370
    25
100
AcDbLine
 10
20.5801176923
 20
3.189435485
 30
0.0
 11
20.5782347908
 21
3.0697291181
 31
0.0
  0
LINE
  5
36E
330
1F
100
AcDbEntity
  8
0
  6
Continuous
 62
     7
370
    25
100
AcDbLine
 10
18.0301061424
 20
1.8108320885
 30
0.0
 11
16.5453674238
 21
2.6679535064
 31
0.0
  0
LINE
  5
36F
330
1F
100
AcDbEntity
  8
0
  6
Continuous
 62
     7
370
    25
100
AcDbLine
 10
16.5453674238
 20
2.6679535064
 30
0.0
 11
16.5434845223
 21
2.7876598733
 31
0.0
  0
LINE
  5
370
330
1F
100
AcDbEntity
  8
0
  6
Continuous
 62
     7
370
    25
100
AcDbLine
 10
18.0602705921
 20
0.6361264619
 30
0.0
 11
16.5755318735
 21
1.4932478798
 31
0.0
  0
LINE
  5
371
330
1F
100
AcDbEntity
  8
0
  6
Continuous
 62
     7
370
    25
100
AcDbLine
 10
20.5480703411
 20
1.8950234915
 30
0.0
 11
18.3673605263
 21
0.6361265118
 31
0.0
  0
LINE
  5
372
330
1F
100
AcDbEntity
  8
0
  6
Continuous
 62
     7
370
    25
100
AcDbLine
 10
18.6313982428
 20
2.1126767879
 30
0.0
 11
18.6313982428
 21
2.1662555901
 31
0.0
  0
LINE
  5
373
330
1F
100
AcDbEntity
  8
0
  6
Continuous
 62
     7
370
    25
100
AcDbLine
 10
18.4922040582
 20
2.1126767879
 30
0.0
 11
18.4922040582
 21
2.1662555901
 31
0.0
  0
LINE
  5
374
330
1F
100
AcDbEntity
  8
0
  6
Continuous
 62
     7
370
    25
100
AcDbLine
 10
17.935427017
 20
2.1126767629
 30
0.0
 11
17.935427017
 21
2.1662555651
 31
0.0
  0
LINE
  5
375
330
1F
100
AcDbEntity
  8
0
  6
Continuous
 62
     7
370
    25
100
AcDbLine
 10
17.7962327892
 20
2.1126767879
 30
0.0
 11
17.7962327892
 21
2.1662555901
 31
0.0
  0
LINE
  5
376
330
1F
100
AcDbEntity
  8
0
  6
Continuous
 62
     7
370
    25
100
AcDbLine
 10
18.0560620001
 20
2.1823178563
 30
0.0
 11
18.0560620001
 21
2.2358966585
 31
0.0
  0
LINE
  5
377
330
1F
100
AcDbEntity
  8
0
  6
Continuous
 62
     7
370
    25
100
AcDbLine
 10
18.3715690319
 20
2.2358967084
 30
0.0
 11
18.3715690319
 21
2.1823179062
 31
0.0
  0
LINE
  5
378
330
1F
100
AcDbEntity
  8
0
  6
Continuous
 62
     7
370
    25
100
AcDbLine
 10
20.2646107469
 20
3.0555102977
 30
0.0
 11
20.2646107469
 21
3.1090891
 31
0.0
  0
LINE
  5
379
330
1F
100
AcDbEntity
  8
0
  6
Continuous
 62
     7
370
    25
100
AcDbLine
 10
16.858991554
 20
2.7073134384
 30
0.0
 11
16.858991554
 21
2.6537346362
 31
0.0
  0
LINE
  5
37A
330
1F
100
AcDbEntity
  8
0
  6
Continuous
 62
     7
370
    25
100
AcDbLine
 10
18.5850001525
 20
2.789243558
 30
0.0
 11
17.678873379
 21
2.2661477061
 31
0.0
  0
LINE
  5
37B
330
1F
100
AcDbEntity
  8
0
  6
Continuous
 62
     7
370
    25
100
AcDbLine
 10
18.7072591564
 20
2.7186649373
 30
0.0
 11
18.5850001525
 21
2.789243558
 31
0.0
  0
ARC
  5
37C
330
1F
100
AcDbEntity
  8
0
  6
Continuous
 62
     7
370
    25
100
AcDbCircle
 10
18.9097867826
 20
3.1075750965
 30
0.0
 40
0.4384843797380068
100
AcDbArc
 50
242.4914449449
 51
297.5085621123
  0
LINE
  5
37D
330
1F
100
AcDbEntity
  8
0
  6
Continuous
 62
     7
370
    25
100
AcDbLine
 10
19.2345733311
 20
2.7892435081
 30
0.0
 11
19.1123144567
 21
2.7186649623
 31
0.0
  0
LINE
  5
37E
330
1F
100
AcDbEntity
  8
0
  6
Continuous
 62
     7
370
    25
100
AcDbLine
 10
19.4447288409
 20
2.6679233146
 30
0.0
 11
19.2345733311
 21
2.7892435081
 31
0.0
  0
ARC
  5
37F
330
1F
100
AcDbEntity
  8
0
  6
Continuous
 62
     7
370
    25
100
AcDbCircle
 10
16.700515567
 20
2.7825826295
 30
0.0
 40
0.1235488934798952
100
AcDbArc
 50
118.2273494151
 51
144.335716939
  0
LWPOLYLINE
  5
380
330
1F
100
AcDbEntity
  8
0
  6
Continuous
 62
     7
370
    25
100
AcDbPolyline
 90
       13
 70
   128
 43
0.0
 10
16.9508113691
 20
2.8546159167
 10
16.9464483821
 20
2.8604567594
 10
16.9300066344
 20
2.8768968019
 10
16.9088694731
 20
2.891438815
 10
16.883679195
 20
2.9036410634
 10
16.8552011205
 20
2.9131326823
 10
16.8243007775
 20
2.9196253513
 10
16.7919168082
 20
2.9229217515
 10
16.75903314
 20
2.9229217515
 10
16.7266491706
 20
2.9196253513
 10
16.6957487413
 20
2.9131326324
 10
16.6672707532
 20
2.9036410634
 10
16.6420804751
 20
2.891438815
  0
LINE
  5
381
330
1F
100
AcDbEntity
  8
0
  6
Continuous
 62
     7
370
    25
100
AcDbLine
 10
17.0843402561
 20
2.7608530326
 30
0.0
 11
17.0843204652
 21
2.7627149159
 31
0.0
  0
LINE
  5
382
330
1F
100
AcDbEntity
  8
0
  6
Continuous
 62
     7
370
    25
100
AcDbLine
 10
16.9796265803
 20
2.9858691794
 30
0.0
 11
16.9796265803
 21
3.0394479816
 31
0.0
  0
LWPOLYLINE
  5
383
330
1F
100
AcDbEntity
  8
0
  6
Continuous
 62
     7
370
    25
100
AcDbPolyline
 90
       13
 70
   128
 43
0.0
 10
16.6751738923
 20
2.8723343919
 10
16.6966688887
 20
2.8825180493
 10
16.7211924121
 20
2.8900851715
 10
16.7478019314
 20
2.8947449938
 10
16.7754749741
 20
2.8963184571
 10
16.8031480168
 20
2.8947449938
 10
16.8297575361
 20
2.8900851715
 10
16.8542809731
 20
2.8825179994
 10
16.8757760559
 20
2.8723343919
 10
16.8934164929
 20
2.8599255447
 10
16.9065246398
 20
2.8457684659
 10
16.9145965633
 20
2.8304071174
 10
16.916854887
 20
2.8210723559
  0
ARC
  5
384
330
1F
100
AcDbEntity
  8
0
  6
Continuous
 62
     7
370
    25
100
AcDbCircle
 10
16.7069129906
 20
2.804644031
 30
0.0
 40
0.0747619911514885
100
AcDbArc
 50
115.1212478683
 51
166.1454478725
  0
LINE
  5
385
330
1F
100
AcDbEntity
  8
0
  6
Continuous
 62
     7
370
    25
100
AcDbLine
 10
16.5119935635
 20
1.5788902241
 30
0.0
 11
16.5119355735
 21
1.5811194052
 31
0.0
  0
LINE
  5
386
330
1F
100
AcDbEntity
  8
0
  6
Continuous
 62
     7
370
    25
100
AcDbLine
 10
16.858991554
 20
3.0555102977
 30
0.0
 11
16.858991554
 21
3.1090891
 31
0.0
  0
LINE
  5
387
330
1F
100
AcDbEntity
  8
0
  6
Continuous
 62
     7
370
    25
100
AcDbLine
 10
18.5200428605
 20
4.1162067037
 30
0.0
 11
18.5200428605
 21
3.9286808959
 31
0.0
  0
LINE
  5
388
330
1F
100
AcDbEntity
  8
0
  6
Continuous
 62
     7
370
    25
100
AcDbLine
 10
18.5200428605
 20
3.9286808959
 30
0.0
 11
17.0074917417
 21
3.0555037212
 31
0.0
  0
LINE
  5
389
330
1F
100
AcDbEntity
  8
0
  6
Continuous
 62
     7
370
    25
100
AcDbLine
 10
17.0292318775
 20
3.0412689371
 30
0.0
 11
18.5806492647
 21
3.936883131
 31
0.0
  0
LINE
  5
38A
330
1F
100
AcDbEntity
  8
0
  6
Continuous
 62
     7
370
    25
100
AcDbLine
 10
18.5850001525
 20
2.794687155
 30
0.0
 11
18.5806492647
 21
3.936883131
 31
0.0
  0
ARC
  5
38B
330
1F
100
AcDbEntity
  8
0
  6
Continuous
 62
     7
370
    25
100
AcDbCircle
 10
20.2731678327
 20
3.1843582765
 30
0.0
 40
0.1235488226861005
100
AcDbArc
 50
118.2272984638
 51
144.3357277994
  0
LWPOLYLINE
  5
38C
330
1F
100
AcDbEntity
  8
0
  6
Continuous
 62
     7
370
    25
100
AcDbPolyline
 90
       13
 70
   128
 43
0.0
 10
20.523463765
 20
3.2563915533
 10
20.519100778
 20
3.262232396
 10
20.5026590304
 20
3.2786724385
 10
20.4815218259
 20
3.2932144765
 10
20.456331591
 20
3.3054167
 10
20.4278535165
 20
3.3149083189
 10
20.3969531303
 20
3.3214010129
 10
20.3645691609
 20
3.324697413
 10
20.331685536
 20
3.3246973881
 10
20.2993015666
 20
3.3214009879
 10
20.2684010941
 20
3.314908294
 10
20.2399231492
 20
3.3054167
 10
20.2147328711
 20
3.2932144516
  0
ARC
  5
38D
330
1F
100
AcDbEntity
  8
0
  6
Continuous
 62
     7
370
    25
100
AcDbCircle
 10
18.5619049235
 20
3.8473734649
 30
0.0
 40
0.0914512474309859
100
AcDbArc
 50
78.1725265809
 51
117.2421934531
  0
LINE
  5
38E
330
1F
100
AcDbEntity
  8
0
  6
Continuous
 62
     7
370
    25
100
AcDbLine
 10
20.0392819222
 20
3.1644905775
 30
0.0
 11
20.0392620449
 21
3.1626286442
 31
0.0
  0
LINE
  5
38F
330
1F
100
AcDbEntity
  8
0
  6
Continuous
 62
     7
370
    25
100
AcDbLine
 10
20.1439758071
 20
3.4412236432
 30
0.0
 11
20.1439758071
 21
3.387644841
 31
0.0
  0
LWPOLYLINE
  5
390
330
1F
100
AcDbEntity
  8
0
  6
Continuous
 62
     7
370
    25
100
AcDbPolyline
 90
       13
 70
   128
 43
0.0
 10
20.2478262882
 20
3.2741100285
 10
20.2693212847
 20
3.2842936859
 10
20.2938448081
 20
3.2918608081
 10
20.3204543274
 20
3.2965206304
 10
20.3481272837
 20
3.2980940438
 10
20.3758003696
 20
3.2965206553
 10
20.4024098889
 20
3.2918608331
 10
20.4269333258
 20
3.2842936609
 10
20.4484284087
 20
3.2741100534
 10
20.4660688456
 20
3.2617012062
 10
20.4791769926
 20
3.2475441274
 10
20.4872489161
 20
3.2321827789
 10
20.4892763171
 20
3.224321998
  0
ARC
  5
391
330
1F
100
AcDbEntity
  8
0
  6
Continuous
 62
     7
370
    25
100
AcDbCircle
 10
20.2791245793
 20
3.2069387971
 30
0.0
 40
0.0741050426394668
100
AcDbArc
 50
114.9830643528
 51
167.6029688293
  0
ARC
  5
392
330
1F
100
AcDbEntity
  8
0
  6
Continuous
 62
     7
370
    25
100
AcDbCircle
 10
20.5219444591
 20
3.1907042439
 30
0.0
 40
0.1334300659591778
100
AcDbArc
 50
294.9527946963
 51
352.7535251189
  0
LINE
  5
393
330
1F
100
AcDbEntity
  8
0
  6
Continuous
 62
     7
370
    25
100
AcDbLine
 10
20.6116667275
 20
1.9828950668
 30
0.0
 11
20.6115860082
 21
1.9801598409
 31
0.0
  0
LINE
  5
394
330
1F
100
AcDbEntity
  8
0
  6
Continuous
 62
     7
370
    25
100
AcDbLine
 10
20.2646107902
 20
3.4572859343
 30
0.0
 11
20.2646107902
 21
3.5108647366
 31
0.0
  0
LINE
  5
395
330
1F
100
AcDbEntity
  8
0
  6
Continuous
 62
     7
370
    25
100
AcDbLine
 10
19.2995307094
 20
4.1162067037
 30
0.0
 11
19.2995307094
 21
3.9286808959
 31
0.0
  0
LINE
  5
396
330
1F
100
AcDbEntity
  8
0
  6
Continuous
 62
     7
370
    25
100
AcDbLine
 10
20.1161105592
 20
3.4572793827
 30
0.0
 11
19.2995307094
 21
3.9286808959
 31
0.0
  0
LINE
  5
397
330
1F
100
AcDbEntity
  8
0
  6
Continuous
 62
     7
370
    25
100
AcDbLine
 10
19.2345733311
 20
2.7946871051
 30
0.0
 11
19.238924262
 21
3.936883156
 31
0.0
  0
LINE
  5
398
330
1F
100
AcDbEntity
  8
0
  6
Continuous
 62
     7
370
    25
100
AcDbLine
 10
19.238924262
 20
3.936883156
 30
0.0
 11
20.0943704451
 21
3.4430445862
 31
0.0
  0
ARC
  5
399
330
1F
100
AcDbEntity
  8
0
  6
Continuous
 62
     7
370
    25
100
AcDbCircle
 10
19.2576685745
 20
3.8473733038
 30
0.0
 40
0.0914514236467337
100
AcDbArc
 50
62.7578126429
 51
101.8274318641
  0
LINE
  5
39A
330
1F
100
AcDbEntity
  8
0
  6
Continuous
 62
     7
370
    25
100
AcDbLine
 10
18.5850001525
 20
2.789243558
 30
0.0
 11
18.5850001525
 21
2.794687155
 31
0.0
  0
LINE
  5
39B
330
1F
100
AcDbEntity
  8
0
  6
Continuous
 62
     7
370
    25
100
AcDbLine
 10
17.9665123434
 20
2.2745827942
 30
0.0
 11
17.9665838261
 21
2.2770838378
 31
0.0
  0
LWPOLYLINE
  5
39C
330
1F
100
AcDbEntity
  8
0
  6
Continuous
 62
     7
370
    25
100
AcDbPolyline
 90
        6
 70
   128
 43
0.0
 10
18.0565144254
 20
2.3120037059
 10
18.045786926
 20
2.3034799933
 10
18.0401471637
 20
2.2934597525
 10
18.0401471556
 20
2.2829238597
 10
18.045786926
 20
2.2729036267
 10
18.0548370814
 20
2.2653892938
  0
LWPOLYLINE
  5
39D
330
1F
100
AcDbEntity
  8
0
  6
Continuous
 62
     7
370
    25
100
AcDbPolyline
 90
        9
 70
   128
 43
0.0
 10
18.1555999762
 20
2.2925725527
 10
18.1553774879
 20
2.2934597447
 10
18.1497377175
 20
2.3034799777
 10
18.1390102397
 20
2.3120036935
 10
18.124245088
 20
2.3181965595
 10
18.1068876545
 20
2.3214523296
 10
18.0886369755
 20
2.321452325
 10
18.0712795285
 20
2.3181965595
 10
18.0565144254
 20
2.3120037059
  0
ARC
  5
39E
330
1F
100
AcDbEntity
  8
0
  6
Continuous
 62
     7
370
    25
100
AcDbCircle
 10
18.9097867827
 20
4.2139099012
 30
0.0
 40
0.4004713627635699
100
AcDbArc
 50
242.3910361178
 51
297.6089715834
  0
LINE
  5
39F
330
1F
100
AcDbEntity
  8
0
  6
Continuous
 62
     7
370
    25
100
AcDbLine
 10
18.7241944667
 20
4.0465655854
 30
0.0
 11
18.7241944667
 21
3.8590397776
 31
0.0
  0
LINE
  5
3A0
330
1F
100
AcDbEntity
  8
0
  6
Continuous
 62
     7
370
    25
100
AcDbLine
 10
19.0953791464
 20
3.8590398026
 30
0.0
 11
19.0953791464
 21
4.0465656103
 31
0.0
  0
LINE
  5
3A1
330
1F
100
AcDbEntity
  8
0
  6
Continuous
 62
     7
370
    25
100
AcDbLine
 10
18.7072591564
 20
2.7241085343
 30
0.0
 11
18.7241944667
 21
3.8590397776
 31
0.0
  0
LINE
  5
3A2
330
1F
100
AcDbEntity
  8
0
  6
Continuous
 62
     7
370
    25
100
AcDbLine
 10
19.1123144567
 20
2.7241085592
 30
0.0
 11
19.0953791464
 21
3.8590398026
 31
0.0
  0
ARC
  5
3A3
330
1F
100
AcDbEntity
  8
0
  6
Continuous
 62
     7
370
    25
100
AcDbCircle
 10
18.9097867826
 20
3.1130184762
 30
0.0
 40
0.4384841870714867
100
AcDbArc
 50
242.4914318346
 51
297.5085752225
  0
LINE
  5
3A4
330
1F
100
AcDbEntity
  8
0
  6
Continuous
 62
     7
370
    25
100
AcDbLine
 10
18.8452652386
 20
4.2292486268
 30
0.0
 11
18.8452652386
 21
4.282827429
 31
0.0
  0
ARC
  5
3A5
330
1F
100
AcDbEntity
  8
0
  6
Continuous
 62
     7
370
    25
100
AcDbCircle
 10
18.909786785
 20
3.9702818342
 30
0.0
 40
0.3191359878849225
100
AcDbArc
 50
78.3357821973
 51
101.6642178027
  0
LINE
  5
3A6
330
1F
100
AcDbEntity
  8
0
  6
Continuous
 62
     7
370
    25
100
AcDbLine
 10
18.9743083313
 20
4.282827429
 30
0.0
 11
18.9743083313
 21
4.2292486268
 31
0.0
  0
ARC
  5
3A7
330
1F
100
AcDbEntity
  8
0
  6
Continuous
 62
     7
370
    25
100
AcDbCircle
 10
18.8348285137
 20
4.0146931799
 30
0.0
 40
0.1235506921999218
100
AcDbArc
 50
118.2274994848
 51
144.3355267785
  0
LWPOLYLINE
  5
3A8
330
1F
100
AcDbEntity
  8
0
  6
Continuous
 62
     7
370
    25
100
AcDbPolyline
 90
       13
 70
   128
 43
0.0
 10
19.0851231799
 20
4.0867278989
 10
19.0807601929
 20
4.0925687416
 10
19.0643184453
 20
4.1090087841
 10
19.043181284
 20
4.1235507971
 10
19.0179910059
 20
4.1357530456
 10
18.9895129314
 20
4.1452446645
 10
18.9586125884
 20
4.1517373335
 10
18.926228619
 20
4.1550337337
 10
18.8933449509
 20
4.1550337337
 10
18.8609609815
 20
4.1517373335
 10
18.8300605522
 20
4.1452446146
 10
18.8015825641
 20
4.1357530456
 10
18.776392286
 20
4.1235507971
  0
LINE
  5
3A9
330
1F
100
AcDbEntity
  8
0
  6
Continuous
 62
     7
370
    25
100
AcDbLine
 10
19.2160141295
 20
4.1162067037
 30
0.0
 11
19.2160141295
 21
3.9286808959
 31
0.0
  0
LINE
  5
3AA
330
1F
100
AcDbEntity
  8
0
  6
Continuous
 62
     7
370
    25
100
AcDbLine
 10
19.2160141295
 20
3.9286808959
 30
0.0
 11
19.0953791464
 21
3.8590398026
 31
0.0
  0
LINE
  5
3AB
330
1F
100
AcDbEntity
  8
0
  6
Continuous
 62
     7
370
    25
100
AcDbLine
 10
18.6035594405
 20
4.1162067037
 30
0.0
 11
18.6035594405
 21
3.9286808959
 31
0.0
  0
LINE
  5
3AC
330
1F
100
AcDbEntity
  8
0
  6
Continuous
 62
     7
370
    25
100
AcDbLine
 10
18.7241944667
 20
3.8590397776
 30
0.0
 11
18.6035594405
 21
3.9286808959
 31
0.0
  0
LWPOLYLINE
  5
3AD
330
1F
100
AcDbEntity
  8
0
  6
Continuous
 62
     7
370
    25
100
AcDbPolyline
 90
        3
 70
   128
 43
0.0
 10
19.238924262
 20
3.936883156
 10
19.2266475924
 20
3.9335467931
 10
19.2160141295
 20
3.9286808959
  0
LWPOLYLINE
  5
3AE
330
1F
100
AcDbEntity
  8
0
  6
Continuous
 62
     7
370
    25
100
AcDbPolyline
 90
        3
 70
   128
 43
0.0
 10
18.6035594405
 20
3.9286808959
 10
18.5929259344
 20
3.9335467681
 10
18.5806492647
 20
3.936883131
  0
LWPOLYLINE
  5
3AF
330
1F
100
AcDbEntity
  8
0
  6
Continuous
 62
     7
370
    25
100
AcDbPolyline
 90
       13
 70
   128
 43
0.0
 10
18.8094857031
 20
4.1044463741
 10
18.8309806996
 20
4.1146300314
 10
18.855504223
 20
4.1221971537
 10
18.8821137422
 20
4.126856976
 10
18.9097866986
 20
4.1284303894
 10
18.9374598277
 20
4.126856976
 10
18.964069347
 20
4.1221971537
 10
18.9885927839
 20
4.1146299815
 10
19.0100878668
 20
4.1044463741
 10
19.0277283037
 20
4.0920375269
 10
19.0408364507
 20
4.0778804481
 10
19.0489083742
 20
4.0625190995
 10
19.0509356888
 20
4.0546583686
  0
ARC
  5
3B0
330
1F
100
AcDbEntity
  8
0
  6
Continuous
 62
     7
370
    25
100
AcDbCircle
 10
18.8412248015
 20
4.0367560132
 30
0.0
 40
0.0747619911514936
100
AcDbArc
 50
115.1212478683
 51
166.1454478725
  0
LINE
  5
3B1
330
1F
100
AcDbEntity
  8
0
  6
Continuous
 62
     7
370
    25
100
AcDbLine
 10
19.2177625565
 20
2.7849824515
 30
0.0
 11
19.2160141295
 21
3.9286808959
 31
0.0
  0
LINE
  5
3B2
330
1F
100
AcDbEntity
  8
0
  6
Continuous
 62
     7
370
    25
100
AcDbLine
 10
19.1123144567
 20
2.7241085592
 30
0.0
 11
19.2177625565
 21
2.7849824515
 31
0.0
  0
LINE
  5
3B3
330
1F
100
AcDbEntity
  8
0
  6
Continuous
 62
     7
370
    25
100
AcDbLine
 10
18.6035594405
 20
3.9286808959
 30
0.0
 11
18.6018110134
 21
2.7849824515
 31
0.0
  0
LINE
  5
3B4
330
1F
100
AcDbEntity
  8
0
  6
Continuous
 62
     7
370
    25
100
AcDbLine
 10
18.6018110134
 20
2.7849824515
 30
0.0
 11
18.7072591564
 21
2.7241085343
 31
0.0
  0
LINE
  5
3B5
330
1F
100
AcDbEntity
  8
0
  6
Continuous
 62
     7
370
    25
100
AcDbLine
 10
18.6018110134
 20
2.7849824515
 30
0.0
 11
18.5850001525
 21
2.794687155
 31
0.0
  0
LINE
  5
3B6
330
1F
100
AcDbEntity
  8
0
  6
Continuous
 62
     7
370
    25
100
AcDbLine
 10
19.2345733311
 20
2.7946871051
 30
0.0
 11
19.2177625565
 21
2.7849824515
 31
0.0
  0
LINE
  5
3B7
330
1F
100
AcDbEntity
  8
0
  6
Continuous
 62
     7
370
    25
100
AcDbLine
 10
19.2345733311
 20
2.7892435081
 30
0.0
 11
19.2345733311
 21
2.7946871051
 31
0.0
  0
ARC
  5
3B8
330
1F
100
AcDbEntity
  8
0
  6
Continuous
 62
     7
370
    25
100
AcDbCircle
 10
18.9097868626
 20
3.9154510293
 30
0.0
 40
0.4023826104981485
100
AcDbArc
 50
78.3356252434
 51
101.6644098941
  0
LINE
  5
3B9
330
1F
100
AcDbEntity
  8
0
  6
Continuous
 62
     7
370
    25
100
AcDbLine
 10
18.9911399338
 20
4.3095239198
 30
0.0
 11
18.9743083313
 21
4.282827429
 31
0.0
  0
LINE
  5
3BA
330
1F
100
AcDbEntity
  8
0
  6
Continuous
 62
     7
370
    25
100
AcDbLine
 10
18.8452652386
 20
4.282827429
 30
0.0
 11
18.8284335497
 21
4.3095238699
 31
0.0
  0
LINE
  5
3BB
330
1F
100
AcDbEntity
  8
0
  6
Continuous
 62
     7
370
    25
100
AcDbLine
 10
18.9911399338
 20
4.3095239198
 30
0.0
 11
18.9911399338
 21
4.2559451176
 31
0.0
  0
LINE
  5
3BC
330
1F
100
AcDbEntity
  8
0
  6
Continuous
 62
     7
370
    25
100
AcDbLine
 10
18.8284335497
 20
4.2559450677
 30
0.0
 11
18.8284335497
 21
4.3095238699
 31
0.0
  0
LINE
  5
3BD
330
1F
100
AcDbEntity
  8
0
  6
Continuous
 62
     7
370
    25
100
AcDbLine
 10
19.1123144567
 20
2.7186649623
 30
0.0
 11
19.1123144567
 21
2.7241085592
 31
0.0
  0
LINE
  5
3BE
330
1F
100
AcDbEntity
  8
0
  6
Continuous
 62
     7
370
    25
100
AcDbLine
 10
18.7072591564
 20
2.7186649373
 30
0.0
 11
18.7072591564
 21
2.7241085343
 31
0.0
  0
LWPOLYLINE
  5
3BF
330
1F
100
AcDbEntity
  8
0
  6
Continuous
 62
     8
370
    25
100
AcDbPolyline
 90
        7
 70
   128
 43
0.0
 10
16.5605834317
 20
5.2586706143
 10
16.5327276904
 20
5.2780001955
 10
16.5103757218
 20
5.3013182654
 10
16.4958262094
 20
5.3277751795
 10
16.4907682937
 20
5.3559716442
 10
16.4958262094
 20
5.3841681089
 10
16.5077887308
 20
5.4059209973
  0
LWPOLYLINE
  5
3C0
330
1F
100
AcDbEntity
  8
0
  6
Continuous
 62
     8
370
    25
100
AcDbPolyline
 90
        7
 70
   128
 43
0.0
 10
20.6158581645
 20
5.807605458
 10
20.6277760916
 20
5.7859336924
 10
20.6328340073
 20
5.7577372277
 10
20.6277760916
 20
5.729540763
 10
20.6132266656
 20
5.7030838988
 10
20.590874697
 20
5.679765829
 10
20.5630188693
 20
5.6604361978
  0
ARC
  5
3C1
330
1F
100
AcDbEntity
  8
0
  6
Continuous
 62
     8
370
    25
100
AcDbCircle
 10
16.6146065387
 20
5.7066945338
 30
0.0
 40
0.0919401884227144
100
AcDbArc
 50
179.0855762508
 51
248.3753674544
  0
LWPOLYLINE
  5
3C2
330
1F
100
AcDbEntity
  8
0
  6
Continuous
 62
     8
370
    25
100
AcDbPolyline
 90
        3
 70
   128
 43
0.0
 10
16.594584897
 20
5.8159712698
 10
16.6029994019
 20
5.8196884333
 10
16.6189169066
 20
5.8176484748
  0
LWPOLYLINE
  5
3C3
330
1F
100
AcDbEntity
  8
0
  6
Continuous
 62
     8
370
    25
100
AcDbPolyline
 90
        3
 70
   128
 43
0.0
 10
18.8045810157
 20
7.07940451
 10
18.7889636587
 20
7.0816191368
 10
18.7808386713
 20
7.0780495739
  0
ARC
  5
3C4
330
1F
100
AcDbEntity
  8
0
  6
Continuous
 62
     8
370
    25
100
AcDbCircle
 10
16.5976262042
 20
5.3523990702
 30
0.0
 40
0.1231239966765852
100
AcDbArc
 50
181.7313971197
 51
246.7377259234
  0
LWPOLYLINE
  5
3C5
330
1F
100
AcDbEntity
  8
0
  6
Continuous
 62
     8
370
    25
100
AcDbPolyline
 90
        3
 70
   128
 43
0.0
 10
20.5011281305
 20
6.2226193502
 10
20.5162390478
 20
6.2254350381
 10
20.5263837445
 20
6.2219720839
  0
ARC
  5
3C6
330
1F
100
AcDbEntity
  8
0
  6
Continuous
 62
     8
370
    25
100
AcDbCircle
 10
20.5067478481
 20
6.112581464
 30
0.0
 40
0.094299368104873
100
AcDbArc
 50
292.5873849608
 51
359.8921335385
  0
LWPOLYLINE
  5
3C7
330
1F
100
AcDbEntity
  8
0
  6
Continuous
 62
     8
370
    25
100
AcDbPolyline
 90
        3
 70
   128
 43
0.0
 10
19.0455331175
 20
7.0768969191
 10
19.03518524
 20
7.0804292023
 10
19.0200743227
 20
7.0776135144
  0
ARC
  5
3C8
330
1F
100
AcDbEntity
  8
0
  6
Continuous
 62
     8
370
    25
100
AcDbCircle
 10
20.5259773143
 20
5.7541638164
 30
0.0
 40
0.1231226664950265
100
AcDbArc
 50
293.2618796767
 51
358.2689972801
  0
ARC
  5
3C9
330
1F
100
AcDbEntity
  8
0
  6
Continuous
 62
     8
370
    25
100
AcDbCircle
 10
18.3898548007
 20
1.809994869
 30
0.0
 40
0.0077157376926518
100
AcDbArc
 50
302.7011372777
 51
6.2296899986
  0
ARC
  5
3CA
330
1F
100
AcDbEntity
  8
0
  6
Continuous
 62
     8
370
    25
100
AcDbCircle
 10
18.0377604443
 20
1.8099895801
 30
0.0
 40
0.0077005296380862
100
AcDbArc
 50
173.7187433169
 51
237.6097902941
  0
LINE
  5
3CB
330
1F
100
AcDbEntity
  8
0
  6
Continuous
 62
     8
370
    25
100
AcDbLine
 10
18.376090735
 20
1.7943105678
 30
0.0
 11
18.3673605263
 21
0.6361265118
 31
0.0
  0
LINE
  5
3CC
330
1F
100
AcDbEntity
  8
0
  6
Continuous
 62
     8
370
    25
100
AcDbLine
 10
18.0515403834
 20
1.7943120648
 30
0.0
 11
18.0602705921
 21
0.6361264619
 31
0.0
  0
ARC
  5
3CD
330
1F
100
AcDbEntity
  8
0
  6
Continuous
 62
     8
370
    25
100
AcDbCircle
 10
20.5701414656
 20
3.0690810782
 30
0.0
 40
0.0081192283267411
100
AcDbArc
 50
305.3466717034
 51
4.5779581066
  0
ARC
  5
3CE
330
1F
100
AcDbEntity
  8
0
  6
Continuous
 62
     8
370
    25
100
AcDbCircle
 10
16.5534613549
 20
2.6673057496
 30
0.0
 40
0.0081198097751561
100
AcDbArc
 50
175.424374104
 51
234.6509960859
  0
LINE
  5
3CF
330
1F
100
AcDbEntity
  8
0
  6
Continuous
 62
     8
370
    25
100
AcDbLine
 10
16.5668104799
 20
2.6502645946
 30
0.0
 11
16.5755318735
 21
1.4932478798
 31
0.0
  0
LINE
  5
3D0
330
1F
100
AcDbEntity
  8
0
  6
Continuous
 62
     8
370
    25
100
AcDbLine
 10
20.5567917347
 20
3.0520402062
 30
0.0
 11
20.5480703411
 21
1.8950234915
 31
0.0
  0
ARC
  5
3D1
330
1F
100
AcDbEntity
  8
0
  6
Continuous
 62
     8
370
    25
100
AcDbCircle
 10
18.3510773821
 20
0.6346595944
 30
0.0
 40
0.0163490865400321
100
AcDbArc
 50
305.2116107713
 51
5.147771284
  0
ARC
  5
3D2
330
1F
100
AcDbEntity
  8
0
  6
Continuous
 62
     8
370
    25
100
AcDbCircle
 10
18.0765606521
 20
0.6346608265
 30
0.0
 40
0.0163558595259101
100
AcDbArc
 50
174.8588753165
 51
234.7050348187
  0
ARC
  5
3D3
330
1F
100
AcDbEntity
  8
0
  6
Continuous
 62
     8
370
    25
100
AcDbCircle
 10
20.5317598455
 20
1.8935617259
 30
0.0
 40
0.0163758671433113
100
AcDbArc
 50
305.5245030254
 51
5.1212324203
  0
ARC
  5
3D4
330
1F
100
AcDbEntity
  8
0
  6
Continuous
 62
     8
370
    25
100
AcDbCircle
 10
16.591842369
 20
1.4917861143
 30
0.0
 40
0.0163758671433218
100
AcDbArc
 50
174.8787675797
 51
234.4754969746
  0
LINE
  5
3D5
330
1F
100
AcDbEntity
  8
0
  6
Continuous
 62
     8
370
    25
100
AcDbLine
 10
16.8868303564
 20
2.7715975323
 30
0.0
 11
16.8868303564
 21
2.7233844345
 31
0.0
  0
LINE
  5
3D6
330
1F
100
AcDbEntity
  8
0
  6
Continuous
 62
     8
370
    25
100
AcDbLine
 10
17.0074653395
 20
2.8412386257
 30
0.0
 11
17.0074653395
 21
2.6537433063
 31
0.0
  0
ARC
  5
3D7
330
1F
100
AcDbEntity
  8
0
  6
Continuous
 62
     8
370
    25
100
AcDbCircle
 10
16.9541022716
 20
2.7731513558
 30
0.0
 40
0.1308173587812334
100
AcDbArc
 50
294.0742636814
 51
354.6055773534
  0
ARC
  5
3D8
330
1F
100
AcDbEntity
  8
0
  6
Continuous
 62
     8
370
    25
100
AcDbCircle
 10
16.5986880132
 20
2.7867592376
 30
0.0
 40
0.1302224520337571
100
AcDbArc
 50
186.4644190646
 51
245.829225261
  0
ARC
  5
3D9
330
1F
100
AcDbEntity
  8
0
  6
Continuous
 62
     8
370
    25
100
AcDbCircle
 10
16.6186190527
 20
1.591605189
 30
0.0
 40
0.1073809353673551
100
AcDbArc
 50
186.8003417965
 51
246.3433174917
  0
LINE
  5
3DA
330
1F
100
AcDbEntity
  8
0
  6
Continuous
 62
     8
370
    25
100
AcDbLine
 10
16.8868303564
 20
3.1733731938
 30
0.0
 11
16.8868303564
 21
3.125160096
 31
0.0
  0
LINE
  5
3DB
330
1F
100
AcDbEntity
  8
0
  6
Continuous
 62
     8
370
    25
100
AcDbLine
 10
20.2367719446
 20
3.1733731938
 30
0.0
 11
20.2367719446
 21
3.125160096
 31
0.0
  0
LINE
  5
3DC
330
1F
100
AcDbEntity
  8
0
  6
Continuous
 62
     8
370
    25
100
AcDbLine
 10
20.1161369183
 20
3.0555189928
 30
0.0
 11
20.1161369183
 21
3.2430143122
 31
0.0
  0
LINE
  5
3DD
330
1F
100
AcDbEntity
  8
0
  6
Continuous
 62
     8
370
    25
100
AcDbLine
 10
18.5850001525
 20
2.794687155
 30
0.0
 11
17.6741585633
 21
2.2688694979
 31
0.0
  0
ARC
  5
3DE
330
1F
100
AcDbEntity
  8
0
  6
Continuous
 62
     8
370
    25
100
AcDbCircle
 10
20.1724900043
 20
3.1770723872
 30
0.0
 40
0.1340086223462073
100
AcDbArc
 50
186.1874843551
 51
245.132682013
  0
ARC
  5
3DF
330
1F
100
AcDbEntity
  8
0
  6
Continuous
 62
     8
370
    25
100
AcDbCircle
 10
20.5022003922
 20
1.995505594
 30
0.0
 40
0.1104568020927546
100
AcDbArc
 50
294.536635956
 51
352.0140707741
  0
LINE
  5
3E0
330
1F
100
AcDbEntity
  8
0
  6
Continuous
 62
     8
370
    25
100
AcDbLine
 10
20.2367719446
 20
3.5751488554
 30
0.0
 11
20.2367719446
 21
3.5269357576
 31
0.0
  0
LINE
  5
3E1
330
1F
100
AcDbEntity
  8
0
  6
Continuous
 62
     8
370
    25
100
AcDbLine
 10
19.4494436566
 20
2.6706451064
 30
0.0
 11
19.2345733311
 21
2.7946871051
 31
0.0
  0
LWPOLYLINE
  5
3E2
330
1F
100
AcDbEntity
  8
0
  6
Continuous
 62
     8
370
    25
100
AcDbPolyline
 90
        8
 70
   128
 43
0.0
 10
18.0167396767
 20
2.3349651796
 10
18.0007418605
 20
2.3233844097
 10
17.9896090068
 20
2.3100389613
 10
17.9838994848
 20
2.2955979666
 10
17.9838994794
 20
2.2807856159
 10
17.9896090203
 20
2.266344654
 10
18.0007418416
 20
2.2529991807
 10
18.0134156797
 20
2.2434194854
  0
LWPOLYLINE
  5
3E3
330
1F
100
AcDbEntity
  8
0
  6
Continuous
 62
     8
370
    25
100
AcDbPolyline
 90
       11
 70
   128
 43
0.0
 10
18.2114728919
 20
2.2963405697
 10
18.2059156232
 20
2.3100389504
 10
18.1947828019
 20
2.3233844237
 10
18.1787849939
 20
2.3349651703
 10
18.1587243356
 20
2.3442005332
 10
18.1356067929
 20
2.3506273741
 10
18.1105916028
 20
2.353923422
 10
18.0849330786
 20
2.3539234188
 10
18.0599178317
 20
2.3506273819
 10
18.0368003322
 20
2.3442005223
 10
18.0167396767
 20
2.3349651796
  0
ARC
  5
3E4
330
1F
100
AcDbEntity
  8
0
  6
Continuous
 62
     8
370
    25
100
AcDbCircle
 10
18.0235805297
 20
2.2774494435
 30
0.0
 40
0.0571401397122851
100
AcDbArc
 50
182.8756647302
 51
235.2643509021
  0
CIRCLE
  5
3E5
330
1F
100
AcDbEntity
  8
0
  6
Continuous
 62
     7
370
    25
100
AcDbCircle
 10
12.8656027332
 20
10.4015853571
 30
0.0
 40
0.083499999999999
  0
CIRCLE
  5
3E6
330
1F
100
AcDbEntity
  8
0
  6
Continuous
 62
     7
370
    25
100
AcDbCircle
 10
15.3065476151
 20
10.4015853571
 30
0.0
 40
0.0835000000000008
  0
CIRCLE
  5
3E7
330
1F
100
AcDbEntity
  8
0
  6
Continuous
 62
     7
370
    25
100
AcDbCircle
 10
12.8656027332
 20
6.779538113
 30
0.0
 40
0.083499999999999
  0
CIRCLE
  5
3E8
330
1F
100
AcDbEntity
  8
0
  6
Continuous
 62
     7
370
    25
100
AcDbCircle
 10
15.3065476151
 20
6.779538113
 30
0.0
 40
0.083499999999999
  0
CIRCLE
  5
3E9
330
1F
100
AcDbEntity
  8
0
  6
Continuous
 62
     7
370
    25
100
AcDbCircle
 10
12.8656027332
 20
10.4015853571
 30
0.0
 40
0.2362204724409445
  0
CIRCLE
  5
3EA
330
1F
100
AcDbEntity
  8
0
  6
Continuous
 62
     7
370
    25
100
AcDbCircle
 10
15.3065476151
 20
10.4015853571
 30
0.0
 40
0.2362204724409445
  0
CIRCLE
  5
3EB
330
1F
100
AcDbEntity
  8
0
  6
Continuous
 62
     7
370
    25
100
AcDbCircle
 10
12.8656027332
 20
6.779538113
 30
0.0
 40
0.2362204724409454
  0
CIRCLE
  5
3EC
330
1F
100
AcDbEntity
  8
0
  6
Continuous
 62
     7
370
    25
100
AcDbCircle
 10
15.3065476151
 20
6.779538113
 30
0.0
 40
0.2362204724409454
  0
CIRCLE
  5
3ED
330
1F
100
AcDbEntity
  8
0
  6
Continuous
 62
     7
370
    25
100
AcDbCircle
 10
14.0860751742
 20
7.0157585854
 30
0.0
 40
0.1968503937009185
  0
CIRCLE
  5
3EE
330
1F
100
AcDbEntity
  8
0
  6
Continuous
 62
     7
370
    25
100
AcDbCircle
 10
14.0860751742
 20
10.1653648847
 30
0.0
 40
0.1968503937009185
  0
CIRCLE
  5
3EF
330
1F
100
AcDbEntity
  8
0
  6
Continuous
 62
     7
370
    25
100
AcDbCircle
 10
14.8735751742
 20
8.5905617351
 30
0.0
 40
0.1574999999999989
  0
CIRCLE
  5
3F0
330
1F
100
AcDbEntity
  8
0
  6
Continuous
 62
     7
370
    25
100
AcDbCircle
 10
13.2985751742
 20
8.5905617351
 30
0.0
 40
0.1574999999999989
  0
CIRCLE
  5
3F1
330
1F
100
AcDbEntity
  8
0
  6
Continuous
 62
     7
370
    25
100
AcDbCircle
 10
14.0860751742
 20
8.5905617351
 30
0.0
 40
0.3249999999999993
  0
CIRCLE
  5
3F2
330
1F
100
AcDbEntity
  8
0
  6
Continuous
 62
     7
370
    25
100
AcDbCircle
 10
14.0860751742
 20
8.5905617351
 30
0.0
 40
0.125
  0
ARC
  5
3F3
330
1F
100
AcDbEntity
  8
0
  6
Continuous
 62
     7
370
    25
100
AcDbCircle
 10
15.3459176938
 20
10.4409554358
 30
0.0
 40
0.2755905511810983
100
AcDbArc
 50
359.9999999998
 51
90.0
  0
LINE
  5
3F4
330
1F
100
AcDbEntity
  8
0
  6
Continuous
 62
     7
370
    25
100
AcDbLine
 10
15.6215082767
 20
6.7401680976
 30
0.0
 11
15.6215082767
 21
10.4409553725
 31
0.0
  0
ARC
  5
3F5
330
1F
100
AcDbEntity
  8
0
  6
Continuous
 62
     7
370
    25
100
AcDbCircle
 10
15.3459176938
 20
6.7401680343
 30
0.0
 40
0.2755905511812111
100
AcDbArc
 50
270.0
 51
0.0000000002
  0
ARC
  5
3F6
330
1F
100
AcDbEntity
  8
0
  6
Continuous
 62
     7
370
    25
100
AcDbCircle
 10
12.8262326545
 20
10.4409554358
 30
0.0
 40
0.2755905511810468
100
AcDbArc
 50
90.0
 51
179.9999999998
  0
LINE
  5
3F7
330
1F
100
AcDbEntity
  8
0
  6
Continuous
 62
     7
370
    25
100
AcDbLine
 10
12.5506420716
 20
10.4409553725
 30
0.0
 11
12.5506420716
 21
6.7401680976
 31
0.0
  0
LINE
  5
3F8
330
1F
100
AcDbEntity
  8
0
  6
Continuous
 62
     7
370
    25
100
AcDbLine
 10
15.3459177537
 20
10.7165460422
 30
0.0
 11
12.8262325946
 21
10.7165460422
 31
0.0
  0
LINE
  5
3F9
330
1F
100
AcDbEntity
  8
0
  6
Continuous
 62
     7
370
    25
100
AcDbLine
 10
12.8262325946
 20
6.4645774279
 30
0.0
 11
15.3459177537
 21
6.4645774279
 31
0.0
  0
ARC
  5
3FA
330
1F
100
AcDbEntity
  8
0
  6
Continuous
 62
     7
370
    25
100
AcDbCircle
 10
12.8262326545
 20
6.7401680343
 30
0.0
 40
0.275590551181212
100
AcDbArc
 50
179.9999999999
 51
270.0
  0
ARC
  5
3FB
330
1F
100
AcDbEntity
  8
0
  6
Continuous
 62
     7
370
    25
100
AcDbCircle
 10
15.3459176938
 20
10.4409554358
 30
0.0
 40
0.3149606299212611
100
AcDbArc
 50
0.0
 51
90.0
  0
LINE
  5
3FC
330
1F
100
AcDbEntity
  8
0
  6
Continuous
 62
     7
370
    25
100
AcDbLine
 10
15.6608782886
 20
10.4409553725
 30
0.0
 11
15.6608782886
 21
6.7401680976
 31
0.0
  0
ARC
  5
3FD
330
1F
100
AcDbEntity
  8
0
  6
Continuous
 62
     7
370
    25
100
AcDbCircle
 10
15.3459176938
 20
6.7401680343
 30
0.0
 40
0.3149606299212655
100
AcDbArc
 50
270.0
 51
0.0
  0
LINE
  5
3FE
330
1F
100
AcDbEntity
  8
0
  6
Continuous
 62
     7
370
    25
100
AcDbLine
 10
12.8262325946
 20
10.755916054
 30
0.0
 11
15.3459177537
 21
10.755916054
 31
0.0
  0
LINE
  5
3FF
330
1F
100
AcDbEntity
  8
0
  6
Continuous
 62
     7
370
    25
100
AcDbLine
 10
15.3459177537
 20
6.4252074161
 30
0.0
 11
12.8262325946
 21
6.4252074161
 31
0.0
  0
ARC
  5
400
330
1F
100
AcDbEntity
  8
0
  6
Continuous
 62
     7
370
    25
100
AcDbCircle
 10
12.8262326545
 20
10.4409554358
 30
0.0
 40
0.3149606299212611
100
AcDbArc
 50
90.0
 51
180.0
  0
LINE
  5
401
330
1F
100
AcDbEntity
  8
0
  6
Continuous
 62
     7
370
    25
100
AcDbLine
 10
12.5112720597
 20
6.7401680976
 30
0.0
 11
12.5112720597
 21
10.4409553725
 31
0.0
  0
ARC
  5
402
330
1F
100
AcDbEntity
  8
0
  6
Continuous
 62
     7
370
    25
100
AcDbCircle
 10
12.8262326545
 20
6.7401680343
 30
0.0
 40
0.3149606299212611
100
AcDbArc
 50
180.0
 51
270.0
  0
LINE
  5
403
330
1F
100
AcDbEntity
  8
0
  6
CENTERX2
 62
     7
370
    18
100
AcDbLine
 10
12.5144673778
 20
8.5905617351
 30
0.0
 11
15.6576829705
 21
8.5905617351
 31
0.0
  0
LINE
  5
404
330
1F
100
AcDbEntity
  8
0
  6
CENTERX2
 62
     7
370
    18
100
AcDbLine
 10
14.0860751742
 20
10.7558619319
 30
0.0
 11
14.0860751742
 21
6.4284027576
 31
0.0
  0
DIMENSION
  5
405
330
1F
100
AcDbEntity
  8
0
  6
Continuous
 62
     7
370
    18
100
AcDbDimension
  2
_D_11
 10
15.3065476151
 20
5.1199614857
 30
0.0
 11
14.0860751742
 21
5.1199614857
 31
0.0
 70
   160
  1
<>
 71
     2
 42
-1.0
  3
SLDDIMSTYLE0
100
AcDbAlignedDimension
 13
12.8656027332
 23
6.779538113
 33
0.0
 14
15.3065476151
 24
6.779538113
 34
0.0
 50
0.0
100
AcDbRotatedDimension
  0
DIMENSION
  5
419
330
1F
100
AcDbEntity
  8
0
  6
Continuous
 62
     7
370
    18
100
AcDbDimension
  2
_D_12
 10
17.5593158299
 20
10.4015853571
 30
0.0
 11
17.5593158299
 21
8.5905617351
 31
0.0
 70
   160
  1
<>
 71
     2
 42
-1.0
  3
SLDDIMSTYLE0
100
AcDbAlignedDimension
 13
15.3065476151
 23
6.779538113
 33
0.0
 14
15.3065476151
 24
10.4015853571
 34
0.0
 50
90.0
100
AcDbRotatedDimension
  0
DIMENSION
  5
42D
330
1F
100
AcDbEntity
  8
0
  6
Continuous
 62
     7
370
    18
100
AcDbDimension
  2
_D_13
 10
14.0356267176
 20
9.9750886887
 30
0.0
 11
14.9432817548
 21
11.2544606876
 31
0.0
 70
   163
  1
<> 2X
 71
     1
 42
-1.0
  3
SLDDIMSTYLE1
100
AcDbDiametricDimension
 15
14.1365236307
 25
10.3556410806
 35
0.0
 40
0.0
  0
DIMENSION
  5
43E
330
1F
100
AcDbEntity
  8
0
  6
Continuous
 62
     7
370
    18
100
AcDbDimension
  2
_D_14
 10
13.257938099
 20
8.4383944648
 30
0.0
 11
14.7834068662
 21
12.021986342
 31
0.0
 70
   163
  1
<> 2X
 71
     1
 42
-1.0
  3
SLDDIMSTYLE1
100
AcDbDiametricDimension
 15
13.3392122493
 25
8.7427290053
 35
0.0
 40
0.0
  0
DIMENSION
  5
44F
330
1F
100
AcDbEntity
  8
0
  6
Continuous
 62
     7
370
    18
100
AcDbDimension
  2
_D_15
 10
17.0388320639
 20
7.0157585854
 30
0.0
 11
17.0388320639
 21
8.5905617351
 31
0.0
 70
   160
  1
<>
 71
     2
 42
-1.0
  3
SLDDIMSTYLE0
100
AcDbAlignedDimension
 13
14.0860751742
 23
10.1653648847
 33
0.0
 14
14.0860751742
 24
7.0157585854
 34
0.0
 50
90.0
100
AcDbRotatedDimension
  0
DIMENSION
  5
463
330
1F
100
AcDbEntity
  8
0
  6
Continuous
 62
     7
370
    18
100
AcDbDimension
  2
_D_16
 10
14.8735751742
 20
5.8024921933
 30
0.0
 11
14.0860751742
 21
5.8024921933
 31
0.0
 70
   160
  1
<>
 71
     2
 42
-1.0
  3
SLDDIMSTYLE0
100
AcDbAlignedDimension
 13
13.2985751742
 23
8.5905617351
 33
0.0
 14
14.8735751742
 24
8.5905617351
 34
0.0
 50
0.0
100
AcDbRotatedDimension
  0
DIMENSION
  5
477
330
1F
100
AcDbEntity
  8
0
  6
Continuous
 62
     7
370
    18
100
AcDbDimension
  2
_D_17
 10
12.9077917854
 20
6.8515959639
 30
0.0
 11
11.7639467022
 21
5.9674322208
 31
0.0
 70
   163
  1
<> 4X
 71
     1
 42
-1.0
  3
SLDDIMSTYLE4
100
AcDbDiametricDimension
 15
12.823413681
 25
6.7074802621
 35
0.0
 40
0.0
  0
DIMENSION
  5
489
330
1F
100
AcDbEntity
  8
0
  6
Continuous
 62
     7
370
    18
100
AcDbDimension
  2
_D_18
 10
13.8038468656
 20
8.4294028636
 30
0.0
 11
16.348826047
 21
9.6236829759
 31
0.0
 70
   163
  1
<>
 71
     1
 42
-1.0
  3
SLDDIMSTYLE5
100
AcDbDiametricDimension
 15
14.3683034827
 25
8.7517206065
 35
0.0
 40
0.0
  0
INSERT
  5
4A5
330
1F
100
AcDbEntity
  8
0
  6
Continuous
 62
     7
370
    18
100
AcDbBlockReference
  2
SW_CENTERMARKSYMBOL_4
 10
12.8656027332
 20
10.4015853571
 30
0.0
  0
INSERT
  5
4B1
330
1F
100
AcDbEntity
  8
0
  6
Continuous
 62
     7
370
    18
100
AcDbBlockReference
  2
SW_CENTERMARKSYMBOL_5
 10
15.3065476151
 20
10.4015853571
 30
0.0
  0
INSERT
  5
4BD
330
1F
100
AcDbEntity
  8
0
  6
Continuous
 62
     7
370
    18
100
AcDbBlockReference
  2
SW_CENTERMARKSYMBOL_6
 10
15.3065476151
 20
6.779538113
 30
0.0
  0
INSERT
  5
4C9
330
1F
100
AcDbEntity
  8
0
  6
Continuous
 62
     7
370
    18
100
AcDbBlockReference
  2
SW_CENTERMARKSYMBOL_7
 10
12.8656027332
 20
6.779538113
 30
0.0
  0
ARC
  5
4CA
330
1F
100
AcDbEntity
  8
0
  6
Continuous
 62
     7
370
    25
100
AcDbCircle
 10
10.84887396
 20
8.4677530997
 30
0.0
 40
0.0199999999999996
100
AcDbArc
 50
270.0
 51
0.0
  0
ARC
  5
4CB
330
1F
100
AcDbEntity
  8
0
  6
Continuous
 62
     7
370
    25
100
AcDbCircle
 10
10.84887396
 20
8.7427530997
 30
0.0
 40
0.0199999999999996
100
AcDbArc
 50
0.0
 51
90.0
  0
LINE
  5
4CC
330
1F
100
AcDbEntity
  8
0
  6
Continuous
 62
     7
370
    25
100
AcDbLine
 10
10.829503893
 20
8.4477531058
 30
0.0
 11
10.8488739359
 21
8.4477531058
 31
0.0
  0
LINE
  5
4CD
330
1F
100
AcDbEntity
  8
0
  6
Continuous
 62
     7
370
    25
100
AcDbLine
 10
10.8488739359
 20
8.7627530936
 30
0.0
 11
10.829503893
 21
8.7627530936
 31
0.0
  0
LINE
  5
4CE
330
1F
100
AcDbEntity
  8
0
  6
Continuous
 62
     7
370
    25
100
AcDbLine
 10
10.6451504227
 20
8.7627530936
 30
0.0
 11
10.4613935854
 21
8.7627530936
 31
0.0
  0
LINE
  5
4CF
330
1F
100
AcDbEntity
  8
0
  6
Continuous
 62
     7
370
    25
100
AcDbLine
 10
10.4613935854
 20
8.4477531058
 30
0.0
 11
10.6450574371
 21
8.4477531058
 31
0.0
  0
ARC
  5
4D0
330
1F
100
AcDbEntity
  8
0
  6
Continuous
 62
     7
370
    25
100
AcDbCircle
 10
10.4613936451
 20
8.4677530997
 30
0.0
 40
0.0200000000000014
100
AcDbArc
 50
180.0
 51
270.0
  0
ARC
  5
4D1
330
1F
100
AcDbEntity
  8
0
  6
Continuous
 62
     7
370
    25
100
AcDbCircle
 10
10.4613936451
 20
8.7427530997
 30
0.0
 40
0.0200000000000014
100
AcDbArc
 50
90.0
 51
180.0
  0
ARC
  5
4D2
330
1F
100
AcDbEntity
  8
0
  6
Continuous
 62
     7
370
    25
100
AcDbCircle
 10
10.8491889206
 20
10.6328121548
 30
0.0
 40
0.0196850393700796
100
AcDbArc
 50
0.0
 51
90.0
  0
ARC
  5
4D3
330
1F
100
AcDbEntity
  8
0
  6
Continuous
 62
     7
370
    25
100
AcDbCircle
 10
10.8491889206
 20
7.0107649107
 30
0.0
 40
0.0196850393700787
100
AcDbArc
 50
0.0
 51
90.0
  0
ARC
  5
4D4
330
1F
100
AcDbEntity
  8
0
  6
Continuous
 62
     7
370
    25
100
AcDbCircle
 10
10.8491889206
 20
6.5776940446
 30
0.0
 40
0.0196850393700796
100
AcDbArc
 50
270.0
 51
360.0
  0
LINE
  5
4D5
330
1F
100
AcDbEntity
  8
0
  6
Continuous
 62
     7
370
    25
100
AcDbLine
 10
10.8491889723
 20
10.6524972364
 30
0.0
 11
10.829503893
 21
10.6524972364
 31
0.0
  0
LINE
  5
4D6
330
1F
100
AcDbEntity
  8
0
  6
Continuous
 62
     7
370
    25
100
AcDbLine
 10
10.8491889723
 20
7.0304499853
 30
0.0
 11
10.829503893
 21
7.0304499853
 31
0.0
  0
LINE
  5
4D7
330
1F
100
AcDbEntity
  8
0
  6
Continuous
 62
     7
370
    25
100
AcDbLine
 10
10.829503893
 20
6.558008963
 30
0.0
 11
10.8491889723
 21
6.558008963
 31
0.0
  0
LINE
  5
4D8
330
1F
100
AcDbEntity
  8
0
  6
Continuous
 62
     7
370
    25
100
AcDbLine
 10
8.8609999267
 20
10.7705532993
 30
0.0
 11
8.8609999267
 21
10.7114996748
 31
0.0
  0
LINE
  5
4D9
330
1F
100
AcDbEntity
  8
0
  6
Continuous
 62
     7
370
    25
100
AcDbLine
 10
8.7625747503
 20
10.7114996748
 30
0.0
 11
8.8609999267
 21
10.7114996748
 31
0.0
  0
LINE
  5
4DA
330
1F
100
AcDbEntity
  8
0
  6
Continuous
 62
     7
370
    25
100
AcDbLine
 10
8.7625747503
 20
10.7114996748
 30
0.0
 11
8.7625747503
 21
10.6130769185
 31
0.0
  0
LINE
  5
4DB
330
1F
100
AcDbEntity
  8
0
  6
Continuous
 62
     7
370
    25
100
AcDbLine
 10
8.7625747503
 20
10.6130769185
 30
0.0
 11
8.9397400971
 21
10.6130769185
 31
0.0
  0
LINE
  5
4DC
330
1F
100
AcDbEntity
  8
0
  6
Continuous
 62
     7
370
    25
100
AcDbLine
 10
8.9397400971
 20
10.6130769185
 30
0.0
 11
8.9397400971
 21
10.5737077866
 31
0.0
  0
LINE
  5
4DD
330
1F
100
AcDbEntity
  8
0
  6
Continuous
 62
     7
370
    25
100
AcDbLine
 10
8.1777086101
 20
10.5618968564
 30
0.0
 11
8.1917086067
 21
10.5618968564
 31
0.0
  0
LINE
  5
4DE
330
1F
100
AcDbEntity
  8
0
  6
Continuous
 62
     7
370
    25
100
AcDbLine
 10
8.0735983695
 20
10.627631657
 30
0.0
 11
8.0735983695
 21
8.1396558683
 31
0.0
  0
LINE
  5
4DF
330
1F
100
AcDbEntity
  8
0
  6
Continuous
 62
     7
370
    25
100
AcDbLine
 10
8.1777086101
 20
10.5618968564
 30
0.0
 11
8.1777086101
 21
8.1396558683
 31
0.0
  0
ARC
  5
4E0
330
1F
100
AcDbEntity
  8
0
  6
Continuous
 62
     7
370
    25
100
AcDbCircle
 10
8.1523385269
 20
10.6276316706
 30
0.0
 40
0.0787401574803181
100
AcDbArc
 50
91.9999500406
 51
180.0
  0
LINE
  5
4E1
330
1F
100
AcDbEntity
  8
0
  6
Continuous
 62
     7
370
    25
100
AcDbLine
 10
8.149590602
 20
10.706323868
 30
0.0
 11
8.6641495374
 21
10.7242922337
 31
0.0
  0
LINE
  5
4E2
330
1F
100
AcDbEntity
  8
0
  6
Continuous
 62
     7
370
    25
100
AcDbLine
 10
8.6641495374
 20
10.7416290601
 30
0.0
 11
8.6641495374
 21
10.7242922337
 31
0.0
  0
ARC
  5
4E3
330
1F
100
AcDbEntity
  8
0
  6
Continuous
 62
     7
370
    25
100
AcDbCircle
 10
8.6838345899
 20
10.7416290625
 30
0.0
 40
0.0196850393700796
100
AcDbArc
 50
92.9766994681
 51
180.0
  0
LINE
  5
4E4
330
1F
100
AcDbEntity
  8
0
  6
Continuous
 62
     7
370
    25
100
AcDbLine
 10
8.6828123618
 20
10.761287593
 30
0.0
 11
8.8609999267
 21
10.7705532993
 31
0.0
  0
LINE
  5
4E5
330
1F
100
AcDbEntity
  8
0
  6
Continuous
 62
     7
370
    25
100
AcDbLine
 10
8.1917086067
 20
10.5618968564
 30
0.0
 11
8.8609999267
 21
10.5737077866
 31
0.0
  0
LINE
  5
4E6
330
1F
100
AcDbEntity
  8
0
  6
Continuous
 62
     7
370
    25
100
AcDbLine
 10
8.8609999267
 20
10.5737077866
 30
0.0
 11
8.9397400971
 21
10.5737077866
 31
0.0
  0
LINE
  5
4E7
330
1F
100
AcDbEntity
  8
0
  6
Continuous
 62
     7
370
    25
100
AcDbLine
 10
8.1917086067
 20
6.648609343
 30
0.0
 11
8.1777086101
 21
6.648609343
 31
0.0
  0
LINE
  5
4E8
330
1F
100
AcDbEntity
  8
0
  6
Continuous
 62
     7
370
    25
100
AcDbLine
 10
8.9397400971
 20
6.5974292809
 30
0.0
 11
8.7625747503
 21
6.5974292809
 31
0.0
  0
LINE
  5
4E9
330
1F
100
AcDbEntity
  8
0
  6
Continuous
 62
     7
370
    25
100
AcDbLine
 10
8.8609999267
 20
6.4990065246
 30
0.0
 11
8.7625747503
 21
6.4990065246
 31
0.0
  0
ARC
  5
4EA
330
1F
100
AcDbEntity
  8
0
  6
Continuous
 62
     7
370
    25
100
AcDbCircle
 10
8.1523385269
 20
6.5829105594
 30
0.0
 40
0.0787401576825548
100
AcDbArc
 50
180.0
 51
267.9942425104
  0
LINE
  5
4EB
330
1F
100
AcDbEntity
  8
0
  6
Continuous
 62
     7
370
    25
100
AcDbLine
 10
8.6641495374
 20
6.4862500453
 30
0.0
 11
8.1495826271
 21
6.5042187044
 31
0.0
  0
ARC
  5
4EC
330
1F
100
AcDbEntity
  8
0
  6
Continuous
 62
     7
370
    25
100
AcDbCircle
 10
8.6838345899
 20
6.4688771369
 30
0.0
 40
0.0196850393700796
100
AcDbArc
 50
180.0
 51
267.0233005319
  0
LINE
  5
4ED
330
1F
100
AcDbEntity
  8
0
  6
Continuous
 62
     7
370
    25
100
AcDbLine
 10
8.8609999267
 20
6.6367984128
 30
0.0
 11
8.1917086067
 21
6.648609343
 31
0.0
  0
LINE
  5
4EE
330
1F
100
AcDbEntity
  8
0
  6
Continuous
 62
     7
370
    25
100
AcDbLine
 10
8.8609999267
 20
6.4399529001
 30
0.0
 11
8.6828123618
 21
6.4492186064
 31
0.0
  0
LINE
  5
4EF
330
1F
100
AcDbEntity
  8
0
  6
Continuous
 62
     7
370
    25
100
AcDbLine
 10
8.9397400971
 20
6.6367984128
 30
0.0
 11
8.8609999267
 21
6.6367984128
 31
0.0
  0
LINE
  5
4F0
330
1F
100
AcDbEntity
  8
0
  6
Continuous
 62
     7
370
    25
100
AcDbLine
 10
8.7625747503
 20
6.5974292809
 30
0.0
 11
8.7625747503
 21
6.4990065246
 31
0.0
  0
LINE
  5
4F1
330
1F
100
AcDbEntity
  8
0
  6
Continuous
 62
     7
370
    25
100
AcDbLine
 10
8.8609999267
 20
6.4990065246
 30
0.0
 11
8.8609999267
 21
6.4399529001
 31
0.0
  0
LINE
  5
4F2
330
1F
100
AcDbEntity
  8
0
  6
Continuous
 62
     7
370
    25
100
AcDbLine
 10
8.9397400971
 20
6.6367984128
 30
0.0
 11
8.9397400971
 21
6.5974292809
 31
0.0
  0
LINE
  5
4F3
330
1F
100
AcDbEntity
  8
0
  6
Continuous
 62
     7
370
    25
100
AcDbLine
 10
8.0735983695
 20
8.1396558683
 30
0.0
 11
8.0735983695
 21
6.582910622
 31
0.0
  0
LINE
  5
4F4
330
1F
100
AcDbEntity
  8
0
  6
Continuous
 62
     7
370
    25
100
AcDbLine
 10
8.1777086101
 20
8.1396558683
 30
0.0
 11
8.1777086101
 21
6.648609343
 31
0.0
  0
LINE
  5
4F5
330
1F
100
AcDbEntity
  8
0
  6
Continuous
 62
     7
370
    25
100
AcDbLine
 10
8.6641495374
 20
6.4862500453
 30
0.0
 11
8.6641495374
 21
6.4688771393
 31
0.0
  0
LINE
  5
4F6
330
1F
100
AcDbEntity
  8
0
  6
Continuous
 62
     7
370
    25
100
AcDbLine
 10
8.8609999267
 20
10.5146541621
 30
0.0
 11
8.8609999267
 21
10.5737077866
 31
0.0
  0
LINE
  5
4F7
330
1F
100
AcDbEntity
  8
0
  6
Continuous
 62
     7
370
    25
100
AcDbLine
 10
8.9397400971
 20
10.5737077866
 30
0.0
 11
8.9397400971
 21
10.5146541621
 31
0.0
  0
LINE
  5
4F8
330
1F
100
AcDbEntity
  8
0
  6
Continuous
 62
     7
370
    25
100
AcDbLine
 10
8.1917086067
 20
10.5146541621
 30
0.0
 11
8.1917086067
 21
10.5618968564
 31
0.0
  0
LINE
  5
4F9
330
1F
100
AcDbEntity
  8
0
  6
Continuous
 62
     7
370
    25
100
AcDbLine
 10
8.8609999267
 20
6.6367984128
 30
0.0
 11
8.8609999267
 21
6.6958520373
 31
0.0
  0
LINE
  5
4FA
330
1F
100
AcDbEntity
  8
0
  6
Continuous
 62
     7
370
    25
100
AcDbLine
 10
8.9397400971
 20
6.6958520373
 30
0.0
 11
8.9397400971
 21
6.6367984128
 31
0.0
  0
LINE
  5
4FB
330
1F
100
AcDbEntity
  8
0
  6
Continuous
 62
     7
370
    25
100
AcDbLine
 10
8.1917086067
 20
6.648609343
 30
0.0
 11
8.1917086067
 21
6.6958520373
 31
0.0
  0
LINE
  5
4FC
330
1F
100
AcDbEntity
  8
0
  6
Continuous
 62
     7
370
    25
100
AcDbLine
 10
8.8609999267
 20
6.6958520373
 30
0.0
 11
8.8609999267
 21
6.8336437788
 31
0.0
  0
LINE
  5
4FD
330
1F
100
AcDbEntity
  8
0
  6
Continuous
 62
     7
370
    25
100
AcDbLine
 10
8.1917086067
 20
6.6958520373
 30
0.0
 11
8.1917086067
 21
6.8336437788
 31
0.0
  0
LINE
  5
4FE
330
1F
100
AcDbEntity
  8
0
  6
Continuous
 62
     7
370
    25
100
AcDbLine
 10
8.8609999267
 20
7.1879656723
 30
0.0
 11
8.1917086067
 21
7.1997767492
 31
0.0
  0
LINE
  5
4FF
330
1F
100
AcDbEntity
  8
0
  6
Continuous
 62
     7
370
    25
100
AcDbLine
 10
8.8609999267
 20
7.1879656723
 30
0.0
 11
8.8609999267
 21
6.8336437788
 31
0.0
  0
LINE
  5
500
330
1F
100
AcDbEntity
  8
0
  6
Continuous
 62
     7
370
    25
100
AcDbLine
 10
8.1917086067
 20
7.1997767492
 30
0.0
 11
8.1917086067
 21
6.8336437788
 31
0.0
  0
LINE
  5
501
330
1F
100
AcDbEntity
  8
0
  6
Continuous
 62
     7
370
    25
100
AcDbLine
 10
8.8609999267
 20
10.3768624206
 30
0.0
 11
8.8609999267
 21
10.5146541621
 31
0.0
  0
LINE
  5
502
330
1F
100
AcDbEntity
  8
0
  6
Continuous
 62
     7
370
    25
100
AcDbLine
 10
8.1917086067
 20
10.3768624206
 30
0.0
 11
8.1917086067
 21
10.5146541621
 31
0.0
  0
LINE
  5
503
330
1F
100
AcDbEntity
  8
0
  6
Continuous
 62
     7
370
    25
100
AcDbLine
 10
8.8609999267
 20
10.3768624206
 30
0.0
 11
8.8609999267
 21
10.0225405271
 31
0.0
  0
LINE
  5
504
330
1F
100
AcDbEntity
  8
0
  6
Continuous
 62
     7
370
    25
100
AcDbLine
 10
8.1917086067
 20
10.0107294502
 30
0.0
 11
8.8609999267
 21
10.0225405271
 31
0.0
  0
LINE
  5
505
330
1F
100
AcDbEntity
  8
0
  6
Continuous
 62
     7
370
    25
100
AcDbLine
 10
8.1917086067
 20
10.3768624206
 30
0.0
 11
8.1917086067
 21
10.0107294502
 31
0.0
  0
LINE
  5
506
330
1F
100
AcDbEntity
  8
0
  6
Continuous
 62
     7
370
    25
100
AcDbLine
 10
8.1777086101
 20
7.1997767492
 30
0.0
 11
8.1917086067
 21
7.1997767492
 31
0.0
  0
LINE
  5
507
330
1F
100
AcDbEntity
  8
0
  6
Continuous
 62
     7
370
    25
100
AcDbLine
 10
8.1777086101
 20
10.0107294502
 30
0.0
 11
8.1917086067
 21
10.0107294502
 31
0.0
  0
LINE
  5
508
330
1F
100
AcDbEntity
  8
0
  6
Continuous
 62
     7
370
    25
100
AcDbLine
 10
8.9397400971
 20
6.8336437788
 30
0.0
 11
8.9397400971
 21
6.6958520373
 31
0.0
  0
LINE
  5
509
330
1F
100
AcDbEntity
  8
0
  6
Continuous
 62
     7
370
    25
100
AcDbLine
 10
8.9397400971
 20
7.1879656723
 30
0.0
 11
8.8609999267
 21
7.1879656723
 31
0.0
  0
LINE
  5
50A
330
1F
100
AcDbEntity
  8
0
  6
Continuous
 62
     7
370
    25
100
AcDbLine
 10
8.9397400971
 20
7.1879656723
 30
0.0
 11
8.9397400971
 21
6.8336437788
 31
0.0
  0
LINE
  5
50B
330
1F
100
AcDbEntity
  8
0
  6
Continuous
 62
     7
370
    25
100
AcDbLine
 10
8.8609999267
 20
10.0225405271
 30
0.0
 11
8.9397400971
 21
10.0225405271
 31
0.0
  0
LINE
  5
50C
330
1F
100
AcDbEntity
  8
0
  6
Continuous
 62
     7
370
    25
100
AcDbLine
 10
8.9397400971
 20
10.3768624206
 30
0.0
 11
8.9397400971
 21
10.0225405271
 31
0.0
  0
LINE
  5
50D
330
1F
100
AcDbEntity
  8
0
  6
Continuous
 62
     7
370
    25
100
AcDbLine
 10
8.9397400971
 20
10.5146541621
 30
0.0
 11
8.9397400971
 21
10.3768624206
 31
0.0
  0
LINE
  5
50E
330
1F
100
AcDbEntity
  8
0
  6
Continuous
 62
     7
370
    25
100
AcDbLine
 10
8.8609999267
 20
9.9634869026
 30
0.0
 11
8.8609999267
 21
10.0225405271
 31
0.0
  0
LINE
  5
50F
330
1F
100
AcDbEntity
  8
0
  6
Continuous
 62
     7
370
    25
100
AcDbLine
 10
8.9397400971
 20
10.0225405271
 30
0.0
 11
8.9397400971
 21
9.9634869026
 31
0.0
  0
LINE
  5
510
330
1F
100
AcDbEntity
  8
0
  6
Continuous
 62
     7
370
    25
100
AcDbLine
 10
8.1917086067
 20
9.9634869026
 30
0.0
 11
8.1917086067
 21
10.0107294502
 31
0.0
  0
LINE
  5
511
330
1F
100
AcDbEntity
  8
0
  6
Continuous
 62
     7
370
    25
100
AcDbLine
 10
8.8609999267
 20
7.1879656723
 30
0.0
 11
8.8609999267
 21
7.2470192968
 31
0.0
  0
LINE
  5
512
330
1F
100
AcDbEntity
  8
0
  6
Continuous
 62
     7
370
    25
100
AcDbLine
 10
8.9397400971
 20
7.2470192968
 30
0.0
 11
8.9397400971
 21
7.1879656723
 31
0.0
  0
LINE
  5
513
330
1F
100
AcDbEntity
  8
0
  6
Continuous
 62
     7
370
    25
100
AcDbLine
 10
8.1917086067
 20
7.1997767492
 30
0.0
 11
8.1917086067
 21
7.2470192968
 31
0.0
  0
LINE
  5
514
330
1F
100
AcDbEntity
  8
0
  6
Continuous
 62
     7
370
    25
100
AcDbLine
 10
8.8609999267
 20
7.2470192968
 30
0.0
 11
8.8609999267
 21
9.9634869026
 31
0.0
  0
LINE
  5
515
330
1F
100
AcDbEntity
  8
0
  6
Continuous
 62
     7
370
    25
100
AcDbLine
 10
8.1917086067
 20
7.2470192968
 30
0.0
 11
8.1917086067
 21
9.9634869026
 31
0.0
  0
LINE
  5
516
330
1F
100
AcDbEntity
  8
0
  6
Continuous
 62
     7
370
    25
100
AcDbLine
 10
8.9397400971
 20
9.9634869026
 30
0.0
 11
8.9397400971
 21
7.2470192968
 31
0.0
  0
ARC
  5
517
330
1F
100
AcDbEntity
  8
0
  6
Continuous
 62
     7
370
    25
100
AcDbCircle
 10
10.8491886191
 20
10.357221281
 30
0.0
 40
0.0196854324162499
100
AcDbArc
 50
0.0010278673
 51
89.9989721327
  0
ARC
  5
518
330
1F
100
AcDbEntity
  8
0
  6
Continuous
 62
     7
370
    25
100
AcDbCircle
 10
10.8491888596
 20
10.0028910534
 30
0.0
 40
0.0196851919534381
100
AcDbArc
 50
270.0003279963
 51
359.9996720037
  0
ARC
  5
519
330
1F
100
AcDbEntity
  8
0
  6
Continuous
 62
     7
370
    25
100
AcDbCircle
 10
10.4554882466
 20
10.3572215079
 30
0.0
 40
0.0196852055029433
100
AcDbArc
 50
90.0003674331
 51
179.9996325669
  0
ARC
  5
51A
330
1F
100
AcDbEntity
  8
0
  6
Continuous
 62
     7
370
    25
100
AcDbCircle
 10
10.455488178
 20
10.0028909984
 30
0.0
 40
0.0196851369493959
100
AcDbArc
 50
180.0001679026
 51
269.9998320974
  0
LINE
  5
51B
330
1F
100
AcDbEntity
  8
0
  6
Continuous
 62
     7
370
    25
100
AcDbLine
 10
10.7193936983
 20
8.2302530951
 30
0.0
 11
10.7113937108
 21
8.2302530951
 31
0.0
  0
ARC
  5
51C
330
1F
100
AcDbEntity
  8
0
  6
Continuous
 62
     7
370
    25
100
AcDbCircle
 10
11.5314978672
 20
8.6012207083
 30
0.0
 40
0.9001043258648107
100
AcDbArc
 50
180.0014557009
 51
204.339240665
  0
LINE
  5
51D
330
1F
100
AcDbEntity
  8
0
  6
Continuous
 62
     7
370
    25
100
AcDbLine
 10
10.6313935416
 20
8.6011978396
 30
0.0
 11
10.6313935416
 21
8.6093082759
 31
0.0
  0
ARC
  5
51E
330
1F
100
AcDbEntity
  8
0
  6
Continuous
 62
     7
370
    25
100
AcDbCircle
 10
11.5320809673
 20
8.6091597362
 30
0.0
 40
0.9006874379823938
100
AcDbArc
 50
155.6687580885
 51
179.9905508888
  0
LINE
  5
51F
330
1F
100
AcDbEntity
  8
0
  6
Continuous
 62
     7
370
    25
100
AcDbLine
 10
10.7113937108
 20
8.9802531043
 30
0.0
 11
10.7193936983
 21
8.9802531043
 31
0.0
  0
LINE
  5
520
330
1F
100
AcDbEntity
  8
0
  6
Continuous
 62
     7
370
    25
100
AcDbLine
 10
10.7193936983
 20
8.9802531043
 30
0.0
 11
10.7193936983
 21
9.9832058615
 31
0.0
  0
LINE
  5
521
330
1F
100
AcDbEntity
  8
0
  6
Continuous
 62
     7
370
    25
100
AcDbLine
 10
10.7193936983
 20
9.9832058615
 30
0.0
 11
10.4554881203
 21
9.9832058615
 31
0.0
  0
LINE
  5
522
330
1F
100
AcDbEntity
  8
0
  6
Continuous
 62
     7
370
    25
100
AcDbLine
 10
10.4358030411
 20
10.0800562226
 30
0.0
 11
10.4358030411
 21
10.0028909407
 31
0.0
  0
LINE
  5
523
330
1F
100
AcDbEntity
  8
0
  6
Continuous
 62
     7
370
    25
100
AcDbLine
 10
10.7355039656
 20
10.0800562226
 30
0.0
 11
10.4358030411
 21
10.0800562226
 31
0.0
  0
LINE
  5
524
330
1F
100
AcDbEntity
  8
0
  6
Continuous
 62
     7
370
    25
100
AcDbLine
 10
10.7355039656
 20
10.0800562226
 30
0.0
 11
10.7355039656
 21
10.2800562056
 31
0.0
  0
LINE
  5
525
330
1F
100
AcDbEntity
  8
0
  6
Continuous
 62
     7
370
    25
100
AcDbLine
 10
10.4358030411
 20
10.2800562056
 30
0.0
 11
10.7355039656
 21
10.2800562056
 31
0.0
  0
LINE
  5
526
330
1F
100
AcDbEntity
  8
0
  6
Continuous
 62
     7
370
    25
100
AcDbLine
 10
10.4358030411
 20
10.3572216341
 30
0.0
 11
10.4358030411
 21
10.2800562056
 31
0.0
  0
LINE
  5
527
330
1F
100
AcDbEntity
  8
0
  6
Continuous
 62
     7
370
    25
100
AcDbLine
 10
10.4554881203
 20
10.3769067134
 30
0.0
 11
10.7193936983
 21
10.3769067134
 31
0.0
  0
LINE
  5
528
330
1F
100
AcDbEntity
  8
0
  6
Continuous
 62
     7
370
    25
100
AcDbLine
 10
10.7193936983
 20
10.3769067134
 30
0.0
 11
10.7193936983
 21
10.5843869032
 31
0.0
  0
LINE
  5
529
330
1F
100
AcDbEntity
  8
0
  6
Continuous
 62
     7
370
    25
100
AcDbLine
 10
10.7113937108
 20
10.5843869032
 30
0.0
 11
10.7193936983
 21
10.5843869032
 31
0.0
  0
LINE
  5
52A
330
1F
100
AcDbEntity
  8
0
  6
Continuous
 62
     7
370
    25
100
AcDbLine
 10
10.7113937108
 20
10.5843869032
 30
0.0
 11
9.0578503526
 21
10.6131270779
 31
0.0
  0
LINE
  5
52B
330
1F
100
AcDbEntity
  8
0
  6
Continuous
 62
     7
370
    25
100
AcDbLine
 10
9.0578503526
 20
10.6131270779
 30
0.0
 11
9.0578503526
 21
10.6524972364
 31
0.0
  0
LINE
  5
52C
330
1F
100
AcDbEntity
  8
0
  6
Continuous
 62
     7
370
    25
100
AcDbLine
 10
8.7822597563
 20
10.6524972364
 30
0.0
 11
9.0578503526
 21
10.6524972364
 31
0.0
  0
LINE
  5
52D
330
1F
100
AcDbEntity
  8
0
  6
Continuous
 62
     7
370
    25
100
AcDbLine
 10
8.7822597563
 20
10.6997412507
 30
0.0
 11
8.7822597563
 21
10.6524972364
 31
0.0
  0
LINE
  5
52E
330
1F
100
AcDbEntity
  8
0
  6
Continuous
 62
     7
370
    25
100
AcDbLine
 10
8.7822597563
 20
10.6997412507
 30
0.0
 11
8.8609999267
 21
10.6997412507
 31
0.0
  0
LINE
  5
52F
330
1F
100
AcDbEntity
  8
0
  6
Continuous
 62
     7
370
    25
100
AcDbLine
 10
8.8609999267
 20
10.6997412507
 30
0.0
 11
8.8609999267
 21
10.7706074187
 31
0.0
  0
LINE
  5
530
330
1F
100
AcDbEntity
  8
0
  6
Continuous
 62
     7
370
    25
100
AcDbLine
 10
9.0385195426
 20
10.7674120289
 30
0.0
 11
8.8609999267
 21
10.7706074187
 31
0.0
  0
ARC
  5
531
330
1F
100
AcDbEntity
  8
0
  6
Continuous
 62
     7
370
    25
100
AcDbCircle
 10
9.0381652986
 20
10.7477302259
 30
0.0
 40
0.0196850393700783
100
AcDbArc
 50
359.9999999999
 51
88.9687873301
  0
LINE
  5
532
330
1F
100
AcDbEntity
  8
0
  6
Continuous
 62
     7
370
    25
100
AcDbLine
 10
9.0578503526
 20
10.7312374068
 30
0.0
 11
9.0578503526
 21
10.7477301763
 31
0.0
  0
LINE
  5
533
330
1F
100
AcDbEntity
  8
0
  6
Continuous
 62
     7
370
    25
100
AcDbLine
 10
9.0578503526
 20
10.7312374068
 30
0.0
 11
10.7904748772
 21
10.7162212603
 31
0.0
  0
ARC
  5
534
330
1F
100
AcDbEntity
  8
0
  6
Continuous
 62
     7
370
    25
100
AcDbCircle
 10
10.7901338025
 20
10.676852671
 30
0.0
 40
0.0393700787401574
100
AcDbArc
 50
0.0000000002
 51
89.5034490095
  0
LINE
  5
535
330
1F
100
AcDbEntity
  8
0
  6
Continuous
 62
     7
370
    25
100
AcDbLine
 10
10.829503893
 20
10.3769067134
 30
0.0
 11
10.829503893
 21
10.6768527151
 31
0.0
  0
LINE
  5
536
330
1F
100
AcDbEntity
  8
0
  6
Continuous
 62
     7
370
    25
100
AcDbLine
 10
10.829503893
 20
10.3769067134
 30
0.0
 11
10.8491889723
 21
10.3769067134
 31
0.0
  0
LINE
  5
537
330
1F
100
AcDbEntity
  8
0
  6
Continuous
 62
     7
370
    25
100
AcDbLine
 10
10.8688740515
 20
10.0028909407
 30
0.0
 11
10.8688740515
 21
10.3572216341
 31
0.0
  0
LINE
  5
538
330
1F
100
AcDbEntity
  8
0
  6
Continuous
 62
     7
370
    25
100
AcDbLine
 10
10.8491889723
 20
9.9832058615
 30
0.0
 11
10.829503893
 21
9.9832058615
 31
0.0
  0
LINE
  5
539
330
1F
100
AcDbEntity
  8
0
  6
Continuous
 62
     7
370
    25
100
AcDbLine
 10
10.829503893
 20
8.9302531086
 30
0.0
 11
10.829503893
 21
9.9832058615
 31
0.0
  0
ARC
  5
53A
330
1F
100
AcDbEntity
  8
0
  6
Continuous
 62
     7
370
    25
100
AcDbCircle
 10
11.2495025231
 20
8.658960273
 30
0.0
 40
0.4999986519025137
100
AcDbArc
 50
147.1400694518
 51
171.802483304
  0
LINE
  5
53B
330
1F
100
AcDbEntity
  8
0
  6
Continuous
 62
     7
370
    25
100
AcDbLine
 10
10.7546126515
 20
8.7302530982
 30
0.0
 11
10.829503893
 21
8.7302530982
 31
0.0
  0
LINE
  5
53C
330
1F
100
AcDbEntity
  8
0
  6
Continuous
 62
     7
370
    25
100
AcDbLine
 10
10.829503893
 20
8.7302530982
 30
0.0
 11
10.829503893
 21
8.4802531012
 31
0.0
  0
LINE
  5
53D
330
1F
100
AcDbEntity
  8
0
  6
Continuous
 62
     7
370
    25
100
AcDbLine
 10
10.829503893
 20
8.4802531012
 30
0.0
 11
10.7546126515
 21
8.4802531012
 31
0.0
  0
ARC
  5
53E
330
1F
100
AcDbEntity
  8
0
  6
Continuous
 62
     7
370
    25
100
AcDbCircle
 10
11.2495034034
 20
8.5515462561
 30
0.0
 40
0.4999995702743661
100
AcDbArc
 50
188.1975397016
 51
212.8599075426
  0
LINE
  5
53F
330
1F
100
AcDbEntity
  8
0
  6
Continuous
 62
     7
370
    25
100
AcDbLine
 10
10.829503893
 20
8.1396558683
 30
0.0
 11
10.829503893
 21
8.2802530908
 31
0.0
  0
LINE
  5
540
330
1F
100
AcDbEntity
  8
0
  6
Continuous
 62
     7
370
    25
100
AcDbLine
 10
10.7193936983
 20
8.1396558683
 30
0.0
 11
10.7193936983
 21
8.2302530951
 31
0.0
  0
LINE
  5
541
330
1F
100
AcDbEntity
  8
0
  6
Continuous
 62
     7
370
    25
100
AcDbLine
 10
10.4358030411
 20
10.2800562056
 30
0.0
 11
10.4358030411
 21
10.0800562226
 31
0.0
  0
LINE
  5
542
330
1F
100
AcDbEntity
  8
0
  6
Continuous
 62
     7
370
    25
100
AcDbLine
 10
10.829503893
 20
8.2802530908
 30
0.0
 11
10.829503893
 21
8.4802531012
 31
0.0
  0
LINE
  5
543
330
1F
100
AcDbEntity
  8
0
  6
Continuous
 62
     7
370
    25
100
AcDbLine
 10
10.829503893
 20
8.7302530982
 30
0.0
 11
10.829503893
 21
8.9302531086
 31
0.0
  0
LINE
  5
544
330
1F
100
AcDbEntity
  8
0
  6
Continuous
 62
     7
370
    25
100
AcDbLine
 10
8.8609999267
 20
6.5107649487
 30
0.0
 11
8.7822597563
 21
6.5107649487
 31
0.0
  0
LINE
  5
545
330
1F
100
AcDbEntity
  8
0
  6
Continuous
 62
     7
370
    25
100
AcDbLine
 10
9.0578503526
 20
6.558008963
 30
0.0
 11
8.7822597563
 21
6.558008963
 31
0.0
  0
LINE
  5
546
330
1F
100
AcDbEntity
  8
0
  6
Continuous
 62
     7
370
    25
100
AcDbLine
 10
8.8609999267
 20
6.4398987807
 30
0.0
 11
9.0385195426
 21
6.4430941705
 31
0.0
  0
ARC
  5
547
330
1F
100
AcDbEntity
  8
0
  6
Continuous
 62
     7
370
    25
100
AcDbCircle
 10
9.0381652986
 20
6.4627759735
 30
0.0
 40
0.0196850393700801
100
AcDbArc
 50
271.0312126699
 51
0.0
  0
LINE
  5
548
330
1F
100
AcDbEntity
  8
0
  6
Continuous
 62
     7
370
    25
100
AcDbLine
 10
9.0578503526
 20
6.558008963
 30
0.0
 11
9.0578503526
 21
6.5973791215
 31
0.0
  0
LINE
  5
549
330
1F
100
AcDbEntity
  8
0
  6
Continuous
 62
     7
370
    25
100
AcDbLine
 10
9.0578503526
 20
6.5973791215
 30
0.0
 11
10.7113937108
 21
6.6261192962
 31
0.0
  0
LINE
  5
54A
330
1F
100
AcDbEntity
  8
0
  6
Continuous
 62
     7
370
    25
100
AcDbLine
 10
10.7193936983
 20
6.6261192962
 30
0.0
 11
10.7113937108
 21
6.6261192962
 31
0.0
  0
LINE
  5
54B
330
1F
100
AcDbEntity
  8
0
  6
Continuous
 62
     7
370
    25
100
AcDbLine
 10
10.7904748772
 20
6.4942849391
 30
0.0
 11
9.0578503526
 21
6.4792687926
 31
0.0
  0
ARC
  5
54C
330
1F
100
AcDbEntity
  8
0
  6
Continuous
 62
     7
370
    25
100
AcDbCircle
 10
10.7901338025
 20
6.5336535284
 30
0.0
 40
0.0393700787401579
100
AcDbArc
 50
270.4965509905
 51
0.0
  0
LINE
  5
54D
330
1F
100
AcDbEntity
  8
0
  6
Continuous
 62
     7
370
    25
100
AcDbLine
 10
8.7822597563
 20
6.558008963
 30
0.0
 11
8.7822597563
 21
6.5107649487
 31
0.0
  0
LINE
  5
54E
330
1F
100
AcDbEntity
  8
0
  6
Continuous
 62
     7
370
    25
100
AcDbLine
 10
8.8609999267
 20
6.4398987807
 30
0.0
 11
8.8609999267
 21
6.5107649487
 31
0.0
  0
LINE
  5
54F
330
1F
100
AcDbEntity
  8
0
  6
Continuous
 62
     7
370
    25
100
AcDbLine
 10
10.7193936983
 20
6.6261192962
 30
0.0
 11
10.7193936983
 21
8.1396558683
 31
0.0
  0
LINE
  5
550
330
1F
100
AcDbEntity
  8
0
  6
Continuous
 62
     7
370
    25
100
AcDbLine
 10
9.0578503526
 20
6.4627760231
 30
0.0
 11
9.0578503526
 21
6.4792687926
 31
0.0
  0
LINE
  5
551
330
1F
100
AcDbEntity
  8
0
  6
Continuous
 62
     7
370
    25
100
AcDbLine
 10
10.829503893
 20
6.5336534843
 30
0.0
 11
10.829503893
 21
8.1396558683
 31
0.0
  0
LINE
  5
552
330
1F
100
AcDbEntity
  8
0
  6
Continuous
 62
     7
370
    25
100
AcDbLine
 10
10.8688740515
 20
8.7427530971
 30
0.0
 11
10.8688740515
 21
8.4677531023
 31
0.0
  0
LINE
  5
553
330
1F
100
AcDbEntity
  8
0
  6
Continuous
 62
     7
370
    25
100
AcDbLine
 10
10.4413936165
 20
8.4677531023
 30
0.0
 11
10.4413936165
 21
8.7427530971
 31
0.0
  0
LINE
  5
554
330
1F
100
AcDbEntity
  8
0
  6
Continuous
 62
     7
370
    25
100
AcDbLine
 10
9.0578503526
 20
10.6131270779
 30
0.0
 11
9.0578503526
 21
10.5816310684
 31
0.0
  0
LINE
  5
555
330
1F
100
AcDbEntity
  8
0
  6
Continuous
 62
     7
370
    25
100
AcDbLine
 10
8.7822597563
 20
10.6524972364
 30
0.0
 11
8.7822597563
 21
10.6130769185
 31
0.0
  0
LINE
  5
556
330
1F
100
AcDbEntity
  8
0
  6
Continuous
 62
     7
370
    25
100
AcDbLine
 10
9.0578503526
 20
6.628875131
 30
0.0
 11
9.0578503526
 21
6.5973791215
 31
0.0
  0
LINE
  5
557
330
1F
100
AcDbEntity
  8
0
  6
Continuous
 62
     7
370
    25
100
AcDbLine
 10
8.7822597563
 20
6.5974292809
 30
0.0
 11
8.7822597563
 21
6.558008963
 31
0.0
  0
LINE
  5
558
330
1F
100
AcDbEntity
  8
0
  6
Continuous
 62
     7
370
    25
100
AcDbLine
 10
10.4358030411
 20
10.0379959352
 30
0.0
 11
9.0578503526
 21
10.0619460319
 31
0.0
  0
LINE
  5
559
330
1F
100
AcDbEntity
  8
0
  6
Continuous
 62
     7
370
    25
100
AcDbLine
 10
10.7113937108
 20
7.1773003422
 30
0.0
 11
9.0578503526
 21
7.1485601675
 31
0.0
  0
LINE
  5
55A
330
1F
100
AcDbEntity
  8
0
  6
Continuous
 62
     7
370
    25
100
AcDbLine
 10
10.7193936983
 20
7.1773003422
 30
0.0
 11
10.7113937108
 21
7.1773003422
 31
0.0
  0
LINE
  5
55B
330
1F
100
AcDbEntity
  8
0
  6
Continuous
 62
     7
370
    25
100
AcDbLine
 10
8.9397400971
 20
10.0619460319
 30
0.0
 11
9.0578503526
 21
10.0619460319
 31
0.0
  0
LINE
  5
55C
330
1F
100
AcDbEntity
  8
0
  6
Continuous
 62
     7
370
    25
100
AcDbLine
 10
9.0578503526
 20
7.1485601675
 30
0.0
 11
8.9397400971
 21
7.1485601675
 31
0.0
  0
LINE
  5
55D
330
1F
100
AcDbEntity
  8
0
  6
Continuous
 62
     7
370
    25
100
AcDbLine
 10
10.8688740515
 20
10.3590644795
 30
0.0
 11
10.8688740515
 21
10.6328121572
 31
0.0
  0
LINE
  5
55E
330
1F
100
AcDbEntity
  8
0
  6
Continuous
 62
     7
370
    25
100
AcDbLine
 10
10.8688740515
 20
6.5776940422
 30
0.0
 11
10.8688740515
 21
7.010764906
 31
0.0
  0
LINE
  5
55F
330
1F
100
AcDbEntity
  8
0
  6
Continuous
 62
     7
370
    25
100
AcDbLine
 10
10.4358030411
 20
10.0367652694
 30
0.0
 11
9.0578503526
 21
10.0545621838
 31
0.0
  0
LINE
  5
560
330
1F
100
AcDbEntity
  8
0
  6
Continuous
 62
     7
370
    25
100
AcDbLine
 10
9.0578503526
 20
10.0577949731
 30
0.0
 11
9.0578503526
 21
10.0545621838
 31
0.0
  0
LINE
  5
561
330
1F
100
AcDbEntity
  8
0
  6
Continuous
 62
     7
370
    25
100
AcDbLine
 10
9.0578503526
 20
7.1559440156
 30
0.0
 11
9.0578503526
 21
7.1527112263
 31
0.0
  0
LINE
  5
562
330
1F
100
AcDbEntity
  8
0
  6
Continuous
 62
     7
370
    25
100
AcDbLine
 10
10.7113937108
 20
7.1773003422
 30
0.0
 11
9.0578503526
 21
7.1559440156
 31
0.0
  0
LINE
  5
563
330
1F
100
AcDbEntity
  8
0
  6
Continuous
 62
     7
370
    25
100
AcDbLine
 10
9.0578503526
 20
7.1559440156
 30
0.0
 11
9.0578503526
 21
10.0545621838
 31
0.0
  0
LINE
  5
564
330
1F
100
AcDbEntity
  8
0
  6
CENTERX2
 62
     7
370
    18
100
AcDbLine
 10
8.9397401017
 20
8.6052530997
 30
0.0
 11
10.8295038813
 21
8.6052530997
 31
0.0
  0
LINE
  5
565
330
1F
100
AcDbEntity
  8
0
  6
CENTERX2
 62
     7
370
    18
100
AcDbLine
 10
8.9397401017
 20
8.6052530997
 30
0.0
 11
8.0735983695
 21
8.6052530997
 31
0.0
  0
LINE
  5
566
330
1F
100
AcDbEntity
  8
0
  6
Continuous
 62
     7
370
    18
100
AcDbLine
 10
10.6313936451
 20
8.6052531417
 30
0.0
 11
10.6313936451
 21
8.5202002582
 31
0.0
  0
HATCH
  5
567
330
1F
100
AcDbEntity
  8
0
  6
Continuous
 62
     7
370
    18
100
AcDbHatch
 10
0.0
 20
0.0
 30
0.0
210
0.0
220
0.0
230
1.0
  2
ANSI31
 70
     0
 71
     0
 91
        1
 92
        0
 93
       15
 72
     2
 10
10.79013380253071
 20
6.533653528369168
 40
0.0393700787401575
 50
270.4965509905344
 51
360.000000000037
 73
     1
 72
     1
 10
10.82950388127087
 20
6.533653528369193
 11
10.82950388127087
 21
8.139655874160232
 72
     1
 10
10.82950388127087
 20
8.139655874160232
 11
10.7193936450504
 21
8.139655874160233
 72
     1
 10
10.7193936450504
 20
8.139655874160233
 11
10.71939364505039
 21
6.62611924143272
 72
     1
 10
10.71939364505039
 20
6.62611924143272
 11
10.71139364505039
 21
6.626119241432718
 72
     1
 10
10.71139364505039
 20
6.626119241432718
 11
9.057850337963778
 21
6.597379083952446
 72
     1
 10
9.057850337963778
 20
6.597379083952446
 11
9.057850337963778
 21
6.558009005212289
 72
     1
 10
9.057850337963778
 20
6.558009005212289
 11
8.782259786782674
 21
6.55800900521231
 72
     1
 10
8.782259786782674
 20
6.55800900521231
 11
8.782259786782674
 21
6.510764910724163
 72
     1
 10
8.782259786782674
 20
6.510764910724163
 11
8.860999944262991
 21
6.510764910724233
 72
     1
 10
8.860999944262991
 20
6.510764910724233
 11
8.860999944262991
 21
6.43989876899178
 72
     1
 10
8.860999944262991
 20
6.43989876899178
 11
9.03851957191473
 21
6.443094122289569
 72
     2
 10
9.038165298593698
 20
6.462775973457982
 40
0.0196850393700787
 50
271.0312126698884
 51
360.0000000000448
 73
     1
 72
     1
 10
9.057850337963778
 20
6.462775973457997
 11
9.057850337963778
 21
6.47926884773195
 72
     1
 10
9.057850337963778
 20
6.47926884773195
 11
10.79047499706628
 21
6.494284928110902
 97
        0
 75
     0
 76
     1
 52
0.0
 41
1.25
 77
     0
 78
     1
 53
45.0
 43
0.0
 44
0.0
 45
-0.110485434560398
 46
0.1104854345603981
 79
     0
 98
        1
 10
0.0
 20
0.0
  0
HATCH
  5
568
330
1F
100
AcDbEntity
  8
0
  6
Continuous
 62
     7
370
    18
100
AcDbHatch
 10
0.0
 20
0.0
 30
0.0
210
0.0
220
0.0
230
1.0
  2
ANSI31
 70
     0
 71
     0
 91
        1
 92
        0
 93
       43
 72
     1
 10
10.7193936450504
 20
8.230253100609392
 11
10.71939364505039
 21
8.139655874160233
 72
     1
 10
10.71939364505039
 20
8.139655874160233
 11
10.82950388127087
 21
8.139655874160232
 72
     1
 10
10.82950388127087
 20
8.139655874160232
 11
10.82950388127087
 21
8.280253100749226
 72
     4
 94
        3
 73
     1
 74
     0
 95
       11
 96
        7
 40
0.0771369169007731
 40
0.0771369169007731
 40
0.0771369169007731
 40
0.0771369169007731
 40
0.0793192696386431
 40
0.0793192696386431
 40
0.0793192696386431
 40
0.0826198362122861
 40
0.0826198362122861
 40
0.0826198362122861
 40
0.0826198362122861
 10
10.82950388127087
 20
8.280253100749226
 42
1.0
 10
10.81401929835406
 20
8.304225411379306
 42
1.0
 10
10.80054574819962
 20
8.329620549767094
 42
1.0
 10
10.7893778950825
 20
8.355883128501997
 42
1.0
 10
10.77253291891727
 20
8.395496159600022
 42
1.0
 10
10.76075045460133
 20
8.437647076530636
 42
1.0
 10
10.75461270158588
 20
8.480253102427234
 42
1.0
 72
     1
 10
10.75461270158588
 20
8.480253102427234
 11
10.82950388127087
 21
8.480253102427232
 72
     1
 10
10.82950388127087
 20
8.480253102427232
 11
10.82950388127087
 21
8.730253099700471
 72
     1
 10
10.82950388127087
 20
8.730253099700471
 11
10.75461270158588
 21
8.730253096973712
 72
     4
 94
        3
 73
     1
 74
     0
 95
       14
 96
       10
 40
0.0031930765792078
 40
0.0031930765792078
 40
0.0031930765792078
 40
0.0031930765792078
 40
0.0036637263075876
 40
0.0036637263075876
 40
0.0036637263075876
 40
0.0079883084469039
 40
0.0079883084469039
 40
0.0079883084469039
 40
0.0087032053880635
 40
0.0087032053880635
 40
0.0087032053880635
 40
0.0087032053880635
 10
10.75461270158588
 20
8.730253096973712
 42
1.0
 10
10.75549199876944
 20
8.73635685489282
 42
1.0
 10
10.7564844064111
 20
8.7424453842512
 42
1.0
 10
10.75758890578517
 20
8.74851243505079
 42
1.0
 10
10.76761196508034
 20
8.803569424071137
 42
1.0
 10
10.787278918447
 20
8.857655187082694
 42
1.0
 10
10.81496113700195
 20
8.906290858492648
 42
1.0
 10
10.81958292660506
 20
8.914411011146475
 42
1.0
 10
10.82443431742594
 20
8.922404701319834
 42
1.0
 10
10.82950388127087
 20
8.930253098651717
 42
1.0
 72
     1
 10
10.82950388127087
 20
8.93025309865172
 11
10.82950388127087
 21
9.983205857337348
 72
     1
 10
10.82950388127087
 20
9.983205857337348
 11
10.84918892064096
 21
9.983205857337348
 72
     4
 94
        3
 73
     1
 74
     0
 95
       20
 96
       16
 40
0.0
 40
0.0
 40
0.0
 40
0.0
 40
0.0001104343663175
 40
0.0001104343663175
 40
0.0001104343663175
 40
0.0002796955805121
 40
0.0002796955805121
 40
0.0002796955805121
 40
0.0004489567963173
 40
0.0004489567963173
 40
0.0004489567963173
 40
0.0006182180130653
 40
0.0006182180130653
 40
0.0006182180130653
 40
0.0007874792297514
 40
0.0007874792297514
 40
0.0007874792297514
 40
0.0007874792297514
 10
10.84918892064096
 20
9.983205857337335
 42
1.0
 10
10.85063819054013
 20
9.983205857337335
 42
1.0
 10
10.85209621657425
 20
9.98336786444956
 42
1.0
 10
10.85351013660823
 20
9.983686004950282
 42
1.0
 10
10.85565962089829
 20
9.98416965182698
 42
1.0
 10
10.85775524556025
 20
9.985031080112838
 42
1.0
 10
10.85962347100284
 20
9.986198954553956
 42
1.0
 10
10.86149169646298
 20
9.987366829006044
 42
1.0
 10
10.86318405066543
 20
9.988873361039037
 42
1.0
 10
10.86456038902238
 20
9.990593794075494
 42
1.0
 10
10.86593672738702
 20
9.992314227121572
 42
1.0
 10
10.86703501101497
 20
9.994296012841778
 42
1.0
 10
10.86776429056331
 20
9.996375038695492
 42
1.0
 10
10.86849357011149
 20
9.998454064548767
 42
1.0
 10
10.86887396001103
 20
10.00068767263569
 42
1.0
 10
10.86887396001103
 20
10.0028908968998
 42
1.0
 72
     1
 10
10.86887396001103
 20
10.00289089375858
 11
10.86887396001103
 21
10.35722159870749
 72
     4
 94
        3
 73
     1
 74
     0
 95
       20
 96
       16
 40
0.0
 40
0.0
 40
0.0
 40
0.0
 40
0.0001104343766938
 40
0.0001104343766938
 40
0.0001104343766938
 40
0.0002796955911042
 40
0.0002796955911042
 40
0.0002796955911042
 40
0.0004489568040645
 40
0.0004489568040645
 40
0.0004489568040645
 40
0.0006182180163993
 40
0.0006182180163993
 40
0.0006182180163993
 40
0.0007874792287729
 40
0.0007874792287729
 40
0.0007874792287729
 40
0.0007874792287729
 10
10.86887396001103
 20
10.35722160171374
 42
1.0
 10
10.86887396001103
 20
10.35867087174909
 42
1.0
 10
10.86871195287311
 20
10.36012889792137
 42
1.0
 10
10.86839381232205
 20
10.36154281808359
 42
1.0
 10
10.86791016541297
 20
10.36369230237236
 42
1.0
 10
10.86704873710394
 20
10.36578792702896
 42
1.0
 10
10.8658808626437
 20
10.3676561524665
 42
1.0
 10
10.86471298819338
 20
10.36952437788815
 42
1.0
 10
10.86320645617826
 20
10.37121673205719
 42
1.0
 10
10.86148602316484
 20
10.3725930703892
 42
1.0
 10
10.85976559015789
 20
10.37396940871604
 42
1.0
 10
10.85778380448828
 20
10.37506769231783
 42
1.0
 10
10.85570477868645
 20
10.37579697185044
 42
1.0
 10
10.85362575288435
 20
10.37652625138314
 42
1.0
 10
10.85139214485165
 20
10.37690664127621
 42
1.0
 10
10.84918892064096
 20
10.37690664127621
 42
1.0
 72
     1
 10
10.84918892064096
 20
10.37690664127621
 11
10.82950388127088
 21
10.37690664127619
 72
     1
 10
10.82950388127088
 20
10.37690664127619
 11
10.82950388127088
 21
10.67685267103193
 72
     2
 10
10.79013380253072
 20
10.67685267103178
 40
0.0393700787401575
 50
0.0000000002223233
 51
89.50344900946895
 73
     1
 72
     1
 10
10.79047499706629
 20
10.71622127129004
 11
9.057850337963679
 21
10.73123735166902
 72
     1
 10
9.057850337963679
 20
10.73123735166902
 11
9.05785033796379
 21
10.74773022594296
 72
     2
 10
9.03816529859371
 20
10.74773022594299
 40
0.0196850393700787
 50
359.9999999999026
 51
448.9687873301132
 73
     1
 72
     1
 10
9.038519571914742
 20
10.76741207711141
 11
8.860999944263003
 21
10.77060743040914
 72
     1
 10
8.860999944263003
 20
10.77060743040914
 11
8.860999944263003
 21
10.6997412886769
 72
     1
 10
8.860999944263003
 20
10.6997412886769
 11
8.782259786782689
 21
10.69974128867688
 72
     1
 10
8.782259786782689
 20
10.69974128867688
 11
8.782259786782687
 21
10.65249719418866
 72
     1
 10
8.782259786782687
 20
10.65249719418866
 11
9.05785033796379
 21
10.65249719418867
 72
     1
 10
9.05785033796379
 20
10.65249719418867
 11
9.05785033796379
 21
10.61312711544851
 72
     1
 10
9.05785033796379
 20
10.61312711544851
 11
10.7113936450504
 21
10.58438695796819
 72
     1
 10
10.7113936450504
 20
10.58438695796819
 11
10.7193936450504
 21
10.58438695796819
 72
     1
 10
10.7193936450504
 20
10.58438695796819
 11
10.7193936450504
 21
10.37690664127619
 72
     1
 10
10.7193936450504
 20
10.37690664127619
 11
10.45548813323938
 21
10.3769066412762
 72
     4
 94
        3
 73
     1
 74
     0
 95
       20
 96
       16
 40
0.0
 40
0.0
 40
0.0
 40
0.0
 40
0.0001104343663167
 40
0.0001104343663167
 40
0.0001104343663167
 40
0.0002796955805113
 40
0.0002796955805113
 40
0.0002796955805113
 40
0.0004489567963166
 40
0.0004489567963166
 40
0.0004489567963166
 40
0.0006182180130646
 40
0.0006182180130646
 40
0.0006182180130646
 40
0.0007874792297507
 40
0.0007874792297507
 40
0.0007874792297507
 40
0.0007874792297507
 10
10.45548813323938
 20
10.37690664127618
 42
1.0
 10
10.45403886334021
 20
10.37690664127618
 42
1.0
 10
10.4525808373061
 20
10.37674463416396
 42
1.0
 10
10.45116691727214
 20
10.37642649366324
 42
1.0
 10
10.44901743298207
 20
10.37594284678655
 42
1.0
 10
10.44692180832011
 20
10.37508141850069
 42
1.0
 10
10.44505358287752
 20
10.37391354405958
 42
1.0
 10
10.44318535741738
 20
10.37274566960749
 42
1.0
 10
10.44149300321492
 20
10.3712391375745
 42
1.0
 10
10.44011666485798
 20
10.36951870453805
 42
1.0
 10
10.43874032649333
 20
10.36779827149197
 42
1.0
 10
10.43764204286538
 20
10.36581648577176
 42
1.0
 10
10.43691276331704
 20
10.36373745991805
 42
1.0
 10
10.43618348376885
 20
10.36165843406478
 42
1.0
 10
10.43580309386931
 20
10.35942482597786
 42
1.0
 10
10.4358030938693
 20
10.35722160171374
 42
1.0
 72
     1
 10
10.4358030938693
 20
10.35722160485497
 11
10.4358030938693
 21
10.28005624589832
 72
     1
 10
10.4358030938693
 20
10.28005624589832
 11
10.73550388127088
 21
10.28005624589832
 72
     1
 10
10.73550388127088
 20
10.28005624589832
 11
10.73550388127087
 21
10.08005624930677
 72
     1
 10
10.73550388127087
 20
10.08005624930677
 11
10.4358030938693
 21
10.08005625271522
 72
     1
 10
10.4358030938693
 20
10.08005625271522
 11
10.4358030938693
 21
10.00289089990606
 72
     4
 94
        3
 73
     1
 74
     0
 95
       20
 96
       16
 40
0.0
 40
0.0
 40
0.0
 40
0.0
 40
0.000110434376693
 40
0.000110434376693
 40
0.000110434376693
 40
0.0002796955911034
 40
0.0002796955911034
 40
0.0002796955911034
 40
0.0004489568040638
 40
0.0004489568040638
 40
0.0004489568040638
 40
0.0006182180163985
 40
0.0006182180163985
 40
0.0006182180163985
 40
0.0007874792287722
 40
0.0007874792287722
 40
0.0007874792287722
 40
0.0007874792287722
 10
10.4358030938693
 20
10.0028908968998
 42
1.0
 10
10.4358030938693
 20
10.00144162686446
 42
1.0
 10
10.43596510100722
 20
9.999983600692193
 42
1.0
 10
10.43628324155829
 20
9.998569680529982
 42
1.0
 10
10.43676688846737
 20
9.996420196241209
 42
1.0
 10
10.43762831677639
 20
9.994324571584611
 42
1.0
 10
10.43879619123664
 20
9.992456346147074
 42
1.0
 10
10.43996406568695
 20
9.990588120725418
 42
1.0
 10
10.44147059770207
 20
9.988895766556386
 42
1.0
 10
10.44319103071549
 20
9.987519428224374
 42
1.0
 10
10.44491146372244
 20
9.986143089897528
 42
1.0
 10
10.44689324939205
 20
9.985044806295742
 42
1.0
 10
10.44897227519389
 20
9.984315526763133
 42
1.0
 10
10.45105130099598
 20
9.983586247230432
 42
1.0
 10
10.45328490902868
 20
9.983205857337362
 42
1.0
 10
10.45548813323937
 20
9.98320585733736
 42
1.0
 72
     1
 10
10.45548813323937
 20
9.98320585733736
 11
10.7193936450504
 21
9.983205857337348
 72
     1
 10
10.7193936450504
 20
9.983205857337348
 11
10.7193936450504
 21
8.980253098791552
 72
     1
 10
10.7193936450504
 20
8.980253098791552
 11
10.7113936450504
 21
8.980253098791552
 72
     4
 94
        3
 73
     1
 74
     0
 95
       17
 96
       13
 40
0.1350578841446397
 40
0.1350578841446397
 40
0.1350578841446397
 40
0.1350578841446397
 40
0.1412923251125693
 40
0.1412923251125693
 40
0.1412923251125693
 40
0.1440103507767242
 40
0.1440103507767242
 40
0.1440103507767242
 40
0.144687599501969
 40
0.144687599501969
 40
0.144687599501969
 40
0.1448103816921278
 40
0.1448103816921278
 40
0.1448103816921278
 40
0.1448103816921278
 10
10.7113936450504
 20
8.980253098791552
 42
1.0
 10
10.67803411678972
 20
8.906509464488101
 42
1.0
 10
10.6545048843531
 20
8.827521747223482
 42
1.0
 10
10.64207317566027
 20
8.747544035671869
 42
1.0
 10
10.63658809945012
 20
8.712256541907871
 42
1.0
 10
10.63320104792203
 20
8.676579089467655
 42
1.0
 10
10.63194792134939
 20
8.640889834068188
 42
1.0
 10
10.63163516058549
 20
8.631982354947171
 42
1.0
 10
10.6314547147159
 20
8.623069246115731
 42
1.0
 10
10.63140670288596
 20
8.61415640714877
 42
1.0
 10
10.63139799764908
 20
8.612540380960716
 42
1.0
 10
10.6313936450504
 20
8.610924325464282
 42
1.0
 10
10.6313936450504
 20
8.60930827582964
 42
1.0
 72
     1
 10
10.6313936450504
 20
8.609308275829642
 11
10.6313936450504
 21
8.6011978395203
 72
     4
 94
        3
 73
     1
 74
     0
 95
       11
 96
        7
 40
0.0001027185680418
 40
0.0001027185680418
 40
0.0001027185680418
 40
0.0001027185680418
 40
0.0035018218291049
 40
0.0035018218291049
 40
0.0035018218291049
 40
0.0098598677793379
 40
0.0098598677793379
 40
0.0098598677793379
 40
0.0098598677793379
 10
10.6313936450504
 20
8.601197839520301
 42
1.0
 10
10.63139364921615
 20
8.556590072054172
 42
1.0
 10
10.63472842343078
 20
8.511859535299685
 42
1.0
 10
10.64134291000951
 20
8.4677448950358
 42
1.0
 10
10.6535814083905
 20
8.386121484507767
 42
1.0
 10
10.67737561268821
 20
8.305452405546703
 42
1.0
 10
10.7113936450504
 20
8.23025310060939
 42
1.0
 72
     1
 10
10.71139364505038
 20
8.230253100609383
 11
10.7193936450504
 21
8.230253100609392
 97
        0
 75
     0
 76
     1
 52
0.0
 41
1.25
 77
     0
 78
     1
 53
45.0
 43
0.0
 44
0.0
 45
-0.110485434560398
 46
0.1104854345603981
 79
     0
 98
        1
 10
0.0
 20
0.0
  0
HATCH
  5
569
330
1F
100
AcDbEntity
  8
0
  6
Continuous
 62
     7
370
    18
100
AcDbHatch
 10
0.0
 20
0.0
 30
0.0
210
0.0
220
0.0
230
1.0
  2
ANSI31
 70
     0
 71
     0
 91
        1
 92
        0
 93
       16
 72
     2
 10
8.152338526940163
 20
10.62763167059223
 40
0.078740157480315
 50
91.99995004057698
 51
179.9999999999987
 73
     1
 72
     1
 10
8.073598369459846
 20
10.62763167059223
 11
8.07359836945984
 21
8.139655874160242
 72
     1
 10
8.07359836945984
 20
8.139655874160242
 11
8.17770860568031
 21
8.139655874160242
 72
     1
 10
8.17770860568031
 20
8.139655874160242
 11
8.17770860568032
 21
10.56189680048778
 72
     1
 10
8.17770860568032
 20
10.56189680048778
 11
8.19170860568032
 21
10.56189680048777
 72
     1
 10
8.19170860568032
 20
10.56189680048777
 11
8.860999944262996
 21
10.57370782410981
 72
     1
 10
8.860999944262996
 20
10.57370782410981
 11
8.939740101743311
 21
10.57370782410981
 72
     1
 10
8.939740101743311
 20
10.57370782410981
 11
8.939740101743311
 21
10.613076918598
 72
     1
 10
8.939740101743311
 20
10.613076918598
 11
8.762574747412604
 21
10.61307691859794
 72
     1
 10
8.762574747412604
 20
10.61307691859794
 11
8.762574747412604
 21
10.71149965481847
 72
     1
 10
8.762574747412604
 20
10.71149965481847
 11
8.860999944262998
 21
10.71149965481847
 72
     1
 10
8.860999944262998
 20
10.71149965481847
 11
8.860999944262998
 21
10.77055329655074
 72
     1
 10
8.860999944262998
 20
10.77055329655074
 11
8.682812349021736
 21
10.76128754159819
 72
     2
 10
8.683834589932289
 20
10.74162906254913
 40
0.0196850393700787
 50
92.97669946811638
 51
180.0
 73
     1
 72
     1
 10
8.66414955056221
 20
10.74162906254913
 11
8.66414955056221
 21
10.72429220924573
 72
     1
 10
8.66414955056221
 20
10.72429220924573
 11
8.149590603689987
 21
10.70632386409219
 97
        0
 75
     0
 76
     1
 52
0.0
 41
1.25
 77
     0
 78
     1
 53
45.0
 43
0.0
 44
0.0
 45
-0.110485434560398
 46
0.1104854345603981
 79
     0
 98
        1
 10
0.0
 20
0.0
  0
HATCH
  5
56A
330
1F
100
AcDbEntity
  8
0
  6
Continuous
 62
     7
370
    18
100
AcDbHatch
 10
0.0
 20
0.0
 30
0.0
210
0.0
220
0.0
230
1.0
  2
ANSI31
 70
     0
 71
     0
 91
        1
 92
        0
 93
       16
 72
     1
 10
8.177708605680314
 20
8.139655874160242
 11
8.073598369459841
 21
8.139655874160242
 72
     1
 10
8.073598369459841
 20
8.139655874160242
 11
8.073598369459836
 21
6.582910559380107
 72
     2
 10
8.152338526940149
 20
6.582910559380107
 40
0.078740157480315
 50
180.0
 51
267.9942425103557
 73
     1
 72
     1
 10
8.149582627526533
 20
6.504218644609302
 11
8.664149550562197
 21
6.486250020726353
 72
     1
 10
8.664149550562197
 20
6.486250020726353
 11
8.664149550562197
 21
6.468877136851542
 72
     2
 10
8.683834589932275
 20
6.468877136851534
 40
0.0196850393700787
 50
179.9999999999768
 51
267.0233005318898
 73
     1
 72
     1
 10
8.682812349021724
 20
6.449218657802472
 11
8.860999944262986
 21
6.439952902849933
 72
     1
 10
8.860999944262986
 20
6.439952902849933
 11
8.860999944262986
 21
6.499006544582203
 72
     1
 10
8.860999944262986
 20
6.499006544582203
 11
8.762574747412591
 21
6.499006544582204
 72
     1
 10
8.762574747412591
 20
6.499006544582204
 11
8.762574747412591
 21
6.597429280802675
 72
     1
 10
8.762574747412591
 20
6.597429280802675
 11
8.9397401017433
 21
6.597429280802675
 72
     1
 10
8.9397401017433
 20
6.597429280802675
 11
8.9397401017433
 21
6.636798375290859
 72
     1
 10
8.9397401017433
 20
6.636798375290859
 11
8.860999944262984
 21
6.636798375290861
 72
     1
 10
8.860999944262984
 20
6.636798375290861
 11
8.191708605680308
 21
6.648609398912918
 72
     1
 10
8.191708605680308
 20
6.648609398912918
 11
8.177708605680309
 21
6.648609398912918
 72
     1
 10
8.177708605680309
 20
6.648609398912918
 11
8.177708605680314
 21
8.139655874160242
 97
        0
 75
     0
 76
     1
 52
0.0
 41
1.25
 77
     0
 78
     1
 53
45.0
 43
0.0
 44
0.0
 45
-0.110485434560398
 46
0.1104854345603981
 79
     0
 98
        1
 10
0.0
 20
0.0
  0
DIMENSION
  5
56B
330
1F
100
AcDbEntity
  8
0
  6
Continuous
 62
     7
370
    18
100
AcDbDimension
  2
_D_19
 10
10.7193936451
 20
8.2422177955
 30
0.0
 11
11.7639864335
 21
8.2422177955
 31
0.0
 70
   160
  1
<>
 71
     2
 42
-1.0
  3
SLDDIMSTYLE3
100
AcDbAlignedDimension
 13
10.6313936451
 23
8.5202002582
 33
0.0
 14
10.7193936451
 24
6.6261192414
 34
0.0
100
AcDbRotatedDimension
  0
DIMENSION
  5
57E
330
1F
100
AcDbEntity
  8
0
  6
Continuous
 62
     7
370
    18
100
AcDbDimension
  2
_D_20
 10
10.7113936451
 20
9.3190743235
 30
0.0
 11
11.7639864335
 21
9.3190743235
 31
0.0
 70
   160
  1
<> TYP.
 71
     2
 42
-1.0
  3
SLDDIMSTYLE3
100
AcDbAlignedDimension
 13
10.4413936451
 23
8.7427530997
 33
0.0
 14
10.7113936451
 24
8.9802530988
 34
0.0
 50
0.0
100
AcDbRotatedDimension
  0
DIMENSION
  5
590
330
1F
100
AcDbEntity
  8
0
  6
Continuous
 62
     7
370
    18
100
AcDbDimension
  2
_D_21
 10
8.0735983695
 20
7.6469736786
 30
0.0
 11
7.3204030594
 21
7.6469736786
 31
0.0
 70
   160
  1
<>
 71
     2
 42
-1.0
  3
SLDDIMSTYLE6
100
AcDbAlignedDimension
 13
8.1777086057
 23
6.6486093989
 33
0.0
 14
8.0735983695
 24
6.5829105594
 34
0.0
100
AcDbRotatedDimension
  0
DIMENSION
  5
5A3
330
1F
100
AcDbEntity
  8
0
  6
Continuous
 62
     7
370
    18
100
AcDbDimension
  2
_D_22
 10
10.8295038813
 20
7.6469736786
 30
0.0
 11
11.6573861885
 21
7.6469736786
 31
0.0
 70
   160
  1
<>
 71
     2
 42
-1.0
  3
SLDDIMSTYLE3
100
AcDbAlignedDimension
 13
10.7193936451
 23
6.6261192414
 33
0.0
 14
10.8295038813
 24
6.5336535284
 34
0.0
100
AcDbRotatedDimension
  0
DIMENSION
  5
5B5
330
1F
100
AcDbEntity
  8
0
  6
Continuous
 62
     7
370
    18
100
AcDbDimension
  2
_D_23
 10
8.1777086057
 20
7.6469736786
 30
0.0
 11
9.4485511254
 21
7.6469736786
 31
0.0
 70
   160
  1
<>
 71
     2
 42
-1.0
  3
SLDDIMSTYLE0
100
AcDbAlignedDimension
 13
10.7193936451
 23
6.6261192414
 33
0.0
 14
8.1777086057
 24
6.6486093989
 34
0.0
 50
0.0
100
AcDbRotatedDimension
  0
MTEXT
  5
5C7
330
1F
100
AcDbEntity
  8
0
  6
Continuous
 62
     7
370
    18
100
AcDbMText
 10
9.4445524613
 20
6.334157514
 30
0.0
 40
0.15625
 41
0.0
 71
     2
 72
     1
  1
SECTION A-A
  7
SLDTEXTSTYLE0
 73
     1
 44
1.0
  0
ENDSEC
  0
SECTION
  2
OBJECTS
  0
DICTIONARY
  5
C
330
0
100
AcDbDictionary
281
     1
  3
ACAD_GROUP
350
D
  3
ACAD_LAYOUT
350
1A
  3
ACAD_MLINESTYLE
350
17
  3
ACAD_PLOTSETTINGS
350
19
  3
ACAD_PLOTSTYLENAME
350
E
  3
ACAD_SCALELIST
350
47
  0
DICTIONARY
  5
D
102
{ACAD_REACTORS
330
C
102
}
330
C
100
AcDbDictionary
281
     1
  0
DICTIONARY
  5
1A
102
{ACAD_REACTORS
330
C
102
}
330
C
100
AcDbDictionary
281
     1
  3
Layout1
350
1E
  3
Layout2
350
26
  3
Model
350
22
  0
DICTIONARY
  5
17
102
{ACAD_REACTORS
330
C
102
}
330
C
100
AcDbDictionary
281
     1
  3
Standard
350
18
  0
DICTIONARY
  5
19
102
{ACAD_REACTORS
330
C
102
}
330
C
100
AcDbDictionary
281
     1
  0
ACDBDICTIONARYWDFLT
  5
E
102
{ACAD_REACTORS
330
C
102
}
330
C
100
AcDbDictionary
281
     1
  3
Normal
350
F
100
AcDbDictionaryWithDefault
340
F
  0
DICTIONARY
  5
47
102
{ACAD_REACTORS
330
C
102
}
330
C
100
AcDbDictionary
281
     1
  3
A0
350
48
  3
A1
350
49
  3
A2
350
4A
  3
A3
350
4B
  3
A4
350
4C
  3
A5
350
4D
  3
A6
350
4E
  3
A7
350
4F
  3
A8
350
50
  3
A9
350
51
  3
B0
350
52
  3
B1
350
53
  3
B2
350
54
  3
B3
350
55
  3
B4
350
56
  3
B5
350
57
  3
B6
350
58
  3
B7
350
59
  3
B8
350
5A
  3
B9
350
5B
  3
C0
350
5C
  3
C1
350
5D
  3
C2
350
5E
  3
C3
350
5F
  3
C4
350
60
  3
C5
350
61
  3
C6
350
62
  3
C7
350
63
  3
C8
350
64
  3
C9
350
65
  3
D0
350
66
  3
D1
350
67
  3
D2
350
68
  0
LAYOUT
  5
1E
102
{ACAD_REACTORS
330
1A
102
}
330
1A
100
AcDbPlotSettings
  1

  2
none_device
  4

  6

 40
0.0
 41
0.0
 42
0.0
 43
0.0
 44
0.0
 45
0.0
 46
0.0
 47
0.0
 48
0.0
 49
0.0
140
0.0
141
0.0
142
1.0
143
1.0
 70
   688
 72
     0
 73
     0
 74
     5
  7

 75
    16
147
1.0
148
0.0
149
0.0
100
AcDbLayout
  1
Layout1
 70
     1
 71
     1
 10
0.0
 20
0.0
 11
12.0
 21
9.0
 12
0.0
 22
0.0
 32
0.0
 14
1.0000000000E+20
 24
1.0000000000E+20
 34
1.0000000000E+20
 15
-1.0000000000E+20
 25
-1.0000000000E+20
 35
-1.0000000000E+20
146
0.0
 13
0.0
 23
0.0
 33
0.0
 16
1.0
 26
0.0
 36
0.0
 17
0.0
 27
1.0
 37
0.0
 76
     0
330
1B
  0
LAYOUT
  5
26
102
{ACAD_REACTORS
330
1A
102
}
330
1A
100
AcDbPlotSettings
  1

  2
none_device
  4

  6

 40
0.0
 41
0.0
 42
0.0
 43
0.0
 44
0.0
 45
0.0
 46
0.0
 47
0.0
 48
0.0
 49
0.0
140
0.0
141
0.0
142
1.0
143
1.0
 70
   688
 72
     0
 73
     0
 74
     5
  7

 75
    16
147
1.0
148
0.0
149
0.0
100
AcDbLayout
  1
Layout2
 70
     1
 71
     2
 10
0.0
 20
0.0
 11
0.0
 21
0.0
 12
0.0
 22
0.0
 32
0.0
 14
0.0
 24
0.0
 34
0.0
 15
0.0
 25
0.0
 35
0.0
146
0.0
 13
0.0
 23
0.0
 33
0.0
 16
1.0
 26
0.0
 36
0.0
 17
0.0
 27
1.0
 37
0.0
 76
     0
330
23
  0
LAYOUT
  5
22
102
{ACAD_REACTORS
330
1A
102
}
330
1A
100
AcDbPlotSettings
  1

  2
none_device
  4
Letter_(8.50_x_11.00_Inches)
  6

 40
6.35
 41
6.35
 42
6.35000508
 43
6.35000508
 44
215.9
 45
279.4
 46
0.0
 47
0.0
 48
0.0
 49
0.0
140
0.0
141
0.0
142
1.0
143
1.0
 70
  1712
 72
     0
 73
     0
 74
     0
  7

 75
     0
147
1.0
148
0.0
149
0.0
100
AcDbLayout
  1
Model
 70
     1
 71
     0
 10
0.0
 20
0.0
 11
21.25
 21
13.75
 12
0.0
 22
0.0
 32
0.0
 14
0.0
 24
0.0
 34
0.0
 15
21.25
 25
13.75
 35
0.0
146
0.0
 13
0.0
 23
0.0
 33
0.0
 16
1.0
 26
0.0
 36
0.0
 17
0.0
 27
1.0
 37
0.0
 76
     0
330
1F
331
29
  0
MLINESTYLE
  5
18
102
{ACAD_REACTORS
330
17
102
}
330
17
100
AcDbMlineStyle
  2
Standard
 70
     0
  3

 62
   256
 51
90.0
 52
90.0
 71
     2
 49
0.5
 62
   256
  6
BYLAYER
 49
-0.5
 62
   256
  6
BYLAYER
  0
ACDBPLACEHOLDER
  5
F
102
{ACAD_REACTORS
330
E
102
}
330
E
  0
SCALE
  5
48
102
{ACAD_REACTORS
330
47
102
}
330
47
100
AcDbScale
 70
     0
300
1:1
140
1.0
141
1.0
290
     1
  0
SCALE
  5
49
102
{ACAD_REACTORS
330
47
102
}
330
47
100
AcDbScale
 70
     0
300
1:2
140
1.0
141
2.0
290
     0
  0
SCALE
  5
4A
102
{ACAD_REACTORS
330
47
102
}
330
47
100
AcDbScale
 70
     0
300
1:4
140
1.0
141
4.0
290
     0
  0
SCALE
  5
4B
102
{ACAD_REACTORS
330
47
102
}
330
47
100
AcDbScale
 70
     0
300
1:5
140
1.0
141
5.0
290
     0
  0
SCALE
  5
4C
102
{ACAD_REACTORS
330
47
102
}
330
47
100
AcDbScale
 70
     0
300
1:8
140
1.0
141
8.0
290
     0
  0
SCALE
  5
4D
102
{ACAD_REACTORS
330
47
102
}
330
47
100
AcDbScale
 70
     0
300
1:10
140
1.0
141
10.0
290
     0
  0
SCALE
  5
4E
102
{ACAD_REACTORS
330
47
102
}
330
47
100
AcDbScale
 70
     0
300
1:16
140
1.0
141
16.0
290
     0
  0
SCALE
  5
4F
102
{ACAD_REACTORS
330
47
102
}
330
47
100
AcDbScale
 70
     0
300
1:20
140
1.0
141
20.0
290
     0
  0
SCALE
  5
50
102
{ACAD_REACTORS
330
47
102
}
330
47
100
AcDbScale
 70
     0
300
1:30
140
1.0
141
30.0
290
     0
  0
SCALE
  5
51
102
{ACAD_REACTORS
330
47
102
}
330
47
100
AcDbScale
 70
     0
300
1:40
140
1.0
141
40.0
290
     0
  0
SCALE
  5
52
102
{ACAD_REACTORS
330
47
102
}
330
47
100
AcDbScale
 70
     0
300
1:50
140
1.0
141
50.0
290
     0
  0
SCALE
  5
53
102
{ACAD_REACTORS
330
47
102
}
330
47
100
AcDbScale
 70
     0
300
1:100
140
1.0
141
100.0
290
     0
  0
SCALE
  5
54
102
{ACAD_REACTORS
330
47
102
}
330
47
100
AcDbScale
 70
     0
300
2:1
140
2.0
141
1.0
290
     0
  0
SCALE
  5
55
102
{ACAD_REACTORS
330
47
102
}
330
47
100
AcDbScale
 70
     0
300
4:1
140
4.0
141
1.0
290
     0
  0
SCALE
  5
56
102
{ACAD_REACTORS
330
47
102
}
330
47
100
AcDbScale
 70
     0
300
8:1
140
8.0
141
1.0
290
     0
  0
SCALE
  5
57
102
{ACAD_REACTORS
330
47
102
}
330
47
100
AcDbScale
 70
     0
300
10:1
140
10.0
141
1.0
290
     0
  0
SCALE
  5
58
102
{ACAD_REACTORS
330
47
102
}
330
47
100
AcDbScale
 70
     0
300
100:1
140
100.0
141
1.0
290
     0
  0
SCALE
  5
59
102
{ACAD_REACTORS
330
47
102
}
330
47
100
AcDbScale
 70
     0
300
1/128" = 1'-0"
140
0.0078125
141
12.0
290
     0
  0
SCALE
  5
5A
102
{ACAD_REACTORS
330
47
102
}
330
47
100
AcDbScale
 70
     0
300
1/64" = 1'-0"
140
0.015625
141
12.0
290
     0
  0
SCALE
  5
5B
102
{ACAD_REACTORS
330
47
102
}
330
47
100
AcDbScale
 70
     0
300
1/32" = 1'-0"
140
0.03125
141
12.0
290
     0
  0
SCALE
  5
5C
102
{ACAD_REACTORS
330
47
102
}
330
47
100
AcDbScale
 70
     0
300
1/16" = 1'-0"
140
0.0625
141
12.0
290
     0
  0
SCALE
  5
5D
102
{ACAD_REACTORS
330
47
102
}
330
47
100
AcDbScale
 70
     0
300
3/32" = 1'-0"
140
0.09375
141
12.0
290
     0
  0
SCALE
  5
5E
102
{ACAD_REACTORS
330
47
102
}
330
47
100
AcDbScale
 70
     0
300
1/8" = 1'-0"
140
0.125
141
12.0
290
     0
  0
SCALE
  5
5F
102
{ACAD_REACTORS
330
47
102
}
330
47
100
AcDbScale
 70
     0
300
3/16" = 1'-0"
140
0.1875
141
12.0
290
     0
  0
SCALE
  5
60
102
{ACAD_REACTORS
330
47
102
}
330
47
100
AcDbScale
 70
     0
300
1/4" = 1'-0"
140
0.25
141
12.0
290
     0
  0
SCALE
  5
61
102
{ACAD_REACTORS
330
47
102
}
330
47
100
AcDbScale
 70
     0
300
3/8" = 1'-0"
140
0.375
141
12.0
290
     0
  0
SCALE
  5
62
102
{ACAD_REACTORS
330
47
102
}
330
47
100
AcDbScale
 70
     0
300
1/2" = 1'-0"
140
0.5
141
12.0
290
     0
  0
SCALE
  5
63
102
{ACAD_REACTORS
330
47
102
}
330
47
100
AcDbScale
 70
     0
300
3/4" = 1'-0"
140
0.75
141
12.0
290
     0
  0
SCALE
  5
64
102
{ACAD_REACTORS
330
47
102
}
330
47
100
AcDbScale
 70
     0
300
1" = 1'-0"
140
1.0
141
12.0
290
     0
  0
SCALE
  5
65
102
{ACAD_REACTORS
330
47
102
}
330
47
100
AcDbScale
 70
     0
300
1-1/2" = 1'-0"
140
1.5
141
12.0
290
     0
  0
SCALE
  5
66
102
{ACAD_REACTORS
330
47
102
}
330
47
100
AcDbScale
 70
     0
300
3" = 1'-0"
140
3.0
141
12.0
290
     0
  0
SCALE
  5
67
102
{ACAD_REACTORS
330
47
102
}
330
47
100
AcDbScale
 70
     0
300
6" = 1'-0"
140
6.0
141
12.0
290
     0
  0
SCALE
  5
68
102
{ACAD_REACTORS
330
47
102
}
330
47
100
AcDbScale
 70
     0
300
1'-0" = 1'-0"
140
12.0
141
12.0
290
     0
  0
ENDSEC
  0
EOF
