  0
SECTION
  2
HEADER
  9
$ACADVER
  1
AC1015
  9
$ACADMAINTVER
 70
     6
  9
$DWGCODEPAGE
  3
ANSI_1252
  9
$INSBASE
 10
0.0
 20
0.0
 30
0.0
  9
$EXTMIN
 10
0.0
 20
0.0
 30
0.0
  9
$EXTMAX
 10
25.5
 20
16.5
 30
0.0
  9
$LIMMIN
 10
0.0
 20
0.0
  9
$LIMMAX
 10
25.5
 20
16.5
  9
$ORTHOMODE
 70
     0
  9
$REGENMODE
 70
     1
  9
$FILLMODE
 70
     1
  9
$QTEXTMODE
 70
     0
  9
$MIRRTEXT
 70
     1
  9
$LTSCALE
 40
1.5
  9
$ATTMODE
 70
     1
  9
$TEXTSIZE
 40
0.1875
  9
$TRACEWID
 40
0.05
  9
$TEXTSTYLE
  7
Standard
  9
$CLAYER
  8
0
  9
$CELTYPE
  6
ByLayer
  9
$CECOLOR
 62
   256
  9
$CELTSCALE
 40
1.0
  9
$DISPSILH
 70
     0
  9
$DIMSCALE
 40
1.0
  9
$DIMASZ
 40
0.195
  9
$DIMEXO
 40
0.075
  9
$DIMDLI
 40
0.38
  9
$DIMRND
 40
0.0
  9
$DIMDLE
 40
0.0
  9
$DIMEXE
 40
0.1875
  9
$DIMTP
 40
0.0
  9
$DIMTM
 40
0.0
  9
$DIMTXT
 40
0.1875
  9
$DIMCEN
 40
0.09
  9
$DIMTSZ
 40
0.0
  9
$DIMTOL
 70
     0
  9
$DIMLIM
 70
     0
  9
$DIMTIH
 70
     1
  9
$DIMTOH
 70
     1
  9
$DIMSE1
 70
     0
  9
$DIMSE2
 70
     0
  9
$DIMTAD
 70
     0
  9
$DIMZIN
 70
     0
  9
$DIMBLK
  1

  9
$DIMASO
 70
     1
  9
$DIMSHO
 70
     1
  9
$DIMPOST
  1

  9
$DIMAPOST
  1

  9
$DIMALT
 70
     0
  9
$DIMALTD
 70
     2
  9
$DIMALTF
 40
25.4
  9
$DIMLFAC
 40
1.0
  9
$DIMTOFL
 70
     0
  9
$DIMTVP
 40
0.0
  9
$DIMTIX
 70
     0
  9
$DIMSOXD
 70
     0
  9
$DIMSAH
 70
     0
  9
$DIMBLK1
  1

  9
$DIMBLK2
  1

  9
$DIMSTYLE
  2
Standard
  9
$DIMCLRD
 70
     0
  9
$DIMCLRE
 70
     0
  9
$DIMCLRT
 70
     0
  9
$DIMTFAC
 40
1.0
  9
$DIMGAP
 40
0.09
  9
$DIMJUST
 70
     0
  9
$DIMSD1
 70
     0
  9
$DIMSD2
 70
     0
  9
$DIMTOLJ
 70
     1
  9
$DIMTZIN
 70
     0
  9
$DIMALTZ
 70
     0
  9
$DIMALTTZ
 70
     0
  9
$DIMUPT
 70
     0
  9
$DIMDEC
 70
     2
  9
$DIMTDEC
 70
     2
  9
$DIMALTU
 70
     2
  9
$DIMALTTD
 70
     2
  9
$DIMTXSTY
  7
Standard
  9
$DIMAUNIT
 70
     0
  9
$DIMADEC
 70
     2
  9
$DIMALTRND
 40
0.0
  9
$DIMAZIN
 70
     0
  9
$DIMDSEP
 70
    46
  9
$DIMATFIT
 70
     3
  9
$DIMFRAC
 70
     0
  9
$DIMLDRBLK
  1

  9
$DIMLUNIT
 70
     2
  9
$DIMLWD
 70
    -2
  9
$DIMLWE
 70
    -2
  9
$DIMTMOVE
 70
     0
  9
$LUNITS
 70
     2
  9
$LUPREC
 70
     2
  9
$SKETCHINC
 40
0.1
  9
$FILLETRAD
 40
0.5
  9
$AUNITS
 70
     0
  9
$AUPREC
 70
     2
  9
$MENU
  1
.
  9
$ELEVATION
 40
0.0
  9
$PELEVATION
 40
0.0
  9
$THICKNESS
 40
0.0
  9
$LIMCHECK
 70
     0
  9
$CHAMFERA
 40
0.0
  9
$CHAMFERB
 40
0.0
  9
$CHAMFERC
 40
0.0
  9
$CHAMFERD
 40
0.0
  9
$SKPOLY
 70
     0
  9
$TDCREATE
 40
2458058.352594734
  9
$TDUCREATE
 40
2458058.519261401
  9
$TDUPDATE
 40
2458058.352598912
  9
$TDUUPDATE
 40
2458058.519265579
  9
$TDINDWG
 40
0.0000000116
  9
$TDUSRTIMER
 40
0.0000000116
  9
$USRTIMER
 70
     1
  9
$ANGBASE
 50
0.0
  9
$ANGDIR
 70
     0
  9
$PDMODE
 70
     0
  9
$PDSIZE
 40
-1.0
  9
$PLINEWID
 40
0.0
  9
$SPLFRAME
 70
     0
  9
$SPLINETYPE
 70
     6
  9
$SPLINESEGS
 70
     8
  9
$HANDSEED
  5
62C
  9
$SURFTAB1
 70
     6
  9
$SURFTAB2
 70
     6
  9
$SURFTYPE
 70
     6
  9
$SURFU
 70
     6
  9
$SURFV
 70
     6
  9
$UCSBASE
  2

  9
$UCSNAME
  2

  9
$UCSORG
 10
0.0
 20
0.0
 30
0.0
  9
$UCSXDIR
 10
1.0
 20
0.0
 30
0.0
  9
$UCSYDIR
 10
0.0
 20
1.0
 30
0.0
  9
$UCSORTHOREF
  2

  9
$UCSORTHOVIEW
 70
     0
  9
$UCSORGTOP
 10
0.0
 20
0.0
 30
0.0
  9
$UCSORGBOTTOM
 10
0.0
 20
0.0
 30
0.0
  9
$UCSORGLEFT
 10
0.0
 20
0.0
 30
0.0
  9
$UCSORGRIGHT
 10
0.0
 20
0.0
 30
0.0
  9
$UCSORGFRONT
 10
0.0
 20
0.0
 30
0.0
  9
$UCSORGBACK
 10
0.0
 20
0.0
 30
0.0
  9
$PUCSBASE
  2

  9
$PUCSNAME
  2

  9
$PUCSORG
 10
0.0
 20
0.0
 30
0.0
  9
$PUCSXDIR
 10
1.0
 20
0.0
 30
0.0
  9
$PUCSYDIR
 10
0.0
 20
1.0
 30
0.0
  9
$PUCSORTHOREF
  2

  9
$PUCSORTHOVIEW
 70
     0
  9
$PUCSORGTOP
 10
0.0
 20
0.0
 30
0.0
  9
$PUCSORGBOTTOM
 10
0.0
 20
0.0
 30
0.0
  9
$PUCSORGLEFT
 10
0.0
 20
0.0
 30
0.0
  9
$PUCSORGRIGHT
 10
0.0
 20
0.0
 30
0.0
  9
$PUCSORGFRONT
 10
0.0
 20
0.0
 30
0.0
  9
$PUCSORGBACK
 10
0.0
 20
0.0
 30
0.0
  9
$USERI1
 70
     0
  9
$USERI2
 70
     0
  9
$USERI3
 70
     0
  9
$USERI4
 70
     0
  9
$USERI5
 70
     0
  9
$USERR1
 40
0.0
  9
$USERR2
 40
0.0
  9
$USERR3
 40
0.0
  9
$USERR4
 40
0.0
  9
$USERR5
 40
0.0
  9
$WORLDVIEW
 70
     1
  9
$SHADEDGE
 70
     3
  9
$SHADEDIF
 70
    70
  9
$TILEMODE
 70
     1
  9
$MAXACTVP
 70
    64
  9
$PINSBASE
 10
0.0
 20
0.0
 30
0.0
  9
$PLIMCHECK
 70
     0
  9
$PEXTMIN
 10
1.0000000000E+20
 20
1.0000000000E+20
 30
1.0000000000E+20
  9
$PEXTMAX
 10
-1.0000000000E+20
 20
-1.0000000000E+20
 30
-1.0000000000E+20
  9
$PLIMMIN
 10
0.0
 20
0.0
  9
$PLIMMAX
 10
12.0
 20
9.0
  9
$UNITMODE
 70
     0
  9
$VISRETAIN
 70
     1
  9
$PLINEGEN
 70
     0
  9
$PSLTSCALE
 70
     1
  9
$TREEDEPTH
 70
  3020
  9
$CMLSTYLE
  2
Standard
  9
$CMLJUST
 70
     0
  9
$CMLSCALE
 40
1.0
  9
$PROXYGRAPHICS
 70
     1
  9
$MEASUREMENT
 70
     0
  9
$CELWEIGHT
370
    -1
  9
$ENDCAPS
280
     0
  9
$JOINSTYLE
280
     0
  9
$LWDISPLAY
290
     1
  9
$INSUNITS
 70
     1
  9
$HYPERLINKBASE
  1

  9
$STYLESHEET
  1

  9
$XEDIT
290
     1
  9
$CEPSNTYPE
380
     0
  9
$PSTYLEMODE
290
     1
  9
$FINGERPRINTGUID
  2
{7B8D0FB4-0AC2-4EA1-9DAD-26B3322160D9}
  9
$VERSIONGUID
  2
{FAEB1C32-E019-11D5-929B-00C0DF256EC4}
  9
$EXTNAMES
290
     1
  9
$PSVPSCALE
 40
0.0
  9
$OLESTARTUP
290
     0
  0
ENDSEC
  0
SECTION
  2
CLASSES
  0
CLASS
  1
ACDBDICTIONARYWDFLT
  2
AcDbDictionaryWithDefault
  3
ObjectDBX Classes
 90
        0
280
     0
281
     0
  0
CLASS
  1
VISUALSTYLE
  2
AcDbVisualStyle
  3
ObjectDBX Classes
 90
     4095
280
     0
281
     0
  0
CLASS
  1
MATERIAL
  2
AcDbMaterial
  3
ObjectDBX Classes
 90
     1153
280
     0
281
     0
  0
CLASS
  1
SCALE
  2
AcDbScale
  3
ObjectDBX Classes
 90
     1153
280
     0
281
     0
  0
CLASS
  1
TABLESTYLE
  2
AcDbTableStyle
  3
ObjectDBX Classes
 90
     4095
280
     0
281
     0
  0
CLASS
  1
MLEADERSTYLE
  2
AcDbMLeaderStyle
  3
ACDB_MLEADERSTYLE_CLASS
 90
     4095
280
     0
281
     0
  0
CLASS
  1
SUN
  2
AcDbSun
  3
SCENEOE
 90
     1153
280
     0
281
     0
  0
CLASS
  1
ACDBPLACEHOLDER
  2
AcDbPlaceHolder
  3
ObjectDBX Classes
 90
        0
280
     0
281
     0
  0
CLASS
  1
LAYOUT
  2
AcDbLayout
  3
ObjectDBX Classes
 90
        0
280
     0
281
     0
  0
ENDSEC
  0
SECTION
  2
TABLES
  0
TABLE
  2
VPORT
  5
8
330
0
100
AcDbSymbolTable
 70
     1
  0
VPORT
  5
29
330
8
100
AcDbSymbolTableRecord
100
AcDbViewportTableRecord
  2
*Active
 70
     0
 10
0.0
 20
0.0
 11
1.0
 21
1.0
 12
12.75
 22
8.25
 13
0.0
 23
0.0
 14
0.5
 24
0.5
 15
0.5
 25
0.5
 16
0.0
 26
0.0
 36
1.0
 17
0.0
 27
0.0
 37
0.0
 40
16.5
 41
1.5454545455
 42
50.0
 43
0.0
 44
0.0
 50
0.0
 51
0.0
 71
     0
 72
  2000
 73
     1
 74
     3
 75
     0
 76
     0
 77
     0
 78
     0
281
     0
 65
     1
110
0.0
120
0.0
130
0.0
111
1.0
121
0.0
131
0.0
112
0.0
122
1.0
132
0.0
 79
     0
146
0.0
  0
ENDTAB
  0
TABLE
  2
LTYPE
  5
5
330
0
100
AcDbSymbolTable
 70
     6
  0
LTYPE
  5
14
330
5
100
AcDbSymbolTableRecord
100
AcDbLinetypeTableRecord
  2
ByBlock
 70
     0
  3

 72
    65
 73
     0
 40
0.0
  0
LTYPE
  5
15
330
5
100
AcDbSymbolTableRecord
100
AcDbLinetypeTableRecord
  2
ByLayer
 70
     0
  3

 72
    65
 73
     0
 40
0.0
  0
LTYPE
  5
16
330
5
100
AcDbSymbolTableRecord
100
AcDbLinetypeTableRecord
  2
Continuous
 70
     0
  3
Solid line
 72
    65
 73
     0
 40
0.0
  0
LTYPE
  5
6E
330
5
100
AcDbSymbolTableRecord
100
AcDbLinetypeTableRecord
  2
HIDDEN
 70
     0
  3
Hidden __ __ __ __ __ __ __ __ __ __ __ __ __ __
 72
    65
 73
     2
 40
0.075
 49
0.05
 74
     0
 49
-0.025
 74
     0
  0
LTYPE
  5
6F
330
5
100
AcDbSymbolTableRecord
100
AcDbLinetypeTableRecord
  2
PHANTOM
 70
     0
  3
Phantom ______  __  __  ______  __  __  ______
 72
    65
 73
     6
 40
0.5
 49
0.25
 74
     0
 49
-0.05
 74
     0
 49
0.05
 74
     0
 49
-0.05
 74
     0
 49
0.05
 74
     0
 49
-0.05
 74
     0
  0
LTYPE
  5
70
330
5
100
AcDbSymbolTableRecord
100
AcDbLinetypeTableRecord
  2
CENTER
 70
     0
  3
Center ____ _ ____ _ ____ _ ____ _ ____ _ ____
 72
    65
 73
     4
 40
0.4
 49
0.25
 74
     0
 49
-0.05
 74
     0
 49
0.05
 74
     0
 49
-0.05
 74
     0
  0
LTYPE
  5
71
330
5
100
AcDbSymbolTableRecord
100
AcDbLinetypeTableRecord
  2
CENTERX2
 70
     0
  3
Center (2x) ________  __  ________  __  _____
 72
    65
 73
     4
 40
0.8
 49
0.5
 74
     0
 49
-0.1
 74
     0
 49
0.1
 74
     0
 49
-0.1
 74
     0
  0
LTYPE
  5
72
330
5
100
AcDbSymbolTableRecord
100
AcDbLinetypeTableRecord
  2
DOT2
 70
     0
  3
Dot (.5x) ........................................
 72
    65
 73
     2
 40
0.025
 49
0.0
 74
     0
 49
-0.025
 74
     0
  0
ENDTAB
  0
TABLE
  2
LAYER
  5
2
330
0
100
AcDbSymbolTable
 70
     1
  0
LAYER
  5
10
330
2
100
AcDbSymbolTableRecord
100
AcDbLayerTableRecord
  2
0
 70
     0
 62
     7
  6
Continuous
370
    -3
390
F
  0
ENDTAB
  0
TABLE
  2
STYLE
  5
3
330
0
100
AcDbSymbolTable
 70
     5
  0
STYLE
  5
11
330
3
100
AcDbSymbolTableRecord
100
AcDbTextStyleTableRecord
  2
Standard
 70
     0
 40
0.0
 41
1.0
 50
0.0
 71
     0
 42
0.1875
  3
txt
  4

  0
STYLE
  5
A6
330
3
100
AcDbSymbolTableRecord
100
AcDbTextStyleTableRecord
  2
SLDTEXTSTYLE0
 70
     0
 40
0.0
 41
0.75
 50
0.0
 71
     0
 42
0.1875
  3
TXT
  4

  0
STYLE
  5
BB
330
3
100
AcDbSymbolTableRecord
100
AcDbTextStyleTableRecord
  2
SLDTEXTSTYLE1
 70
     0
 40
0.0
 41
0.7
 50
0.0
 71
     0
 42
0.1875
  3
TXT
  4

  0
STYLE
  5
C0
330
3
100
AcDbSymbolTableRecord
100
AcDbTextStyleTableRecord
  2
SLDTEXTSTYLE2
 70
     0
 40
0.0
 41
0.6990740741
 50
0.0
 71
     0
 42
0.1875
  3
TXT
  4

  0
STYLE
  5
C7
330
3
100
AcDbSymbolTableRecord
100
AcDbTextStyleTableRecord
  2
SLDTEXTSTYLE3
 70
     0
 40
0.0
 41
0.6693548387
 50
0.0
 71
     0
 42
0.1875
  3
TXT
  4

  0
ENDTAB
  0
TABLE
  2
VIEW
  5
6
330
0
100
AcDbSymbolTable
 70
     0
  0
ENDTAB
  0
TABLE
  2
UCS
  5
7
330
0
100
AcDbSymbolTable
 70
     0
  0
ENDTAB
  0
TABLE
  2
APPID
  5
9
330
0
100
AcDbSymbolTable
 70
     1
  0
APPID
  5
12
330
9
100
AcDbSymbolTableRecord
100
AcDbRegAppTableRecord
  2
ACAD
 70
     0
  0
ENDTAB
  0
TABLE
  2
DIMSTYLE
  5
A
330
0
100
AcDbSymbolTable
 70
     5
100
AcDbDimStyleTable
  0
DIMSTYLE
105
27
330
A
100
AcDbSymbolTableRecord
100
AcDbDimStyleTableRecord
  2
Standard
 70
     0
178
     0
340
11
  0
DIMSTYLE
105
14D
102
{ACAD_REACTORS
330
14C
330
161
330
175
330
189
330
19D
330
1B1
330
2BC
330
2D0
330
44C
330
460
330
474
330
488
330
49C
330
4E3
330
4F7
102
}
330
A
100
AcDbSymbolTableRecord
100
AcDbDimStyleTableRecord
  2
SLDDIMSTYLE0
 70
     0
 41
0.195
 44
0.0
 45
0.000000001
 78
    12
 79
     3
140
0.1875
147
0.046875
148
0.000000001
170
     1
173
     1
178
     0
271
     2
272
     2
276
     2
284
    12
340
A6
  0
DIMSTYLE
105
1C6
102
{ACAD_REACTORS
330
1C5
330
4B0
330
4C1
330
4D2
102
}
330
A
100
AcDbSymbolTableRecord
100
AcDbDimStyleTableRecord
  2
SLDDIMSTYLE1
 70
     0
 41
0.195
 44
0.0
 45
0.000000001
 78
    12
 79
     3
140
0.1875
141
0.0
147
0.046875
148
0.000000001
170
     1
173
     1
178
     0
271
     2
272
     2
276
     2
284
    12
340
A6
  0
DIMSTYLE
105
2E5
102
{ACAD_REACTORS
330
2E4
330
2F9
330
5F2
330
604
330
616
102
}
330
A
100
AcDbSymbolTableRecord
100
AcDbDimStyleTableRecord
  2
SLDDIMSTYLE2
 70
     0
 41
0.195
 44
0.0
 45
0.000000001
 78
    12
 79
     3
140
0.1875
147
0.046875
148
0.000000001
170
     1
172
     1
173
     1
178
     0
271
     2
272
     2
276
     2
284
    12
289
     0
340
A6
  0
DIMSTYLE
105
5E0
102
{ACAD_REACTORS
330
5DF
102
}
330
A
100
AcDbSymbolTableRecord
100
AcDbDimStyleTableRecord
  2
SLDDIMSTYLE3
 70
     0
 41
0.195
 44
0.0
 45
0.000000001
 78
     4
 79
     1
140
0.1875
147
0.046875
148
0.000000001
170
     1
173
     1
178
     0
271
     2
272
     2
276
     2
284
    12
340
A6
  0
ENDTAB
  0
TABLE
  2
BLOCK_RECORD
  5
1
330
0
100
AcDbSymbolTable
 70
    48
  0
BLOCK_RECORD
  5
1F
330
1
100
AcDbSymbolTableRecord
100
AcDbBlockTableRecord
  2
*Model_Space
340
22
  0
BLOCK_RECORD
  5
1B
330
1
100
AcDbSymbolTableRecord
100
AcDbBlockTableRecord
  2
*Paper_Space
340
1E
  0
BLOCK_RECORD
  5
23
330
1
100
AcDbSymbolTableRecord
100
AcDbBlockTableRecord
  2
*Paper_Space0
340
26
  0
BLOCK_RECORD
  5
A3
330
1
100
AcDbSymbolTableRecord
100
AcDbBlockTableRecord
  2
SW_NOTE_0
340
0
102
{BLKREFS
331
AB
102
}
  0
BLOCK_RECORD
  5
AC
330
1
100
AcDbSymbolTableRecord
100
AcDbBlockTableRecord
  2
SW_NOTE_1
340
0
102
{BLKREFS
331
B4
102
}
  0
BLOCK_RECORD
  5
B5
330
1
100
AcDbSymbolTableRecord
100
AcDbBlockTableRecord
  2
SW_NOTE_2
340
0
102
{BLKREFS
331
C4
102
}
  0
BLOCK_RECORD
  5
C9
330
1
100
AcDbSymbolTableRecord
100
AcDbBlockTableRecord
  2
SW_NOTE_3
340
0
102
{BLKREFS
331
CE
102
}
  0
BLOCK_RECORD
  5
CF
330
1
100
AcDbSymbolTableRecord
100
AcDbBlockTableRecord
  2
SW_NOTE_4
340
0
102
{BLKREFS
331
D4
102
}
  0
BLOCK_RECORD
  5
D5
330
1
100
AcDbSymbolTableRecord
100
AcDbBlockTableRecord
  2
SW_NOTE_5
340
0
102
{BLKREFS
331
DA
102
}
  0
BLOCK_RECORD
  5
14E
330
1
100
AcDbSymbolTableRecord
100
AcDbBlockTableRecord
  2
_D
340
0
  0
BLOCK_RECORD
  5
162
330
1
100
AcDbSymbolTableRecord
100
AcDbBlockTableRecord
  2
_D_1
340
0
  0
BLOCK_RECORD
  5
176
330
1
100
AcDbSymbolTableRecord
100
AcDbBlockTableRecord
  2
_D_2
340
0
  0
BLOCK_RECORD
  5
18A
330
1
100
AcDbSymbolTableRecord
100
AcDbBlockTableRecord
  2
_D_3
340
0
  0
BLOCK_RECORD
  5
19E
330
1
100
AcDbSymbolTableRecord
100
AcDbBlockTableRecord
  2
_D_4
340
0
  0
BLOCK_RECORD
  5
1B2
330
1
100
AcDbSymbolTableRecord
100
AcDbBlockTableRecord
  2
_D_5
340
0
  0
BLOCK_RECORD
  5
1C7
330
1
100
AcDbSymbolTableRecord
100
AcDbBlockTableRecord
  2
_D_6
340
0
  0
BLOCK_RECORD
  5
1D9
330
1
100
AcDbSymbolTableRecord
100
AcDbBlockTableRecord
  2
SW_CENTERMARKSYMBOL_0
340
0
102
{BLKREFS
331
1E4
102
}
  0
BLOCK_RECORD
  5
1E5
330
1
100
AcDbSymbolTableRecord
100
AcDbBlockTableRecord
  2
SW_CENTERMARKSYMBOL_1
340
0
102
{BLKREFS
331
1F0
102
}
  0
BLOCK_RECORD
  5
1F1
330
1
100
AcDbSymbolTableRecord
100
AcDbBlockTableRecord
  2
SW_CENTERMARKSYMBOL_2
340
0
102
{BLKREFS
331
1FC
102
}
  0
BLOCK_RECORD
  5
1FD
330
1
100
AcDbSymbolTableRecord
100
AcDbBlockTableRecord
  2
SW_CENTERMARKSYMBOL_3
340
0
102
{BLKREFS
331
208
102
}
  0
BLOCK_RECORD
  5
209
330
1
100
AcDbSymbolTableRecord
100
AcDbBlockTableRecord
  2
SW_CENTERMARKSYMBOL_4
340
0
102
{BLKREFS
331
214
102
}
  0
BLOCK_RECORD
  5
215
330
1
100
AcDbSymbolTableRecord
100
AcDbBlockTableRecord
  2
SW_CENTERMARKSYMBOL_5
340
0
102
{BLKREFS
331
220
102
}
  0
BLOCK_RECORD
  5
221
330
1
100
AcDbSymbolTableRecord
100
AcDbBlockTableRecord
  2
SW_CENTERMARKSYMBOL_6
340
0
102
{BLKREFS
331
22C
102
}
  0
BLOCK_RECORD
  5
22D
330
1
100
AcDbSymbolTableRecord
100
AcDbBlockTableRecord
  2
SW_CENTERMARKSYMBOL_7
340
0
102
{BLKREFS
331
238
102
}
  0
BLOCK_RECORD
  5
239
330
1
100
AcDbSymbolTableRecord
100
AcDbBlockTableRecord
  2
SW_CENTERMARKSYMBOL_8
340
0
102
{BLKREFS
331
244
102
}
  0
BLOCK_RECORD
  5
245
330
1
100
AcDbSymbolTableRecord
100
AcDbBlockTableRecord
  2
SW_CENTERMARKSYMBOL_9
340
0
102
{BLKREFS
331
250
102
}
  0
BLOCK_RECORD
  5
251
330
1
100
AcDbSymbolTableRecord
100
AcDbBlockTableRecord
  2
SW_CENTERMARKSYMBOL_10
340
0
102
{BLKREFS
331
25C
102
}
  0
BLOCK_RECORD
  5
25D
330
1
100
AcDbSymbolTableRecord
100
AcDbBlockTableRecord
  2
SW_CENTERMARKSYMBOL_11
340
0
102
{BLKREFS
331
268
102
}
  0
BLOCK_RECORD
  5
2BD
330
1
100
AcDbSymbolTableRecord
100
AcDbBlockTableRecord
  2
_D_7
340
0
  0
BLOCK_RECORD
  5
2D1
330
1
100
AcDbSymbolTableRecord
100
AcDbBlockTableRecord
  2
_D_8
340
0
  0
BLOCK_RECORD
  5
2E6
330
1
100
AcDbSymbolTableRecord
100
AcDbBlockTableRecord
  2
_D_9
340
0
  0
BLOCK_RECORD
  5
2FA
330
1
100
AcDbSymbolTableRecord
100
AcDbBlockTableRecord
  2
_D_10
340
0
  0
BLOCK_RECORD
  5
44D
330
1
100
AcDbSymbolTableRecord
100
AcDbBlockTableRecord
  2
_D_11
340
0
  0
BLOCK_RECORD
  5
461
330
1
100
AcDbSymbolTableRecord
100
AcDbBlockTableRecord
  2
_D_12
340
0
  0
BLOCK_RECORD
  5
475
330
1
100
AcDbSymbolTableRecord
100
AcDbBlockTableRecord
  2
_D_13
340
0
  0
BLOCK_RECORD
  5
489
330
1
100
AcDbSymbolTableRecord
100
AcDbBlockTableRecord
  2
_D_14
340
0
  0
BLOCK_RECORD
  5
49D
330
1
100
AcDbSymbolTableRecord
100
AcDbBlockTableRecord
  2
_D_15
340
0
  0
BLOCK_RECORD
  5
4B1
330
1
100
AcDbSymbolTableRecord
100
AcDbBlockTableRecord
  2
_D_16
340
0
  0
BLOCK_RECORD
  5
4C2
330
1
100
AcDbSymbolTableRecord
100
AcDbBlockTableRecord
  2
_D_17
340
0
  0
BLOCK_RECORD
  5
4D3
330
1
100
AcDbSymbolTableRecord
100
AcDbBlockTableRecord
  2
_D_18
340
0
  0
BLOCK_RECORD
  5
4E4
330
1
100
AcDbSymbolTableRecord
100
AcDbBlockTableRecord
  2
_D_19
340
0
  0
BLOCK_RECORD
  5
4F8
330
1
100
AcDbSymbolTableRecord
100
AcDbBlockTableRecord
  2
_D_20
340
0
  0
BLOCK_RECORD
  5
50B
330
1
100
AcDbSymbolTableRecord
100
AcDbBlockTableRecord
  2
SW_CENTERMARKSYMBOL_12
340
0
102
{BLKREFS
331
516
102
}
  0
BLOCK_RECORD
  5
517
330
1
100
AcDbSymbolTableRecord
100
AcDbBlockTableRecord
  2
SW_CENTERMARKSYMBOL_13
340
0
102
{BLKREFS
331
522
102
}
  0
BLOCK_RECORD
  5
523
330
1
100
AcDbSymbolTableRecord
100
AcDbBlockTableRecord
  2
SW_CENTERMARKSYMBOL_14
340
0
102
{BLKREFS
331
52E
102
}
  0
BLOCK_RECORD
  5
52F
330
1
100
AcDbSymbolTableRecord
100
AcDbBlockTableRecord
  2
SW_CENTERMARKSYMBOL_15
340
0
102
{BLKREFS
331
53A
102
}
  0
BLOCK_RECORD
  5
5E1
330
1
100
AcDbSymbolTableRecord
100
AcDbBlockTableRecord
  2
_D_21
340
0
  0
BLOCK_RECORD
  5
5F3
330
1
100
AcDbSymbolTableRecord
100
AcDbBlockTableRecord
  2
_D_22
340
0
  0
BLOCK_RECORD
  5
605
330
1
100
AcDbSymbolTableRecord
100
AcDbBlockTableRecord
  2
_D_23
340
0
  0
BLOCK_RECORD
  5
617
330
1
100
AcDbSymbolTableRecord
100
AcDbBlockTableRecord
  2
_D_24
340
0
  0
ENDTAB
  0
ENDSEC
  0
SECTION
  2
BLOCKS
  0
BLOCK
  5
20
330
1F
100
AcDbEntity
  8
0
100
AcDbBlockBegin
  2
*Model_Space
 70
     0
 10
0.0
 20
0.0
 30
0.0
  3
*Model_Space
  1

  0
ENDBLK
  5
21
330
1F
100
AcDbEntity
  8
0
100
AcDbBlockEnd
  0
BLOCK
  5
1C
330
1B
100
AcDbEntity
 67
     1
  8
0
100
AcDbBlockBegin
  2
*Paper_Space
 70
     0
 10
0.0
 20
0.0
 30
0.0
  3
*Paper_Space
  1

  0
ENDBLK
  5
1D
330
1B
100
AcDbEntity
 67
     1
  8
0
100
AcDbBlockEnd
  0
BLOCK
  5
24
330
23
100
AcDbEntity
  8
0
100
AcDbBlockBegin
  2
*Paper_Space0
 70
     0
 10
0.0
 20
0.0
 30
0.0
  3
*Paper_Space0
  1

  0
ENDBLK
  5
25
330
23
100
AcDbEntity
  8
0
100
AcDbBlockEnd
  0
BLOCK
  5
A4
330
A3
100
AcDbEntity
  8
0
100
AcDbBlockBegin
  2
SW_NOTE_0
 70
     0
 10
0.0
 20
0.0
 30
0.0
  3
SW_NOTE_0
  1

  0
MTEXT
  5
A7
330
A3
100
AcDbEntity
  8
0
  6
Continuous
 62
     0
370
     0
100
AcDbMText
 10
1.5322265625
 20
0.2417002012
 30
0.0
 40
0.1875
 41
0.0
 71
     2
 72
     1
  1
DRAWING FOR REFERENCE
  7
SLDTEXTSTYLE0
 73
     1
 44
1.0
  0
MTEXT
  5
A8
330
A3
100
AcDbEntity
  8
0
  6
Continuous
 62
     0
370
     0
100
AcDbMText
 10
1.5424903937
 20
-0.0321718194
 30
0.0
 40
0.093
 41
0.0
 71
     2
 72
     1
  1
WE RESERVE THE RIGHT TO MAKE CHANGES TO OUR
  7
SLDTEXTSTYLE0
 73
     1
 44
1.0
  0
MTEXT
  5
A9
330
A3
100
AcDbEntity
  8
0
  6
Continuous
 62
     0
370
     0
100
AcDbMText
 10
1.534869547
 20
-0.1842269404
 30
0.0
 40
0.093
 41
0.0
 71
     2
 72
     1
  1
STANDARD PRODUCTS. PLEASE CONSULT WITH BUD INDUSTRIES
  7
SLDTEXTSTYLE0
 73
     1
 44
1.0
  0
MTEXT
  5
AA
330
A3
100
AcDbEntity
  8
0
  6
Continuous
 62
     0
370
     0
100
AcDbMText
 10
1.5504985027
 20
-0.3362820613
 30
0.0
 40
0.093
 41
0.0
 71
     2
 72
     1
  1
PRIOR TO USING THIS DRAWING FOR DESIGN PURPOSE.
  7
SLDTEXTSTYLE0
 73
     1
 44
1.0
  0
ENDBLK
  5
A5
330
A3
100
AcDbEntity
  8
0
100
AcDbBlockEnd
  0
BLOCK
  5
AD
330
AC
100
AcDbEntity
  8
0
100
AcDbBlockBegin
  2
SW_NOTE_1
 70
     0
 10
0.0
 20
0.0
 30
0.0
  3
SW_NOTE_1
  1

  0
MTEXT
  5
AF
330
AC
100
AcDbEntity
  8
0
  6
Continuous
 62
     0
370
     0
100
AcDbMText
 10
0.0
 20
0.2417002012
 30
0.0
 40
0.1875
 41
0.0
 71
     1
 72
     1
  1
OPTIONAL ACCESSORIES:
  7
SLDTEXTSTYLE0
 73
     1
 44
1.0
  0
MTEXT
  5
B0
330
AC
100
AcDbEntity
  8
0
  6
Continuous
 62
     0
370
     0
100
AcDbMText
 10
0.140625
 20
-0.0048549106
 30
0.0
 40
0.1875
 41
0.0
 71
     1
 72
     1
  1
STEEL INTERNAL PANEL #PTX-25310
  7
SLDTEXTSTYLE0
 73
     1
 44
1.0
  0
MTEXT
  5
B1
330
AC
100
AcDbEntity
  8
0
  6
Continuous
 62
     0
370
     0
100
AcDbMText
 10
0.140625
 20
-0.2514100223
 30
0.0
 40
0.1875
 41
0.0
 71
     1
 72
     1
  1
PLASTIC INTERNAL PANEL #PTX-25310-P
  7
SLDTEXTSTYLE0
 73
     1
 44
1.0
  0
MTEXT
  5
B2
330
AC
100
AcDbEntity
  8
0
  6
Continuous
 62
     0
370
     0
100
AcDbMText
 10
0.140625
 20
-0.4979651341
 30
0.0
 40
0.1875
 41
0.0
 71
     1
 72
     1
  1
MOUNTING BRACKET KIT (STAINLESS STEEL) #NBX-10922
  7
SLDTEXTSTYLE0
 73
     1
 44
1.0
  0
MTEXT
  5
B3
330
AC
100
AcDbEntity
  8
0
  6
Continuous
 62
     0
370
     0
100
AcDbMText
 10
0.140625
 20
-0.7445202459
 30
0.0
 40
0.1875
 41
0.0
 71
     1
 72
     1
  1
MOUNTING BRACKET KIT (PLASTIC) #PIX-4117
  7
SLDTEXTSTYLE0
 73
     1
 44
1.0
  0
ENDBLK
  5
AE
330
AC
100
AcDbEntity
  8
0
100
AcDbBlockEnd
  0
BLOCK
  5
B6
330
B5
100
AcDbEntity
  8
0
100
AcDbBlockBegin
  2
SW_NOTE_2
 70
     0
 10
0.0
 20
0.0
 30
0.0
  3
SW_NOTE_2
  1

  0
MTEXT
  5
B8
330
B5
100
AcDbEntity
  8
0
  6
Continuous
 62
     0
370
     0
100
AcDbMText
 10
0.0
 20
0.2417002012
 30
0.0
 40
0.1875
 41
0.0
 71
     1
 72
     1
  1
NOTES:
  7
SLDTEXTSTYLE0
 73
     1
 44
1.0
  0
MTEXT
  5
B9
330
B5
100
AcDbEntity
  8
0
  6
Continuous
 62
     0
370
     0
100
AcDbMText
 10
0.0
 20
-0.0048549106
 30
0.0
 40
0.1875
 41
0.0
 71
     1
 72
     1
  1
1- MATERIAL:  BODY - GRAY POLYCARBONATE RESIN 10% GLASS FIBER FILLED
  7
SLDTEXTSTYLE0
 73
     1
 44
1.0
  0
MTEXT
  5
BA
330
B5
100
AcDbEntity
  8
0
  6
Continuous
 62
     0
370
     0
100
AcDbMText
 10
1.546875
 20
-0.2514100223
 30
0.0
 40
0.1875
 41
0.0
 71
     1
 72
     1
  1
COVER - GRAY OR CLEAR (-C SUFFIX) POLYCARBONATE
  7
SLDTEXTSTYLE0
 73
     1
 44
1.0
  0
MTEXT
  5
BC
330
B5
100
AcDbEntity
  8
0
  6
Continuous
 62
     0
370
     0
100
AcDbMText
 10
0.0
 20
-0.7445202459
 30
0.0
 40
0.1875
 41
0.0
 71
     1
 72
     1
  1
2- UL508 / NEMA TYPE 4X WITH IP-67 TUV RATING & UL-94V0
  7
SLDTEXTSTYLE1
 73
     1
 44
1.0
  0
MTEXT
  5
BD
330
B5
100
AcDbEntity
  8
0
  6
Continuous
 62
     0
370
     0
100
AcDbMText
 10
0.0
 20
-1.2376304694
 30
0.0
 40
0.1875
 41
0.0
 71
     1
 72
     1
  1
3- CONTINUOUS POURED FOAM GASKET IN COVER
  7
SLDTEXTSTYLE0
 73
     1
 44
1.0
  0
MTEXT
  5
BE
330
B5
100
AcDbEntity
  8
0
  6
Continuous
 62
     0
370
     0
100
AcDbMText
 10
0.0
 20
-1.730740693
 30
0.0
 40
0.1875
 41
0.0
 71
     1
 72
     1
  1
4- COVER ATTACHES WITH NON-METALLIC CAPTIVE SCREWS
  7
SLDTEXTSTYLE0
 73
     1
 44
1.0
  0
MTEXT
  5
BF
330
B5
100
AcDbEntity
  8
0
  6
Continuous
 62
     0
370
     0
100
AcDbMText
 10
0.4921875
 20
-1.9772958048
 30
0.0
 40
0.1875
 41
0.0
 71
     1
 72
     1
  1
(ITEMS NOT SHOWN)
  7
SLDTEXTSTYLE0
 73
     1
 44
1.0
  0
MTEXT
  5
C1
330
B5
100
AcDbEntity
  8
0
  6
Continuous
 62
     0
370
     0
100
AcDbMText
 10
0.0
 20
-2.4704060283
 30
0.0
 40
0.1875
 41
0.0
 71
     1
 72
     1
  1
5- SUPPLIED WITH TWO M4 x 8mm LG. PAN HEAD ZINC PLATED
  7
SLDTEXTSTYLE2
 73
     1
 44
1.0
  0
MTEXT
  5
C2
330
B5
100
AcDbEntity
  8
0
  6
Continuous
 62
     0
370
     0
100
AcDbMText
 10
0.5625
 20
-2.7169611401
 30
0.0
 40
0.1875
 41
0.0
 71
     1
 72
     1
  1
STEEL SCREWS (ITEMS NOT SHOWN)
  7
SLDTEXTSTYLE0
 73
     1
 44
1.0
  0
MTEXT
  5
C3
330
B5
100
AcDbEntity
  8
0
  6
Continuous
 62
     0
370
     0
100
AcDbMText
 10
0.0
 20
-3.2100713636
 30
0.0
 40
0.1875
 41
0.0
 71
     1
 72
     1
  1
6- DIMENSIONS ARE INCH [MM]
  7
SLDTEXTSTYLE0
 73
     1
 44
1.0
  0
ENDBLK
  5
B7
330
B5
100
AcDbEntity
  8
0
100
AcDbBlockEnd
  0
BLOCK
  5
CA
330
C9
100
AcDbEntity
  8
0
100
AcDbBlockBegin
  2
SW_NOTE_3
 70
     0
 10
0.0
 20
0.0
 30
0.0
  3
SW_NOTE_3
  1

  0
MTEXT
  5
CC
330
C9
100
AcDbEntity
  8
0
  6
Continuous
 62
     0
370
     0
100
AcDbMText
 10
0.2841796875
 20
0.2417002012
 30
0.0
 40
0.1875
 41
0.0
 71
     2
 72
     1
  1
PART
  7
SLDTEXTSTYLE0
 73
     1
 44
1.0
  0
MTEXT
  5
CD
330
C9
100
AcDbEntity
  8
0
  6
Continuous
 62
     0
370
     0
100
AcDbMText
 10
0.2816569051
 20
-0.0048549106
 30
0.0
 40
0.1875
 41
0.0
 71
     2
 72
     1
  1
NAME
  7
SLDTEXTSTYLE0
 73
     1
 44
1.0
  0
ENDBLK
  5
CB
330
C9
100
AcDbEntity
  8
0
100
AcDbBlockEnd
  0
BLOCK
  5
D0
330
CF
100
AcDbEntity
  8
0
100
AcDbBlockBegin
  2
SW_NOTE_4
 70
     0
 10
0.0
 20
0.0
 30
0.0
  3
SW_NOTE_4
  1

  0
MTEXT
  5
D2
330
CF
100
AcDbEntity
  8
0
  6
Continuous
 62
     0
370
     0
100
AcDbMText
 10
0.2841796875
 20
0.2417002012
 30
0.0
 40
0.1875
 41
0.0
 71
     2
 72
     1
  1
PART
  7
SLDTEXTSTYLE0
 73
     1
 44
1.0
  0
MTEXT
  5
D3
330
CF
100
AcDbEntity
  8
0
  6
Continuous
 62
     0
370
     0
100
AcDbMText
 10
0.2926432322
 20
-0.0048549106
 30
0.0
 40
0.1875
 41
0.0
 71
     2
 72
     1
  1
No.
  7
SLDTEXTSTYLE0
 73
     1
 44
1.0
  0
ENDBLK
  5
D1
330
CF
100
AcDbEntity
  8
0
100
AcDbBlockEnd
  0
BLOCK
  5
D6
330
D5
100
AcDbEntity
  8
0
100
AcDbBlockBegin
  2
SW_NOTE_5
 70
     0
 10
0.0
 20
0.0
 30
0.0
  3
SW_NOTE_5
  1

  0
MTEXT
  5
D8
330
D5
100
AcDbEntity
  8
0
  6
Continuous
 62
     0
370
     0
100
AcDbMText
 10
0.55078125
 20
0.2417002012
 30
0.0
 40
0.1875
 41
0.0
 71
     2
 72
     1
  1
REVISION
  7
SLDTEXTSTYLE0
 73
     1
 44
1.0
  0
MTEXT
  5
D9
330
D5
100
AcDbEntity
  8
0
  6
Continuous
 62
     0
370
     0
100
AcDbMText
 10
0.5302408854
 20
-0.0048549106
 30
0.0
 40
0.1875
 41
0.0
 71
     2
 72
     1
  1
DATE
  7
SLDTEXTSTYLE0
 73
     1
 44
1.0
  0
ENDBLK
  5
D7
330
D5
100
AcDbEntity
  8
0
100
AcDbBlockEnd
  0
BLOCK
  5
14F
330
14E
100
AcDbEntity
  8
0
100
AcDbBlockBegin
  2
_D
 70
     0
 10
0.0
 20
0.0
 30
0.0
  3
_D
  1

  0
SOLID
  5
151
330
14E
100
AcDbEntity
  8
0
  6
Continuous
 62
     7
370
    18
100
AcDbTrace
 10
2.5997134668
 20
14.8959677378
 30
0.0
 11
2.7947134668
 21
14.8659677378
 31
0.0
 12
2.7947134668
 22
14.9259677378
 32
0.0
 13
2.7947134668
 23
14.9259677378
 33
0.0
  0
SOLID
  5
152
330
14E
100
AcDbEntity
  8
0
  6
Continuous
 62
     7
370
    18
100
AcDbTrace
 10
7.5209733093
 20
14.8959677378
 30
0.0
 11
7.3259733093
 21
14.9259677378
 31
0.0
 12
7.3259733093
 22
14.8659677378
 32
0.0
 13
7.3259733093
 23
14.8659677378
 33
0.0
  0
LINE
  5
153
330
14E
100
AcDbEntity
  8
0
  6
Continuous
 62
     7
370
    18
100
AcDbLine
 10
4.8525309012
 20
14.8945354169
 30
0.0
 11
4.7954019955
 21
14.8945354169
 31
0.0
  0
LINE
  5
154
330
14E
100
AcDbEntity
  8
0
  6
Continuous
 62
     7
370
    18
100
AcDbLine
 10
4.7954019955
 20
14.8945354169
 30
0.0
 11
4.7954019955
 21
14.5968791579
 31
0.0
  0
LINE
  5
155
330
14E
100
AcDbEntity
  8
0
  6
Continuous
 62
     7
370
    18
100
AcDbLine
 10
4.7954019955
 20
14.5968791579
 30
0.0
 11
4.8525309012
 21
14.5968791579
 31
0.0
  0
LINE
  5
156
330
14E
100
AcDbEntity
  8
0
  6
Continuous
 62
     7
370
    18
100
AcDbLine
 10
5.2681559024
 20
14.8945354169
 30
0.0
 11
5.325284808
 21
14.8945354169
 31
0.0
  0
LINE
  5
157
330
14E
100
AcDbEntity
  8
0
  6
Continuous
 62
     7
370
    18
100
AcDbLine
 10
5.325284808
 20
14.8945354169
 30
0.0
 11
5.325284808
 21
14.5968791579
 31
0.0
  0
LINE
  5
158
330
14E
100
AcDbEntity
  8
0
  6
Continuous
 62
     7
370
    18
100
AcDbLine
 10
5.325284808
 20
14.5968791579
 30
0.0
 11
5.2681559024
 21
14.5968791579
 31
0.0
  0
LINE
  5
159
330
14E
100
AcDbEntity
  8
0
  6
Continuous
 62
     7
370
    18
100
AcDbLine
 10
2.5997134668
 20
12.5884508292
 30
0.0
 11
2.5997134668
 21
15.0834677378
 31
0.0
  0
LINE
  5
15A
330
14E
100
AcDbEntity
  8
0
  6
Continuous
 62
     7
370
    18
100
AcDbLine
 10
7.5209733093
 20
12.5884509521
 30
0.0
 11
7.5209733093
 21
15.0834677378
 31
0.0
  0
LINE
  5
15B
330
14E
100
AcDbEntity
  8
0
  6
Continuous
 62
     7
370
    18
100
AcDbLine
 10
2.5997134668
 20
14.8959677378
 30
0.0
 11
4.6309457585
 21
14.8959677378
 31
0.0
  0
LINE
  5
15C
330
14E
100
AcDbEntity
  8
0
  6
Continuous
 62
     7
370
    18
100
AcDbLine
 10
7.5209733093
 20
14.8959677378
 30
0.0
 11
5.4897410176
 21
14.8959677378
 31
0.0
  0
MTEXT
  5
15D
330
14E
100
AcDbEntity
  8
0
  6
Continuous
 62
     7
370
    18
100
AcDbMText
 10
4.7393147563
 20
15.1771861582
 30
0.0
 40
0.1875
 41
0.0
 71
     1
 72
     1
  1

  7
SLDTEXTSTYLE0
 73
     1
 44
1.0
  0
MTEXT
  5
15E
330
14E
100
AcDbEntity
  8
0
  6
Continuous
 62
     7
370
    18
100
AcDbMText
 10
4.8178954776
 20
15.1743215609
 30
0.0
 40
0.1875
 41
0.0
 71
     1
 72
     1
  1
4.92
  7
SLDTEXTSTYLE0
 73
     1
 44
1.0
  0
MTEXT
  5
15F
330
14E
100
AcDbEntity
  8
0
  6
Continuous
 62
     7
370
    18
100
AcDbMText
 10
4.8525309012
 20
14.8385793798
 30
0.0
 40
0.1875
 41
0.0
 71
     1
 72
     1
  1
125
  7
SLDTEXTSTYLE0
 73
     1
 44
1.0
  0
MTEXT
  5
160
330
14E
100
AcDbEntity
  8
0
  6
Continuous
 62
     7
370
    18
100
AcDbMText
 10
5.4527261999
 20
15.1771861582
 30
0.0
 40
0.1875
 41
0.0
 71
     1
 72
     1
  1

  7
SLDTEXTSTYLE0
 73
     1
 44
1.0
  0
ENDBLK
  5
150
330
14E
100
AcDbEntity
  8
0
100
AcDbBlockEnd
  0
BLOCK
  5
163
330
162
100
AcDbEntity
  8
0
100
AcDbBlockBegin
  2
_D_1
 70
     0
 10
0.0
 20
0.0
 30
0.0
  3
_D_1
  1

  0
SOLID
  5
165
330
162
100
AcDbEntity
  8
0
  6
Continuous
 62
     7
370
    18
100
AcDbTrace
 10
1.0092215067
 20
12.8677777122
 30
0.0
 11
0.9792215067
 21
12.6727777122
 31
0.0
 12
1.0392215067
 22
12.6727777122
 32
0.0
 13
1.0392215067
 23
12.6727777122
 33
0.0
  0
SOLID
  5
166
330
162
100
AcDbEntity
  8
0
  6
Continuous
 62
     7
370
    18
100
AcDbTrace
 10
1.0092215067
 20
7.9465257437
 30
0.0
 11
1.0392215067
 21
8.1415257437
 31
0.0
 12
0.9792215067
 22
8.1415257437
 32
0.0
 13
0.9792215067
 23
8.1415257437
 33
0.0
  0
LINE
  5
167
330
162
100
AcDbEntity
  8
0
  6
Continuous
 62
     7
370
    18
100
AcDbLine
 10
0.8014090199
 20
10.405719407
 30
0.0
 11
0.7442801142
 21
10.405719407
 31
0.0
  0
LINE
  5
168
330
162
100
AcDbEntity
  8
0
  6
Continuous
 62
     7
370
    18
100
AcDbLine
 10
0.7442801142
 20
10.405719407
 30
0.0
 11
0.7442801142
 21
10.1080631481
 31
0.0
  0
LINE
  5
169
330
162
100
AcDbEntity
  8
0
  6
Continuous
 62
     7
370
    18
100
AcDbLine
 10
0.7442801142
 20
10.1080631481
 30
0.0
 11
0.8014090199
 21
10.1080631481
 31
0.0
  0
LINE
  5
16A
330
162
100
AcDbEntity
  8
0
  6
Continuous
 62
     7
370
    18
100
AcDbLine
 10
1.217034021
 20
10.405719407
 30
0.0
 11
1.2741629267
 21
10.405719407
 31
0.0
  0
LINE
  5
16B
330
162
100
AcDbEntity
  8
0
  6
Continuous
 62
     7
370
    18
100
AcDbLine
 10
1.2741629267
 20
10.405719407
 30
0.0
 11
1.2741629267
 21
10.1080631481
 31
0.0
  0
LINE
  5
16C
330
162
100
AcDbEntity
  8
0
  6
Continuous
 62
     7
370
    18
100
AcDbLine
 10
1.2741629267
 20
10.1080631481
 30
0.0
 11
1.217034021
 21
10.1080631481
 31
0.0
  0
LINE
  5
16D
330
162
100
AcDbEntity
  8
0
  6
Continuous
 62
     7
370
    18
100
AcDbLine
 10
2.8790609514
 20
12.8677777122
 30
0.0
 11
0.8217215067
 21
12.8677777122
 31
0.0
  0
LINE
  5
16E
330
162
100
AcDbEntity
  8
0
  6
Continuous
 62
     7
370
    18
100
AcDbLine
 10
2.8790610088
 20
7.9465257437
 30
0.0
 11
0.8217215067
 21
7.9465257437
 31
0.0
  0
LINE
  5
16F
330
162
100
AcDbEntity
  8
0
  6
Continuous
 62
     7
370
    18
100
AcDbLine
 10
1.0092215067
 20
12.8677777122
 30
0.0
 11
1.0092215067
 21
10.7443261854
 31
0.0
  0
LINE
  5
170
330
162
100
AcDbEntity
  8
0
  6
Continuous
 62
     7
370
    18
100
AcDbLine
 10
1.0092215067
 20
7.9465257437
 30
0.0
 11
1.0092215067
 21
10.0699772706
 31
0.0
  0
MTEXT
  5
171
330
162
100
AcDbEntity
  8
0
  6
Continuous
 62
     7
370
    18
100
AcDbMText
 10
0.688192875
 20
10.6883701483
 30
0.0
 40
0.1875
 41
0.0
 71
     1
 72
     1
  1

  7
SLDTEXTSTYLE0
 73
     1
 44
1.0
  0
MTEXT
  5
172
330
162
100
AcDbEntity
  8
0
  6
Continuous
 62
     7
370
    18
100
AcDbMText
 10
0.7667735962
 20
10.6855055511
 30
0.0
 40
0.1875
 41
0.0
 71
     1
 72
     1
  1
4.92
  7
SLDTEXTSTYLE0
 73
     1
 44
1.0
  0
MTEXT
  5
173
330
162
100
AcDbEntity
  8
0
  6
Continuous
 62
     7
370
    18
100
AcDbMText
 10
0.8014090199
 20
10.3497633699
 30
0.0
 40
0.1875
 41
0.0
 71
     1
 72
     1
  1
125
  7
SLDTEXTSTYLE0
 73
     1
 44
1.0
  0
MTEXT
  5
174
330
162
100
AcDbEntity
  8
0
  6
Continuous
 62
     7
370
    18
100
AcDbMText
 10
1.4016043186
 20
10.6883701483
 30
0.0
 40
0.1875
 41
0.0
 71
     1
 72
     1
  1

  7
SLDTEXTSTYLE0
 73
     1
 44
1.0
  0
ENDBLK
  5
164
330
162
100
AcDbEntity
  8
0
100
AcDbBlockEnd
  0
BLOCK
  5
177
330
176
100
AcDbEntity
  8
0
100
AcDbBlockBegin
  2
_D_2
 70
     0
 10
0.0
 20
0.0
 30
0.0
  3
_D_2
  1

  0
SOLID
  5
179
330
176
100
AcDbEntity
  8
0
  6
Continuous
 62
     7
370
    18
100
AcDbTrace
 10
3.678343388
 20
13.5290258726
 30
0.0
 11
3.873343388
 21
13.4990258726
 31
0.0
 12
3.873343388
 22
13.5590258726
 32
0.0
 13
3.873343388
 23
13.5590258726
 33
0.0
  0
SOLID
  5
17A
330
176
100
AcDbEntity
  8
0
  6
Continuous
 62
     7
370
    18
100
AcDbTrace
 10
6.442343388
 20
13.5290258726
 30
0.0
 11
6.247343388
 21
13.5590258726
 31
0.0
 12
6.247343388
 22
13.4990258726
 32
0.0
 13
6.247343388
 23
13.4990258726
 33
0.0
  0
LINE
  5
17B
330
176
100
AcDbEntity
  8
0
  6
Continuous
 62
     7
370
    18
100
AcDbLine
 10
4.8178954913
 20
13.5275935516
 30
0.0
 11
4.7607665856
 21
13.5275935516
 31
0.0
  0
LINE
  5
17C
330
176
100
AcDbEntity
  8
0
  6
Continuous
 62
     7
370
    18
100
AcDbLine
 10
4.7607665856
 20
13.5275935516
 30
0.0
 11
4.7607665856
 21
13.2299372927
 31
0.0
  0
LINE
  5
17D
330
176
100
AcDbEntity
  8
0
  6
Continuous
 62
     7
370
    18
100
AcDbLine
 10
4.7607665856
 20
13.2299372927
 30
0.0
 11
4.8178954913
 21
13.2299372927
 31
0.0
  0
LINE
  5
17E
330
176
100
AcDbEntity
  8
0
  6
Continuous
 62
     7
370
    18
100
AcDbLine
 10
5.3027913397
 20
13.5275935516
 30
0.0
 11
5.3599202454
 21
13.5275935516
 31
0.0
  0
LINE
  5
17F
330
176
100
AcDbEntity
  8
0
  6
Continuous
 62
     7
370
    18
100
AcDbLine
 10
5.3599202454
 20
13.5275935516
 30
0.0
 11
5.3599202454
 21
13.2299372927
 31
0.0
  0
LINE
  5
180
330
176
100
AcDbEntity
  8
0
  6
Continuous
 62
     7
370
    18
100
AcDbLine
 10
5.3599202454
 20
13.2299372927
 30
0.0
 11
5.3027913397
 21
13.2299372927
 31
0.0
  0
LINE
  5
181
330
176
100
AcDbEntity
  8
0
  6
Continuous
 62
     7
370
    18
100
AcDbLine
 10
3.678343388
 20
10.482151728
 30
0.0
 11
3.678343388
 21
13.7165258726
 31
0.0
  0
LINE
  5
182
330
176
100
AcDbEntity
  8
0
  6
Continuous
 62
     7
370
    18
100
AcDbLine
 10
6.442343388
 20
10.482151728
 30
0.0
 11
6.442343388
 21
13.7165258726
 31
0.0
  0
LINE
  5
183
330
176
100
AcDbEntity
  8
0
  6
Continuous
 62
     7
370
    18
100
AcDbLine
 10
3.678343388
 20
13.5290258726
 30
0.0
 11
4.5963103486
 21
13.5290258726
 31
0.0
  0
LINE
  5
184
330
176
100
AcDbEntity
  8
0
  6
Continuous
 62
     7
370
    18
100
AcDbLine
 10
6.442343388
 20
13.5290258726
 30
0.0
 11
5.5243764275
 21
13.5290258726
 31
0.0
  0
MTEXT
  5
185
330
176
100
AcDbEntity
  8
0
  6
Continuous
 62
     7
370
    18
100
AcDbMText
 10
4.7046793464
 20
13.8102442929
 30
0.0
 40
0.1875
 41
0.0
 71
     1
 72
     1
  1

  7
SLDTEXTSTYLE0
 73
     1
 44
1.0
  0
MTEXT
  5
186
330
176
100
AcDbEntity
  8
0
  6
Continuous
 62
     7
370
    18
100
AcDbMText
 10
4.8178954776
 20
13.8073796957
 30
0.0
 40
0.1875
 41
0.0
 71
     1
 72
     1
  1
2.76
  7
SLDTEXTSTYLE0
 73
     1
 44
1.0
  0
MTEXT
  5
187
330
176
100
AcDbEntity
  8
0
  6
Continuous
 62
     7
370
    18
100
AcDbMText
 10
4.8178954913
 20
13.4716375145
 30
0.0
 40
0.1875
 41
0.0
 71
     1
 72
     1
  1
70.2
  7
SLDTEXTSTYLE0
 73
     1
 44
1.0
  0
MTEXT
  5
188
330
176
100
AcDbEntity
  8
0
  6
Continuous
 62
     7
370
    18
100
AcDbMText
 10
5.4873616098
 20
13.8102442929
 30
0.0
 40
0.1875
 41
0.0
 71
     1
 72
     1
  1

  7
SLDTEXTSTYLE0
 73
     1
 44
1.0
  0
ENDBLK
  5
178
330
176
100
AcDbEntity
  8
0
100
AcDbBlockEnd
  0
BLOCK
  5
18B
330
18A
100
AcDbEntity
  8
0
100
AcDbBlockBegin
  2
_D_3
 70
     0
 10
0.0
 20
0.0
 30
0.0
  3
_D_3
  1

  0
SOLID
  5
18D
330
18A
100
AcDbEntity
  8
0
  6
Continuous
 62
     7
370
    18
100
AcDbTrace
 10
1.81471724
 20
11.872651728
 30
0.0
 11
1.78471724
 21
11.677651728
 31
0.0
 12
1.84471724
 22
11.677651728
 32
0.0
 13
1.84471724
 23
11.677651728
 33
0.0
  0
SOLID
  5
18E
330
18A
100
AcDbEntity
  8
0
  6
Continuous
 62
     7
370
    18
100
AcDbTrace
 10
1.81471724
 20
8.941651728
 30
0.0
 11
1.84471724
 21
9.136651728
 31
0.0
 12
1.78471724
 22
9.136651728
 32
0.0
 13
1.78471724
 23
9.136651728
 33
0.0
  0
LINE
  5
18F
330
18A
100
AcDbEntity
  8
0
  6
Continuous
 62
     7
370
    18
100
AcDbLine
 10
1.5722693432
 20
10.405719407
 30
0.0
 11
1.5151404376
 21
10.405719407
 31
0.0
  0
LINE
  5
190
330
18A
100
AcDbEntity
  8
0
  6
Continuous
 62
     7
370
    18
100
AcDbLine
 10
1.5151404376
 20
10.405719407
 30
0.0
 11
1.5151404376
 21
10.1080631481
 31
0.0
  0
LINE
  5
191
330
18A
100
AcDbEntity
  8
0
  6
Continuous
 62
     7
370
    18
100
AcDbLine
 10
1.5151404376
 20
10.1080631481
 30
0.0
 11
1.5722693432
 21
10.1080631481
 31
0.0
  0
LINE
  5
192
330
18A
100
AcDbEntity
  8
0
  6
Continuous
 62
     7
370
    18
100
AcDbLine
 10
2.0571651917
 20
10.405719407
 30
0.0
 11
2.1142940973
 21
10.405719407
 31
0.0
  0
LINE
  5
193
330
18A
100
AcDbEntity
  8
0
  6
Continuous
 62
     7
370
    18
100
AcDbLine
 10
2.1142940973
 20
10.405719407
 30
0.0
 11
2.1142940973
 21
10.1080631481
 31
0.0
  0
LINE
  5
194
330
18A
100
AcDbEntity
  8
0
  6
Continuous
 62
     7
370
    18
100
AcDbLine
 10
2.1142940973
 20
10.1080631481
 30
0.0
 11
2.0571651917
 21
10.1080631481
 31
0.0
  0
LINE
  5
195
330
18A
100
AcDbEntity
  8
0
  6
Continuous
 62
     7
370
    18
100
AcDbLine
 10
3.218843388
 20
11.872651728
 30
0.0
 11
1.62721724
 21
11.872651728
 31
0.0
  0
LINE
  5
196
330
18A
100
AcDbEntity
  8
0
  6
Continuous
 62
     7
370
    18
100
AcDbLine
 10
3.218843388
 20
8.941651728
 30
0.0
 11
1.62721724
 21
8.941651728
 31
0.0
  0
LINE
  5
197
330
18A
100
AcDbEntity
  8
0
  6
Continuous
 62
     7
370
    18
100
AcDbLine
 10
1.81471724
 20
11.872651728
 30
0.0
 11
1.81471724
 21
10.7443261854
 31
0.0
  0
LINE
  5
198
330
18A
100
AcDbEntity
  8
0
  6
Continuous
 62
     7
370
    18
100
AcDbLine
 10
1.81471724
 20
8.941651728
 30
0.0
 11
1.81471724
 21
10.0699772706
 31
0.0
  0
MTEXT
  5
199
330
18A
100
AcDbEntity
  8
0
  6
Continuous
 62
     7
370
    18
100
AcDbMText
 10
1.4590531984
 20
10.6883701483
 30
0.0
 40
0.1875
 41
0.0
 71
     1
 72
     1
  1

  7
SLDTEXTSTYLE0
 73
     1
 44
1.0
  0
MTEXT
  5
19A
330
18A
100
AcDbEntity
  8
0
  6
Continuous
 62
     7
370
    18
100
AcDbMText
 10
1.5722693295
 20
10.6855055511
 30
0.0
 40
0.1875
 41
0.0
 71
     1
 72
     1
  1
2.93
  7
SLDTEXTSTYLE0
 73
     1
 44
1.0
  0
MTEXT
  5
19B
330
18A
100
AcDbEntity
  8
0
  6
Continuous
 62
     7
370
    18
100
AcDbMText
 10
1.5722693432
 20
10.3497633699
 30
0.0
 40
0.1875
 41
0.0
 71
     1
 72
     1
  1
74.4
  7
SLDTEXTSTYLE0
 73
     1
 44
1.0
  0
MTEXT
  5
19C
330
18A
100
AcDbEntity
  8
0
  6
Continuous
 62
     7
370
    18
100
AcDbMText
 10
2.2417354618
 20
10.6883701483
 30
0.0
 40
0.1875
 41
0.0
 71
     1
 72
     1
  1

  7
SLDTEXTSTYLE0
 73
     1
 44
1.0
  0
ENDBLK
  5
18C
330
18A
100
AcDbEntity
  8
0
100
AcDbBlockEnd
  0
BLOCK
  5
19F
330
19E
100
AcDbEntity
  8
0
100
AcDbBlockBegin
  2
_D_4
 70
     0
 10
0.0
 20
0.0
 30
0.0
  3
_D_4
  1

  0
SOLID
  5
1A1
330
19E
100
AcDbEntity
  8
0
  6
Continuous
 62
     7
370
    18
100
AcDbTrace
 10
8.1318405003
 20
12.176151728
 30
0.0
 11
8.1018405003
 21
11.981151728
 31
0.0
 12
8.1618405003
 22
11.981151728
 32
0.0
 13
8.1618405003
 23
11.981151728
 33
0.0
  0
SOLID
  5
1A2
330
19E
100
AcDbEntity
  8
0
  6
Continuous
 62
     7
370
    18
100
AcDbTrace
 10
8.1318405003
 20
8.638151728
 30
0.0
 11
8.1618405003
 21
8.833151728
 31
0.0
 12
8.1018405003
 22
8.833151728
 32
0.0
 13
8.1018405003
 23
8.833151728
 33
0.0
  0
LINE
  5
1A3
330
19E
100
AcDbEntity
  8
0
  6
Continuous
 62
     7
370
    18
100
AcDbLine
 10
7.8893926035
 20
10.405719407
 30
0.0
 11
7.8322636979
 21
10.405719407
 31
0.0
  0
LINE
  5
1A4
330
19E
100
AcDbEntity
  8
0
  6
Continuous
 62
     7
370
    18
100
AcDbLine
 10
7.8322636979
 20
10.405719407
 30
0.0
 11
7.8322636979
 21
10.1080631481
 31
0.0
  0
LINE
  5
1A5
330
19E
100
AcDbEntity
  8
0
  6
Continuous
 62
     7
370
    18
100
AcDbLine
 10
7.8322636979
 20
10.1080631481
 30
0.0
 11
7.8893926035
 21
10.1080631481
 31
0.0
  0
LINE
  5
1A6
330
19E
100
AcDbEntity
  8
0
  6
Continuous
 62
     7
370
    18
100
AcDbLine
 10
8.374288452
 20
10.405719407
 30
0.0
 11
8.4314173576
 21
10.405719407
 31
0.0
  0
LINE
  5
1A7
330
19E
100
AcDbEntity
  8
0
  6
Continuous
 62
     7
370
    18
100
AcDbLine
 10
8.4314173576
 20
10.405719407
 30
0.0
 11
8.4314173576
 21
10.1080631481
 31
0.0
  0
LINE
  5
1A8
330
19E
100
AcDbEntity
  8
0
  6
Continuous
 62
     7
370
    18
100
AcDbLine
 10
8.4314173576
 20
10.1080631481
 30
0.0
 11
8.374288452
 21
10.1080631481
 31
0.0
  0
LINE
  5
1A9
330
19E
100
AcDbEntity
  8
0
  6
Continuous
 62
     7
370
    18
100
AcDbLine
 10
5.135343388
 20
12.176151728
 30
0.0
 11
8.3193405003
 21
12.176151728
 31
0.0
  0
LINE
  5
1AA
330
19E
100
AcDbEntity
  8
0
  6
Continuous
 62
     7
370
    18
100
AcDbLine
 10
5.135343388
 20
8.638151728
 30
0.0
 11
8.3193405003
 21
8.638151728
 31
0.0
  0
LINE
  5
1AB
330
19E
100
AcDbEntity
  8
0
  6
Continuous
 62
     7
370
    18
100
AcDbLine
 10
8.1318405003
 20
12.176151728
 30
0.0
 11
8.1318405003
 21
10.7443261854
 31
0.0
  0
LINE
  5
1AC
330
19E
100
AcDbEntity
  8
0
  6
Continuous
 62
     7
370
    18
100
AcDbLine
 10
8.1318405003
 20
8.638151728
 30
0.0
 11
8.1318405003
 21
10.0699772706
 31
0.0
  0
MTEXT
  5
1AD
330
19E
100
AcDbEntity
  8
0
  6
Continuous
 62
     7
370
    18
100
AcDbMText
 10
7.7761764587
 20
10.6883701483
 30
0.0
 40
0.1875
 41
0.0
 71
     1
 72
     1
  1

  7
SLDTEXTSTYLE0
 73
     1
 44
1.0
  0
MTEXT
  5
1AE
330
19E
100
AcDbEntity
  8
0
  6
Continuous
 62
     7
370
    18
100
AcDbMText
 10
7.8893925898
 20
10.6855055511
 30
0.0
 40
0.1875
 41
0.0
 71
     1
 72
     1
  1
3.54
  7
SLDTEXTSTYLE0
 73
     1
 44
1.0
  0
MTEXT
  5
1AF
330
19E
100
AcDbEntity
  8
0
  6
Continuous
 62
     7
370
    18
100
AcDbMText
 10
7.8893926035
 20
10.3497633699
 30
0.0
 40
0.1875
 41
0.0
 71
     1
 72
     1
  1
89.9
  7
SLDTEXTSTYLE0
 73
     1
 44
1.0
  0
MTEXT
  5
1B0
330
19E
100
AcDbEntity
  8
0
  6
Continuous
 62
     7
370
    18
100
AcDbMText
 10
8.5588587221
 20
10.6883701483
 30
0.0
 40
0.1875
 41
0.0
 71
     1
 72
     1
  1

  7
SLDTEXTSTYLE0
 73
     1
 44
1.0
  0
ENDBLK
  5
1A0
330
19E
100
AcDbEntity
  8
0
100
AcDbBlockEnd
  0
BLOCK
  5
1B3
330
1B2
100
AcDbEntity
  8
0
100
AcDbBlockBegin
  2
_D_5
 70
     0
 10
0.0
 20
0.0
 30
0.0
  3
_D_5
  1

  0
SOLID
  5
1B5
330
1B2
100
AcDbEntity
  8
0
  6
Continuous
 62
     7
370
    18
100
AcDbTrace
 10
3.293843388
 20
14.259121114
 30
0.0
 11
3.488843388
 21
14.229121114
 31
0.0
 12
3.488843388
 22
14.289121114
 32
0.0
 13
3.488843388
 23
14.289121114
 33
0.0
  0
SOLID
  5
1B6
330
1B2
100
AcDbEntity
  8
0
  6
Continuous
 62
     7
370
    18
100
AcDbTrace
 10
6.826843388
 20
14.259121114
 30
0.0
 11
6.631843388
 21
14.289121114
 31
0.0
 12
6.631843388
 22
14.229121114
 32
0.0
 13
6.631843388
 23
14.229121114
 33
0.0
  0
LINE
  5
1B7
330
1B2
100
AcDbEntity
  8
0
  6
Continuous
 62
     7
370
    18
100
AcDbLine
 10
4.8178954913
 20
14.257688793
 30
0.0
 11
4.7607665856
 21
14.257688793
 31
0.0
  0
LINE
  5
1B8
330
1B2
100
AcDbEntity
  8
0
  6
Continuous
 62
     7
370
    18
100
AcDbLine
 10
4.7607665856
 20
14.257688793
 30
0.0
 11
4.7607665856
 21
13.9600325341
 31
0.0
  0
LINE
  5
1B9
330
1B2
100
AcDbEntity
  8
0
  6
Continuous
 62
     7
370
    18
100
AcDbLine
 10
4.7607665856
 20
13.9600325341
 30
0.0
 11
4.8178954913
 21
13.9600325341
 31
0.0
  0
LINE
  5
1BA
330
1B2
100
AcDbEntity
  8
0
  6
Continuous
 62
     7
370
    18
100
AcDbLine
 10
5.3027913397
 20
14.257688793
 30
0.0
 11
5.3599202454
 21
14.257688793
 31
0.0
  0
LINE
  5
1BB
330
1B2
100
AcDbEntity
  8
0
  6
Continuous
 62
     7
370
    18
100
AcDbLine
 10
5.3599202454
 20
14.257688793
 30
0.0
 11
5.3599202454
 21
13.9600325341
 31
0.0
  0
LINE
  5
1BC
330
1B2
100
AcDbEntity
  8
0
  6
Continuous
 62
     7
370
    18
100
AcDbLine
 10
5.3599202454
 20
13.9600325341
 30
0.0
 11
5.3027913397
 21
13.9600325341
 31
0.0
  0
LINE
  5
1BD
330
1B2
100
AcDbEntity
  8
0
  6
Continuous
 62
     7
370
    18
100
AcDbLine
 10
3.293843388
 20
11.947651728
 30
0.0
 11
3.293843388
 21
14.446621114
 31
0.0
  0
LINE
  5
1BE
330
1B2
100
AcDbEntity
  8
0
  6
Continuous
 62
     7
370
    18
100
AcDbLine
 10
6.826843388
 20
11.947651728
 30
0.0
 11
6.826843388
 21
14.446621114
 31
0.0
  0
LINE
  5
1BF
330
1B2
100
AcDbEntity
  8
0
  6
Continuous
 62
     7
370
    18
100
AcDbLine
 10
3.293843388
 20
14.259121114
 30
0.0
 11
4.5963103486
 21
14.259121114
 31
0.0
  0
LINE
  5
1C0
330
1B2
100
AcDbEntity
  8
0
  6
Continuous
 62
     7
370
    18
100
AcDbLine
 10
6.826843388
 20
14.259121114
 30
0.0
 11
5.5243764275
 21
14.259121114
 31
0.0
  0
MTEXT
  5
1C1
330
1B2
100
AcDbEntity
  8
0
  6
Continuous
 62
     7
370
    18
100
AcDbMText
 10
4.7046793464
 20
14.5403395343
 30
0.0
 40
0.1875
 41
0.0
 71
     1
 72
     1
  1

  7
SLDTEXTSTYLE0
 73
     1
 44
1.0
  0
MTEXT
  5
1C2
330
1B2
100
AcDbEntity
  8
0
  6
Continuous
 62
     7
370
    18
100
AcDbMText
 10
4.8178954776
 20
14.5374749371
 30
0.0
 40
0.1875
 41
0.0
 71
     1
 72
     1
  1
3.53
  7
SLDTEXTSTYLE0
 73
     1
 44
1.0
  0
MTEXT
  5
1C3
330
1B2
100
AcDbEntity
  8
0
  6
Continuous
 62
     7
370
    18
100
AcDbMText
 10
4.8178954913
 20
14.2017327559
 30
0.0
 40
0.1875
 41
0.0
 71
     1
 72
     1
  1
89.7
  7
SLDTEXTSTYLE0
 73
     1
 44
1.0
  0
MTEXT
  5
1C4
330
1B2
100
AcDbEntity
  8
0
  6
Continuous
 62
     7
370
    18
100
AcDbMText
 10
5.4873616098
 20
14.5403395343
 30
0.0
 40
0.1875
 41
0.0
 71
     1
 72
     1
  1

  7
SLDTEXTSTYLE0
 73
     1
 44
1.0
  0
ENDBLK
  5
1B4
330
1B2
100
AcDbEntity
  8
0
100
AcDbBlockEnd
  0
BLOCK
  5
1C8
330
1C7
100
AcDbEntity
  8
0
100
AcDbBlockBegin
  2
_D_6
 70
     0
 10
0.0
 20
0.0
 30
0.0
  3
_D_6
  1

  0
SOLID
  5
1CA
330
1C7
100
AcDbEntity
  8
0
  6
Continuous
 62
     7
370
    18
100
AcDbTrace
 10
6.887404131
 20
8.8856281043
 30
0.0
 11
7.0101754784
 21
8.7311865417
 31
0.0
 12
7.050919932
 22
8.7752307184
 32
0.0
 13
7.050919932
 23
8.7752307184
 33
0.0
  0
LINE
  5
1CB
330
1C7
100
AcDbEntity
  8
0
  6
Continuous
 62
     7
370
    18
100
AcDbLine
 10
8.2637050115
 20
7.9152523279
 30
0.0
 11
8.2065761058
 21
7.9152523279
 31
0.0
  0
LINE
  5
1CC
330
1C7
100
AcDbEntity
  8
0
  6
Continuous
 62
     7
370
    18
100
AcDbLine
 10
8.2065761058
 20
7.9152523279
 30
0.0
 11
8.2065761058
 21
7.617596069
 31
0.0
  0
LINE
  5
1CD
330
1C7
100
AcDbEntity
  8
0
  6
Continuous
 62
     7
370
    18
100
AcDbLine
 10
8.2065761058
 20
7.617596069
 30
0.0
 11
8.2637050115
 21
7.617596069
 31
0.0
  0
LINE
  5
1CE
330
1C7
100
AcDbEntity
  8
0
  6
Continuous
 62
     7
370
    18
100
AcDbLine
 10
8.6100591653
 20
7.9152523279
 30
0.0
 11
8.667188071
 21
7.9152523279
 31
0.0
  0
LINE
  5
1CF
330
1C7
100
AcDbEntity
  8
0
  6
Continuous
 62
     7
370
    18
100
AcDbLine
 10
8.667188071
 20
7.9152523279
 30
0.0
 11
8.667188071
 21
7.617596069
 31
0.0
  0
LINE
  5
1D0
330
1C7
100
AcDbEntity
  8
0
  6
Continuous
 62
     7
370
    18
100
AcDbLine
 10
8.667188071
 20
7.617596069
 30
0.0
 11
8.6100591653
 21
7.617596069
 31
0.0
  0
LINE
  5
1D1
330
1C7
100
AcDbEntity
  8
0
  6
Continuous
 62
     7
370
    18
100
AcDbLine
 10
6.887404131
 20
8.8856281043
 30
0.0
 11
7.9348182685
 21
7.9166846489
 31
0.0
  0
LINE
  5
1D2
330
1C7
100
AcDbEntity
  8
0
  6
Continuous
 62
     7
370
    18
100
AcDbLine
 10
7.9348182685
 20
7.9166846489
 30
0.0
 11
8.1223182685
 21
7.9166846489
 31
0.0
  0
MTEXT
  5
1D3
330
1C7
100
AcDbEntity
  8
0
  6
Continuous
 62
     7
370
    18
100
AcDbMText
 10
8.1223182685
 20
8.195038472
 30
0.0
 40
0.1875
 41
0.0
 71
     1
 72
     1
  1
%%c
  7
SLDTEXTSTYLE0
 73
     1
 44
1.0
  0
MTEXT
  5
1D4
330
1C7
100
AcDbEntity
  8
0
  6
Continuous
 62
     7
370
    18
100
AcDbMText
 10
8.4050916994
 20
8.195038472
 30
0.0
 40
0.1875
 41
0.0
 71
     1
 72
     1
  1
.17
  7
SLDTEXTSTYLE0
 73
     1
 44
1.0
  0
MTEXT
  5
1D5
330
1C7
100
AcDbEntity
  8
0
  6
Continuous
 62
     7
370
    18
100
AcDbMText
 10
8.2637050115
 20
7.8592962908
 30
0.0
 40
0.1875
 41
0.0
 71
     1
 72
     1
  1
4.2
  7
SLDTEXTSTYLE0
 73
     1
 44
1.0
  0
MTEXT
  5
1D6
330
1C7
100
AcDbEntity
  8
0
  6
Continuous
 62
     7
370
    18
100
AcDbMText
 10
8.8217583808
 20
8.1979030692
 30
0.0
 40
0.1875
 41
0.0
 71
     1
 72
     1
  1
6X
  7
SLDTEXTSTYLE0
 73
     1
 44
1.0
  0
ENDBLK
  5
1C9
330
1C7
100
AcDbEntity
  8
0
100
AcDbBlockEnd
  0
BLOCK
  5
1DA
330
1D9
100
AcDbEntity
  8
0
100
AcDbBlockBegin
  2
SW_CENTERMARKSYMBOL_0
 70
     0
 10
0.0
 20
0.0
 30
0.0
  3
SW_CENTERMARKSYMBOL_0
  1

  0
LINE
  5
1DC
330
1D9
100
AcDbEntity
  8
0
  6
Continuous
 62
     0
370
    18
100
AcDbLine
 10
0.0
 20
0.0
 30
0.0
 11
0.0
 21
0.1
 31
0.0
  0
LINE
  5
1DD
330
1D9
100
AcDbEntity
  8
0
  6
Continuous
 62
     0
370
    18
100
AcDbLine
 10
0.0
 20
0.0
 30
0.0
 11
-0.1
 21
0.0
 31
0.0
  0
LINE
  5
1DE
330
1D9
100
AcDbEntity
  8
0
  6
Continuous
 62
     0
370
    18
100
AcDbLine
 10
0.0
 20
0.0
 30
0.0
 11
0.0
 21
-0.1
 31
0.0
  0
LINE
  5
1DF
330
1D9
100
AcDbEntity
  8
0
  6
Continuous
 62
     0
370
    18
100
AcDbLine
 10
0.0
 20
0.0
 30
0.0
 11
0.1
 21
0.0
 31
0.0
  0
LINE
  5
1E0
330
1D9
100
AcDbEntity
  8
0
  6
Continuous
 62
     0
370
    18
100
AcDbLine
 10
0.0
 20
0.2
 30
0.0
 11
0.0
 21
0.257480315
 31
0.0
  0
LINE
  5
1E1
330
1D9
100
AcDbEntity
  8
0
  6
Continuous
 62
     0
370
    18
100
AcDbLine
 10
-0.2
 20
0.0
 30
0.0
 11
-0.257480315
 21
0.0
 31
0.0
  0
LINE
  5
1E2
330
1D9
100
AcDbEntity
  8
0
  6
Continuous
 62
     0
370
    18
100
AcDbLine
 10
0.0
 20
-0.2
 30
0.0
 11
0.0
 21
-0.257480315
 31
0.0
  0
LINE
  5
1E3
330
1D9
100
AcDbEntity
  8
0
  6
Continuous
 62
     0
370
    18
100
AcDbLine
 10
0.2
 20
0.0
 30
0.0
 11
0.257480315
 21
0.0
 31
0.0
  0
ENDBLK
  5
1DB
330
1D9
100
AcDbEntity
  8
0
100
AcDbBlockEnd
  0
BLOCK
  5
1E6
330
1E5
100
AcDbEntity
  8
0
100
AcDbBlockBegin
  2
SW_CENTERMARKSYMBOL_1
 70
     0
 10
0.0
 20
0.0
 30
0.0
  3
SW_CENTERMARKSYMBOL_1
  1

  0
LINE
  5
1E8
330
1E5
100
AcDbEntity
  8
0
  6
Continuous
 62
     0
370
    18
100
AcDbLine
 10
0.0
 20
0.0
 30
0.0
 11
0.0
 21
0.1
 31
0.0
  0
LINE
  5
1E9
330
1E5
100
AcDbEntity
  8
0
  6
Continuous
 62
     0
370
    18
100
AcDbLine
 10
0.0
 20
0.0
 30
0.0
 11
-0.1
 21
0.0
 31
0.0
  0
LINE
  5
1EA
330
1E5
100
AcDbEntity
  8
0
  6
Continuous
 62
     0
370
    18
100
AcDbLine
 10
0.0
 20
0.0
 30
0.0
 11
0.0
 21
-0.1
 31
0.0
  0
LINE
  5
1EB
330
1E5
100
AcDbEntity
  8
0
  6
Continuous
 62
     0
370
    18
100
AcDbLine
 10
0.0
 20
0.0
 30
0.0
 11
0.1
 21
0.0
 31
0.0
  0
LINE
  5
1EC
330
1E5
100
AcDbEntity
  8
0
  6
Continuous
 62
     0
370
    18
100
AcDbLine
 10
0.0
 20
0.2
 30
0.0
 11
0.0
 21
0.257480315
 31
0.0
  0
LINE
  5
1ED
330
1E5
100
AcDbEntity
  8
0
  6
Continuous
 62
     0
370
    18
100
AcDbLine
 10
-0.2
 20
0.0
 30
0.0
 11
-0.257480315
 21
0.0
 31
0.0
  0
LINE
  5
1EE
330
1E5
100
AcDbEntity
  8
0
  6
Continuous
 62
     0
370
    18
100
AcDbLine
 10
0.0
 20
-0.2
 30
0.0
 11
0.0
 21
-0.257480315
 31
0.0
  0
LINE
  5
1EF
330
1E5
100
AcDbEntity
  8
0
  6
Continuous
 62
     0
370
    18
100
AcDbLine
 10
0.2
 20
0.0
 30
0.0
 11
0.257480315
 21
0.0
 31
0.0
  0
ENDBLK
  5
1E7
330
1E5
100
AcDbEntity
  8
0
100
AcDbBlockEnd
  0
BLOCK
  5
1F2
330
1F1
100
AcDbEntity
  8
0
100
AcDbBlockBegin
  2
SW_CENTERMARKSYMBOL_2
 70
     0
 10
0.0
 20
0.0
 30
0.0
  3
SW_CENTERMARKSYMBOL_2
  1

  0
LINE
  5
1F4
330
1F1
100
AcDbEntity
  8
0
  6
Continuous
 62
     0
370
    18
100
AcDbLine
 10
0.0
 20
0.0
 30
0.0
 11
0.0
 21
0.1
 31
0.0
  0
LINE
  5
1F5
330
1F1
100
AcDbEntity
  8
0
  6
Continuous
 62
     0
370
    18
100
AcDbLine
 10
0.0
 20
0.0
 30
0.0
 11
-0.1
 21
0.0
 31
0.0
  0
LINE
  5
1F6
330
1F1
100
AcDbEntity
  8
0
  6
Continuous
 62
     0
370
    18
100
AcDbLine
 10
0.0
 20
0.0
 30
0.0
 11
0.0
 21
-0.1
 31
0.0
  0
LINE
  5
1F7
330
1F1
100
AcDbEntity
  8
0
  6
Continuous
 62
     0
370
    18
100
AcDbLine
 10
0.0
 20
0.0
 30
0.0
 11
0.1
 21
0.0
 31
0.0
  0
LINE
  5
1F8
330
1F1
100
AcDbEntity
  8
0
  6
Continuous
 62
     0
370
    18
100
AcDbLine
 10
0.0
 20
0.2
 30
0.0
 11
0.0
 21
0.257480315
 31
0.0
  0
LINE
  5
1F9
330
1F1
100
AcDbEntity
  8
0
  6
Continuous
 62
     0
370
    18
100
AcDbLine
 10
-0.2
 20
0.0
 30
0.0
 11
-0.257480315
 21
0.0
 31
0.0
  0
LINE
  5
1FA
330
1F1
100
AcDbEntity
  8
0
  6
Continuous
 62
     0
370
    18
100
AcDbLine
 10
0.0
 20
-0.2
 30
0.0
 11
0.0
 21
-0.257480315
 31
0.0
  0
LINE
  5
1FB
330
1F1
100
AcDbEntity
  8
0
  6
Continuous
 62
     0
370
    18
100
AcDbLine
 10
0.2
 20
0.0
 30
0.0
 11
0.257480315
 21
0.0
 31
0.0
  0
ENDBLK
  5
1F3
330
1F1
100
AcDbEntity
  8
0
100
AcDbBlockEnd
  0
BLOCK
  5
1FE
330
1FD
100
AcDbEntity
  8
0
100
AcDbBlockBegin
  2
SW_CENTERMARKSYMBOL_3
 70
     0
 10
0.0
 20
0.0
 30
0.0
  3
SW_CENTERMARKSYMBOL_3
  1

  0
LINE
  5
200
330
1FD
100
AcDbEntity
  8
0
  6
Continuous
 62
     0
370
    18
100
AcDbLine
 10
0.0
 20
0.0
 30
0.0
 11
0.0
 21
0.1
 31
0.0
  0
LINE
  5
201
330
1FD
100
AcDbEntity
  8
0
  6
Continuous
 62
     0
370
    18
100
AcDbLine
 10
0.0
 20
0.0
 30
0.0
 11
-0.1
 21
0.0
 31
0.0
  0
LINE
  5
202
330
1FD
100
AcDbEntity
  8
0
  6
Continuous
 62
     0
370
    18
100
AcDbLine
 10
0.0
 20
0.0
 30
0.0
 11
0.0
 21
-0.1
 31
0.0
  0
LINE
  5
203
330
1FD
100
AcDbEntity
  8
0
  6
Continuous
 62
     0
370
    18
100
AcDbLine
 10
0.0
 20
0.0
 30
0.0
 11
0.1
 21
0.0
 31
0.0
  0
LINE
  5
204
330
1FD
100
AcDbEntity
  8
0
  6
Continuous
 62
     0
370
    18
100
AcDbLine
 10
0.0
 20
0.2
 30
0.0
 11
0.0
 21
0.257480315
 31
0.0
  0
LINE
  5
205
330
1FD
100
AcDbEntity
  8
0
  6
Continuous
 62
     0
370
    18
100
AcDbLine
 10
-0.2
 20
0.0
 30
0.0
 11
-0.257480315
 21
0.0
 31
0.0
  0
LINE
  5
206
330
1FD
100
AcDbEntity
  8
0
  6
Continuous
 62
     0
370
    18
100
AcDbLine
 10
0.0
 20
-0.2
 30
0.0
 11
0.0
 21
-0.257480315
 31
0.0
  0
LINE
  5
207
330
1FD
100
AcDbEntity
  8
0
  6
Continuous
 62
     0
370
    18
100
AcDbLine
 10
0.2
 20
0.0
 30
0.0
 11
0.257480315
 21
0.0
 31
0.0
  0
ENDBLK
  5
1FF
330
1FD
100
AcDbEntity
  8
0
100
AcDbBlockEnd
  0
BLOCK
  5
20A
330
209
100
AcDbEntity
  8
0
100
AcDbBlockBegin
  2
SW_CENTERMARKSYMBOL_4
 70
     0
 10
0.0
 20
0.0
 30
0.0
  3
SW_CENTERMARKSYMBOL_4
  1

  0
LINE
  5
20C
330
209
100
AcDbEntity
  8
0
  6
Continuous
 62
     0
370
    18
100
AcDbLine
 10
0.0
 20
0.0
 30
0.0
 11
0.0
 21
0.1
 31
0.0
  0
LINE
  5
20D
330
209
100
AcDbEntity
  8
0
  6
Continuous
 62
     0
370
    18
100
AcDbLine
 10
0.0
 20
0.0
 30
0.0
 11
-0.1
 21
0.0
 31
0.0
  0
LINE
  5
20E
330
209
100
AcDbEntity
  8
0
  6
Continuous
 62
     0
370
    18
100
AcDbLine
 10
0.0
 20
0.0
 30
0.0
 11
0.0
 21
-0.1
 31
0.0
  0
LINE
  5
20F
330
209
100
AcDbEntity
  8
0
  6
Continuous
 62
     0
370
    18
100
AcDbLine
 10
0.0
 20
0.0
 30
0.0
 11
0.1
 21
0.0
 31
0.0
  0
LINE
  5
210
330
209
100
AcDbEntity
  8
0
  6
Continuous
 62
     0
370
    18
100
AcDbLine
 10
0.0
 20
0.2
 30
0.0
 11
0.0
 21
0.2575
 31
0.0
  0
LINE
  5
211
330
209
100
AcDbEntity
  8
0
  6
Continuous
 62
     0
370
    18
100
AcDbLine
 10
-0.2
 20
0.0
 30
0.0
 11
-0.2575
 21
0.0
 31
0.0
  0
LINE
  5
212
330
209
100
AcDbEntity
  8
0
  6
Continuous
 62
     0
370
    18
100
AcDbLine
 10
0.0
 20
-0.2
 30
0.0
 11
0.0
 21
-0.2575
 31
0.0
  0
LINE
  5
213
330
209
100
AcDbEntity
  8
0
  6
Continuous
 62
     0
370
    18
100
AcDbLine
 10
0.2
 20
0.0
 30
0.0
 11
0.2575
 21
0.0
 31
0.0
  0
ENDBLK
  5
20B
330
209
100
AcDbEntity
  8
0
100
AcDbBlockEnd
  0
BLOCK
  5
216
330
215
100
AcDbEntity
  8
0
100
AcDbBlockBegin
  2
SW_CENTERMARKSYMBOL_5
 70
     0
 10
0.0
 20
0.0
 30
0.0
  3
SW_CENTERMARKSYMBOL_5
  1

  0
LINE
  5
218
330
215
100
AcDbEntity
  8
0
  6
Continuous
 62
     0
370
    18
100
AcDbLine
 10
0.0
 20
0.0
 30
0.0
 11
0.0
 21
0.1
 31
0.0
  0
LINE
  5
219
330
215
100
AcDbEntity
  8
0
  6
Continuous
 62
     0
370
    18
100
AcDbLine
 10
0.0
 20
0.0
 30
0.0
 11
-0.1
 21
0.0
 31
0.0
  0
LINE
  5
21A
330
215
100
AcDbEntity
  8
0
  6
Continuous
 62
     0
370
    18
100
AcDbLine
 10
0.0
 20
0.0
 30
0.0
 11
0.0
 21
-0.1
 31
0.0
  0
LINE
  5
21B
330
215
100
AcDbEntity
  8
0
  6
Continuous
 62
     0
370
    18
100
AcDbLine
 10
0.0
 20
0.0
 30
0.0
 11
0.1
 21
0.0
 31
0.0
  0
LINE
  5
21C
330
215
100
AcDbEntity
  8
0
  6
Continuous
 62
     0
370
    18
100
AcDbLine
 10
0.0
 20
0.2
 30
0.0
 11
0.0
 21
0.2375
 31
0.0
  0
LINE
  5
21D
330
215
100
AcDbEntity
  8
0
  6
Continuous
 62
     0
370
    18
100
AcDbLine
 10
-0.2
 20
0.0
 30
0.0
 11
-0.2375
 21
0.0
 31
0.0
  0
LINE
  5
21E
330
215
100
AcDbEntity
  8
0
  6
Continuous
 62
     0
370
    18
100
AcDbLine
 10
0.0
 20
-0.2
 30
0.0
 11
0.0
 21
-0.2375
 31
0.0
  0
LINE
  5
21F
330
215
100
AcDbEntity
  8
0
  6
Continuous
 62
     0
370
    18
100
AcDbLine
 10
0.2
 20
0.0
 30
0.0
 11
0.2375
 21
0.0
 31
0.0
  0
ENDBLK
  5
217
330
215
100
AcDbEntity
  8
0
100
AcDbBlockEnd
  0
BLOCK
  5
222
330
221
100
AcDbEntity
  8
0
100
AcDbBlockBegin
  2
SW_CENTERMARKSYMBOL_6
 70
     0
 10
0.0
 20
0.0
 30
0.0
  3
SW_CENTERMARKSYMBOL_6
  1

  0
LINE
  5
224
330
221
100
AcDbEntity
  8
0
  6
Continuous
 62
     0
370
    18
100
AcDbLine
 10
0.0
 20
0.0
 30
0.0
 11
0.0
 21
0.1
 31
0.0
  0
LINE
  5
225
330
221
100
AcDbEntity
  8
0
  6
Continuous
 62
     0
370
    18
100
AcDbLine
 10
0.0
 20
0.0
 30
0.0
 11
-0.1
 21
0.0
 31
0.0
  0
LINE
  5
226
330
221
100
AcDbEntity
  8
0
  6
Continuous
 62
     0
370
    18
100
AcDbLine
 10
0.0
 20
0.0
 30
0.0
 11
0.0
 21
-0.1
 31
0.0
  0
LINE
  5
227
330
221
100
AcDbEntity
  8
0
  6
Continuous
 62
     0
370
    18
100
AcDbLine
 10
0.0
 20
0.0
 30
0.0
 11
0.1
 21
0.0
 31
0.0
  0
LINE
  5
228
330
221
100
AcDbEntity
  8
0
  6
Continuous
 62
     0
370
    18
100
AcDbLine
 10
0.0
 20
0.2
 30
0.0
 11
0.0
 21
0.29
 31
0.0
  0
LINE
  5
229
330
221
100
AcDbEntity
  8
0
  6
Continuous
 62
     0
370
    18
100
AcDbLine
 10
-0.2
 20
0.0
 30
0.0
 11
-0.29
 21
0.0
 31
0.0
  0
LINE
  5
22A
330
221
100
AcDbEntity
  8
0
  6
Continuous
 62
     0
370
    18
100
AcDbLine
 10
0.0
 20
-0.2
 30
0.0
 11
0.0
 21
-0.29
 31
0.0
  0
LINE
  5
22B
330
221
100
AcDbEntity
  8
0
  6
Continuous
 62
     0
370
    18
100
AcDbLine
 10
0.2
 20
0.0
 30
0.0
 11
0.29
 21
0.0
 31
0.0
  0
ENDBLK
  5
223
330
221
100
AcDbEntity
  8
0
100
AcDbBlockEnd
  0
BLOCK
  5
22E
330
22D
100
AcDbEntity
  8
0
100
AcDbBlockBegin
  2
SW_CENTERMARKSYMBOL_7
 70
     0
 10
0.0
 20
0.0
 30
0.0
  3
SW_CENTERMARKSYMBOL_7
  1

  0
LINE
  5
230
330
22D
100
AcDbEntity
  8
0
  6
Continuous
 62
     0
370
    18
100
AcDbLine
 10
0.0
 20
0.0
 30
0.0
 11
0.0
 21
0.1
 31
0.0
  0
LINE
  5
231
330
22D
100
AcDbEntity
  8
0
  6
Continuous
 62
     0
370
    18
100
AcDbLine
 10
0.0
 20
0.0
 30
0.0
 11
-0.1
 21
0.0
 31
0.0
  0
LINE
  5
232
330
22D
100
AcDbEntity
  8
0
  6
Continuous
 62
     0
370
    18
100
AcDbLine
 10
0.0
 20
0.0
 30
0.0
 11
0.0
 21
-0.1
 31
0.0
  0
LINE
  5
233
330
22D
100
AcDbEntity
  8
0
  6
Continuous
 62
     0
370
    18
100
AcDbLine
 10
0.0
 20
0.0
 30
0.0
 11
0.1
 21
0.0
 31
0.0
  0
LINE
  5
234
330
22D
100
AcDbEntity
  8
0
  6
Continuous
 62
     0
370
    18
100
AcDbLine
 10
0.0
 20
0.2
 30
0.0
 11
0.0
 21
0.29
 31
0.0
  0
LINE
  5
235
330
22D
100
AcDbEntity
  8
0
  6
Continuous
 62
     0
370
    18
100
AcDbLine
 10
-0.2
 20
0.0
 30
0.0
 11
-0.29
 21
0.0
 31
0.0
  0
LINE
  5
236
330
22D
100
AcDbEntity
  8
0
  6
Continuous
 62
     0
370
    18
100
AcDbLine
 10
0.0
 20
-0.2
 30
0.0
 11
0.0
 21
-0.29
 31
0.0
  0
LINE
  5
237
330
22D
100
AcDbEntity
  8
0
  6
Continuous
 62
     0
370
    18
100
AcDbLine
 10
0.2
 20
0.0
 30
0.0
 11
0.29
 21
0.0
 31
0.0
  0
ENDBLK
  5
22F
330
22D
100
AcDbEntity
  8
0
100
AcDbBlockEnd
  0
BLOCK
  5
23A
330
239
100
AcDbEntity
  8
0
100
AcDbBlockBegin
  2
SW_CENTERMARKSYMBOL_8
 70
     0
 10
0.0
 20
0.0
 30
0.0
  3
SW_CENTERMARKSYMBOL_8
  1

  0
LINE
  5
23C
330
239
100
AcDbEntity
  8
0
  6
Continuous
 62
     0
370
    18
100
AcDbLine
 10
0.0
 20
0.0
 30
0.0
 11
0.0
 21
0.1
 31
0.0
  0
LINE
  5
23D
330
239
100
AcDbEntity
  8
0
  6
Continuous
 62
     0
370
    18
100
AcDbLine
 10
0.0
 20
0.0
 30
0.0
 11
-0.1
 21
0.0
 31
0.0
  0
LINE
  5
23E
330
239
100
AcDbEntity
  8
0
  6
Continuous
 62
     0
370
    18
100
AcDbLine
 10
0.0
 20
0.0
 30
0.0
 11
0.0
 21
-0.1
 31
0.0
  0
LINE
  5
23F
330
239
100
AcDbEntity
  8
0
  6
Continuous
 62
     0
370
    18
100
AcDbLine
 10
0.0
 20
0.0
 30
0.0
 11
0.1
 21
0.0
 31
0.0
  0
LINE
  5
240
330
239
100
AcDbEntity
  8
0
  6
Continuous
 62
     0
370
    18
100
AcDbLine
 10
0.0
 20
0.2
 30
0.0
 11
0.0
 21
0.2375
 31
0.0
  0
LINE
  5
241
330
239
100
AcDbEntity
  8
0
  6
Continuous
 62
     0
370
    18
100
AcDbLine
 10
-0.2
 20
0.0
 30
0.0
 11
-0.2375
 21
0.0
 31
0.0
  0
LINE
  5
242
330
239
100
AcDbEntity
  8
0
  6
Continuous
 62
     0
370
    18
100
AcDbLine
 10
0.0
 20
-0.2
 30
0.0
 11
0.0
 21
-0.2375
 31
0.0
  0
LINE
  5
243
330
239
100
AcDbEntity
  8
0
  6
Continuous
 62
     0
370
    18
100
AcDbLine
 10
0.2
 20
0.0
 30
0.0
 11
0.2375
 21
0.0
 31
0.0
  0
ENDBLK
  5
23B
330
239
100
AcDbEntity
  8
0
100
AcDbBlockEnd
  0
BLOCK
  5
246
330
245
100
AcDbEntity
  8
0
100
AcDbBlockBegin
  2
SW_CENTERMARKSYMBOL_9
 70
     0
 10
0.0
 20
0.0
 30
0.0
  3
SW_CENTERMARKSYMBOL_9
  1

  0
LINE
  5
248
330
245
100
AcDbEntity
  8
0
  6
Continuous
 62
     0
370
    18
100
AcDbLine
 10
0.0
 20
0.0
 30
0.0
 11
0.0
 21
0.1
 31
0.0
  0
LINE
  5
249
330
245
100
AcDbEntity
  8
0
  6
Continuous
 62
     0
370
    18
100
AcDbLine
 10
0.0
 20
0.0
 30
0.0
 11
-0.1
 21
0.0
 31
0.0
  0
LINE
  5
24A
330
245
100
AcDbEntity
  8
0
  6
Continuous
 62
     0
370
    18
100
AcDbLine
 10
0.0
 20
0.0
 30
0.0
 11
0.0
 21
-0.1
 31
0.0
  0
LINE
  5
24B
330
245
100
AcDbEntity
  8
0
  6
Continuous
 62
     0
370
    18
100
AcDbLine
 10
0.0
 20
0.0
 30
0.0
 11
0.1
 21
0.0
 31
0.0
  0
LINE
  5
24C
330
245
100
AcDbEntity
  8
0
  6
Continuous
 62
     0
370
    18
100
AcDbLine
 10
0.0
 20
0.2
 30
0.0
 11
0.0
 21
0.2575
 31
0.0
  0
LINE
  5
24D
330
245
100
AcDbEntity
  8
0
  6
Continuous
 62
     0
370
    18
100
AcDbLine
 10
-0.2
 20
0.0
 30
0.0
 11
-0.2575
 21
0.0
 31
0.0
  0
LINE
  5
24E
330
245
100
AcDbEntity
  8
0
  6
Continuous
 62
     0
370
    18
100
AcDbLine
 10
0.0
 20
-0.2
 30
0.0
 11
0.0
 21
-0.2575
 31
0.0
  0
LINE
  5
24F
330
245
100
AcDbEntity
  8
0
  6
Continuous
 62
     0
370
    18
100
AcDbLine
 10
0.2
 20
0.0
 30
0.0
 11
0.2575
 21
0.0
 31
0.0
  0
ENDBLK
  5
247
330
245
100
AcDbEntity
  8
0
100
AcDbBlockEnd
  0
BLOCK
  5
252
330
251
100
AcDbEntity
  8
0
100
AcDbBlockBegin
  2
SW_CENTERMARKSYMBOL_10
 70
     0
 10
0.0
 20
0.0
 30
0.0
  3
SW_CENTERMARKSYMBOL_10
  1

  0
LINE
  5
254
330
251
100
AcDbEntity
  8
0
  6
Continuous
 62
     0
370
    18
100
AcDbLine
 10
0.0
 20
0.0
 30
0.0
 11
0.0
 21
0.1
 31
0.0
  0
LINE
  5
255
330
251
100
AcDbEntity
  8
0
  6
Continuous
 62
     0
370
    18
100
AcDbLine
 10
0.0
 20
0.0
 30
0.0
 11
-0.1
 21
0.0
 31
0.0
  0
LINE
  5
256
330
251
100
AcDbEntity
  8
0
  6
Continuous
 62
     0
370
    18
100
AcDbLine
 10
0.0
 20
0.0
 30
0.0
 11
0.0
 21
-0.1
 31
0.0
  0
LINE
  5
257
330
251
100
AcDbEntity
  8
0
  6
Continuous
 62
     0
370
    18
100
AcDbLine
 10
0.0
 20
0.0
 30
0.0
 11
0.1
 21
0.0
 31
0.0
  0
LINE
  5
258
330
251
100
AcDbEntity
  8
0
  6
Continuous
 62
     0
370
    18
100
AcDbLine
 10
0.0
 20
0.2
 30
0.0
 11
0.0
 21
0.2575
 31
0.0
  0
LINE
  5
259
330
251
100
AcDbEntity
  8
0
  6
Continuous
 62
     0
370
    18
100
AcDbLine
 10
-0.2
 20
0.0
 30
0.0
 11
-0.2575
 21
0.0
 31
0.0
  0
LINE
  5
25A
330
251
100
AcDbEntity
  8
0
  6
Continuous
 62
     0
370
    18
100
AcDbLine
 10
0.0
 20
-0.2
 30
0.0
 11
0.0
 21
-0.2575
 31
0.0
  0
LINE
  5
25B
330
251
100
AcDbEntity
  8
0
  6
Continuous
 62
     0
370
    18
100
AcDbLine
 10
0.2
 20
0.0
 30
0.0
 11
0.2575
 21
0.0
 31
0.0
  0
ENDBLK
  5
253
330
251
100
AcDbEntity
  8
0
100
AcDbBlockEnd
  0
BLOCK
  5
25E
330
25D
100
AcDbEntity
  8
0
100
AcDbBlockBegin
  2
SW_CENTERMARKSYMBOL_11
 70
     0
 10
0.0
 20
0.0
 30
0.0
  3
SW_CENTERMARKSYMBOL_11
  1

  0
LINE
  5
260
330
25D
100
AcDbEntity
  8
0
  6
Continuous
 62
     0
370
    18
100
AcDbLine
 10
0.0
 20
0.0
 30
0.0
 11
0.0
 21
0.1
 31
0.0
  0
LINE
  5
261
330
25D
100
AcDbEntity
  8
0
  6
Continuous
 62
     0
370
    18
100
AcDbLine
 10
0.0
 20
0.0
 30
0.0
 11
-0.1
 21
0.0
 31
0.0
  0
LINE
  5
262
330
25D
100
AcDbEntity
  8
0
  6
Continuous
 62
     0
370
    18
100
AcDbLine
 10
0.0
 20
0.0
 30
0.0
 11
0.0
 21
-0.1
 31
0.0
  0
LINE
  5
263
330
25D
100
AcDbEntity
  8
0
  6
Continuous
 62
     0
370
    18
100
AcDbLine
 10
0.0
 20
0.0
 30
0.0
 11
0.1
 21
0.0
 31
0.0
  0
LINE
  5
264
330
25D
100
AcDbEntity
  8
0
  6
Continuous
 62
     0
370
    18
100
AcDbLine
 10
0.0
 20
0.2
 30
0.0
 11
0.0
 21
0.2375
 31
0.0
  0
LINE
  5
265
330
25D
100
AcDbEntity
  8
0
  6
Continuous
 62
     0
370
    18
100
AcDbLine
 10
-0.2
 20
0.0
 30
0.0
 11
-0.2375
 21
0.0
 31
0.0
  0
LINE
  5
266
330
25D
100
AcDbEntity
  8
0
  6
Continuous
 62
     0
370
    18
100
AcDbLine
 10
0.0
 20
-0.2
 30
0.0
 11
0.0
 21
-0.2375
 31
0.0
  0
LINE
  5
267
330
25D
100
AcDbEntity
  8
0
  6
Continuous
 62
     0
370
    18
100
AcDbLine
 10
0.2
 20
0.0
 30
0.0
 11
0.2375
 21
0.0
 31
0.0
  0
ENDBLK
  5
25F
330
25D
100
AcDbEntity
  8
0
100
AcDbBlockEnd
  0
BLOCK
  5
2BE
330
2BD
100
AcDbEntity
  8
0
100
AcDbBlockBegin
  2
_D_7
 70
     0
 10
0.0
 20
0.0
 30
0.0
  3
_D_7
  1

  0
SOLID
  5
2C0
330
2BD
100
AcDbEntity
  8
0
  6
Continuous
 62
     7
370
    18
100
AcDbTrace
 10
2.0847217306
 20
3.0051596126
 30
0.0
 11
2.1147217306
 21
3.2001596126
 31
0.0
 12
2.0547217306
 22
3.2001596126
 32
0.0
 13
2.0547217306
 23
3.2001596126
 33
0.0
  0
SOLID
  5
2C1
330
2BD
100
AcDbEntity
  8
0
  6
Continuous
 62
     7
370
    18
100
AcDbTrace
 10
2.0847217306
 20
5.9579155181
 30
0.0
 11
2.0547217306
 21
5.7629155181
 31
0.0
 12
2.1147217306
 22
5.7629155181
 32
0.0
 13
2.1147217306
 23
5.7629155181
 33
0.0
  0
LINE
  5
2C2
330
2BD
100
AcDbEntity
  8
0
  6
Continuous
 62
     7
370
    18
100
AcDbLine
 10
1.946180091
 20
4.4801052444
 30
0.0
 11
1.8890511854
 21
4.4801052444
 31
0.0
  0
LINE
  5
2C3
330
2BD
100
AcDbEntity
  8
0
  6
Continuous
 62
     7
370
    18
100
AcDbLine
 10
1.8890511854
 20
4.4801052444
 30
0.0
 11
1.8890511854
 21
4.1824489854
 31
0.0
  0
LINE
  5
2C4
330
2BD
100
AcDbEntity
  8
0
  6
Continuous
 62
     7
370
    18
100
AcDbLine
 10
1.8890511854
 20
4.1824489854
 30
0.0
 11
1.946180091
 21
4.1824489854
 31
0.0
  0
LINE
  5
2C5
330
2BD
100
AcDbEntity
  8
0
  6
Continuous
 62
     7
370
    18
100
AcDbLine
 10
2.2232634251
 20
4.4801052444
 30
0.0
 11
2.2803923308
 21
4.4801052444
 31
0.0
  0
LINE
  5
2C6
330
2BD
100
AcDbEntity
  8
0
  6
Continuous
 62
     7
370
    18
100
AcDbLine
 10
2.2803923308
 20
4.4801052444
 30
0.0
 11
2.2803923308
 21
4.1824489854
 31
0.0
  0
LINE
  5
2C7
330
2BD
100
AcDbEntity
  8
0
  6
Continuous
 62
     7
370
    18
100
AcDbLine
 10
2.2803923308
 20
4.1824489854
 30
0.0
 11
2.2232634251
 21
4.1824489854
 31
0.0
  0
LINE
  5
2C8
330
2BD
100
AcDbEntity
  8
0
  6
Continuous
 62
     7
370
    18
100
AcDbLine
 10
2.8790623549
 20
3.0051596126
 30
0.0
 11
1.8972217306
 21
3.0051596126
 31
0.0
  0
LINE
  5
2C9
330
2BD
100
AcDbEntity
  8
0
  6
Continuous
 62
     7
370
    18
100
AcDbLine
 10
2.8790618711
 20
5.9579155181
 30
0.0
 11
1.8972217306
 21
5.9579155181
 31
0.0
  0
LINE
  5
2CA
330
2BD
100
AcDbEntity
  8
0
  6
Continuous
 62
     7
370
    18
100
AcDbLine
 10
2.0847217306
 20
3.0051596126
 30
0.0
 11
2.0847217306
 21
4.1443631079
 31
0.0
  0
LINE
  5
2CB
330
2BD
100
AcDbEntity
  8
0
  6
Continuous
 62
     7
370
    18
100
AcDbLine
 10
2.0847217306
 20
5.9579155181
 30
0.0
 11
2.0847217306
 21
4.8187120228
 31
0.0
  0
MTEXT
  5
2CC
330
2BD
100
AcDbEntity
  8
0
  6
Continuous
 62
     7
370
    18
100
AcDbMText
 10
1.8329639462
 20
4.7627559857
 30
0.0
 40
0.1875
 41
0.0
 71
     1
 72
     1
  1

  7
SLDTEXTSTYLE0
 73
     1
 44
1.0
  0
MTEXT
  5
2CD
330
2BD
100
AcDbEntity
  8
0
  6
Continuous
 62
     7
370
    18
100
AcDbMText
 10
1.8422738201
 20
4.7598913884
 30
0.0
 40
0.1875
 41
0.0
 71
     1
 72
     1
  1
2.95
  7
SLDTEXTSTYLE0
 73
     1
 44
1.0
  0
MTEXT
  5
2CE
330
2BD
100
AcDbEntity
  8
0
  6
Continuous
 62
     7
370
    18
100
AcDbMText
 10
1.946180091
 20
4.4241492073
 30
0.0
 40
0.1875
 41
0.0
 71
     1
 72
     1
  1
75
  7
SLDTEXTSTYLE0
 73
     1
 44
1.0
  0
MTEXT
  5
2CF
330
2BD
100
AcDbEntity
  8
0
  6
Continuous
 62
     7
370
    18
100
AcDbMText
 10
2.4078336952
 20
4.7627559857
 30
0.0
 40
0.1875
 41
0.0
 71
     1
 72
     1
  1

  7
SLDTEXTSTYLE0
 73
     1
 44
1.0
  0
ENDBLK
  5
2BF
330
2BD
100
AcDbEntity
  8
0
100
AcDbBlockEnd
  0
BLOCK
  5
2D2
330
2D1
100
AcDbEntity
  8
0
100
AcDbBlockBegin
  2
_D_8
 70
     0
 10
0.0
 20
0.0
 30
0.0
  3
_D_8
  1

  0
SOLID
  5
2D4
330
2D1
100
AcDbEntity
  8
0
  6
Continuous
 62
     7
370
    18
100
AcDbTrace
 10
8.4415203858
 20
3.0051596126
 30
0.0
 11
8.4715203858
 21
3.2001596126
 31
0.0
 12
8.4115203858
 22
3.2001596126
 32
0.0
 13
8.4115203858
 23
3.2001596126
 33
0.0
  0
SOLID
  5
2D5
330
2D1
100
AcDbEntity
  8
0
  6
Continuous
 62
     7
370
    18
100
AcDbTrace
 10
8.4415203858
 20
5.1705139433
 30
0.0
 11
8.4115203858
 21
4.9755139433
 31
0.0
 12
8.4715203858
 22
4.9755139433
 32
0.0
 13
8.4715203858
 23
4.9755139433
 33
0.0
  0
LINE
  5
2D6
330
2D1
100
AcDbEntity
  8
0
  6
Continuous
 62
     7
370
    18
100
AcDbLine
 10
8.3029787463
 20
4.086404457
 30
0.0
 11
8.2458498406
 21
4.086404457
 31
0.0
  0
LINE
  5
2D7
330
2D1
100
AcDbEntity
  8
0
  6
Continuous
 62
     7
370
    18
100
AcDbLine
 10
8.2458498406
 20
4.086404457
 30
0.0
 11
8.2458498406
 21
3.788748198
 31
0.0
  0
LINE
  5
2D8
330
2D1
100
AcDbEntity
  8
0
  6
Continuous
 62
     7
370
    18
100
AcDbLine
 10
8.2458498406
 20
3.788748198
 30
0.0
 11
8.3029787463
 21
3.788748198
 31
0.0
  0
LINE
  5
2D9
330
2D1
100
AcDbEntity
  8
0
  6
Continuous
 62
     7
370
    18
100
AcDbLine
 10
8.5800620804
 20
4.086404457
 30
0.0
 11
8.6371909861
 21
4.086404457
 31
0.0
  0
LINE
  5
2DA
330
2D1
100
AcDbEntity
  8
0
  6
Continuous
 62
     7
370
    18
100
AcDbLine
 10
8.6371909861
 20
4.086404457
 30
0.0
 11
8.6371909861
 21
3.788748198
 31
0.0
  0
LINE
  5
2DB
330
2D1
100
AcDbEntity
  8
0
  6
Continuous
 62
     7
370
    18
100
AcDbLine
 10
8.6371909861
 20
3.788748198
 30
0.0
 11
8.5800620804
 21
3.788748198
 31
0.0
  0
LINE
  5
2DC
330
2D1
100
AcDbEntity
  8
0
  6
Continuous
 62
     7
370
    18
100
AcDbLine
 10
7.2416243934
 20
3.0051596126
 30
0.0
 11
8.6290203858
 21
3.0051596126
 31
0.0
  0
LINE
  5
2DD
330
2D1
100
AcDbEntity
  8
0
  6
Continuous
 62
     7
370
    18
100
AcDbLine
 10
7.5959733093
 20
5.1705139433
 30
0.0
 11
8.6290203858
 21
5.1705139433
 31
0.0
  0
LINE
  5
2DE
330
2D1
100
AcDbEntity
  8
0
  6
Continuous
 62
     7
370
    18
100
AcDbLine
 10
8.4415203858
 20
3.0051596126
 30
0.0
 11
8.4415203858
 21
3.7506623205
 31
0.0
  0
LINE
  5
2DF
330
2D1
100
AcDbEntity
  8
0
  6
Continuous
 62
     7
370
    18
100
AcDbLine
 10
8.4415203858
 20
5.1705139433
 30
0.0
 11
8.4415203858
 21
4.4250112354
 31
0.0
  0
MTEXT
  5
2E0
330
2D1
100
AcDbEntity
  8
0
  6
Continuous
 62
     7
370
    18
100
AcDbMText
 10
8.1897626014
 20
4.3690551983
 30
0.0
 40
0.1875
 41
0.0
 71
     1
 72
     1
  1

  7
SLDTEXTSTYLE0
 73
     1
 44
1.0
  0
MTEXT
  5
2E1
330
2D1
100
AcDbEntity
  8
0
  6
Continuous
 62
     7
370
    18
100
AcDbMText
 10
8.1990724754
 20
4.366190601
 30
0.0
 40
0.1875
 41
0.0
 71
     1
 72
     1
  1
2.17
  7
SLDTEXTSTYLE0
 73
     1
 44
1.0
  0
MTEXT
  5
2E2
330
2D1
100
AcDbEntity
  8
0
  6
Continuous
 62
     7
370
    18
100
AcDbMText
 10
8.3029787463
 20
4.0304484199
 30
0.0
 40
0.1875
 41
0.0
 71
     1
 72
     1
  1
55
  7
SLDTEXTSTYLE0
 73
     1
 44
1.0
  0
MTEXT
  5
2E3
330
2D1
100
AcDbEntity
  8
0
  6
Continuous
 62
     7
370
    18
100
AcDbMText
 10
8.7646323505
 20
4.3690551983
 30
0.0
 40
0.1875
 41
0.0
 71
     1
 72
     1
  1

  7
SLDTEXTSTYLE0
 73
     1
 44
1.0
  0
ENDBLK
  5
2D3
330
2D1
100
AcDbEntity
  8
0
100
AcDbBlockEnd
  0
BLOCK
  5
2E7
330
2E6
100
AcDbEntity
  8
0
100
AcDbBlockBegin
  2
_D_9
 70
     0
 10
0.0
 20
0.0
 30
0.0
  3
_D_9
  1

  0
SOLID
  5
2E9
330
2E6
100
AcDbEntity
  8
0
  6
Continuous
 62
     7
370
    18
100
AcDbTrace
 10
8.4415203858
 20
5.1705139433
 30
0.0
 11
8.4115203858
 21
4.9755139433
 31
0.0
 12
8.4715203858
 22
4.9755139433
 32
0.0
 13
8.4715203858
 23
4.9755139433
 33
0.0
  0
SOLID
  5
2EA
330
2E6
100
AcDbEntity
  8
0
  6
Continuous
 62
     7
370
    18
100
AcDbTrace
 10
8.4415203858
 20
5.9579155181
 30
0.0
 11
8.4715203858
 21
6.1529155181
 31
0.0
 12
8.4115203858
 22
6.1529155181
 32
0.0
 13
8.4115203858
 23
6.1529155181
 33
0.0
  0
LINE
  5
2EB
330
2E6
100
AcDbEntity
  8
0
  6
Continuous
 62
     7
370
    18
100
AcDbLine
 10
8.3029787463
 20
5.5627824098
 30
0.0
 11
8.2458498406
 21
5.5627824098
 31
0.0
  0
LINE
  5
2EC
330
2E6
100
AcDbEntity
  8
0
  6
Continuous
 62
     7
370
    18
100
AcDbLine
 10
8.2458498406
 20
5.5627824098
 30
0.0
 11
8.2458498406
 21
5.2651261508
 31
0.0
  0
LINE
  5
2ED
330
2E6
100
AcDbEntity
  8
0
  6
Continuous
 62
     7
370
    18
100
AcDbLine
 10
8.2458498406
 20
5.2651261508
 30
0.0
 11
8.3029787463
 21
5.2651261508
 31
0.0
  0
LINE
  5
2EE
330
2E6
100
AcDbEntity
  8
0
  6
Continuous
 62
     7
370
    18
100
AcDbLine
 10
8.5800620804
 20
5.5627824098
 30
0.0
 11
8.6371909861
 21
5.5627824098
 31
0.0
  0
LINE
  5
2EF
330
2E6
100
AcDbEntity
  8
0
  6
Continuous
 62
     7
370
    18
100
AcDbLine
 10
8.6371909861
 20
5.5627824098
 30
0.0
 11
8.6371909861
 21
5.2651261508
 31
0.0
  0
LINE
  5
2F0
330
2E6
100
AcDbEntity
  8
0
  6
Continuous
 62
     7
370
    18
100
AcDbLine
 10
8.6371909861
 20
5.2651261508
 30
0.0
 11
8.5800620804
 21
5.2651261508
 31
0.0
  0
LINE
  5
2F1
330
2E6
100
AcDbEntity
  8
0
  6
Continuous
 62
     7
370
    18
100
AcDbLine
 10
7.5959733093
 20
5.1705139433
 30
0.0
 11
8.6290203858
 21
5.1705139433
 31
0.0
  0
LINE
  5
2F2
330
2E6
100
AcDbEntity
  8
0
  6
Continuous
 62
     7
370
    18
100
AcDbLine
 10
7.2416235095
 20
5.9579155181
 30
0.0
 11
8.6290203858
 21
5.9579155181
 31
0.0
  0
LINE
  5
2F3
330
2E6
100
AcDbEntity
  8
0
  6
Continuous
 62
     7
370
    18
100
AcDbLine
 10
8.4415203858
 20
5.1705139433
 30
0.0
 11
8.4415203858
 21
4.7955139433
 31
0.0
  0
LINE
  5
2F4
330
2E6
100
AcDbEntity
  8
0
  6
Continuous
 62
     7
370
    18
100
AcDbLine
 10
8.4415203858
 20
5.9579155181
 30
0.0
 11
8.4415203858
 21
6.3329155181
 31
0.0
  0
MTEXT
  5
2F5
330
2E6
100
AcDbEntity
  8
0
  6
Continuous
 62
     7
370
    18
100
AcDbMText
 10
8.1897626014
 20
5.845433151
 30
0.0
 40
0.1875
 41
0.0
 71
     1
 72
     1
  1

  7
SLDTEXTSTYLE0
 73
     1
 44
1.0
  0
MTEXT
  5
2F6
330
2E6
100
AcDbEntity
  8
0
  6
Continuous
 62
     7
370
    18
100
AcDbMText
 10
8.2683433226
 20
5.8425685538
 30
0.0
 40
0.1875
 41
0.0
 71
     1
 72
     1
  1
.79
  7
SLDTEXTSTYLE0
 73
     1
 44
1.0
  0
MTEXT
  5
2F7
330
2E6
100
AcDbEntity
  8
0
  6
Continuous
 62
     7
370
    18
100
AcDbMText
 10
8.3029787463
 20
5.5068263726
 30
0.0
 40
0.1875
 41
0.0
 71
     1
 72
     1
  1
20
  7
SLDTEXTSTYLE0
 73
     1
 44
1.0
  0
MTEXT
  5
2F8
330
2E6
100
AcDbEntity
  8
0
  6
Continuous
 62
     7
370
    18
100
AcDbMText
 10
8.7646323505
 20
5.845433151
 30
0.0
 40
0.1875
 41
0.0
 71
     1
 72
     1
  1

  7
SLDTEXTSTYLE0
 73
     1
 44
1.0
  0
ENDBLK
  5
2E8
330
2E6
100
AcDbEntity
  8
0
100
AcDbBlockEnd
  0
BLOCK
  5
2FB
330
2FA
100
AcDbEntity
  8
0
100
AcDbBlockBegin
  2
_D_10
 70
     0
 10
0.0
 20
0.0
 30
0.0
  3
_D_10
  1

  0
SOLID
  5
2FD
330
2FA
100
AcDbEntity
  8
0
  6
Continuous
 62
     7
370
    18
100
AcDbTrace
 10
7.9166623312
 20
3.0051596126
 30
0.0
 11
7.9466623312
 21
3.2001596126
 31
0.0
 12
7.8866623312
 22
3.2001596126
 32
0.0
 13
7.8866623312
 23
3.2001596126
 33
0.0
  0
SOLID
  5
2FE
330
2FA
100
AcDbEntity
  8
0
  6
Continuous
 62
     7
370
    18
100
AcDbTrace
 10
7.9166623312
 20
2.9657895339
 30
0.0
 11
7.8866623312
 21
2.7707895339
 31
0.0
 12
7.9466623312
 22
2.7707895339
 32
0.0
 13
7.9466623312
 23
2.7707895339
 33
0.0
  0
LINE
  5
2FF
330
2FA
100
AcDbEntity
  8
0
  6
Continuous
 62
     7
370
    18
100
AcDbLine
 10
8.3325896362
 20
2.619504583
 30
0.0
 11
8.2754607305
 21
2.619504583
 31
0.0
  0
LINE
  5
300
330
2FA
100
AcDbEntity
  8
0
  6
Continuous
 62
     7
370
    18
100
AcDbLine
 10
8.2754607305
 20
2.619504583
 30
0.0
 11
8.2754607305
 21
2.3218483241
 31
0.0
  0
LINE
  5
301
330
2FA
100
AcDbEntity
  8
0
  6
Continuous
 62
     7
370
    18
100
AcDbLine
 10
8.2754607305
 20
2.3218483241
 30
0.0
 11
8.3325896362
 21
2.3218483241
 31
0.0
  0
LINE
  5
302
330
2FA
100
AcDbEntity
  8
0
  6
Continuous
 62
     7
370
    18
100
AcDbLine
 10
8.4711313032
 20
2.619504583
 30
0.0
 11
8.5282602089
 21
2.619504583
 31
0.0
  0
LINE
  5
303
330
2FA
100
AcDbEntity
  8
0
  6
Continuous
 62
     7
370
    18
100
AcDbLine
 10
8.5282602089
 20
2.619504583
 30
0.0
 11
8.5282602089
 21
2.3218483241
 31
0.0
  0
LINE
  5
304
330
2FA
100
AcDbEntity
  8
0
  6
Continuous
 62
     7
370
    18
100
AcDbLine
 10
8.5282602089
 20
2.3218483241
 30
0.0
 11
8.4711313032
 21
2.3218483241
 31
0.0
  0
LINE
  5
305
330
2FA
100
AcDbEntity
  8
0
  6
Continuous
 62
     7
370
    18
100
AcDbLine
 10
7.2416243934
 20
3.0051596126
 30
0.0
 11
8.1041623312
 21
3.0051596126
 31
0.0
  0
LINE
  5
306
330
2FA
100
AcDbEntity
  8
0
  6
Continuous
 62
     7
370
    18
100
AcDbLine
 10
7.3400677975
 20
2.9657895339
 30
0.0
 11
8.1041623312
 21
2.9657895339
 31
0.0
  0
LINE
  5
307
330
2FA
100
AcDbEntity
  8
0
  6
Continuous
 62
     7
370
    18
100
AcDbLine
 10
8.1041623312
 20
2.620936904
 30
0.0
 11
7.9166623312
 21
2.620936904
 31
0.0
  0
LINE
  5
308
330
2FA
100
AcDbEntity
  8
0
  6
Continuous
 62
     7
370
    18
100
AcDbLine
 10
7.9166623312
 20
2.620936904
 30
0.0
 11
7.9166623312
 21
2.9657895339
 31
0.0
  0
LINE
  5
309
330
2FA
100
AcDbEntity
  8
0
  6
Continuous
 62
     7
370
    18
100
AcDbLine
 10
7.9166623312
 20
3.0051596126
 30
0.0
 11
7.9166623312
 21
3.3801596126
 31
0.0
  0
MTEXT
  5
30A
330
2FA
100
AcDbEntity
  8
0
  6
Continuous
 62
     7
370
    18
100
AcDbMText
 10
8.2286833927
 20
2.8992907271
 30
0.0
 40
0.1875
 41
0.0
 71
     1
 72
     1
  1
.04
  7
SLDTEXTSTYLE0
 73
     1
 44
1.0
  0
MTEXT
  5
30B
330
2FA
100
AcDbEntity
  8
0
  6
Continuous
 62
     7
370
    18
100
AcDbMText
 10
8.3325896362
 20
2.5635485459
 30
0.0
 40
0.1875
 41
0.0
 71
     1
 72
     1
  1
1
  7
SLDTEXTSTYLE0
 73
     1
 44
1.0
  0
MTEXT
  5
30C
330
2FA
100
AcDbEntity
  8
0
  6
Continuous
 62
     7
370
    18
100
AcDbMText
 10
8.6557016145
 20
2.9021553243
 30
0.0
 40
0.1875
 41
0.0
 71
     1
 72
     1
  1
PAD
  7
SLDTEXTSTYLE0
 73
     1
 44
1.0
  0
ENDBLK
  5
2FC
330
2FA
100
AcDbEntity
  8
0
100
AcDbBlockEnd
  0
BLOCK
  5
44E
330
44D
100
AcDbEntity
  8
0
100
AcDbBlockBegin
  2
_D_11
 70
     0
 10
0.0
 20
0.0
 30
0.0
  3
_D_11
  1

  0
SOLID
  5
450
330
44D
100
AcDbEntity
  8
0
  6
Continuous
 62
     7
370
    18
100
AcDbTrace
 10
16.068628156
 20
13.3998527491
 30
0.0
 11
16.263628156
 21
13.3698527491
 31
0.0
 12
16.263628156
 22
13.4298527491
 32
0.0
 13
16.263628156
 23
13.4298527491
 33
0.0
  0
SOLID
  5
451
330
44D
100
AcDbEntity
  8
0
  6
Continuous
 62
     7
370
    18
100
AcDbTrace
 10
19.601628156
 20
13.3998527491
 30
0.0
 11
19.406628156
 21
13.4298527491
 31
0.0
 12
19.406628156
 22
13.3698527491
 32
0.0
 13
19.406628156
 23
13.3698527491
 33
0.0
  0
LINE
  5
452
330
44D
100
AcDbEntity
  8
0
  6
Continuous
 62
     7
370
    18
100
AcDbLine
 10
17.5926802593
 20
13.3984204281
 30
0.0
 11
17.5355513536
 21
13.3984204281
 31
0.0
  0
LINE
  5
453
330
44D
100
AcDbEntity
  8
0
  6
Continuous
 62
     7
370
    18
100
AcDbLine
 10
17.5355513536
 20
13.3984204281
 30
0.0
 11
17.5355513536
 21
13.1007641692
 31
0.0
  0
LINE
  5
454
330
44D
100
AcDbEntity
  8
0
  6
Continuous
 62
     7
370
    18
100
AcDbLine
 10
17.5355513536
 20
13.1007641692
 30
0.0
 11
17.5926802593
 21
13.1007641692
 31
0.0
  0
LINE
  5
455
330
44D
100
AcDbEntity
  8
0
  6
Continuous
 62
     7
370
    18
100
AcDbLine
 10
18.0775761077
 20
13.3984204281
 30
0.0
 11
18.1347050134
 21
13.3984204281
 31
0.0
  0
LINE
  5
456
330
44D
100
AcDbEntity
  8
0
  6
Continuous
 62
     7
370
    18
100
AcDbLine
 10
18.1347050134
 20
13.3984204281
 30
0.0
 11
18.1347050134
 21
13.1007641692
 31
0.0
  0
LINE
  5
457
330
44D
100
AcDbEntity
  8
0
  6
Continuous
 62
     7
370
    18
100
AcDbLine
 10
18.1347050134
 20
13.1007641692
 30
0.0
 11
18.0775761077
 21
13.1007641692
 31
0.0
  0
LINE
  5
458
330
44D
100
AcDbEntity
  8
0
  6
Continuous
 62
     7
370
    18
100
AcDbLine
 10
16.068628156
 20
11.9476549409
 30
0.0
 11
16.068628156
 21
13.5873527491
 31
0.0
  0
LINE
  5
459
330
44D
100
AcDbEntity
  8
0
  6
Continuous
 62
     7
370
    18
100
AcDbLine
 10
19.601628156
 20
11.9476549409
 30
0.0
 11
19.601628156
 21
13.5873527491
 31
0.0
  0
LINE
  5
45A
330
44D
100
AcDbEntity
  8
0
  6
Continuous
 62
     7
370
    18
100
AcDbLine
 10
16.068628156
 20
13.3998527491
 30
0.0
 11
17.3710951166
 21
13.3998527491
 31
0.0
  0
LINE
  5
45B
330
44D
100
AcDbEntity
  8
0
  6
Continuous
 62
     7
370
    18
100
AcDbLine
 10
19.601628156
 20
13.3998527491
 30
0.0
 11
18.2991611955
 21
13.3998527491
 31
0.0
  0
MTEXT
  5
45C
330
44D
100
AcDbEntity
  8
0
  6
Continuous
 62
     7
370
    18
100
AcDbMText
 10
17.4794641144
 20
13.6810711694
 30
0.0
 40
0.1875
 41
0.0
 71
     1
 72
     1
  1

  7
SLDTEXTSTYLE0
 73
     1
 44
1.0
  0
MTEXT
  5
45D
330
44D
100
AcDbEntity
  8
0
  6
Continuous
 62
     7
370
    18
100
AcDbMText
 10
17.5926802455
 20
13.6782065722
 30
0.0
 40
0.1875
 41
0.0
 71
     1
 72
     1
  1
3.53
  7
SLDTEXTSTYLE0
 73
     1
 44
1.0
  0
MTEXT
  5
45E
330
44D
100
AcDbEntity
  8
0
  6
Continuous
 62
     7
370
    18
100
AcDbMText
 10
17.5926802593
 20
13.342464391
 30
0.0
 40
0.1875
 41
0.0
 71
     1
 72
     1
  1
89.7
  7
SLDTEXTSTYLE0
 73
     1
 44
1.0
  0
MTEXT
  5
45F
330
44D
100
AcDbEntity
  8
0
  6
Continuous
 62
     7
370
    18
100
AcDbMText
 10
18.2621463778
 20
13.6810711694
 30
0.0
 40
0.1875
 41
0.0
 71
     1
 72
     1
  1

  7
SLDTEXTSTYLE0
 73
     1
 44
1.0
  0
ENDBLK
  5
44F
330
44D
100
AcDbEntity
  8
0
100
AcDbBlockEnd
  0
BLOCK
  5
462
330
461
100
AcDbEntity
  8
0
100
AcDbBlockBegin
  2
_D_12
 70
     0
 10
0.0
 20
0.0
 30
0.0
  3
_D_12
  1

  0
SOLID
  5
464
330
461
100
AcDbEntity
  8
0
  6
Continuous
 62
     7
370
    18
100
AcDbTrace
 10
16.453128156
 20
7.4952757333
 30
0.0
 11
16.648128156
 21
7.4652757333
 31
0.0
 12
16.648128156
 22
7.5252757333
 32
0.0
 13
16.648128156
 23
7.5252757333
 33
0.0
  0
SOLID
  5
465
330
461
100
AcDbEntity
  8
0
  6
Continuous
 62
     7
370
    18
100
AcDbTrace
 10
19.217128156
 20
7.4952757333
 30
0.0
 11
19.022128156
 21
7.5252757333
 31
0.0
 12
19.022128156
 22
7.4652757333
 32
0.0
 13
19.022128156
 23
7.4652757333
 33
0.0
  0
LINE
  5
466
330
461
100
AcDbEntity
  8
0
  6
Continuous
 62
     7
370
    18
100
AcDbLine
 10
17.5926802593
 20
7.4938434124
 30
0.0
 11
17.5355513536
 21
7.4938434124
 31
0.0
  0
LINE
  5
467
330
461
100
AcDbEntity
  8
0
  6
Continuous
 62
     7
370
    18
100
AcDbLine
 10
17.5355513536
 20
7.4938434124
 30
0.0
 11
17.5355513536
 21
7.1961871534
 31
0.0
  0
LINE
  5
468
330
461
100
AcDbEntity
  8
0
  6
Continuous
 62
     7
370
    18
100
AcDbLine
 10
17.5355513536
 20
7.1961871534
 30
0.0
 11
17.5926802593
 21
7.1961871534
 31
0.0
  0
LINE
  5
469
330
461
100
AcDbEntity
  8
0
  6
Continuous
 62
     7
370
    18
100
AcDbLine
 10
18.0775761077
 20
7.4938434124
 30
0.0
 11
18.1347050134
 21
7.4938434124
 31
0.0
  0
LINE
  5
46A
330
461
100
AcDbEntity
  8
0
  6
Continuous
 62
     7
370
    18
100
AcDbLine
 10
18.1347050134
 20
7.4938434124
 30
0.0
 11
18.1347050134
 21
7.1961871534
 31
0.0
  0
LINE
  5
46B
330
461
100
AcDbEntity
  8
0
  6
Continuous
 62
     7
370
    18
100
AcDbLine
 10
18.1347050134
 20
7.1961871534
 30
0.0
 11
18.0775761077
 21
7.1961871534
 31
0.0
  0
LINE
  5
46C
330
461
100
AcDbEntity
  8
0
  6
Continuous
 62
     7
370
    18
100
AcDbLine
 10
16.453128156
 20
10.3321549409
 30
0.0
 11
16.453128156
 21
7.3077757333
 31
0.0
  0
LINE
  5
46D
330
461
100
AcDbEntity
  8
0
  6
Continuous
 62
     7
370
    18
100
AcDbLine
 10
19.217128156
 20
10.3321549409
 30
0.0
 11
19.217128156
 21
7.3077757333
 31
0.0
  0
LINE
  5
46E
330
461
100
AcDbEntity
  8
0
  6
Continuous
 62
     7
370
    18
100
AcDbLine
 10
16.453128156
 20
7.4952757333
 30
0.0
 11
17.3710951166
 21
7.4952757333
 31
0.0
  0
LINE
  5
46F
330
461
100
AcDbEntity
  8
0
  6
Continuous
 62
     7
370
    18
100
AcDbLine
 10
19.217128156
 20
7.4952757333
 30
0.0
 11
18.2991611955
 21
7.4952757333
 31
0.0
  0
MTEXT
  5
470
330
461
100
AcDbEntity
  8
0
  6
Continuous
 62
     7
370
    18
100
AcDbMText
 10
17.4794641144
 20
7.7764941536
 30
0.0
 40
0.1875
 41
0.0
 71
     1
 72
     1
  1

  7
SLDTEXTSTYLE0
 73
     1
 44
1.0
  0
MTEXT
  5
471
330
461
100
AcDbEntity
  8
0
  6
Continuous
 62
     7
370
    18
100
AcDbMText
 10
17.5926802455
 20
7.7736295564
 30
0.0
 40
0.1875
 41
0.0
 71
     1
 72
     1
  1
2.76
  7
SLDTEXTSTYLE0
 73
     1
 44
1.0
  0
MTEXT
  5
472
330
461
100
AcDbEntity
  8
0
  6
Continuous
 62
     7
370
    18
100
AcDbMText
 10
17.5926802593
 20
7.4378873752
 30
0.0
 40
0.1875
 41
0.0
 71
     1
 72
     1
  1
70.2
  7
SLDTEXTSTYLE0
 73
     1
 44
1.0
  0
MTEXT
  5
473
330
461
100
AcDbEntity
  8
0
  6
Continuous
 62
     7
370
    18
100
AcDbMText
 10
18.2621463778
 20
7.7764941536
 30
0.0
 40
0.1875
 41
0.0
 71
     1
 72
     1
  1

  7
SLDTEXTSTYLE0
 73
     1
 44
1.0
  0
ENDBLK
  5
463
330
461
100
AcDbEntity
  8
0
100
AcDbBlockEnd
  0
BLOCK
  5
476
330
475
100
AcDbEntity
  8
0
100
AcDbBlockBegin
  2
_D_13
 70
     0
 10
0.0
 20
0.0
 30
0.0
  3
_D_13
  1

  0
SOLID
  5
478
330
475
100
AcDbEntity
  8
0
  6
Continuous
 62
     7
370
    18
100
AcDbTrace
 10
20.9029983686
 20
8.9416549409
 30
0.0
 11
20.9329983686
 21
9.1366549409
 31
0.0
 12
20.8729983686
 22
9.1366549409
 32
0.0
 13
20.8729983686
 23
9.1366549409
 33
0.0
  0
SOLID
  5
479
330
475
100
AcDbEntity
  8
0
  6
Continuous
 62
     7
370
    18
100
AcDbTrace
 10
20.9029983686
 20
11.8726549409
 30
0.0
 11
20.8729983686
 21
11.6776549409
 31
0.0
 12
20.9329983686
 22
11.6776549409
 32
0.0
 13
20.9329983686
 23
11.6776549409
 33
0.0
  0
LINE
  5
47A
330
475
100
AcDbEntity
  8
0
  6
Continuous
 62
     7
370
    18
100
AcDbLine
 10
20.6605504719
 20
10.40572262
 30
0.0
 11
20.6034215663
 21
10.40572262
 31
0.0
  0
LINE
  5
47B
330
475
100
AcDbEntity
  8
0
  6
Continuous
 62
     7
370
    18
100
AcDbLine
 10
20.6034215663
 20
10.40572262
 30
0.0
 11
20.6034215663
 21
10.108066361
 31
0.0
  0
LINE
  5
47C
330
475
100
AcDbEntity
  8
0
  6
Continuous
 62
     7
370
    18
100
AcDbLine
 10
20.6034215663
 20
10.108066361
 30
0.0
 11
20.6605504719
 21
10.108066361
 31
0.0
  0
LINE
  5
47D
330
475
100
AcDbEntity
  8
0
  6
Continuous
 62
     7
370
    18
100
AcDbLine
 10
21.1454463204
 20
10.40572262
 30
0.0
 11
21.202575226
 21
10.40572262
 31
0.0
  0
LINE
  5
47E
330
475
100
AcDbEntity
  8
0
  6
Continuous
 62
     7
370
    18
100
AcDbLine
 10
21.202575226
 20
10.40572262
 30
0.0
 11
21.202575226
 21
10.108066361
 31
0.0
  0
LINE
  5
47F
330
475
100
AcDbEntity
  8
0
  6
Continuous
 62
     7
370
    18
100
AcDbLine
 10
21.202575226
 20
10.108066361
 30
0.0
 11
21.1454463204
 21
10.108066361
 31
0.0
  0
LINE
  5
480
330
475
100
AcDbEntity
  8
0
  6
Continuous
 62
     7
370
    18
100
AcDbLine
 10
19.676628156
 20
8.9416549409
 30
0.0
 11
21.0904983686
 21
8.9416549409
 31
0.0
  0
LINE
  5
481
330
475
100
AcDbEntity
  8
0
  6
Continuous
 62
     7
370
    18
100
AcDbLine
 10
19.676628156
 20
11.8726549409
 30
0.0
 11
21.0904983686
 21
11.8726549409
 31
0.0
  0
LINE
  5
482
330
475
100
AcDbEntity
  8
0
  6
Continuous
 62
     7
370
    18
100
AcDbLine
 10
20.9029983686
 20
8.9416549409
 30
0.0
 11
20.9029983686
 21
10.0699804835
 31
0.0
  0
LINE
  5
483
330
475
100
AcDbEntity
  8
0
  6
Continuous
 62
     7
370
    18
100
AcDbLine
 10
20.9029983686
 20
11.8726549409
 30
0.0
 11
20.9029983686
 21
10.7443293984
 31
0.0
  0
MTEXT
  5
484
330
475
100
AcDbEntity
  8
0
  6
Continuous
 62
     7
370
    18
100
AcDbMText
 10
20.5473343271
 20
10.6883733613
 30
0.0
 40
0.1875
 41
0.0
 71
     1
 72
     1
  1

  7
SLDTEXTSTYLE0
 73
     1
 44
1.0
  0
MTEXT
  5
485
330
475
100
AcDbEntity
  8
0
  6
Continuous
 62
     7
370
    18
100
AcDbMText
 10
20.6605504582
 20
10.685508764
 30
0.0
 40
0.1875
 41
0.0
 71
     1
 72
     1
  1
2.93
  7
SLDTEXTSTYLE0
 73
     1
 44
1.0
  0
MTEXT
  5
486
330
475
100
AcDbEntity
  8
0
  6
Continuous
 62
     7
370
    18
100
AcDbMText
 10
20.6605504719
 20
10.3497665829
 30
0.0
 40
0.1875
 41
0.0
 71
     1
 72
     1
  1
74.4
  7
SLDTEXTSTYLE0
 73
     1
 44
1.0
  0
MTEXT
  5
487
330
475
100
AcDbEntity
  8
0
  6
Continuous
 62
     7
370
    18
100
AcDbMText
 10
21.3300165904
 20
10.6883733613
 30
0.0
 40
0.1875
 41
0.0
 71
     1
 72
     1
  1

  7
SLDTEXTSTYLE0
 73
     1
 44
1.0
  0
ENDBLK
  5
477
330
475
100
AcDbEntity
  8
0
100
AcDbBlockEnd
  0
BLOCK
  5
48A
330
489
100
AcDbEntity
  8
0
100
AcDbBlockBegin
  2
_D_14
 70
     0
 10
0.0
 20
0.0
 30
0.0
  3
_D_14
  1

  0
SOLID
  5
48C
330
489
100
AcDbEntity
  8
0
  6
Continuous
 62
     7
370
    18
100
AcDbTrace
 10
14.8656102358
 20
9.029202185
 30
0.0
 11
14.8956102358
 21
9.224202185
 31
0.0
 12
14.8356102358
 22
9.224202185
 32
0.0
 13
14.8356102358
 23
9.224202185
 33
0.0
  0
SOLID
  5
48D
330
489
100
AcDbEntity
  8
0
  6
Continuous
 62
     7
370
    18
100
AcDbTrace
 10
14.8656102358
 20
11.7851076968
 30
0.0
 11
14.8356102358
 21
11.5901076968
 31
0.0
 12
14.8956102358
 22
11.5901076968
 32
0.0
 13
14.8956102358
 23
11.5901076968
 33
0.0
  0
LINE
  5
48E
330
489
100
AcDbEntity
  8
0
  6
Continuous
 62
     7
370
    18
100
AcDbLine
 10
14.7270685962
 20
10.40572262
 30
0.0
 11
14.6699396906
 21
10.40572262
 31
0.0
  0
LINE
  5
48F
330
489
100
AcDbEntity
  8
0
  6
Continuous
 62
     7
370
    18
100
AcDbLine
 10
14.6699396906
 20
10.40572262
 30
0.0
 11
14.6699396906
 21
10.108066361
 31
0.0
  0
LINE
  5
490
330
489
100
AcDbEntity
  8
0
  6
Continuous
 62
     7
370
    18
100
AcDbLine
 10
14.6699396906
 20
10.108066361
 30
0.0
 11
14.7270685962
 21
10.108066361
 31
0.0
  0
LINE
  5
491
330
489
100
AcDbEntity
  8
0
  6
Continuous
 62
     7
370
    18
100
AcDbLine
 10
15.0041519304
 20
10.40572262
 30
0.0
 11
15.061280836
 21
10.40572262
 31
0.0
  0
LINE
  5
492
330
489
100
AcDbEntity
  8
0
  6
Continuous
 62
     7
370
    18
100
AcDbLine
 10
15.061280836
 20
10.40572262
 30
0.0
 11
15.061280836
 21
10.108066361
 31
0.0
  0
LINE
  5
493
330
489
100
AcDbEntity
  8
0
  6
Continuous
 62
     7
370
    18
100
AcDbLine
 10
15.061280836
 20
10.108066361
 30
0.0
 11
15.0041519304
 21
10.108066361
 31
0.0
  0
LINE
  5
494
330
489
100
AcDbEntity
  8
0
  6
Continuous
 62
     7
370
    18
100
AcDbLine
 10
17.760128156
 20
9.029202185
 30
0.0
 11
14.6781102358
 21
9.029202185
 31
0.0
  0
LINE
  5
495
330
489
100
AcDbEntity
  8
0
  6
Continuous
 62
     7
370
    18
100
AcDbLine
 10
17.760128156
 20
11.7851076968
 30
0.0
 11
14.6781102358
 21
11.7851076968
 31
0.0
  0
LINE
  5
496
330
489
100
AcDbEntity
  8
0
  6
Continuous
 62
     7
370
    18
100
AcDbLine
 10
14.8656102358
 20
9.029202185
 30
0.0
 11
14.8656102358
 21
10.0699804835
 31
0.0
  0
LINE
  5
497
330
489
100
AcDbEntity
  8
0
  6
Continuous
 62
     7
370
    18
100
AcDbLine
 10
14.8656102358
 20
11.7851076968
 30
0.0
 11
14.8656102358
 21
10.7443293984
 31
0.0
  0
MTEXT
  5
498
330
489
100
AcDbEntity
  8
0
  6
Continuous
 62
     7
370
    18
100
AcDbMText
 10
14.6138524514
 20
10.6883733613
 30
0.0
 40
0.1875
 41
0.0
 71
     1
 72
     1
  1

  7
SLDTEXTSTYLE0
 73
     1
 44
1.0
  0
MTEXT
  5
499
330
489
100
AcDbEntity
  8
0
  6
Continuous
 62
     7
370
    18
100
AcDbMText
 10
14.6231623253
 20
10.685508764
 30
0.0
 40
0.1875
 41
0.0
 71
     1
 72
     1
  1
2.76
  7
SLDTEXTSTYLE0
 73
     1
 44
1.0
  0
MTEXT
  5
49A
330
489
100
AcDbEntity
  8
0
  6
Continuous
 62
     7
370
    18
100
AcDbMText
 10
14.7270685962
 20
10.3497665829
 30
0.0
 40
0.1875
 41
0.0
 71
     1
 72
     1
  1
70
  7
SLDTEXTSTYLE0
 73
     1
 44
1.0
  0
MTEXT
  5
49B
330
489
100
AcDbEntity
  8
0
  6
Continuous
 62
     7
370
    18
100
AcDbMText
 10
15.1887222004
 20
10.6883733613
 30
0.0
 40
0.1875
 41
0.0
 71
     1
 72
     1
  1

  7
SLDTEXTSTYLE0
 73
     1
 44
1.0
  0
ENDBLK
  5
48B
330
489
100
AcDbEntity
  8
0
100
AcDbBlockEnd
  0
BLOCK
  5
49E
330
49D
100
AcDbEntity
  8
0
100
AcDbBlockBegin
  2
_D_15
 70
     0
 10
0.0
 20
0.0
 30
0.0
  3
_D_15
  1

  0
SOLID
  5
4A0
330
49D
100
AcDbEntity
  8
0
  6
Continuous
 62
     7
370
    18
100
AcDbTrace
 10
14.0549696265
 20
8.6381549409
 30
0.0
 11
14.0849696265
 21
8.8331549409
 31
0.0
 12
14.0249696265
 22
8.8331549409
 32
0.0
 13
14.0249696265
 23
8.8331549409
 33
0.0
  0
SOLID
  5
4A1
330
49D
100
AcDbEntity
  8
0
  6
Continuous
 62
     7
370
    18
100
AcDbTrace
 10
14.0549696265
 20
12.1761549409
 30
0.0
 11
14.0249696265
 21
11.9811549409
 31
0.0
 12
14.0849696265
 22
11.9811549409
 32
0.0
 13
14.0849696265
 23
11.9811549409
 33
0.0
  0
LINE
  5
4A2
330
49D
100
AcDbEntity
  8
0
  6
Continuous
 62
     7
370
    18
100
AcDbLine
 10
13.8125217297
 20
10.40572262
 30
0.0
 11
13.7553928241
 21
10.40572262
 31
0.0
  0
LINE
  5
4A3
330
49D
100
AcDbEntity
  8
0
  6
Continuous
 62
     7
370
    18
100
AcDbLine
 10
13.7553928241
 20
10.40572262
 30
0.0
 11
13.7553928241
 21
10.108066361
 31
0.0
  0
LINE
  5
4A4
330
49D
100
AcDbEntity
  8
0
  6
Continuous
 62
     7
370
    18
100
AcDbLine
 10
13.7553928241
 20
10.108066361
 30
0.0
 11
13.8125217297
 21
10.108066361
 31
0.0
  0
LINE
  5
4A5
330
49D
100
AcDbEntity
  8
0
  6
Continuous
 62
     7
370
    18
100
AcDbLine
 10
14.2974175782
 20
10.40572262
 30
0.0
 11
14.3545464839
 21
10.40572262
 31
0.0
  0
LINE
  5
4A6
330
49D
100
AcDbEntity
  8
0
  6
Continuous
 62
     7
370
    18
100
AcDbLine
 10
14.3545464839
 20
10.40572262
 30
0.0
 11
14.3545464839
 21
10.108066361
 31
0.0
  0
LINE
  5
4A7
330
49D
100
AcDbEntity
  8
0
  6
Continuous
 62
     7
370
    18
100
AcDbLine
 10
14.3545464839
 20
10.108066361
 30
0.0
 11
14.2974175782
 21
10.108066361
 31
0.0
  0
LINE
  5
4A8
330
49D
100
AcDbEntity
  8
0
  6
Continuous
 62
     7
370
    18
100
AcDbLine
 10
17.760128156
 20
8.6381549409
 30
0.0
 11
13.8674696265
 21
8.6381549409
 31
0.0
  0
LINE
  5
4A9
330
49D
100
AcDbEntity
  8
0
  6
Continuous
 62
     7
370
    18
100
AcDbLine
 10
17.760128156
 20
12.1761549409
 30
0.0
 11
13.8674696265
 21
12.1761549409
 31
0.0
  0
LINE
  5
4AA
330
49D
100
AcDbEntity
  8
0
  6
Continuous
 62
     7
370
    18
100
AcDbLine
 10
14.0549696265
 20
8.6381549409
 30
0.0
 11
14.0549696265
 21
10.0699804835
 31
0.0
  0
LINE
  5
4AB
330
49D
100
AcDbEntity
  8
0
  6
Continuous
 62
     7
370
    18
100
AcDbLine
 10
14.0549696265
 20
12.1761549409
 30
0.0
 11
14.0549696265
 21
10.7443293984
 31
0.0
  0
MTEXT
  5
4AC
330
49D
100
AcDbEntity
  8
0
  6
Continuous
 62
     7
370
    18
100
AcDbMText
 10
13.6993055849
 20
10.6883733613
 30
0.0
 40
0.1875
 41
0.0
 71
     1
 72
     1
  1

  7
SLDTEXTSTYLE0
 73
     1
 44
1.0
  0
MTEXT
  5
4AD
330
49D
100
AcDbEntity
  8
0
  6
Continuous
 62
     7
370
    18
100
AcDbMText
 10
13.812521716
 20
10.685508764
 30
0.0
 40
0.1875
 41
0.0
 71
     1
 72
     1
  1
3.54
  7
SLDTEXTSTYLE0
 73
     1
 44
1.0
  0
MTEXT
  5
4AE
330
49D
100
AcDbEntity
  8
0
  6
Continuous
 62
     7
370
    18
100
AcDbMText
 10
13.8125217297
 20
10.3497665829
 30
0.0
 40
0.1875
 41
0.0
 71
     1
 72
     1
  1
89.9
  7
SLDTEXTSTYLE0
 73
     1
 44
1.0
  0
MTEXT
  5
4AF
330
49D
100
AcDbEntity
  8
0
  6
Continuous
 62
     7
370
    18
100
AcDbMText
 10
14.4819878483
 20
10.6883733613
 30
0.0
 40
0.1875
 41
0.0
 71
     1
 72
     1
  1

  7
SLDTEXTSTYLE0
 73
     1
 44
1.0
  0
ENDBLK
  5
49F
330
49D
100
AcDbEntity
  8
0
100
AcDbBlockEnd
  0
BLOCK
  5
4B2
330
4B1
100
AcDbEntity
  8
0
100
AcDbBlockBegin
  2
_D_16
 70
     0
 10
0.0
 20
0.0
 30
0.0
  3
_D_16
  1

  0
SOLID
  5
4B4
330
4B1
100
AcDbEntity
  8
0
  6
Continuous
 62
     7
370
    18
100
AcDbTrace
 10
17.7376805666
 20
12.2998894039
 30
0.0
 11
17.6405996394
 21
12.4716458988
 31
0.0
 12
17.5934627011
 22
12.4345230076
 32
0.0
 13
17.5934627011
 23
12.4345230076
 33
0.0
  0
LINE
  5
4B5
330
4B1
100
AcDbEntity
  8
0
  6
Continuous
 62
     7
370
    18
100
AcDbLine
 10
15.5052253629
 20
13.950361755
 30
0.0
 11
15.4480964572
 21
13.950361755
 31
0.0
  0
LINE
  5
4B6
330
4B1
100
AcDbEntity
  8
0
  6
Continuous
 62
     7
370
    18
100
AcDbLine
 10
15.4480964572
 20
13.950361755
 30
0.0
 11
15.4480964572
 21
13.652705496
 31
0.0
  0
LINE
  5
4B7
330
4B1
100
AcDbEntity
  8
0
  6
Continuous
 62
     7
370
    18
100
AcDbLine
 10
15.4480964572
 20
13.652705496
 30
0.0
 11
15.5052253629
 21
13.652705496
 31
0.0
  0
LINE
  5
4B8
330
4B1
100
AcDbEntity
  8
0
  6
Continuous
 62
     7
370
    18
100
AcDbLine
 10
15.6437670299
 20
13.950361755
 30
0.0
 11
15.7008959356
 21
13.950361755
 31
0.0
  0
LINE
  5
4B9
330
4B1
100
AcDbEntity
  8
0
  6
Continuous
 62
     7
370
    18
100
AcDbLine
 10
15.7008959356
 20
13.950361755
 30
0.0
 11
15.7008959356
 21
13.652705496
 31
0.0
  0
LINE
  5
4BA
330
4B1
100
AcDbEntity
  8
0
  6
Continuous
 62
     7
370
    18
100
AcDbLine
 10
15.7008959356
 20
13.652705496
 30
0.0
 11
15.6437670299
 21
13.652705496
 31
0.0
  0
LINE
  5
4BB
330
4B1
100
AcDbEntity
  8
0
  6
Continuous
 62
     7
370
    18
100
AcDbLine
 10
17.7376805666
 20
12.2998894039
 30
0.0
 11
16.436716192
 21
13.9517940759
 31
0.0
  0
LINE
  5
4BC
330
4B1
100
AcDbEntity
  8
0
  6
Continuous
 62
     7
370
    18
100
AcDbLine
 10
16.436716192
 20
13.9517940759
 30
0.0
 11
16.249216192
 21
13.9517940759
 31
0.0
  0
MTEXT
  5
4BD
330
4B1
100
AcDbEntity
  8
0
  6
Continuous
 62
     7
370
    18
100
AcDbMText
 10
15.2599323903
 20
14.230147899
 30
0.0
 40
0.1875
 41
0.0
 71
     1
 72
     1
  1
%%c
  7
SLDTEXTSTYLE0
 73
     1
 44
1.0
  0
MTEXT
  5
4BE
330
4B1
100
AcDbEntity
  8
0
  6
Continuous
 62
     7
370
    18
100
AcDbMText
 10
15.5427058212
 20
14.230147899
 30
0.0
 40
0.1875
 41
0.0
 71
     1
 72
     1
  1
.32
  7
SLDTEXTSTYLE0
 73
     1
 44
1.0
  0
MTEXT
  5
4BF
330
4B1
100
AcDbEntity
  8
0
  6
Continuous
 62
     7
370
    18
100
AcDbMText
 10
15.5052253629
 20
13.8944057178
 30
0.0
 40
0.1875
 41
0.0
 71
     1
 72
     1
  1
8
  7
SLDTEXTSTYLE0
 73
     1
 44
1.0
  0
MTEXT
  5
4C0
330
4B1
100
AcDbEntity
  8
0
  6
Continuous
 62
     7
370
    18
100
AcDbMText
 10
15.9593725026
 20
14.2330124962
 30
0.0
 40
0.1875
 41
0.0
 71
     1
 72
     1
  1
6X
  7
SLDTEXTSTYLE0
 73
     1
 44
1.0
  0
ENDBLK
  5
4B3
330
4B1
100
AcDbEntity
  8
0
100
AcDbBlockEnd
  0
BLOCK
  5
4C3
330
4C2
100
AcDbEntity
  8
0
100
AcDbBlockBegin
  2
_D_17
 70
     0
 10
0.0
 20
0.0
 30
0.0
  3
_D_17
  1

  0
SOLID
  5
4C5
330
4C2
100
AcDbEntity
  8
0
  6
Continuous
 62
     7
370
    18
100
AcDbTrace
 10
19.3205954528
 20
10.5747959816
 30
0.0
 11
19.4485414126
 21
10.7249786415
 31
0.0
 12
19.3974832277
 22
10.7564915238
 32
0.0
 13
19.3974832277
 23
10.7564915238
 33
0.0
  0
LINE
  5
4C6
330
4C2
100
AcDbEntity
  8
0
  6
Continuous
 62
     7
370
    18
100
AcDbLine
 10
21.1835633401
 20
13.0028138458
 30
0.0
 11
21.1264344344
 21
13.0028138458
 31
0.0
  0
LINE
  5
4C7
330
4C2
100
AcDbEntity
  8
0
  6
Continuous
 62
     7
370
    18
100
AcDbLine
 10
21.1264344344
 20
13.0028138458
 30
0.0
 11
21.1264344344
 21
12.7051575869
 31
0.0
  0
LINE
  5
4C8
330
4C2
100
AcDbEntity
  8
0
  6
Continuous
 62
     7
370
    18
100
AcDbLine
 10
21.1264344344
 20
12.7051575869
 30
0.0
 11
21.1835633401
 21
12.7051575869
 31
0.0
  0
LINE
  5
4C9
330
4C2
100
AcDbEntity
  8
0
  6
Continuous
 62
     7
370
    18
100
AcDbLine
 10
21.4606466742
 20
13.0028138458
 30
0.0
 11
21.5177755799
 21
13.0028138458
 31
0.0
  0
LINE
  5
4CA
330
4C2
100
AcDbEntity
  8
0
  6
Continuous
 62
     7
370
    18
100
AcDbLine
 10
21.5177755799
 20
13.0028138458
 30
0.0
 11
21.5177755799
 21
12.7051575869
 31
0.0
  0
LINE
  5
4CB
330
4C2
100
AcDbEntity
  8
0
  6
Continuous
 62
     7
370
    18
100
AcDbLine
 10
21.5177755799
 20
12.7051575869
 30
0.0
 11
21.4606466742
 21
12.7051575869
 31
0.0
  0
LINE
  5
4CC
330
4C2
100
AcDbEntity
  8
0
  6
Continuous
 62
     7
370
    18
100
AcDbLine
 10
19.3205954528
 20
10.5747959816
 30
0.0
 11
20.8200411873
 21
13.0042461668
 31
0.0
  0
LINE
  5
4CD
330
4C2
100
AcDbEntity
  8
0
  6
Continuous
 62
     7
370
    18
100
AcDbLine
 10
20.8200411873
 20
13.0042461668
 30
0.0
 11
21.0075411873
 21
13.0042461668
 31
0.0
  0
MTEXT
  5
4CE
330
4C2
100
AcDbEntity
  8
0
  6
Continuous
 62
     7
370
    18
100
AcDbMText
 10
21.0075411873
 20
13.2825999899
 30
0.0
 40
0.1875
 41
0.0
 71
     1
 72
     1
  1
%%c
  7
SLDTEXTSTYLE0
 73
     1
 44
1.0
  0
MTEXT
  5
4CF
330
4C2
100
AcDbEntity
  8
0
  6
Continuous
 62
     7
370
    18
100
AcDbMText
 10
21.2903146182
 20
13.2825999899
 30
0.0
 40
0.1875
 41
0.0
 71
     1
 72
     1
  1
.39
  7
SLDTEXTSTYLE0
 73
     1
 44
1.0
  0
MTEXT
  5
4D0
330
4C2
100
AcDbEntity
  8
0
  6
Continuous
 62
     7
370
    18
100
AcDbMText
 10
21.1835633401
 20
12.9468578087
 30
0.0
 40
0.1875
 41
0.0
 71
     1
 72
     1
  1
10
  7
SLDTEXTSTYLE0
 73
     1
 44
1.0
  0
MTEXT
  5
4D1
330
4C2
100
AcDbEntity
  8
0
  6
Continuous
 62
     7
370
    18
100
AcDbMText
 10
21.7069812995
 20
13.2854645871
 30
0.0
 40
0.1875
 41
0.0
 71
     1
 72
     1
  1
4X
  7
SLDTEXTSTYLE0
 73
     1
 44
1.0
  0
ENDBLK
  5
4C4
330
4C2
100
AcDbEntity
  8
0
100
AcDbBlockEnd
  0
BLOCK
  5
4D4
330
4D3
100
AcDbEntity
  8
0
100
AcDbBlockBegin
  2
_D_18
 70
     0
 10
0.0
 20
0.0
 30
0.0
  3
_D_18
  1

  0
SOLID
  5
4D6
330
4D3
100
AcDbEntity
  8
0
  6
Continuous
 62
     7
370
    18
100
AcDbTrace
 10
15.708165844
 20
12.5299411918
 30
0.0
 11
15.5858395483
 21
12.6847354985
 31
0.0
 12
15.5449684871
 22
12.6408087827
 32
0.0
 13
15.5449684871
 23
12.6408087827
 33
0.0
  0
LINE
  5
4D7
330
4D3
100
AcDbEntity
  8
0
  6
Continuous
 62
     7
370
    18
100
AcDbLine
 10
13.9344724828
 20
13.2154473962
 30
0.0
 11
13.8773435772
 21
13.2154473962
 31
0.0
  0
LINE
  5
4D8
330
4D3
100
AcDbEntity
  8
0
  6
Continuous
 62
     7
370
    18
100
AcDbLine
 10
13.8773435772
 20
13.2154473962
 30
0.0
 11
13.8773435772
 21
12.9177911373
 31
0.0
  0
LINE
  5
4D9
330
4D3
100
AcDbEntity
  8
0
  6
Continuous
 62
     7
370
    18
100
AcDbLine
 10
13.8773435772
 20
12.9177911373
 30
0.0
 11
13.9344724828
 21
12.9177911373
 31
0.0
  0
LINE
  5
4DA
330
4D3
100
AcDbEntity
  8
0
  6
Continuous
 62
     7
370
    18
100
AcDbLine
 10
14.2808266367
 20
13.2154473962
 30
0.0
 11
14.3379555424
 21
13.2154473962
 31
0.0
  0
LINE
  5
4DB
330
4D3
100
AcDbEntity
  8
0
  6
Continuous
 62
     7
370
    18
100
AcDbLine
 10
14.3379555424
 20
13.2154473962
 30
0.0
 11
14.3379555424
 21
12.9177911373
 31
0.0
  0
LINE
  5
4DC
330
4D3
100
AcDbEntity
  8
0
  6
Continuous
 62
     7
370
    18
100
AcDbLine
 10
14.3379555424
 20
12.9177911373
 30
0.0
 11
14.2808266367
 21
12.9177911373
 31
0.0
  0
LINE
  5
4DD
330
4D3
100
AcDbEntity
  8
0
  6
Continuous
 62
     7
370
    18
100
AcDbLine
 10
15.708165844
 20
12.5299411918
 30
0.0
 11
14.9698695416
 21
13.2168797172
 31
0.0
  0
LINE
  5
4DE
330
4D3
100
AcDbEntity
  8
0
  6
Continuous
 62
     7
370
    18
100
AcDbLine
 10
14.9698695416
 20
13.2168797172
 30
0.0
 11
14.7823695416
 21
13.2168797172
 31
0.0
  0
MTEXT
  5
4DF
330
4D3
100
AcDbEntity
  8
0
  6
Continuous
 62
     7
370
    18
100
AcDbMText
 10
13.7930857399
 20
13.4952335403
 30
0.0
 40
0.1875
 41
0.0
 71
     1
 72
     1
  1
%%c
  7
SLDTEXTSTYLE0
 73
     1
 44
1.0
  0
MTEXT
  5
4E0
330
4D3
100
AcDbEntity
  8
0
  6
Continuous
 62
     7
370
    18
100
AcDbMText
 10
14.0758591708
 20
13.4952335403
 30
0.0
 40
0.1875
 41
0.0
 71
     1
 72
     1
  1
.16
  7
SLDTEXTSTYLE0
 73
     1
 44
1.0
  0
MTEXT
  5
4E1
330
4D3
100
AcDbEntity
  8
0
  6
Continuous
 62
     7
370
    18
100
AcDbMText
 10
13.9344724828
 20
13.1594913591
 30
0.0
 40
0.1875
 41
0.0
 71
     1
 72
     1
  1
4.2
  7
SLDTEXTSTYLE0
 73
     1
 44
1.0
  0
MTEXT
  5
4E2
330
4D3
100
AcDbEntity
  8
0
  6
Continuous
 62
     7
370
    18
100
AcDbMText
 10
14.4925258522
 20
13.4980981375
 30
0.0
 40
0.1875
 41
0.0
 71
     1
 72
     1
  1
4X
  7
SLDTEXTSTYLE0
 73
     1
 44
1.0
  0
ENDBLK
  5
4D5
330
4D3
100
AcDbEntity
  8
0
100
AcDbBlockEnd
  0
BLOCK
  5
4E5
330
4E4
100
AcDbEntity
  8
0
100
AcDbBlockBegin
  2
_D_19
 70
     0
 10
0.0
 20
0.0
 30
0.0
  3
_D_19
  1

  0
SOLID
  5
4E7
330
4E4
100
AcDbEntity
  8
0
  6
Continuous
 62
     7
370
    18
100
AcDbTrace
 10
15.7681990222
 20
6.7845659494
 30
0.0
 11
15.9631990222
 21
6.7545659494
 31
0.0
 12
15.9631990222
 22
6.8145659494
 32
0.0
 13
15.9631990222
 23
6.8145659494
 33
0.0
  0
SOLID
  5
4E8
330
4E4
100
AcDbEntity
  8
0
  6
Continuous
 62
     7
370
    18
100
AcDbTrace
 10
19.9020572899
 20
6.7845659494
 30
0.0
 11
19.7070572899
 21
6.8145659494
 31
0.0
 12
19.7070572899
 22
6.7545659494
 32
0.0
 13
19.7070572899
 23
6.7545659494
 33
0.0
  0
LINE
  5
4E9
330
4E4
100
AcDbEntity
  8
0
  6
Continuous
 62
     7
370
    18
100
AcDbLine
 10
17.6273156692
 20
6.7831336284
 30
0.0
 11
17.5701867635
 21
6.7831336284
 31
0.0
  0
LINE
  5
4EA
330
4E4
100
AcDbEntity
  8
0
  6
Continuous
 62
     7
370
    18
100
AcDbLine
 10
17.5701867635
 20
6.7831336284
 30
0.0
 11
17.5701867635
 21
6.4854773695
 31
0.0
  0
LINE
  5
4EB
330
4E4
100
AcDbEntity
  8
0
  6
Continuous
 62
     7
370
    18
100
AcDbLine
 10
17.5701867635
 20
6.4854773695
 30
0.0
 11
17.6273156692
 21
6.4854773695
 31
0.0
  0
LINE
  5
4EC
330
4E4
100
AcDbEntity
  8
0
  6
Continuous
 62
     7
370
    18
100
AcDbLine
 10
18.0429406703
 20
6.7831336284
 30
0.0
 11
18.100069576
 21
6.7831336284
 31
0.0
  0
LINE
  5
4ED
330
4E4
100
AcDbEntity
  8
0
  6
Continuous
 62
     7
370
    18
100
AcDbLine
 10
18.100069576
 20
6.7831336284
 30
0.0
 11
18.100069576
 21
6.4854773695
 31
0.0
  0
LINE
  5
4EE
330
4E4
100
AcDbEntity
  8
0
  6
Continuous
 62
     7
370
    18
100
AcDbLine
 10
18.100069576
 20
6.4854773695
 30
0.0
 11
18.0429406703
 21
6.4854773695
 31
0.0
  0
LINE
  5
4EF
330
4E4
100
AcDbEntity
  8
0
  6
Continuous
 62
     7
370
    18
100
AcDbLine
 10
15.7681990222
 20
8.0274305315
 30
0.0
 11
15.7681990222
 21
6.5970659494
 31
0.0
  0
LINE
  5
4F0
330
4E4
100
AcDbEntity
  8
0
  6
Continuous
 62
     7
370
    18
100
AcDbLine
 10
19.9020572899
 20
8.0274305315
 30
0.0
 11
19.9020572899
 21
6.5970659494
 31
0.0
  0
LINE
  5
4F1
330
4E4
100
AcDbEntity
  8
0
  6
Continuous
 62
     7
370
    18
100
AcDbLine
 10
15.7681990222
 20
6.7845659494
 30
0.0
 11
17.4057305264
 21
6.7845659494
 31
0.0
  0
LINE
  5
4F2
330
4E4
100
AcDbEntity
  8
0
  6
Continuous
 62
     7
370
    18
100
AcDbLine
 10
19.9020572899
 20
6.7845659494
 30
0.0
 11
18.2645257856
 21
6.7845659494
 31
0.0
  0
MTEXT
  5
4F3
330
4E4
100
AcDbEntity
  8
0
  6
Continuous
 62
     7
370
    18
100
AcDbMText
 10
17.5140995243
 20
7.0657843697
 30
0.0
 40
0.1875
 41
0.0
 71
     1
 72
     1
  1

  7
SLDTEXTSTYLE0
 73
     1
 44
1.0
  0
MTEXT
  5
4F4
330
4E4
100
AcDbEntity
  8
0
  6
Continuous
 62
     7
370
    18
100
AcDbMText
 10
17.5926802455
 20
7.0629197725
 30
0.0
 40
0.1875
 41
0.0
 71
     1
 72
     1
  1
4.13
  7
SLDTEXTSTYLE0
 73
     1
 44
1.0
  0
MTEXT
  5
4F5
330
4E4
100
AcDbEntity
  8
0
  6
Continuous
 62
     7
370
    18
100
AcDbMText
 10
17.6273156692
 20
6.7271775913
 30
0.0
 40
0.1875
 41
0.0
 71
     1
 72
     1
  1
105
  7
SLDTEXTSTYLE0
 73
     1
 44
1.0
  0
MTEXT
  5
4F6
330
4E4
100
AcDbEntity
  8
0
  6
Continuous
 62
     7
370
    18
100
AcDbMText
 10
18.2275109679
 20
7.0657843697
 30
0.0
 40
0.1875
 41
0.0
 71
     1
 72
     1
  1

  7
SLDTEXTSTYLE0
 73
     1
 44
1.0
  0
ENDBLK
  5
4E6
330
4E4
100
AcDbEntity
  8
0
100
AcDbBlockEnd
  0
BLOCK
  5
4F9
330
4F8
100
AcDbEntity
  8
0
100
AcDbBlockBegin
  2
_D_20
 70
     0
 10
0.0
 20
0.0
 30
0.0
  3
_D_20
  1

  0
SOLID
  5
4FB
330
4F8
100
AcDbEntity
  8
0
  6
Continuous
 62
     7
370
    18
100
AcDbTrace
 10
21.768783622
 20
12.4740840748
 30
0.0
 11
21.738783622
 21
12.2790840748
 31
0.0
 12
21.798783622
 22
12.2790840748
 32
0.0
 13
21.798783622
 23
12.2790840748
 33
0.0
  0
SOLID
  5
4FC
330
4F8
100
AcDbEntity
  8
0
  6
Continuous
 62
     7
370
    18
100
AcDbTrace
 10
21.768783622
 20
8.3402258071
 30
0.0
 11
21.798783622
 21
8.5352258071
 31
0.0
 12
21.738783622
 22
8.5352258071
 32
0.0
 13
21.738783622
 23
8.5352258071
 33
0.0
  0
LINE
  5
4FD
330
4F8
100
AcDbEntity
  8
0
  6
Continuous
 62
     7
370
    18
100
AcDbLine
 10
21.5609711351
 20
10.40572262
 30
0.0
 11
21.5038422295
 21
10.40572262
 31
0.0
  0
LINE
  5
4FE
330
4F8
100
AcDbEntity
  8
0
  6
Continuous
 62
     7
370
    18
100
AcDbLine
 10
21.5038422295
 20
10.40572262
 30
0.0
 11
21.5038422295
 21
10.108066361
 31
0.0
  0
LINE
  5
4FF
330
4F8
100
AcDbEntity
  8
0
  6
Continuous
 62
     7
370
    18
100
AcDbLine
 10
21.5038422295
 20
10.108066361
 30
0.0
 11
21.5609711351
 21
10.108066361
 31
0.0
  0
LINE
  5
500
330
4F8
100
AcDbEntity
  8
0
  6
Continuous
 62
     7
370
    18
100
AcDbLine
 10
21.9765961363
 20
10.40572262
 30
0.0
 11
22.033725042
 21
10.40572262
 31
0.0
  0
LINE
  5
501
330
4F8
100
AcDbEntity
  8
0
  6
Continuous
 62
     7
370
    18
100
AcDbLine
 10
22.033725042
 20
10.40572262
 30
0.0
 11
22.033725042
 21
10.108066361
 31
0.0
  0
LINE
  5
502
330
4F8
100
AcDbEntity
  8
0
  6
Continuous
 62
     7
370
    18
100
AcDbLine
 10
22.033725042
 20
10.108066361
 30
0.0
 11
21.9765961363
 21
10.108066361
 31
0.0
  0
LINE
  5
503
330
4F8
100
AcDbEntity
  8
0
  6
Continuous
 62
     7
370
    18
100
AcDbLine
 10
19.9770572899
 20
12.4740840748
 30
0.0
 11
21.956283622
 21
12.4740840748
 31
0.0
  0
LINE
  5
504
330
4F8
100
AcDbEntity
  8
0
  6
Continuous
 62
     7
370
    18
100
AcDbLine
 10
19.9770572899
 20
8.3402258071
 30
0.0
 11
21.956283622
 21
8.3402258071
 31
0.0
  0
LINE
  5
505
330
4F8
100
AcDbEntity
  8
0
  6
Continuous
 62
     7
370
    18
100
AcDbLine
 10
21.768783622
 20
12.4740840748
 30
0.0
 11
21.768783622
 21
10.7443293984
 31
0.0
  0
LINE
  5
506
330
4F8
100
AcDbEntity
  8
0
  6
Continuous
 62
     7
370
    18
100
AcDbLine
 10
21.768783622
 20
8.3402258071
 30
0.0
 11
21.768783622
 21
10.0699804835
 31
0.0
  0
MTEXT
  5
507
330
4F8
100
AcDbEntity
  8
0
  6
Continuous
 62
     7
370
    18
100
AcDbMText
 10
21.4477549903
 20
10.6883733613
 30
0.0
 40
0.1875
 41
0.0
 71
     1
 72
     1
  1

  7
SLDTEXTSTYLE0
 73
     1
 44
1.0
  0
MTEXT
  5
508
330
4F8
100
AcDbEntity
  8
0
  6
Continuous
 62
     7
370
    18
100
AcDbMText
 10
21.5263357115
 20
10.685508764
 30
0.0
 40
0.1875
 41
0.0
 71
     1
 72
     1
  1
4.13
  7
SLDTEXTSTYLE0
 73
     1
 44
1.0
  0
MTEXT
  5
509
330
4F8
100
AcDbEntity
  8
0
  6
Continuous
 62
     7
370
    18
100
AcDbMText
 10
21.5609711351
 20
10.3497665829
 30
0.0
 40
0.1875
 41
0.0
 71
     1
 72
     1
  1
105
  7
SLDTEXTSTYLE0
 73
     1
 44
1.0
  0
MTEXT
  5
50A
330
4F8
100
AcDbEntity
  8
0
  6
Continuous
 62
     7
370
    18
100
AcDbMText
 10
22.1611664339
 20
10.6883733613
 30
0.0
 40
0.1875
 41
0.0
 71
     1
 72
     1
  1

  7
SLDTEXTSTYLE0
 73
     1
 44
1.0
  0
ENDBLK
  5
4FA
330
4F8
100
AcDbEntity
  8
0
100
AcDbBlockEnd
  0
BLOCK
  5
50C
330
50B
100
AcDbEntity
  8
0
100
AcDbBlockBegin
  2
SW_CENTERMARKSYMBOL_12
 70
     0
 10
0.0
 20
0.0
 30
0.0
  3
SW_CENTERMARKSYMBOL_12
  1

  0
LINE
  5
50E
330
50B
100
AcDbEntity
  8
0
  6
Continuous
 62
     0
370
    18
100
AcDbLine
 10
0.0
 20
0.0
 30
0.0
 11
0.0
 21
0.1
 31
0.0
  0
LINE
  5
50F
330
50B
100
AcDbEntity
  8
0
  6
Continuous
 62
     0
370
    18
100
AcDbLine
 10
0.0
 20
0.0
 30
0.0
 11
-0.1
 21
0.0
 31
0.0
  0
LINE
  5
510
330
50B
100
AcDbEntity
  8
0
  6
Continuous
 62
     0
370
    18
100
AcDbLine
 10
0.0
 20
0.0
 30
0.0
 11
0.0
 21
-0.1
 31
0.0
  0
LINE
  5
511
330
50B
100
AcDbEntity
  8
0
  6
Continuous
 62
     0
370
    18
100
AcDbLine
 10
0.0
 20
0.0
 30
0.0
 11
0.1
 21
0.0
 31
0.0
  0
LINE
  5
512
330
50B
100
AcDbEntity
  8
0
  6
Continuous
 62
     0
370
    18
100
AcDbLine
 10
0.0
 20
0.2
 30
0.0
 11
0.0
 21
0.2377952756
 31
0.0
  0
LINE
  5
513
330
50B
100
AcDbEntity
  8
0
  6
Continuous
 62
     0
370
    18
100
AcDbLine
 10
-0.2
 20
0.0
 30
0.0
 11
-0.2377952756
 21
0.0
 31
0.0
  0
LINE
  5
514
330
50B
100
AcDbEntity
  8
0
  6
Continuous
 62
     0
370
    18
100
AcDbLine
 10
0.0
 20
-0.2
 30
0.0
 11
0.0
 21
-0.2377952756
 31
0.0
  0
LINE
  5
515
330
50B
100
AcDbEntity
  8
0
  6
Continuous
 62
     0
370
    18
100
AcDbLine
 10
0.2
 20
0.0
 30
0.0
 11
0.2377952756
 21
0.0
 31
0.0
  0
ENDBLK
  5
50D
330
50B
100
AcDbEntity
  8
0
100
AcDbBlockEnd
  0
BLOCK
  5
518
330
517
100
AcDbEntity
  8
0
100
AcDbBlockBegin
  2
SW_CENTERMARKSYMBOL_13
 70
     0
 10
0.0
 20
0.0
 30
0.0
  3
SW_CENTERMARKSYMBOL_13
  1

  0
LINE
  5
51A
330
517
100
AcDbEntity
  8
0
  6
Continuous
 62
     0
370
    18
100
AcDbLine
 10
0.0
 20
0.0
 30
0.0
 11
0.0
 21
0.1
 31
0.0
  0
LINE
  5
51B
330
517
100
AcDbEntity
  8
0
  6
Continuous
 62
     0
370
    18
100
AcDbLine
 10
0.0
 20
0.0
 30
0.0
 11
-0.1
 21
0.0
 31
0.0
  0
LINE
  5
51C
330
517
100
AcDbEntity
  8
0
  6
Continuous
 62
     0
370
    18
100
AcDbLine
 10
0.0
 20
0.0
 30
0.0
 11
0.0
 21
-0.1
 31
0.0
  0
LINE
  5
51D
330
517
100
AcDbEntity
  8
0
  6
Continuous
 62
     0
370
    18
100
AcDbLine
 10
0.0
 20
0.0
 30
0.0
 11
0.1
 21
0.0
 31
0.0
  0
LINE
  5
51E
330
517
100
AcDbEntity
  8
0
  6
Continuous
 62
     0
370
    18
100
AcDbLine
 10
0.0
 20
0.2
 30
0.0
 11
0.0
 21
0.2377952756
 31
0.0
  0
LINE
  5
51F
330
517
100
AcDbEntity
  8
0
  6
Continuous
 62
     0
370
    18
100
AcDbLine
 10
-0.2
 20
0.0
 30
0.0
 11
-0.2377952756
 21
0.0
 31
0.0
  0
LINE
  5
520
330
517
100
AcDbEntity
  8
0
  6
Continuous
 62
     0
370
    18
100
AcDbLine
 10
0.0
 20
-0.2
 30
0.0
 11
0.0
 21
-0.2377952756
 31
0.0
  0
LINE
  5
521
330
517
100
AcDbEntity
  8
0
  6
Continuous
 62
     0
370
    18
100
AcDbLine
 10
0.2
 20
0.0
 30
0.0
 11
0.2377952756
 21
0.0
 31
0.0
  0
ENDBLK
  5
519
330
517
100
AcDbEntity
  8
0
100
AcDbBlockEnd
  0
BLOCK
  5
524
330
523
100
AcDbEntity
  8
0
100
AcDbBlockBegin
  2
SW_CENTERMARKSYMBOL_14
 70
     0
 10
0.0
 20
0.0
 30
0.0
  3
SW_CENTERMARKSYMBOL_14
  1

  0
LINE
  5
526
330
523
100
AcDbEntity
  8
0
  6
Continuous
 62
     0
370
    18
100
AcDbLine
 10
0.0
 20
0.0
 30
0.0
 11
0.0
 21
0.1
 31
0.0
  0
LINE
  5
527
330
523
100
AcDbEntity
  8
0
  6
Continuous
 62
     0
370
    18
100
AcDbLine
 10
0.0
 20
0.0
 30
0.0
 11
-0.1
 21
0.0
 31
0.0
  0
LINE
  5
528
330
523
100
AcDbEntity
  8
0
  6
Continuous
 62
     0
370
    18
100
AcDbLine
 10
0.0
 20
0.0
 30
0.0
 11
0.0
 21
-0.1
 31
0.0
  0
LINE
  5
529
330
523
100
AcDbEntity
  8
0
  6
Continuous
 62
     0
370
    18
100
AcDbLine
 10
0.0
 20
0.0
 30
0.0
 11
0.1
 21
0.0
 31
0.0
  0
LINE
  5
52A
330
523
100
AcDbEntity
  8
0
  6
Continuous
 62
     0
370
    18
100
AcDbLine
 10
0.0
 20
0.2
 30
0.0
 11
0.0
 21
0.2377952756
 31
0.0
  0
LINE
  5
52B
330
523
100
AcDbEntity
  8
0
  6
Continuous
 62
     0
370
    18
100
AcDbLine
 10
-0.2
 20
0.0
 30
0.0
 11
-0.2377952756
 21
0.0
 31
0.0
  0
LINE
  5
52C
330
523
100
AcDbEntity
  8
0
  6
Continuous
 62
     0
370
    18
100
AcDbLine
 10
0.0
 20
-0.2
 30
0.0
 11
0.0
 21
-0.2377952756
 31
0.0
  0
LINE
  5
52D
330
523
100
AcDbEntity
  8
0
  6
Continuous
 62
     0
370
    18
100
AcDbLine
 10
0.2
 20
0.0
 30
0.0
 11
0.2377952756
 21
0.0
 31
0.0
  0
ENDBLK
  5
525
330
523
100
AcDbEntity
  8
0
100
AcDbBlockEnd
  0
BLOCK
  5
530
330
52F
100
AcDbEntity
  8
0
100
AcDbBlockBegin
  2
SW_CENTERMARKSYMBOL_15
 70
     0
 10
0.0
 20
0.0
 30
0.0
  3
SW_CENTERMARKSYMBOL_15
  1

  0
LINE
  5
532
330
52F
100
AcDbEntity
  8
0
  6
Continuous
 62
     0
370
    18
100
AcDbLine
 10
0.0
 20
0.0
 30
0.0
 11
0.0
 21
0.1
 31
0.0
  0
LINE
  5
533
330
52F
100
AcDbEntity
  8
0
  6
Continuous
 62
     0
370
    18
100
AcDbLine
 10
0.0
 20
0.0
 30
0.0
 11
-0.1
 21
0.0
 31
0.0
  0
LINE
  5
534
330
52F
100
AcDbEntity
  8
0
  6
Continuous
 62
     0
370
    18
100
AcDbLine
 10
0.0
 20
0.0
 30
0.0
 11
0.0
 21
-0.1
 31
0.0
  0
LINE
  5
535
330
52F
100
AcDbEntity
  8
0
  6
Continuous
 62
     0
370
    18
100
AcDbLine
 10
0.0
 20
0.0
 30
0.0
 11
0.1
 21
0.0
 31
0.0
  0
LINE
  5
536
330
52F
100
AcDbEntity
  8
0
  6
Continuous
 62
     0
370
    18
100
AcDbLine
 10
0.0
 20
0.2
 30
0.0
 11
0.0
 21
0.2377952756
 31
0.0
  0
LINE
  5
537
330
52F
100
AcDbEntity
  8
0
  6
Continuous
 62
     0
370
    18
100
AcDbLine
 10
-0.2
 20
0.0
 30
0.0
 11
-0.2377952756
 21
0.0
 31
0.0
  0
LINE
  5
538
330
52F
100
AcDbEntity
  8
0
  6
Continuous
 62
     0
370
    18
100
AcDbLine
 10
0.0
 20
-0.2
 30
0.0
 11
0.0
 21
-0.2377952756
 31
0.0
  0
LINE
  5
539
330
52F
100
AcDbEntity
  8
0
  6
Continuous
 62
     0
370
    18
100
AcDbLine
 10
0.2
 20
0.0
 30
0.0
 11
0.2377952756
 21
0.0
 31
0.0
  0
ENDBLK
  5
531
330
52F
100
AcDbEntity
  8
0
100
AcDbBlockEnd
  0
BLOCK
  5
5E2
330
5E1
100
AcDbEntity
  8
0
100
AcDbBlockBegin
  2
_D_21
 70
     0
 10
0.0
 20
0.0
 30
0.0
  3
_D_21
  1

  0
SOLID
  5
5E4
330
5E1
100
AcDbEntity
  8
0
  6
Continuous
 62
     7
370
    18
100
AcDbTrace
 10
9.7006172347
 20
9.5216405357
 30
0.0
 11
9.8956172347
 21
9.4916405357
 31
0.0
 12
9.8956172347
 22
9.5516405357
 32
0.0
 13
9.8956172347
 23
9.5516405357
 33
0.0
  0
SOLID
  5
5E5
330
5E1
100
AcDbEntity
  8
0
  6
Continuous
 62
     7
370
    18
100
AcDbTrace
 10
12.4014046363
 20
9.5216405357
 30
0.0
 11
12.2064046363
 21
9.5516405357
 31
0.0
 12
12.2064046363
 22
9.4916405357
 32
0.0
 13
12.2064046363
 23
9.4916405357
 33
0.0
  0
LINE
  5
5E6
330
5E1
100
AcDbEntity
  8
0
  6
Continuous
 62
     7
370
    18
100
AcDbLine
 10
10.8085630388
 20
9.5202082147
 30
0.0
 11
10.7514341331
 21
9.5202082147
 31
0.0
  0
LINE
  5
5E7
330
5E1
100
AcDbEntity
  8
0
  6
Continuous
 62
     7
370
    18
100
AcDbLine
 10
10.7514341331
 20
9.5202082147
 30
0.0
 11
10.7514341331
 21
9.2225519558
 31
0.0
  0
LINE
  5
5E8
330
5E1
100
AcDbEntity
  8
0
  6
Continuous
 62
     7
370
    18
100
AcDbLine
 10
10.7514341331
 20
9.2225519558
 30
0.0
 11
10.8085630388
 21
9.2225519558
 31
0.0
  0
LINE
  5
5E9
330
5E1
100
AcDbEntity
  8
0
  6
Continuous
 62
     7
370
    18
100
AcDbLine
 10
11.2934588872
 20
9.5202082147
 30
0.0
 11
11.3505877929
 21
9.5202082147
 31
0.0
  0
LINE
  5
5EA
330
5E1
100
AcDbEntity
  8
0
  6
Continuous
 62
     7
370
    18
100
AcDbLine
 10
11.3505877929
 20
9.5202082147
 30
0.0
 11
11.3505877929
 21
9.2225519558
 31
0.0
  0
LINE
  5
5EB
330
5E1
100
AcDbEntity
  8
0
  6
Continuous
 62
     7
370
    18
100
AcDbLine
 10
11.3505877929
 20
9.2225519558
 30
0.0
 11
11.2934588872
 21
9.2225519558
 31
0.0
  0
LINE
  5
5EC
330
5E1
100
AcDbEntity
  8
0
  6
Continuous
 62
     7
370
    18
100
AcDbLine
 10
9.7006172347
 20
9.5216405357
 30
0.0
 11
10.586977896
 21
9.5216405357
 31
0.0
  0
LINE
  5
5ED
330
5E1
100
AcDbEntity
  8
0
  6
Continuous
 62
     7
370
    18
100
AcDbLine
 10
12.4014046363
 20
9.5216405357
 30
0.0
 11
11.5150439749
 21
9.5216405357
 31
0.0
  0
MTEXT
  5
5EE
330
5E1
100
AcDbEntity
  8
0
  6
Continuous
 62
     7
370
    18
100
AcDbMText
 10
10.6953468939
 20
9.802858956
 30
0.0
 40
0.1875
 41
0.0
 71
     1
 72
     1
  1

  7
SLDTEXTSTYLE0
 73
     1
 44
1.0
  0
MTEXT
  5
5EF
330
5E1
100
AcDbEntity
  8
0
  6
Continuous
 62
     7
370
    18
100
AcDbMText
 10
10.808563025
 20
9.7999943588
 30
0.0
 40
0.1875
 41
0.0
 71
     1
 72
     1
  1
2.70
  7
SLDTEXTSTYLE0
 73
     1
 44
1.0
  0
MTEXT
  5
5F0
330
5E1
100
AcDbEntity
  8
0
  6
Continuous
 62
     7
370
    18
100
AcDbMText
 10
10.8085630388
 20
9.4642521776
 30
0.0
 40
0.1875
 41
0.0
 71
     1
 72
     1
  1
68.6
  7
SLDTEXTSTYLE0
 73
     1
 44
1.0
  0
MTEXT
  5
5F1
330
5E1
100
AcDbEntity
  8
0
  6
Continuous
 62
     7
370
    18
100
AcDbMText
 10
11.4780291573
 20
9.802858956
 30
0.0
 40
0.1875
 41
0.0
 71
     1
 72
     1
  1

  7
SLDTEXTSTYLE0
 73
     1
 44
1.0
  0
ENDBLK
  5
5E3
330
5E1
100
AcDbEntity
  8
0
100
AcDbBlockEnd
  0
BLOCK
  5
5F4
330
5F3
100
AcDbEntity
  8
0
100
AcDbBlockBegin
  2
_D_22
 70
     0
 10
0.0
 20
0.0
 30
0.0
  3
_D_22
  1

  0
SOLID
  5
5F6
330
5F3
100
AcDbEntity
  8
0
  6
Continuous
 62
     7
370
    18
100
AcDbTrace
 10
12.4014046363
 20
9.5216405357
 30
0.0
 11
12.2064046363
 21
9.5516405357
 31
0.0
 12
12.2064046363
 22
9.4916405357
 32
0.0
 13
12.2064046363
 23
9.4916405357
 33
0.0
  0
SOLID
  5
5F7
330
5F3
100
AcDbEntity
  8
0
  6
Continuous
 62
     7
370
    18
100
AcDbTrace
 10
12.5273888882
 20
9.5216405357
 30
0.0
 11
12.7223888882
 21
9.4916405357
 31
0.0
 12
12.7223888882
 22
9.5516405357
 32
0.0
 13
12.7223888882
 23
9.5516405357
 33
0.0
  0
LINE
  5
5F8
330
5F3
100
AcDbEntity
  8
0
  6
Continuous
 62
     7
370
    18
100
AcDbLine
 10
13.2283554464
 20
9.5202082147
 30
0.0
 11
13.1712265407
 21
9.5202082147
 31
0.0
  0
LINE
  5
5F9
330
5F3
100
AcDbEntity
  8
0
  6
Continuous
 62
     7
370
    18
100
AcDbLine
 10
13.1712265407
 20
9.5202082147
 30
0.0
 11
13.1712265407
 21
9.2225519558
 31
0.0
  0
LINE
  5
5FA
330
5F3
100
AcDbEntity
  8
0
  6
Continuous
 62
     7
370
    18
100
AcDbLine
 10
13.1712265407
 20
9.2225519558
 30
0.0
 11
13.2283554464
 21
9.2225519558
 31
0.0
  0
LINE
  5
5FB
330
5F3
100
AcDbEntity
  8
0
  6
Continuous
 62
     7
370
    18
100
AcDbLine
 10
13.5747096003
 20
9.5202082147
 30
0.0
 11
13.6318385059
 21
9.5202082147
 31
0.0
  0
LINE
  5
5FC
330
5F3
100
AcDbEntity
  8
0
  6
Continuous
 62
     7
370
    18
100
AcDbLine
 10
13.6318385059
 20
9.5202082147
 30
0.0
 11
13.6318385059
 21
9.2225519558
 31
0.0
  0
LINE
  5
5FD
330
5F3
100
AcDbEntity
  8
0
  6
Continuous
 62
     7
370
    18
100
AcDbLine
 10
13.6318385059
 20
9.2225519558
 30
0.0
 11
13.5747096003
 21
9.2225519558
 31
0.0
  0
LINE
  5
5FE
330
5F3
100
AcDbEntity
  8
0
  6
Continuous
 62
     7
370
    18
100
AcDbLine
 10
12.4014046363
 20
9.5216405357
 30
0.0
 11
12.0264046363
 21
9.5216405357
 31
0.0
  0
LINE
  5
5FF
330
5F3
100
AcDbEntity
  8
0
  6
Continuous
 62
     7
370
    18
100
AcDbLine
 10
12.5273888882
 20
9.5216405357
 30
0.0
 11
13.0067703036
 21
9.5216405357
 31
0.0
  0
MTEXT
  5
600
330
5F3
100
AcDbEntity
  8
0
  6
Continuous
 62
     7
370
    18
100
AcDbMText
 10
13.1151393015
 20
9.802858956
 30
0.0
 40
0.1875
 41
0.0
 71
     1
 72
     1
  1

  7
SLDTEXTSTYLE0
 73
     1
 44
1.0
  0
MTEXT
  5
601
330
5F3
100
AcDbEntity
  8
0
  6
Continuous
 62
     7
370
    18
100
AcDbMText
 10
13.2283554326
 20
9.7999943588
 30
0.0
 40
0.1875
 41
0.0
 71
     1
 72
     1
  1
.13
  7
SLDTEXTSTYLE0
 73
     1
 44
1.0
  0
MTEXT
  5
602
330
5F3
100
AcDbEntity
  8
0
  6
Continuous
 62
     7
370
    18
100
AcDbMText
 10
13.2283554464
 20
9.4642521776
 30
0.0
 40
0.1875
 41
0.0
 71
     1
 72
     1
  1
3.2
  7
SLDTEXTSTYLE0
 73
     1
 44
1.0
  0
MTEXT
  5
603
330
5F3
100
AcDbEntity
  8
0
  6
Continuous
 62
     7
370
    18
100
AcDbMText
 10
13.7592798703
 20
9.802858956
 30
0.0
 40
0.1875
 41
0.0
 71
     1
 72
     1
  1

  7
SLDTEXTSTYLE0
 73
     1
 44
1.0
  0
ENDBLK
  5
5F5
330
5F3
100
AcDbEntity
  8
0
100
AcDbBlockEnd
  0
BLOCK
  5
606
330
605
100
AcDbEntity
  8
0
100
AcDbBlockBegin
  2
_D_23
 70
     0
 10
0.0
 20
0.0
 30
0.0
  3
_D_23
  1

  0
SOLID
  5
608
330
605
100
AcDbEntity
  8
0
  6
Continuous
 62
     7
370
    18
100
AcDbTrace
 10
9.7006172347
 20
9.5216405357
 30
0.0
 11
9.8956172347
 21
9.4916405357
 31
0.0
 12
9.8956172347
 22
9.5516405357
 32
0.0
 13
9.8956172347
 23
9.5516405357
 33
0.0
  0
SOLID
  5
609
330
605
100
AcDbEntity
  8
0
  6
Continuous
 62
     7
370
    18
100
AcDbTrace
 10
9.5746329827
 20
9.5216405357
 30
0.0
 11
9.3796329827
 21
9.5516405357
 31
0.0
 12
9.3796329827
 22
9.4916405357
 32
0.0
 13
9.3796329827
 23
9.4916405357
 33
0.0
  0
LINE
  5
60A
330
605
100
AcDbEntity
  8
0
  6
Continuous
 62
     7
370
    18
100
AcDbLine
 10
8.5687211155
 20
9.5202082147
 30
0.0
 11
8.5115922098
 21
9.5202082147
 31
0.0
  0
LINE
  5
60B
330
605
100
AcDbEntity
  8
0
  6
Continuous
 62
     7
370
    18
100
AcDbLine
 10
8.5115922098
 20
9.5202082147
 30
0.0
 11
8.5115922098
 21
9.2225519558
 31
0.0
  0
LINE
  5
60C
330
605
100
AcDbEntity
  8
0
  6
Continuous
 62
     7
370
    18
100
AcDbLine
 10
8.5115922098
 20
9.2225519558
 30
0.0
 11
8.5687211155
 21
9.2225519558
 31
0.0
  0
LINE
  5
60D
330
605
100
AcDbEntity
  8
0
  6
Continuous
 62
     7
370
    18
100
AcDbLine
 10
8.9150752694
 20
9.5202082147
 30
0.0
 11
8.972204175
 21
9.5202082147
 31
0.0
  0
LINE
  5
60E
330
605
100
AcDbEntity
  8
0
  6
Continuous
 62
     7
370
    18
100
AcDbLine
 10
8.972204175
 20
9.5202082147
 30
0.0
 11
8.972204175
 21
9.2225519558
 31
0.0
  0
LINE
  5
60F
330
605
100
AcDbEntity
  8
0
  6
Continuous
 62
     7
370
    18
100
AcDbLine
 10
8.972204175
 20
9.2225519558
 30
0.0
 11
8.9150752694
 21
9.2225519558
 31
0.0
  0
LINE
  5
610
330
605
100
AcDbEntity
  8
0
  6
Continuous
 62
     7
370
    18
100
AcDbLine
 10
9.7006172347
 20
9.5216405357
 30
0.0
 11
10.0756172347
 21
9.5216405357
 31
0.0
  0
LINE
  5
611
330
605
100
AcDbEntity
  8
0
  6
Continuous
 62
     7
370
    18
100
AcDbLine
 10
9.5746329827
 20
9.5216405357
 30
0.0
 11
9.1366603571
 21
9.5216405357
 31
0.0
  0
MTEXT
  5
612
330
605
100
AcDbEntity
  8
0
  6
Continuous
 62
     7
370
    18
100
AcDbMText
 10
8.4555049706
 20
9.802858956
 30
0.0
 40
0.1875
 41
0.0
 71
     1
 72
     1
  1

  7
SLDTEXTSTYLE0
 73
     1
 44
1.0
  0
MTEXT
  5
613
330
605
100
AcDbEntity
  8
0
  6
Continuous
 62
     7
370
    18
100
AcDbMText
 10
8.5687211017
 20
9.7999943588
 30
0.0
 40
0.1875
 41
0.0
 71
     1
 72
     1
  1
.13
  7
SLDTEXTSTYLE0
 73
     1
 44
1.0
  0
MTEXT
  5
614
330
605
100
AcDbEntity
  8
0
  6
Continuous
 62
     7
370
    18
100
AcDbMText
 10
8.5687211155
 20
9.4642521776
 30
0.0
 40
0.1875
 41
0.0
 71
     1
 72
     1
  1
3.2
  7
SLDTEXTSTYLE0
 73
     1
 44
1.0
  0
MTEXT
  5
615
330
605
100
AcDbEntity
  8
0
  6
Continuous
 62
     7
370
    18
100
AcDbMText
 10
9.0996455395
 20
9.802858956
 30
0.0
 40
0.1875
 41
0.0
 71
     1
 72
     1
  1

  7
SLDTEXTSTYLE0
 73
     1
 44
1.0
  0
ENDBLK
  5
607
330
605
100
AcDbEntity
  8
0
100
AcDbBlockEnd
  0
BLOCK
  5
618
330
617
100
AcDbEntity
  8
0
100
AcDbBlockBegin
  2
_D_24
 70
     0
 10
0.0
 20
0.0
 30
0.0
  3
_D_24
  1

  0
SOLID
  5
61A
330
617
100
AcDbEntity
  8
0
  6
Continuous
 62
     7
370
    18
100
AcDbTrace
 10
12.1213888882
 20
11.3290253893
 30
0.0
 11
11.9263888882
 21
11.3590253893
 31
0.0
 12
11.9263888882
 22
11.2990253893
 32
0.0
 13
11.9263888882
 23
11.2990253893
 33
0.0
  0
SOLID
  5
61B
330
617
100
AcDbEntity
  8
0
  6
Continuous
 62
     7
370
    18
100
AcDbTrace
 10
12.4014046363
 20
11.3290253893
 30
0.0
 11
12.5964046363
 21
11.2990253893
 31
0.0
 12
12.5964046363
 22
11.3590253893
 32
0.0
 13
12.5964046363
 23
11.3590253893
 33
0.0
  0
LINE
  5
61C
330
617
100
AcDbEntity
  8
0
  6
Continuous
 62
     7
370
    18
100
AcDbLine
 10
12.9852438291
 20
11.3275930683
 30
0.0
 11
12.9281149234
 21
11.3275930683
 31
0.0
  0
LINE
  5
61D
330
617
100
AcDbEntity
  8
0
  6
Continuous
 62
     7
370
    18
100
AcDbLine
 10
12.9281149234
 20
11.3275930683
 30
0.0
 11
12.9281149234
 21
11.0299368094
 31
0.0
  0
LINE
  5
61E
330
617
100
AcDbEntity
  8
0
  6
Continuous
 62
     7
370
    18
100
AcDbLine
 10
12.9281149234
 20
11.0299368094
 30
0.0
 11
12.9852438291
 21
11.0299368094
 31
0.0
  0
LINE
  5
61F
330
617
100
AcDbEntity
  8
0
  6
Continuous
 62
     7
370
    18
100
AcDbLine
 10
13.331597983
 20
11.3275930683
 30
0.0
 11
13.3887268886
 21
11.3275930683
 31
0.0
  0
LINE
  5
620
330
617
100
AcDbEntity
  8
0
  6
Continuous
 62
     7
370
    18
100
AcDbLine
 10
13.3887268886
 20
11.3275930683
 30
0.0
 11
13.3887268886
 21
11.0299368094
 31
0.0
  0
LINE
  5
621
330
617
100
AcDbEntity
  8
0
  6
Continuous
 62
     7
370
    18
100
AcDbLine
 10
13.3887268886
 20
11.0299368094
 30
0.0
 11
13.331597983
 21
11.0299368094
 31
0.0
  0
LINE
  5
622
330
617
100
AcDbEntity
  8
0
  6
Continuous
 62
     7
370
    18
100
AcDbLine
 10
12.1213888882
 20
11.6601514162
 30
0.0
 11
12.1213888882
 21
11.1415253893
 31
0.0
  0
LINE
  5
623
330
617
100
AcDbEntity
  8
0
  6
Continuous
 62
     7
370
    18
100
AcDbLine
 10
12.1213888882
 20
11.3290253893
 30
0.0
 11
11.7463888882
 21
11.3290253893
 31
0.0
  0
LINE
  5
624
330
617
100
AcDbEntity
  8
0
  6
Continuous
 62
     7
370
    18
100
AcDbLine
 10
12.4014046363
 20
11.3290253893
 30
0.0
 11
12.7636586863
 21
11.3290253893
 31
0.0
  0
MTEXT
  5
625
330
617
100
AcDbEntity
  8
0
  6
Continuous
 62
     7
370
    18
100
AcDbMText
 10
12.8720276842
 20
11.6102438096
 30
0.0
 40
0.1875
 41
0.0
 71
     1
 72
     1
  1

  7
SLDTEXTSTYLE0
 73
     1
 44
1.0
  0
MTEXT
  5
626
330
617
100
AcDbEntity
  8
0
  6
Continuous
 62
     7
370
    18
100
AcDbMText
 10
12.9852438153
 20
11.6073792124
 30
0.0
 40
0.1875
 41
0.0
 71
     1
 72
     1
  1
.28
  7
SLDTEXTSTYLE0
 73
     1
 44
1.0
  0
MTEXT
  5
627
330
617
100
AcDbEntity
  8
0
  6
Continuous
 62
     7
370
    18
100
AcDbMText
 10
12.9852438291
 20
11.2716370312
 30
0.0
 40
0.1875
 41
0.0
 71
     1
 72
     1
  1
7.1
  7
SLDTEXTSTYLE0
 73
     1
 44
1.0
  0
MTEXT
  5
628
330
617
100
AcDbEntity
  8
0
  6
Continuous
 62
     7
370
    18
100
AcDbMText
 10
13.5161682531
 20
11.6102438096
 30
0.0
 40
0.1875
 41
0.0
 71
     1
 72
     1
  1

  7
SLDTEXTSTYLE0
 73
     1
 44
1.0
  0
ENDBLK
  5
619
330
617
100
AcDbEntity
  8
0
100
AcDbBlockEnd
  0
ENDSEC
  0
SECTION
  2
ENTITIES
  0
LINE
  5
73
330
1F
100
AcDbEntity
  8
0
  6
Continuous
 62
     7
370
    18
100
AcDbLine
 10
0.4698774069
 20
16.0576097561
 30
0.0
 11
25.0338774069
 21
16.0576097561
 31
0.0
  0
LINE
  5
74
330
1F
100
AcDbEntity
  8
0
  6
Continuous
 62
     7
370
    18
100
AcDbLine
 10
25.0338774069
 20
0.4936097561
 30
0.0
 11
25.0338774069
 21
16.0576097561
 31
0.0
  0
LINE
  5
75
330
1F
100
AcDbEntity
  8
0
  6
Continuous
 62
     7
370
    18
100
AcDbLine
 10
25.0338774069
 20
0.4936097561
 30
0.0
 11
0.4698774069
 21
0.4936097561
 31
0.0
  0
LINE
  5
76
330
1F
100
AcDbEntity
  8
0
  6
Continuous
 62
     7
370
    18
100
AcDbLine
 10
0.4698774069
 20
16.0576097561
 30
0.0
 11
0.4698774069
 21
0.4936097561
 31
0.0
  0
LINE
  5
77
330
1F
100
AcDbEntity
  8
0
  6
Continuous
 62
     7
370
    18
100
AcDbLine
 10
0.3768774069
 20
16.1506097561
 30
0.0
 11
25.1268774069
 21
16.1506097561
 31
0.0
  0
LINE
  5
78
330
1F
100
AcDbEntity
  8
0
  6
Continuous
 62
     7
370
    18
100
AcDbLine
 10
25.1268774069
 20
0.4006097561
 30
0.0
 11
0.3768774069
 21
0.4006097561
 31
0.0
  0
LINE
  5
79
330
1F
100
AcDbEntity
  8
0
  6
Continuous
 62
     7
370
    18
100
AcDbLine
 10
0.3768774069
 20
16.1506097561
 30
0.0
 11
0.3768774069
 21
0.4006097561
 31
0.0
  0
LINE
  5
7A
330
1F
100
AcDbEntity
  8
0
  6
Continuous
 62
     7
370
    18
100
AcDbLine
 10
25.1268774069
 20
0.4006097561
 30
0.0
 11
25.1268774069
 21
16.1506097561
 31
0.0
  0
LINE
  5
7B
330
1F
100
AcDbEntity
  8
0
  6
Continuous
 62
     7
370
    18
100
AcDbLine
 10
0.4698774069
 20
15.4486097561
 30
0.0
 11
25.0338774069
 21
15.4486097561
 31
0.0
  0
LINE
  5
7C
330
1F
100
AcDbEntity
  8
0
  6
Continuous
 62
     7
370
    18
100
AcDbLine
 10
2.765578831
 20
16.0576097561
 30
0.0
 11
2.765578831
 21
15.4486097561
 31
0.0
  0
LINE
  5
7D
330
1F
100
AcDbEntity
  8
0
  6
Continuous
 62
     7
370
    18
100
AcDbLine
 10
1.6662478256
 20
16.0576097561
 30
0.0
 11
1.6662478256
 21
15.4486097561
 31
0.0
  0
LINE
  5
7E
330
1F
100
AcDbEntity
  8
0
  6
Continuous
 62
     7
370
    18
100
AcDbLine
 10
23.1588774069
 20
15.4486097561
 30
0.0
 11
23.1588774069
 21
16.0576097561
 31
0.0
  0
LINE
  5
7F
330
1F
100
AcDbEntity
  8
0
  6
Continuous
 62
     7
370
    18
100
AcDbLine
 10
22.0338774069
 20
15.4486097561
 30
0.0
 11
22.0338774069
 21
16.0576097561
 31
0.0
  0
LINE
  5
80
330
1F
100
AcDbEntity
  8
0
  6
Continuous
 62
     7
370
    18
100
AcDbLine
 10
21.9408774069
 20
15.4486097561
 30
0.0
 11
21.9408774069
 21
16.0576097561
 31
0.0
  0
LINE
  5
81
330
1F
100
AcDbEntity
  8
0
  6
Continuous
 62
     7
370
    18
100
AcDbLine
 10
0.6715168758
 20
15.5642401737
 30
0.0
 11
0.6715168758
 21
15.9625423049
 31
0.0
  0
LINE
  5
82
330
1F
100
AcDbEntity
  8
0
  6
Continuous
 62
     7
370
    18
100
AcDbLine
 10
0.9488747165
 20
15.5891340569
 30
0.0
 11
0.9488747165
 21
15.9625423049
 31
0.0
  0
LINE
  5
83
330
1F
100
AcDbEntity
  8
0
  6
Continuous
 62
     7
370
    18
100
AcDbLine
 10
1.0563508797
 20
15.6292259294
 30
0.0
 11
1.0563508797
 21
15.9625423049
 31
0.0
  0
LINE
  5
84
330
1F
100
AcDbEntity
  8
0
  6
Continuous
 62
     7
370
    18
100
AcDbLine
 10
1.0216811497
 20
15.6292259294
 30
0.0
 11
1.0216811497
 21
15.9625423049
 31
0.0
  0
LINE
  5
85
330
1F
100
AcDbEntity
  8
0
  6
Continuous
 62
     7
370
    18
100
AcDbLine
 10
1.2106231823
 20
15.5642401737
 30
0.0
 11
1.2106231823
 21
15.9625423049
 31
0.0
  0
LINE
  5
86
330
1F
100
AcDbEntity
  8
0
  6
Continuous
 62
     7
370
    18
100
AcDbLine
 10
1.1291573129
 20
15.5891340569
 30
0.0
 11
1.1291573129
 21
15.9625423049
 31
0.0
  0
LINE
  5
87
330
1F
100
AcDbEntity
  8
0
  6
Continuous
 62
     7
370
    18
100
AcDbLine
 10
0.9737685997
 20
15.5642401737
 30
0.0
 11
1.1042634297
 21
15.5642401737
 31
0.0
  0
LINE
  5
88
330
1F
100
AcDbEntity
  8
0
  6
Continuous
 62
     7
370
    18
100
AcDbLine
 10
0.6715168758
 20
15.5642401737
 30
0.0
 11
0.7997948771
 21
15.5642401737
 31
0.0
  0
LINE
  5
89
330
1F
100
AcDbEntity
  8
0
  6
Continuous
 62
     7
370
    18
100
AcDbLine
 10
0.7997948771
 20
15.753433686
 30
0.0
 11
0.6905852273
 21
15.753433686
 31
0.0
  0
LINE
  5
8A
330
1F
100
AcDbEntity
  8
0
  6
Continuous
 62
     7
370
    18
100
AcDbLine
 10
0.7997948771
 20
15.7733487926
 30
0.0
 11
0.6905852273
 21
15.7733487926
 31
0.0
  0
LINE
  5
8B
330
1F
100
AcDbEntity
  8
0
  6
Continuous
 62
     7
370
    18
100
AcDbLine
 10
0.6905852273
 20
15.7733487926
 30
0.0
 11
0.6905852273
 21
15.7633912393
 31
0.0
  0
LINE
  5
8C
330
1F
100
AcDbEntity
  8
0
  6
Continuous
 62
     7
370
    18
100
AcDbLine
 10
0.6905852273
 20
15.753433686
 30
0.0
 11
0.6905852273
 21
15.7633912393
 31
0.0
  0
LINE
  5
8D
330
1F
100
AcDbEntity
  8
0
  6
Continuous
 62
     7
370
    18
100
AcDbLine
 10
1.2106231823
 20
15.5642401737
 30
0.0
 11
1.2601674653
 21
15.5642401737
 31
0.0
  0
LINE
  5
8E
330
1F
100
AcDbEntity
  8
0
  6
Continuous
 62
     7
370
    18
100
AcDbLine
 10
1.3995732113
 20
15.7036459196
 30
0.0
 11
1.3995732113
 21
15.823136559
 31
0.0
  0
LINE
  5
8F
330
1F
100
AcDbEntity
  8
0
  6
Continuous
 62
     7
370
    18
100
AcDbLine
 10
1.3263156445
 20
15.753433686
 30
0.0
 11
1.3263156445
 21
15.7733487926
 31
0.0
  0
LINE
  5
90
330
1F
100
AcDbEntity
  8
0
  6
Continuous
 62
     7
370
    18
100
AcDbLine
 10
1.2643692603
 20
15.753433686
 30
0.0
 11
1.2643692603
 21
15.7733487926
 31
0.0
  0
LINE
  5
91
330
1F
100
AcDbEntity
  8
0
  6
Continuous
 62
     7
370
    18
100
AcDbLine
 10
1.3263156445
 20
15.753433686
 30
0.0
 11
1.2643692603
 21
15.753433686
 31
0.0
  0
LINE
  5
92
330
1F
100
AcDbEntity
  8
0
  6
Continuous
 62
     7
370
    18
100
AcDbLine
 10
1.3263156445
 20
15.7733487926
 30
0.0
 11
1.2643692603
 21
15.7733487926
 31
0.0
  0
LINE
  5
93
330
1F
100
AcDbEntity
  8
0
  6
Continuous
 62
     7
370
    18
100
AcDbLine
 10
1.0563508797
 20
15.9625423049
 30
0.0
 11
1.1291573129
 21
15.9625423049
 31
0.0
  0
LINE
  5
94
330
1F
100
AcDbEntity
  8
0
  6
Continuous
 62
     7
370
    18
100
AcDbLine
 10
0.6715168758
 20
15.9625423049
 30
0.0
 11
0.7997948771
 21
15.9625423049
 31
0.0
  0
LINE
  5
95
330
1F
100
AcDbEntity
  8
0
  6
Continuous
 62
     7
370
    18
100
AcDbLine
 10
0.9488747165
 20
15.9625423049
 30
0.0
 11
1.0216811497
 21
15.9625423049
 31
0.0
  0
LINE
  5
96
330
1F
100
AcDbEntity
  8
0
  6
Continuous
 62
     7
370
    18
100
AcDbLine
 10
1.2106231823
 20
15.9625423049
 30
0.0
 11
1.2601674653
 21
15.9625423049
 31
0.0
  0
LINE
  5
97
330
1F
100
AcDbEntity
  8
0
  6
Continuous
 62
     7
370
    18
100
AcDbLine
 10
1.575150039
 20
16.0576097561
 30
0.0
 11
1.575150039
 21
15.4486097561
 31
0.0
  0
LINE
  5
98
330
1F
100
AcDbEntity
  8
0
  6
Continuous
 62
     7
370
    18
100
AcDbLine
 10
12.5747930654
 20
15.4486097561
 30
0.0
 11
12.5747930654
 21
16.0576097561
 31
0.0
  0
LINE
  5
99
330
1F
100
AcDbEntity
  8
0
  6
Continuous
 62
     7
370
    18
100
AcDbLine
 10
12.6677930654
 20
15.4486097561
 30
0.0
 11
12.6677930654
 21
16.0576097561
 31
0.0
  0
LINE
  5
9A
330
1F
100
AcDbEntity
  8
0
  6
Continuous
 62
     7
370
    18
100
AcDbLine
 10
13.7927930654
 20
15.4486097561
 30
0.0
 11
13.7927930654
 21
16.0576097561
 31
0.0
  0
ARC
  5
9B
330
1F
100
AcDbEntity
  8
0
  6
Continuous
 62
     7
370
    18
100
AcDbCircle
 10
0.7997948771
 20
15.8679455487
 30
0.0
 40
0.0945967561478671
100
AcDbArc
 50
270.0
 51
90.0
  0
ARC
  5
9C
330
1F
100
AcDbEntity
  8
0
  6
Continuous
 62
     7
370
    18
100
AcDbCircle
 10
1.2601674653
 20
15.823136559
 30
0.0
 40
0.1394057459021187
100
AcDbArc
 50
0.0
 51
90.0
  0
ARC
  5
9D
330
1F
100
AcDbEntity
  8
0
  6
Continuous
 62
     7
370
    18
100
AcDbCircle
 10
0.7997948771
 20
15.6588369299
 30
0.0
 40
0.0945967561478671
100
AcDbArc
 50
270.0
 51
90.0
  0
ARC
  5
9E
330
1F
100
AcDbEntity
  8
0
  6
Continuous
 62
     7
370
    18
100
AcDbCircle
 10
0.9737685997
 20
15.5891340569
 30
0.0
 40
0.0248938831968141
100
AcDbArc
 50
180.0
 51
270.0
  0
ARC
  5
9F
330
1F
100
AcDbEntity
  8
0
  6
Continuous
 62
     7
370
    18
100
AcDbCircle
 10
1.0364357732
 20
15.6292259294
 30
0.0
 40
0.0199151065574398
100
AcDbArc
 50
277.4442840975
 51
0.0
  0
ARC
  5
A0
330
1F
100
AcDbEntity
  8
0
  6
Continuous
 62
     7
370
    18
100
AcDbCircle
 10
1.0415962562
 20
15.6292259294
 30
0.0
 40
0.0199151065574563
100
AcDbArc
 50
180.0
 51
262.5557159021
  0
ARC
  5
A1
330
1F
100
AcDbEntity
  8
0
  6
Continuous
 62
     7
370
    18
100
AcDbCircle
 10
1.2601674653
 20
15.7036459196
 30
0.0
 40
0.1394057459021187
100
AcDbArc
 50
270.0
 51
0.0
  0
ARC
  5
A2
330
1F
100
AcDbEntity
  8
0
  6
Continuous
 62
     7
370
    18
100
AcDbCircle
 10
1.1042634297
 20
15.5891340569
 30
0.0
 40
0.0248938831968104
100
AcDbArc
 50
270.0
 51
0.0
  0
INSERT
  5
AB
330
1F
100
AcDbEntity
  8
0
  6
Continuous
 62
     7
370
     0
100
AcDbBlockReference
  2
SW_NOTE_0
 10
20.8452826489
 20
14.8637104737
 30
0.0
  0
INSERT
  5
B4
330
1F
100
AcDbEntity
  8
0
  6
Continuous
 62
     7
370
     0
100
AcDbBlockReference
  2
SW_NOTE_1
 10
9.9960063972
 20
1.6538967575
 30
0.0
  0
INSERT
  5
C4
330
1F
100
AcDbEntity
  8
0
  6
Continuous
 62
     7
370
     0
100
AcDbBlockReference
  2
SW_NOTE_2
 10
9.9960063972
 20
5.8883779284
 30
0.0
  0
MTEXT
  5
C5
330
1F
100
AcDbEntity
  8
0
  6
Continuous
 62
     7
370
     0
100
AcDbMText
 10
24.1046875768
 20
15.9139745161
 30
0.0
 40
0.28125
 41
0.0
 71
     2
 72
     1
  1
5-2-16
  7
SLDTEXTSTYLE0
 73
     1
 44
1.0
  0
MTEXT
  5
C6
330
1F
100
AcDbEntity
  8
0
  6
Continuous
 62
     7
370
     0
100
AcDbMText
 10
7.7241142849
 20
15.9303582581
 30
0.0
 40
0.28125
 41
0.0
 71
     2
 72
     1
  1
NEMA 4X PLASTIC BOX  (PTS SERIES)
  7
SLDTEXTSTYLE0
 73
     1
 44
1.0
  0
MTEXT
  5
C8
330
1F
100
AcDbEntity
  8
0
  6
Continuous
 62
     7
370
     0
100
AcDbMText
 10
17.8448264729
 20
15.9139745299
 30
0.0
 40
0.28125
 41
0.0
 71
     2
 72
     1
  1
PTS-25310     &     PTS-25310-C
  7
SLDTEXTSTYLE3
 73
     1
 44
1.0
  0
INSERT
  5
CE
330
1F
100
AcDbEntity
  8
0
  6
Continuous
 62
     7
370
     0
100
AcDbBlockReference
  2
SW_NOTE_3
 10
1.9026511869
 20
15.7592073569
 30
0.0
  0
INSERT
  5
D4
330
1F
100
AcDbEntity
  8
0
  6
Continuous
 62
     7
370
     0
100
AcDbBlockReference
  2
SW_NOTE_4
 10
12.9657697845
 20
15.7481817837
 30
0.0
  0
INSERT
  5
DA
330
1F
100
AcDbEntity
  8
0
  6
Continuous
 62
     7
370
     0
100
AcDbBlockReference
  2
SW_NOTE_5
 10
22.0629579411
 20
15.7550752943
 30
0.0
  0
LWPOLYLINE
  5
DB
330
1F
100
AcDbEntity
  8
0
  6
Continuous
 62
     7
370
    25
100
AcDbPolyline
 90
       16
 70
   128
 43
0.0
 10
3.2887221179
 20
12.6527897195
 10
3.2887222646
 20
12.6527282669
 10
3.288742651
 20
12.6535460708
 10
3.2887637707
 20
12.6544599402
 10
3.2887961837
 20
12.6557106991
 10
3.2888064502
 20
12.6560760416
 10
3.2888177435
 20
12.6564626504
 10
3.2888239034
 20
12.6566637281
 10
3.2888303566
 20
12.6568702324
 10
3.2888368099
 20
12.6570780566
 10
3.2888435565
 20
12.6572839743
 10
3.2888570497
 20
12.6576900896
 10
3.2888992892
 20
12.6588634094
 10
3.2890205811
 20
12.661665737
 10
3.2893389908
 20
12.6668295173
 10
3.2919002012
 20
12.685237438
  0
LWPOLYLINE
  5
DC
330
1F
100
AcDbEntity
  8
0
  6
Continuous
 62
     7
370
    25
100
AcDbPolyline
 90
       16
 70
   128
 43
0.0
 10
6.831964666
 20
8.1615137365
 10
6.8319645194
 20
8.1615751891
 10
6.831944133
 20
8.1607573852
 10
6.8319230132
 20
8.1598435157
 10
6.8318906002
 20
8.1585927569
 10
6.8318803337
 20
8.1582274144
 10
6.8318690405
 20
8.1578408055
 10
6.8318628806
 20
8.1576397279
 10
6.8318564273
 20
8.1574332236
 10
6.8318498274
 20
8.1572253993
 10
6.8318432275
 20
8.1570194817
 10
6.8318297343
 20
8.1566133664
 10
6.8317874948
 20
8.1554400466
 10
6.8316662028
 20
8.152637719
 10
6.8313477932
 20
8.1474739386
 10
6.8287865828
 20
8.129066018
  0
LWPOLYLINE
  5
DD
330
1F
100
AcDbEntity
  8
0
  6
Continuous
 62
     7
370
    25
100
AcDbPolyline
 90
       34
 70
   128
 43
0.0
 10
7.3091746466
 20
12.1787990351
 10
7.3094855764
 20
12.1787886219
 10
7.3091904864
 20
12.1787697021
 10
7.3081782048
 20
12.1787679421
 10
7.3077710628
 20
12.1787648622
 10
7.3077866093
 20
12.1787544489
 10
7.3082207376
 20
12.1787350892
 10
7.3090702212
 20
12.1787045829
 10
7.310293407
 20
12.17866161
 10
7.31118689
 20
12.1786294904
 10
7.3116700045
 20
12.1786115973
 10
7.3117943763
 20
12.178606904
 10
7.311857149
 20
12.1786045573
 10
7.3119205082
 20
12.178602064
 10
7.3119841608
 20
12.1785997174
 10
7.3120161338
 20
12.1785983974
 10
7.3120481068
 20
12.1785972241
 10
7.3121126393
 20
12.1785947308
 10
7.3121774653
 20
12.1785922375
 10
7.3123079971
 20
12.1785871042
 10
7.3125071681
 20
12.1785791843
 10
7.3127095658
 20
12.1785709711
 10
7.3132668927
 20
12.178547798
 10
7.314770502
 20
12.1784793055
 10
7.3164328028
 20
12.1783920398
 10
7.3181303032
 20
12.1782889343
 10
7.319788204
 20
12.178173509
 10
7.3210856023
 20
12.1780723102
 10
7.3223571877
 20
12.1779636314
 10
7.3236390395
 20
12.1778439528
 10
7.325382886
 20
12.1776641415
 10
7.3286411951
 20
12.1772723994
 10
7.332971625
 20
12.1766288335
 10
7.338371536
 20
12.1756062853
  0
LWPOLYLINE
  5
DE
330
1F
100
AcDbEntity
  8
0
  6
Continuous
 62
     7
370
    25
100
AcDbPolyline
 90
       34
 70
   128
 43
0.0
 10
2.8115119907
 20
8.6355044209
 10
2.8112012076
 20
8.6355148341
 10
2.8114961508
 20
8.6355337539
 10
2.8125087258
 20
8.6355355138
 10
2.8129158678
 20
8.6355385938
 10
2.8129001746
 20
8.635549007
 10
2.8124658996
 20
8.6355683668
 10
2.8116164161
 20
8.6355988731
 10
2.8103932303
 20
8.6356418459
 10
2.8094998939
 20
8.6356739656
 10
2.8090169262
 20
8.6356918587
 10
2.8088924076
 20
8.635696552
 10
2.8088294883
 20
8.6356988986
 10
2.8087662757
 20
8.6357013919
 10
2.8087026231
 20
8.6357037386
 10
2.8086706502
 20
8.6357050586
 10
2.8086386772
 20
8.6357062319
 10
2.8085741446
 20
8.6357087252
 10
2.8085094653
 20
8.6357112185
 10
2.8083786402
 20
8.6357163518
 10
2.8081797625
 20
8.6357242717
 10
2.8079772182
 20
8.6357324849
 10
2.8074200379
 20
8.635755658
 10
2.805916282
 20
8.6358241505
 10
2.8042538345
 20
8.6359114162
 10
2.8025564808
 20
8.6360145216
 10
2.8008985799
 20
8.636129947
 10
2.7996010349
 20
8.6362311458
 10
2.7983294496
 20
8.6363398246
 10
2.7970477444
 20
8.6364595032
 10
2.7953038979
 20
8.6366393144
 10
2.7920454422
 20
8.6370310566
 10
2.7877151589
 20
8.6376746225
 10
2.7823152479
 20
8.6386971707
  0
LWPOLYLINE
  5
DF
330
1F
100
AcDbEntity
  8
0
  6
Continuous
 62
     7
370
    25
100
AcDbPolyline
 90
        3
 70
   128
 43
0.0
 10
3.2919002012
 20
8.129066018
 10
3.2910413311
 20
8.1334906068
 10
3.2886976248
 20
8.1601959517
  0
ARC
  5
E0
330
1F
100
AcDbEntity
  8
0
  6
Continuous
 62
     7
370
    25
100
AcDbCircle
 10
7.3067356775
 20
8.7956213006
 30
0.0
 40
0.1600812609672196
100
AcDbArc
 50
270.3731042065
 51
281.398036483
  0
LWPOLYLINE
  5
E1
330
1F
100
AcDbEntity
  8
0
  6
Continuous
 62
     7
370
    25
100
AcDbPolyline
 90
        3
 70
   128
 43
0.0
 10
7.3094500834
 20
8.6355170341
 10
7.3094855764
 20
8.6355148341
 10
7.3091878465
 20
8.6355048609
  0
ARC
  5
E2
330
1F
100
AcDbEntity
  8
0
  6
Continuous
 62
     7
370
    25
100
AcDbCircle
 10
2.8139510049
 20
12.0186831897
 30
0.0
 40
0.1600802269304634
100
AcDbArc
 50
90.3731227361
 51
101.3980739884
  0
LWPOLYLINE
  5
E3
330
1F
100
AcDbEntity
  8
0
  6
Continuous
 62
     7
370
    25
100
AcDbPolyline
 90
        3
 70
   128
 43
0.0
 10
2.8112365538
 20
12.1787864219
 10
2.8112012076
 20
12.1787886219
 10
2.8114987908
 20
12.1787985951
  0
LWPOLYLINE
  5
E4
330
1F
100
AcDbEntity
  8
0
  6
Continuous
 62
     7
370
    25
100
AcDbPolyline
 90
        3
 70
   128
 43
0.0
 10
6.8287865828
 20
12.685237438
 10
6.8296454528
 20
12.6808128491
 10
6.8319891591
 20
12.6541075043
  0
ARC
  5
E5
330
1F
100
AcDbEntity
  8
0
  6
Continuous
 62
     7
370
    25
100
AcDbCircle
 10
3.3676268526
 20
12.6709312555
 30
0.0
 40
0.1181102362205109
100
AcDbArc
 50
90.0
 51
180.0
  0
ARC
  5
E6
330
1F
100
AcDbEntity
  8
0
  6
Continuous
 62
     7
370
    25
100
AcDbCircle
 10
2.7965638605
 20
8.7144351925
 30
0.0
 40
0.1181102362203288
100
AcDbArc
 50
180.0
 51
270.0
  0
LINE
  5
E7
330
1F
100
AcDbEntity
  8
0
  6
Continuous
 62
     7
370
    25
100
AcDbLine
 10
2.6784535678
 20
8.7144352557
 30
0.0
 11
2.6784535678
 21
12.0998682002
 31
0.0
  0
ARC
  5
E8
330
1F
100
AcDbEntity
  8
0
  6
Continuous
 62
     7
370
    25
100
AcDbCircle
 10
2.7965638605
 20
12.0998682634
 30
0.0
 40
0.1181102362204722
100
AcDbArc
 50
90.0
 51
180.0
  0
LINE
  5
E9
330
1F
100
AcDbEntity
  8
0
  6
Continuous
 62
     7
370
    25
100
AcDbLine
 10
2.7965638967
 20
12.2179785292
 30
0.0
 11
2.9753040585
 21
12.2179785292
 31
0.0
  0
ARC
  5
EA
330
1F
100
AcDbEntity
  8
0
  6
Continuous
 62
     7
370
    25
100
AcDbCircle
 10
2.9753040179
 20
12.4921979485
 30
0.0
 40
0.2742194488189327
100
AcDbArc
 50
270.0
 51
0.0
  0
ARC
  5
EB
330
1F
100
AcDbEntity
  8
0
  6
Continuous
 62
     7
370
    25
100
AcDbCircle
 10
2.9753040179
 20
12.4921989327
 30
0.0
 40
0.3133936614172743
100
AcDbArc
 50
270.0
 51
360.0
  0
LINE
  5
EC
330
1F
100
AcDbEntity
  8
0
  6
Continuous
 62
     7
370
    25
100
AcDbLine
 10
2.9753040585
 20
8.5963249268
 30
0.0
 11
2.7965638967
 21
8.5963249268
 31
0.0
  0
LINE
  5
ED
330
1F
100
AcDbEntity
  8
0
  6
Continuous
 62
     7
370
    25
100
AcDbLine
 10
6.753256762
 20
12.749671467
 30
0.0
 11
3.367430022
 21
12.749671467
 31
0.0
  0
LINE
  5
EE
330
1F
100
AcDbEntity
  8
0
  6
Continuous
 62
     7
370
    25
100
AcDbLine
 10
3.2495166641
 20
8.1433721594
 30
0.0
 11
3.2495234107
 21
8.3221055746
 31
0.0
  0
ARC
  5
EF
330
1F
100
AcDbEntity
  8
0
  6
Continuous
 62
     7
370
    25
100
AcDbCircle
 10
3.3676268526
 20
8.1433722004
 30
0.0
 40
0.1181102362204731
100
AcDbArc
 50
180.0
 51
270.0
  0
ARC
  5
F0
330
1F
100
AcDbEntity
  8
0
  6
Continuous
 62
     7
370
    25
100
AcDbCircle
 10
7.1453827581
 20
12.4921989327
 30
0.0
 40
0.3133936614172903
100
AcDbArc
 50
180.0
 51
270.0
  0
ARC
  5
F1
330
1F
100
AcDbEntity
  8
0
  6
Continuous
 62
     7
370
    25
100
AcDbCircle
 10
6.7530599235
 20
8.1433722004
 30
0.0
 40
0.1181102362204731
100
AcDbArc
 50
270.0
 51
0.0
  0
LINE
  5
F2
330
1F
100
AcDbEntity
  8
0
  6
Continuous
 62
     7
370
    25
100
AcDbLine
 10
6.8711633732
 20
8.3221055746
 30
0.0
 11
6.8711701198
 21
8.1433721594
 31
0.0
  0
LINE
  5
F3
330
1F
100
AcDbEntity
  8
0
  6
Continuous
 62
     7
370
    25
100
AcDbLine
 10
7.4028630576
 20
8.7142382847
 30
0.0
 11
7.4028630576
 21
12.1000651713
 31
0.0
  0
LINE
  5
F4
330
1F
100
AcDbEntity
  8
0
  6
Continuous
 62
     7
370
    25
100
AcDbLine
 10
7.3241230339
 20
8.5963249268
 30
0.0
 11
7.1453827254
 21
8.5963249268
 31
0.0
  0
ARC
  5
F5
330
1F
100
AcDbEntity
  8
0
  6
Continuous
 62
     7
370
    25
100
AcDbCircle
 10
7.3241229156
 20
8.7144351925
 30
0.0
 40
0.1181102362204616
100
AcDbArc
 50
270.0
 51
0.0
  0
ARC
  5
F6
330
1F
100
AcDbEntity
  8
0
  6
Continuous
 62
     7
370
    25
100
AcDbCircle
 10
7.1453827581
 20
8.3221045233
 30
0.0
 40
0.3133936614172645
100
AcDbArc
 50
90.0
 51
180.0
  0
ARC
  5
F7
330
1F
100
AcDbEntity
  8
0
  6
Continuous
 62
     7
370
    25
100
AcDbCircle
 10
7.3241229156
 20
12.0998682634
 30
0.0
 40
0.1181102362204625
100
AcDbArc
 50
0.0
 51
90.0
  0
LINE
  5
F8
330
1F
100
AcDbEntity
  8
0
  6
Continuous
 62
     7
370
    25
100
AcDbLine
 10
7.1453827254
 20
12.2179785292
 30
0.0
 11
7.3241230339
 21
12.2179785292
 31
0.0
  0
LINE
  5
F9
330
1F
100
AcDbEntity
  8
0
  6
Continuous
 62
     7
370
    25
100
AcDbLine
 10
3.367430022
 20
8.064631989
 30
0.0
 11
6.753256762
 21
8.064631989
 31
0.0
  0
LINE
  5
FA
330
1F
100
AcDbEntity
  8
0
  6
Continuous
 62
     7
370
    25
100
AcDbLine
 10
6.8711701198
 20
12.6709312966
 30
0.0
 11
6.8711633732
 21
12.4921978814
 31
0.0
  0
ARC
  5
FB
330
1F
100
AcDbEntity
  8
0
  6
Continuous
 62
     7
370
    25
100
AcDbCircle
 10
6.7530599235
 20
12.6709312555
 30
0.0
 40
0.1181102362204749
100
AcDbArc
 50
0.0
 51
90.0
  0
ARC
  5
FC
330
1F
100
AcDbEntity
  8
0
  6
Continuous
 62
     7
370
    25
100
AcDbCircle
 10
2.9753040179
 20
8.3221045233
 30
0.0
 40
0.3133936614172512
100
AcDbArc
 50
0.0
 51
90.0
  0
LINE
  5
FD
330
1F
100
AcDbEntity
  8
0
  6
Continuous
 62
     7
370
    25
100
AcDbLine
 10
3.2495234107
 20
12.4921978814
 30
0.0
 11
3.2495166641
 21
12.6709312966
 31
0.0
  0
LINE
  5
FE
330
1F
100
AcDbEntity
  8
0
  6
Continuous
 62
     7
370
    25
100
AcDbLine
 10
3.3676268464
 20
12.7890414789
 30
0.0
 11
6.7530599376
 21
12.7890414789
 31
0.0
  0
LINE
  5
FF
330
1F
100
AcDbEntity
  8
0
  6
Continuous
 62
     7
370
    25
100
AcDbLine
 10
2.7178237263
 20
12.1000651713
 30
0.0
 11
2.7178237263
 21
8.7142382847
 31
0.0
  0
ARC
  5
100
330
1F
100
AcDbEntity
  8
0
  6
Continuous
 62
     7
370
    25
100
AcDbCircle
 10
7.1453827581
 20
12.4921979485
 30
0.0
 40
0.2742194488189655
100
AcDbArc
 50
180.0
 51
270.0
  0
ARC
  5
101
330
1F
100
AcDbEntity
  8
0
  6
Continuous
 62
     7
370
    25
100
AcDbCircle
 10
7.1453827581
 20
8.3221055075
 30
0.0
 40
0.2742194488189682
100
AcDbArc
 50
90.0
 51
180.0
  0
LINE
  5
102
330
1F
100
AcDbEntity
  8
0
  6
Continuous
 62
     7
370
    25
100
AcDbLine
 10
7.4422332162
 20
12.0998682002
 30
0.0
 11
7.4422332162
 21
8.7144352557
 31
0.0
  0
LINE
  5
103
330
1F
100
AcDbEntity
  8
0
  6
Continuous
 62
     7
370
    25
100
AcDbLine
 10
6.7530599376
 20
8.0252619771
 30
0.0
 11
3.3676268464
 21
8.0252619771
 31
0.0
  0
ARC
  5
104
330
1F
100
AcDbEntity
  8
0
  6
Continuous
 62
     7
370
    25
100
AcDbCircle
 10
2.9753040179
 20
8.3221055075
 30
0.0
 40
0.2742194488189686
100
AcDbArc
 50
0.0
 51
90.0
  0
LINE
  5
105
330
1F
100
AcDbEntity
  8
0
  6
Continuous
 62
     7
370
    25
100
AcDbLine
 10
2.9753040585
 20
12.1788053417
 30
0.0
 11
2.7965638967
 21
12.1788053417
 31
0.0
  0
LINE
  5
106
330
1F
100
AcDbEntity
  8
0
  6
Continuous
 62
     7
370
    25
100
AcDbLine
 10
6.8319891591
 20
12.492198908
 30
0.0
 11
6.8319969323
 21
12.6709312966
 31
0.0
  0
ARC
  5
107
330
1F
100
AcDbEntity
  8
0
  6
Continuous
 62
     7
370
    25
100
AcDbCircle
 10
2.7965638605
 20
8.7142383422
 30
0.0
 40
0.0787401574803259
100
AcDbArc
 50
180.0
 51
270.0
  0
ARC
  5
108
330
1F
100
AcDbEntity
  8
0
  6
Continuous
 62
     7
370
    25
100
AcDbCircle
 10
3.3674300022
 20
12.6709312555
 30
0.0
 40
0.0787401574803361
100
AcDbArc
 50
90.0
 51
180.0
  0
ARC
  5
109
330
1F
100
AcDbEntity
  8
0
  6
Continuous
 62
     7
370
    25
100
AcDbCircle
 10
7.3241229156
 20
12.1000651138
 30
0.0
 40
0.0787401574803486
100
AcDbArc
 50
0.0
 51
90.0
  0
ARC
  5
10A
330
1F
100
AcDbEntity
  8
0
  6
Continuous
 62
     7
370
    25
100
AcDbCircle
 10
2.7965638605
 20
12.1000651138
 30
0.0
 40
0.0787401574803557
100
AcDbArc
 50
90.0
 51
180.0
  0
ARC
  5
10B
330
1F
100
AcDbEntity
  8
0
  6
Continuous
 62
     7
370
    25
100
AcDbCircle
 10
7.3241229156
 20
8.7142383422
 30
0.0
 40
0.0787401574803885
100
AcDbArc
 50
270.0
 51
0.0
  0
LINE
  5
10C
330
1F
100
AcDbEntity
  8
0
  6
Continuous
 62
     7
370
    25
100
AcDbLine
 10
7.1453827254
 20
8.6354981143
 30
0.0
 11
7.3241230339
 21
8.6354981143
 31
0.0
  0
LINE
  5
10D
330
1F
100
AcDbEntity
  8
0
  6
Continuous
 62
     7
370
    25
100
AcDbLine
 10
3.2886898516
 20
12.6709312966
 30
0.0
 11
3.2886976248
 21
12.492198908
 31
0.0
  0
LINE
  5
10E
330
1F
100
AcDbEntity
  8
0
  6
Continuous
 62
     7
370
    25
100
AcDbLine
 10
6.8319969323
 20
8.1433721594
 30
0.0
 11
6.8319891591
 21
8.322104548
 31
0.0
  0
ARC
  5
10F
330
1F
100
AcDbEntity
  8
0
  6
Continuous
 62
     7
370
    25
100
AcDbCircle
 10
6.7532567739
 20
8.1433722004
 30
0.0
 40
0.078740157480313
100
AcDbArc
 50
270.0
 51
0.0
  0
ARC
  5
110
330
1F
100
AcDbEntity
  8
0
  6
Continuous
 62
     7
370
    25
100
AcDbCircle
 10
6.7532567739
 20
12.6709312555
 30
0.0
 40
0.0787401574803379
100
AcDbArc
 50
0.0
 51
90.0
  0
ARC
  5
111
330
1F
100
AcDbEntity
  8
0
  6
Continuous
 62
     7
370
    25
100
AcDbCircle
 10
3.3674300022
 20
8.1433722004
 30
0.0
 40
0.0787401574803153
100
AcDbArc
 50
180.0
 51
270.0
  0
LINE
  5
112
330
1F
100
AcDbEntity
  8
0
  6
Continuous
 62
     7
370
    25
100
AcDbLine
 10
3.2886976248
 20
8.322104548
 30
0.0
 11
3.2886898516
 21
8.1433721594
 31
0.0
  0
LINE
  5
113
330
1F
100
AcDbEntity
  8
0
  6
Continuous
 62
     7
370
    25
100
AcDbLine
 10
7.3241230339
 20
12.1788053417
 30
0.0
 11
7.1453827254
 21
12.1788053417
 31
0.0
  0
LINE
  5
114
330
1F
100
AcDbEntity
  8
0
  6
Continuous
 62
     7
370
    25
100
AcDbLine
 10
2.7965638967
 20
8.6354981143
 30
0.0
 11
2.9753040585
 21
8.6354981143
 31
0.0
  0
CIRCLE
  5
115
330
1F
100
AcDbEntity
  8
0
  6
Continuous
 62
     7
370
    25
100
AcDbCircle
 10
7.1272725219
 20
12.4740808618
 30
0.0
 40
0.1574803149582475
  0
CIRCLE
  5
116
330
1F
100
AcDbEntity
  8
0
  6
Continuous
 62
     7
370
    25
100
AcDbCircle
 10
7.1272725219
 20
12.4740808618
 30
0.0
 40
0.1968503937007338
  0
ARC
  5
117
330
1F
100
AcDbEntity
  8
0
  6
Continuous
 62
     7
370
    25
100
AcDbCircle
 10
7.1668716514
 20
8.3006273415
 30
0.0
 40
0.3541016601926404
100
AcDbArc
 50
269.960224081
 51
0.0364557485
  0
LINE
  5
118
330
1F
100
AcDbEntity
  8
0
  6
Continuous
 62
     7
370
    25
100
AcDbLine
 10
2.9540609573
 20
7.9465257667
 30
0.0
 11
7.1666258267
 21
7.9465257667
 31
0.0
  0
ARC
  5
119
330
1F
100
AcDbEntity
  8
0
  6
Continuous
 62
     7
370
    25
100
AcDbCircle
 10
2.9538284259
 20
8.3006407822
 30
0.0
 40
0.3541150918350141
100
AcDbArc
 50
179.9657440565
 51
270.0376235451
  0
LINE
  5
11A
330
1F
100
AcDbEntity
  8
0
  6
Continuous
 62
     7
370
    25
100
AcDbLine
 10
2.5997133974
 20
12.5134508092
 30
0.0
 11
2.5997133974
 21
8.3008525001
 31
0.0
  0
ARC
  5
11B
330
1F
100
AcDbEntity
  8
0
  6
Continuous
 62
     7
370
    25
100
AcDbCircle
 10
2.9538225573
 20
12.5136685426
 30
0.0
 40
0.3541092268948851
100
AcDbArc
 50
89.9614262789
 51
180.0352298358
  0
LINE
  5
11C
330
1F
100
AcDbEntity
  8
0
  6
Continuous
 62
     7
370
    25
100
AcDbLine
 10
7.1666258267
 20
12.8677776893
 30
0.0
 11
2.9540609573
 21
12.8677776893
 31
0.0
  0
ARC
  5
11D
330
1F
100
AcDbEntity
  8
0
  6
Continuous
 62
     7
370
    25
100
AcDbCircle
 10
7.1667715819
 20
12.5135760392
 30
0.0
 40
0.3542016800457857
100
AcDbArc
 50
359.9797664683
 51
90.0235774184
  0
LINE
  5
11E
330
1F
100
AcDbEntity
  8
0
  6
Continuous
 62
     7
370
    25
100
AcDbLine
 10
7.5209732399
 20
8.3008526468
 30
0.0
 11
7.5209732399
 21
12.5134509558
 31
0.0
  0
CIRCLE
  5
11F
330
1F
100
AcDbEntity
  8
0
  6
Continuous
 62
     7
370
    25
100
AcDbCircle
 10
2.9934142542
 20
8.3402225941
 30
0.0
 40
0.1968503937007355
  0
CIRCLE
  5
120
330
1F
100
AcDbEntity
  8
0
  6
Continuous
 62
     7
370
    25
100
AcDbCircle
 10
2.9934142542
 20
12.4740808618
 30
0.0
 40
0.1968503937007338
  0
CIRCLE
  5
121
330
1F
100
AcDbEntity
  8
0
  6
Continuous
 62
     7
370
    25
100
AcDbCircle
 10
7.1272725219
 20
8.3402225941
 30
0.0
 40
0.1968503937007355
  0
CIRCLE
  5
122
330
1F
100
AcDbEntity
  8
0
  6
Continuous
 62
     7
370
    25
100
AcDbCircle
 10
2.9934142542
 20
12.4740808618
 30
0.0
 40
0.1574803149582475
  0
CIRCLE
  5
123
330
1F
100
AcDbEntity
  8
0
  6
Continuous
 62
     7
370
    25
100
AcDbCircle
 10
7.1272725219
 20
8.3402225941
 30
0.0
 40
0.1574803149582475
  0
CIRCLE
  5
124
330
1F
100
AcDbEntity
  8
0
  6
Continuous
 62
     7
370
    25
100
AcDbCircle
 10
2.9934142542
 20
8.3402225941
 30
0.0
 40
0.1574803149582475
  0
LINE
  5
125
330
1F
100
AcDbEntity
  8
0
  6
Continuous
 62
     7
370
    25
100
AcDbLine
 10
3.2955858919
 20
12.7024305327
 30
0.0
 11
6.825100892
 21
12.7024305327
 31
0.0
  0
LINE
  5
126
330
1F
100
AcDbEntity
  8
0
  6
Continuous
 62
     7
370
    25
100
AcDbLine
 10
6.825100892
 20
8.1118729232
 30
0.0
 11
3.2955858919
 21
8.1118729232
 31
0.0
  0
LINE
  5
127
330
1F
100
AcDbEntity
  8
0
  6
Continuous
 62
     7
370
    25
100
AcDbLine
 10
7.3555885371
 20
12.1719239678
 30
0.0
 11
7.3555885371
 21
8.6423794881
 31
0.0
  0
LINE
  5
128
330
1F
100
AcDbEntity
  8
0
  6
Continuous
 62
     7
370
    25
100
AcDbLine
 10
2.7650983935
 20
8.6423794881
 30
0.0
 11
2.7650983935
 21
12.1719239678
 31
0.0
  0
LINE
  5
129
330
1F
100
AcDbEntity
  8
0
  6
Continuous
 62
     7
370
    25
100
AcDbLine
 10
3.2955858919
 20
12.7024305327
 30
0.0
 11
3.2919002012
 21
12.685237438
 31
0.0
  0
LINE
  5
12A
330
1F
100
AcDbEntity
  8
0
  6
Continuous
 62
     7
370
    25
100
AcDbLine
 10
6.825100892
 20
8.1118729232
 30
0.0
 11
6.8287865828
 21
8.129066018
 31
0.0
  0
LINE
  5
12B
330
1F
100
AcDbEntity
  8
0
  6
Continuous
 62
     7
370
    25
100
AcDbLine
 10
7.3555885371
 20
12.1719239678
 30
0.0
 11
7.338371536
 21
12.1756062853
 31
0.0
  0
LINE
  5
12C
330
1F
100
AcDbEntity
  8
0
  6
Continuous
 62
     7
370
    25
100
AcDbLine
 10
2.7650983935
 20
8.6423794881
 30
0.0
 11
2.7823152479
 21
8.6386971707
 31
0.0
  0
LINE
  5
12D
330
1F
100
AcDbEntity
  8
0
  6
Continuous
 62
     7
370
    25
100
AcDbLine
 10
3.2919002012
 20
8.129066018
 30
0.0
 11
3.2955858919
 21
8.1118729232
 31
0.0
  0
LINE
  5
12E
330
1F
100
AcDbEntity
  8
0
  6
Continuous
 62
     7
370
    25
100
AcDbLine
 10
7.338371536
 20
8.6386971707
 30
0.0
 11
7.3555885371
 21
8.6423794881
 31
0.0
  0
LINE
  5
12F
330
1F
100
AcDbEntity
  8
0
  6
Continuous
 62
     7
370
    25
100
AcDbLine
 10
2.7823152479
 20
12.1756062853
 30
0.0
 11
2.7650983935
 21
12.1719239678
 31
0.0
  0
LINE
  5
130
330
1F
100
AcDbEntity
  8
0
  6
Continuous
 62
     7
370
    25
100
AcDbLine
 10
6.8287865828
 20
12.685237438
 30
0.0
 11
6.825100892
 21
12.7024305327
 31
0.0
  0
LINE
  5
131
330
1F
100
AcDbEntity
  8
0
  6
Continuous
 62
     7
370
    25
100
AcDbLine
 10
6.8310525566
 20
12.6702619177
 30
0.0
 11
3.2886898516
 21
12.6702619177
 31
0.0
  0
LINE
  5
132
330
1F
100
AcDbEntity
  8
0
  6
Continuous
 62
     7
370
    25
100
AcDbLine
 10
7.3234143488
 20
8.6364385301
 30
0.0
 11
7.3234143488
 21
12.1778649259
 31
0.0
  0
LINE
  5
133
330
1F
100
AcDbEntity
  8
0
  6
Continuous
 62
     7
370
    25
100
AcDbLine
 10
3.2896342274
 20
8.1440415383
 30
0.0
 11
6.8319969323
 21
8.1440415383
 31
0.0
  0
LINE
  5
134
330
1F
100
AcDbEntity
  8
0
  6
Continuous
 62
     7
370
    25
100
AcDbLine
 10
2.7972725818
 20
12.1778649259
 30
0.0
 11
2.7972725818
 21
8.6364385301
 31
0.0
  0
CIRCLE
  5
135
330
1F
100
AcDbEntity
  8
0
  6
Continuous
 62
     7
370
    25
100
AcDbCircle
 10
3.293843388
 20
8.941651728
 30
0.0
 40
0.0824999999999978
  0
CIRCLE
  5
136
330
1F
100
AcDbEntity
  8
0
  6
Continuous
 62
     7
370
    25
100
AcDbCircle
 10
5.060343388
 20
12.176151728
 30
0.0
 40
0.1575000000000006
  0
CIRCLE
  5
137
330
1F
100
AcDbEntity
  8
0
  6
Continuous
 62
     7
370
    25
100
AcDbCircle
 10
6.826843388
 20
11.872651728
 30
0.0
 40
0.1575000000000006
  0
CIRCLE
  5
138
330
1F
100
AcDbEntity
  8
0
  6
Continuous
 62
     7
370
    25
100
AcDbCircle
 10
3.293843388
 20
11.872651728
 30
0.0
 40
0.1575000000000006
  0
CIRCLE
  5
139
330
1F
100
AcDbEntity
  8
0
  6
Continuous
 62
     7
370
    25
100
AcDbCircle
 10
6.826843388
 20
11.872651728
 30
0.0
 40
0.0824999999999996
  0
CIRCLE
  5
13A
330
1F
100
AcDbEntity
  8
0
  6
Continuous
 62
     7
370
    25
100
AcDbCircle
 10
6.826843388
 20
8.941651728
 30
0.0
 40
0.0824999999999978
  0
CIRCLE
  5
13B
330
1F
100
AcDbEntity
  8
0
  6
Continuous
 62
     7
370
    25
100
AcDbCircle
 10
5.060343388
 20
8.638151728
 30
0.0
 40
0.0824999999999996
  0
CIRCLE
  5
13C
330
1F
100
AcDbEntity
  8
0
  6
Continuous
 62
     7
370
    25
100
AcDbCircle
 10
3.293843388
 20
8.941651728
 30
0.0
 40
0.1575000000000006
  0
CIRCLE
  5
13D
330
1F
100
AcDbEntity
  8
0
  6
Continuous
 62
     7
370
    25
100
AcDbCircle
 10
5.060343388
 20
8.638151728
 30
0.0
 40
0.1575000000000006
  0
CIRCLE
  5
13E
330
1F
100
AcDbEntity
  8
0
  6
Continuous
 62
     7
370
    25
100
AcDbCircle
 10
5.060343388
 20
12.176151728
 30
0.0
 40
0.0824999999999996
  0
CIRCLE
  5
13F
330
1F
100
AcDbEntity
  8
0
  6
Continuous
 62
     7
370
    25
100
AcDbCircle
 10
3.293843388
 20
11.872651728
 30
0.0
 40
0.0824999999999996
  0
CIRCLE
  5
140
330
1F
100
AcDbEntity
  8
0
  6
Continuous
 62
     7
370
    25
100
AcDbCircle
 10
6.826843388
 20
8.941651728
 30
0.0
 40
0.1575000000000006
  0
CIRCLE
  5
141
330
1F
100
AcDbEntity
  8
0
  6
Continuous
 62
     7
370
    25
100
AcDbCircle
 10
6.442343388
 20
10.407151728
 30
0.0
 40
0.21
  0
CIRCLE
  5
142
330
1F
100
AcDbEntity
  8
0
  6
Continuous
 62
     7
370
    25
100
AcDbCircle
 10
3.678343388
 20
10.407151728
 30
0.0
 40
0.1000000000000001
  0
CIRCLE
  5
143
330
1F
100
AcDbEntity
  8
0
  6
Continuous
 62
     7
370
    25
100
AcDbCircle
 10
3.678343388
 20
10.407151728
 30
0.0
 40
0.21
  0
CIRCLE
  5
144
330
1F
100
AcDbEntity
  8
0
  6
Continuous
 62
     7
370
    25
100
AcDbCircle
 10
6.442343388
 20
10.407151728
 30
0.0
 40
0.1000000000000005
  0
CIRCLE
  5
145
330
1F
100
AcDbEntity
  8
0
  6
Continuous
 62
     7
370
    25
100
AcDbCircle
 10
7.1272725219
 20
12.4740808618
 30
0.0
 40
0.0820000000000025
  0
CIRCLE
  5
146
330
1F
100
AcDbEntity
  8
0
  6
Continuous
 62
     7
370
    25
100
AcDbCircle
 10
2.9934142542
 20
12.4740808618
 30
0.0
 40
0.0820000000000007
  0
CIRCLE
  5
147
330
1F
100
AcDbEntity
  8
0
  6
Continuous
 62
     7
370
    25
100
AcDbCircle
 10
2.9934142542
 20
8.3402225941
 30
0.0
 40
0.081999999999999
  0
CIRCLE
  5
148
330
1F
100
AcDbEntity
  8
0
  6
Continuous
 62
     7
370
    25
100
AcDbCircle
 10
7.1272725219
 20
8.3402225941
 30
0.0
 40
0.0820000000000007
  0
CIRCLE
  5
149
330
1F
100
AcDbEntity
  8
0
  6
Continuous
 62
     7
370
    25
100
AcDbCircle
 10
5.060343388
 20
10.407151728
 30
0.0
 40
0.3440000000000003
  0
LINE
  5
14A
330
1F
100
AcDbEntity
  8
0
  6
CENTERX2
 62
     7
370
    18
100
AcDbLine
 10
2.5997134668
 20
10.407151728
 30
0.0
 11
7.5209733093
 21
10.407151728
 31
0.0
  0
LINE
  5
14B
330
1F
100
AcDbEntity
  8
0
  6
CENTERX2
 62
     7
370
    18
100
AcDbLine
 10
5.0603433593
 20
7.9465257437
 30
0.0
 11
5.0603433593
 21
12.8677777122
 31
0.0
  0
DIMENSION
  5
14C
330
1F
100
AcDbEntity
  8
0
  6
Continuous
 62
     7
370
    18
100
AcDbDimension
  2
_D
 10
7.5209733093
 20
14.8959677378
 30
0.0
 11
5.060343388
 21
14.8959677378
 31
0.0
 70
   160
  1
<>
 71
     2
 42
-1.0
  3
SLDDIMSTYLE0
100
AcDbAlignedDimension
 13
2.5997134668
 23
12.5134508292
 33
0.0
 14
7.5209733093
 24
12.5134509521
 34
0.0
 50
0.0
100
AcDbRotatedDimension
  0
DIMENSION
  5
161
330
1F
100
AcDbEntity
  8
0
  6
Continuous
 62
     7
370
    18
100
AcDbDimension
  2
_D_1
 10
1.0092215067
 20
7.9465257437
 30
0.0
 11
1.0092215067
 21
10.407151728
 31
0.0
 70
   160
  1
<>
 71
     2
 42
-1.0
  3
SLDDIMSTYLE0
100
AcDbAlignedDimension
 13
2.9540609514
 23
12.8677777122
 33
0.0
 14
2.9540610088
 24
7.9465257437
 34
0.0
 50
90.0
100
AcDbRotatedDimension
  0
DIMENSION
  5
175
330
1F
100
AcDbEntity
  8
0
  6
Continuous
 62
     7
370
    18
100
AcDbDimension
  2
_D_2
 10
6.442343388
 20
13.5290258726
 30
0.0
 11
5.060343388
 21
13.5290258726
 31
0.0
 70
   160
  1
<>
 71
     2
 42
-1.0
  3
SLDDIMSTYLE0
100
AcDbAlignedDimension
 13
3.678343388
 23
10.407151728
 33
0.0
 14
6.442343388
 24
10.407151728
 34
0.0
100
AcDbRotatedDimension
  0
DIMENSION
  5
189
330
1F
100
AcDbEntity
  8
0
  6
Continuous
 62
     7
370
    18
100
AcDbDimension
  2
_D_3
 10
1.81471724
 20
8.941651728
 30
0.0
 11
1.81471724
 21
10.407151728
 31
0.0
 70
   160
  1
<>
 71
     2
 42
-1.0
  3
SLDDIMSTYLE0
100
AcDbAlignedDimension
 13
3.293843388
 23
11.872651728
 33
0.0
 14
3.293843388
 24
8.941651728
 34
0.0
 50
90.0
100
AcDbRotatedDimension
  0
DIMENSION
  5
19D
330
1F
100
AcDbEntity
  8
0
  6
Continuous
 62
     7
370
    18
100
AcDbDimension
  2
_D_4
 10
8.1318405003
 20
8.638151728
 30
0.0
 11
8.1318405003
 21
10.407151728
 31
0.0
 70
   160
  1
<>
 71
     2
 42
-1.0
  3
SLDDIMSTYLE0
100
AcDbAlignedDimension
 13
5.060343388
 23
12.176151728
 33
0.0
 14
5.060343388
 24
8.638151728
 34
0.0
 50
90.0
100
AcDbRotatedDimension
  0
DIMENSION
  5
1B1
330
1F
100
AcDbEntity
  8
0
  6
Continuous
 62
     7
370
    18
100
AcDbDimension
  2
_D_5
 10
6.826843388
 20
14.259121114
 30
0.0
 11
5.060343388
 21
14.259121114
 31
0.0
 70
   160
  1
<>
 71
     2
 42
-1.0
  3
SLDDIMSTYLE0
100
AcDbAlignedDimension
 13
3.293843388
 23
11.872651728
 33
0.0
 14
6.826843388
 24
11.872651728
 34
0.0
100
AcDbRotatedDimension
  0
DIMENSION
  5
1C5
330
1F
100
AcDbEntity
  8
0
  6
Continuous
 62
     7
370
    18
100
AcDbDimension
  2
_D_6
 10
6.7662826451
 20
8.9976753517
 30
0.0
 11
8.6169601694
 21
7.9166846489
 31
0.0
 70
   163
  1
<> 6X
 71
     1
 42
-1.0
  3
SLDDIMSTYLE1
100
AcDbDiametricDimension
 15
6.887404131
 25
8.8856281043
 35
0.0
 40
0.0
  0
MTEXT
  5
1D7
330
1F
100
AcDbEntity
  8
0
  6
Continuous
 62
     7
370
     0
100
AcDbMText
 10
2.0440522794
 20
7.2629191825
 30
0.0
 40
0.1875
 41
0.0
 71
     1
 72
     1
  1
M4 THREADED INSERT (2X)
  7
SLDTEXTSTYLE0
 73
     1
 44
1.0
  0
MTEXT
  5
1D8
330
1F
100
AcDbEntity
  8
0
  6
Continuous
 62
     7
370
     0
100
AcDbMText
 10
5.0971833324
 20
6.8352995085
 30
0.0
 40
0.1875
 41
0.0
 71
     2
 72
     1
  1
COVER NOT SHOWN
  7
SLDTEXTSTYLE0
 73
     1
 44
1.0
  0
INSERT
  5
1E4
330
1F
100
AcDbEntity
  8
0
  6
Continuous
 62
     7
370
    18
100
AcDbBlockReference
  2
SW_CENTERMARKSYMBOL_0
 10
2.9934142542
 20
12.4740808618
 30
0.0
  0
INSERT
  5
1F0
330
1F
100
AcDbEntity
  8
0
  6
Continuous
 62
     7
370
    18
100
AcDbBlockReference
  2
SW_CENTERMARKSYMBOL_1
 10
7.1272725219
 20
12.4740808618
 30
0.0
  0
INSERT
  5
1FC
330
1F
100
AcDbEntity
  8
0
  6
Continuous
 62
     7
370
    18
100
AcDbBlockReference
  2
SW_CENTERMARKSYMBOL_2
 10
7.1272725219
 20
8.3402225941
 30
0.0
  0
INSERT
  5
208
330
1F
100
AcDbEntity
  8
0
  6
Continuous
 62
     7
370
    18
100
AcDbBlockReference
  2
SW_CENTERMARKSYMBOL_3
 10
2.9934142542
 20
8.3402225941
 30
0.0
  0
INSERT
  5
214
330
1F
100
AcDbEntity
  8
0
  6
Continuous
 62
     7
370
    18
100
AcDbBlockReference
  2
SW_CENTERMARKSYMBOL_4
 10
3.293843388
 20
11.872651728
 30
0.0
  0
INSERT
  5
220
330
1F
100
AcDbEntity
  8
0
  6
Continuous
 62
     7
370
    18
100
AcDbBlockReference
  2
SW_CENTERMARKSYMBOL_5
 10
6.826843388
 20
11.872651728
 30
0.0
  0
INSERT
  5
22C
330
1F
100
AcDbEntity
  8
0
  6
Continuous
 62
     7
370
    18
100
AcDbBlockReference
  2
SW_CENTERMARKSYMBOL_6
 10
6.442343388
 20
10.407151728
 30
0.0
  0
INSERT
  5
238
330
1F
100
AcDbEntity
  8
0
  6
Continuous
 62
     7
370
    18
100
AcDbBlockReference
  2
SW_CENTERMARKSYMBOL_7
 10
3.678343388
 20
10.407151728
 30
0.0
  0
INSERT
  5
244
330
1F
100
AcDbEntity
  8
0
  6
Continuous
 62
     7
370
    18
100
AcDbBlockReference
  2
SW_CENTERMARKSYMBOL_8
 10
5.060343388
 20
12.176151728
 30
0.0
  0
INSERT
  5
250
330
1F
100
AcDbEntity
  8
0
  6
Continuous
 62
     7
370
    18
100
AcDbBlockReference
  2
SW_CENTERMARKSYMBOL_9
 10
5.060343388
 20
8.638151728
 30
0.0
  0
INSERT
  5
25C
330
1F
100
AcDbEntity
  8
0
  6
Continuous
 62
     7
370
    18
100
AcDbBlockReference
  2
SW_CENTERMARKSYMBOL_10
 10
6.826843388
 20
8.941651728
 30
0.0
  0
INSERT
  5
268
330
1F
100
AcDbEntity
  8
0
  6
Continuous
 62
     7
370
    18
100
AcDbBlockReference
  2
SW_CENTERMARKSYMBOL_11
 10
3.293843388
 20
8.941651728
 30
0.0
  0
LINE
  5
269
330
1F
100
AcDbEntity
  8
0
  6
PHANTOM
 62
     7
370
    35
100
AcDbLine
 10
5.0603433593
 20
13.1533396481
 30
0.0
 11
5.0603433593
 21
9.7136627061
 31
0.0
  0
LINE
  5
26A
330
1F
100
AcDbEntity
  8
0
  6
PHANTOM
 62
     7
370
    35
100
AcDbLine
 10
5.0603433593
 20
9.7136627061
 30
0.0
 11
2.9949337155
 21
9.7136627061
 31
0.0
  0
LINE
  5
26B
330
1F
100
AcDbEntity
  8
0
  6
PHANTOM
 62
     7
370
    35
100
AcDbLine
 10
2.9949337155
 20
9.7136627061
 30
0.0
 11
2.9949337155
 21
7.6173182949
 31
0.0
  0
LINE
  5
26C
330
1F
100
AcDbEntity
  8
0
  6
Continuous
 62
     7
370
    35
100
AcDbLine
 10
5.0603433593
 20
13.1533396481
 30
0.0
 11
4.3103433593
 21
13.1533396481
 31
0.0
  0
SOLID
  5
26D
330
1F
100
AcDbEntity
  8
0
  6
Continuous
 62
     7
370
    35
100
AcDbTrace
 10
4.3103433593
 20
13.1533396481
 30
0.0
 11
4.6853433593
 21
13.0933396481
 31
0.0
 12
4.6853433593
 22
13.2133396481
 32
0.0
 13
4.6853433593
 23
13.2133396481
 33
0.0
  0
LINE
  5
26E
330
1F
100
AcDbEntity
  8
0
  6
Continuous
 62
     7
370
    35
100
AcDbLine
 10
2.9949337155
 20
7.6173182949
 30
0.0
 11
2.2449337155
 21
7.6173182949
 31
0.0
  0
SOLID
  5
26F
330
1F
100
AcDbEntity
  8
0
  6
Continuous
 62
     7
370
    35
100
AcDbTrace
 10
2.2449337155
 20
7.6173182949
 30
0.0
 11
2.6199337155
 21
7.5573182949
 31
0.0
 12
2.6199337155
 22
7.6773182949
 32
0.0
 13
2.6199337155
 23
7.6773182949
 33
0.0
  0
MTEXT
  5
270
330
1F
100
AcDbEntity
  8
0
  6
Continuous
 62
     7
100
AcDbMText
 10
4.0665123464
 20
13.3047798122
 30
0.0
 40
0.1875
 41
0.0
 71
     1
 72
     1
  1
A
  7
SLDTEXTSTYLE0
 73
     1
 44
1.0
  0
MTEXT
  5
271
330
1F
100
AcDbEntity
  8
0
  6
Continuous
 62
     7
100
AcDbMText
 10
2.0011027025
 20
7.7687584591
 30
0.0
 40
0.1875
 41
0.0
 71
     1
 72
     1
  1
A
  7
SLDTEXTSTYLE0
 73
     1
 44
1.0
  0
SOLID
  5
272
330
1F
100
AcDbEntity
  8
0
  6
Continuous
 62
     7
370
    18
100
AcDbTrace
 10
3.858340427
 20
10.2989802625
 30
0.0
 11
4.0033811715
 21
10.1652335525
 31
0.0
 12
4.0368754083
 22
10.2150144334
 32
0.0
 13
4.0368754083
 23
10.2150144334
 33
0.0
  0
SOLID
  5
273
330
1F
100
AcDbEntity
  8
0
  6
Continuous
 62
     7
370
    18
100
AcDbTrace
 10
6.3748637852
 20
10.2082887017
 30
0.0
 11
6.2912292079
 21
10.0295983061
 31
0.0
 12
6.3488071108
 22
10.0127227289
 32
0.0
 13
6.3488071108
 23
10.0127227289
 33
0.0
  0
LINE
  5
274
330
1F
100
AcDbEntity
  8
0
  6
Continuous
 62
     7
370
    18
100
AcDbLine
 10
6.3748637852
 20
10.2082887017
 30
0.0
 11
5.9825477323
 21
8.8697427479
 31
0.0
  0
LINE
  5
275
330
1F
100
AcDbEntity
  8
0
  6
Continuous
 62
     7
370
    18
100
AcDbLine
 10
5.9825477323
 20
8.8697427479
 30
0.0
 11
5.4783180101
 21
7.1416199194
 31
0.0
  0
LINE
  5
276
330
1F
100
AcDbEntity
  8
0
  6
Continuous
 62
     7
370
    18
100
AcDbLine
 10
5.4783180101
 20
7.1416199194
 30
0.0
 11
5.1033180101
 21
7.1416199194
 31
0.0
  0
LINE
  5
277
330
1F
100
AcDbEntity
  8
0
  6
Continuous
 62
     7
370
    18
100
AcDbLine
 10
5.9825477323
 20
8.8697427479
 30
0.0
 11
3.858340427
 21
10.2989802625
 31
0.0
  0
ARC
  5
278
330
1F
100
AcDbEntity
  8
0
  6
Continuous
 62
     7
370
    25
100
AcDbCircle
 10
6.9304221282
 20
2.9854745732
 30
0.0
 40
0.0196850393700787
100
AcDbArc
 50
180.0
 51
270.0
  0
ARC
  5
279
330
1F
100
AcDbEntity
  8
0
  6
Continuous
 62
     7
370
    25
100
AcDbCircle
 10
7.3241229156
 20
2.9854745732
 30
0.0
 40
0.0196850393700787
100
AcDbArc
 50
270.0
 51
360.0
  0
ARC
  5
27A
330
1F
100
AcDbEntity
  8
0
  6
Continuous
 62
     7
370
    25
100
AcDbCircle
 10
2.7965638605
 20
2.9854745732
 30
0.0
 40
0.0196850393700791
100
AcDbArc
 50
180.0
 51
270.0
  0
ARC
  5
27B
330
1F
100
AcDbEntity
  8
0
  6
Continuous
 62
     7
370
    25
100
AcDbCircle
 10
3.1902646479
 20
2.9854745732
 30
0.0
 40
0.0196850393700796
100
AcDbArc
 50
270.0
 51
360.0
  0
LINE
  5
27C
330
1F
100
AcDbEntity
  8
0
  6
Continuous
 62
     7
370
    25
100
AcDbLine
 10
7.3438078199
 20
2.9854745444
 30
0.0
 11
7.3438078199
 21
3.0051596237
 31
0.0
  0
LINE
  5
27D
330
1F
100
AcDbEntity
  8
0
  6
Continuous
 62
     7
370
    25
100
AcDbLine
 10
6.9107371027
 20
3.0051596237
 30
0.0
 11
6.9107371027
 21
2.9854745444
 31
0.0
  0
LINE
  5
27E
330
1F
100
AcDbEntity
  8
0
  6
Continuous
 62
     7
370
    25
100
AcDbLine
 10
2.7768788174
 20
3.0051596237
 30
0.0
 11
2.7768788174
 21
2.9854745444
 31
0.0
  0
LINE
  5
27F
330
1F
100
AcDbEntity
  8
0
  6
Continuous
 62
     7
370
    25
100
AcDbLine
 10
3.2099496812
 20
2.9854745444
 30
0.0
 11
3.2099496812
 21
3.0051596237
 31
0.0
  0
LINE
  5
280
330
1F
100
AcDbEntity
  8
0
  6
Continuous
 62
     7
370
    25
100
AcDbLine
 10
5.2178433858
 20
2.9857895808
 30
0.0
 11
5.2178433858
 21
3.0051596237
 31
0.0
  0
LINE
  5
281
330
1F
100
AcDbEntity
  8
0
  6
Continuous
 62
     7
370
    25
100
AcDbLine
 10
4.9028433889
 20
3.0051596237
 30
0.0
 11
4.9028433889
 21
2.9857895808
 31
0.0
  0
ARC
  5
282
330
1F
100
AcDbEntity
  8
0
  6
Continuous
 62
     7
370
    25
100
AcDbCircle
 10
5.197843388
 20
2.9857895339
 30
0.0
 40
0.0199999999999996
100
AcDbArc
 50
270.0
 51
360.0
  0
ARC
  5
283
330
1F
100
AcDbEntity
  8
0
  6
Continuous
 62
     7
370
    25
100
AcDbCircle
 10
4.922843388
 20
2.9857895339
 30
0.0
 40
0.0200000000000005
100
AcDbArc
 50
180.0
 51
270.0
  0
LINE
  5
284
330
1F
100
AcDbEntity
  8
0
  6
Continuous
 62
     7
370
    25
100
AcDbLine
 10
3.4513433593
 20
2.9857895808
 30
0.0
 11
3.4513433593
 21
3.0051596237
 31
0.0
  0
ARC
  5
285
330
1F
100
AcDbEntity
  8
0
  6
Continuous
 62
     7
370
    25
100
AcDbCircle
 10
3.431343388
 20
2.9857895339
 30
0.0
 40
0.0200000000000005
100
AcDbArc
 50
270.0
 51
360.0
  0
ARC
  5
286
330
1F
100
AcDbEntity
  8
0
  6
Continuous
 62
     7
370
    25
100
AcDbCircle
 10
6.689343388
 20
2.9857895339
 30
0.0
 40
0.0200000000000005
100
AcDbArc
 50
180.0
 51
270.0
  0
LINE
  5
287
330
1F
100
AcDbEntity
  8
0
  6
Continuous
 62
     7
370
    25
100
AcDbLine
 10
6.6693434247
 20
3.0051596237
 30
0.0
 11
6.6693434247
 21
2.9857895808
 31
0.0
  0
LINE
  5
288
330
1F
100
AcDbEntity
  8
0
  6
Continuous
 62
     7
370
    25
100
AcDbLine
 10
5.2573433795
 20
2.9857895808
 30
0.0
 11
5.2573433795
 21
3.0051596237
 31
0.0
  0
LINE
  5
289
330
1F
100
AcDbEntity
  8
0
  6
Continuous
 62
     7
370
    25
100
AcDbLine
 10
4.8633433861
 20
3.0051596237
 30
0.0
 11
4.8633433861
 21
2.9857895808
 31
0.0
  0
ARC
  5
28A
330
1F
100
AcDbEntity
  8
0
  6
Continuous
 62
     7
370
    25
100
AcDbCircle
 10
4.883343388
 20
2.9857895339
 30
0.0
 40
0.0200000000000005
100
AcDbArc
 50
180.0
 51
270.0
  0
ARC
  5
28B
330
1F
100
AcDbEntity
  8
0
  6
Continuous
 62
     7
370
    25
100
AcDbCircle
 10
5.237343388
 20
2.9857895339
 30
0.0
 40
0.0199999999999996
100
AcDbArc
 50
270.0
 51
0.0
  0
LINE
  5
28C
330
1F
100
AcDbEntity
  8
0
  6
Continuous
 62
     7
370
    25
100
AcDbLine
 10
6.6393433979
 20
2.9857895808
 30
0.0
 11
6.6393433979
 21
3.0051596237
 31
0.0
  0
LINE
  5
28D
330
1F
100
AcDbEntity
  8
0
  6
Continuous
 62
     7
370
    25
100
AcDbLine
 10
6.2453433494
 20
3.0051596237
 30
0.0
 11
6.2453433494
 21
2.9857895808
 31
0.0
  0
LINE
  5
28E
330
1F
100
AcDbEntity
  8
0
  6
Continuous
 62
     7
370
    25
100
AcDbLine
 10
3.8753433612
 20
2.9857895808
 30
0.0
 11
3.8753433612
 21
3.0051596237
 31
0.0
  0
LINE
  5
28F
330
1F
100
AcDbEntity
  8
0
  6
Continuous
 62
     7
370
    25
100
AcDbLine
 10
3.481343386
 20
3.0051596237
 30
0.0
 11
3.481343386
 21
2.9857895808
 31
0.0
  0
ARC
  5
290
330
1F
100
AcDbEntity
  8
0
  6
Continuous
 62
     7
370
    25
100
AcDbCircle
 10
6.619343388
 20
2.9857895339
 30
0.0
 40
0.0200000000000005
100
AcDbArc
 50
270.0
 51
0.0
  0
ARC
  5
291
330
1F
100
AcDbEntity
  8
0
  6
Continuous
 62
     7
370
    25
100
AcDbCircle
 10
6.265343388
 20
2.9857895339
 30
0.0
 40
0.0200000000000005
100
AcDbArc
 50
180.0
 51
270.0
  0
ARC
  5
292
330
1F
100
AcDbEntity
  8
0
  6
Continuous
 62
     7
370
    25
100
AcDbCircle
 10
3.855343388
 20
2.9857895339
 30
0.0
 40
0.02
100
AcDbArc
 50
270.0
 51
0.0
  0
ARC
  5
293
330
1F
100
AcDbEntity
  8
0
  6
Continuous
 62
     7
370
    25
100
AcDbCircle
 10
3.501343388
 20
2.9857895339
 30
0.0
 40
0.02
100
AcDbArc
 50
180.0
 51
270.0
  0
LINE
  5
294
330
1F
100
AcDbEntity
  8
0
  6
Continuous
 62
     7
370
    25
100
AcDbLine
 10
7.1666258267
 20
5.1705139426
 30
0.0
 11
2.9540609573
 21
5.1705139426
 31
0.0
  0
LINE
  5
295
330
1F
100
AcDbEntity
  8
0
  6
Continuous
 62
     7
370
    25
100
AcDbLine
 10
7.5116045748
 20
5.3487131307
 30
0.0
 11
7.5209732399
 21
5.1705139426
 31
0.0
  0
LINE
  5
296
330
1F
100
AcDbEntity
  8
0
  6
Continuous
 62
     7
370
    25
100
AcDbLine
 10
7.3018845175
 20
5.1705139426
 30
0.0
 11
7.1666258267
 21
5.1705139426
 31
0.0
  0
LINE
  5
297
330
1F
100
AcDbEntity
  8
0
  6
Continuous
 62
     7
370
    25
100
AcDbLine
 10
7.5209732399
 20
5.1705139426
 30
0.0
 11
7.3018845175
 21
5.1705139426
 31
0.0
  0
LINE
  5
298
330
1F
100
AcDbEntity
  8
0
  6
Continuous
 62
     7
370
    25
100
AcDbLine
 10
2.5997133974
 20
5.1705139426
 30
0.0
 11
2.6090822091
 21
5.3487131307
 31
0.0
  0
LINE
  5
299
330
1F
100
AcDbEntity
  8
0
  6
Continuous
 62
     7
370
    25
100
AcDbLine
 10
2.9540609573
 20
5.1705139426
 30
0.0
 11
2.5997133974
 21
5.1705139426
 31
0.0
  0
LINE
  5
29A
330
1F
100
AcDbEntity
  8
0
  6
Continuous
 62
     7
370
    25
100
AcDbLine
 10
7.16662568
 20
5.3673643686
 30
0.0
 11
2.9540615439
 21
5.3673643686
 31
0.0
  0
ARC
  5
29B
330
1F
100
AcDbEntity
  8
0
  6
Continuous
 62
     7
370
    25
100
AcDbCircle
 10
7.4919467463
 20
5.347679394
 30
0.0
 40
0.0196849746456431
100
AcDbArc
 50
3.0093602894
 51
89.9999158104
  0
LINE
  5
29C
330
1F
100
AcDbEntity
  8
0
  6
Continuous
 62
     7
370
    25
100
AcDbLine
 10
7.4919467752
 20
5.3673643686
 30
0.0
 11
7.16662568
 21
5.3673643686
 31
0.0
  0
ARC
  5
29D
330
1F
100
AcDbEntity
  8
0
  6
Continuous
 62
     7
370
    25
100
AcDbCircle
 10
2.6287401035
 20
5.3476793245
 30
0.0
 40
0.0196850440805001
100
AcDbArc
 50
90.0002759423
 51
176.9904479579
  0
LINE
  5
29E
330
1F
100
AcDbEntity
  8
0
  6
Continuous
 62
     7
370
    25
100
AcDbLine
 10
2.9540615439
 20
5.3673643686
 30
0.0
 11
2.6287400087
 21
5.3673643686
 31
0.0
  0
LINE
  5
29F
330
1F
100
AcDbEntity
  8
0
  6
Continuous
 62
     7
370
    25
100
AcDbLine
 10
7.4726353983
 20
5.8805511936
 30
0.0
 11
7.4816033747
 21
5.3673643686
 31
0.0
  0
LINE
  5
2A0
330
1F
100
AcDbEntity
  8
0
  6
Continuous
 62
     7
370
    25
100
AcDbLine
 10
2.6390835559
 20
5.3673643686
 30
0.0
 11
2.6480515323
 21
5.8805511936
 31
0.0
  0
LINE
  5
2A1
330
1F
100
AcDbEntity
  8
0
  6
Continuous
 62
     7
370
    25
100
AcDbLine
 10
7.16662348
 20
5.9579154998
 30
0.0
 11
2.9540618372
 21
5.9579154998
 31
0.0
  0
ARC
  5
2A2
330
1F
100
AcDbEntity
  8
0
  6
Continuous
 62
     7
370
    25
100
AcDbCircle
 10
2.7267796955
 20
5.8791753149
 30
0.0
 40
0.0787401849757791
100
AcDbArc
 50
90.0000141058
 51
178.9987824575
  0
LINE
  5
2A3
330
1F
100
AcDbEntity
  8
0
  6
Continuous
 62
     7
370
    25
100
AcDbLine
 10
2.9540618372
 20
5.9579154998
 30
0.0
 11
2.7267796762
 21
5.9579154998
 31
0.0
  0
LINE
  5
2A4
330
1F
100
AcDbEntity
  8
0
  6
Continuous
 62
     7
370
    25
100
AcDbLine
 10
7.3939071078
 20
5.9579154998
 30
0.0
 11
7.3767871989
 21
5.9579154998
 31
0.0
  0
ARC
  5
2A5
330
1F
100
AcDbEntity
  8
0
  6
Continuous
 62
     7
370
    25
100
AcDbCircle
 10
7.3939071513
 20
5.8791752296
 30
0.0
 40
0.0787402702112401
100
AcDbArc
 50
1.0012784901
 51
90.0000316682
  0
LINE
  5
2A6
330
1F
100
AcDbEntity
  8
0
  6
Continuous
 62
     7
370
    25
100
AcDbLine
 10
7.3767871989
 20
5.9579154998
 30
0.0
 11
7.16662348
 21
5.9579154998
 31
0.0
  0
LINE
  5
2A7
330
1F
100
AcDbEntity
  8
0
  6
Continuous
 62
     7
370
    25
100
AcDbLine
 10
7.5175673859
 20
4.9736635167
 30
0.0
 11
7.5209732399
 21
5.1705139426
 31
0.0
  0
LINE
  5
2A8
330
1F
100
AcDbEntity
  8
0
  6
Continuous
 62
     7
370
    25
100
AcDbLine
 10
7.1666258267
 20
4.9736635167
 30
0.0
 11
7.5175673859
 21
4.9736635167
 31
0.0
  0
LINE
  5
2A9
330
1F
100
AcDbEntity
  8
0
  6
Continuous
 62
     7
370
    25
100
AcDbLine
 10
7.1666258267
 20
5.1705139426
 30
0.0
 11
7.5209732399
 21
5.1705139426
 31
0.0
  0
LINE
  5
2AA
330
1F
100
AcDbEntity
  8
0
  6
Continuous
 62
     7
370
    25
100
AcDbLine
 10
2.6031195447
 20
4.9736635167
 30
0.0
 11
2.9540609573
 21
4.9736635167
 31
0.0
  0
LINE
  5
2AB
330
1F
100
AcDbEntity
  8
0
  6
Continuous
 62
     7
370
    25
100
AcDbLine
 10
2.6031195447
 20
4.9736635167
 30
0.0
 11
2.5997133974
 21
5.1705139426
 31
0.0
  0
LINE
  5
2AC
330
1F
100
AcDbEntity
  8
0
  6
Continuous
 62
     7
370
    25
100
AcDbLine
 10
2.9540609573
 20
4.9736635167
 30
0.0
 11
7.1666258267
 21
4.9736635167
 31
0.0
  0
LINE
  5
2AD
330
1F
100
AcDbEntity
  8
0
  6
Continuous
 62
     7
370
    25
100
AcDbLine
 10
2.6734260392
 20
3.0051596237
 30
0.0
 11
2.9540624239
 21
3.0051596237
 31
0.0
  0
LINE
  5
2AE
330
1F
100
AcDbEntity
  8
0
  6
Continuous
 62
     7
370
    25
100
AcDbLine
 10
2.6734260392
 20
3.0051596237
 30
0.0
 11
2.6390835559
 21
4.9736635167
 31
0.0
  0
LINE
  5
2AF
330
1F
100
AcDbEntity
  8
0
  6
Continuous
 62
     7
370
    25
100
AcDbLine
 10
7.16662436
 20
3.0051596237
 30
0.0
 11
7.4472608914
 21
3.0051596237
 31
0.0
  0
LINE
  5
2B0
330
1F
100
AcDbEntity
  8
0
  6
Continuous
 62
     7
370
    25
100
AcDbLine
 10
7.4472608914
 20
3.0051596237
 30
0.0
 11
7.4816033747
 21
4.9736635167
 31
0.0
  0
LINE
  5
2B1
330
1F
100
AcDbEntity
  8
0
  6
Continuous
 62
     7
370
    25
100
AcDbLine
 10
2.9540624239
 20
3.0051596237
 30
0.0
 11
7.16662436
 21
3.0051596237
 31
0.0
  0
LINE
  5
2B2
330
1F
100
AcDbEntity
  8
0
  6
Continuous
 62
     7
370
    25
100
AcDbLine
 10
6.930422182
 20
2.9657894651
 30
0.0
 11
7.3241230339
 21
2.9657894651
 31
0.0
  0
LINE
  5
2B3
330
1F
100
AcDbEntity
  8
0
  6
Continuous
 62
     7
370
    25
100
AcDbLine
 10
2.7965638967
 20
2.9657894651
 30
0.0
 11
3.1902646019
 21
2.9657894651
 31
0.0
  0
LINE
  5
2B4
330
1F
100
AcDbEntity
  8
0
  6
Continuous
 62
     7
370
    25
100
AcDbLine
 10
5.1978433802
 20
2.9657894651
 30
0.0
 11
4.9228433854
 21
2.9657894651
 31
0.0
  0
LINE
  5
2B5
330
1F
100
AcDbEntity
  8
0
  6
Continuous
 62
     7
370
    25
100
AcDbLine
 10
3.4313433903
 20
2.9657894651
 30
0.0
 11
3.1563433405
 21
2.9657894651
 31
0.0
  0
LINE
  5
2B6
330
1F
100
AcDbEntity
  8
0
  6
Continuous
 62
     7
370
    25
100
AcDbLine
 10
6.9252931612
 20
2.9657894651
 30
0.0
 11
6.6893433936
 21
2.9657894651
 31
0.0
  0
LINE
  5
2B7
330
1F
100
AcDbEntity
  8
0
  6
Continuous
 62
     7
370
    25
100
AcDbLine
 10
4.9228433854
 20
2.9657894651
 30
0.0
 11
4.8833433917
 21
2.9657894651
 31
0.0
  0
LINE
  5
2B8
330
1F
100
AcDbEntity
  8
0
  6
Continuous
 62
     7
370
    25
100
AcDbLine
 10
5.2373433739
 20
2.9657894651
 30
0.0
 11
5.1978433802
 21
2.9657894651
 31
0.0
  0
LINE
  5
2B9
330
1F
100
AcDbEntity
  8
0
  6
Continuous
 62
     7
370
    25
100
AcDbLine
 10
6.6193434289
 20
2.9657894651
 30
0.0
 11
6.2653433184
 21
2.9657894651
 31
0.0
  0
LINE
  5
2BA
330
1F
100
AcDbEntity
  8
0
  6
Continuous
 62
     7
370
    25
100
AcDbLine
 10
3.8553433922
 20
2.9657894651
 30
0.0
 11
3.501343355
 21
2.9657894651
 31
0.0
  0
LINE
  5
2BB
330
1F
100
AcDbEntity
  8
0
  6
CENTERX2
 62
     7
370
    18
100
AcDbLine
 10
5.0603426903
 20
5.9579155181
 30
0.0
 11
5.060343388
 21
2.9657895339
 31
0.0
  0
DIMENSION
  5
2BC
330
1F
100
AcDbEntity
  8
0
  6
Continuous
 62
     7
370
    18
100
AcDbDimension
  2
_D_7
 10
2.0847217306
 20
5.9579155181
 30
0.0
 11
2.0847217306
 21
4.4815375654
 31
0.0
 70
   160
  1
<>
 71
     2
 42
-1.0
  3
SLDDIMSTYLE0
100
AcDbAlignedDimension
 13
2.9540623549
 23
3.0051596126
 33
0.0
 14
2.9540618711
 24
5.9579155181
 34
0.0
 50
90.0
100
AcDbRotatedDimension
  0
DIMENSION
  5
2D0
330
1F
100
AcDbEntity
  8
0
  6
Continuous
 62
     7
370
    18
100
AcDbDimension
  2
_D_8
 10
8.4415203858
 20
5.1705139433
 30
0.0
 11
8.4415203858
 21
4.0878367779
 31
0.0
 70
   160
  1
<>
 71
     2
 42
-1.0
  3
SLDDIMSTYLE0
100
AcDbAlignedDimension
 13
7.1666243934
 23
3.0051596126
 33
0.0
 14
7.5209733093
 24
5.1705139433
 34
0.0
 50
90.0
100
AcDbRotatedDimension
  0
DIMENSION
  5
2E4
330
1F
100
AcDbEntity
  8
0
  6
Continuous
 62
     7
370
    18
100
AcDbDimension
  2
_D_9
 10
8.4415203858
 20
5.9579155181
 30
0.0
 11
8.4415203858
 21
5.5642147307
 31
0.0
 70
   160
  1
<>
 71
     2
 42
-1.0
  3
SLDDIMSTYLE2
100
AcDbAlignedDimension
 13
7.5209733093
 23
5.1705139433
 33
0.0
 14
7.1666235095
 24
5.9579155181
 34
0.0
 50
90.0
100
AcDbRotatedDimension
  0
DIMENSION
  5
2F9
330
1F
100
AcDbEntity
  8
0
  6
Continuous
 62
     7
370
    18
100
AcDbDimension
  2
_D_10
 10
7.9166623312
 20
2.9657895339
 30
0.0
 11
7.9166623312
 21
2.620936904
 31
0.0
 70
   160
  1
<> PAD
 71
     2
 42
-1.0
  3
SLDDIMSTYLE2
100
AcDbAlignedDimension
 13
7.1666243934
 23
3.0051596126
 33
0.0
 14
7.2650677975
 24
2.9657895339
 34
0.0
 50
90.0
100
AcDbRotatedDimension
  0
ARC
  5
30D
330
1F
100
AcDbEntity
  8
0
  6
Continuous
 62
     7
370
    25
100
AcDbCircle
 10
20.3879049095
 20
6.0303360245
 30
0.0
 40
0.1255745575568563
100
AcDbArc
 50
115.9052856328
 51
176.3660569751
  0
ARC
  5
30E
330
1F
100
AcDbEntity
  8
0
  6
Continuous
 62
     7
370
    25
100
AcDbCircle
 10
24.5125241129
 20
6.0274177387
 30
0.0
 40
0.1301361698985366
100
AcDbArc
 50
4.7927176527
 51
62.9294161945
  0
LINE
  5
30F
330
1F
100
AcDbEntity
  8
0
  6
Continuous
 62
     7
370
    25
100
AcDbLine
 10
20.2625924481
 20
6.0383086112
 30
0.0
 11
20.256614385
 21
5.7589929795
 31
0.0
  0
LWPOLYLINE
  5
310
330
1F
100
AcDbEntity
  8
0
  6
Continuous
 62
     7
370
    25
100
AcDbPolyline
 90
        3
 70
   128
 43
0.0
 10
24.6481875405
 20
5.7589963321
 10
24.6451964693
 20
5.8986383226
 10
24.6422055365
 20
6.0382811912
  0
LINE
  5
311
330
1F
100
AcDbEntity
  8
0
  6
Continuous
 62
     7
370
    25
100
AcDbLine
 10
22.3192043382
 20
7.2899061488
 30
0.0
 11
20.3328267557
 21
6.1431947789
 31
0.0
  0
LINE
  5
312
330
1F
100
AcDbEntity
  8
0
  6
Continuous
 62
     7
370
    25
100
AcDbLine
 10
24.5719614112
 20
6.1432006461
 30
0.0
 11
22.5856031183
 21
7.2899008803
 31
0.0
  0
LWPOLYLINE
  5
313
330
1F
100
AcDbEntity
  8
0
  6
Continuous
 62
     7
370
    25
100
AcDbPolyline
 90
        3
 70
   128
 43
0.0
 10
20.2367586977
 20
5.7523169074
 10
20.2336379227
 20
5.7038823163
 10
20.230517286
 20
5.6554477251
  0
ARC
  5
314
330
1F
100
AcDbEntity
  8
0
  6
Continuous
 62
     7
370
    25
100
AcDbCircle
 10
24.5727581546
 20
5.7449705481
 30
0.0
 40
0.095568182426555
100
AcDbArc
 50
4.3494182761
 51
38.8321443372
  0
ARC
  5
315
330
1F
100
AcDbEntity
  8
0
  6
Continuous
 62
     7
370
    25
100
AcDbCircle
 10
20.3267161374
 20
5.7470711856
 30
0.0
 40
0.0901127825080846
100
AcDbArc
 50
140.0882205469
 51
176.7202117158
  0
LWPOLYLINE
  5
316
330
1F
100
AcDbEntity
  8
0
  6
Continuous
 62
     7
370
    25
100
AcDbPolyline
 90
        3
 70
   128
 43
0.0
 10
24.6742665944
 20
5.6554686799
 10
24.6714424236
 20
5.6992997749
 10
24.6680251826
 20
5.7523377822
  0
ARC
  5
317
330
1F
100
AcDbEntity
  8
0
  6
Continuous
 62
     7
370
    25
100
AcDbCircle
 10
22.4523988622
 20
7.039710562
 30
0.0
 40
0.2834315048845735
100
AcDbArc
 50
61.9206721628
 51
118.0770821966
  0
LINE
  5
318
330
1F
100
AcDbEntity
  8
0
  6
Continuous
 62
     7
370
    25
100
AcDbLine
 10
24.3962512274
 20
2.8605516194
 30
0.0
 11
24.3962512274
 21
2.9034146612
 31
0.0
  0
LINE
  5
319
330
1F
100
AcDbEntity
  8
0
  6
Continuous
 62
     7
370
    25
100
AcDbLine
 10
20.508550698
 20
2.9034146612
 30
0.0
 11
20.508550698
 21
2.8605516194
 31
0.0
  0
LWPOLYLINE
  5
31A
330
1F
100
AcDbEntity
  8
0
  6
Continuous
 62
     7
370
    25
100
AcDbPolyline
 90
        3
 70
   128
 43
0.0
 10
24.6721617409
 20
2.907126999
 10
24.6732969956
 20
2.960697679
 10
24.6744323194
 20
3.0142683589
  0
LWPOLYLINE
  5
31B
330
1F
100
AcDbEntity
  8
0
  6
Continuous
 62
     7
370
    25
100
AcDbPolyline
 90
        3
 70
   128
 43
0.0
 10
20.2303695369
 20
3.0142823683
 10
20.2314870921
 20
2.9615487165
 10
20.2326400463
 20
2.9071408887
  0
LINE
  5
31C
330
1F
100
AcDbEntity
  8
0
  6
Continuous
 62
     7
370
    25
100
AcDbLine
 10
20.6955323983
 20
2.7980720175
 30
0.0
 11
20.6955323983
 21
3.058819314
 31
0.0
  0
LINE
  5
31D
330
1F
100
AcDbEntity
  8
0
  6
Continuous
 62
     7
370
    25
100
AcDbLine
 10
24.2092695963
 20
3.0588235847
 30
0.0
 11
24.2092695963
 21
2.7980720168
 31
0.0
  0
LWPOLYLINE
  5
31E
330
1F
100
AcDbEntity
  8
0
  6
Continuous
 62
     7
370
    25
100
AcDbPolyline
 90
        3
 70
   128
 43
0.0
 10
20.2578952454
 20
2.8479179488
 10
20.2676466821
 20
2.3915458094
 10
20.279519289
 20
1.8358940055
  0
LWPOLYLINE
  5
31F
330
1F
100
AcDbEntity
  8
0
  6
Continuous
 62
     7
370
    25
100
AcDbPolyline
 90
        3
 70
   128
 43
0.0
 10
24.6252827056
 20
1.8358716942
 10
24.6364355804
 20
2.3578400411
 10
24.6469113123
 20
2.8481085271
  0
LINE
  5
320
330
1F
100
AcDbEntity
  8
0
  6
Continuous
 62
     7
370
    25
100
AcDbLine
 10
24.3962512274
 20
3.1713652357
 30
0.0
 11
24.3962512274
 21
3.2142282775
 31
0.0
  0
LINE
  5
321
330
1F
100
AcDbEntity
  8
0
  6
Continuous
 62
     7
370
    25
100
AcDbLine
 10
20.508550698
 20
3.2142282775
 30
0.0
 11
20.508550698
 21
3.1713652357
 31
0.0
  0
LWPOLYLINE
  5
322
330
1F
100
AcDbEntity
  8
0
  6
Continuous
 62
     7
370
    25
100
AcDbPolyline
 90
       14
 70
   128
 43
0.0
 10
21.940843563
 20
2.4221612428
 10
21.9388942885
 20
2.4383655557
 10
21.9321979712
 20
2.4539652958
 10
21.9211029049
 20
2.4683451201
 10
21.9056980019
 20
2.4812890283
 10
21.886367923
 20
2.4922965962
 10
21.8639021265
 20
2.5008630845
 10
21.8392484239
 20
2.5066678829
 10
21.8132923675
 20
2.5095584682
 10
21.7869232472
 20
2.509466052
 10
21.7610292123
 20
2.5063939444
 10
21.7364914874
 20
2.5004162507
 10
21.7141258198
 20
2.4916581177
 10
21.7046869702
 20
2.4866846961
  0
ARC
  5
323
330
1F
100
AcDbEntity
  8
0
  6
Continuous
 62
     7
370
    25
100
AcDbCircle
 10
21.733793805
 20
2.4204132867
 30
0.0
 40
0.0723816795114546
100
AcDbArc
 50
113.7113941232
 51
175.6212158962
  0
LINE
  5
324
330
1F
100
AcDbEntity
  8
0
  6
Continuous
 62
     7
370
    25
100
AcDbLine
 10
21.9409199568
 20
2.2818978184
 30
0.0
 11
21.9409199568
 21
2.423431539
 31
0.0
  0
LINE
  5
325
330
1F
100
AcDbEntity
  8
0
  6
Continuous
 62
     7
370
    25
100
AcDbLine
 10
21.6609199251
 20
2.423431554
 30
0.0
 11
21.6609199251
 21
2.2818978333
 31
0.0
  0
ARC
  5
326
330
1F
100
AcDbEntity
  8
0
  6
Continuous
 62
     7
370
    25
100
AcDbCircle
 10
23.3335893203
 20
2.5259257188
 30
0.0
 40
0.0571759345192385
100
AcDbArc
 50
3.4856107599
 51
64.9480819101
  0
LWPOLYLINE
  5
327
330
1F
100
AcDbEntity
  8
0
  6
Continuous
 62
     7
370
    25
100
AcDbPolyline
 90
       12
 70
   128
 43
0.0
 10
23.3577998597
 20
2.5777227966
 10
23.3482684823
 20
2.5825951054
 10
23.3283250064
 20
2.5896444975
 10
23.3064637659
 20
2.5938172127
 10
23.2837053578
 20
2.5949883498
 10
23.2610654878
 20
2.5931268245
 10
23.2395478009
 20
2.5882820269
 10
23.2200897077
 20
2.580557779
 10
23.2035643068
 20
2.5700634836
 10
23.1909171626
 20
2.5569524266
 10
23.1839230872
 20
2.5437647566
 10
23.1818044363
 20
2.5312551
  0
LINE
  5
328
330
1F
100
AcDbEntity
  8
0
  6
Continuous
 62
     7
370
    25
100
AcDbLine
 10
23.3913155923
 20
2.3872144685
 30
0.0
 11
23.3913155923
 21
2.5287567718
 31
0.0
  0
LINE
  5
329
330
1F
100
AcDbEntity
  8
0
  6
Continuous
 62
     7
370
    25
100
AcDbLine
 10
23.181315601
 20
2.5287567718
 30
0.0
 11
23.181315601
 21
2.3872144685
 31
0.0
  0
ARC
  5
32A
330
1F
100
AcDbEntity
  8
0
  6
Continuous
 62
     7
370
    25
100
AcDbCircle
 10
22.3577820997
 20
2.9240608696
 30
0.0
 40
0.0571757670219009
100
AcDbArc
 50
3.4855129372
 51
64.9481627075
  0
LWPOLYLINE
  5
32B
330
1F
100
AcDbEntity
  8
0
  6
Continuous
 62
     7
370
    25
100
AcDbPolyline
 90
       12
 70
   128
 43
0.0
 10
22.3819924952
 20
2.9758578298
 10
22.3724611264
 20
2.9807301337
 10
22.3525176332
 20
2.9877795357
 10
22.3306563754
 20
2.9919521811
 10
22.307897976
 20
2.993123393
 10
22.2852581492
 20
2.9912618427
 10
22.2637404407
 20
2.9864170576
 10
22.2442823691
 20
2.9786927972
 10
22.2277569465
 20
2.9681985143
 10
22.2151097807
 20
2.9550874698
 10
22.2081157269
 20
2.9418997874
 10
22.2059971149
 20
2.9293901083
  0
LINE
  5
32C
330
1F
100
AcDbEntity
  8
0
  6
Continuous
 62
     7
370
    25
100
AcDbLine
 10
22.4155082277
 20
2.7853495017
 30
0.0
 11
22.4155082277
 21
2.926891805
 31
0.0
  0
LINE
  5
32D
330
1F
100
AcDbEntity
  8
0
  6
Continuous
 62
     7
370
    25
100
AcDbLine
 10
22.2055082364
 20
2.926891805
 30
0.0
 11
22.2055082364
 21
2.7853495017
 31
0.0
  0
LWPOLYLINE
  5
32E
330
1F
100
AcDbEntity
  8
0
  6
Continuous
 62
     7
370
    25
100
AcDbPolyline
 90
        3
 70
   128
 43
0.0
 10
22.5595355414
 20
4.8707098416
 10
22.5366083749
 20
4.8598066159
 10
22.5105809674
 20
4.851766856
  0
ARC
  5
32F
330
1F
100
AcDbEntity
  8
0
  6
Continuous
 62
     7
370
    25
100
AcDbCircle
 10
22.5158988655
 20
4.8026136002
 30
0.0
 40
0.0808780413602571
100
AcDbArc
 50
3.2301320444
 51
57.347890776
  0
LWPOLYLINE
  5
330
330
1F
100
AcDbEntity
  8
0
  6
Continuous
 62
     7
370
    25
100
AcDbPolyline
 90
        3
 70
   128
 43
0.0
 10
22.5966484135
 20
4.8071708013
 10
22.5658335776
 20
4.7925332918
 10
22.5307038752
 20
4.7816615972
  0
ARC
  5
331
330
1F
100
AcDbEntity
  8
0
  6
Continuous
 62
     7
370
    25
100
AcDbCircle
 10
22.4533436441
 20
5.0902722921
 30
0.0
 40
0.3181590268003622
100
AcDbArc
 50
242.8474313721
 51
284.0725055002
  0
ARC
  5
332
330
1F
100
AcDbEntity
  8
0
  6
Continuous
 62
     7
370
    25
100
AcDbCircle
 10
22.388898008
 20
4.8026195665
 30
0.0
 40
0.0808783468741792
100
AcDbArc
 50
122.6528390668
 51
176.7703186202
  0
ARC
  5
333
330
1F
100
AcDbEntity
  8
0
  6
Continuous
 62
     7
370
    25
100
AcDbCircle
 10
22.4528893636
 20
5.0790850069
 30
0.0
 40
0.234524759732034
100
AcDbArc
 50
242.6822967485
 51
284.2405635079
  0
LINE
  5
334
330
1F
100
AcDbEntity
  8
0
  6
Continuous
 62
     7
370
    25
100
AcDbLine
 10
22.3039207128
 20
4.5253770222
 30
0.0
 11
22.3081482575
 21
4.8071760698
 31
0.0
  0
LINE
  5
335
330
1F
100
AcDbEntity
  8
0
  6
Continuous
 62
     7
370
    25
100
AcDbLine
 10
22.5966484135
 20
4.8071708013
 30
0.0
 11
22.6008757507
 21
4.525371634
 31
0.0
  0
ARC
  5
336
330
1F
100
AcDbEntity
  8
0
  6
Continuous
 62
     7
370
    25
100
AcDbCircle
 10
22.4524034267
 20
4.8116778067
 30
0.0
 40
0.3225139617798926
100
AcDbArc
 50
242.5876213799
 51
297.4102993631
  0
LINE
  5
337
330
1F
100
AcDbEntity
  8
0
  6
Continuous
 62
     7
370
    25
100
AcDbLine
 10
24.5453714236
 20
6.0171084946
 30
0.0
 11
22.5595355414
 21
4.8707098416
 31
0.0
  0
LINE
  5
338
330
1F
100
AcDbEntity
  8
0
  6
Continuous
 62
     7
370
    25
100
AcDbLine
 10
22.3452602999
 20
4.8707155093
 30
0.0
 11
20.3594396973
 21
6.0171053415
 31
0.0
  0
ARC
  5
339
330
1F
100
AcDbEntity
  8
0
  6
Continuous
 62
     7
370
    25
100
AcDbCircle
 10
20.3828300588
 20
6.078956265
 30
0.0
 40
0.0661259839488854
100
AcDbArc
 50
110.722191684
 51
249.2847255148
  0
LINE
  5
33A
330
1F
100
AcDbEntity
  8
0
  6
Continuous
 62
     7
370
    25
100
AcDbLine
 10
20.3594322304
 20
6.1408043642
 30
0.0
 11
22.3452664532
 21
7.2872020593
 31
0.0
  0
LWPOLYLINE
  5
33B
330
1F
100
AcDbEntity
  8
0
  6
Continuous
 62
     7
370
    25
100
AcDbPolyline
 90
        3
 70
   128
 43
0.0
 10
22.3452664532
 20
7.2872020593
 10
22.3681775796
 20
7.2980900383
 10
22.3942220642
 20
7.3061236118
  0
ARC
  5
33C
330
1F
100
AcDbEntity
  8
0
  6
Continuous
 62
     7
370
    25
100
AcDbCircle
 10
22.4517471654
 20
7.0771210717
 30
0.0
 40
0.2361171333195815
100
AcDbArc
 50
62.8365865466
 51
104.1008564033
  0
LINE
  5
33D
330
1F
100
AcDbEntity
  8
0
  6
Continuous
 62
     7
370
    25
100
AcDbLine
 10
22.5595416947
 20
7.2871963917
 30
0.0
 11
24.5453622281
 21
6.1408065993
 31
0.0
  0
ARC
  5
33E
330
1F
100
AcDbEntity
  8
0
  6
Continuous
 62
     7
370
    25
100
AcDbCircle
 10
24.5219244245
 20
6.0789558043
 30
0.0
 40
0.0661426600756102
100
AcDbArc
 50
290.7622719073
 51
69.2462465582
  0
LWPOLYLINE
  5
33F
330
1F
100
AcDbEntity
  8
0
  6
Continuous
 62
     7
370
    25
100
AcDbPolyline
 90
       34
 70
   128
 43
0.0
 10
20.392326131
 20
6.1432400843
 10
20.3732642923
 20
6.1299125137
 10
20.3589161112
 20
6.1147432456
 10
20.3498001268
 20
6.0982806025
 10
20.346245784
 20
6.0811194052
 10
20.3483816115
 20
6.0638800984
 10
20.3561303815
 20
6.0471856815
 10
20.3692120139
 20
6.0316394368
 10
20.3871537392
 20
6.0178034168
 10
20.4093071073
 20
6.0061776093
 10
20.4348713557
 20
5.9971821368
 10
20.4629225862
 20
5.9911422488
 10
20.4924470205
 20
5.9882761488
 10
20.5223774363
 20
5.9886874504
 10
20.5516321612
 20
5.9923612663
 10
20.5791537906
 20
5.9991648462
 10
20.6039476975
 20
6.0088523273
 10
20.6251177082
 20
6.0210735144
 10
20.6418987359
 20
6.0353867322
 10
20.6536841591
 20
6.0512746306
 10
20.6600480843
 20
6.0681630238
 10
20.6607605569
 20
6.0854414851
 10
20.6557957881
 20
6.1024855782
 10
20.6453332616
 20
6.1186792089
 10
20.6297510269
 20
6.1334371753
 10
20.6096122864
 20
6.1462260026
 10
20.5856449998
 20
6.1565835401
 10
20.5587151963
 20
6.1641354057
 10
20.5297964847
 20
6.1686086754
 10
20.4999338938
 20
6.1698416624
 10
20.4702066762
 20
6.1677898239
 10
20.4416893828
 20
6.1625272382
 10
20.4154125927
 20
6.1542442096
 10
20.392326131
 20
6.1432400843
  0
LWPOLYLINE
  5
340
330
1F
100
AcDbEntity
  8
0
  6
Continuous
 62
     7
370
    25
100
AcDbPolyline
 90
       34
 70
   128
 43
0.0
 10
24.2897650299
 20
6.1432400443
 10
24.2707032603
 20
6.1299125137
 10
24.2563550793
 20
6.1147432456
 10
24.2472390257
 20
6.0982805626
 10
24.2436847521
 20
6.0811194052
 10
24.2458205796
 20
6.0638800984
 10
24.2535693496
 20
6.0471856815
 10
24.2666509819
 20
6.0316394368
 10
24.2845927072
 20
6.0178034168
 10
24.3067460062
 20
6.0061775694
 10
24.3323103237
 20
5.9971821368
 10
24.3603615542
 20
5.9911422488
 10
24.3898859194
 20
5.9882761887
 10
24.4198164735
 20
5.9886874105
 10
24.4490711292
 20
5.9923612663
 10
24.4765927586
 20
5.9991648462
 10
24.5013866655
 20
6.0088523273
 10
24.5225566763
 20
6.0210735144
 10
24.5393376348
 20
6.0353866923
 10
24.5511231271
 20
6.0512746306
 10
24.5574871215
 20
6.0681629839
 10
24.5581994557
 20
6.085441525
 10
24.5532347561
 20
6.1024855782
 10
24.5427722296
 20
6.1186792089
 10
24.5271899258
 20
6.1334371354
 10
24.5070512545
 20
6.1462260026
 10
24.4830838987
 20
6.1565835002
 10
24.4561541643
 20
6.1641354057
 10
24.4272354527
 20
6.1686086754
 10
24.3973727927
 20
6.1698416225
 10
24.367645575
 20
6.167789784
 10
24.3391283508
 20
6.1625272382
 10
24.3128515607
 20
6.1542442096
 10
24.2897650299
 20
6.1432400443
  0
LWPOLYLINE
  5
341
330
1F
100
AcDbEntity
  8
0
  6
Continuous
 62
     7
370
    25
100
AcDbPolyline
 90
       34
 70
   128
 43
0.0
 10
22.3410455459
 20
7.2682118568
 10
22.3219837763
 20
7.2548843261
 10
22.3076355952
 20
7.2397150581
 10
22.2985195417
 20
7.223252375
 10
22.294965268
 20
7.2060912176
 10
22.2971010955
 20
7.1888519108
 10
22.3048498656
 20
7.1721574939
 10
22.3179314979
 20
7.1566112493
 10
22.3358732232
 20
7.1427752292
 10
22.3580265222
 20
7.1311493818
 10
22.3835908397
 20
7.1221539492
 10
22.4116420702
 20
7.1161140612
 10
22.4411665045
 20
7.1132479612
 10
22.4710969203
 20
7.1136592629
 10
22.5003516452
 20
7.1173330787
 10
22.5278732746
 20
7.1241366587
 10
22.5526671815
 20
7.1338241397
 10
22.5738371922
 20
7.1460453268
 10
22.5906181508
 20
7.1603585047
 10
22.6024036431
 20
7.176246443
 10
22.6087675683
 20
7.1931348363
 10
22.6094800409
 20
7.2104132975
 10
22.6045152721
 20
7.2274573906
 10
22.5940527456
 20
7.2436510213
 10
22.5784704418
 20
7.2584089478
 10
22.5583317705
 20
7.271197815
 10
22.5343644147
 20
7.2815553126
 10
22.5074346803
 20
7.2891072181
 10
22.4785159687
 20
7.2935804879
 10
22.4486533087
 20
7.2948134349
 10
22.418926091
 20
7.2927615964
 10
22.3904088668
 20
7.2874990506
 10
22.3641320767
 20
7.279216022
 10
22.3410455459
 20
7.2682118568
  0
LWPOLYLINE
  5
342
330
1F
100
AcDbEntity
  8
0
  6
Continuous
 62
     7
370
    25
100
AcDbPolyline
 90
       34
 70
   128
 43
0.0
 10
22.341045615
 20
5.0182682718
 10
22.3219837763
 20
5.0049407012
 10
22.3076355952
 20
4.9897714332
 10
22.2985196108
 20
4.9733087901
 10
22.294965268
 20
4.9561475927
 10
22.2971010955
 20
4.938908286
 10
22.3048498656
 20
4.9222138691
 10
22.3179314979
 20
4.9066676244
 10
22.3358732232
 20
4.8928316044
 10
22.3580265913
 20
4.8812057969
 10
22.3835908397
 20
4.8722103243
 10
22.4116420702
 20
4.8661704364
 10
22.4411664354
 20
4.8633043763
 10
22.4710969895
 20
4.8637155981
 10
22.5003516452
 20
4.8673894539
 10
22.5278732746
 20
4.8741930338
 10
22.5526671815
 20
4.8838805149
 10
22.5738371922
 20
4.896101702
 10
22.5906182199
 20
4.9104149198
 10
22.6024036431
 20
4.9263028182
 10
22.6087676374
 20
4.9431911715
 10
22.6094799717
 20
4.9604697126
 10
22.6045152721
 20
4.9775137658
 10
22.5940527456
 20
4.9937073965
 10
22.5784705109
 20
5.0084653629
 10
22.5583317705
 20
5.0212541901
 10
22.5343644838
 20
5.0316117277
 10
22.5074346803
 20
5.0391635933
 10
22.4785159687
 20
5.043636863
 10
22.4486533778
 20
5.04486985
 10
22.4189261602
 20
5.0428180115
 10
22.3904088668
 20
5.0375554258
 10
22.3641320767
 20
5.0292723972
 10
22.341045615
 20
5.0182682718
  0
ARC
  5
343
330
1F
100
AcDbEntity
  8
0
  6
Continuous
 62
     7
370
    25
100
AcDbCircle
 10
24.5017347477
 20
5.9490122532
 30
0.0
 40
0.0808780413602708
100
AcDbArc
 50
3.2301320444
 51
57.347890776
  0
LINE
  5
344
330
1F
100
AcDbEntity
  8
0
  6
Continuous
 62
     7
370
    25
100
AcDbLine
 10
22.5966484135
 20
4.8071708013
 30
0.0
 11
24.5824842956
 21
5.9535694543
 31
0.0
  0
LINE
  5
345
330
1F
100
AcDbEntity
  8
0
  6
Continuous
 62
     7
370
    25
100
AcDbLine
 10
20.3223268944
 20
5.9535663411
 30
0.0
 11
22.3081481192
 21
4.8071761496
 31
0.0
  0
ARC
  5
346
330
1F
100
AcDbEntity
  8
0
  6
Continuous
 62
     7
370
    25
100
AcDbCircle
 10
20.4030763547
 20
5.9490091959
 30
0.0
 40
0.0808779506791101
100
AcDbArc
 50
122.6521347978
 51
176.7699040041
  0
LINE
  5
347
330
1F
100
AcDbEntity
  8
0
  6
Continuous
 62
     7
370
    25
100
AcDbLine
 10
24.5867120477
 20
5.6717705264
 30
0.0
 11
24.5824842956
 21
5.9535694543
 31
0.0
  0
LINE
  5
348
330
1F
100
AcDbEntity
  8
0
  6
Continuous
 62
     7
370
    25
100
AcDbLine
 10
22.6008757507
 20
4.525371634
 30
0.0
 11
24.5867120477
 21
5.6717705264
 31
0.0
  0
LINE
  5
349
330
1F
100
AcDbEntity
  8
0
  6
Continuous
 62
     7
370
    25
100
AcDbLine
 10
20.3180993498
 20
5.6717672935
 30
0.0
 11
20.3223268944
 21
5.9535663411
 31
0.0
  0
LINE
  5
34A
330
1F
100
AcDbEntity
  8
0
  6
Continuous
 62
     7
370
    25
100
AcDbLine
 10
20.3180993498
 20
5.6717672935
 30
0.0
 11
22.3039207128
 21
4.5253770222
 31
0.0
  0
ARC
  5
34B
330
1F
100
AcDbEntity
  8
0
  6
Continuous
 62
     7
370
    25
100
AcDbCircle
 10
22.4316240683
 20
4.7633346856
 30
0.0
 40
0.292911620435417
100
AcDbArc
 50
241.0358943599
 51
256.6765763148
  0
ARC
  5
34C
330
1F
100
AcDbEntity
  8
0
  6
Continuous
 62
     7
370
    25
100
AcDbCircle
 10
22.4508614338
 20
4.8305201013
 30
0.0
 40
0.3627363699161697
100
AcDbArc
 50
256.1652917607
 51
296.9074165499
  0
LINE
  5
34D
330
1F
100
AcDbEntity
  8
0
  6
Continuous
 62
     7
370
    25
100
AcDbLine
 10
22.6150178298
 20
4.5070539489
 30
0.0
 11
22.6194340535
 21
4.4074997112
 31
0.0
  0
ARC
  5
34E
330
1F
100
AcDbEntity
  8
0
  6
Continuous
 62
     7
370
    25
100
AcDbCircle
 10
22.4508054656
 20
4.7398728565
 30
0.0
 40
0.3727029760642039
100
AcDbArc
 50
256.1719129887
 51
296.900831789
  0
LWPOLYLINE
  5
34F
330
1F
100
AcDbEntity
  8
0
  6
Continuous
 62
     7
370
    25
100
AcDbPolyline
 90
        3
 70
   128
 43
0.0
 10
22.3617259176
 20
4.3779718445
 10
22.3210450825
 20
4.3905581941
 10
22.285361857
 20
4.407505339
  0
LINE
  5
350
330
1F
100
AcDbEntity
  8
0
  6
Continuous
 62
     7
370
    25
100
AcDbLine
 10
22.2897782189
 20
4.5070591775
 30
0.0
 11
22.2853617878
 21
4.4075053789
 31
0.0
  0
ARC
  5
351
330
1F
100
AcDbEntity
  8
0
  6
Continuous
 62
     7
370
    25
100
AcDbCircle
 10
22.5947672052
 20
4.505470444
 30
0.0
 40
0.0203124166983467
100
AcDbArc
 50
4.4702681327
 51
57.2642027193
  0
ARC
  5
352
330
1F
100
AcDbEntity
  8
0
  6
Continuous
 62
     7
370
    25
100
AcDbCircle
 10
22.3100290612
 20
4.5054752988
 30
0.0
 40
0.0203126878243427
100
AcDbArc
 50
122.7344129808
 51
175.527830915
  0
ARC
  5
353
330
1F
100
AcDbEntity
  8
0
  6
Continuous
 62
     7
370
    25
100
AcDbCircle
 10
22.4524034226
 20
4.8182499625
 30
0.0
 40
0.3330917704827215
100
AcDbArc
 50
242.5865147714
 51
297.4114869914
  0
LINE
  5
354
330
1F
100
AcDbEntity
  8
0
  6
Continuous
 62
     7
370
    25
100
AcDbLine
 10
24.5915885957
 20
5.6689560736
 30
0.0
 11
22.605751469
 21
4.5225567022
 31
0.0
  0
LINE
  5
355
330
1F
100
AcDbEntity
  8
0
  6
Continuous
 62
     7
370
    25
100
AcDbLine
 10
22.2990450636
 20
4.5225620505
 30
0.0
 11
20.3132232857
 21
5.6689525613
 31
0.0
  0
LWPOLYLINE
  5
356
330
1F
100
AcDbEntity
  8
0
  6
Continuous
 62
     7
370
    25
100
AcDbPolyline
 90
        6
 70
   128
 43
0.0
 10
24.5867120477
 20
5.6717705264
 10
24.6128545016
 20
5.6901239199
 10
24.6322515239
 20
5.7110516905
 10
24.6441867011
 20
5.7338180852
 10
24.648203788
 20
5.757485512
 10
24.6479494274
 20
5.7589827618
  0
ARC
  5
357
330
1F
100
AcDbEntity
  8
0
  6
Continuous
 62
     7
370
    25
100
AcDbCircle
 10
20.3277484935
 20
5.7556587449
 30
0.0
 40
0.0709736567972645
100
AcDbArc
 50
177.3182106437
 51
219.0417610899
  0
LWPOLYLINE
  5
358
330
1F
100
AcDbEntity
  8
0
  6
Continuous
 62
     7
370
    25
100
AcDbPolyline
 90
        3
 70
   128
 43
0.0
 10
20.2726241724
 20
5.7109533852
 10
20.2920045323
 20
5.6900780999
 10
20.3180992806
 20
5.6717673334
  0
ARC
  5
359
330
1F
100
AcDbEntity
  8
0
  6
Continuous
 62
     7
370
    25
100
AcDbCircle
 10
24.5806047888
 20
5.6518695222
 30
0.0
 40
0.0203124162682793
100
AcDbArc
 50
4.4717754008
 51
57.2657341125
  0
LINE
  5
35A
330
1F
100
AcDbEntity
  8
0
  6
Continuous
 62
     7
370
    25
100
AcDbLine
 10
22.6150178298
 20
4.5070536296
 30
0.0
 11
24.6008553713
 21
5.6534532405
 31
0.0
  0
LINE
  5
35B
330
1F
100
AcDbEntity
  8
0
  6
Continuous
 62
     7
370
    25
100
AcDbLine
 10
20.303956441
 20
5.6534496882
 30
0.0
 11
22.2897782189
 21
4.5070591775
 31
0.0
  0
ARC
  5
35C
330
1F
100
AcDbEntity
  8
0
  6
Continuous
 62
     7
370
    25
100
AcDbCircle
 10
20.3242072833
 20
5.6518658096
 30
0.0
 40
0.0203126878243615
100
AcDbArc
 50
122.7344129808
 51
175.527830915
  0
LINE
  5
35D
330
1F
100
AcDbEntity
  8
0
  6
Continuous
 62
     7
370
    25
100
AcDbLine
 10
24.6008553713
 20
5.6534532405
 30
0.0
 11
24.6052720098
 21
5.5538995616
 31
0.0
  0
LINE
  5
35E
330
1F
100
AcDbEntity
  8
0
  6
Continuous
 62
     7
370
    25
100
AcDbLine
 10
24.6052720098
 20
5.5538995616
 30
0.0
 11
22.6194340535
 21
4.4074997112
 31
0.0
  0
LINE
  5
35F
330
1F
100
AcDbEntity
  8
0
  6
Continuous
 62
     7
370
    25
100
AcDbLine
 10
20.3039561645
 20
5.6534498479
 30
0.0
 11
20.2995397334
 21
5.5538960493
 31
0.0
  0
LINE
  5
360
330
1F
100
AcDbEntity
  8
0
  6
Continuous
 62
     7
370
    25
100
AcDbLine
 10
22.285361857
 20
4.407505339
 30
0.0
 11
20.2995397334
 21
5.5538960493
 31
0.0
  0
ARC
  5
361
330
1F
100
AcDbEntity
  8
0
  6
Continuous
 62
     7
370
    25
100
AcDbCircle
 10
20.3839788996
 20
6.0697836402
 30
0.0
 40
0.1315577073451736
100
AcDbArc
 50
216.4422717285
 51
242.0545388729
  0
LINE
  5
362
330
1F
100
AcDbEntity
  8
0
  6
Continuous
 62
     7
370
    25
100
AcDbLine
 10
20.2374374998
 20
5.7522761165
 30
0.0
 11
20.2377166812
 21
5.7539207643
 31
0.0
  0
LWPOLYLINE
  5
363
330
1F
100
AcDbEntity
  8
0
  6
Continuous
 62
     7
370
    25
100
AcDbPolyline
 90
        6
 70
   128
 43
0.0
 10
20.2995397334
 20
5.5538960493
 10
20.2701282023
 20
5.5745429533
 10
20.248304625
 20
5.5980860118
 10
20.2348746727
 20
5.6236976321
 10
20.2303517683
 20
5.650323158
 10
20.2312149629
 20
5.6554083312
  0
ARC
  5
364
330
1F
100
AcDbEntity
  8
0
  6
Continuous
 62
     7
370
    25
100
AcDbCircle
 10
24.5660295679
 20
5.6540490133
 30
0.0
 40
0.1075633855941369
100
AcDbArc
 50
291.3971735452
 51
0.7339738746
  0
ARC
  5
365
330
1F
100
AcDbEntity
  8
0
  6
Continuous
 62
     7
370
    25
100
AcDbCircle
 10
22.4524034108
 20
2.097237626
 30
0.0
 40
0.3646140606692677
100
AcDbArc
 50
242.7333328766
 51
297.2647504297
  0
LINE
  5
366
330
1F
100
AcDbEntity
  8
0
  6
Continuous
 62
     7
370
    25
100
AcDbLine
 10
20.2995397334
 20
2.9195287644
 30
0.0
 11
22.285361857
 21
1.7731380541
 31
0.0
  0
LWPOLYLINE
  5
367
330
1F
100
AcDbEntity
  8
0
  6
Continuous
 62
     7
370
    25
100
AcDbPolyline
 90
       23
 70
   128
 43
0.0
 10
20.2995299157
 20
3.1123845783
 10
20.273785354
 20
3.0947748806
 10
20.2535063315
 20
3.0749309427
 10
20.2394278598
 20
3.0534383258
 10
20.2317628857
 20
3.0308890169
 10
20.2307777999
 20
3.0079610949
 10
20.2363851422
 20
2.9852561659
 10
20.2415860191
 20
2.9743116703
 10
20.2483499798
 20
2.9636555848
 10
20.2483793637
 20
2.9636146742
 10
20.2483802625
 20
2.9636133571
 10
20.2483804699
 20
2.9636130777
 10
20.2483806082
 20
2.963612918
 10
20.2483807465
 20
2.9636127584
 10
20.2483811613
 20
2.9636121198
 10
20.2483829589
 20
2.9636095653
 10
20.2483903567
 20
2.9635993077
 10
20.2484198098
 20
2.963558437
 10
20.2485377601
 20
2.9633948743
 10
20.2490132949
 20
2.9627415013
 10
20.2509746168
 20
2.9601425379
 10
20.259759082
 20
2.9499895136
 10
20.2995397334
 20
2.9195287644
  0
LINE
  5
368
330
1F
100
AcDbEntity
  8
0
  6
Continuous
 62
     7
370
    25
100
AcDbLine
 10
22.2853678029
 20
4.2587843888
 30
0.0
 11
22.1283472851
 21
4.1681383733
 31
0.0
  0
LINE
  5
369
330
1F
100
AcDbEntity
  8
0
  6
Continuous
 62
     7
370
    25
100
AcDbLine
 10
20.5307995465
 20
3.2458936944
 30
0.0
 11
20.2995299157
 21
3.1123845783
 31
0.0
  0
ARC
  5
36A
330
1F
100
AcDbEntity
  8
0
  6
Continuous
 62
     7
370
    25
100
AcDbCircle
 10
22.4523985657
 20
3.9379555542
 30
0.0
 40
0.3617048753616819
100
AcDbArc
 50
62.4955626028
 51
117.5025070133
  0
LINE
  5
36B
330
1F
100
AcDbEntity
  8
0
  6
Continuous
 62
     7
370
    25
100
AcDbLine
 10
24.6052622612
 20
3.1123880508
 30
0.0
 11
24.374118186
 21
3.2458246851
 31
0.0
  0
LINE
  5
36C
330
1F
100
AcDbEntity
  8
0
  6
Continuous
 62
     7
370
    25
100
AcDbLine
 10
22.7763352382
 20
4.1682051475
 30
0.0
 11
22.6194401376
 21
4.2587787611
 31
0.0
  0
LWPOLYLINE
  5
36D
330
1F
100
AcDbEntity
  8
0
  6
Continuous
 62
     7
370
    25
100
AcDbPolyline
 90
       10
 70
   128
 43
0.0
 10
24.6052720098
 20
2.9195322768
 10
24.6310166406
 20
2.9371419346
 10
24.6512956631
 20
2.9569858725
 10
24.6653742039
 20
2.9784784495
 10
24.6730390397
 20
3.0010278382
 10
24.6740241947
 20
3.0239557203
 10
24.6684169215
 20
3.0466606094
 10
24.6561493263
 20
3.0686415996
 10
24.6376450898
 20
3.0891149627
 10
24.6052622612
 20
3.1123880508
  0
LINE
  5
36E
330
1F
100
AcDbEntity
  8
0
  6
Continuous
 62
     7
370
    25
100
AcDbLine
 10
22.6194341226
 20
1.7731324663
 30
0.0
 11
24.6052720098
 21
2.9195322768
 31
0.0
  0
ARC
  5
36F
330
1F
100
AcDbEntity
  8
0
  6
Continuous
 62
     7
370
    25
100
AcDbCircle
 10
20.5479568654
 20
3.1752949211
 30
0.0
 40
0.0396016218172228
100
AcDbArc
 50
185.6948560553
 51
245.6252716776
  0
LINE
  5
370
330
1F
100
AcDbEntity
  8
0
  6
Continuous
 62
     7
370
    25
100
AcDbLine
 10
20.615872089
 20
3.0905815195
 30
0.0
 11
20.5316131687
 21
3.1392231589
 31
0.0
  0
ARC
  5
371
330
1F
100
AcDbEntity
  8
0
  6
Continuous
 62
     7
370
    25
100
AcDbCircle
 10
20.5696722007
 20
2.9975371964
 30
0.0
 40
0.1038829906961123
100
AcDbArc
 50
22.5576605343
 51
63.5939308181
  0
ARC
  5
372
330
1F
100
AcDbEntity
  8
0
  6
Continuous
 62
     7
370
    25
100
AcDbCircle
 10
20.5479569936
 20
2.8644813968
 30
0.0
 40
0.0396017585768732
100
AcDbArc
 50
185.6949701317
 51
245.6251576012
  0
LINE
  5
373
330
1F
100
AcDbEntity
  8
0
  6
Continuous
 62
     7
370
    25
100
AcDbLine
 10
22.1275216327
 20
1.9071111966
 30
0.0
 11
20.5316131687
 21
2.8284095425
 31
0.0
  0
ARC
  5
374
330
1F
100
AcDbEntity
  8
0
  6
Continuous
 62
     7
370
    25
100
AcDbCircle
 10
22.1831993066
 20
2.0145687186
 30
0.0
 40
0.1210252964736143
100
AcDbArc
 50
242.6096733892
 51
297.3903266108
  0
LINE
  5
375
330
1F
100
AcDbEntity
  8
0
  6
Continuous
 62
     7
370
    25
100
AcDbLine
 10
22.32312954
 20
1.955752836
 30
0.0
 11
22.2388769804
 21
1.9071111966
 31
0.0
  0
ARC
  5
376
330
1F
100
AcDbEntity
  8
0
  6
Continuous
 62
     7
370
    25
100
AcDbCircle
 10
22.4523977824
 20
1.7076369655
 30
0.0
 40
0.2797709128406574
100
AcDbArc
 50
62.4805091793
 51
117.5194908207
  0
LINE
  5
377
330
1F
100
AcDbEntity
  8
0
  6
Continuous
 62
     7
370
    25
100
AcDbLine
 10
22.6659250142
 20
1.9071111567
 30
0.0
 11
22.5816660247
 21
1.955752836
 31
0.0
  0
ARC
  5
378
330
1F
100
AcDbEntity
  8
0
  6
Continuous
 62
     7
370
    25
100
AcDbCircle
 10
22.7216026841
 20
2.014568868
 30
0.0
 40
0.12102546281544
100
AcDbArc
 50
242.6097162964
 51
297.3903247764
  0
LINE
  5
379
330
1F
100
AcDbEntity
  8
0
  6
Continuous
 62
     7
370
    25
100
AcDbLine
 10
24.3731888259
 20
2.8284095026
 30
0.0
 11
22.777280431
 21
1.9071111966
 31
0.0
  0
ARC
  5
37A
330
1F
100
AcDbEntity
  8
0
  6
Continuous
 62
     7
370
    25
100
AcDbCircle
 10
24.3568453142
 20
2.8644810424
 30
0.0
 40
0.0396013428999136
100
AcDbArc
 50
294.3746173005
 51
354.3054850844
  0
ARC
  5
37B
330
1F
100
AcDbEntity
  8
0
  6
Continuous
 62
     7
370
    25
100
AcDbCircle
 10
24.3351314861
 20
2.9975391715
 30
0.0
 40
0.1038852987891878
100
AcDbArc
 50
116.406479088
 51
157.4418071968
  0
LINE
  5
37C
330
1F
100
AcDbEntity
  8
0
  6
Continuous
 62
     7
370
    25
100
AcDbLine
 10
24.3731888259
 20
3.1392231988
 30
0.0
 11
24.2889299056
 21
3.0905852314
 31
0.0
  0
ARC
  5
37D
330
1F
100
AcDbEntity
  8
0
  6
Continuous
 62
     7
370
    25
100
AcDbCircle
 10
24.3568456433
 20
3.1752945122
 30
0.0
 40
0.0396010009007899
100
AcDbArc
 50
294.374318776
 51
354.3056488092
  0
LWPOLYLINE
  5
37E
330
1F
100
AcDbEntity
  8
0
  6
Continuous
 62
     7
370
    25
100
AcDbPolyline
 90
       22
 70
   128
 43
0.0
 10
20.4108853326
 20
2.9623883127
 10
20.3936197821
 20
2.9746967892
 10
20.3811644065
 20
2.9888086468
 10
20.3740636029
 20
3.0041069929
 10
20.372627803
 20
3.0199233675
 10
20.3769195773
 20
3.0355664407
 10
20.3867515604
 20
3.0503525057
 10
20.4016938488
 20
3.0636354538
 10
20.4210934984
 20
3.0748346331
 10
20.4441027324
 20
3.0834606326
 10
20.4697157234
 20
3.0891365156
 10
20.4968132571
 20
3.0916141042
 10
20.5242109902
 20
3.0907852346
 10
20.5507114434
 20
3.0866860678
 10
20.5751564773
 20
3.0794956926
 10
20.596477694
 20
3.0695285025
 10
20.6137432445
 20
3.057220026
 10
20.6261986892
 20
3.0431082084
 10
20.6332994237
 20
3.0278098223
 10
20.6347352236
 20
3.0119934477
 10
20.6304434493
 20
2.9963503745
 10
20.6282302558
 20
2.992087166
  0
ARC
  5
37F
330
1F
100
AcDbEntity
  8
0
  6
Continuous
 62
     7
370
    25
100
AcDbCircle
 10
20.5039527994
 20
3.1431377181
 30
0.0
 40
0.2033024862380029
100
AcDbArc
 50
242.756161979
 51
282.2293300514
  0
LWPOLYLINE
  5
380
330
1F
100
AcDbEntity
  8
0
  6
Continuous
 62
     7
370
    25
100
AcDbPolyline
 90
       20
 70
   128
 43
0.0
 10
22.3284174623
 20
4.1160977978
 10
22.3227830869
 20
4.1290788053
 10
22.321347287
 20
4.14489518
 10
22.3256390613
 20
4.1605382531
 10
22.3354710444
 20
4.1753243181
 10
22.3504133328
 20
4.1886072662
 10
22.3698129824
 20
4.1998064455
 10
22.3928222164
 20
4.208432445
 10
22.4184352075
 20
4.214108328
 10
22.4455327411
 20
4.2165859166
 10
22.4729304742
 20
4.215757047
 10
22.4994308583
 20
4.2116578403
 10
22.5238759613
 20
4.204467505
 10
22.545197178
 20
4.1945003149
 10
22.5624627285
 20
4.1821918384
 10
22.574918104
 20
4.1680799809
 10
22.5820189077
 20
4.1527816347
 10
22.5834547076
 20
4.1369652601
 10
22.5791629333
 20
4.1213221869
 10
22.5763814211
 20
4.1160927687
  0
LWPOLYLINE
  5
381
330
1F
100
AcDbEntity
  8
0
  6
Continuous
 62
     7
370
    25
100
AcDbPolyline
 90
       31
 70
   128
 43
0.0
 10
22.3596048166
 20
1.8374165003
 10
22.3423392661
 20
1.8497249768
 10
22.3298838906
 20
1.8638368343
 10
22.3227830869
 20
1.8791351805
 10
22.321347287
 20
1.8949515551
 10
22.3256390613
 20
1.9105946283
 10
22.3354709752
 20
1.9253807332
 10
22.3504133328
 20
1.9386636413
 10
22.3698129824
 20
1.9498628207
 10
22.3928221473
 20
1.9584888601
 10
22.4184352075
 20
1.9641647032
 10
22.4455327411
 20
1.9666422918
 10
22.4729304742
 20
1.9658134221
 10
22.4994309274
 20
1.9617142553
 10
22.5238759613
 20
1.9545238802
 10
22.545197178
 20
1.94455669
 10
22.5624627285
 20
1.9322482136
 10
22.5749181732
 20
1.9181363959
 10
22.5820189077
 20
1.9028380099
 10
22.5834547076
 20
1.8870216353
 10
22.5791629333
 20
1.8713785621
 10
22.5693309502
 20
1.8565924971
 10
22.5543885926
 20
1.8433095889
 10
22.5349889431
 20
1.8321104096
 10
22.5119797782
 20
1.8234843702
 10
22.4863667871
 20
1.8178084872
 10
22.4592692535
 20
1.8153308986
 10
22.4318715204
 20
1.8161597682
 10
22.4053711363
 20
1.8202589749
 10
22.3809260333
 20
1.8274493102
 10
22.3596048166
 20
1.8374165003
  0
LWPOLYLINE
  5
382
330
1F
100
AcDbEntity
  8
0
  6
Continuous
 62
     7
370
    25
100
AcDbPolyline
 90
       27
 70
   128
 43
0.0
 10
24.2765681436
 20
2.9920934323
 10
24.2715025709
 20
3.0041069929
 10
24.270066771
 20
3.0199233675
 10
24.2743585453
 20
3.0355664407
 10
24.2841904593
 20
3.0503525456
 10
24.2991328169
 20
3.0636354538
 10
24.3185324664
 20
3.0748346331
 10
24.3415416313
 20
3.0834606725
 10
24.3671546915
 20
3.0891365156
 10
24.3942522251
 20
3.0916141042
 10
24.4216499582
 20
3.0907852346
 10
24.4481503423
 20
3.0866860278
 10
24.4725954453
 20
3.0794956926
 10
24.493916662
 20
3.0695285025
 10
24.5111822125
 20
3.057220026
 10
24.5236375881
 20
3.0431081684
 10
24.5307383917
 20
3.0278098223
 10
24.5321741916
 20
3.0119934477
 10
24.5278824173
 20
2.9963503745
 10
24.5180504342
 20
2.9815643095
 10
24.5031080766
 20
2.9682814014
 10
24.4837084271
 20
2.957082222
 10
24.4606992622
 20
2.9484561826
 10
24.4350862712
 20
2.9427802996
 10
24.4079887375
 20
2.940302711
 10
24.3805910044
 20
2.9411315806
 10
24.3577864205
 20
2.9444482964
  0
LINE
  5
383
330
1F
100
AcDbEntity
  8
0
  6
Continuous
 62
     7
370
    25
100
AcDbLine
 10
22.285361857
 20
1.7731380541
 30
0.0
 11
22.2869674611
 21
1.6669073452
 31
0.0
  0
LINE
  5
384
330
1F
100
AcDbEntity
  8
0
  6
Continuous
 62
     7
370
    25
100
AcDbLine
 10
22.6178285876
 20
1.6669017175
 30
0.0
 11
22.6194341226
 21
1.7731324663
 31
0.0
  0
ARC
  5
385
330
1F
100
AcDbEntity
  8
0
  6
Continuous
 62
     7
370
    25
100
AcDbCircle
 10
22.4524034841
 20
1.9878902196
 30
0.0
 40
0.3611081325411505
100
AcDbArc
 50
242.7332170642
 51
297.2648338164
  0
ARC
  5
386
330
1F
100
AcDbEntity
  8
0
  6
Continuous
 62
     7
370
    25
100
AcDbCircle
 10
22.721602688
 20
4.0602112614
 30
0.0
 40
0.121025187269868
100
AcDbArc
 50
62.6096466019
 51
117.3903533981
  0
LINE
  5
387
330
1F
100
AcDbEntity
  8
0
  6
Continuous
 62
     7
370
    25
100
AcDbLine
 10
22.7772803619
 20
4.1676686603
 30
0.0
 11
24.3731888259
 21
3.2463703145
 31
0.0
  0
ARC
  5
388
330
1F
100
AcDbEntity
  8
0
  6
Continuous
 62
     7
370
    25
100
AcDbCircle
 10
24.3609898452
 20
3.2142282775
 30
0.0
 40
0.0343791458450714
100
AcDbArc
 50
290.7834328726
 51
69.2165671274
  0
LINE
  5
389
330
1F
100
AcDbEntity
  8
0
  6
Continuous
 62
     7
370
    25
100
AcDbLine
 10
24.3731888259
 20
3.1820862405
 30
0.0
 11
24.2889299056
 21
3.1334482732
 31
0.0
  0
ARC
  5
38A
330
1F
100
AcDbEntity
  8
0
  6
Continuous
 62
     7
370
    25
100
AcDbCircle
 10
24.318043729
 20
3.0588233053
 30
0.0
 40
0.0801030620189471
100
AcDbArc
 50
111.3125048453
 51
248.6874951547
  0
LINE
  5
38B
330
1F
100
AcDbEntity
  8
0
  6
Continuous
 62
     7
370
    25
100
AcDbLine
 10
24.2889299056
 20
2.9841983375
 30
0.0
 11
24.373188895
 21
2.9355566582
 31
0.0
  0
ARC
  5
38C
330
1F
100
AcDbEntity
  8
0
  6
Continuous
 62
     7
370
    25
100
AcDbCircle
 10
24.3609898421
 20
2.9034146144
 30
0.0
 40
0.0343791778867918
100
AcDbArc
 50
290.783418219
 51
69.216458536
  0
LINE
  5
38D
330
1F
100
AcDbEntity
  8
0
  6
Continuous
 62
     7
370
    25
100
AcDbLine
 10
24.3731888259
 20
2.8712725444
 30
0.0
 11
22.777280431
 21
1.9499742384
 31
0.0
  0
ARC
  5
38E
330
1F
100
AcDbEntity
  8
0
  6
Continuous
 62
     7
370
    25
100
AcDbCircle
 10
22.7216026841
 20
2.0574319098
 30
0.0
 40
0.12102546281544
100
AcDbArc
 50
242.6097162964
 51
297.3903247764
  0
LINE
  5
38F
330
1F
100
AcDbEntity
  8
0
  6
Continuous
 62
     7
370
    25
100
AcDbLine
 10
22.6659250142
 20
1.9499741985
 30
0.0
 11
22.5816660247
 21
1.9986158777
 31
0.0
  0
ARC
  5
390
330
1F
100
AcDbEntity
  8
0
  6
Continuous
 62
     7
370
    25
100
AcDbCircle
 10
22.4523977824
 20
1.7505001195
 30
0.0
 40
0.279770813313904
100
AcDbArc
 50
62.48049856
 51
117.51950144
  0
LINE
  5
391
330
1F
100
AcDbEntity
  8
0
  6
Continuous
 62
     7
370
    25
100
AcDbLine
 10
22.32312954
 20
1.9986158777
 30
0.0
 11
22.2388769804
 21
1.9499742384
 31
0.0
  0
ARC
  5
392
330
1F
100
AcDbEntity
  8
0
  6
Continuous
 62
     7
370
    25
100
AcDbCircle
 10
22.1831993066
 20
2.0574317603
 30
0.0
 40
0.1210252964736131
100
AcDbArc
 50
242.6096733892
 51
297.3903266108
  0
LINE
  5
393
330
1F
100
AcDbEntity
  8
0
  6
Continuous
 62
     7
370
    25
100
AcDbLine
 10
22.1275216327
 20
1.9499742384
 30
0.0
 11
20.5316131687
 21
2.8712725843
 31
0.0
  0
ARC
  5
394
330
1F
100
AcDbEntity
  8
0
  6
Continuous
 62
     7
370
    25
100
AcDbCircle
 10
20.5438121155
 20
2.9034146212
 30
0.0
 40
0.0343791338141947
100
AcDbArc
 50
110.7833800433
 51
249.2166199567
  0
LINE
  5
395
330
1F
100
AcDbEntity
  8
0
  6
Continuous
 62
     7
370
    25
100
AcDbLine
 10
20.5316131687
 20
2.9355566582
 30
0.0
 11
20.615872089
 21
2.9841946256
 31
0.0
  0
ARC
  5
396
330
1F
100
AcDbEntity
  8
0
  6
Continuous
 62
     7
370
    25
100
AcDbCircle
 10
20.5867582656
 20
3.0588195934
 30
0.0
 40
0.080103062018945
100
AcDbArc
 50
291.3125048453
 51
68.6874951547
  0
LINE
  5
397
330
1F
100
AcDbEntity
  8
0
  6
Continuous
 62
     7
370
    25
100
AcDbLine
 10
20.615872089
 20
3.1334445613
 30
0.0
 11
20.5316131687
 21
3.1820862006
 31
0.0
  0
ARC
  5
398
330
1F
100
AcDbEntity
  8
0
  6
Continuous
 62
     7
370
    25
100
AcDbCircle
 10
20.5438121572
 20
3.2142282775
 30
0.0
 40
0.0343791859587387
100
AcDbArc
 50
110.7834215561
 51
249.2165784439
  0
LINE
  5
399
330
1F
100
AcDbEntity
  8
0
  6
Continuous
 62
     7
370
    25
100
AcDbLine
 10
20.5316131687
 20
3.2463703544
 30
0.0
 11
22.1275215636
 21
4.1676686603
 31
0.0
  0
ARC
  5
39A
330
1F
100
AcDbEntity
  8
0
  6
Continuous
 62
     7
370
    25
100
AcDbCircle
 10
22.1831993066
 20
4.0602109909
 30
0.0
 40
0.1210254592213056
100
AcDbArc
 50
62.6096764463
 51
117.3903235537
  0
LINE
  5
39B
330
1F
100
AcDbEntity
  8
0
  6
Continuous
 62
     7
370
    25
100
AcDbLine
 10
22.2388770496
 20
4.1676686603
 30
0.0
 11
22.3231359699
 21
4.119027021
 31
0.0
  0
ARC
  5
39C
330
1F
100
AcDbEntity
  8
0
  6
Continuous
 62
     7
370
    25
100
AcDbCircle
 10
22.4524042122
 20
4.3671428915
 30
0.0
 40
0.2797709128406675
100
AcDbArc
 50
242.4805091793
 51
297.5194908207
  0
LINE
  5
39D
330
1F
100
AcDbEntity
  8
0
  6
Continuous
 62
     7
370
    25
100
AcDbLine
 10
22.5816724546
 20
4.119027021
 30
0.0
 11
22.6659250142
 21
4.1676686603
 31
0.0
  0
LINE
  5
39E
330
1F
100
AcDbEntity
  8
0
  6
Continuous
 62
     7
370
    25
100
AcDbLine
 10
22.6843914318
 20
4.1570082243
 30
0.0
 11
22.6001398402
 21
4.108366585
 31
0.0
  0
ARC
  5
39F
330
1F
100
AcDbEntity
  8
0
  6
Continuous
 62
     7
370
    25
100
AcDbCircle
 10
22.4524046962
 20
4.3919276221
 30
0.0
 40
0.3197382281589654
100
AcDbArc
 50
242.48051111
 51
297.51948889
  0
LINE
  5
3A0
330
1F
100
AcDbEntity
  8
0
  6
Continuous
 62
     7
370
    25
100
AcDbLine
 10
22.3046695523
 20
4.108366585
 30
0.0
 11
22.2204106319
 21
4.1570082243
 31
0.0
  0
ARC
  5
3A1
330
1F
100
AcDbEntity
  8
0
  6
Continuous
 62
     7
370
    25
100
AcDbCircle
 10
22.1832921596
 20
4.0853697227
 30
0.0
 40
0.0806836780673399
100
AcDbArc
 50
62.609709076
 51
117.390290924
  0
LINE
  5
3A2
330
1F
100
AcDbEntity
  8
0
  6
Continuous
 62
     7
370
    25
100
AcDbLine
 10
22.1461736873
 20
4.1570082243
 30
0.0
 11
20.5500795864
 21
3.2356027125
 31
0.0
  0
ARC
  5
3A3
330
1F
100
AcDbEntity
  8
0
  6
Continuous
 62
     7
370
    25
100
AcDbCircle
 10
20.5582122697
 20
3.2141746746
 30
0.0
 40
0.0229194534954691
100
AcDbArc
 50
110.7834901889
 51
249.2165098111
  0
LINE
  5
3A4
330
1F
100
AcDbEntity
  8
0
  6
Continuous
 62
     7
370
    25
100
AcDbLine
 10
20.5500795864
 20
3.1927466366
 30
0.0
 11
20.6343385067
 21
3.1441049973
 31
0.0
  0
LWPOLYLINE
  5
3A5
330
1F
100
AcDbEntity
  8
0
  6
Continuous
 62
     7
370
    25
100
AcDbPolyline
 90
       10
 70
   128
 43
0.0
 10
20.6343385067
 20
3.1441049973
 10
20.6577480528
 20
3.1279996538
 10
20.6759574134
 20
3.1097922615
 10
20.6884134111
 20
3.090036052
 10
20.6947373743
 20
3.0693313542
 10
20.6947373743
 20
3.0483072739
 10
20.6884134111
 20
3.0276025761
 10
20.6759574134
 20
3.0078463666
 10
20.6577480528
 20
2.9896389743
 10
20.6343385067
 20
2.9735336308
  0
LINE
  5
3A6
330
1F
100
AcDbEntity
  8
0
  6
Continuous
 62
     7
370
    25
100
AcDbLine
 10
20.6343385067
 20
2.9735336308
 30
0.0
 11
20.5500795864
 21
2.9248962222
 31
0.0
  0
ARC
  5
3A7
330
1F
100
AcDbEntity
  8
0
  6
Continuous
 62
     7
370
    25
100
AcDbCircle
 10
20.5582122697
 20
2.9034681843
 30
0.0
 40
0.0229194534954691
100
AcDbArc
 50
110.7834901889
 51
249.2165098111
  0
LINE
  5
3A8
330
1F
100
AcDbEntity
  8
0
  6
Continuous
 62
     7
370
    25
100
AcDbLine
 10
20.5500795864
 20
2.8820401463
 30
0.0
 11
22.1461736182
 21
1.9606346744
 31
0.0
  0
ARC
  5
3A9
330
1F
100
AcDbEntity
  8
0
  6
Continuous
 62
     7
370
    25
100
AcDbCircle
 10
22.1832920905
 20
2.0322731761
 30
0.0
 40
0.0806836780673369
100
AcDbArc
 50
242.609709076
 51
297.390290924
  0
LINE
  5
3AA
330
1F
100
AcDbEntity
  8
0
  6
Continuous
 62
     7
370
    25
100
AcDbLine
 10
22.2204105628
 20
1.9606346744
 30
0.0
 11
22.3046621544
 21
2.0092763137
 31
0.0
  0
ARC
  5
3AB
330
1F
100
AcDbEntity
  8
0
  6
Continuous
 62
     7
370
    25
100
AcDbCircle
 10
22.4523972984
 20
1.7257152766
 30
0.0
 40
0.3197382281589527
100
AcDbArc
 50
62.48051111
 51
117.51948889
  0
LINE
  5
3AC
330
1F
100
AcDbEntity
  8
0
  6
Continuous
 62
     7
370
    25
100
AcDbLine
 10
22.6001324423
 20
2.0092763137
 30
0.0
 11
22.6843914318
 21
1.9606346345
 31
0.0
  0
ARC
  5
3AD
330
1F
100
AcDbEntity
  8
0
  6
Continuous
 62
     7
370
    25
100
AcDbCircle
 10
22.721509831
 20
2.0322730551
 30
0.0
 40
0.0806835724579485
100
AcDbArc
 50
242.6097286705
 51
297.3903329387
  0
LINE
  5
3AE
330
1F
100
AcDbEntity
  8
0
  6
Continuous
 62
     7
370
    25
100
AcDbLine
 10
22.7586283073
 20
1.9606346744
 30
0.0
 11
24.3547224082
 21
2.8820401862
 31
0.0
  0
ARC
  5
3AF
330
1F
100
AcDbEntity
  8
0
  6
Continuous
 62
     7
370
    25
100
AcDbCircle
 10
24.3465897635
 20
2.9034682173
 30
0.0
 40
0.0229194333926668
100
AcDbArc
 50
290.7834059395
 51
69.2164091929
  0
LINE
  5
3B0
330
1F
100
AcDbEntity
  8
0
  6
Continuous
 62
     7
370
    25
100
AcDbLine
 10
24.3547224774
 20
2.9248962222
 30
0.0
 11
24.2704634879
 21
2.9735379015
 31
0.0
  0
LWPOLYLINE
  5
3B1
330
1F
100
AcDbEntity
  8
0
  6
Continuous
 62
     7
370
    25
100
AcDbPolyline
 90
       10
 70
   128
 43
0.0
 10
24.2704634879
 20
2.9735379015
 10
24.2470539418
 20
2.989643245
 10
24.2288445812
 20
3.0078506373
 10
24.2163885835
 20
3.0276068468
 10
24.2100646203
 20
3.0483115446
 10
24.2100646203
 20
3.0693356248
 10
24.2163885835
 20
3.0900403227
 10
24.2288445812
 20
3.1097965321
 10
24.2470539418
 20
3.1280039244
 10
24.2704634879
 20
3.144109268
  0
LINE
  5
3B2
330
1F
100
AcDbEntity
  8
0
  6
Continuous
 62
     7
370
    25
100
AcDbLine
 10
24.2704634879
 20
3.144109268
 30
0.0
 11
24.3547224082
 21
3.1927466765
 31
0.0
  0
ARC
  5
3B3
330
1F
100
AcDbEntity
  8
0
  6
Continuous
 62
     7
370
    25
100
AcDbCircle
 10
24.3465897249
 20
3.2141747145
 30
0.0
 40
0.0229194534954716
100
AcDbArc
 50
290.7834901889
 51
69.2165098111
  0
LINE
  5
3B4
330
1F
100
AcDbEntity
  8
0
  6
Continuous
 62
     7
370
    25
100
AcDbLine
 10
24.3547224082
 20
3.2356027524
 30
0.0
 11
22.7586283764
 21
4.1570082243
 31
0.0
  0
ARC
  5
3B5
330
1F
100
AcDbEntity
  8
0
  6
Continuous
 62
     7
370
    25
100
AcDbCircle
 10
22.7215099041
 20
4.0853697227
 30
0.0
 40
0.0806836780673399
100
AcDbArc
 50
62.609709076
 51
117.390290924
  0
ARC
  5
3B6
330
1F
100
AcDbEntity
  8
0
  6
Continuous
 62
     7
370
    25
100
AcDbCircle
 10
22.4524033725
 20
0.867781077
 30
0.0
 40
0.2857809846298888
100
AcDbArc
 50
242.4242932826
 51
297.5734594474
  0
LINE
  5
3B7
330
1F
100
AcDbEntity
  8
0
  6
Continuous
 62
     7
370
    25
100
AcDbLine
 10
24.6036664056
 20
2.813301488
 30
0.0
 11
24.6052720098
 21
2.9195322768
 31
0.0
  0
LINE
  5
3B8
330
1F
100
AcDbEntity
  8
0
  6
Continuous
 62
     7
370
    25
100
AcDbLine
 10
22.6178285876
 20
1.6669017175
 30
0.0
 11
24.6036664056
 21
2.813301488
 31
0.0
  0
LINE
  5
3B9
330
1F
100
AcDbEntity
  8
0
  6
Continuous
 62
     7
370
    25
100
AcDbLine
 10
20.3011453375
 20
2.8132980555
 30
0.0
 11
20.2995397334
 21
2.9195287644
 31
0.0
  0
LINE
  5
3BA
330
1F
100
AcDbEntity
  8
0
  6
Continuous
 62
     7
370
    25
100
AcDbLine
 10
20.3011453375
 20
2.8132980555
 30
0.0
 11
22.2869674611
 21
1.6669073452
 31
0.0
  0
LINE
  5
3BB
330
1F
100
AcDbEntity
  8
0
  6
Continuous
 62
     7
370
    25
100
AcDbLine
 10
22.5846872402
 20
0.6144596418
 30
0.0
 11
24.5705221544
 21
1.760857736
 31
0.0
  0
LINE
  5
3BC
330
1F
100
AcDbEntity
  8
0
  6
Continuous
 62
     7
370
    25
100
AcDbLine
 10
20.3342888282
 20
1.7608547425
 30
0.0
 11
22.320109569
 21
0.6144648305
 31
0.0
  0
LINE
  5
3BD
330
1F
100
AcDbEntity
  8
0
  6
Continuous
 62
     7
370
    25
100
AcDbLine
 10
22.777280431
 20
1.9071111966
 30
0.0
 11
22.777280431
 21
1.9499742384
 31
0.0
  0
LINE
  5
3BE
330
1F
100
AcDbEntity
  8
0
  6
Continuous
 62
     7
370
    25
100
AcDbLine
 10
22.6659250142
 20
1.9071111567
 30
0.0
 11
22.6659250142
 21
1.9499741985
 31
0.0
  0
LINE
  5
3BF
330
1F
100
AcDbEntity
  8
0
  6
Continuous
 62
     7
370
    25
100
AcDbLine
 10
22.2388769804
 20
1.9071111966
 30
0.0
 11
22.2388769804
 21
1.9499742384
 31
0.0
  0
LINE
  5
3C0
330
1F
100
AcDbEntity
  8
0
  6
Continuous
 62
     7
370
    25
100
AcDbLine
 10
22.1275216327
 20
1.9071111966
 30
0.0
 11
22.1275216327
 21
1.9499742384
 31
0.0
  0
LINE
  5
3C1
330
1F
100
AcDbEntity
  8
0
  6
Continuous
 62
     7
370
    25
100
AcDbLine
 10
22.32312954
 20
1.955752836
 30
0.0
 11
22.32312954
 21
1.9986158777
 31
0.0
  0
LINE
  5
3C2
330
1F
100
AcDbEntity
  8
0
  6
Continuous
 62
     7
370
    25
100
AcDbLine
 10
22.5816660247
 20
1.9986158777
 30
0.0
 11
22.5816660247
 21
1.955752836
 31
0.0
  0
LINE
  5
3C3
330
1F
100
AcDbEntity
  8
0
  6
Continuous
 62
     7
370
    25
100
AcDbLine
 10
24.3731888259
 20
2.8284095026
 30
0.0
 11
24.3731888259
 21
2.8712725444
 31
0.0
  0
LINE
  5
3C4
330
1F
100
AcDbEntity
  8
0
  6
Continuous
 62
     7
370
    25
100
AcDbLine
 10
20.5316131687
 20
2.8284095425
 30
0.0
 11
20.5316131687
 21
2.8712725843
 31
0.0
  0
LWPOLYLINE
  5
3C5
330
1F
100
AcDbEntity
  8
0
  6
Continuous
 62
     7
370
    25
100
AcDbPolyline
 90
       18
 70
   128
 43
0.0
 10
21.6609199251
 20
2.2818978333
 10
21.660964904
 20
2.2798504077
 10
21.6645436959
 20
2.2636285437
 10
21.6737057439
 20
2.2481546311
 10
21.688076006
 20
2.2340621462
 10
21.7070660617
 20
2.2219280788
 10
21.7298985516
 20
2.212249164
 10
21.755638628
 20
2.2054216813
 10
21.7832325503
 20
2.2017251401
 10
21.8115505777
 20
2.2013108799
 10
21.8394333911
 20
2.2041958611
 10
21.8657394743
 20
2.2102619594
 10
21.8893918479
 20
2.219260832
 10
21.9094221532
 20
2.2308240811
 10
21.9250103468
 20
2.2444783057
 10
21.9355182757
 20
2.2596644843
 10
21.9405157513
 20
2.2757608899
 10
21.9409199568
 20
2.2818978184
  0
LWPOLYLINE
  5
3C6
330
1F
100
AcDbEntity
  8
0
  6
Continuous
 62
     7
370
    25
100
AcDbPolyline
 90
       15
 70
   128
 43
0.0
 10
23.181315601
 20
2.3872144685
 10
23.1824242114
 20
2.3784293914
 10
23.1887341221
 20
2.3648349737
 10
23.2003046627
 20
2.3524470308
 10
23.2165120394
 20
2.3419333991
 10
23.2364825485
 20
2.3338608807
 10
23.2591395908
 20
2.32866467
 10
23.2832617132
 20
2.3266249052
 10
23.3075484025
 20
2.3278515161
 10
23.3306905207
 20
2.332278447
 10
23.3514403421
 20
2.3396669694
 10
23.3686792051
 20
2.3496187532
 10
23.381477888
 20
2.3615973701
 10
23.389146319
 20
2.3749569907
 10
23.3913155923
 20
2.3872144685
  0
LWPOLYLINE
  5
3C7
330
1F
100
AcDbEntity
  8
0
  6
Continuous
 62
     7
370
    25
100
AcDbPolyline
 90
       15
 70
   128
 43
0.0
 10
22.2055082364
 20
2.7853495017
 10
22.2066168727
 20
2.7765644097
 10
22.2129268008
 20
2.7629699819
 10
22.2244972722
 20
2.7505819992
 10
22.2407046575
 20
2.7400684424
 10
22.2606751839
 20
2.731995914
 10
22.2833322262
 20
2.7267997033
 10
22.3074543832
 20
2.7247599185
 10
22.3317410206
 20
2.7259865593
 10
22.354883208
 20
2.7304134503
 10
22.3756329257
 20
2.7378019527
 10
22.3928718579
 20
2.7477537764
 10
22.4056705753
 20
2.7597323734
 10
22.4133389372
 20
2.7730920339
 10
22.4155082277
 20
2.7853495017
  0
ARC
  5
3C8
330
1F
100
AcDbEntity
  8
0
  6
Continuous
 62
     7
370
    25
100
AcDbCircle
 10
22.4539902065
 20
3.2359484174
 30
0.0
 40
0.3163773892807965
100
AcDbArc
 50
263.0136342624
 51
297.5128251521
  0
LINE
  5
3C9
330
1F
100
AcDbEntity
  8
0
  6
Continuous
 62
     7
370
    25
100
AcDbLine
 10
22.6706897652
 20
2.9960820701
 30
0.0
 11
22.6001398402
 21
2.955350953
 31
0.0
  0
LINE
  5
3CA
330
1F
100
AcDbEntity
  8
0
  6
Continuous
 62
     7
370
    25
100
AcDbLine
 10
22.6840758836
 20
3.0038104302
 30
0.0
 11
22.6706897652
 21
2.9960820701
 31
0.0
  0
LINE
  5
3CB
330
1F
100
AcDbEntity
  8
0
  6
Continuous
 62
     7
370
    25
100
AcDbLine
 10
23.6248667082
 20
2.4607034475
 30
0.0
 11
22.6840758836
 21
3.0038104302
 31
0.0
  0
LINE
  5
3CC
330
1F
100
AcDbEntity
  8
0
  6
Continuous
 62
     7
370
    25
100
AcDbLine
 10
22.2207447093
 20
3.0037997336
 30
0.0
 11
21.2799538501
 21
2.4606927309
 31
0.0
  0
LINE
  5
3CD
330
1F
100
AcDbEntity
  8
0
  6
Continuous
 62
     7
370
    25
100
AcDbLine
 10
22.2341163086
 20
2.9960804736
 30
0.0
 11
22.2207447093
 21
3.0037997336
 31
0.0
  0
LINE
  5
3CE
330
1F
100
AcDbEntity
  8
0
  6
Continuous
 62
     7
370
    25
100
AcDbLine
 10
22.2561056801
 20
2.9833862796
 30
0.0
 11
22.2341163086
 21
2.9960804736
 31
0.0
  0
ARC
  5
3CF
330
1F
100
AcDbEntity
  8
0
  6
Continuous
 62
     7
370
    25
100
AcDbCircle
 10
24.5614454057
 20
2.9150785146
 30
0.0
 40
0.110187004554218
100
AcDbArc
 50
292.5305418424
 51
355.867817214
  0
ARC
  5
3D0
330
1F
100
AcDbEntity
  8
0
  6
Continuous
 62
     7
370
    25
100
AcDbCircle
 10
20.3473515059
 20
2.9181357329
 30
0.0
 40
0.1145685323404576
100
AcDbArc
 50
185.5118349884
 51
246.2149885367
  0
LINE
  5
3D1
330
1F
100
AcDbEntity
  8
0
  6
Continuous
 62
     7
370
    25
100
AcDbLine
 10
20.615872089
 20
3.0905815195
 30
0.0
 11
20.615872089
 21
3.1334445613
 31
0.0
  0
LINE
  5
3D2
330
1F
100
AcDbEntity
  8
0
  6
Continuous
 62
     7
370
    25
100
AcDbLine
 10
24.2889299056
 20
3.1334482732
 30
0.0
 11
24.2889299056
 21
3.0905852314
 31
0.0
  0
ARC
  5
3D3
330
1F
100
AcDbEntity
  8
0
  6
Continuous
 62
     7
370
    25
100
AcDbCircle
 10
20.3666061893
 20
1.8391658108
 30
0.0
 40
0.0847173844909049
100
AcDbArc
 50
182.1579765162
 51
247.575071155
  0
ARC
  5
3D4
330
1F
100
AcDbEntity
  8
0
  6
Continuous
 62
     7
370
    25
100
AcDbCircle
 10
24.540240248
 20
1.8380437748
 30
0.0
 40
0.0829136806680845
100
AcDbArc
 50
291.4212501302
 51
358.4479245549
  0
LINE
  5
3D5
330
1F
100
AcDbEntity
  8
0
  6
Continuous
 62
     7
370
    25
100
AcDbLine
 10
20.5316131687
 20
3.1392231589
 30
0.0
 11
20.5316131687
 21
3.1820862006
 31
0.0
  0
LINE
  5
3D6
330
1F
100
AcDbEntity
  8
0
  6
Continuous
 62
     7
370
    25
100
AcDbLine
 10
24.3731888259
 20
3.1392231988
 30
0.0
 11
24.3731888259
 21
3.1820862405
 31
0.0
  0
LINE
  5
3D7
330
1F
100
AcDbEntity
  8
0
  6
Continuous
 62
     7
370
    25
100
AcDbLine
 10
22.7586283764
 20
4.1570082243
 30
0.0
 11
22.7586283764
 21
4.0069875781
 31
0.0
  0
LINE
  5
3D8
330
1F
100
AcDbEntity
  8
0
  6
Continuous
 62
     7
370
    25
100
AcDbLine
 10
24.262149787
 20
3.139023143
 30
0.0
 11
22.7586283764
 21
4.0069875781
 31
0.0
  0
LINE
  5
3D9
330
1F
100
AcDbEntity
  8
0
  6
Continuous
 62
     7
370
    25
100
AcDbLine
 10
22.1461736873
 20
4.1570082243
 30
0.0
 11
22.1461736873
 21
4.0069875781
 31
0.0
  0
LINE
  5
3DA
330
1F
100
AcDbEntity
  8
0
  6
Continuous
 62
     7
370
    25
100
AcDbLine
 10
22.1461736873
 20
4.0069875781
 30
0.0
 11
20.6426488199
 21
3.1390211473
 31
0.0
  0
ARC
  5
3DB
330
1F
100
AcDbEntity
  8
0
  6
Continuous
 62
     7
370
    25
100
AcDbCircle
 10
22.1832921596
 20
3.9353490765
 30
0.0
 40
0.0806836780673422
100
AcDbArc
 50
62.609709076
 51
117.390290924
  0
ARC
  5
3DC
330
1F
100
AcDbEntity
  8
0
  6
Continuous
 62
     7
370
    25
100
AcDbCircle
 10
22.1878801404
 20
3.946899942
 30
0.0
 40
0.068324151267259
100
AcDbArc
 50
61.5716608305
 51
77.7871190883
  0
LINE
  5
3DD
330
1F
100
AcDbEntity
  8
0
  6
Continuous
 62
     7
370
    25
100
AcDbLine
 10
20.6619267856
 20
3.1244197989
 30
0.0
 11
22.2023337407
 21
4.0136778057
 31
0.0
  0
ARC
  5
3DE
330
1F
100
AcDbEntity
  8
0
  6
Continuous
 62
     7
370
    25
100
AcDbCircle
 10
22.7215099041
 20
3.9353490765
 30
0.0
 40
0.0806836780673363
100
AcDbArc
 50
62.609709076
 51
117.390290924
  0
LINE
  5
3DF
330
1F
100
AcDbEntity
  8
0
  6
Continuous
 62
     7
370
    25
100
AcDbLine
 10
22.7024911387
 20
4.0136829943
 30
0.0
 11
24.2428848884
 21
3.1244326109
 31
0.0
  0
ARC
  5
3E0
330
1F
100
AcDbEntity
  8
0
  6
Continuous
 62
     7
370
    25
100
AcDbCircle
 10
22.7162249594
 20
3.9487854525
 30
0.0
 40
0.0663348231906705
100
AcDbArc
 50
101.9488202944
 51
118.6742416487
  0
LINE
  5
3E1
330
1F
100
AcDbEntity
  8
0
  6
Continuous
 62
     7
370
    25
100
AcDbLine
 10
22.2207447093
 20
3.0037997336
 30
0.0
 11
22.2023337407
 21
4.0136778057
 31
0.0
  0
LINE
  5
3E2
330
1F
100
AcDbEntity
  8
0
  6
Continuous
 62
     7
370
    25
100
AcDbLine
 10
22.7024911387
 20
4.0136829943
 30
0.0
 11
22.6840758836
 21
3.0038104302
 31
0.0
  0
LWPOLYLINE
  5
3E3
330
1F
100
AcDbEntity
  8
0
  6
Continuous
 62
     7
370
    25
100
AcDbPolyline
 90
       31
 70
   128
 43
0.0
 10
21.7113531
 20
2.486024617
 10
21.694688346
 20
2.4741444751
 10
21.6826664216
 20
2.4605237573
 10
21.6758127233
 20
2.4457577709
 10
21.6744268717
 20
2.4304918115
 10
21.678569337
 20
2.4153931268
 10
21.6880591362
 20
2.4011215681
 10
21.7024814684
 20
2.3883009103
 10
21.7212060493
 20
2.3774914398
 10
21.7434144863
 20
2.3691656047
 10
21.7681361953
 20
2.3636872802
 10
21.7942907182
 20
2.3612958858
 10
21.8207349661
 20
2.3620959409
 10
21.8463132108
 20
2.3660524767
 10
21.8699075425
 20
2.372992586
 10
21.8904868164
 20
2.3826129237
 10
21.9071515358
 20
2.3944930857
 10
21.9191734603
 20
2.4081138035
 10
21.926027124
 20
2.4228798098
 10
21.9274130101
 20
2.4381457492
 10
21.9232705448
 20
2.4532444339
 10
21.9137807802
 20
2.4675159727
 10
21.899358448
 20
2.4803366305
 10
21.8806338671
 20
2.491146101
 10
21.8584254301
 20
2.4994719361
 10
21.8337036866
 20
2.5049502806
 10
21.8075491636
 20
2.5073416749
 10
21.7811048811
 20
2.5065416398
 10
21.7555266711
 20
2.502585084
 10
21.7319323393
 20
2.4956449747
 10
21.7113531
 20
2.486024617
  0
LINE
  5
3E4
330
1F
100
AcDbEntity
  8
0
  6
Continuous
 62
     7
370
    25
100
AcDbLine
 10
21.6609199251
 20
2.423431554
 30
0.0
 11
21.6609670732
 21
2.4255276134
 31
0.0
  0
LWPOLYLINE
  5
3E5
330
1F
100
AcDbEntity
  8
0
  6
Continuous
 62
     7
370
    25
100
AcDbPolyline
 90
       22
 70
   128
 43
0.0
 10
21.7537795101
 20
2.4615323718
 10
21.7419789273
 20
2.4523020017
 10
21.7354155018
 20
2.4414737516
 10
21.7346724851
 20
2.4300097195
 10
21.7398158085
 20
2.4189285849
 10
21.7503885029
 20
2.4092149384
 10
21.7654511485
 20
2.4017318751
 10
21.7836653532
 20
2.3971442975
 10
21.8034126788
 20
2.3958598505
 10
21.822938558
 20
2.3979926222
 10
21.8405079621
 20
2.403353148
 10
21.8545598014
 20
2.4114651022
 10
21.8638455107
 20
2.4216077033
 10
21.86753998
 20
2.4328797534
 10
21.8653150113
 20
2.4442796418
 10
21.8573682328
 20
2.4547944784
 10
21.8444057824
 20
2.4634899586
 10
21.8275794301
 20
2.4695934452
 10
21.808384262
 20
2.4725626226
 10
21.7885258243
 20
2.4721336882
 10
21.7697687126
 20
2.4683447033
 10
21.7537795101
 20
2.4615323718
  0
LWPOLYLINE
  5
3E6
330
1F
100
AcDbEntity
  8
0
  6
Continuous
 62
     7
370
    25
100
AcDbPolyline
 90
        3
 70
   128
 43
0.0
 10
23.181315601
 20
2.5287567718
 10
23.1813600484
 20
2.5305197661
 10
23.1813729514
 20
2.5307596173
  0
LWPOLYLINE
  5
3E7
330
1F
100
AcDbEntity
  8
0
  6
Continuous
 62
     7
370
    25
100
AcDbPolyline
 90
       26
 70
   128
 43
0.0
 10
23.35113373
 20
2.5770626776
 10
23.3329777098
 20
2.5851927403
 10
23.3118897751
 20
2.590460829
 10
23.289194914
 20
2.5925358968
 10
23.2663191001
 20
2.5912875534
 10
23.2446998141
 20
2.5867942948
 10
23.2256953561
 20
2.5793383821
 10
23.210499878
 20
2.5693883171
 10
23.2000681657
 20
2.5575693041
 10
23.1950557432
 20
2.5446239886
 10
23.1957775063
 20
2.5313657715
 10
23.2021880568
 20
2.5186276585
 10
23.2138847406
 20
2.5072101361
 10
23.2301324683
 20
2.4978305226
 10
23.2499103401
 20
2.4910781707
 10
23.2719757813
 20
2.4873774437
 10
23.294942184
 20
2.4869607737
 10
23.3173665579
 20
2.4898543836
 10
23.3378399115
 20
2.4958764805
 10
23.3550757843
 20
2.5046486507
 10
23.3679912076
 20
2.5156196884
 10
23.3757745987
 20
2.528100239
 10
23.3779370273
 20
2.5413061652
 10
23.3743425151
 20
2.5544076297
 10
23.3652169376
 20
2.5665814302
 10
23.35113373
 20
2.5770626776
  0
LWPOLYLINE
  5
3E8
330
1F
100
AcDbEntity
  8
0
  6
Continuous
 62
     7
370
    25
100
AcDbPolyline
 90
       20
 70
   128
 43
0.0
 10
23.247424689
 20
2.5171927226
 10
23.2621598038
 20
2.5111193278
 10
23.2795124689
 20
2.5081369618
 10
23.2976024273
 20
2.5085688983
 10
23.3144692904
 20
2.5123682999
 10
23.3282851912
 20
2.5191234157
 10
23.3375530903
 20
2.5281022745
 10
23.341268595
 20
2.5383318516
 10
23.3390291288
 20
2.548703638
 10
23.331077299
 20
2.5580936488
 10
23.318274848
 20
2.5654843464
 10
23.3020091098
 20
2.5700748401
 10
23.284042702
 20
2.5713676564
 10
23.2663226348
 20
2.5692227412
 10
23.2507691098
 20
2.563872497
 10
23.2390676382
 20
2.5558967472
 10
23.2324861599
 20
2.5461597193
 10
23.2317379427
 20
2.5357166087
 10
23.236904112
 20
2.5256991283
 10
23.247424689
 20
2.5171927226
  0
LINE
  5
3E9
330
1F
100
AcDbEntity
  8
0
  6
Continuous
 62
     7
370
    25
100
AcDbLine
 10
22.6001398402
 20
2.955350953
 30
0.0
 11
22.6001398402
 21
4.108366585
 31
0.0
  0
LINE
  5
3EA
330
1F
100
AcDbEntity
  8
0
  6
Continuous
 62
     7
370
    25
100
AcDbLine
 10
22.2341163086
 20
2.9960804736
 30
0.0
 11
22.2209723133
 21
4.0066633264
 31
0.0
  0
LINE
  5
3EB
330
1F
100
AcDbEntity
  8
0
  6
Continuous
 62
     7
370
    25
100
AcDbLine
 10
22.2209723133
 20
4.0066633264
 30
0.0
 11
22.2204106319
 21
4.0069875781
 31
0.0
  0
LINE
  5
3EC
330
1F
100
AcDbEntity
  8
0
  6
Continuous
 62
     7
370
    25
100
AcDbLine
 10
22.2204106319
 20
4.1570082243
 30
0.0
 11
22.2204106319
 21
4.0069875781
 31
0.0
  0
LINE
  5
3ED
330
1F
100
AcDbEntity
  8
0
  6
Continuous
 62
     7
370
    25
100
AcDbLine
 10
22.6843914318
 20
4.1570082243
 30
0.0
 11
22.6843914318
 21
4.0069875781
 31
0.0
  0
LINE
  5
3EE
330
1F
100
AcDbEntity
  8
0
  6
Continuous
 62
     7
370
    25
100
AcDbLine
 10
22.6838298195
 20
4.0066633663
 30
0.0
 11
22.6843914318
 21
4.0069875781
 31
0.0
  0
LINE
  5
3EF
330
1F
100
AcDbEntity
  8
0
  6
Continuous
 62
     7
370
    25
100
AcDbLine
 10
22.6838298195
 20
4.0066633663
 30
0.0
 11
22.6706897652
 21
2.9960820701
 31
0.0
  0
LWPOLYLINE
  5
3F0
330
1F
100
AcDbEntity
  8
0
  6
Continuous
 62
     7
370
    25
100
AcDbPolyline
 90
        3
 70
   128
 43
0.0
 10
22.2055082364
 20
2.926891805
 10
22.2055526233
 20
2.9286547545
 10
22.2055656214
 20
2.9288946305
  0
LWPOLYLINE
  5
3F1
330
1F
100
AcDbEntity
  8
0
  6
Continuous
 62
     7
370
    25
100
AcDbPolyline
 90
       26
 70
   128
 43
0.0
 10
22.3753263654
 20
2.9751977109
 10
22.3571703798
 20
2.9833277536
 10
22.3360824364
 20
2.9885958473
 10
22.3133875753
 20
2.990670915
 10
22.2905117787
 20
2.9894225616
 10
22.2688924366
 20
2.9849293355
 10
22.2498879829
 20
2.9774734204
 10
22.2346925091
 20
2.9675233528
 10
22.2242608184
 20
2.9557043273
 10
22.2192484132
 20
2.9427590019
 10
22.2199701503
 20
2.9295007998
 10
22.2263806749
 20
2.9167627017
 10
22.2380773933
 20
2.9053451593
 10
22.2543250864
 20
2.8959655658
 10
22.2741029929
 20
2.889213194
 10
22.2961684168
 20
2.8855124769
 10
22.319134854
 20
2.885095787
 10
22.341559176
 20
2.8879894269
 10
22.362032547
 20
2.8940115137
 10
22.379268437
 20
2.902783674
 10
22.3921838603
 20
2.9137547116
 10
22.3999672687
 20
2.9262352522
 10
22.4021296454
 20
2.9394412084
 10
22.3985351332
 20
2.9525426729
 10
22.3894096076
 20
2.9647164435
 10
22.3753263654
 20
2.9751977109
  0
LWPOLYLINE
  5
3F2
330
1F
100
AcDbEntity
  8
0
  6
Continuous
 62
     7
370
    25
100
AcDbPolyline
 90
       20
 70
   128
 43
0.0
 10
22.2716173244
 20
2.9153277558
 10
22.2863524738
 20
2.9092543411
 10
22.3037051389
 20
2.906271975
 10
22.3217950973
 20
2.9067039116
 10
22.3386619259
 20
2.9105033331
 10
22.3524778094
 20
2.9172584589
 10
22.3617457603
 20
2.9262372878
 10
22.365461265
 20
2.9364668648
 10
22.3632217988
 20
2.9468386513
 10
22.355269969
 20
2.9562286621
 10
22.342467518
 20
2.9636193597
 10
22.3262017798
 20
2.9682098534
 10
22.308235372
 20
2.9695026697
 10
22.2905153048
 20
2.9673577545
 10
22.2749617626
 20
2.9620075202
 10
22.2632602736
 20
2.9540317804
 10
22.2566788386
 20
2.9442947276
 10
22.2559306214
 20
2.9338516169
 10
22.2610967907
 20
2.9238341366
 10
22.2716173244
 20
2.9153277558
  0
LWPOLYLINE
  5
3F3
330
1F
100
AcDbEntity
  8
0
  6
Continuous
 62
     8
370
    25
100
AcDbPolyline
 90
        7
 70
   128
 43
0.0
 10
24.6475588638
 20
5.7883461078
 10
24.6509261177
 20
5.781898231
 10
24.655105127
 20
5.757475893
 10
24.6509244583
 20
5.7330565884
 10
24.6386554112
 20
5.7095667737
 10
24.6185584995
 20
5.6879351405
 10
24.5915885957
 20
5.6689560736
  0
LWPOLYLINE
  5
3F4
330
1F
100
AcDbEntity
  8
0
  6
Continuous
 62
     8
370
    25
100
AcDbPolyline
 90
        7
 70
   128
 43
0.0
 10
20.3132232857
 20
5.6689525613
 10
20.2862496484
 20
5.6879332247
 10
20.2661469291
 20
5.7095708448
 10
20.2538758769
 20
5.7330681233
 10
20.2496967984
 20
5.7574905011
 10
20.2538775363
 20
5.7819097658
 10
20.257242716
 20
5.7883526934
  0
ARC
  5
3F5
330
1F
100
AcDbEntity
  8
0
  6
Continuous
 62
     8
370
    25
100
AcDbCircle
 10
20.3316850566
 20
6.0350592978
 30
0.0
 40
0.0689339797054798
100
AcDbArc
 50
177.288074775
 51
219.0438948036
  0
LWPOLYLINE
  5
3F6
330
1F
100
AcDbEntity
  8
0
  6
Continuous
 62
     8
370
    25
100
AcDbPolyline
 90
        4
 70
   128
 43
0.0
 10
20.3331132658
 20
6.1431969737
 10
20.3334149863
 20
6.1435321645
 10
20.3453771275
 20
6.145726414
 10
20.3594322304
 20
6.1408043642
  0
LWPOLYLINE
  5
3F7
330
1F
100
AcDbEntity
  8
0
  6
Continuous
 62
     8
370
    25
100
AcDbPolyline
 90
        4
 70
   128
 43
0.0
 10
24.5453622281
 20
6.1408065993
 10
24.5594169161
 20
6.1457288886
 10
24.5713786425
 20
6.1435348786
 10
24.5716785655
 20
6.1432018436
  0
ARC
  5
3F8
330
1F
100
AcDbEntity
  8
0
  6
Continuous
 62
     8
370
    25
100
AcDbCircle
 10
24.5481973448
 20
6.0408840045
 30
0.0
 40
0.0938052539726306
100
AcDbArc
 50
291.4390986331
 51
358.4479335024
  0
LWPOLYLINE
  5
3F9
330
1F
100
AcDbEntity
  8
0
  6
Continuous
 62
     8
370
    25
100
AcDbPolyline
 90
        4
 70
   128
 43
0.0
 10
22.3452664532
 20
7.2872020593
 10
22.3312117652
 20
7.2921243485
 10
22.3192500388
 20
7.2899303385
 10
22.3190718688
 20
7.2897326813
  0
LWPOLYLINE
  5
3FA
330
1F
100
AcDbEntity
  8
0
  6
Continuous
 62
     8
370
    25
100
AcDbPolyline
 90
        4
 70
   128
 43
0.0
 10
22.5857358643
 20
7.2897271733
 10
22.5855577634
 20
7.2899248705
 10
22.5735961753
 20
7.2921188006
 10
22.5595416947
 20
7.2871963917
  0
LWPOLYLINE
  5
3FB
330
1F
100
AcDbEntity
  8
0
  6
Continuous
 62
     8
370
    25
100
AcDbPolyline
 90
        6
 70
   128
 43
0.0
 10
20.3039562336
 20
5.6534501273
 10
20.2753224418
 20
5.6735511437
 10
20.2540757564
 20
5.6964717217
 10
20.2410008305
 20
5.721406221
 10
20.2365975358
 20
5.7473277644
 10
20.2374374998
 20
5.7522761165
  0
ARC
  5
3FC
330
1F
100
AcDbEntity
  8
0
  6
Continuous
 62
     8
370
    25
100
AcDbCircle
 10
24.5623858855
 20
5.751000966
 30
0.0
 40
0.1048589423361149
100
AcDbArc
 50
291.5226438996
 51
1.0894621794
  0
LINE
  5
3FD
330
1F
100
AcDbEntity
  8
0
  6
Continuous
 62
     8
370
    25
100
AcDbLine
 10
22.3041836467
 20
1.6594419361
 30
0.0
 11
22.320109569
 21
0.6144648305
 31
0.0
  0
LINE
  5
3FE
330
1F
100
AcDbEntity
  8
0
  6
Continuous
 62
     8
370
    25
100
AcDbLine
 10
22.5846872402
 20
0.6144596418
 30
0.0
 11
22.6006113649
 21
1.6593509208
 31
0.0
  0
LINE
  5
3FF
330
1F
100
AcDbEntity
  8
0
  6
Continuous
 62
     8
370
    25
100
AcDbLine
 10
24.5705221544
 20
1.760857736
 30
0.0
 11
24.5864110185
 21
2.8033402003
 31
0.0
  0
LINE
  5
400
330
1F
100
AcDbEntity
  8
0
  6
Continuous
 62
     8
370
    25
100
AcDbLine
 10
20.3342888282
 20
1.7608547425
 30
0.0
 11
20.3184003098
 21
2.8033370073
 31
0.0
  0
LINE
  5
401
330
1F
100
AcDbEntity
  8
0
  6
Continuous
 62
     8
370
    25
100
AcDbLine
 10
20.5500795864
 20
2.9248962222
 30
0.0
 11
20.5500795864
 21
2.8820401663
 31
0.0
  0
LINE
  5
402
330
1F
100
AcDbEntity
  8
0
  6
Continuous
 62
     8
370
    25
100
AcDbLine
 10
24.3547224774
 20
2.9248962222
 30
0.0
 11
24.3547224774
 21
2.8820401663
 31
0.0
  0
LINE
  5
403
330
1F
100
AcDbEntity
  8
0
  6
Continuous
 62
     8
370
    25
100
AcDbLine
 10
24.2704634879
 20
2.8333985624
 30
0.0
 11
24.2704634879
 21
2.9735379015
 31
0.0
  0
LINE
  5
404
330
1F
100
AcDbEntity
  8
0
  6
Continuous
 62
     8
370
    25
100
AcDbLine
 10
20.6343385067
 20
2.9735336308
 30
0.0
 11
20.6343385067
 21
2.8333985631
 31
0.0
  0
LINE
  5
405
330
1F
100
AcDbEntity
  8
0
  6
Continuous
 62
     8
370
    25
100
AcDbLine
 10
20.5500795864
 20
3.2356027125
 30
0.0
 11
20.5500795864
 21
3.1927466566
 31
0.0
  0
LINE
  5
406
330
1F
100
AcDbEntity
  8
0
  6
Continuous
 62
     8
370
    25
100
AcDbLine
 10
24.3547224082
 20
3.2356027524
 30
0.0
 11
24.3547224082
 21
3.1927466965
 31
0.0
  0
LWPOLYLINE
  5
407
330
1F
100
AcDbEntity
  8
0
  6
Continuous
 62
     8
370
    25
100
AcDbPolyline
 90
       18
 70
   128
 43
0.0
 10
21.9409075637
 20
2.4223561179
 10
21.9405157513
 20
2.4172946105
 10
21.9355182757
 20
2.401198205
 10
21.9250103468
 20
2.3860120264
 10
21.9094221532
 20
2.3723578018
 10
21.8893918479
 20
2.3607945526
 10
21.8657394743
 20
2.35179568
 10
21.8394333911
 20
2.3457295818
 10
21.8115505777
 20
2.3428446005
 10
21.7832325503
 20
2.3432588607
 10
21.755638628
 20
2.3469554019
 10
21.7298985516
 20
2.3537828847
 10
21.7070660617
 20
2.3634617995
 10
21.688076006
 20
2.3755958668
 10
21.6737057439
 20
2.3896883517
 10
21.6645436959
 20
2.4051622644
 10
21.660964904
 20
2.4213841284
 10
21.6609199251
 20
2.423431554
  0
LWPOLYLINE
  5
408
330
1F
100
AcDbEntity
  8
0
  6
Continuous
 62
     8
370
    25
100
AcDbPolyline
 90
       15
 70
   128
 43
0.0
 10
23.3913109082
 20
2.5293267968
 10
23.3902069387
 20
2.5199716897
 10
23.3838971144
 20
2.506377282
 10
23.3723265911
 20
2.4939893291
 10
23.3561191885
 20
2.4834757025
 10
23.3361486448
 20
2.475403184
 10
23.3134916025
 20
2.4702069734
 10
23.2893695147
 20
2.4681672285
 10
23.2650827735
 20
2.4693938493
 10
23.2419407071
 20
2.4738207503
 10
23.2211908598
 20
2.4812092477
 10
23.2039519449
 20
2.4911610615
 10
23.1911533053
 20
2.5031396933
 10
23.1834848569
 20
2.5164993239
 10
23.181315601
 20
2.5287567718
  0
LINE
  5
409
330
1F
100
AcDbEntity
  8
0
  6
Continuous
 62
     8
370
    25
100
AcDbLine
 10
22.3046695523
 20
4.108366585
 30
0.0
 11
22.3046695523
 21
2.9928579408
 31
0.0
  0
LWPOLYLINE
  5
40A
330
1F
100
AcDbEntity
  8
0
  6
Continuous
 62
     8
370
    25
100
AcDbPolyline
 90
       15
 70
   128
 43
0.0
 10
22.4155035955
 20
2.9274618001
 10
22.4143995914
 20
2.918106713
 10
22.4080896634
 20
2.9045122853
 10
22.3965192611
 20
2.8921243424
 10
22.3803118066
 20
2.8816107457
 10
22.3603412802
 20
2.8735382173
 10
22.3376842379
 20
2.8683420066
 10
22.313562081
 20
2.8663022218
 10
22.2892754435
 20
2.8675288626
 10
22.2661332561
 20
2.8719557536
 10
22.2453835385
 20
2.879344256
 10
22.2281446063
 20
2.8892960797
 10
22.2153458888
 20
2.9012746767
 10
22.2076775269
 20
2.9146343372
 10
22.2055082364
 20
2.926891805
  0
LINE
  5
40B
330
1F
100
AcDbEntity
  8
0
  6
Continuous
 62
     7
370
    25
100
AcDbLine
 10
15.5935870265
 20
7.9732629241
 30
0.0
 11
15.6089633823
 21
7.9686171645
 31
0.0
  0
ARC
  5
40C
330
1F
100
AcDbEntity
  8
0
  6
Continuous
 62
     7
370
    25
100
AcDbCircle
 10
15.7295581479
 20
8.3015931174
 30
0.0
 40
0.3553714418264576
100
AcDbArc
 50
213.7764172751
 51
247.5041257071
  0
LINE
  5
40D
330
1F
100
AcDbEntity
  8
0
  6
Continuous
 62
     7
370
    25
100
AcDbLine
 10
15.3744983041
 20
12.5134541688
 30
0.0
 11
15.3744983041
 21
8.3008557131
 31
0.0
  0
ARC
  5
40E
330
1F
100
AcDbEntity
  8
0
  6
Continuous
 62
     7
370
    25
100
AcDbCircle
 10
15.7286523045
 20
12.5136269126
 30
0.0
 40
0.3541540424495043
100
AcDbArc
 50
89.968709257
 51
180.0279468563
  0
LINE
  5
40F
330
1F
100
AcDbEntity
  8
0
  6
Continuous
 62
     7
370
    25
100
AcDbLine
 10
19.9414105868
 20
12.8677809022
 30
0.0
 11
15.7288457174
 21
12.8677809022
 31
0.0
  0
LINE
  5
410
330
1F
100
AcDbEntity
  8
0
  6
Continuous
 62
     7
370
    25
100
AcDbLine
 10
20.068525705
 20
12.8435074093
 30
0.0
 11
20.0130190262
 21
12.8602776689
 31
0.0
  0
ARC
  5
411
330
1F
100
AcDbEntity
  8
0
  6
Continuous
 62
     7
370
    25
100
AcDbCircle
 10
19.9859435375
 20
12.5574784354
 30
0.0
 40
0.2930216593091375
100
AcDbArc
 50
31.0402410038
 51
58.3417882017
  0
LWPOLYLINE
  5
412
330
1F
100
AcDbEntity
  8
0
  6
Continuous
 62
     7
370
    25
100
AcDbPolyline
 90
        3
 70
   128
 43
0.0
 10
20.0914929997
 20
12.8331458224
 10
20.0769445678
 20
12.8409329991
 10
20.0766694243
 20
12.8410469577
  0
LINE
  5
413
330
1F
100
AcDbEntity
  8
0
  6
Continuous
 62
     7
370
    25
100
AcDbLine
 10
20.2957581467
 20
8.3008557131
 30
0.0
 11
20.2957581467
 21
12.5134541688
 31
0.0
  0
ARC
  5
414
330
1F
100
AcDbEntity
  8
0
  6
Continuous
 62
     7
370
    25
100
AcDbCircle
 10
19.9416039155
 20
8.3006832
 30
0.0
 40
0.3541542731469028
100
AcDbArc
 50
269.9687228905
 51
0.027909508
  0
LINE
  5
415
330
1F
100
AcDbEntity
  8
0
  6
Continuous
 62
     7
370
    25
100
AcDbLine
 10
15.7288457174
 20
7.9465289796
 30
0.0
 11
19.9414105868
 21
7.9465289796
 31
0.0
  0
CIRCLE
  5
416
330
1F
100
AcDbEntity
  8
0
  6
Continuous
 62
     7
370
    25
100
AcDbCircle
 10
19.9020572899
 20
12.4740840748
 30
0.0
 40
0.0820000000000025
  0
CIRCLE
  5
417
330
1F
100
AcDbEntity
  8
0
  6
Continuous
 62
     7
370
    25
100
AcDbCircle
 10
15.7681990222
 20
8.3402258071
 30
0.0
 40
0.0820000000000007
  0
CIRCLE
  5
418
330
1F
100
AcDbEntity
  8
0
  6
Continuous
 62
     7
370
    25
100
AcDbCircle
 10
19.9020572899
 20
8.3402258071
 30
0.0
 40
0.0820000000000007
  0
CIRCLE
  5
419
330
1F
100
AcDbEntity
  8
0
  6
Continuous
 62
     7
370
    25
100
AcDbCircle
 10
15.7681990222
 20
12.4740840748
 30
0.0
 40
0.0819999999997219
  0
CIRCLE
  5
41A
330
1F
100
AcDbEntity
  8
0
  6
Continuous
 62
     7
370
    25
100
AcDbCircle
 10
19.9020572899
 20
12.4740840748
 30
0.0
 40
0.2165354330680351
  0
CIRCLE
  5
41B
330
1F
100
AcDbEntity
  8
0
  6
Continuous
 62
     7
370
    25
100
AcDbCircle
 10
15.7681990222
 20
8.3402258071
 30
0.0
 40
0.2165354330680369
  0
CIRCLE
  5
41C
330
1F
100
AcDbEntity
  8
0
  6
Continuous
 62
     7
370
    25
100
AcDbCircle
 10
19.9020572899
 20
8.3402258071
 30
0.0
 40
0.2165354330680369
  0
CIRCLE
  5
41D
330
1F
100
AcDbEntity
  8
0
  6
Continuous
 62
     7
370
    25
100
AcDbCircle
 10
15.7681990222
 20
12.4740840748
 30
0.0
 40
0.2165354330680351
  0
CIRCLE
  5
41E
330
1F
100
AcDbEntity
  8
0
  6
Continuous
 62
     7
370
    25
100
AcDbCircle
 10
17.835128156
 20
8.6381549409
 30
0.0
 40
0.1575000000000006
  0
CIRCLE
  5
41F
330
1F
100
AcDbEntity
  8
0
  6
Continuous
 62
     7
370
    25
100
AcDbCircle
 10
17.835128156
 20
11.7851076968
 30
0.0
 40
0.197000000000001
  0
CIRCLE
  5
420
330
1F
100
AcDbEntity
  8
0
  6
Continuous
 62
     7
370
    25
100
AcDbCircle
 10
17.835128156
 20
9.029202185
 30
0.0
 40
0.197000000000001
  0
CIRCLE
  5
421
330
1F
100
AcDbEntity
  8
0
  6
Continuous
 62
     7
370
    25
100
AcDbCircle
 10
19.601628156
 20
8.9416549409
 30
0.0
 40
0.1574999999999989
  0
CIRCLE
  5
422
330
1F
100
AcDbEntity
  8
0
  6
Continuous
 62
     7
370
    25
100
AcDbCircle
 10
16.068628156
 20
8.9416549409
 30
0.0
 40
0.1574999999999989
  0
CIRCLE
  5
423
330
1F
100
AcDbEntity
  8
0
  6
Continuous
 62
     7
370
    25
100
AcDbCircle
 10
19.217128156
 20
10.4071549409
 30
0.0
 40
0.1969999999999992
  0
CIRCLE
  5
424
330
1F
100
AcDbEntity
  8
0
  6
Continuous
 62
     7
370
    25
100
AcDbCircle
 10
16.453128156
 20
10.4071549409
 30
0.0
 40
0.1969999999999992
  0
CIRCLE
  5
425
330
1F
100
AcDbEntity
  8
0
  6
Continuous
 62
     7
370
    25
100
AcDbCircle
 10
19.601628156
 20
11.8726549409
 30
0.0
 40
0.1575000000000006
  0
CIRCLE
  5
426
330
1F
100
AcDbEntity
  8
0
  6
Continuous
 62
     7
370
    25
100
AcDbCircle
 10
16.068628156
 20
11.8726549409
 30
0.0
 40
0.1575000000000006
  0
CIRCLE
  5
427
330
1F
100
AcDbEntity
  8
0
  6
Continuous
 62
     7
370
    25
100
AcDbCircle
 10
17.835128156
 20
12.1761549409
 30
0.0
 40
0.1575000000000024
  0
LINE
  5
428
330
1F
100
AcDbEntity
  8
0
  6
Continuous
 62
     7
370
    25
100
AcDbLine
 10
19.9414091201
 20
8.0202414748
 30
0.0
 11
15.728847184
 21
8.0202414748
 31
0.0
  0
ARC
  5
429
330
1F
100
AcDbEntity
  8
0
  6
Continuous
 62
     7
370
    25
100
AcDbCircle
 10
15.728703493
 20
8.300734306
 30
0.0
 40
0.2804928680260201
100
AcDbArc
 50
179.9745412889
 51
270.0293515187
  0
LINE
  5
42A
330
1F
100
AcDbEntity
  8
0
  6
Continuous
 62
     7
370
    25
100
AcDbLine
 10
15.4482106526
 20
8.3008589397
 30
0.0
 11
15.4482106526
 21
12.5134509422
 31
0.0
  0
ARC
  5
42B
330
1F
100
AcDbEntity
  8
0
  6
Continuous
 62
     7
370
    25
100
AcDbCircle
 10
15.7287894366
 20
12.5134896264
 30
0.0
 40
0.2805787866492465
100
AcDbArc
 50
89.9882076505
 51
180.0078995419
  0
LINE
  5
42C
330
1F
100
AcDbEntity
  8
0
  6
Continuous
 62
     7
370
    25
100
AcDbLine
 10
15.728847184
 20
12.7940684071
 30
0.0
 11
19.9414091201
 21
12.7940684071
 31
0.0
  0
ARC
  5
42D
330
1F
100
AcDbEntity
  8
0
  6
Continuous
 62
     7
370
    25
100
AcDbCircle
 10
19.9414328029
 20
12.5133489323
 30
0.0
 40
0.2807194758208034
100
AcDbArc
 50
22.45498088
 51
90.0048337336
  0
ARC
  5
42E
330
1F
100
AcDbEntity
  8
0
  6
Continuous
 62
     7
370
    25
100
AcDbCircle
 10
19.9418273906
 20
12.5137066491
 30
0.0
 40
0.2802182309282422
100
AcDbArc
 50
359.9477159899
 51
22.418201292
  0
LINE
  5
42F
330
1F
100
AcDbEntity
  8
0
  6
Continuous
 62
     7
370
    25
100
AcDbLine
 10
20.2220455049
 20
12.5134509422
 30
0.0
 11
20.2220455049
 21
8.3008589397
 31
0.0
  0
ARC
  5
430
330
1F
100
AcDbEntity
  8
0
  6
Continuous
 62
     7
370
    25
100
AcDbCircle
 10
19.9414670432
 20
8.3008199332
 30
0.0
 40
0.2805784643941879
100
AcDbArc
 50
269.9881717713
 51
0.0079653647
  0
CIRCLE
  5
431
330
1F
100
AcDbEntity
  8
0
  6
Continuous
 62
     7
370
    25
100
AcDbCircle
 10
17.835128156
 20
10.4071549409
 30
0.0
 40
0.3149606299212593
  0
ARC
  5
432
330
1F
100
AcDbEntity
  8
0
  6
Continuous
 62
     7
370
    25
100
AcDbCircle
 10
19.9414891429
 20
8.3007978324
 30
0.0
 40
0.3148988508746944
100
AcDbArc
 50
269.9855733007
 51
0.0108516093
  0
LINE
  5
433
330
1F
100
AcDbEntity
  8
0
  6
Continuous
 62
     7
370
    25
100
AcDbLine
 10
20.2563879881
 20
12.5134524088
 30
0.0
 11
20.2563879881
 21
8.3008574731
 31
0.0
  0
ARC
  5
434
330
1F
100
AcDbEntity
  8
0
  6
Continuous
 62
     7
370
    25
100
AcDbCircle
 10
19.9424835368
 20
12.5138594701
 30
0.0
 40
0.3139047152454978
100
AcDbArc
 50
359.9257006946
 51
22.4400697026
  0
ARC
  5
435
330
1F
100
AcDbEntity
  8
0
  6
Continuous
 62
     7
370
    25
100
AcDbCircle
 10
19.9414357264
 20
12.5133390389
 30
0.0
 40
0.3150718525428223
100
AcDbArc
 50
22.454809892
 51
90.004704991
  0
LINE
  5
436
330
1F
100
AcDbEntity
  8
0
  6
Continuous
 62
     7
370
    25
100
AcDbLine
 10
19.9414098535
 20
7.9858989915
 30
0.0
 11
15.7288464507
 21
7.9858989915
 31
0.0
  0
LINE
  5
437
330
1F
100
AcDbEntity
  8
0
  6
Continuous
 62
     7
370
    25
100
AcDbLine
 10
15.7288464507
 20
12.8284108904
 30
0.0
 11
19.9414098535
 21
12.8284108904
 31
0.0
  0
CIRCLE
  5
438
330
1F
100
AcDbEntity
  8
0
  6
Continuous
 62
     7
370
    25
100
AcDbCircle
 10
17.835128156
 20
10.4071549409
 30
0.0
 40
0.1325000000000003
  0
ARC
  5
439
330
1F
100
AcDbEntity
  8
0
  6
Continuous
 62
     7
370
    25
100
AcDbCircle
 10
15.7287434579
 20
8.3007742742
 30
0.0
 40
0.3148752995277584
100
AcDbArc
 50
179.9848608473
 51
270.0187409217
  0
ARC
  5
43A
330
1F
100
AcDbEntity
  8
0
  6
Continuous
 62
     7
370
    25
100
AcDbCircle
 10
15.728767489
 20
12.513511575
 30
0.0
 40
0.3148993252633091
100
AcDbArc
 50
89.9856329679
 51
180.0107652632
  0
LINE
  5
43B
330
1F
100
AcDbEntity
  8
0
  6
Continuous
 62
     7
370
    25
100
AcDbLine
 10
15.4138681693
 20
8.3008574731
 30
0.0
 11
15.4138681693
 21
12.5134524088
 31
0.0
  0
LINE
  5
43C
330
1F
100
AcDbEntity
  8
0
  6
Continuous
 62
     7
370
    25
100
AcDbLine
 10
15.7288457174
 20
12.8643749016
 30
0.0
 11
19.9414105868
 21
12.8643749016
 31
0.0
  0
ARC
  5
43D
330
1F
100
AcDbEntity
  8
0
  6
Continuous
 62
     7
370
    25
100
AcDbCircle
 10
19.9416470127
 20
12.5136699282
 30
0.0
 40
0.3507050530995973
100
AcDbArc
 50
359.9647267509
 51
90.0386256439
  0
LINE
  5
43E
330
1F
100
AcDbEntity
  8
0
  6
Continuous
 62
     7
370
    25
100
AcDbLine
 10
20.2923519993
 20
12.5134540221
 30
0.0
 11
20.2923519993
 21
8.3008558598
 31
0.0
  0
ARC
  5
43F
330
1F
100
AcDbEntity
  8
0
  6
Continuous
 62
     7
370
    25
100
AcDbCircle
 10
19.9416404311
 20
8.3006465357
 30
0.0
 40
0.3507116307392266
100
AcDbArc
 50
269.9624503222
 51
0.034197283
  0
LINE
  5
440
330
1F
100
AcDbEntity
  8
0
  6
Continuous
 62
     7
370
    25
100
AcDbLine
 10
19.9414105868
 20
7.9499349803
 30
0.0
 11
15.7288457174
 21
7.9499349803
 31
0.0
  0
ARC
  5
441
330
1F
100
AcDbEntity
  8
0
  6
Continuous
 62
     7
370
    25
100
AcDbCircle
 10
15.7286027556
 20
8.3006335641
 30
0.0
 40
0.3506986679561293
100
AcDbArc
 50
179.9636821986
 51
270.0396941412
  0
LINE
  5
442
330
1F
100
AcDbEntity
  8
0
  6
Continuous
 62
     7
370
    25
100
AcDbLine
 10
15.3779041581
 20
8.3008558598
 30
0.0
 11
15.3779041581
 21
12.5134540221
 31
0.0
  0
ARC
  5
443
330
1F
100
AcDbEntity
  8
0
  6
Continuous
 62
     7
370
    25
100
AcDbCircle
 10
15.7287018442
 20
12.5135772234
 30
0.0
 40
0.3507977077261326
100
AcDbArc
 50
89.9765012044
 51
180.0201224558
  0
ARC
  5
444
330
1F
100
AcDbEntity
  8
0
  6
Continuous
 62
     7
370
    25
100
AcDbCircle
 10
19.9416489867
 20
12.5136717556
 30
0.0
 40
0.3541092268948889
100
AcDbArc
 50
359.9647701642
 51
90.0385737211
  0
ARC
  5
445
330
1F
100
AcDbEntity
  8
0
  6
Continuous
 62
     7
370
    25
100
AcDbCircle
 10
19.9416431181
 20
8.3006439951
 30
0.0
 40
0.3541150918350132
100
AcDbArc
 50
269.9623764549
 51
0.0342559435
  0
LINE
  5
446
330
1F
100
AcDbEntity
  8
0
  6
Continuous
 62
     7
370
    25
100
AcDbLine
 10
20.2957581467
 20
12.5134540221
 30
0.0
 11
20.2957581467
 21
8.3008557131
 31
0.0
  0
ARC
  5
447
330
1F
100
AcDbEntity
  8
0
  6
Continuous
 62
     7
370
    25
100
AcDbCircle
 10
15.7285998927
 20
8.3006305545
 30
0.0
 40
0.3541016601926431
100
AcDbArc
 50
179.9635442515
 51
270.039775919
  0
ARC
  5
448
330
1F
100
AcDbEntity
  8
0
  6
Continuous
 62
     7
370
    25
100
AcDbCircle
 10
15.7286999621
 20
12.5135792522
 30
0.0
 40
0.3542016800457911
100
AcDbArc
 50
89.9764225816
 51
180.0202335317
  0
LINE
  5
449
330
1F
100
AcDbEntity
  8
0
  6
Continuous
 62
     7
370
    25
100
AcDbLine
 10
15.3744983041
 20
8.3008558598
 30
0.0
 11
15.3744983041
 21
12.5134541688
 31
0.0
  0
LINE
  5
44A
330
1F
100
AcDbEntity
  8
0
  6
CENTERX2
 62
     7
370
    18
100
AcDbLine
 10
15.3744982348
 20
10.4071549352
 30
0.0
 11
20.2957580786
 21
10.4071549352
 31
0.0
  0
LINE
  5
44B
330
1F
100
AcDbEntity
  8
0
  6
CENTERX2
 62
     7
370
    18
100
AcDbLine
 10
17.8351281273
 20
12.8677809252
 30
0.0
 11
17.8351281273
 21
7.9465289567
 31
0.0
  0
DIMENSION
  5
44C
330
1F
100
AcDbEntity
  8
0
  6
Continuous
 62
     7
370
    18
100
AcDbDimension
  2
_D_11
 10
19.601628156
 20
13.3998527491
 30
0.0
 11
17.835128156
 21
13.3998527491
 31
0.0
 70
   160
  1
<>
 71
     2
 42
-1.0
  3
SLDDIMSTYLE0
100
AcDbAlignedDimension
 13
16.068628156
 23
11.8726549409
 33
0.0
 14
19.601628156
 24
11.8726549409
 34
0.0
100
AcDbRotatedDimension
  0
DIMENSION
  5
460
330
1F
100
AcDbEntity
  8
0
  6
Continuous
 62
     7
370
    18
100
AcDbDimension
  2
_D_12
 10
19.217128156
 20
7.4952757333
 30
0.0
 11
17.835128156
 21
7.4952757333
 31
0.0
 70
   160
  1
<>
 71
     2
 42
-1.0
  3
SLDDIMSTYLE0
100
AcDbAlignedDimension
 13
16.453128156
 23
10.4071549409
 33
0.0
 14
19.217128156
 24
10.4071549409
 34
0.0
100
AcDbRotatedDimension
  0
DIMENSION
  5
474
330
1F
100
AcDbEntity
  8
0
  6
Continuous
 62
     7
370
    18
100
AcDbDimension
  2
_D_13
 10
20.9029983686
 20
11.8726549409
 30
0.0
 11
20.9029983686
 21
10.4071549409
 31
0.0
 70
   160
  1
<>
 71
     2
 42
-1.0
  3
SLDDIMSTYLE0
100
AcDbAlignedDimension
 13
19.601628156
 23
8.9416549409
 33
0.0
 14
19.601628156
 24
11.8726549409
 34
0.0
 50
90.0
100
AcDbRotatedDimension
  0
DIMENSION
  5
488
330
1F
100
AcDbEntity
  8
0
  6
Continuous
 62
     7
370
    18
100
AcDbDimension
  2
_D_14
 10
14.8656102358
 20
11.7851076968
 30
0.0
 11
14.8656102358
 21
10.4071549409
 31
0.0
 70
   160
  1
<>
 71
     2
 42
-1.0
  3
SLDDIMSTYLE0
100
AcDbAlignedDimension
 13
17.835128156
 23
9.029202185
 33
0.0
 14
17.835128156
 24
11.7851076968
 34
0.0
 50
90.0
100
AcDbRotatedDimension
  0
DIMENSION
  5
49C
330
1F
100
AcDbEntity
  8
0
  6
Continuous
 62
     7
370
    18
100
AcDbDimension
  2
_D_15
 10
14.0549696265
 20
12.1761549409
 30
0.0
 11
14.0549696265
 21
10.4071549409
 31
0.0
 70
   160
  1
<>
 71
     2
 42
-1.0
  3
SLDDIMSTYLE0
100
AcDbAlignedDimension
 13
17.835128156
 23
8.6381549409
 33
0.0
 14
17.835128156
 24
12.1761549409
 34
0.0
 50
90.0
100
AcDbRotatedDimension
  0
DIMENSION
  5
4B0
330
1F
100
AcDbEntity
  8
0
  6
Continuous
 62
     7
370
    18
100
AcDbDimension
  2
_D_16
 10
17.9325757454
 20
12.052420478
 30
0.0
 11
15.7545742911
 21
13.9517940759
 31
0.0
 70
   163
  1
<> 6X
 71
     1
 42
-1.0
  3
SLDDIMSTYLE1
100
AcDbDiametricDimension
 15
17.7376805666
 25
12.2998894039
 35
0.0
 40
0.0
  0
DIMENSION
  5
4C1
330
1F
100
AcDbEntity
  8
0
  6
Continuous
 62
     7
370
    18
100
AcDbDimension
  2
_D_17
 10
19.1136608593
 20
10.2395139003
 30
0.0
 11
21.5021830881
 21
13.0042461668
 31
0.0
 70
   163
  1
<> 4X
 71
     1
 42
-1.0
  3
SLDDIMSTYLE1
100
AcDbDiametricDimension
 15
19.3205954528
 25
10.5747959816
 35
0.0
 40
0.0
  0
DIMENSION
  5
4D2
330
1F
100
AcDbEntity
  8
0
  6
Continuous
 62
     7
370
    18
100
AcDbDimension
  2
_D_18
 10
15.8282322004
 20
12.4182269578
 30
0.0
 11
14.2877276408
 21
13.2168797172
 31
0.0
 70
   163
  1
<> 4X
 71
     1
 42
-1.0
  3
SLDDIMSTYLE1
100
AcDbDiametricDimension
 15
15.708165844
 25
12.5299411918
 35
0.0
 40
0.0
  0
DIMENSION
  5
4E3
330
1F
100
AcDbEntity
  8
0
  6
Continuous
 62
     7
370
    18
100
AcDbDimension
  2
_D_19
 10
19.9020572899
 20
6.7845659494
 30
0.0
 11
17.835128156
 21
6.7845659494
 31
0.0
 70
   160
  1
<>
 71
     2
 42
-1.0
  3
SLDDIMSTYLE0
100
AcDbAlignedDimension
 13
15.7681990222
 23
8.1024305315
 33
0.0
 14
19.9020572899
 24
8.1024305315
 34
0.0
100
AcDbRotatedDimension
  0
DIMENSION
  5
4F7
330
1F
100
AcDbEntity
  8
0
  6
Continuous
 62
     7
370
    18
100
AcDbDimension
  2
_D_20
 10
21.768783622
 20
8.3402258071
 30
0.0
 11
21.768783622
 21
10.4071549409
 31
0.0
 70
   160
  1
<>
 71
     2
 42
-1.0
  3
SLDDIMSTYLE0
100
AcDbAlignedDimension
 13
19.9020572899
 23
12.4740840748
 33
0.0
 14
19.9020572899
 24
8.3402258071
 34
0.0
 50
90.0
100
AcDbRotatedDimension
  0
INSERT
  5
516
330
1F
100
AcDbEntity
  8
0
  6
Continuous
 62
     7
370
    18
100
AcDbBlockReference
  2
SW_CENTERMARKSYMBOL_12
 10
15.7681990222
 20
8.3402258071
 30
0.0
  0
INSERT
  5
522
330
1F
100
AcDbEntity
  8
0
  6
Continuous
 62
     7
370
    18
100
AcDbBlockReference
  2
SW_CENTERMARKSYMBOL_13
 10
19.9020572899
 20
8.3402258071
 30
0.0
  0
INSERT
  5
52E
330
1F
100
AcDbEntity
  8
0
  6
Continuous
 62
     7
370
    18
100
AcDbBlockReference
  2
SW_CENTERMARKSYMBOL_14
 10
15.7681990222
 20
12.4740840748
 30
0.0
  0
INSERT
  5
53A
330
1F
100
AcDbEntity
  8
0
  6
Continuous
 62
     7
370
    18
100
AcDbBlockReference
  2
SW_CENTERMARKSYMBOL_15
 10
19.9020572899
 20
12.4740840748
 30
0.0
  0
LWPOLYLINE
  5
53B
330
1F
100
AcDbEntity
  8
0
  6
Continuous
 62
     7
370
    25
100
AcDbPolyline
 90
        9
 70
   128
 43
0.0
 10
9.9523576375
 20
8.7193401539
 10
9.9523083581
 20
8.7193410339
 10
9.9521284001
 20
8.7193441139
 10
9.951822017
 20
8.7193495405
 10
9.9508292418
 20
8.7193668469
 10
9.9473255623
 20
8.7194282995
 10
9.9344257913
 20
8.7196540169
 10
9.8862574944
 20
8.7204970472
 10
9.7006171856
 20
8.723745823
  0
LINE
  5
53C
330
1F
100
AcDbEntity
  8
0
  6
Continuous
 62
     7
370
    25
100
AcDbLine
 10
12.359324972
 20
10.6171514202
 30
0.0
 11
12.1414046561
 21
10.6171514202
 31
0.0
  0
LINE
  5
53D
330
1F
100
AcDbEntity
  8
0
  6
Continuous
 62
     7
370
    25
100
AcDbLine
 10
12.1414046561
 20
10.1971514121
 30
0.0
 11
12.359324972
 21
10.1971514121
 31
0.0
  0
ARC
  5
53E
330
1F
100
AcDbEntity
  8
0
  6
Continuous
 62
     7
370
    25
100
AcDbCircle
 10
12.1414046363
 20
10.2171514162
 30
0.0
 40
0.0199999999999996
100
AcDbArc
 50
180.0
 51
270.0
  0
ARC
  5
53F
330
1F
100
AcDbEntity
  8
0
  6
Continuous
 62
     7
370
    25
100
AcDbCircle
 10
12.1414046363
 20
10.5971514162
 30
0.0
 40
0.0199999999999996
100
AcDbArc
 50
90.0
 51
180.0
  0
ARC
  5
540
330
1F
100
AcDbEntity
  8
0
  6
Continuous
 62
     7
370
    25
100
AcDbCircle
 10
12.546758967
 20
10.5841514162
 30
0.0
 40
0.0199999999999996
100
AcDbArc
 50
0.0
 51
90.0
  0
ARC
  5
541
330
1F
100
AcDbEntity
  8
0
  6
Continuous
 62
     7
370
    25
100
AcDbCircle
 10
12.546758967
 20
10.2301514162
 30
0.0
 40
0.0200000000000014
100
AcDbArc
 50
270.0
 51
0.0
  0
LINE
  5
542
330
1F
100
AcDbEntity
  8
0
  6
Continuous
 62
     7
370
    25
100
AcDbLine
 10
12.5467589201
 20
10.6041514221
 30
0.0
 11
12.5273888772
 21
10.6041514221
 31
0.0
  0
LINE
  5
543
330
1F
100
AcDbEntity
  8
0
  6
Continuous
 62
     7
370
    25
100
AcDbLine
 10
12.5273888772
 20
10.2101514103
 30
0.0
 11
12.5467589201
 21
10.2101514103
 31
0.0
  0
ARC
  5
544
330
1F
100
AcDbEntity
  8
0
  6
Continuous
 62
     7
370
    25
100
AcDbCircle
 10
12.546758967
 20
12.0101514162
 30
0.0
 40
0.0200000000000014
100
AcDbArc
 50
0.0
 51
45.4386879565
  0
LINE
  5
545
330
1F
100
AcDbEntity
  8
0
  6
Continuous
 62
     7
370
    25
100
AcDbLine
 10
12.1413888896
 20
11.7151514394
 30
0.0
 11
12.4014046192
 21
11.7151514394
 31
0.0
  0
ARC
  5
546
330
1F
100
AcDbEntity
  8
0
  6
Continuous
 62
     7
370
    25
100
AcDbCircle
 10
12.1413888882
 20
12.0101514162
 30
0.0
 40
0.0200000000000014
100
AcDbArc
 50
134.5613120436
 51
180.0
  0
ARC
  5
547
330
1F
100
AcDbEntity
  8
0
  6
Continuous
 62
     7
370
    25
100
AcDbCircle
 10
12.1413888882
 20
11.7351514162
 30
0.0
 40
0.0200000000000014
100
AcDbArc
 50
180.0
 51
270.0
  0
ARC
  5
548
330
1F
100
AcDbEntity
  8
0
  6
Continuous
 62
     7
370
    25
100
AcDbCircle
 10
12.5470739276
 20
12.6709309437
 30
0.0
 40
0.0196850393700796
100
AcDbArc
 50
359.9999999999
 51
89.9999999999
  0
LINE
  5
549
330
1F
100
AcDbEntity
  8
0
  6
Continuous
 62
     7
370
    25
100
AcDbLine
 10
12.5470739564
 20
12.6906159174
 30
0.0
 11
12.5273888772
 21
12.6906159174
 31
0.0
  0
LINE
  5
54A
330
1F
100
AcDbEntity
  8
0
  6
Continuous
 62
     7
370
    25
100
AcDbLine
 10
12.5273888772
 20
8.1236869149
 30
0.0
 11
12.5470739564
 21
8.1236869149
 31
0.0
  0
LINE
  5
54B
330
1F
100
AcDbEntity
  8
0
  6
Continuous
 62
     7
370
    25
100
AcDbLine
 10
12.5470739564
 20
8.5567577787
 30
0.0
 11
12.5273888772
 21
8.5567577787
 31
0.0
  0
LINE
  5
54C
330
1F
100
AcDbEntity
  8
0
  6
Continuous
 62
     7
370
    25
100
AcDbLine
 10
10.2242392967
 20
12.8087262463
 30
0.0
 11
10.3620345582
 21
12.8087262463
 31
0.0
  0
LINE
  5
54D
330
1F
100
AcDbEntity
  8
0
  6
Continuous
 62
     7
370
    25
100
AcDbLine
 10
10.2242392967
 20
12.8087262463
 30
0.0
 11
10.2242392967
 21
12.6906159174
 31
0.0
  0
LINE
  5
54E
330
1F
100
AcDbEntity
  8
0
  6
Continuous
 62
     7
370
    25
100
AcDbLine
 10
10.3620345582
 20
12.6906159174
 30
0.0
 11
10.2242392967
 21
12.6906159174
 31
0.0
  0
LINE
  5
54F
330
1F
100
AcDbEntity
  8
0
  6
Continuous
 62
     7
370
    25
100
AcDbLine
 10
9.574633001
 20
12.7407112453
 30
0.0
 11
9.574633001
 21
9.7136623741
 31
0.0
  0
LINE
  5
550
330
1F
100
AcDbEntity
  8
0
  6
Continuous
 62
     7
370
    25
100
AcDbLine
 10
9.7006171856
 20
12.6614213746
 30
0.0
 11
9.7006171856
 21
9.7136623741
 31
0.0
  0
ARC
  5
551
330
1F
100
AcDbEntity
  8
0
  6
Continuous
 62
     7
370
    25
100
AcDbCircle
 10
9.6533731402
 20
12.7407112082
 30
0.0
 40
0.078740157480315
100
AcDbArc
 50
91.0011459333
 51
179.9999999911
  0
LINE
  5
552
330
1F
100
AcDbEntity
  8
0
  6
Continuous
 62
     7
370
    25
100
AcDbLine
 10
10.1651841322
 20
12.8387507661
 30
0.0
 11
10.1651841322
 21
12.8284073656
 31
0.0
  0
LINE
  5
553
330
1F
100
AcDbEntity
  8
0
  6
Continuous
 62
     7
370
    25
100
AcDbLine
 10
9.6519973073
 20
12.8194393892
 30
0.0
 11
10.1651841322
 21
12.8284073656
 31
0.0
  0
ARC
  5
554
330
1F
100
AcDbEntity
  8
0
  6
Continuous
 62
     7
370
    25
100
AcDbCircle
 10
10.1848692032
 20
12.838750786
 30
0.0
 40
0.0196850393700785
100
AcDbArc
 50
93.0095288343
 51
180.0
  0
LINE
  5
555
330
1F
100
AcDbEntity
  8
0
  6
Continuous
 62
     7
370
    25
100
AcDbLine
 10
10.3620345582
 20
12.6906159174
 30
0.0
 11
10.3620345582
 21
12.6729961743
 31
0.0
  0
LINE
  5
556
330
1F
100
AcDbEntity
  8
0
  6
Continuous
 62
     7
370
    25
100
AcDbLine
 10
10.3620345582
 20
12.8677773775
 30
0.0
 11
10.1838356634
 21
12.8584087124
 31
0.0
  0
LINE
  5
557
330
1F
100
AcDbEntity
  8
0
  6
Continuous
 62
     7
370
    25
100
AcDbLine
 10
9.7006171856
 20
12.6614213746
 30
0.0
 11
10.3620345582
 21
12.6729961743
 31
0.0
  0
LINE
  5
558
330
1F
100
AcDbEntity
  8
0
  6
Continuous
 62
     7
370
    25
100
AcDbLine
 10
10.3620345582
 20
12.8677773775
 30
0.0
 11
10.3620345582
 21
12.8087262463
 31
0.0
  0
LINE
  5
559
330
1F
100
AcDbEntity
  8
0
  6
Continuous
 62
     7
370
    25
100
AcDbLine
 10
10.3620345582
 20
12.6729961743
 30
0.0
 11
10.3620345582
 21
12.07087633
 31
0.0
  0
LWPOLYLINE
  5
55A
330
1F
100
AcDbEntity
  8
0
  6
Continuous
 62
     7
370
    25
100
AcDbPolyline
 90
        5
 70
   128
 43
0.0
 10
10.3620345582
 20
8.7116864423
 10
10.1639909393
 20
8.7151066695
 10
9.9659480538
 20
8.7185682562
 10
9.8332823997
 20
8.7209115224
 10
9.7006171856
 20
8.7232753218
  0
LINE
  5
55B
330
1F
100
AcDbEntity
  8
0
  6
Continuous
 62
     7
370
    25
100
AcDbLine
 10
10.3620345582
 20
8.7434265023
 30
0.0
 11
10.3620345582
 21
8.7116864423
 31
0.0
  0
LINE
  5
55C
330
1F
100
AcDbEntity
  8
0
  6
Continuous
 62
     7
370
    25
100
AcDbLine
 10
10.2242392967
 20
8.6945496669
 30
0.0
 11
10.3620345582
 21
8.6945496669
 31
0.0
  0
LINE
  5
55D
330
1F
100
AcDbEntity
  8
0
  6
Continuous
 62
     7
370
    25
100
AcDbLine
 10
10.2242392967
 20
8.5764378714
 30
0.0
 11
10.3620345582
 21
8.5764378714
 31
0.0
  0
LINE
  5
55E
330
1F
100
AcDbEntity
  8
0
  6
Continuous
 62
     7
370
    25
100
AcDbLine
 10
9.9683337063
 20
8.5370668329
 30
0.0
 11
10.3620345582
 21
8.5370668329
 31
0.0
  0
LINE
  5
55F
330
1F
100
AcDbEntity
  8
0
  6
Continuous
 62
     7
370
    25
100
AcDbLine
 10
9.9683337063
 20
8.5370668329
 30
0.0
 11
9.9683337063
 21
8.5764378714
 31
0.0
  0
LINE
  5
560
330
1F
100
AcDbEntity
  8
0
  6
Continuous
 62
     7
370
    25
100
AcDbLine
 10
9.574633001
 20
8.5764378714
 30
0.0
 11
9.9683337063
 21
8.5764378714
 31
0.0
  0
LINE
  5
561
330
1F
100
AcDbEntity
  8
0
  6
Continuous
 62
     7
370
    25
100
AcDbLine
 10
10.2242392967
 20
8.6945496669
 30
0.0
 11
10.2242392967
 21
8.5764378714
 31
0.0
  0
LINE
  5
562
330
1F
100
AcDbEntity
  8
0
  6
Continuous
 62
     7
370
    25
100
AcDbLine
 10
9.574633001
 20
9.7136623741
 30
0.0
 11
9.574633001
 21
8.5764378714
 31
0.0
  0
LINE
  5
563
330
1F
100
AcDbEntity
  8
0
  6
Continuous
 62
     7
370
    25
100
AcDbLine
 10
9.7006171856
 20
9.7136623741
 30
0.0
 11
9.7006171856
 21
8.7232756151
 31
0.0
  0
LINE
  5
564
330
1F
100
AcDbEntity
  8
0
  6
Continuous
 62
     7
370
    25
100
AcDbLine
 10
10.3620345582
 20
8.7116864423
 30
0.0
 11
10.3620345582
 21
8.6945496669
 31
0.0
  0
LINE
  5
565
330
1F
100
AcDbEntity
  8
0
  6
Continuous
 62
     7
370
    25
100
AcDbLine
 10
10.3620345582
 20
8.5764378714
 30
0.0
 11
10.3620345582
 21
8.5370668329
 31
0.0
  0
LINE
  5
566
330
1F
100
AcDbEntity
  8
0
  6
Continuous
 62
     7
370
    25
100
AcDbLine
 10
9.9683337063
 20
8.1040066756
 30
0.0
 11
9.574633001
 21
8.1040066756
 31
0.0
  0
LINE
  5
567
330
1F
100
AcDbEntity
  8
0
  6
Continuous
 62
     7
370
    25
100
AcDbLine
 10
9.9683337063
 20
8.1040066756
 30
0.0
 11
9.9683337063
 21
8.1433762475
 31
0.0
  0
LINE
  5
568
330
1F
100
AcDbEntity
  8
0
  6
Continuous
 62
     7
370
    25
100
AcDbLine
 10
10.0864440352
 20
8.1433762475
 30
0.0
 11
9.9683337063
 21
8.1433762475
 31
0.0
  0
LINE
  5
569
330
1F
100
AcDbEntity
  8
0
  6
Continuous
 62
     7
370
    25
100
AcDbLine
 10
10.0864440352
 20
8.1433762475
 30
0.0
 11
10.0864440352
 21
8.0646316771
 31
0.0
  0
LINE
  5
56A
330
1F
100
AcDbEntity
  8
0
  6
Continuous
 62
     7
370
    25
100
AcDbLine
 10
10.3620345582
 20
8.0646316771
 30
0.0
 11
10.0864440352
 21
8.0646316771
 31
0.0
  0
ARC
  5
56B
330
1F
100
AcDbEntity
  8
0
  6
Continuous
 62
     7
370
    25
100
AcDbCircle
 10
9.6533731402
 20
8.0735916132
 30
0.0
 40
0.0787401574803157
100
AcDbArc
 50
180.0000000086
 51
268.9988540666
  0
ARC
  5
56C
330
1F
100
AcDbEntity
  8
0
  6
Continuous
 62
     7
370
    25
100
AcDbCircle
 10
10.1848692032
 20
7.9755520463
 30
0.0
 40
0.0196850393700804
100
AcDbArc
 50
180.0
 51
266.9904711651
  0
LINE
  5
56D
330
1F
100
AcDbEntity
  8
0
  6
Continuous
 62
     7
370
    25
100
AcDbLine
 10
10.1651841322
 20
7.9858954667
 30
0.0
 11
9.6519973073
 21
7.9948634431
 31
0.0
  0
LINE
  5
56E
330
1F
100
AcDbEntity
  8
0
  6
Continuous
 62
     7
370
    25
100
AcDbLine
 10
10.1838356634
 20
7.95589412
 30
0.0
 11
10.3620345582
 21
7.9465254549
 31
0.0
  0
LINE
  5
56F
330
1F
100
AcDbEntity
  8
0
  6
Continuous
 62
     7
370
    25
100
AcDbLine
 10
9.574633001
 20
8.1040066756
 30
0.0
 11
9.574633001
 21
8.073591587
 31
0.0
  0
LINE
  5
570
330
1F
100
AcDbEntity
  8
0
  6
Continuous
 62
     7
370
    25
100
AcDbLine
 10
10.1651841322
 20
7.9858954667
 30
0.0
 11
10.1651841322
 21
7.9755520662
 31
0.0
  0
LINE
  5
571
330
1F
100
AcDbEntity
  8
0
  6
Continuous
 62
     7
370
    25
100
AcDbLine
 10
10.3620345582
 20
8.0646316771
 30
0.0
 11
10.3620345582
 21
7.9465254549
 31
0.0
  0
LINE
  5
572
330
1F
100
AcDbEntity
  8
0
  6
Continuous
 62
     7
370
    25
100
AcDbLine
 10
10.3620345582
 20
8.5764427113
 30
0.0
 11
10.2242392967
 21
8.5764427113
 31
0.0
  0
LINE
  5
573
330
1F
100
AcDbEntity
  8
0
  6
Continuous
 62
     7
370
    25
100
AcDbLine
 10
10.3620345582
 20
8.5764378714
 30
0.0
 11
10.3620345582
 21
8.5764427113
 31
0.0
  0
LINE
  5
574
330
1F
100
AcDbEntity
  8
0
  6
Continuous
 62
     7
370
    25
100
AcDbLine
 10
9.9683337063
 20
8.1433762475
 30
0.0
 11
9.9683337063
 21
8.1827420061
 31
0.0
  0
LINE
  5
575
330
1F
100
AcDbEntity
  8
0
  6
Continuous
 62
     7
370
    25
100
AcDbLine
 10
10.0864440352
 20
8.1827420061
 30
0.0
 11
9.9683337063
 21
8.1827420061
 31
0.0
  0
LINE
  5
576
330
1F
100
AcDbEntity
  8
0
  6
Continuous
 62
     7
370
    25
100
AcDbLine
 10
10.0864440352
 20
8.1827420061
 30
0.0
 11
10.0864440352
 21
8.1433762475
 31
0.0
  0
LINE
  5
577
330
1F
100
AcDbEntity
  8
0
  6
Continuous
 62
     7
370
    25
100
AcDbLine
 10
9.574633001
 20
8.5764378714
 30
0.0
 11
9.574633001
 21
8.1040066756
 31
0.0
  0
LINE
  5
578
330
1F
100
AcDbEntity
  8
0
  6
Continuous
 62
     7
370
    25
100
AcDbLine
 10
10.0864440352
 20
8.4977025409
 30
0.0
 11
9.9683337063
 21
8.4977025409
 31
0.0
  0
LINE
  5
579
330
1F
100
AcDbEntity
  8
0
  6
Continuous
 62
     7
370
    25
100
AcDbLine
 10
9.9683337063
 20
8.4977025409
 30
0.0
 11
9.9683337063
 21
8.5370726995
 31
0.0
  0
LINE
  5
57A
330
1F
100
AcDbEntity
  8
0
  6
Continuous
 62
     7
370
    25
100
AcDbLine
 10
10.0864440352
 20
8.5370726995
 30
0.0
 11
10.0864440352
 21
8.4977025409
 31
0.0
  0
LINE
  5
57B
330
1F
100
AcDbEntity
  8
0
  6
Continuous
 62
     7
370
    25
100
AcDbLine
 10
9.9683337063
 20
8.1827420061
 30
0.0
 11
9.9683337063
 21
8.4977025409
 31
0.0
  0
LINE
  5
57C
330
1F
100
AcDbEntity
  8
0
  6
Continuous
 62
     7
370
    25
100
AcDbLine
 10
10.0864440352
 20
8.4977025409
 30
0.0
 11
10.0864440352
 21
8.1827420061
 31
0.0
  0
LINE
  5
57D
330
1F
100
AcDbEntity
  8
0
  6
Continuous
 62
     7
370
    25
100
AcDbLine
 10
10.3620345582
 20
12.07087633
 30
0.0
 11
10.3620345582
 21
8.7434265023
 31
0.0
  0
ARC
  5
57E
330
1F
100
AcDbEntity
  8
0
  6
Continuous
 62
     7
370
    25
100
AcDbCircle
 10
12.546758967
 20
11.9621041721
 30
0.0
 40
0.0200000000000441
100
AcDbArc
 50
359.9998766848
 51
90.0
  0
ARC
  5
57F
330
1F
100
AcDbEntity
  8
0
  6
Continuous
 62
     7
370
    25
100
AcDbCircle
 10
12.546758967
 20
11.6081041721
 30
0.0
 40
0.0200000000000441
100
AcDbArc
 50
270.0000000001
 51
360.0
  0
ARC
  5
580
330
1F
100
AcDbEntity
  8
0
  6
Continuous
 62
     7
370
    25
100
AcDbCircle
 10
12.546758967
 20
12.3136514162
 30
0.0
 40
0.0200000000000459
100
AcDbArc
 50
0.0001233152
 51
90.0
  0
ARC
  5
581
330
1F
100
AcDbEntity
  8
0
  6
Continuous
 62
     7
370
    25
100
AcDbCircle
 10
12.546758967
 20
12.0386514162
 30
0.0
 40
0.0200000000000441
100
AcDbArc
 50
269.9999999999
 51
0.0
  0
LINE
  5
582
330
1F
100
AcDbEntity
  8
0
  6
Continuous
 62
     7
370
    25
100
AcDbLine
 10
12.5273888772
 20
11.9821041288
 30
0.0
 11
12.5467589201
 21
11.9821041288
 31
0.0
  0
LINE
  5
583
330
1F
100
AcDbEntity
  8
0
  6
Continuous
 62
     7
370
    25
100
AcDbLine
 10
12.5467589201
 20
11.5881041537
 30
0.0
 11
12.5273888772
 21
11.5881041537
 31
0.0
  0
LINE
  5
584
330
1F
100
AcDbEntity
  8
0
  6
Continuous
 62
     7
370
    25
100
AcDbLine
 10
12.5273888772
 20
12.3336514144
 30
0.0
 11
12.5467589201
 21
12.3336514144
 31
0.0
  0
LINE
  5
585
330
1F
100
AcDbEntity
  8
0
  6
Continuous
 62
     7
370
    25
100
AcDbLine
 10
12.5467589201
 20
12.0186514266
 30
0.0
 11
12.5273888772
 21
12.0186514266
 31
0.0
  0
ARC
  5
586
330
1F
100
AcDbEntity
  8
0
  6
Continuous
 62
     7
370
    25
100
AcDbCircle
 10
13.0473888882
 20
10.3915233772
 30
0.0
 40
0.6
100
AcDbArc
 50
191.2322577307
 51
209.9264348666
  0
ARC
  5
587
330
1F
100
AcDbEntity
  8
0
  6
Continuous
 62
     7
370
    25
100
AcDbCircle
 10
13.0473888882
 20
10.4227794551
 30
0.0
 40
0.6000000000000003
100
AcDbArc
 50
150.0735651334
 51
168.7677422693
  0
LINE
  5
588
330
1F
100
AcDbEntity
  8
0
  6
Continuous
 62
     7
370
    25
100
AcDbLine
 10
12.5273888772
 20
10.0921907713
 30
0.0
 11
12.5273888772
 21
10.2746514201
 31
0.0
  0
LINE
  5
589
330
1F
100
AcDbEntity
  8
0
  6
Continuous
 62
     7
370
    25
100
AcDbLine
 10
12.5273888772
 20
10.5396514122
 30
0.0
 11
12.5273888772
 21
10.722112061
 31
0.0
  0
LINE
  5
58A
330
1F
100
AcDbEntity
  8
0
  6
Continuous
 62
     7
370
    25
100
AcDbLine
 10
12.1413888896
 20
12.3336514144
 30
0.0
 11
12.4014046192
 21
12.3336514144
 31
0.0
  0
LINE
  5
58B
330
1F
100
AcDbEntity
  8
0
  6
Continuous
 62
     7
370
    25
100
AcDbLine
 10
12.4014046192
 20
12.0186514266
 30
0.0
 11
12.1413888896
 21
12.0186514266
 31
0.0
  0
LINE
  5
58C
330
1F
100
AcDbEntity
  8
0
  6
Continuous
 62
     7
370
    25
100
AcDbLine
 10
12.3893888714
 20
12.0936513469
 30
0.0
 11
12.1213889206
 21
12.0936513469
 31
0.0
  0
LINE
  5
58D
330
1F
100
AcDbEntity
  8
0
  6
Continuous
 62
     7
370
    25
100
AcDbLine
 10
12.1213889206
 20
12.2586513475
 30
0.0
 11
12.1213889206
 21
12.0936513469
 31
0.0
  0
LINE
  5
58E
330
1F
100
AcDbEntity
  8
0
  6
Continuous
 62
     7
370
    25
100
AcDbLine
 10
12.1213889206
 20
12.2586513475
 30
0.0
 11
12.3893888714
 21
12.2586513475
 31
0.0
  0
ARC
  5
58F
330
1F
100
AcDbEntity
  8
0
  6
Continuous
 62
     7
370
    25
100
AcDbCircle
 10
13.2364046363
 20
10.415331524
 30
0.0
 40
0.8999999999999998
100
AcDbArc
 50
158.0910190574
 51
180.0
  0
ARC
  5
590
330
1F
100
AcDbEntity
  8
0
  6
Continuous
 62
     7
370
    25
100
AcDbCircle
 10
13.2364046363
 20
10.3989713084
 30
0.0
 40
0.8999999999999996
100
AcDbArc
 50
179.9999972597
 51
201.9089809426
  0
ARC
  5
591
330
1F
100
AcDbEntity
  8
0
  6
Continuous
 62
     7
370
    25
100
AcDbCircle
 10
12.1413888882
 20
12.3136514162
 30
0.0
 40
0.0200000000000441
100
AcDbArc
 50
90.0
 51
180.0
  0
ARC
  5
592
330
1F
100
AcDbEntity
  8
0
  6
Continuous
 62
     7
370
    25
100
AcDbCircle
 10
12.1413888882
 20
12.0386514162
 30
0.0
 40
0.0200000000000477
100
AcDbArc
 50
179.9998766848
 51
270.0
  0
LINE
  5
593
330
1F
100
AcDbEntity
  8
0
  6
Continuous
 62
     7
370
    25
100
AcDbLine
 10
12.3893888714
 20
12.0936513469
 30
0.0
 11
12.3893888714
 21
12.2586513475
 31
0.0
  0
LINE
  5
594
330
1F
100
AcDbEntity
  8
0
  6
Continuous
 62
     7
370
    25
100
AcDbLine
 10
10.5588849842
 20
12.7024302209
 30
0.0
 11
12.4014046192
 21
12.6702616059
 31
0.0
  0
LINE
  5
595
330
1F
100
AcDbEntity
  8
0
  6
Continuous
 62
     7
370
    25
100
AcDbLine
 10
10.5588849842
 20
12.7024302209
 30
0.0
 11
10.5588849842
 21
12.7496711552
 31
0.0
  0
LINE
  5
596
330
1F
100
AcDbEntity
  8
0
  6
Continuous
 62
     7
370
    25
100
AcDbLine
 10
10.2832943878
 20
12.7496711552
 30
0.0
 11
10.5588849842
 21
12.7496711552
 31
0.0
  0
LINE
  5
597
330
1F
100
AcDbEntity
  8
0
  6
Continuous
 62
     7
370
    25
100
AcDbLine
 10
10.2832943878
 20
12.789041167
 30
0.0
 11
10.2832943878
 21
12.7496711552
 31
0.0
  0
LINE
  5
598
330
1F
100
AcDbEntity
  8
0
  6
Continuous
 62
     7
370
    25
100
AcDbLine
 10
10.2832943878
 20
12.789041167
 30
0.0
 11
10.3620345582
 21
12.789041167
 31
0.0
  0
LINE
  5
599
330
1F
100
AcDbEntity
  8
0
  6
Continuous
 62
     7
370
    25
100
AcDbLine
 10
10.3620345582
 20
12.789041167
 30
0.0
 11
10.3620345582
 21
12.8677773775
 31
0.0
  0
LINE
  5
59A
330
1F
100
AcDbEntity
  8
0
  6
Continuous
 62
     7
370
    25
100
AcDbLine
 10
10.5588849842
 20
12.8643713768
 30
0.0
 11
10.3620345582
 21
12.8677773775
 31
0.0
  0
LINE
  5
59B
330
1F
100
AcDbEntity
  8
0
  6
Continuous
 62
     7
370
    25
100
AcDbLine
 10
10.5588849842
 20
12.8284073656
 30
0.0
 11
10.5588849842
 21
12.8643713768
 31
0.0
  0
LINE
  5
59C
330
1F
100
AcDbEntity
  8
0
  6
Continuous
 62
     7
370
    25
100
AcDbLine
 10
12.5273888772
 20
12.7940648823
 30
0.0
 11
10.5588849842
 21
12.8284073656
 31
0.0
  0
LINE
  5
59D
330
1F
100
AcDbEntity
  8
0
  6
Continuous
 62
     7
370
    25
100
AcDbLine
 10
12.4588815219
 20
10.5396514122
 30
0.0
 11
12.5273888772
 21
10.5396514122
 31
0.0
  0
LINE
  5
59E
330
1F
100
AcDbEntity
  8
0
  6
Continuous
 62
     7
370
    25
100
AcDbLine
 10
12.5273888772
 20
10.5396514122
 30
0.0
 11
12.5273888772
 21
10.2746514201
 31
0.0
  0
LINE
  5
59F
330
1F
100
AcDbEntity
  8
0
  6
Continuous
 62
     7
370
    25
100
AcDbLine
 10
12.5273888772
 20
10.2746514201
 30
0.0
 11
12.4588815219
 21
10.2746514201
 31
0.0
  0
LINE
  5
5A0
330
1F
100
AcDbEntity
  8
0
  6
Continuous
 62
     7
370
    25
100
AcDbLine
 10
12.1213889206
 20
12.0936513469
 30
0.0
 11
12.1213889206
 21
12.0386513956
 31
0.0
  0
LINE
  5
5A1
330
1F
100
AcDbEntity
  8
0
  6
Continuous
 62
     7
370
    25
100
AcDbLine
 10
12.1213889206
 20
12.3136514454
 30
0.0
 11
12.1213889206
 21
12.2586513475
 31
0.0
  0
LINE
  5
5A2
330
1F
100
AcDbEntity
  8
0
  6
Continuous
 62
     7
370
    25
100
AcDbLine
 10
12.3364046101
 20
10.3989713085
 30
0.0
 11
12.3364046101
 21
10.4153315238
 31
0.0
  0
LINE
  5
5A3
330
1F
100
AcDbEntity
  8
0
  6
Continuous
 62
     7
370
    25
100
AcDbLine
 10
12.4014046192
 20
9.7136623741
 30
0.0
 11
12.4014046192
 21
10.0631514001
 31
0.0
  0
LINE
  5
5A4
330
1F
100
AcDbEntity
  8
0
  6
Continuous
 62
     7
370
    25
100
AcDbLine
 10
12.4014046192
 20
12.3336514144
 30
0.0
 11
12.4014046192
 21
12.6702616059
 31
0.0
  0
LINE
  5
5A5
330
1F
100
AcDbEntity
  8
0
  6
Continuous
 62
     7
370
    25
100
AcDbLine
 10
12.4014046192
 20
10.7511514322
 30
0.0
 11
12.4014046192
 21
12.0186514266
 31
0.0
  0
LINE
  5
5A6
330
1F
100
AcDbEntity
  8
0
  6
Continuous
 62
     7
370
    25
100
AcDbLine
 10
12.5667590357
 20
12.3136514454
 30
0.0
 11
12.5667590357
 21
12.0386513956
 31
0.0
  0
LINE
  5
5A7
330
1F
100
AcDbEntity
  8
0
  6
Continuous
 62
     7
370
    25
100
AcDbLine
 10
12.5273888772
 20
11.9821041288
 30
0.0
 11
12.5273888772
 21
12.0186514266
 31
0.0
  0
LINE
  5
5A8
330
1F
100
AcDbEntity
  8
0
  6
Continuous
 62
     7
370
    25
100
AcDbLine
 10
12.5273888772
 20
12.3336514144
 30
0.0
 11
12.5273888772
 21
12.7940648823
 31
0.0
  0
LINE
  5
5A9
330
1F
100
AcDbEntity
  8
0
  6
Continuous
 62
     7
370
    25
100
AcDbLine
 10
12.5273888772
 20
9.7136623741
 30
0.0
 11
12.5273888772
 21
10.0921907713
 31
0.0
  0
LINE
  5
5AA
330
1F
100
AcDbEntity
  8
0
  6
Continuous
 62
     7
370
    25
100
AcDbLine
 10
12.5273888772
 20
10.722112061
 30
0.0
 11
12.5273888772
 21
11.5881041537
 31
0.0
  0
LINE
  5
5AB
330
1F
100
AcDbEntity
  8
0
  6
Continuous
 62
     7
370
    25
100
AcDbLine
 10
12.5667590357
 20
11.9621041599
 30
0.0
 11
12.5667590357
 21
11.608104196
 31
0.0
  0
LINE
  5
5AC
330
1F
100
AcDbEntity
  8
0
  6
Continuous
 62
     7
370
    25
100
AcDbLine
 10
12.1214046138
 20
10.2171514177
 30
0.0
 11
12.1214046138
 21
10.5971514146
 31
0.0
  0
LINE
  5
5AD
330
1F
100
AcDbEntity
  8
0
  6
Continuous
 62
     7
370
    25
100
AcDbLine
 10
12.5667590357
 20
10.5841514164
 30
0.0
 11
12.5667590357
 21
10.2301514159
 31
0.0
  0
LINE
  5
5AE
330
1F
100
AcDbEntity
  8
0
  6
Continuous
 62
     7
370
    25
100
AcDbLine
 10
12.5667590357
 20
12.0101514582
 30
0.0
 11
12.5667590357
 21
11.9621041599
 31
0.0
  0
LINE
  5
5AF
330
1F
100
AcDbEntity
  8
0
  6
Continuous
 62
     7
370
    25
100
AcDbLine
 10
12.1213889206
 20
11.7351514083
 30
0.0
 11
12.1213889206
 21
12.0101514582
 31
0.0
  0
LINE
  5
5B0
330
1F
100
AcDbEntity
  8
0
  6
Continuous
 62
     7
370
    25
100
AcDbLine
 10
10.2832943878
 20
12.7496711552
 30
0.0
 11
10.2832943878
 21
12.6906159174
 31
0.0
  0
LINE
  5
5B1
330
1F
100
AcDbEntity
  8
0
  6
Continuous
 62
     7
370
    25
100
AcDbLine
 10
10.5588849842
 20
12.6709308381
 30
0.0
 11
10.5588849842
 21
12.7024302209
 31
0.0
  0
LINE
  5
5B2
330
1F
100
AcDbEntity
  8
0
  6
Continuous
 62
     7
370
    25
100
AcDbLine
 10
10.3620345582
 20
12.1788050299
 30
0.0
 11
12.1213889206
 21
12.1788050299
 31
0.0
  0
LINE
  5
5B3
330
1F
100
AcDbEntity
  8
0
  6
Continuous
 62
     7
370
    25
100
AcDbLine
 10
12.5667590357
 20
12.3158033139
 30
0.0
 11
12.5667590357
 21
12.6709309848
 31
0.0
  0
ARC
  5
5B4
330
1F
100
AcDbEntity
  8
0
  6
Continuous
 62
     7
370
    25
100
AcDbCircle
 10
12.5470734996
 20
8.5370668161
 30
0.0
 40
0.0196855360626096
100
AcDbArc
 50
0.0000488957
 51
89.9986704608
  0
ARC
  5
5B5
330
1F
100
AcDbEntity
  8
0
  6
Continuous
 62
     7
370
    25
100
AcDbCircle
 10
12.547073765
 20
8.1433774656
 30
0.0
 40
0.0196852707333178
100
AcDbArc
 50
270.0005572874
 51
0.0007233561
  0
LINE
  5
5B6
330
1F
100
AcDbEntity
  8
0
  6
Continuous
 62
     7
370
    25
100
AcDbLine
 10
12.5667590357
 20
8.5370666862
 30
0.0
 11
12.5667590357
 21
8.4222082131
 31
0.0
  0
LINE
  5
5B7
330
1F
100
AcDbEntity
  8
0
  6
Continuous
 62
     7
370
    25
100
AcDbLine
 10
12.1730581838
 20
8.4222082131
 30
0.0
 11
12.5667590357
 21
8.4222082131
 31
0.0
  0
LINE
  5
5B8
330
1F
100
AcDbEntity
  8
0
  6
Continuous
 62
     7
370
    25
100
AcDbLine
 10
12.1730581838
 20
8.4976952077
 30
0.0
 11
12.1730581838
 21
8.4222082131
 31
0.0
  0
LWPOLYLINE
  5
5B9
330
1F
100
AcDbEntity
  8
0
  6
Continuous
 62
     7
370
    25
100
AcDbPolyline
 90
        5
 70
   128
 43
0.0
 10
10.3620345582
 20
8.5370668329
 10
10.5637763343
 20
8.5326809635
 10
11.8061185927
 20
8.5056726089
 10
12.1167041481
 20
8.4989204469
 10
12.1730581838
 20
8.4976952077
  0
LINE
  5
5BA
330
1F
100
AcDbEntity
  8
0
  6
Continuous
 62
     7
370
    25
100
AcDbLine
 10
10.2832943878
 20
8.5956212098
 30
0.0
 11
10.3620345582
 21
8.5956212098
 31
0.0
  0
LINE
  5
5BB
330
1F
100
AcDbEntity
  8
0
  6
Continuous
 62
     7
370
    25
100
AcDbLine
 10
10.2832943878
 20
8.6348825429
 30
0.0
 11
12.4014046192
 21
8.6348825429
 31
0.0
  0
LINE
  5
5BC
330
1F
100
AcDbEntity
  8
0
  6
Continuous
 62
     7
370
    25
100
AcDbLine
 10
12.5273888772
 20
8.5567523521
 30
0.0
 11
12.5470739564
 21
8.5567523521
 31
0.0
  0
LINE
  5
5BD
330
1F
100
AcDbEntity
  8
0
  6
Continuous
 62
     7
370
    25
100
AcDbLine
 10
10.2832943878
 20
8.6348825429
 30
0.0
 11
10.2832943878
 21
8.5956212098
 31
0.0
  0
LINE
  5
5BE
330
1F
100
AcDbEntity
  8
0
  6
Continuous
 62
     7
370
    25
100
AcDbLine
 10
10.3620345582
 20
8.5370668329
 30
0.0
 11
10.3620345582
 21
8.5956212098
 31
0.0
  0
LINE
  5
5BF
330
1F
100
AcDbEntity
  8
0
  6
Continuous
 62
     7
370
    25
100
AcDbLine
 10
12.4014046192
 20
8.6348825429
 30
0.0
 11
12.4014046192
 21
9.7136623741
 31
0.0
  0
LINE
  5
5C0
330
1F
100
AcDbEntity
  8
0
  6
Continuous
 62
     7
370
    25
100
AcDbLine
 10
12.5273888772
 20
8.5567523521
 30
0.0
 11
12.5273888772
 21
9.7136623741
 31
0.0
  0
LWPOLYLINE
  5
5C1
330
1F
100
AcDbEntity
  8
0
  6
Continuous
 62
     7
370
    25
100
AcDbPolyline
 90
        5
 70
   128
 43
0.0
 10
12.1730581838
 20
8.1827493393
 10
12.1167041481
 20
8.1815241001
 10
11.8061185927
 20
8.1747719381
 10
10.5637763343
 20
8.1477635835
 10
10.3620345582
 20
8.1433777141
  0
LINE
  5
5C2
330
1F
100
AcDbEntity
  8
0
  6
Continuous
 62
     7
370
    25
100
AcDbLine
 10
12.1730581838
 20
8.2582363339
 30
0.0
 11
12.1730581838
 21
8.1827493393
 31
0.0
  0
LINE
  5
5C3
330
1F
100
AcDbEntity
  8
0
  6
Continuous
 62
     7
370
    25
100
AcDbLine
 10
12.5667590357
 20
8.2582363339
 30
0.0
 11
12.1730581838
 21
8.2582363339
 31
0.0
  0
LINE
  5
5C4
330
1F
100
AcDbEntity
  8
0
  6
Continuous
 62
     7
370
    25
100
AcDbLine
 10
12.5470739564
 20
8.1236921949
 30
0.0
 11
12.5273888772
 21
8.1236921949
 31
0.0
  0
LINE
  5
5C5
330
1F
100
AcDbEntity
  8
0
  6
Continuous
 62
     7
370
    25
100
AcDbLine
 10
10.5588849842
 20
7.9858954667
 30
0.0
 11
12.5273888772
 21
8.02023795
 31
0.0
  0
LINE
  5
5C6
330
1F
100
AcDbEntity
  8
0
  6
Continuous
 62
     7
370
    25
100
AcDbLine
 10
10.3620345582
 20
7.9465254549
 30
0.0
 11
10.5588849842
 21
7.9499314555
 31
0.0
  0
LINE
  5
5C7
330
1F
100
AcDbEntity
  8
0
  6
Continuous
 62
     7
370
    25
100
AcDbLine
 10
12.5667590357
 20
8.2582363339
 30
0.0
 11
12.5667590357
 21
8.1433777141
 31
0.0
  0
LINE
  5
5C8
330
1F
100
AcDbEntity
  8
0
  6
Continuous
 62
     7
370
    25
100
AcDbLine
 10
10.3620345582
 20
7.9465254549
 30
0.0
 11
10.3620345582
 21
8.1433777141
 31
0.0
  0
LINE
  5
5C9
330
1F
100
AcDbEntity
  8
0
  6
Continuous
 62
     7
370
    25
100
AcDbLine
 10
10.5588849842
 20
7.9499314555
 30
0.0
 11
10.5588849842
 21
7.9858954667
 31
0.0
  0
LINE
  5
5CA
330
1F
100
AcDbEntity
  8
0
  6
Continuous
 62
     7
370
    25
100
AcDbLine
 10
12.5273888772
 20
8.02023795
 30
0.0
 11
12.5273888772
 21
8.1236921949
 31
0.0
  0
LINE
  5
5CB
330
1F
100
AcDbEntity
  8
0
  6
Continuous
 62
     7
370
    25
100
AcDbLine
 10
12.1730581838
 20
8.2582363339
 30
0.0
 11
12.1730581838
 21
8.4222082131
 31
0.0
  0
LINE
  5
5CC
330
1F
100
AcDbEntity
  8
0
  6
Continuous
 62
     7
370
    25
100
AcDbLine
 10
12.5667590357
 20
8.2582363339
 30
0.0
 11
12.5667590357
 21
8.4222082131
 31
0.0
  0
LINE
  5
5CD
330
1F
100
AcDbEntity
  8
0
  6
Continuous
 62
     7
370
    25
100
AcDbLine
 10
12.4014046192
 20
8.6354978025
 30
0.0
 11
10.2832943878
 21
8.6354978025
 31
0.0
  0
LINE
  5
5CE
330
1F
100
AcDbEntity
  8
0
  6
Continuous
 62
     7
370
    25
100
AcDbLine
 10
10.2832943878
 20
8.6354978025
 30
0.0
 11
10.2832943878
 21
8.6348825429
 31
0.0
  0
LINE
  5
5CF
330
1F
100
AcDbEntity
  8
0
  6
Continuous
 62
     7
370
    25
100
AcDbLine
 10
10.3620345582
 20
8.1433777141
 30
0.0
 11
10.3620345582
 21
8.5370668329
 31
0.0
  0
LINE
  5
5D0
330
1F
100
AcDbEntity
  8
0
  6
Continuous
 62
     7
370
    25
100
AcDbLine
 10
10.5588849842
 20
8.635506749
 30
0.0
 11
10.5588849842
 21
8.6423791763
 31
0.0
  0
LINE
  5
5D1
330
1F
100
AcDbEntity
  8
0
  6
Continuous
 62
     7
370
    25
100
AcDbLine
 10
10.5588849842
 20
8.6423791763
 30
0.0
 11
12.4014046192
 21
8.6354978025
 31
0.0
  0
LINE
  5
5D2
330
1F
100
AcDbEntity
  8
0
  6
Continuous
 62
     7
370
    25
100
AcDbLine
 10
10.5588849842
 20
12.171923656
 30
0.0
 11
10.5588849842
 21
12.1787960833
 31
0.0
  0
LINE
  5
5D3
330
1F
100
AcDbEntity
  8
0
  6
Continuous
 62
     7
370
    25
100
AcDbLine
 10
12.1213889206
 20
12.1777591619
 30
0.0
 11
10.5588849842
 21
12.171923656
 31
0.0
  0
LINE
  5
5D4
330
1F
100
AcDbEntity
  8
0
  6
Continuous
 62
     7
370
    25
100
AcDbLine
 10
10.5588849842
 20
8.6423791763
 30
0.0
 11
10.5588849842
 21
12.171923656
 31
0.0
  0
LINE
  5
5D5
330
1F
100
AcDbEntity
  8
0
  6
Continuous
 62
     7
370
    25
100
AcDbLine
 10
10.2832943878
 20
8.6945496669
 30
0.0
 11
10.2832943878
 21
8.6354978025
 31
0.0
  0
LINE
  5
5D6
330
1F
100
AcDbEntity
  8
0
  6
Continuous
 62
     7
370
    25
100
AcDbLine
 10
10.2832943878
 20
12.1000648595
 30
0.0
 11
10.2832943878
 21
8.7142379728
 31
0.0
  0
LINE
  5
5D7
330
1F
100
AcDbEntity
  8
0
  6
CENTERX2
 62
     7
370
    18
100
AcDbLine
 10
10.3620345575
 20
10.4071514162
 30
0.0
 11
12.5273888882
 21
10.4071514162
 31
0.0
  0
LINE
  5
5D8
330
1F
100
AcDbEntity
  8
0
  6
CENTERX2
 62
     7
370
    18
100
AcDbLine
 10
10.3620345575
 20
10.4071514162
 30
0.0
 11
9.5746329827
 21
10.4071514162
 31
0.0
  0
HATCH
  5
5D9
330
1F
100
AcDbEntity
  8
0
  6
Continuous
 62
     7
370
    18
100
AcDbHatch
 10
0.0
 20
0.0
 30
0.0
210
0.0
220
0.0
230
1.0
  2
ANSI31
 70
     0
 71
     0
 91
        1
 92
        0
 93
       44
 72
     1
 10
12.40140463626851
 20
10.06315141616155
 11
12.40140463626851
 21
9.713662394293948
 72
     1
 10
12.40140463626851
 20
9.713662394293948
 11
12.52738888823701
 21
9.713662394293948
 72
     1
 10
12.52738888823701
 20
9.713662394293948
 11
12.52738888823701
 21
10.09219078624029
 72
     2
 10
13.04738888823701
 20
10.3915233771822
 40
0.6000000000000001
 50
150.0735651333859
 51
168.7677422692902
 73
     0
 72
     1
 10
12.4588815010895
 20
10.27465141616155
 11
12.52738888823701
 21
10.27465141616155
 72
     1
 10
12.52738888823701
 20
10.27465141616155
 11
12.52738888823701
 21
10.53965141616155
 72
     1
 10
12.52738888823701
 20
10.53965141616155
 11
12.4588815010895
 21
10.53965141616155
 72
     2
 10
13.04738888823701
 20
10.42277945514089
 40
0.6000000000000001
 50
191.2322577307109
 51
209.9264348666152
 73
     0
 72
     1
 10
12.52738888823701
 20
10.72211204608281
 11
12.52738888823701
 21
11.58810417206706
 72
     1
 10
12.52738888823701
 20
11.58810417206706
 11
12.5467589669773
 21
11.58810417206706
 72
     2
 10
12.54675896697726
 20
11.60810417206706
 40
0.02
 50
270.0000000000924
 51
359.9999999999957
 73
     1
 72
     1
 10
12.56675896697726
 20
11.60810417206705
 11
12.5667589669773
 21
11.96210417206705
 72
     2
 10
12.5467589669773
 20
11.96210417206706
 40
0.02
 50
359.9999999999957
 51
450.0000000000059
 73
     1
 72
     1
 10
12.5467589669773
 20
11.98210417206706
 11
12.52738888823701
 21
11.98210417206705
 72
     1
 10
12.52738888823701
 20
11.98210417206705
 11
12.52738888823701
 21
12.01865141616155
 72
     1
 10
12.52738888823701
 20
12.01865141616155
 11
12.54675896697697
 21
12.01865141616155
 72
     2
 10
12.54675896697699
 20
12.03865141616155
 40
0.02
 50
269.9999999999245
 51
360.0000000000059
 73
     1
 72
     1
 10
12.56675896697699
 20
12.03865141616155
 11
12.56675896697697
 21
12.31365141616155
 72
     2
 10
12.54675896697697
 20
12.31365141616155
 40
0.02
 50
0.0000000000050889
 51
90.0
 73
     1
 72
     1
 10
12.54675896697697
 20
12.33365141616155
 11
12.52738888823701
 21
12.33365141616155
 72
     1
 10
12.52738888823701
 20
12.33365141616155
 11
12.52738888823701
 21
12.79406484970399
 72
     1
 10
12.52738888823701
 20
12.79406484970399
 11
10.55888495122914
 21
12.82840732168041
 72
     1
 10
10.55888495122914
 20
12.82840732168041
 11
10.55888495122914
 21
12.86437138206689
 72
     1
 10
10.55888495122914
 20
12.86437138206689
 11
10.36203455752835
 21
12.86777740041347
 72
     1
 10
10.36203455752835
 20
12.86777740041347
 11
10.36203455752835
 21
12.7890411799411
 72
     1
 10
10.36203455752835
 20
12.7890411799411
 11
10.28329440004804
 21
12.78904117994109
 72
     1
 10
10.28329440004804
 20
12.78904117994109
 11
10.28329440004804
 21
12.74967110120094
 72
     1
 10
10.28329440004804
 20
12.74967110120094
 11
10.55888495122914
 21
12.74967110120092
 72
     1
 10
10.55888495122914
 20
12.74967110120092
 11
10.55888495122914
 21
12.70243023377197
 72
     1
 10
10.55888495122914
 20
12.70243023377197
 11
12.40140463626851
 21
12.67026165238203
 72
     1
 10
12.40140463626851
 20
12.67026165238203
 11
12.40140463626851
 21
12.33365141616155
 72
     1
 10
12.40140463626851
 20
12.33365141616155
 11
12.14138888823701
 21
12.33365141616155
 72
     2
 10
12.14138888823701
 20
12.31365141616155
 40
0.02
 50
90.0
 51
180.0
 73
     1
 72
     1
 10
12.12138888823701
 20
12.31365141616155
 11
12.12138888823701
 21
12.25865141616154
 72
     1
 10
12.12138888823701
 20
12.25865141616154
 11
12.38938888823701
 21
12.25865141616154
 72
     1
 10
12.38938888823701
 20
12.25865141616154
 11
12.38938888823701
 21
12.09365141616155
 72
     1
 10
12.38938888823701
 20
12.09365141616155
 11
12.12138888823701
 21
12.09365141616155
 72
     1
 10
12.12138888823701
 20
12.09365141616155
 11
12.12138888823701
 21
12.03865141616155
 72
     2
 10
12.14138888823701
 20
12.03865141616155
 40
0.02
 50
180.0
 51
270.0000000000008
 73
     1
 72
     1
 10
12.14138888823701
 20
12.01865141616155
 11
12.40140463626851
 21
12.01865141616155
 72
     1
 10
12.40140463626851
 20
12.01865141616155
 11
12.40140463626851
 21
10.75115141616155
 72
     2
 10
13.23640463626851
 20
10.41533152395741
 40
0.8999999999999999
 50
158.0910190573534
 51
180.0
 73
     1
 72
     1
 10
12.33640463626851
 20
10.41533152395741
 11
12.33640463626851
 21
10.39897130836569
 72
     2
 10
13.23640463626851
 20
10.39897130836569
 40
0.8999999999999999
 50
180.0
 51
201.9089809426476
 73
     1
 97
        0
 75
     0
 76
     1
 52
0.0
 41
1.5
 77
     0
 78
     1
 53
45.0
 43
0.0
 44
0.0
 45
-0.1325825214724776
 46
0.1325825214724777
 79
     0
 98
        1
 10
0.0
 20
0.0
  0
HATCH
  5
5DA
330
1F
100
AcDbEntity
  8
0
  6
Continuous
 62
     7
370
    18
100
AcDbHatch
 10
0.0
 20
0.0
 30
0.0
210
0.0
220
0.0
230
1.0
  2
ANSI31
 70
     0
 71
     0
 91
        1
 92
        0
 93
       13
 72
     1
 10
12.54707392760703
 20
8.556752384162902
 11
12.52738888823745
 21
8.556752384162879
 72
     1
 10
12.52738888823745
 20
8.556752384162879
 11
12.52738888823702
 21
9.713662394293948
 72
     1
 10
12.52738888823702
 20
9.713662394293948
 11
12.40140463626851
 21
9.713662394293948
 72
     1
 10
12.40140463626851
 20
9.713662394293948
 11
12.40140463626851
 21
8.634882506706997
 72
     1
 10
12.40140463626851
 20
8.634882506706997
 11
10.28329440004804
 21
8.634882506706997
 72
     1
 10
10.28329440004804
 20
8.634882506706997
 11
10.28329440004804
 21
8.595621156989143
 72
     1
 10
10.28329440004804
 20
8.595621156989143
 11
10.36203455752836
 21
8.595621156989143
 72
     1
 10
10.36203455752836
 20
8.595621156989143
 11
10.36203455752809
 21
8.537066811656906
 72
     4
 94
        3
 73
     1
 74
     0
 95
       17
 96
       13
 40
0.0829418134573285
 40
0.0829418134573285
 40
0.0829418134573285
 40
0.0829418134573285
 40
0.0880672658369565
 40
0.0880672658369565
 40
0.0880672658369565
 40
0.1196302146687138
 40
0.1196302146687138
 40
0.1196302146687138
 40
0.127520951876653
 40
0.127520951876653
 40
0.127520951876653
 40
0.1289526825480219
 40
0.1289526825480219
 40
0.1289526825480219
 40
0.1289526825480219
 10
10.36203455752809
 20
8.537066811656906
 42
1.0
 10
10.42928182286117
 20
8.535604871031962
 42
1.0
 10
10.49652908817318
 20
8.534142929437616
 42
1.0
 10
10.56377635346264
 20
8.532680986806051
 42
1.0
 10
10.97789043280579
 20
8.523678226257841
 42
1.0
 10
11.39200451131621
 20
8.514675427405397
 42
1.0
 10
11.80611858850653
 20
8.50567256783057
 42
1.0
 10
11.90964710780411
 20
8.503421852936867
 42
1.0
 10
12.01317562701768
 20
8.501171134178776
 42
1.0
 10
12.11670414613603
 20
8.498920411041128
 42
1.0
 10
12.13548882395219
 20
8.498512029762674
 42
1.0
 10
12.15427350176522
 20
8.498103648339804
 42
1.0
 10
12.17305817957503
 20
8.497695266769119
 42
1.0
 72
     1
 10
12.17305817957503
 20
8.497695266769119
 11
12.17305817957543
 21
8.422208203273255
 72
     1
 10
12.17305817957543
 20
8.422208203273255
 11
12.56675896697727
 21
8.42220820327374
 72
     1
 10
12.56675896697727
 20
8.422208203273737
 11
12.56675896697713
 21
8.537066696359908
 72
     4
 94
        3
 73
     1
 74
     0
 95
       20
 96
       16
 40
0.0
 40
0.0
 40
0.0
 40
0.0
 40
0.0001104504865267
 40
0.0001104504865267
 40
0.0001104504865267
 40
0.000279713922734
 40
0.000279713922734
 40
0.000279713922734
 40
0.0004489733037401
 40
0.0004489733037401
 40
0.0004489733037401
 40
0.0006182309346157
 40
0.0006182309346157
 40
0.0006182309346157
 40
0.0007874886751221
 40
0.0007874886751221
 40
0.0007874886751221
 40
0.0007874886751221
 10
12.56675896697713
 20
8.537066811656842
 42
1.0
 10
12.56675896697713
 20
8.538516293107326
 42
1.0
 10
12.5665969219622
 20
8.539974533596553
 42
1.0
 10
12.56627870684253
 20
8.54138865368088
 42
1.0
 10
12.56579500982051
 20
8.54353816082642
 42
1.0
 10
12.56493354123891
 20
8.545633802403124
 42
1.0
 10
12.56376562851471
 20
8.547502043192337
 42
1.0
 10
12.56259774354793
 20
8.549370239579636
 42
1.0
 10
12.5610912186764
 20
8.5510625697483
 42
1.0
 10
12.55937079684976
 20
8.55243889157679
 42
1.0
 10
12.55765039309405
 20
8.553815198948712
 42
1.0
 10
12.55566864756986
 20
8.55491346259906
 42
1.0
 10
12.55358966239407
 20
8.555642730522088
 42
1.0
 10
12.55151067647029
 20
8.556371998707496
 42
1.0
 10
12.54927711043138
 20
8.556752384162905
 42
1.0
 10
12.54707392760703
 20
8.556752384162902
 42
1.0
 97
        0
 75
     0
 76
     1
 52
0.0
 41
1.5
 77
     0
 78
     1
 53
45.0
 43
0.0
 44
0.0
 45
-0.1325825214724776
 46
0.1325825214724777
 79
     0
 98
        1
 10
0.0
 20
0.0
  0
HATCH
  5
5DB
330
1F
100
AcDbEntity
  8
0
  6
Continuous
 62
     7
370
    18
100
AcDbHatch
 10
0.0
 20
0.0
 30
0.0
210
0.0
220
0.0
230
1.0
  2
ANSI31
 70
     0
 71
     0
 91
        1
 92
        0
 93
       11
 72
     1
 10
10.36203455752833
 20
8.14337775294432
 11
10.36203455752836
 21
7.946525431909552
 72
     1
 10
10.36203455752836
 20
7.946525431909552
 11
10.55888495122914
 21
7.949931450256036
 72
     1
 10
10.55888495122914
 20
7.949931450256036
 11
10.55888495122914
 21
7.985895510642691
 72
     1
 10
10.55888495122914
 20
7.985895510642691
 11
12.52738888823702
 21
8.020237982619111
 72
     1
 10
12.52738888823702
 20
8.020237982619111
 11
12.52738888823718
 21
8.123692180443683
 72
     1
 10
12.52738888823718
 20
8.123692180443683
 11
12.54707392760756
 21
8.123692180443708
 72
     4
 94
        3
 73
     1
 74
     0
 95
       20
 96
       16
 40
0.0
 40
0.0
 40
0.0
 40
0.0
 40
0.0001104217052007
 40
0.0001104217052007
 40
0.0001104217052007
 40
0.0002796845378129
 40
0.0002796845378129
 40
0.0002796845378129
 40
0.0004489518317302
 40
0.0004489518317302
 40
0.0004489518317302
 40
0.0006182216948004
 40
0.0006182216948004
 40
0.0006182216948004
 40
0.0007874913904925
 40
0.0007874913904925
 40
0.0007874913904925
 40
0.0007874913904925
 10
12.54707392760756
 20
8.123692180443708
 42
1.0
 10
12.54852303135035
 20
8.12369218044371
 42
1.0
 10
12.54998088861466
 20
8.123854154122608
 42
1.0
 10
12.55139465298667
 20
8.12417222951903
 42
1.0
 10
12.55354416365343
 20
8.124655836597396
 42
1.0
 10
12.55563982010686
 20
8.125517240793283
 42
1.0
 10
12.55750807488067
 20
8.126685100379419
 42
1.0
 10
12.55937637826691
 20
8.127852990353531
 42
1.0
 10
12.56106880133143
 20
8.129359565013099
 42
1.0
 10
12.56244519244328
 20
8.131080051003122
 42
1.0
 10
12.56382160453913
 20
8.132800563223098
 42
1.0
 10
12.56491994070822
 20
8.134782448977024
 42
1.0
 10
12.56564925228373
 20
8.136861577925048
 42
1.0
 10
12.56637856344733
 20
8.138940705698769
 42
1.0
 10
12.56675896697762
 20
8.14117442204575
 42
1.0
 10
12.56675896697762
 20
8.143377752949815
 42
1.0
 72
     1
 10
12.56675896697762
 20
8.143377706974485
 11
12.56675896697748
 21
8.258236361332923
 72
     1
 10
12.56675896697748
 20
8.258236361332923
 11
12.17305817957543
 21
8.258236361332436
 72
     1
 10
12.17305817957543
 20
8.258236361332436
 11
12.17305817957542
 21
8.182749297836576
 72
     4
 94
        3
 73
     1
 74
     0
 95
       17
 96
       13
 40
0.0380219553683202
 40
0.0380219553683202
 40
0.0380219553683202
 40
0.0380219553683202
 40
0.0394536860397008
 40
0.0394536860397008
 40
0.0394536860397008
 40
0.0473444232476407
 40
0.0473444232476407
 40
0.0473444232476407
 40
0.0789073720794007
 40
0.0789073720794007
 40
0.0789073720794007
 40
0.084032824459021
 40
0.084032824459021
 40
0.084032824459021
 40
0.084032824459021
 10
12.17305817957542
 20
8.182749297836576
 42
1.0
 10
12.15427350176545
 20
8.182340916265842
 42
1.0
 10
12.13548882395228
 20
8.18193253484292
 42
1.0
 10
12.11670414613596
 20
8.181524153564418
 42
1.0
 10
12.01317562701761
 20
8.179273430426514
 42
1.0
 10
11.90964710780404
 20
8.177022711668169
 42
1.0
 10
11.80611858850646
 20
8.174771996774208
 42
1.0
 10
11.39200451131614
 20
8.16576913719836
 42
1.0
 10
10.97789043280571
 20
8.156766338344895
 42
1.0
 10
10.56377635346256
 20
8.147763577795661
 42
1.0
 10
10.49652908817321
 20
8.146301635163931
 42
1.0
 10
10.42928182286131
 20
8.144839693569423
 42
1.0
 10
10.36203455752833
 20
8.143377752944316
 42
1.0
 97
        0
 75
     0
 76
     1
 52
0.0
 41
1.5
 77
     0
 78
     1
 53
45.0
 43
0.0
 44
0.0
 45
-0.1325825214724776
 46
0.1325825214724777
 79
     0
 98
        1
 10
0.0
 20
0.0
  0
HATCH
  5
5DC
330
1F
100
AcDbEntity
  8
0
  6
Continuous
 62
     7
370
    18
100
AcDbHatch
 10
0.0
 20
0.0
 30
0.0
210
0.0
220
0.0
230
1.0
  2
ANSI31
 70
     0
 71
     0
 91
        1
 92
        0
 93
       12
 72
     1
 10
10.36203455752835
 20
7.946525431909556
 11
10.36203455752835
 21
8.064631721358605
 72
     1
 10
10.36203455752835
 20
8.064631721358605
 11
10.08644400634725
 21
8.064631721358607
 72
     1
 10
10.08644400634725
 20
8.064631721358607
 11
10.08644400634725
 21
8.143376305608397
 72
     1
 10
10.08644400634725
 20
8.143376305608397
 11
9.968333770126776
 21
8.143376305608395
 72
     1
 10
9.968333770126776
 20
8.143376305608395
 11
9.968333770126776
 21
8.104006691339151
 72
     1
 10
9.968333770126776
 20
8.104006691339151
 11
9.574632982725202
 21
8.104006691339153
 72
     1
 10
9.574632982725202
 20
8.104006691339153
 11
9.574632982725202
 21
8.073591613181238
 72
     2
 10
9.653373140205519
 20
8.073591613193052
 40
0.078740157480315
 50
180.0000000085978
 51
268.9988540666335
 73
     1
 72
     1
 10
9.651997360386785
 20
7.994863475720386
 11
10.16518416382756
 21
7.985895499719951
 72
     1
 10
10.16518416382756
 20
7.985895499719951
 11
10.16518416382756
 21
7.975552046304614
 72
     2
 10
10.18486920319764
 20
7.975552046304614
 40
0.0196850393700787
 50
180.0
 51
266.9904711651503
 73
     1
 72
     1
 10
10.18383569852955
 20
7.955894156206677
 11
10.36203455752835
 21
7.946525431909556
 97
        0
 75
     0
 76
     1
 52
0.0
 41
1.5
 77
     0
 78
     1
 53
45.0
 43
0.0
 44
0.0
 45
-0.1325825214724776
 46
0.1325825214724777
 79
     0
 98
        1
 10
0.0
 20
0.0
  0
HATCH
  5
5DD
330
1F
100
AcDbEntity
  8
0
  6
Continuous
 62
     7
370
    18
100
AcDbHatch
 10
0.0
 20
0.0
 30
0.0
210
0.0
220
0.0
230
1.0
  2
ANSI31
 70
     0
 71
     0
 91
        1
 92
        0
 93
       12
 72
     1
 10
9.70061723469371
 20
8.723275568521242
 11
9.70061723469371
 21
9.713662394293982
 72
     1
 10
9.70061723469371
 20
9.713662394293982
 11
9.574632982725205
 21
9.713662394293982
 72
     1
 10
9.574632982725205
 20
9.713662394293982
 11
9.574632982725202
 21
8.576437862345033
 72
     1
 10
9.574632982725202
 20
8.576437862345033
 11
9.968333770126778
 21
8.576437862345033
 72
     1
 10
9.968333770126778
 20
8.576437862345033
 11
9.968333770126778
 21
8.537066801855648
 72
     1
 10
9.968333770126778
 20
8.537066801855648
 11
10.36203455752835
 21
8.537066801855648
 72
     1
 10
10.36203455752835
 20
8.537066801855648
 11
10.36203455752835
 21
8.57643786234496
 72
     1
 10
10.36203455752835
 20
8.57643786234496
 11
10.2242392819378
 21
8.57643786234496
 72
     1
 10
10.2242392819378
 20
8.57643786234496
 11
10.2242392819378
 21
8.69454972756349
 72
     1
 10
10.2242392819378
 20
8.69454972756349
 11
10.36203455752835
 21
8.69454972756349
 72
     1
 10
10.36203455752835
 20
8.69454972756349
 11
10.36203455752835
 21
8.7116863705107
 72
     4
 94
        3
 73
     1
 74
     0
 95
       14
 96
       10
 40
0.0
 40
0.0
 40
0.0
 40
0.0
 40
0.0050310581317329
 40
0.0050310581317329
 40
0.0050310581317329
 40
0.0100621162692581
 40
0.0100621162692581
 40
0.0100621162692581
 40
0.0168025789059899
 40
0.0168025789059899
 40
0.0168025789059899
 40
0.0168025789059899
 10
10.36203455752834
 20
8.711686450495547
 42
1.0
 10
10.29601990314581
 20
8.712819946086638
 42
1.0
 10
10.23000535901508
 20
8.713959883557965
 42
1.0
 10
10.16399093462869
 20
8.715106695850027
 42
1.0
 10
10.09797651019701
 20
8.716253508142874
 42
1.0
 10
10.03196220478896
 20
8.717407195222458
 42
1.0
 10
9.965948028593031
 20
8.718568208854457
 42
1.0
 10
9.87750419164999
 20
8.720123700512072
 42
1.0
 10
9.789060584803734
 20
8.72169234078601
 42
1.0
 10
9.70061723469371
 20
8.723275271239304
 42
1.0
 97
        0
 75
     0
 76
     1
 52
0.0
 41
1.5
 77
     0
 78
     1
 53
45.0
 43
0.0
 44
0.0
 45
-0.1325825214724776
 46
0.1325825214724777
 79
     0
 98
        1
 10
0.0
 20
0.0
  0
HATCH
  5
5DE
330
1F
100
AcDbEntity
  8
0
  6
Continuous
 62
     7
370
    18
100
AcDbHatch
 10
0.0
 20
0.0
 30
0.0
210
0.0
220
0.0
230
1.0
  2
ANSI31
 70
     0
 71
     0
 91
        1
 92
        0
 93
       14
 72
     1
 10
9.700617234693702
 20
9.713662394293946
 11
9.700617234693707
 21
12.66142130191879
 72
     1
 10
9.700617234693707
 20
12.66142130191879
 11
10.36203455752835
 21
12.67299611595654
 72
     1
 10
10.36203455752835
 20
12.67299611595654
 11
10.36203455752835
 21
12.69061597762942
 72
     1
 10
10.36203455752835
 20
12.69061597762942
 11
10.2242392819378
 21
12.69061597762942
 72
     1
 10
10.2242392819378
 20
12.69061597762942
 11
10.2242392819378
 21
12.80872621384989
 72
     1
 10
10.2242392819378
 20
12.80872621384989
 11
10.36203455752835
 21
12.80872621384989
 72
     1
 10
10.36203455752835
 20
12.80872621384989
 11
10.36203455752835
 21
12.86777740041355
 72
     1
 10
10.36203455752835
 20
12.86777740041355
 11
10.18383569852976
 21
12.85840867611657
 72
     2
 10
10.18486920319764
 20
12.83875078601862
 40
0.0196850393700787
 50
93.00952883426547
 51
180.0
 73
     1
 72
     1
 10
10.16518416382756
 20
12.83875078601862
 11
10.16518416382756
 21
12.82840732168034
 72
     1
 10
10.16518416382756
 20
12.82840732168034
 11
9.651997360386824
 21
12.81943934568016
 72
     2
 10
9.653373140205517
 20
12.74071120820749
 40
0.078740157480315
 50
91.0011459333376
 51
179.9999999911342
 73
     1
 72
     1
 10
9.574632982725202
 20
12.74071120821967
 11
9.5746329827252
 21
9.713662394293948
 72
     1
 10
9.5746329827252
 20
9.713662394293948
 11
9.700617234693702
 21
9.713662394293946
 97
        0
 75
     0
 76
     1
 52
0.0
 41
1.5
 77
     0
 78
     1
 53
45.0
 43
0.0
 44
0.0
 45
-0.1325825214724776
 46
0.1325825214724777
 79
     0
 98
        1
 10
0.0
 20
0.0
  0
DIMENSION
  5
5DF
330
1F
100
AcDbEntity
  8
0
  6
Continuous
 62
     7
370
    18
100
AcDbDimension
  2
_D_21
 10
12.4014046363
 20
9.5216405357
 30
0.0
 11
11.0510109355
 21
9.5216405357
 31
0.0
 70
   160
  1
<>
 71
     2
 42
-1.0
  3
SLDDIMSTYLE3
100
AcDbAlignedDimension
 13
9.7006172347
 23
8.7232755685
 33
0.0
 14
12.4014046363
 24
8.6348825067
 34
0.0
 50
0.0
100
AcDbRotatedDimension
  0
DIMENSION
  5
5F2
330
1F
100
AcDbEntity
  8
0
  6
Continuous
 62
     7
370
    18
100
AcDbDimension
  2
_D_22
 10
12.5273888882
 20
9.5216405357
 30
0.0
 11
13.4015324958
 21
9.5216405357
 31
0.0
 70
   160
  1
<>
 71
     2
 42
-1.0
  3
SLDDIMSTYLE2
100
AcDbAlignedDimension
 13
12.4014046363
 23
8.6348825067
 33
0.0
 14
12.5273888882
 24
8.5567523842
 34
0.0
 50
0.0
100
AcDbRotatedDimension
  0
DIMENSION
  5
604
330
1F
100
AcDbEntity
  8
0
  6
Continuous
 62
     7
370
    18
100
AcDbDimension
  2
_D_23
 10
9.5746329827
 20
9.5216405357
 30
0.0
 11
8.7418981649
 21
9.5216405357
 31
0.0
 70
   160
  1
<>
 71
     2
 42
-1.0
  3
SLDDIMSTYLE2
100
AcDbAlignedDimension
 13
9.7006172347
 23
8.7232755685
 33
0.0
 14
9.5746329827
 24
8.5764378623
 34
0.0
100
AcDbRotatedDimension
  0
DIMENSION
  5
616
330
1F
100
AcDbEntity
  8
0
  6
Continuous
 62
     7
370
    18
100
AcDbDimension
  2
_D_24
 10
12.4014046363
 20
11.3290253893
 30
0.0
 11
13.1584208785
 21
11.3290253893
 31
0.0
 70
   160
  1
<>
 71
     2
 42
-1.0
  3
SLDDIMSTYLE2
100
AcDbAlignedDimension
 13
12.1213888882
 23
11.7351514162
 33
0.0
 14
12.4014046363
 24
10.7511514162
 34
0.0
100
AcDbRotatedDimension
  0
MTEXT
  5
629
330
1F
100
AcDbEntity
  8
0
  6
Continuous
 62
     7
370
    18
100
AcDbMText
 10
11.1013400656
 20
7.5627172249
 30
0.0
 40
0.1875
 41
0.0
 71
     2
 72
     1
  1
SECTION A-A
  7
SLDTEXTSTYLE0
 73
     1
 44
1.0
  0
LINE
  5
62A
330
1F
100
AcDbEntity
  8
0
  6
CENTERX2
 62
     7
370
    18
100
AcDbLine
 10
12.7643888882
 20
12.1761514162
 30
0.0
 11
11.7463888882
 21
12.1761514162
 31
0.0
  0
LINE
  5
62B
330
1F
100
AcDbEntity
  8
0
  6
CENTERX2
 62
     7
370
    18
100
AcDbLine
 10
10.4614440063
 20
8.3402222725
 30
0.0
 11
9.5933337701
 21
8.3402222725
 31
0.0
  0
ENDSEC
  0
SECTION
  2
OBJECTS
  0
DICTIONARY
  5
C
330
0
100
AcDbDictionary
281
     1
  3
ACAD_GROUP
350
D
  3
ACAD_LAYOUT
350
1A
  3
ACAD_MLINESTYLE
350
17
  3
ACAD_PLOTSETTINGS
350
19
  3
ACAD_PLOTSTYLENAME
350
E
  3
ACAD_SCALELIST
350
47
  0
DICTIONARY
  5
D
102
{ACAD_REACTORS
330
C
102
}
330
C
100
AcDbDictionary
281
     1
  0
DICTIONARY
  5
1A
102
{ACAD_REACTORS
330
C
102
}
330
C
100
AcDbDictionary
281
     1
  3
Layout1
350
1E
  3
Layout2
350
26
  3
Model
350
22
  0
DICTIONARY
  5
17
102
{ACAD_REACTORS
330
C
102
}
330
C
100
AcDbDictionary
281
     1
  3
Standard
350
18
  0
DICTIONARY
  5
19
102
{ACAD_REACTORS
330
C
102
}
330
C
100
AcDbDictionary
281
     1
  0
ACDBDICTIONARYWDFLT
  5
E
102
{ACAD_REACTORS
330
C
102
}
330
C
100
AcDbDictionary
281
     1
  3
Normal
350
F
100
AcDbDictionaryWithDefault
340
F
  0
DICTIONARY
  5
47
102
{ACAD_REACTORS
330
C
102
}
330
C
100
AcDbDictionary
281
     1
  3
A0
350
48
  3
A1
350
49
  3
A2
350
4A
  3
A3
350
4B
  3
A4
350
4C
  3
A5
350
4D
  3
A6
350
4E
  3
A7
350
4F
  3
A8
350
50
  3
A9
350
51
  3
B0
350
52
  3
B1
350
53
  3
B2
350
54
  3
B3
350
55
  3
B4
350
56
  3
B5
350
57
  3
B6
350
58
  3
B7
350
59
  3
B8
350
5A
  3
B9
350
5B
  3
C0
350
5C
  3
C1
350
5D
  3
C2
350
5E
  3
C3
350
5F
  3
C4
350
60
  3
C5
350
61
  3
C6
350
62
  3
C7
350
63
  3
C8
350
64
  3
C9
350
65
  3
D0
350
66
  3
D1
350
67
  3
D2
350
68
  0
LAYOUT
  5
1E
102
{ACAD_REACTORS
330
1A
102
}
330
1A
100
AcDbPlotSettings
  1

  2
none_device
  4

  6

 40
0.0
 41
0.0
 42
0.0
 43
0.0
 44
0.0
 45
0.0
 46
0.0
 47
0.0
 48
0.0
 49
0.0
140
0.0
141
0.0
142
1.0
143
1.0
 70
   688
 72
     0
 73
     0
 74
     5
  7

 75
    16
147
1.0
148
0.0
149
0.0
100
AcDbLayout
  1
Layout1
 70
     1
 71
     1
 10
0.0
 20
0.0
 11
12.0
 21
9.0
 12
0.0
 22
0.0
 32
0.0
 14
1.0000000000E+20
 24
1.0000000000E+20
 34
1.0000000000E+20
 15
-1.0000000000E+20
 25
-1.0000000000E+20
 35
-1.0000000000E+20
146
0.0
 13
0.0
 23
0.0
 33
0.0
 16
1.0
 26
0.0
 36
0.0
 17
0.0
 27
1.0
 37
0.0
 76
     0
330
1B
  0
LAYOUT
  5
26
102
{ACAD_REACTORS
330
1A
102
}
330
1A
100
AcDbPlotSettings
  1

  2
none_device
  4

  6

 40
0.0
 41
0.0
 42
0.0
 43
0.0
 44
0.0
 45
0.0
 46
0.0
 47
0.0
 48
0.0
 49
0.0
140
0.0
141
0.0
142
1.0
143
1.0
 70
   688
 72
     0
 73
     0
 74
     5
  7

 75
    16
147
1.0
148
0.0
149
0.0
100
AcDbLayout
  1
Layout2
 70
     1
 71
     2
 10
0.0
 20
0.0
 11
0.0
 21
0.0
 12
0.0
 22
0.0
 32
0.0
 14
0.0
 24
0.0
 34
0.0
 15
0.0
 25
0.0
 35
0.0
146
0.0
 13
0.0
 23
0.0
 33
0.0
 16
1.0
 26
0.0
 36
0.0
 17
0.0
 27
1.0
 37
0.0
 76
     0
330
23
  0
LAYOUT
  5
22
102
{ACAD_REACTORS
330
1A
102
}
330
1A
100
AcDbPlotSettings
  1

  2
none_device
  4
Letter_(8.50_x_11.00_Inches)
  6

 40
6.35
 41
6.35
 42
6.35000508
 43
6.35000508
 44
215.9
 45
279.4
 46
0.0
 47
0.0
 48
0.0
 49
0.0
140
0.0
141
0.0
142
1.0
143
1.0
 70
  1712
 72
     0
 73
     0
 74
     0
  7

 75
     0
147
1.0
148
0.0
149
0.0
100
AcDbLayout
  1
Model
 70
     1
 71
     0
 10
0.0
 20
0.0
 11
25.5
 21
16.5
 12
0.0
 22
0.0
 32
0.0
 14
0.0
 24
0.0
 34
0.0
 15
25.5
 25
16.5
 35
0.0
146
0.0
 13
0.0
 23
0.0
 33
0.0
 16
1.0
 26
0.0
 36
0.0
 17
0.0
 27
1.0
 37
0.0
 76
     0
330
1F
331
29
  0
MLINESTYLE
  5
18
102
{ACAD_REACTORS
330
17
102
}
330
17
100
AcDbMlineStyle
  2
Standard
 70
     0
  3

 62
   256
 51
90.0
 52
90.0
 71
     2
 49
0.5
 62
   256
  6
BYLAYER
 49
-0.5
 62
   256
  6
BYLAYER
  0
ACDBPLACEHOLDER
  5
F
102
{ACAD_REACTORS
330
E
102
}
330
E
  0
SCALE
  5
48
102
{ACAD_REACTORS
330
47
102
}
330
47
100
AcDbScale
 70
     0
300
1:1
140
1.0
141
1.0
290
     1
  0
SCALE
  5
49
102
{ACAD_REACTORS
330
47
102
}
330
47
100
AcDbScale
 70
     0
300
1:2
140
1.0
141
2.0
290
     0
  0
SCALE
  5
4A
102
{ACAD_REACTORS
330
47
102
}
330
47
100
AcDbScale
 70
     0
300
1:4
140
1.0
141
4.0
290
     0
  0
SCALE
  5
4B
102
{ACAD_REACTORS
330
47
102
}
330
47
100
AcDbScale
 70
     0
300
1:5
140
1.0
141
5.0
290
     0
  0
SCALE
  5
4C
102
{ACAD_REACTORS
330
47
102
}
330
47
100
AcDbScale
 70
     0
300
1:8
140
1.0
141
8.0
290
     0
  0
SCALE
  5
4D
102
{ACAD_REACTORS
330
47
102
}
330
47
100
AcDbScale
 70
     0
300
1:10
140
1.0
141
10.0
290
     0
  0
SCALE
  5
4E
102
{ACAD_REACTORS
330
47
102
}
330
47
100
AcDbScale
 70
     0
300
1:16
140
1.0
141
16.0
290
     0
  0
SCALE
  5
4F
102
{ACAD_REACTORS
330
47
102
}
330
47
100
AcDbScale
 70
     0
300
1:20
140
1.0
141
20.0
290
     0
  0
SCALE
  5
50
102
{ACAD_REACTORS
330
47
102
}
330
47
100
AcDbScale
 70
     0
300
1:30
140
1.0
141
30.0
290
     0
  0
SCALE
  5
51
102
{ACAD_REACTORS
330
47
102
}
330
47
100
AcDbScale
 70
     0
300
1:40
140
1.0
141
40.0
290
     0
  0
SCALE
  5
52
102
{ACAD_REACTORS
330
47
102
}
330
47
100
AcDbScale
 70
     0
300
1:50
140
1.0
141
50.0
290
     0
  0
SCALE
  5
53
102
{ACAD_REACTORS
330
47
102
}
330
47
100
AcDbScale
 70
     0
300
1:100
140
1.0
141
100.0
290
     0
  0
SCALE
  5
54
102
{ACAD_REACTORS
330
47
102
}
330
47
100
AcDbScale
 70
     0
300
2:1
140
2.0
141
1.0
290
     0
  0
SCALE
  5
55
102
{ACAD_REACTORS
330
47
102
}
330
47
100
AcDbScale
 70
     0
300
4:1
140
4.0
141
1.0
290
     0
  0
SCALE
  5
56
102
{ACAD_REACTORS
330
47
102
}
330
47
100
AcDbScale
 70
     0
300
8:1
140
8.0
141
1.0
290
     0
  0
SCALE
  5
57
102
{ACAD_REACTORS
330
47
102
}
330
47
100
AcDbScale
 70
     0
300
10:1
140
10.0
141
1.0
290
     0
  0
SCALE
  5
58
102
{ACAD_REACTORS
330
47
102
}
330
47
100
AcDbScale
 70
     0
300
100:1
140
100.0
141
1.0
290
     0
  0
SCALE
  5
59
102
{ACAD_REACTORS
330
47
102
}
330
47
100
AcDbScale
 70
     0
300
1/128" = 1'-0"
140
0.0078125
141
12.0
290
     0
  0
SCALE
  5
5A
102
{ACAD_REACTORS
330
47
102
}
330
47
100
AcDbScale
 70
     0
300
1/64" = 1'-0"
140
0.015625
141
12.0
290
     0
  0
SCALE
  5
5B
102
{ACAD_REACTORS
330
47
102
}
330
47
100
AcDbScale
 70
     0
300
1/32" = 1'-0"
140
0.03125
141
12.0
290
     0
  0
SCALE
  5
5C
102
{ACAD_REACTORS
330
47
102
}
330
47
100
AcDbScale
 70
     0
300
1/16" = 1'-0"
140
0.0625
141
12.0
290
     0
  0
SCALE
  5
5D
102
{ACAD_REACTORS
330
47
102
}
330
47
100
AcDbScale
 70
     0
300
3/32" = 1'-0"
140
0.09375
141
12.0
290
     0
  0
SCALE
  5
5E
102
{ACAD_REACTORS
330
47
102
}
330
47
100
AcDbScale
 70
     0
300
1/8" = 1'-0"
140
0.125
141
12.0
290
     0
  0
SCALE
  5
5F
102
{ACAD_REACTORS
330
47
102
}
330
47
100
AcDbScale
 70
     0
300
3/16" = 1'-0"
140
0.1875
141
12.0
290
     0
  0
SCALE
  5
60
102
{ACAD_REACTORS
330
47
102
}
330
47
100
AcDbScale
 70
     0
300
1/4" = 1'-0"
140
0.25
141
12.0
290
     0
  0
SCALE
  5
61
102
{ACAD_REACTORS
330
47
102
}
330
47
100
AcDbScale
 70
     0
300
3/8" = 1'-0"
140
0.375
141
12.0
290
     0
  0
SCALE
  5
62
102
{ACAD_REACTORS
330
47
102
}
330
47
100
AcDbScale
 70
     0
300
1/2" = 1'-0"
140
0.5
141
12.0
290
     0
  0
SCALE
  5
63
102
{ACAD_REACTORS
330
47
102
}
330
47
100
AcDbScale
 70
     0
300
3/4" = 1'-0"
140
0.75
141
12.0
290
     0
  0
SCALE
  5
64
102
{ACAD_REACTORS
330
47
102
}
330
47
100
AcDbScale
 70
     0
300
1" = 1'-0"
140
1.0
141
12.0
290
     0
  0
SCALE
  5
65
102
{ACAD_REACTORS
330
47
102
}
330
47
100
AcDbScale
 70
     0
300
1-1/2" = 1'-0"
140
1.5
141
12.0
290
     0
  0
SCALE
  5
66
102
{ACAD_REACTORS
330
47
102
}
330
47
100
AcDbScale
 70
     0
300
3" = 1'-0"
140
3.0
141
12.0
290
     0
  0
SCALE
  5
67
102
{ACAD_REACTORS
330
47
102
}
330
47
100
AcDbScale
 70
     0
300
6" = 1'-0"
140
6.0
141
12.0
290
     0
  0
SCALE
  5
68
102
{ACAD_REACTORS
330
47
102
}
330
47
100
AcDbScale
 70
     0
300
1'-0" = 1'-0"
140
12.0
141
12.0
290
     0
  0
ENDSEC
  0
EOF
