  0
SECTION
  2
HEADER
  9
$ACADVER
  1
AC1015
  9
$ACADMAINTVER
 70
     6
  9
$DWGCODEPAGE
  3
ANSI_1252
  9
$INSBASE
 10
0.0
 20
0.0
 30
0.0
  9
$EXTMIN
 10
-0.0147652783981585
 20
-0.0070998874267616
 30
-0.0015258207003583
  9
$EXTMAX
 10
151.8207934212192
 20
232.514203315071
 30
0.0000000349246037
  9
$LIMMIN
 10
0.0
 20
0.0
  9
$LIMMAX
 10
483.865558
 20
232.6668619999999
  9
$ORTHOMODE
 70
     1
  9
$REGENMODE
 70
     1
  9
$FILLMODE
 70
     1
  9
$QTEXTMODE
 70
     0
  9
$MIRRTEXT
 70
     0
  9
$LTSCALE
 40
11.25
  9
$ATTMODE
 70
     1
  9
$TEXTSIZE
 40
1.875
  9
$TRACEWID
 40
0.05
  9
$TEXTSTYLE
  7
TXT
  9
$CLAYER
  8
0
  9
$CELTYPE
  6
ByLayer
  9
$CECOLOR
 62
   256
  9
$CELTSCALE
 40
1.0
  9
$DISPSILH
 70
     0
  9
$DIMSCALE
 40
15.0
  9
$DIMASZ
 40
0.18
  9
$DIMEXO
 40
0.063
  9
$DIMDLI
 40
0.281
  9
$DIMRND
 40
0.0
  9
$DIMDLE
 40
0.0
  9
$DIMEXE
 40
0.093
  9
$DIMTP
 40
0.0
  9
$DIMTM
 40
0.0
  9
$DIMTXT
 40
0.125
  9
$DIMCEN
 40
0.09
  9
$DIMTSZ
 40
0.0
  9
$DIMTOL
 70
     0
  9
$DIMLIM
 70
     0
  9
$DIMTIH
 70
     1
  9
$DIMTOH
 70
     1
  9
$DIMSE1
 70
     0
  9
$DIMSE2
 70
     0
  9
$DIMTAD
 70
     0
  9
$DIMZIN
 70
     0
  9
$DIMBLK
  1

  9
$DIMASO
 70
     1
  9
$DIMSHO
 70
     1
  9
$DIMPOST
  1

  9
$DIMAPOST
  1
ction
  9
$DIMALT
 70
     0
  9
$DIMALTD
 70
     2
  9
$DIMALTF
 40
25.4
  9
$DIMLFAC
 40
1.0
  9
$DIMTOFL
 70
     0
  9
$DIMTVP
 40
0.0
  9
$DIMTIX
 70
     0
  9
$DIMSOXD
 70
     0
  9
$DIMSAH
 70
     0
  9
$DIMBLK1
  1

  9
$DIMBLK2
  1

  9
$DIMSTYLE
  2
23NSTD
  9
$DIMCLRD
 70
     0
  9
$DIMCLRE
 70
     0
  9
$DIMCLRT
 70
     0
  9
$DIMTFAC
 40
1.0
  9
$DIMGAP
 40
0.09
  9
$DIMJUST
 70
     0
  9
$DIMSD1
 70
     0
  9
$DIMSD2
 70
     0
  9
$DIMTOLJ
 70
     1
  9
$DIMTZIN
 70
     0
  9
$DIMALTZ
 70
     0
  9
$DIMALTTZ
 70
     0
  9
$DIMUPT
 70
     0
  9
$DIMDEC
 70
     3
  9
$DIMTDEC
 70
     3
  9
$DIMALTU
 70
     2
  9
$DIMALTTD
 70
     2
  9
$DIMTXSTY
  7
TXT
  9
$DIMAUNIT
 70
     0
  9
$DIMADEC
 70
     0
  9
$DIMALTRND
 40
0.0
  9
$DIMAZIN
 70
     0
  9
$DIMDSEP
 70
    46
  9
$DIMATFIT
 70
     1
  9
$DIMFRAC
 70
     0
  9
$DIMLDRBLK
  1

  9
$DIMLUNIT
 70
     2
  9
$DIMLWD
 70
    -2
  9
$DIMLWE
 70
    -2
  9
$DIMTMOVE
 70
     0
  9
$LUNITS
 70
     2
  9
$LUPREC
 70
     3
  9
$SKETCHINC
 40
0.1
  9
$FILLETRAD
 40
0.0
  9
$AUNITS
 70
     0
  9
$AUPREC
 70
     0
  9
$MENU
  1
acad
  9
$ELEVATION
 40
0.0
  9
$PELEVATION
 40
0.0
  9
$THICKNESS
 40
0.0
  9
$LIMCHECK
 70
     0
  9
$CHAMFERA
 40
0.0
  9
$CHAMFERB
 40
0.0
  9
$CHAMFERC
 40
0.0
  9
$CHAMFERD
 40
0.0
  9
$SKPOLY
 70
     0
  9
$TDCREATE
 40
2448390.612030555
  9
$TDUCREATE
 40
2448390.820363889
  9
$TDUPDATE
 40
2455589.398871157
  9
$TDUUPDATE
 40
2455589.607204490
  9
$TDINDWG
 40
0.0635269676
  9
$TDUSRTIMER
 40
0.0635269676
  9
$USRTIMER
 70
     1
  9
$ANGBASE
 50
0.0
  9
$ANGDIR
 70
     0
  9
$PDMODE
 70
     0
  9
$PDSIZE
 40
0.0
  9
$PLINEWID
 40
0.0
  9
$SPLFRAME
 70
     0
  9
$SPLINETYPE
 70
     6
  9
$SPLINESEGS
 70
     8
  9
$HANDSEED
  5
C96
  9
$SURFTAB1
 70
     6
  9
$SURFTAB2
 70
     6
  9
$SURFTYPE
 70
     6
  9
$SURFU
 70
     6
  9
$SURFV
 70
     6
  9
$UCSBASE
  2

  9
$UCSNAME
  2

  9
$UCSORG
 10
0.0
 20
0.0
 30
0.0
  9
$UCSXDIR
 10
1.0
 20
0.0
 30
0.0
  9
$UCSYDIR
 10
0.0
 20
1.0
 30
0.0
  9
$UCSORTHOREF
  2

  9
$UCSORTHOVIEW
 70
     0
  9
$UCSORGTOP
 10
0.0
 20
0.0
 30
0.0
  9
$UCSORGBOTTOM
 10
0.0
 20
0.0
 30
0.0
  9
$UCSORGLEFT
 10
0.0
 20
0.0
 30
0.0
  9
$UCSORGRIGHT
 10
0.0
 20
0.0
 30
0.0
  9
$UCSORGFRONT
 10
0.0
 20
0.0
 30
0.0
  9
$UCSORGBACK
 10
0.0
 20
0.0
 30
0.0
  9
$PUCSBASE
  2

  9
$PUCSNAME
  2

  9
$PUCSORG
 10
0.0
 20
0.0
 30
0.0
  9
$PUCSXDIR
 10
1.0
 20
0.0
 30
0.0
  9
$PUCSYDIR
 10
0.0
 20
1.0
 30
0.0
  9
$PUCSORTHOREF
  2

  9
$PUCSORTHOVIEW
 70
     0
  9
$PUCSORGTOP
 10
0.0
 20
0.0
 30
0.0
  9
$PUCSORGBOTTOM
 10
0.0
 20
0.0
 30
0.0
  9
$PUCSORGLEFT
 10
0.0
 20
0.0
 30
0.0
  9
$PUCSORGRIGHT
 10
0.0
 20
0.0
 30
0.0
  9
$PUCSORGFRONT
 10
0.0
 20
0.0
 30
0.0
  9
$PUCSORGBACK
 10
0.0
 20
0.0
 30
0.0
  9
$USERI1
 70
     0
  9
$USERI2
 70
     0
  9
$USERI3
 70
     0
  9
$USERI4
 70
     0
  9
$USERI5
 70
     0
  9
$USERR1
 40
0.0
  9
$USERR2
 40
0.0
  9
$USERR3
 40
0.0
  9
$USERR4
 40
0.0
  9
$USERR5
 40
0.0
  9
$WORLDVIEW
 70
     1
  9
$SHADEDGE
 70
     3
  9
$SHADEDIF
 70
    70
  9
$TILEMODE
 70
     1
  9
$MAXACTVP
 70
    16
  9
$PINSBASE
 10
0.0
 20
0.0
 30
0.0
  9
$PLIMCHECK
 70
     0
  9
$PEXTMIN
 10
1.000000000000000E+20
 20
1.000000000000000E+20
 30
1.000000000000000E+20
  9
$PEXTMAX
 10
-1.000000000000000E+20
 20
-1.000000000000000E+20
 30
-1.000000000000000E+20
  9
$PLIMMIN
 10
0.0
 20
0.0
  9
$PLIMMAX
 10
12.0
 20
9.0
  9
$UNITMODE
 70
     0
  9
$VISRETAIN
 70
     0
  9
$PLINEGEN
 70
     0
  9
$PSLTSCALE
 70
     0
  9
$TREEDEPTH
 70
  3020
  9
$CMLSTYLE
  2
Standard
  9
$CMLJUST
 70
     0
  9
$CMLSCALE
 40
1.0
  9
$PROXYGRAPHICS
 70
     1
  9
$MEASUREMENT
 70
     0
  9
$CELWEIGHT
370
    -1
  9
$ENDCAPS
280
     0
  9
$JOINSTYLE
280
     0
  9
$LWDISPLAY
290
     0
  9
$INSUNITS
 70
     0
  9
$HYPERLINKBASE
  1

  9
$STYLESHEET
  1
monochrome.ctb
  9
$XEDIT
290
     1
  9
$CEPSNTYPE
380
     0
  9
$PSTYLEMODE
290
     1
  9
$FINGERPRINTGUID
  2
{CFDDB971-A9E0-4CE8-950B-965DDD10548D}
  9
$VERSIONGUID
  2
{9A175C11-8E59-40A7-B6E8-509182CFE801}
  9
$EXTNAMES
290
     1
  9
$PSVPSCALE
 40
0.0
  9
$OLESTARTUP
290
     0
  0
ENDSEC
  0
SECTION
  2
CLASSES
  0
CLASS
  1
ACDBDICTIONARYWDFLT
  2
AcDbDictionaryWithDefault
  3
AutoCAD 2000
 90
        0
280
     0
281
     0
  0
CLASS
  1
ACDBPLACEHOLDER
  2
AcDbPlaceHolder
  3
AutoCAD 2000
 90
        0
280
     0
281
     0
  0
CLASS
  1
LAYOUT
  2
AcDbLayout
  3
AutoCAD 2000
 90
        0
280
     0
281
     0
  0
ENDSEC
  0
SECTION
  2
TABLES
  0
TABLE
  2
VPORT
  5
8
330
0
100
AcDbSymbolTable
 70
     9
  0
VPORT
  5
C95
330
8
100
AcDbSymbolTableRecord
100
AcDbViewportTableRecord
  2
*Active
 70
     0
 10
0.0
 20
0.0
 11
1.0
 21
1.0
 12
75.90301407141055
 22
116.2535517138221
 13
0.0
 23
0.0
 14
1.0
 24
1.0
 15
0.0
 25
0.0
 16
0.0
 26
0.0
 36
1.0
 17
0.0
 27
0.0
 37
0.0
 40
235.1096665034532
 41
1.711895910780669
 42
50.0
 43
0.0
 44
0.0
 50
0.0
 51
0.0
 71
     0
 72
   100
 73
     1
 74
     0
 75
     0
 76
     0
 77
     0
 78
     0
281
     0
 65
     1
110
0.0
120
0.0
130
0.0
111
1.0
121
0.0
131
0.0
112
0.0
122
1.0
132
0.0
 79
     0
146
0.0
  0
ENDTAB
  0
TABLE
  2
LTYPE
  5
5
330
0
100
AcDbSymbolTable
 70
     6
  0
LTYPE
  5
13
330
5
100
AcDbSymbolTableRecord
100
AcDbLinetypeTableRecord
  2
ByBlock
 70
     0
  3

 72
    65
 73
     0
 40
0.0
  0
LTYPE
  5
14
330
5
100
AcDbSymbolTableRecord
100
AcDbLinetypeTableRecord
  2
ByLayer
 70
     0
  3

 72
    65
 73
     0
 40
0.0
  0
LTYPE
  5
15
330
5
100
AcDbSymbolTableRecord
100
AcDbLinetypeTableRecord
  2
CONTINUOUS
 70
     0
  3
Solid line
 72
    65
 73
     0
 40
0.0
  0
ENDTAB
  0
TABLE
  2
LAYER
  5
2
330
0
100
AcDbSymbolTable
 70
    10
  0
LAYER
  5
10
330
2
100
AcDbSymbolTableRecord
100
AcDbLayerTableRecord
  2
0
 70
     0
 62
     7
  6
CONTINUOUS
370
    -3
390
F
  0
LAYER
  5
22
330
2
100
AcDbSymbolTableRecord
100
AcDbLayerTableRecord
  2
OBJECT
 70
     0
 62
     7
  6
CONTINUOUS
370
    -3
390
F
  0
LAYER
  5
27
330
2
100
AcDbSymbolTableRecord
100
AcDbLayerTableRecord
  2
DIM
 70
     0
 62
     7
  6
CONTINUOUS
370
    -3
390
F
  0
LAYER
  5
29
330
2
100
AcDbSymbolTableRecord
100
AcDbLayerTableRecord
  2
TEXT
 70
     0
 62
     7
  6
CONTINUOUS
370
    -3
390
F
  0
LAYER
  5
2A
330
2
100
AcDbSymbolTableRecord
100
AcDbLayerTableRecord
  2
TITLE
 70
     0
 62
     7
  6
CONTINUOUS
370
    -3
390
F
  0
LAYER
  5
2C
330
2
100
AcDbSymbolTableRecord
100
AcDbLayerTableRecord
  2
DEFPOINTS
 70
     0
 62
     7
  6
CONTINUOUS
290
     0
370
    -3
390
F
  0
ENDTAB
  0
TABLE
  2
STYLE
  5
3
330
0
100
AcDbSymbolTable
 70
     2
  0
STYLE
  5
11
330
3
100
AcDbSymbolTableRecord
100
AcDbTextStyleTableRecord
  2
STANDARD
 70
     0
 40
0.0
 41
1.0
 50
0.0
 71
     0
 42
2.186999999999999
  3
txt
  4

  0
STYLE
  5
23
330
3
100
AcDbSymbolTableRecord
100
AcDbTextStyleTableRecord
  2
TXT
 70
     0
 40
0.0
 41
0.75
 50
0.0
 71
     0
 42
1.875
  3
txt
  4

  0
ENDTAB
  0
TABLE
  2
VIEW
  5
6
330
0
100
AcDbSymbolTable
 70
     0
  0
ENDTAB
  0
TABLE
  2
UCS
  5
7
330
0
100
AcDbSymbolTable
 70
     0
  0
ENDTAB
  0
TABLE
  2
APPID
  5
9
330
0
100
AcDbSymbolTable
 70
     1
  0
APPID
  5
12
330
9
100
AcDbSymbolTableRecord
100
AcDbRegAppTableRecord
  2
ACAD
 70
     0
  0
ENDTAB
  0
TABLE
  2
DIMSTYLE
  5
A
330
0
100
AcDbSymbolTable
 70
     7
100
AcDbDimStyleTable
 71
     2
340
2E
340
34
  0
DIMSTYLE
105
2E
102
{ACAD_REACTORS
330
639
330
649
330
657
330
6CE
330
6DC
330
89E
330
9D6
330
9E4
330
9F2
330
A59
102
}
330
A
100
AcDbSymbolTableRecord
100
AcDbDimStyleTableRecord
  2
23NSTD
 70
     0
  4
ction
 40
15.0
 42
0.063
 43
0.281
 44
0.093
140
0.125
271
     3
272
     3
289
     1
340
23
  0
DIMSTYLE
105
2F
102
{ACAD_REACTORS
330
62B
330
6B2
330
6EA
330
6F8
330
706
330
714
330
890
330
9BA
330
9C8
102
}
330
A
100
AcDbSymbolTableRecord
100
AcDbDimStyleTableRecord
  2
23NSTDI
 70
     0
  4
ction
 40
15.0
 42
0.063
 43
0.281
 44
0.093
140
0.125
174
     1
271
     3
272
     3
279
     2
340
23
  0
DIMSTYLE
105
30
102
{ACAD_REACTORS
330
6A4
102
}
330
A
100
AcDbSymbolTableRecord
100
AcDbDimStyleTableRecord
  2
23T-P0$031000-M0$031000
 70
     0
  4
ction
 40
15.0
 42
0.063
 43
0.281
 44
0.093
 47
0.031
 48
0.031
 71
     1
140
0.125
271
     3
272
     3
279
     2
340
23
  0
DIMSTYLE
105
31
102
{ACAD_REACTORS
330
6C0
102
}
330
A
100
AcDbSymbolTableRecord
100
AcDbDimStyleTableRecord
  2
23T-P0$062000-M0$062000
 70
     0
  4
ction
 40
15.0
 42
0.063
 43
0.281
 44
0.093
 47
0.062
 48
0.062
 71
     1
140
0.125
271
     3
272
     3
279
     2
340
23
  0
DIMSTYLE
105
32
102
{ACAD_REACTORS
330
688
102
}
330
A
100
AcDbSymbolTableRecord
100
AcDbDimStyleTableRecord
  2
23T-P0$093000-M0$093000I
 70
     0
  4
ction
 40
15.0
 42
0.063
 43
0.281
 44
0.093
 47
0.093
 48
0.093
 71
     1
140
0.125
174
     1
271
     3
272
     3
279
     2
340
23
  0
DIMSTYLE
105
33
102
{ACAD_REACTORS
330
67A
330
696
102
}
330
A
100
AcDbSymbolTableRecord
100
AcDbDimStyleTableRecord
  2
23T-P0$062000-M0$062000I
 70
     0
  4
ction
 40
15.0
 42
0.063
 43
0.281
 44
0.093
 47
0.062
 48
0.062
 71
     1
140
0.125
174
     1
271
     3
272
     3
279
     2
340
23
  0
DIMSTYLE
105
34
102
{ACAD_REACTORS
330
66C
102
}
330
A
100
AcDbSymbolTableRecord
100
AcDbDimStyleTableRecord
  2
23T-P0$031000-M0$031000I
 70
     0
  4
ction
 40
15.0
 42
0.063
 43
0.281
 44
0.093
 47
0.031
 48
0.031
 71
     1
140
0.125
174
     1
271
     3
272
     3
279
     2
340
23
  0
ENDTAB
  0
TABLE
  2
BLOCK_RECORD
  5
1
330
0
100
AcDbSymbolTable
 70
    31
  0
BLOCK_RECORD
  5
1E
330
1
100
AcDbSymbolTableRecord
100
AcDbBlockTableRecord
  2
*Model_Space
340
21
  0
BLOCK_RECORD
  5
1A
330
1
100
AcDbSymbolTableRecord
100
AcDbBlockTableRecord
  2
*Paper_Space
340
1D
  0
BLOCK_RECORD
  5
36
330
1
100
AcDbSymbolTableRecord
100
AcDbBlockTableRecord
  2
L15
340
0
102
{BLKREFS
331
525
331
526
331
527
331
528
102
}
  0
BLOCK_RECORD
  5
93
330
1
100
AcDbSymbolTableRecord
100
AcDbBlockTableRecord
  2
HLT
340
0
102
{BLKREFS
331
518
331
519
331
51D
331
51E
102
}
  0
BLOCK_RECORD
  5
99
330
1
100
AcDbSymbolTableRecord
100
AcDbBlockTableRecord
  2
L15S
340
0
102
{BLKREFS
331
529
331
52A
102
}
  0
BLOCK_RECORD
  5
BA
330
1
100
AcDbSymbolTableRecord
100
AcDbBlockTableRecord
  2
HB
340
0
102
{BLKREFS
331
28E
102
}
  0
BLOCK_RECORD
  5
CE
330
1
100
AcDbSymbolTableRecord
100
AcDbBlockTableRecord
  2
CUTOUT
340
0
102
{BLKREFS
331
920
331
921
331
922
331
937
331
938
331
939
331
AA5
331
AA6
331
AA7
102
}
  0
BLOCK_RECORD
  5
D7
330
1
100
AcDbSymbolTableRecord
100
AcDbBlockTableRecord
  2
TOP
340
0
102
{BLKREFS
331
50C
102
}
  0
BLOCK_RECORD
  5
62C
330
1
100
AcDbSymbolTableRecord
100
AcDbBlockTableRecord
  2
*D6
340
0
  0
BLOCK_RECORD
  5
63A
330
1
100
AcDbSymbolTableRecord
100
AcDbBlockTableRecord
  2
*D7
340
0
  0
BLOCK_RECORD
  5
64A
330
1
100
AcDbSymbolTableRecord
100
AcDbBlockTableRecord
  2
*D8
340
0
  0
BLOCK_RECORD
  5
658
330
1
100
AcDbSymbolTableRecord
100
AcDbBlockTableRecord
  2
*D9
340
0
  0
BLOCK_RECORD
  5
66D
330
1
100
AcDbSymbolTableRecord
100
AcDbBlockTableRecord
  2
*D10
340
0
  0
BLOCK_RECORD
  5
67B
330
1
100
AcDbSymbolTableRecord
100
AcDbBlockTableRecord
  2
*D11
340
0
  0
BLOCK_RECORD
  5
689
330
1
100
AcDbSymbolTableRecord
100
AcDbBlockTableRecord
  2
*D12
340
0
  0
BLOCK_RECORD
  5
697
330
1
100
AcDbSymbolTableRecord
100
AcDbBlockTableRecord
  2
*D13
340
0
  0
BLOCK_RECORD
  5
6A5
330
1
100
AcDbSymbolTableRecord
100
AcDbBlockTableRecord
  2
*D14
340
0
  0
BLOCK_RECORD
  5
6B3
330
1
100
AcDbSymbolTableRecord
100
AcDbBlockTableRecord
  2
*D15
340
0
  0
BLOCK_RECORD
  5
6C1
330
1
100
AcDbSymbolTableRecord
100
AcDbBlockTableRecord
  2
*D16
340
0
  0
BLOCK_RECORD
  5
6CF
330
1
100
AcDbSymbolTableRecord
100
AcDbBlockTableRecord
  2
*D17
340
0
  0
BLOCK_RECORD
  5
6DD
330
1
100
AcDbSymbolTableRecord
100
AcDbBlockTableRecord
  2
*D18
340
0
  0
BLOCK_RECORD
  5
6EB
330
1
100
AcDbSymbolTableRecord
100
AcDbBlockTableRecord
  2
*D19
340
0
  0
BLOCK_RECORD
  5
6F9
330
1
100
AcDbSymbolTableRecord
100
AcDbBlockTableRecord
  2
*D20
340
0
  0
BLOCK_RECORD
  5
707
330
1
100
AcDbSymbolTableRecord
100
AcDbBlockTableRecord
  2
*D21
340
0
  0
BLOCK_RECORD
  5
715
330
1
100
AcDbSymbolTableRecord
100
AcDbBlockTableRecord
  2
*D22
340
0
  0
BLOCK_RECORD
  5
891
330
1
100
AcDbSymbolTableRecord
100
AcDbBlockTableRecord
  2
*D23
340
0
  0
BLOCK_RECORD
  5
89F
330
1
100
AcDbSymbolTableRecord
100
AcDbBlockTableRecord
  2
*D24
340
0
  0
BLOCK_RECORD
  5
9BB
330
1
100
AcDbSymbolTableRecord
100
AcDbBlockTableRecord
  2
*D25
340
0
  0
BLOCK_RECORD
  5
9C9
330
1
100
AcDbSymbolTableRecord
100
AcDbBlockTableRecord
  2
*D26
340
0
  0
BLOCK_RECORD
  5
9D7
330
1
100
AcDbSymbolTableRecord
100
AcDbBlockTableRecord
  2
*D27
340
0
  0
BLOCK_RECORD
  5
9E5
330
1
100
AcDbSymbolTableRecord
100
AcDbBlockTableRecord
  2
*D28
340
0
  0
BLOCK_RECORD
  5
9F3
330
1
100
AcDbSymbolTableRecord
100
AcDbBlockTableRecord
  2
*D29
340
0
  0
BLOCK_RECORD
  5
A5A
330
1
100
AcDbSymbolTableRecord
100
AcDbBlockTableRecord
  2
*D30
340
0
  0
ENDTAB
  0
ENDSEC
  0
SECTION
  2
BLOCKS
  0
BLOCK
  5
1F
330
1E
100
AcDbEntity
  8
0
100
AcDbBlockBegin
  2
*Model_Space
 70
     0
 10
0.0
 20
0.0
 30
0.0
  3
*Model_Space
  1

  0
ENDBLK
  5
20
330
1E
100
AcDbEntity
  8
0
100
AcDbBlockEnd
  0
BLOCK
  5
1B
330
1A
100
AcDbEntity
 67
     1
  8
0
100
AcDbBlockBegin
  2
*Paper_Space
 70
     0
 10
0.0
 20
0.0
 30
0.0
  3
*Paper_Space
  1

  0
ENDBLK
  5
1C
330
1A
100
AcDbEntity
 67
     1
  8
0
100
AcDbBlockEnd
  0
BLOCK
  5
37
330
36
100
AcDbEntity
  8
0
100
AcDbBlockBegin
  2
L15
 70
     0
 10
0.0
 20
0.0
 30
0.0
  3
L15
  1

  0
LINE
  5
38
330
36
100
AcDbEntity
  8
OBJECT
100
AcDbLine
 10
-2.1875
 20
-10.625
 30
0.0
 11
2.1875
 21
-10.625
 31
0.0
  0
LINE
  5
39
330
36
100
AcDbEntity
  8
OBJECT
100
AcDbLine
 10
2.1875
 20
-10.625
 30
0.0
 11
2.1875
 21
-10.5
 31
0.0
  0
LINE
  5
3A
330
36
100
AcDbEntity
  8
OBJECT
100
AcDbLine
 10
1.6875
 20
-10.0
 30
0.0
 11
-1.6875
 21
-10.0
 31
0.0
  0
LINE
  5
3B
330
36
100
AcDbEntity
  8
OBJECT
100
AcDbLine
 10
-2.1875
 20
-10.5
 30
0.0
 11
-2.1875
 21
-10.625
 31
0.0
  0
ARC
  5
3C
330
36
100
AcDbEntity
  8
OBJECT
100
AcDbCircle
 10
-1.6875
 20
-10.5
 30
0.0
 40
0.5
100
AcDbArc
 50
90.0
 51
180.0
  0
ARC
  5
3D
330
36
100
AcDbEntity
  8
OBJECT
100
AcDbCircle
 10
1.6875
 20
-10.5
 30
0.0
 40
0.5
100
AcDbArc
 50
0.0
 51
90.0
  0
ARC
  5
3E
330
36
100
AcDbEntity
  8
OBJECT
100
AcDbCircle
 10
1.6875
 20
-11.5
 30
0.0
 40
0.5
100
AcDbArc
 50
0.0
 51
90.0
  0
ARC
  5
3F
330
36
100
AcDbEntity
  8
OBJECT
100
AcDbCircle
 10
-1.6875
 20
-11.5
 30
0.0
 40
0.5
100
AcDbArc
 50
90.0
 51
180.0
  0
LINE
  5
40
330
36
100
AcDbEntity
  8
OBJECT
100
AcDbLine
 10
-2.1875
 20
-11.5
 30
0.0
 11
-2.1875
 21
-11.625
 31
0.0
  0
LINE
  5
41
330
36
100
AcDbEntity
  8
OBJECT
100
AcDbLine
 10
1.6875
 20
-11.0
 30
0.0
 11
-1.6875
 21
-11.0
 31
0.0
  0
LINE
  5
42
330
36
100
AcDbEntity
  8
OBJECT
100
AcDbLine
 10
2.1875
 20
-11.625
 30
0.0
 11
2.1875
 21
-11.5
 31
0.0
  0
LINE
  5
43
330
36
100
AcDbEntity
  8
OBJECT
100
AcDbLine
 10
-2.1875
 20
-11.625
 30
0.0
 11
2.1875
 21
-11.625
 31
0.0
  0
ARC
  5
44
330
36
100
AcDbEntity
  8
OBJECT
100
AcDbCircle
 10
1.6875
 20
-12.5
 30
0.0
 40
0.5
100
AcDbArc
 50
0.0
 51
90.0
  0
ARC
  5
45
330
36
100
AcDbEntity
  8
OBJECT
100
AcDbCircle
 10
-1.6875
 20
-12.5
 30
0.0
 40
0.5
100
AcDbArc
 50
90.0
 51
180.0
  0
LINE
  5
46
330
36
100
AcDbEntity
  8
OBJECT
100
AcDbLine
 10
-2.1875
 20
-12.5
 30
0.0
 11
-2.1875
 21
-12.625
 31
0.0
  0
LINE
  5
47
330
36
100
AcDbEntity
  8
OBJECT
100
AcDbLine
 10
1.6875
 20
-12.0
 30
0.0
 11
-1.6875
 21
-12.0
 31
0.0
  0
LINE
  5
48
330
36
100
AcDbEntity
  8
OBJECT
100
AcDbLine
 10
2.1875
 20
-12.625
 30
0.0
 11
2.1875
 21
-12.5
 31
0.0
  0
LINE
  5
49
330
36
100
AcDbEntity
  8
OBJECT
100
AcDbLine
 10
-2.1875
 20
-12.625
 30
0.0
 11
2.1875
 21
-12.625
 31
0.0
  0
ARC
  5
4A
330
36
100
AcDbEntity
  8
OBJECT
100
AcDbCircle
 10
1.6875
 20
-13.5
 30
0.0
 40
0.5
100
AcDbArc
 50
0.0
 51
90.0
  0
ARC
  5
4B
330
36
100
AcDbEntity
  8
OBJECT
100
AcDbCircle
 10
-1.6875
 20
-13.5
 30
0.0
 40
0.5
100
AcDbArc
 50
90.0
 51
180.0
  0
LINE
  5
4C
330
36
100
AcDbEntity
  8
OBJECT
100
AcDbLine
 10
-2.1875
 20
-13.5
 30
0.0
 11
-2.1875
 21
-13.625
 31
0.0
  0
LINE
  5
4D
330
36
100
AcDbEntity
  8
OBJECT
100
AcDbLine
 10
1.6875
 20
-13.0
 30
0.0
 11
-1.6875
 21
-13.0
 31
0.0
  0
LINE
  5
4E
330
36
100
AcDbEntity
  8
OBJECT
100
AcDbLine
 10
2.1875
 20
-13.625
 30
0.0
 11
2.1875
 21
-13.5
 31
0.0
  0
LINE
  5
4F
330
36
100
AcDbEntity
  8
OBJECT
100
AcDbLine
 10
-2.1875
 20
-13.625
 30
0.0
 11
2.1875
 21
-13.625
 31
0.0
  0
ARC
  5
50
330
36
100
AcDbEntity
  8
OBJECT
100
AcDbCircle
 10
1.6875
 20
-14.5
 30
0.0
 40
0.5
100
AcDbArc
 50
0.0
 51
90.0
  0
ARC
  5
51
330
36
100
AcDbEntity
  8
OBJECT
100
AcDbCircle
 10
-1.6875
 20
-14.5
 30
0.0
 40
0.5
100
AcDbArc
 50
90.0
 51
180.0
  0
LINE
  5
52
330
36
100
AcDbEntity
  8
OBJECT
100
AcDbLine
 10
-2.1875
 20
-14.5
 30
0.0
 11
-2.1875
 21
-14.625
 31
0.0
  0
LINE
  5
53
330
36
100
AcDbEntity
  8
OBJECT
100
AcDbLine
 10
1.6875
 20
-14.0
 30
0.0
 11
-1.6875
 21
-14.0
 31
0.0
  0
LINE
  5
54
330
36
100
AcDbEntity
  8
OBJECT
100
AcDbLine
 10
2.1875
 20
-14.625
 30
0.0
 11
2.1875
 21
-14.5
 31
0.0
  0
LINE
  5
55
330
36
100
AcDbEntity
  8
OBJECT
100
AcDbLine
 10
-2.1875
 20
-14.625
 30
0.0
 11
2.1875
 21
-14.625
 31
0.0
  0
LINE
  5
56
330
36
100
AcDbEntity
  8
OBJECT
100
AcDbLine
 10
-2.1875
 20
-5.625
 30
0.0
 11
2.1875
 21
-5.625
 31
0.0
  0
LINE
  5
57
330
36
100
AcDbEntity
  8
OBJECT
100
AcDbLine
 10
2.1875
 20
-5.625
 30
0.0
 11
2.1875
 21
-5.5
 31
0.0
  0
LINE
  5
58
330
36
100
AcDbEntity
  8
OBJECT
100
AcDbLine
 10
1.6875
 20
-5.0
 30
0.0
 11
-1.6875
 21
-5.0
 31
0.0
  0
LINE
  5
59
330
36
100
AcDbEntity
  8
OBJECT
100
AcDbLine
 10
-2.1875
 20
-5.5
 30
0.0
 11
-2.1875
 21
-5.625
 31
0.0
  0
ARC
  5
5A
330
36
100
AcDbEntity
  8
OBJECT
100
AcDbCircle
 10
-1.6875
 20
-5.5
 30
0.0
 40
0.5
100
AcDbArc
 50
90.0
 51
180.0
  0
ARC
  5
5B
330
36
100
AcDbEntity
  8
OBJECT
100
AcDbCircle
 10
1.6875
 20
-5.5
 30
0.0
 40
0.5
100
AcDbArc
 50
0.0
 51
90.0
  0
ARC
  5
5C
330
36
100
AcDbEntity
  8
OBJECT
100
AcDbCircle
 10
1.6875
 20
-6.5
 30
0.0
 40
0.5
100
AcDbArc
 50
0.0
 51
90.0
  0
ARC
  5
5D
330
36
100
AcDbEntity
  8
OBJECT
100
AcDbCircle
 10
-1.6875
 20
-6.5
 30
0.0
 40
0.5
100
AcDbArc
 50
90.0
 51
180.0
  0
LINE
  5
5E
330
36
100
AcDbEntity
  8
OBJECT
100
AcDbLine
 10
-2.1875
 20
-6.5
 30
0.0
 11
-2.1875
 21
-6.625
 31
0.0
  0
LINE
  5
5F
330
36
100
AcDbEntity
  8
OBJECT
100
AcDbLine
 10
1.6875
 20
-6.0
 30
0.0
 11
-1.6875
 21
-6.0
 31
0.0
  0
LINE
  5
60
330
36
100
AcDbEntity
  8
OBJECT
100
AcDbLine
 10
2.1875
 20
-6.625
 30
0.0
 11
2.1875
 21
-6.5
 31
0.0
  0
LINE
  5
61
330
36
100
AcDbEntity
  8
OBJECT
100
AcDbLine
 10
-2.1875
 20
-6.625
 30
0.0
 11
2.1875
 21
-6.625
 31
0.0
  0
ARC
  5
62
330
36
100
AcDbEntity
  8
OBJECT
100
AcDbCircle
 10
1.6875
 20
-7.5
 30
0.0
 40
0.5
100
AcDbArc
 50
0.0
 51
90.0
  0
ARC
  5
63
330
36
100
AcDbEntity
  8
OBJECT
100
AcDbCircle
 10
-1.6875
 20
-7.5
 30
0.0
 40
0.5
100
AcDbArc
 50
90.0
 51
180.0
  0
LINE
  5
64
330
36
100
AcDbEntity
  8
OBJECT
100
AcDbLine
 10
-2.1875
 20
-7.5
 30
0.0
 11
-2.1875
 21
-7.625
 31
0.0
  0
LINE
  5
65
330
36
100
AcDbEntity
  8
OBJECT
100
AcDbLine
 10
1.6875
 20
-7.0
 30
0.0
 11
-1.6875
 21
-7.0
 31
0.0
  0
LINE
  5
66
330
36
100
AcDbEntity
  8
OBJECT
100
AcDbLine
 10
2.1875
 20
-7.625
 30
0.0
 11
2.1875
 21
-7.5
 31
0.0
  0
LINE
  5
67
330
36
100
AcDbEntity
  8
OBJECT
100
AcDbLine
 10
-2.1875
 20
-7.625
 30
0.0
 11
2.1875
 21
-7.625
 31
0.0
  0
ARC
  5
68
330
36
100
AcDbEntity
  8
OBJECT
100
AcDbCircle
 10
1.6875
 20
-8.5
 30
0.0
 40
0.5
100
AcDbArc
 50
0.0
 51
90.0
  0
ARC
  5
69
330
36
100
AcDbEntity
  8
OBJECT
100
AcDbCircle
 10
-1.6875
 20
-8.5
 30
0.0
 40
0.5
100
AcDbArc
 50
90.0
 51
180.0
  0
LINE
  5
6A
330
36
100
AcDbEntity
  8
OBJECT
100
AcDbLine
 10
-2.1875
 20
-8.5
 30
0.0
 11
-2.1875
 21
-8.625
 31
0.0
  0
LINE
  5
6B
330
36
100
AcDbEntity
  8
OBJECT
100
AcDbLine
 10
1.6875
 20
-8.0
 30
0.0
 11
-1.6875
 21
-8.0
 31
0.0
  0
LINE
  5
6C
330
36
100
AcDbEntity
  8
OBJECT
100
AcDbLine
 10
2.1875
 20
-8.625
 30
0.0
 11
2.1875
 21
-8.5
 31
0.0
  0
LINE
  5
6D
330
36
100
AcDbEntity
  8
OBJECT
100
AcDbLine
 10
-2.1875
 20
-8.625
 30
0.0
 11
2.1875
 21
-8.625
 31
0.0
  0
ARC
  5
6E
330
36
100
AcDbEntity
  8
OBJECT
100
AcDbCircle
 10
1.6875
 20
-9.5
 30
0.0
 40
0.5
100
AcDbArc
 50
0.0
 51
90.0
  0
ARC
  5
6F
330
36
100
AcDbEntity
  8
OBJECT
100
AcDbCircle
 10
-1.6875
 20
-9.5
 30
0.0
 40
0.5
100
AcDbArc
 50
90.0
 51
180.0
  0
LINE
  5
70
330
36
100
AcDbEntity
  8
OBJECT
100
AcDbLine
 10
-2.1875
 20
-9.5
 30
0.0
 11
-2.1875
 21
-9.625
 31
0.0
  0
LINE
  5
71
330
36
100
AcDbEntity
  8
OBJECT
100
AcDbLine
 10
1.6875
 20
-9.0
 30
0.0
 11
-1.6875
 21
-9.0
 31
0.0
  0
LINE
  5
72
330
36
100
AcDbEntity
  8
OBJECT
100
AcDbLine
 10
2.1875
 20
-9.625
 30
0.0
 11
2.1875
 21
-9.5
 31
0.0
  0
LINE
  5
73
330
36
100
AcDbEntity
  8
OBJECT
100
AcDbLine
 10
-2.1875
 20
-9.625
 30
0.0
 11
2.1875
 21
-9.625
 31
0.0
  0
LINE
  5
74
330
36
100
AcDbEntity
  8
OBJECT
100
AcDbLine
 10
-2.1875
 20
-4.625
 30
0.0
 11
2.1875
 21
-4.625
 31
0.0
  0
LINE
  5
75
330
36
100
AcDbEntity
  8
OBJECT
100
AcDbLine
 10
2.1875
 20
-4.625
 30
0.0
 11
2.1875
 21
-4.5
 31
0.0
  0
LINE
  5
76
330
36
100
AcDbEntity
  8
OBJECT
100
AcDbLine
 10
1.6875
 20
-4.0
 30
0.0
 11
-1.6875
 21
-4.0
 31
0.0
  0
LINE
  5
77
330
36
100
AcDbEntity
  8
OBJECT
100
AcDbLine
 10
-2.1875
 20
-4.5
 30
0.0
 11
-2.1875
 21
-4.625
 31
0.0
  0
ARC
  5
78
330
36
100
AcDbEntity
  8
OBJECT
100
AcDbCircle
 10
-1.6875
 20
-4.5
 30
0.0
 40
0.5
100
AcDbArc
 50
90.0
 51
180.0
  0
ARC
  5
79
330
36
100
AcDbEntity
  8
OBJECT
100
AcDbCircle
 10
1.6875
 20
-4.5
 30
0.0
 40
0.5
100
AcDbArc
 50
0.0
 51
90.0
  0
LINE
  5
7A
330
36
100
AcDbEntity
  8
OBJECT
100
AcDbLine
 10
-2.1875
 20
-3.625
 30
0.0
 11
2.1875
 21
-3.625
 31
0.0
  0
LINE
  5
7B
330
36
100
AcDbEntity
  8
OBJECT
100
AcDbLine
 10
2.1875
 20
-3.625
 30
0.0
 11
2.1875
 21
-3.5
 31
0.0
  0
LINE
  5
7C
330
36
100
AcDbEntity
  8
OBJECT
100
AcDbLine
 10
1.6875
 20
-3.0
 30
0.0
 11
-1.6875
 21
-3.0
 31
0.0
  0
LINE
  5
7D
330
36
100
AcDbEntity
  8
OBJECT
100
AcDbLine
 10
-2.1875
 20
-3.5
 30
0.0
 11
-2.1875
 21
-3.625
 31
0.0
  0
ARC
  5
7E
330
36
100
AcDbEntity
  8
OBJECT
100
AcDbCircle
 10
-1.6875
 20
-3.5
 30
0.0
 40
0.5
100
AcDbArc
 50
90.0
 51
180.0
  0
ARC
  5
7F
330
36
100
AcDbEntity
  8
OBJECT
100
AcDbCircle
 10
1.6875
 20
-3.5
 30
0.0
 40
0.5
100
AcDbArc
 50
0.0
 51
90.0
  0
LINE
  5
80
330
36
100
AcDbEntity
  8
OBJECT
100
AcDbLine
 10
-2.1875
 20
-2.625
 30
0.0
 11
2.1875
 21
-2.625
 31
0.0
  0
LINE
  5
81
330
36
100
AcDbEntity
  8
OBJECT
100
AcDbLine
 10
2.1875
 20
-2.625
 30
0.0
 11
2.1875
 21
-2.5
 31
0.0
  0
LINE
  5
82
330
36
100
AcDbEntity
  8
OBJECT
100
AcDbLine
 10
1.6875
 20
-2.0
 30
0.0
 11
-1.6875
 21
-2.0
 31
0.0
  0
LINE
  5
83
330
36
100
AcDbEntity
  8
OBJECT
100
AcDbLine
 10
-2.1875
 20
-2.5
 30
0.0
 11
-2.1875
 21
-2.625
 31
0.0
  0
ARC
  5
84
330
36
100
AcDbEntity
  8
OBJECT
100
AcDbCircle
 10
-1.6875
 20
-2.5
 30
0.0
 40
0.5
100
AcDbArc
 50
90.0
 51
180.0
  0
ARC
  5
85
330
36
100
AcDbEntity
  8
OBJECT
100
AcDbCircle
 10
1.6875
 20
-2.5
 30
0.0
 40
0.5
100
AcDbArc
 50
0.0
 51
90.0
  0
LINE
  5
86
330
36
100
AcDbEntity
  8
OBJECT
100
AcDbLine
 10
-2.1875
 20
-1.625
 30
0.0
 11
2.1875
 21
-1.625
 31
0.0
  0
LINE
  5
87
330
36
100
AcDbEntity
  8
OBJECT
100
AcDbLine
 10
2.1875
 20
-1.625
 30
0.0
 11
2.1875
 21
-1.5
 31
0.0
  0
LINE
  5
88
330
36
100
AcDbEntity
  8
OBJECT
100
AcDbLine
 10
1.6875
 20
-1.0
 30
0.0
 11
-1.6875
 21
-1.0
 31
0.0
  0
LINE
  5
89
330
36
100
AcDbEntity
  8
OBJECT
100
AcDbLine
 10
-2.1875
 20
-1.5
 30
0.0
 11
-2.1875
 21
-1.625
 31
0.0
  0
ARC
  5
8A
330
36
100
AcDbEntity
  8
OBJECT
100
AcDbCircle
 10
-1.6875
 20
-1.5
 30
0.0
 40
0.5
100
AcDbArc
 50
90.0
 51
180.0
  0
ARC
  5
8B
330
36
100
AcDbEntity
  8
OBJECT
100
AcDbCircle
 10
1.6875
 20
-1.5
 30
0.0
 40
0.5
100
AcDbArc
 50
0.0
 51
90.0
  0
ARC
  5
8C
330
36
100
AcDbEntity
  8
OBJECT
100
AcDbCircle
 10
1.6875
 20
-0.5
 30
0.0
 40
0.5
100
AcDbArc
 50
0.0
 51
90.0
  0
ARC
  5
8D
330
36
100
AcDbEntity
  8
OBJECT
100
AcDbCircle
 10
-1.6875
 20
-0.5
 30
0.0
 40
0.5
100
AcDbArc
 50
90.0
 51
180.0
  0
LINE
  5
8E
330
36
100
AcDbEntity
  8
OBJECT
100
AcDbLine
 10
-2.1875
 20
-0.5
 30
0.0
 11
-2.1875
 21
-0.625
 31
0.0
  0
LINE
  5
8F
330
36
100
AcDbEntity
  8
OBJECT
100
AcDbLine
 10
1.6875
 20
0.0
 30
0.0
 11
-1.6875
 21
0.0
 31
0.0
  0
LINE
  5
90
330
36
100
AcDbEntity
  8
OBJECT
100
AcDbLine
 10
2.1875
 20
-0.625
 30
0.0
 11
2.1875
 21
-0.5
 31
0.0
  0
LINE
  5
91
330
36
100
AcDbEntity
  8
OBJECT
100
AcDbLine
 10
-2.1875
 20
-0.625
 30
0.0
 11
2.1875
 21
-0.625
 31
0.0
  0
ENDBLK
  5
92
330
36
100
AcDbEntity
  8
0
100
AcDbBlockEnd
  0
BLOCK
  5
94
330
93
100
AcDbEntity
  8
0
100
AcDbBlockBegin
  2
HLT
 70
     0
 10
0.0
 20
0.0
 30
0.0
  3
HLT
  1

  0
ARC
  5
95
330
93
100
AcDbEntity
  8
OBJECT
100
AcDbCircle
 10
-1.843447
 20
-0.344053
 30
0.0
 40
0.345543
100
AcDbArc
 50
95.32250200000001
 51
174.6774979999999
  0
ARC
  5
96
330
93
100
AcDbEntity
  8
OBJECT
100
AcDbCircle
 10
1.843447
 20
-0.344053
 30
0.0
 40
0.345543
100
AcDbArc
 50
5.322502
 51
84.67749799999999
  0
LINE
  5
97
330
93
100
AcDbEntity
  8
OBJECT
100
AcDbLine
 10
-1.875499999999999
 20
0.0
 30
0.0
 11
1.875499999999999
 21
0.0
 31
0.0
  0
ENDBLK
  5
98
330
93
100
AcDbEntity
  8
0
100
AcDbBlockEnd
  0
BLOCK
  5
9A
330
99
100
AcDbEntity
  8
0
100
AcDbBlockBegin
  2
L15S
 70
     0
 10
0.0
 20
0.0
 30
0.0
  3
L15S
  1

  0
LINE
  5
9B
330
99
100
AcDbEntity
  8
OBJECT
100
AcDbLine
 10
14.625
 20
-0.312
 30
0.0
 11
14.625
 21
0.0
 31
0.0
  0
ARC
  5
9C
330
99
100
AcDbEntity
  8
OBJECT
100
AcDbCircle
 10
14.5625
 20
0.344801
 30
0.0
 40
0.6597680000000001
100
AcDbArc
 50
211.5074669999999
 51
275.4357929999999
  0
LINE
  5
9D
330
99
100
AcDbEntity
  8
OBJECT
100
AcDbLine
 10
13.625
 20
-0.312
 30
0.0
 11
13.625
 21
0.0
 31
0.0
  0
ARC
  5
9E
330
99
100
AcDbEntity
  8
OBJECT
100
AcDbCircle
 10
13.5625
 20
0.344801
 30
0.0
 40
0.6597680000000001
100
AcDbArc
 50
211.5074669999999
 51
275.4357929999999
  0
LINE
  5
9F
330
99
100
AcDbEntity
  8
OBJECT
100
AcDbLine
 10
12.625
 20
-0.312
 30
0.0
 11
12.625
 21
0.0
 31
0.0
  0
ARC
  5
A0
330
99
100
AcDbEntity
  8
OBJECT
100
AcDbCircle
 10
12.5625
 20
0.344801
 30
0.0
 40
0.6597680000000001
100
AcDbArc
 50
211.5074669999999
 51
275.4357929999999
  0
LINE
  5
A1
330
99
100
AcDbEntity
  8
OBJECT
100
AcDbLine
 10
11.625
 20
-0.312
 30
0.0
 11
11.625
 21
0.0
 31
0.0
  0
ARC
  5
A2
330
99
100
AcDbEntity
  8
OBJECT
100
AcDbCircle
 10
11.5625
 20
0.344801
 30
0.0
 40
0.6597680000000001
100
AcDbArc
 50
211.5074669999999
 51
275.4357929999999
  0
LINE
  5
A3
330
99
100
AcDbEntity
  8
OBJECT
100
AcDbLine
 10
10.625
 20
-0.312
 30
0.0
 11
10.625
 21
0.0
 31
0.0
  0
ARC
  5
A4
330
99
100
AcDbEntity
  8
OBJECT
100
AcDbCircle
 10
10.5625
 20
0.344801
 30
0.0
 40
0.6597680000000001
100
AcDbArc
 50
211.5074669999999
 51
275.4357929999999
  0
LINE
  5
A5
330
99
100
AcDbEntity
  8
OBJECT
100
AcDbLine
 10
9.625
 20
-0.312
 30
0.0
 11
9.625
 21
0.0
 31
0.0
  0
ARC
  5
A6
330
99
100
AcDbEntity
  8
OBJECT
100
AcDbCircle
 10
9.5625
 20
0.344801
 30
0.0
 40
0.6597680000000001
100
AcDbArc
 50
211.5074669999999
 51
275.4357929999999
  0
LINE
  5
A7
330
99
100
AcDbEntity
  8
OBJECT
100
AcDbLine
 10
8.625
 20
-0.312
 30
0.0
 11
8.625
 21
0.0
 31
0.0
  0
ARC
  5
A8
330
99
100
AcDbEntity
  8
OBJECT
100
AcDbCircle
 10
8.5625
 20
0.344801
 30
0.0
 40
0.6597680000000001
100
AcDbArc
 50
211.5074669999999
 51
275.4357929999999
  0
LINE
  5
A9
330
99
100
AcDbEntity
  8
OBJECT
100
AcDbLine
 10
7.625
 20
-0.312
 30
0.0
 11
7.625
 21
0.0
 31
0.0
  0
ARC
  5
AA
330
99
100
AcDbEntity
  8
OBJECT
100
AcDbCircle
 10
7.5625
 20
0.344801
 30
0.0
 40
0.6597680000000001
100
AcDbArc
 50
211.5074669999999
 51
275.4357929999999
  0
LINE
  5
AB
330
99
100
AcDbEntity
  8
OBJECT
100
AcDbLine
 10
6.625
 20
-0.312
 30
0.0
 11
6.625
 21
0.0
 31
0.0
  0
ARC
  5
AC
330
99
100
AcDbEntity
  8
OBJECT
100
AcDbCircle
 10
6.5625
 20
0.344801
 30
0.0
 40
0.6597680000000001
100
AcDbArc
 50
211.5074669999999
 51
275.4357929999999
  0
LINE
  5
AD
330
99
100
AcDbEntity
  8
OBJECT
100
AcDbLine
 10
5.625
 20
-0.312
 30
0.0
 11
5.625
 21
0.0
 31
0.0
  0
ARC
  5
AE
330
99
100
AcDbEntity
  8
OBJECT
100
AcDbCircle
 10
5.5625
 20
0.344801
 30
0.0
 40
0.6597680000000001
100
AcDbArc
 50
211.5074669999999
 51
275.4357929999999
  0
LINE
  5
AF
330
99
100
AcDbEntity
  8
OBJECT
100
AcDbLine
 10
4.625
 20
-0.312
 30
0.0
 11
4.625
 21
0.0
 31
0.0
  0
ARC
  5
B0
330
99
100
AcDbEntity
  8
OBJECT
100
AcDbCircle
 10
4.5625
 20
0.344801
 30
0.0
 40
0.6597680000000001
100
AcDbArc
 50
211.5074669999999
 51
275.4357929999999
  0
LINE
  5
B1
330
99
100
AcDbEntity
  8
OBJECT
100
AcDbLine
 10
3.625
 20
-0.312
 30
0.0
 11
3.625
 21
0.0
 31
0.0
  0
ARC
  5
B2
330
99
100
AcDbEntity
  8
OBJECT
100
AcDbCircle
 10
3.5625
 20
0.344801
 30
0.0
 40
0.6597680000000001
100
AcDbArc
 50
211.5074669999999
 51
275.4357929999999
  0
LINE
  5
B3
330
99
100
AcDbEntity
  8
OBJECT
100
AcDbLine
 10
2.625
 20
-0.312
 30
0.0
 11
2.625
 21
0.0
 31
0.0
  0
ARC
  5
B4
330
99
100
AcDbEntity
  8
OBJECT
100
AcDbCircle
 10
2.5625
 20
0.344801
 30
0.0
 40
0.6597680000000001
100
AcDbArc
 50
211.5074669999999
 51
275.4357929999999
  0
LINE
  5
B5
330
99
100
AcDbEntity
  8
OBJECT
100
AcDbLine
 10
1.625
 20
-0.312
 30
0.0
 11
1.625
 21
0.0
 31
0.0
  0
ARC
  5
B6
330
99
100
AcDbEntity
  8
OBJECT
100
AcDbCircle
 10
1.5625
 20
0.344801
 30
0.0
 40
0.6597680000000001
100
AcDbArc
 50
211.5074669999999
 51
275.4357929999999
  0
ARC
  5
B7
330
99
100
AcDbEntity
  8
OBJECT
100
AcDbCircle
 10
0.5625
 20
0.344801
 30
0.0
 40
0.6597680000000001
100
AcDbArc
 50
211.5074669999999
 51
275.4357929999999
  0
LINE
  5
B8
330
99
100
AcDbEntity
  8
OBJECT
100
AcDbLine
 10
0.625
 20
-0.312
 30
0.0
 11
0.625
 21
0.0
 31
0.0
  0
ENDBLK
  5
B9
330
99
100
AcDbEntity
  8
0
100
AcDbBlockEnd
  0
BLOCK
  5
BB
330
BA
100
AcDbEntity
  8
0
100
AcDbBlockBegin
  2
HB
 70
     0
 10
0.0
 20
0.0
 30
0.0
  3
HB
  1

  0
LINE
  5
B7A
330
BA
100
AcDbEntity
  8
TITLE
100
AcDbLine
 10
0.0
 20
15.5
 30
0.0
 11
10.11999999999999
 21
15.49999999999999
 31
0.0
  0
LINE
  5
B7B
330
BA
100
AcDbEntity
  8
TITLE
100
AcDbLine
 10
10.11999999999999
 20
-0.0000000000000018
 30
0.0
 11
0.0
 21
0.0
 31
0.0
  0
LINE
  5
B7C
330
BA
100
AcDbEntity
  8
TITLE
100
AcDbLine
 10
0.0620000000000012
 20
15.438
 30
0.0
 11
10.058
 21
15.438
 31
0.0
  0
LINE
  5
B7D
330
BA
100
AcDbEntity
  8
TITLE
100
AcDbLine
 10
10.058
 20
0.0619999999999994
 30
0.0
 11
0.0619999999999976
 21
0.0620000000000012
 31
0.0
  0
LINE
  5
B7E
330
BA
100
AcDbEntity
  8
TITLE
100
AcDbLine
 10
0.0620000000000012
 20
15.01999999999999
 30
0.0
 11
10.058
 21
15.01999999999999
 31
0.0
  0
LINE
  5
B7F
330
BA
100
AcDbEntity
  8
TITLE
100
AcDbLine
 10
0.0
 20
0.0
 30
0.0
 11
0.0
 21
15.5
 31
0.0
  0
LINE
  5
B80
330
BA
100
AcDbEntity
  8
TITLE
100
AcDbLine
 10
0.0619999999999976
 20
0.0620000000000012
 30
0.0
 11
0.0620000000000012
 21
15.438
 31
0.0
  0
TEXT
  5
B81
330
BA
100
AcDbEntity
  8
TEXT
100
AcDbText
 10
0.2078333333333381
 20
15.26841252897341
 30
0.0
 40
0.125
  1
PART
  7
TXT
 72
     1
 11
0.4370000000000048
 21
15.26841252897341
 31
0.0
100
AcDbText
  0
TEXT
  5
B82
330
BA
100
AcDbEntity
  8
TEXT
100
AcDbText
 10
0.2078333333333381
 20
15.06007919564008
 30
0.0
 40
0.125
  1
NAME
  7
TXT
 72
     1
 11
0.4370000000000048
 21
15.06007919564008
 31
0.0
100
AcDbText
  0
LINE
  5
B83
330
BA
100
AcDbEntity
  8
TITLE
100
AcDbLine
 10
0.8120000000000047
 20
15.01999999999999
 30
0.0
 11
0.8120000000000011
 21
15.438
 31
0.0
  0
LINE
  5
B84
330
BA
100
AcDbEntity
  8
TITLE
100
AcDbLine
 10
10.11999999999999
 20
15.49999999999999
 30
0.0
 11
10.11999999999999
 21
-0.0000000000000018
 31
0.0
  0
LINE
  5
B85
330
BA
100
AcDbEntity
  8
TITLE
100
AcDbLine
 10
10.058
 20
15.438
 30
0.0
 11
10.058
 21
0.0619999999999994
 31
0.0
  0
TEXT
  5
B86
330
BA
100
AcDbEntity
  8
TEXT
100
AcDbText
 10
4.36183333333333
 20
15.26841252897341
 30
0.0
 40
0.125
  1
PART
  7
TXT
 72
     1
 11
4.590999999999997
 21
15.26841252897341
 31
0.0
100
AcDbText
  0
LINE
  5
B87
330
BA
100
AcDbEntity
  8
TITLE
100
AcDbLine
 10
4.153999999999999
 20
15.438
 30
0.0
 11
4.153999999999999
 21
15.01999999999999
 31
0.0
  0
LINE
  5
B88
330
BA
100
AcDbEntity
  8
TITLE
100
AcDbLine
 10
4.215999999999997
 20
15.438
 30
0.0
 11
4.215999999999997
 21
15.01999999999999
 31
0.0
  0
TEXT
  5
B89
330
BA
100
AcDbEntity
  8
TEXT
100
AcDbText
 10
4.465999999999997
 20
15.06007919564008
 30
0.0
 40
0.125
  1
No.
  7
TXT
 72
     1
 11
4.590999999999997
 21
15.06007919564008
 31
0.0
100
AcDbText
  0
LINE
  5
B8A
330
BA
100
AcDbEntity
  8
TITLE
100
AcDbLine
 10
4.965999999999997
 20
15.438
 30
0.0
 11
4.965999999999997
 21
15.01999999999999
 31
0.0
  0
LINE
  5
B8B
330
BA
100
AcDbEntity
  8
TITLE
100
AcDbLine
 10
8.307999999999999
 20
15.438
 30
0.0
 11
8.307999999999999
 21
15.02
 31
0.0
  0
LINE
  5
B8C
330
BA
100
AcDbEntity
  8
TITLE
100
AcDbLine
 10
8.245999999999988
 20
15.438
 30
0.0
 11
8.245999999999988
 21
15.02
 31
0.0
  0
TEXT
  5
B8D
330
BA
100
AcDbEntity
  8
TEXT
100
AcDbText
 10
8.453833333333333
 20
15.06007919564008
 30
0.0
 40
0.125
  1
DATE
  7
TXT
 72
     1
 11
8.682999999999999
 21
15.06007919564008
 31
0.0
100
AcDbText
  0
TEXT
  5
B8E
330
BA
100
AcDbEntity
  8
TEXT
100
AcDbText
 10
8.474666666666665
 20
15.26841252897341
 30
0.0
 40
0.125
  1
REV.
  7
TXT
 72
     1
 11
8.682999999999999
 21
15.26841252897341
 31
0.0
100
AcDbText
  0
LINE
  5
B8F
330
BA
100
AcDbEntity
  8
TITLE
100
AcDbLine
 10
9.057999999999999
 20
15.438
 30
0.0
 11
9.057999999999999
 21
15.02
 31
0.0
  0
ENDBLK
  5
CD
330
BA
100
AcDbEntity
  8
0
100
AcDbBlockEnd
  0
BLOCK
  5
CF
330
CE
100
AcDbEntity
  8
0
100
AcDbBlockBegin
  2
CUTOUT
 70
     0
 10
0.0
 20
0.0
 30
0.0
  3
CUTOUT
  1

  0
LWPOLYLINE
  5
D0
330
CE
100
AcDbEntity
  8
OBJECT
100
AcDbPolyline
 90
        4
 70
     1
 43
0.0
 10
-0.1565
 20
-0.5315
 10
-0.1565
 20
0.5315
 10
0.1565
 20
0.5315
 10
0.1565
 20
-0.5315
  0
ENDBLK
  5
D6
330
CE
100
AcDbEntity
  8
0
100
AcDbBlockEnd
  0
BLOCK
  5
D8
330
D7
100
AcDbEntity
  8
0
100
AcDbBlockBegin
  2
TOP
 70
     0
 10
0.0
 20
0.0
 30
0.0
  3
TOP
  1

  0
CIRCLE
  5
D9
330
D7
100
AcDbEntity
  8
OBJECT
100
AcDbCircle
 10
-4.843999999999999
 20
0.0
 30
0.0
 40
0.09
  0
CIRCLE
  5
DA
330
D7
100
AcDbEntity
  8
OBJECT
100
AcDbCircle
 10
-3.425225
 20
-3.425225
 30
0.0
 40
0.09
  0
CIRCLE
  5
DB
330
D7
100
AcDbEntity
  8
OBJECT
100
AcDbCircle
 10
-2.517818999999999
 20
0.839273
 30
0.0
 40
0.125
  0
CIRCLE
  5
DC
330
D7
100
AcDbEntity
  8
OBJECT
100
AcDbCircle
 10
-2.517818999999999
 20
0.0
 30
0.0
 40
0.125
  0
CIRCLE
  5
DD
330
D7
100
AcDbEntity
  8
OBJECT
100
AcDbCircle
 10
-2.517818999999999
 20
-0.839273
 30
0.0
 40
0.125
  0
CIRCLE
  5
DE
330
D7
100
AcDbEntity
  8
OBJECT
100
AcDbCircle
 10
-2.517818999999999
 20
-1.678545999999999
 30
0.0
 40
0.125
  0
CIRCLE
  5
DF
330
D7
100
AcDbEntity
  8
OBJECT
100
AcDbCircle
 10
-2.517818999999999
 20
-2.517818999999999
 30
0.0
 40
0.125
  0
CIRCLE
  5
E0
330
D7
100
AcDbEntity
  8
OBJECT
100
AcDbCircle
 10
-2.517818999999999
 20
-3.357091999999999
 30
0.0
 40
0.125
  0
CIRCLE
  5
E1
330
D7
100
AcDbEntity
  8
OBJECT
100
AcDbCircle
 10
-3.357091999999999
 20
0.839273
 30
0.0
 40
0.125
  0
CIRCLE
  5
E2
330
D7
100
AcDbEntity
  8
OBJECT
100
AcDbCircle
 10
-3.357091999999999
 20
0.0
 30
0.0
 40
0.125
  0
CIRCLE
  5
E3
330
D7
100
AcDbEntity
  8
OBJECT
100
AcDbCircle
 10
-3.357091999999999
 20
-0.839273
 30
0.0
 40
0.125
  0
CIRCLE
  5
E4
330
D7
100
AcDbEntity
  8
OBJECT
100
AcDbCircle
 10
-3.357091999999999
 20
-1.678545999999999
 30
0.0
 40
0.125
  0
CIRCLE
  5
E5
330
D7
100
AcDbEntity
  8
OBJECT
100
AcDbCircle
 10
-3.357091999999999
 20
-2.517818999999999
 30
0.0
 40
0.125
  0
CIRCLE
  5
E6
330
D7
100
AcDbEntity
  8
OBJECT
100
AcDbCircle
 10
-4.196365
 20
0.839273
 30
0.0
 40
0.125
  0
CIRCLE
  5
E7
330
D7
100
AcDbEntity
  8
OBJECT
100
AcDbCircle
 10
-4.196365
 20
0.0
 30
0.0
 40
0.125
  0
CIRCLE
  5
E8
330
D7
100
AcDbEntity
  8
OBJECT
100
AcDbCircle
 10
-4.196365
 20
-0.839273
 30
0.0
 40
0.125
  0
CIRCLE
  5
E9
330
D7
100
AcDbEntity
  8
OBJECT
100
AcDbCircle
 10
-4.196365
 20
-1.678545999999999
 30
0.0
 40
0.125
  0
CIRCLE
  5
EA
330
D7
100
AcDbEntity
  8
OBJECT
100
AcDbCircle
 10
4.843999999999999
 20
0.0
 30
0.0
 40
0.09
  0
CIRCLE
  5
EB
330
D7
100
AcDbEntity
  8
OBJECT
100
AcDbCircle
 10
0.0
 20
-4.843999999999999
 30
0.0
 40
0.09
  0
CIRCLE
  5
EC
330
D7
100
AcDbEntity
  8
OBJECT
100
AcDbCircle
 10
0.839273
 20
0.839273
 30
0.0
 40
0.125
  0
CIRCLE
  5
ED
330
D7
100
AcDbEntity
  8
OBJECT
100
AcDbCircle
 10
0.839273
 20
0.0
 30
0.0
 40
0.125
  0
CIRCLE
  5
EE
330
D7
100
AcDbEntity
  8
OBJECT
100
AcDbCircle
 10
0.839273
 20
-0.839273
 30
0.0
 40
0.125
  0
CIRCLE
  5
EF
330
D7
100
AcDbEntity
  8
OBJECT
100
AcDbCircle
 10
0.839273
 20
-1.678545999999999
 30
0.0
 40
0.125
  0
CIRCLE
  5
F0
330
D7
100
AcDbEntity
  8
OBJECT
100
AcDbCircle
 10
0.839273
 20
-2.517818999999999
 30
0.0
 40
0.125
  0
CIRCLE
  5
F1
330
D7
100
AcDbEntity
  8
OBJECT
100
AcDbCircle
 10
0.839273
 20
-3.357091999999999
 30
0.0
 40
0.125
  0
CIRCLE
  5
F2
330
D7
100
AcDbEntity
  8
OBJECT
100
AcDbCircle
 10
0.839273
 20
-4.196365
 30
0.0
 40
0.125
  0
CIRCLE
  5
F3
330
D7
100
AcDbEntity
  8
OBJECT
100
AcDbCircle
 10
0.0
 20
0.839273
 30
0.0
 40
0.125
  0
CIRCLE
  5
F4
330
D7
100
AcDbEntity
  8
OBJECT
100
AcDbCircle
 10
0.0
 20
0.0
 30
0.0
 40
0.125
  0
CIRCLE
  5
F5
330
D7
100
AcDbEntity
  8
OBJECT
100
AcDbCircle
 10
0.0
 20
-0.839273
 30
0.0
 40
0.125
  0
CIRCLE
  5
F6
330
D7
100
AcDbEntity
  8
OBJECT
100
AcDbCircle
 10
0.0
 20
-1.678545999999999
 30
0.0
 40
0.125
  0
CIRCLE
  5
F7
330
D7
100
AcDbEntity
  8
OBJECT
100
AcDbCircle
 10
0.0
 20
-2.517818999999999
 30
0.0
 40
0.125
  0
CIRCLE
  5
F8
330
D7
100
AcDbEntity
  8
OBJECT
100
AcDbCircle
 10
0.0
 20
-3.357091999999999
 30
0.0
 40
0.125
  0
CIRCLE
  5
F9
330
D7
100
AcDbEntity
  8
OBJECT
100
AcDbCircle
 10
0.0
 20
-4.196365
 30
0.0
 40
0.125
  0
CIRCLE
  5
FA
330
D7
100
AcDbEntity
  8
OBJECT
100
AcDbCircle
 10
-0.839273
 20
0.839273
 30
0.0
 40
0.125
  0
CIRCLE
  5
FB
330
D7
100
AcDbEntity
  8
OBJECT
100
AcDbCircle
 10
-0.839273
 20
0.0
 30
0.0
 40
0.125
  0
CIRCLE
  5
FC
330
D7
100
AcDbEntity
  8
OBJECT
100
AcDbCircle
 10
-0.839273
 20
-0.839273
 30
0.0
 40
0.125
  0
CIRCLE
  5
FD
330
D7
100
AcDbEntity
  8
OBJECT
100
AcDbCircle
 10
-0.839273
 20
-1.678545999999999
 30
0.0
 40
0.125
  0
CIRCLE
  5
FE
330
D7
100
AcDbEntity
  8
OBJECT
100
AcDbCircle
 10
-0.839273
 20
-2.517818999999999
 30
0.0
 40
0.125
  0
CIRCLE
  5
FF
330
D7
100
AcDbEntity
  8
OBJECT
100
AcDbCircle
 10
-0.839273
 20
-3.357091999999999
 30
0.0
 40
0.125
  0
CIRCLE
  5
100
330
D7
100
AcDbEntity
  8
OBJECT
100
AcDbCircle
 10
-0.839273
 20
-4.196365
 30
0.0
 40
0.125
  0
CIRCLE
  5
101
330
D7
100
AcDbEntity
  8
OBJECT
100
AcDbCircle
 10
-1.678545999999999
 20
0.839273
 30
0.0
 40
0.125
  0
CIRCLE
  5
102
330
D7
100
AcDbEntity
  8
OBJECT
100
AcDbCircle
 10
-1.678545999999999
 20
0.0
 30
0.0
 40
0.125
  0
CIRCLE
  5
103
330
D7
100
AcDbEntity
  8
OBJECT
100
AcDbCircle
 10
-1.678545999999999
 20
-0.839273
 30
0.0
 40
0.125
  0
CIRCLE
  5
104
330
D7
100
AcDbEntity
  8
OBJECT
100
AcDbCircle
 10
-1.678545999999999
 20
-1.678545999999999
 30
0.0
 40
0.125
  0
CIRCLE
  5
105
330
D7
100
AcDbEntity
  8
OBJECT
100
AcDbCircle
 10
-1.678545999999999
 20
-2.517818999999999
 30
0.0
 40
0.125
  0
CIRCLE
  5
106
330
D7
100
AcDbEntity
  8
OBJECT
100
AcDbCircle
 10
-1.678545999999999
 20
-3.357091999999999
 30
0.0
 40
0.125
  0
CIRCLE
  5
107
330
D7
100
AcDbEntity
  8
OBJECT
100
AcDbCircle
 10
-1.678545999999999
 20
-4.196365
 30
0.0
 40
0.125
  0
CIRCLE
  5
108
330
D7
100
AcDbEntity
  8
OBJECT
100
AcDbCircle
 10
3.425225
 20
-3.425225
 30
0.0
 40
0.09
  0
CIRCLE
  5
109
330
D7
100
AcDbEntity
  8
OBJECT
100
AcDbCircle
 10
1.678545999999999
 20
0.839273
 30
0.0
 40
0.125
  0
CIRCLE
  5
10A
330
D7
100
AcDbEntity
  8
OBJECT
100
AcDbCircle
 10
1.678545999999999
 20
0.0
 30
0.0
 40
0.125
  0
CIRCLE
  5
10B
330
D7
100
AcDbEntity
  8
OBJECT
100
AcDbCircle
 10
1.678545999999999
 20
-0.839273
 30
0.0
 40
0.125
  0
CIRCLE
  5
10C
330
D7
100
AcDbEntity
  8
OBJECT
100
AcDbCircle
 10
1.678545999999999
 20
-1.678545999999999
 30
0.0
 40
0.125
  0
CIRCLE
  5
10D
330
D7
100
AcDbEntity
  8
OBJECT
100
AcDbCircle
 10
1.678545999999999
 20
-2.517818999999999
 30
0.0
 40
0.125
  0
CIRCLE
  5
10E
330
D7
100
AcDbEntity
  8
OBJECT
100
AcDbCircle
 10
1.678545999999999
 20
-3.357091999999999
 30
0.0
 40
0.125
  0
CIRCLE
  5
10F
330
D7
100
AcDbEntity
  8
OBJECT
100
AcDbCircle
 10
1.678545999999999
 20
-4.196365
 30
0.0
 40
0.125
  0
CIRCLE
  5
110
330
D7
100
AcDbEntity
  8
OBJECT
100
AcDbCircle
 10
4.196365
 20
0.839273
 30
0.0
 40
0.125
  0
CIRCLE
  5
111
330
D7
100
AcDbEntity
  8
OBJECT
100
AcDbCircle
 10
4.196365
 20
0.0
 30
0.0
 40
0.125
  0
CIRCLE
  5
112
330
D7
100
AcDbEntity
  8
OBJECT
100
AcDbCircle
 10
4.196365
 20
-0.839273
 30
0.0
 40
0.125
  0
CIRCLE
  5
113
330
D7
100
AcDbEntity
  8
OBJECT
100
AcDbCircle
 10
4.196365
 20
-1.678545999999999
 30
0.0
 40
0.125
  0
CIRCLE
  5
114
330
D7
100
AcDbEntity
  8
OBJECT
100
AcDbCircle
 10
3.357091999999999
 20
0.839273
 30
0.0
 40
0.125
  0
CIRCLE
  5
115
330
D7
100
AcDbEntity
  8
OBJECT
100
AcDbCircle
 10
3.357091999999999
 20
0.0
 30
0.0
 40
0.125
  0
CIRCLE
  5
116
330
D7
100
AcDbEntity
  8
OBJECT
100
AcDbCircle
 10
3.357091999999999
 20
-0.839273
 30
0.0
 40
0.125
  0
CIRCLE
  5
117
330
D7
100
AcDbEntity
  8
OBJECT
100
AcDbCircle
 10
3.357091999999999
 20
-1.678545999999999
 30
0.0
 40
0.125
  0
CIRCLE
  5
118
330
D7
100
AcDbEntity
  8
OBJECT
100
AcDbCircle
 10
3.357091999999999
 20
-2.517818999999999
 30
0.0
 40
0.125
  0
CIRCLE
  5
119
330
D7
100
AcDbEntity
  8
OBJECT
100
AcDbCircle
 10
2.517818999999999
 20
0.839273
 30
0.0
 40
0.125
  0
CIRCLE
  5
11A
330
D7
100
AcDbEntity
  8
OBJECT
100
AcDbCircle
 10
2.517818999999999
 20
0.0
 30
0.0
 40
0.125
  0
CIRCLE
  5
11B
330
D7
100
AcDbEntity
  8
OBJECT
100
AcDbCircle
 10
2.517818999999999
 20
-0.839273
 30
0.0
 40
0.125
  0
CIRCLE
  5
11C
330
D7
100
AcDbEntity
  8
OBJECT
100
AcDbCircle
 10
2.517818999999999
 20
-1.678545999999999
 30
0.0
 40
0.125
  0
CIRCLE
  5
11D
330
D7
100
AcDbEntity
  8
OBJECT
100
AcDbCircle
 10
2.517818999999999
 20
-2.517818999999999
 30
0.0
 40
0.125
  0
CIRCLE
  5
11E
330
D7
100
AcDbEntity
  8
OBJECT
100
AcDbCircle
 10
2.517818999999999
 20
-3.357091999999999
 30
0.0
 40
0.125
  0
CIRCLE
  5
11F
330
D7
100
AcDbEntity
  8
OBJECT
100
AcDbCircle
 10
-3.425225
 20
3.425225
 30
0.0
 40
0.09
  0
CIRCLE
  5
120
330
D7
100
AcDbEntity
  8
OBJECT
100
AcDbCircle
 10
-2.517818999999999
 20
3.357091999999999
 30
0.0
 40
0.125
  0
CIRCLE
  5
121
330
D7
100
AcDbEntity
  8
OBJECT
100
AcDbCircle
 10
-2.517818999999999
 20
2.517818999999999
 30
0.0
 40
0.125
  0
CIRCLE
  5
122
330
D7
100
AcDbEntity
  8
OBJECT
100
AcDbCircle
 10
-2.517818999999999
 20
1.678545999999999
 30
0.0
 40
0.125
  0
CIRCLE
  5
123
330
D7
100
AcDbEntity
  8
OBJECT
100
AcDbCircle
 10
-3.357091999999999
 20
2.517818999999999
 30
0.0
 40
0.125
  0
CIRCLE
  5
124
330
D7
100
AcDbEntity
  8
OBJECT
100
AcDbCircle
 10
-3.357091999999999
 20
1.678545999999999
 30
0.0
 40
0.125
  0
CIRCLE
  5
125
330
D7
100
AcDbEntity
  8
OBJECT
100
AcDbCircle
 10
-4.196365
 20
1.678545999999999
 30
0.0
 40
0.125
  0
CIRCLE
  5
126
330
D7
100
AcDbEntity
  8
OBJECT
100
AcDbCircle
 10
0.0
 20
4.843999999999999
 30
0.0
 40
0.09
  0
CIRCLE
  5
127
330
D7
100
AcDbEntity
  8
OBJECT
100
AcDbCircle
 10
0.839273
 20
4.196365
 30
0.0
 40
0.125
  0
CIRCLE
  5
128
330
D7
100
AcDbEntity
  8
OBJECT
100
AcDbCircle
 10
0.839273
 20
3.357091999999999
 30
0.0
 40
0.125
  0
CIRCLE
  5
129
330
D7
100
AcDbEntity
  8
OBJECT
100
AcDbCircle
 10
0.839273
 20
2.517818999999999
 30
0.0
 40
0.125
  0
CIRCLE
  5
12A
330
D7
100
AcDbEntity
  8
OBJECT
100
AcDbCircle
 10
0.839273
 20
1.678545999999999
 30
0.0
 40
0.125
  0
CIRCLE
  5
12B
330
D7
100
AcDbEntity
  8
OBJECT
100
AcDbCircle
 10
0.0
 20
4.196365
 30
0.0
 40
0.125
  0
CIRCLE
  5
12C
330
D7
100
AcDbEntity
  8
OBJECT
100
AcDbCircle
 10
0.0
 20
3.357091999999999
 30
0.0
 40
0.125
  0
CIRCLE
  5
12D
330
D7
100
AcDbEntity
  8
OBJECT
100
AcDbCircle
 10
0.0
 20
2.517818999999999
 30
0.0
 40
0.125
  0
CIRCLE
  5
12E
330
D7
100
AcDbEntity
  8
OBJECT
100
AcDbCircle
 10
0.0
 20
1.678545999999999
 30
0.0
 40
0.125
  0
CIRCLE
  5
12F
330
D7
100
AcDbEntity
  8
OBJECT
100
AcDbCircle
 10
-0.839273
 20
4.196365
 30
0.0
 40
0.125
  0
CIRCLE
  5
130
330
D7
100
AcDbEntity
  8
OBJECT
100
AcDbCircle
 10
-0.839273
 20
3.357091999999999
 30
0.0
 40
0.125
  0
CIRCLE
  5
131
330
D7
100
AcDbEntity
  8
OBJECT
100
AcDbCircle
 10
-0.839273
 20
2.517818999999999
 30
0.0
 40
0.125
  0
CIRCLE
  5
132
330
D7
100
AcDbEntity
  8
OBJECT
100
AcDbCircle
 10
-0.839273
 20
1.678545999999999
 30
0.0
 40
0.125
  0
CIRCLE
  5
133
330
D7
100
AcDbEntity
  8
OBJECT
100
AcDbCircle
 10
-1.678545999999999
 20
4.196365
 30
0.0
 40
0.125
  0
CIRCLE
  5
134
330
D7
100
AcDbEntity
  8
OBJECT
100
AcDbCircle
 10
-1.678545999999999
 20
3.357091999999999
 30
0.0
 40
0.125
  0
CIRCLE
  5
135
330
D7
100
AcDbEntity
  8
OBJECT
100
AcDbCircle
 10
-1.678545999999999
 20
2.517818999999999
 30
0.0
 40
0.125
  0
CIRCLE
  5
136
330
D7
100
AcDbEntity
  8
OBJECT
100
AcDbCircle
 10
-1.678545999999999
 20
1.678545999999999
 30
0.0
 40
0.125
  0
CIRCLE
  5
137
330
D7
100
AcDbEntity
  8
OBJECT
100
AcDbCircle
 10
3.425225
 20
3.425225
 30
0.0
 40
0.09
  0
CIRCLE
  5
138
330
D7
100
AcDbEntity
  8
OBJECT
100
AcDbCircle
 10
1.678545999999999
 20
4.196365
 30
0.0
 40
0.125
  0
CIRCLE
  5
139
330
D7
100
AcDbEntity
  8
OBJECT
100
AcDbCircle
 10
1.678545999999999
 20
3.357091999999999
 30
0.0
 40
0.125
  0
CIRCLE
  5
13A
330
D7
100
AcDbEntity
  8
OBJECT
100
AcDbCircle
 10
1.678545999999999
 20
2.517818999999999
 30
0.0
 40
0.125
  0
CIRCLE
  5
13B
330
D7
100
AcDbEntity
  8
OBJECT
100
AcDbCircle
 10
1.678545999999999
 20
1.678545999999999
 30
0.0
 40
0.125
  0
CIRCLE
  5
13C
330
D7
100
AcDbEntity
  8
OBJECT
100
AcDbCircle
 10
4.196365
 20
1.678545999999999
 30
0.0
 40
0.125
  0
CIRCLE
  5
13D
330
D7
100
AcDbEntity
  8
OBJECT
100
AcDbCircle
 10
3.357091999999999
 20
2.517818999999999
 30
0.0
 40
0.125
  0
CIRCLE
  5
13E
330
D7
100
AcDbEntity
  8
OBJECT
100
AcDbCircle
 10
3.357091999999999
 20
1.678545999999999
 30
0.0
 40
0.125
  0
CIRCLE
  5
13F
330
D7
100
AcDbEntity
  8
OBJECT
100
AcDbCircle
 10
2.517818999999999
 20
3.357091999999999
 30
0.0
 40
0.125
  0
CIRCLE
  5
140
330
D7
100
AcDbEntity
  8
OBJECT
100
AcDbCircle
 10
2.517818999999999
 20
2.517818999999999
 30
0.0
 40
0.125
  0
CIRCLE
  5
141
330
D7
100
AcDbEntity
  8
OBJECT
100
AcDbCircle
 10
2.517818999999999
 20
1.678545999999999
 30
0.0
 40
0.125
  0
ENDBLK
  5
142
330
D7
100
AcDbEntity
  8
0
100
AcDbBlockEnd
  0
BLOCK
  5
637
330
62C
100
AcDbEntity
  8
0
100
AcDbBlockBegin
  2
*D6
 70
     1
 10
0.0
 20
0.0
 30
0.0
  3
*D6
  1

  0
LINE
  5
BF3
330
62C
100
AcDbEntity
  8
0
 62
     0
370
    -2
100
AcDbLine
 10
111.390631
 20
101.1704829999999
 30
0.0
 11
103.134631
 21
101.1704829999999
 31
0.0
  0
LINE
  5
BF4
330
62C
100
AcDbEntity
  8
0
 62
     0
370
    -2
100
AcDbLine
 10
111.390631
 20
98.17048299999999
 30
0.0
 11
103.134631
 21
98.17048299999999
 31
0.0
  0
LINE
  5
BF5
330
62C
100
AcDbEntity
  8
0
 62
     0
370
    -2
100
AcDbLine
 10
104.529631
 20
103.8704829999999
 30
0.0
 11
104.529631
 21
106.570483
 31
0.0
  0
LINE
  5
BF6
330
62C
100
AcDbEntity
  8
0
 62
     0
370
    -2
100
AcDbLine
 10
104.5296309999999
 20
95.47048299999998
 30
0.0
 11
104.5296309999999
 21
92.77048299999998
 31
0.0
  0
SOLID
  5
BF7
330
62C
100
AcDbEntity
  8
0
 62
     0
100
AcDbTrace
 10
104.079631
 20
103.8704829999999
 30
0.0
 11
104.979631
 21
103.8704829999999
 31
0.0
 12
104.529631
 22
101.1704829999999
 32
0.0
 13
104.529631
 23
101.1704829999999
 33
0.0
  0
SOLID
  5
BF8
330
62C
100
AcDbEntity
  8
0
 62
     0
100
AcDbTrace
 10
104.0796309999999
 20
95.47048299999998
 30
0.0
 11
104.979631
 21
95.47048299999998
 31
0.0
 12
104.529631
 22
98.17048299999999
 32
0.0
 13
104.529631
 23
98.17048299999999
 33
0.0
  0
MTEXT
  5
BF9
330
62C
100
AcDbEntity
  8
0
 62
     0
100
AcDbMText
 10
104.5296309999999
 20
99.67048300000001
 30
0.0
 40
1.875
 41
0.0
 71
     5
 72
     1
  1
\A1;3.000
  7
TXT
 73
     1
 44
1.0
  0
POINT
  5
BFA
330
62C
100
AcDbEntity
  8
DEFPOINTS
 62
     0
100
AcDbPoint
 10
112.335631
 20
101.1704829999999
 30
0.0
  0
POINT
  5
BFB
330
62C
100
AcDbEntity
  8
DEFPOINTS
 62
     0
100
AcDbPoint
 10
112.335631
 20
98.17048299999999
 30
0.0
  0
POINT
  5
BFC
330
62C
100
AcDbEntity
  8
DEFPOINTS
 62
     0
100
AcDbPoint
 10
104.529631
 20
98.17048299999999
 30
0.0
  0
ENDBLK
  5
638
330
62C
100
AcDbEntity
  8
0
100
AcDbBlockEnd
  0
BLOCK
  5
645
330
63A
100
AcDbEntity
  8
0
100
AcDbBlockBegin
  2
*D7
 70
     1
 10
0.0
 20
0.0
 30
0.0
  3
*D7
  1

  0
LINE
  5
BE8
330
63A
100
AcDbEntity
  8
0
 62
     0
370
    -2
100
AcDbLine
 10
108.984631
 20
102.9984829999999
 30
0.0
 11
98.91963100000001
 21
102.9984829999999
 31
0.0
  0
LINE
  5
BE9
330
63A
100
AcDbEntity
  8
0
 62
     0
370
    -2
100
AcDbLine
 10
111.390631
 20
101.1704829999999
 30
0.0
 11
98.91963100000001
 21
101.1704829999999
 31
0.0
  0
LINE
  5
BEA
330
63A
100
AcDbEntity
  8
0
 62
     0
370
    -2
100
AcDbLine
 10
100.3146309999999
 20
105.6984829999999
 30
0.0
 11
100.3146309999999
 21
108.398483
 31
0.0
  0
LINE
  5
BEB
330
63A
100
AcDbEntity
  8
0
 62
     0
370
    -2
100
AcDbLine
 10
100.3146309999999
 20
98.47048299999999
 30
0.0
 11
100.3146309999999
 21
95.77048299999999
 31
0.0
  0
LINE
  5
BEC
330
63A
100
AcDbEntity
  8
0
 62
     0
370
    -2
100
AcDbLine
 10
100.3146309999999
 20
95.77048299999999
 30
0.0
 11
97.614631
 21
95.77048299999999
 31
0.0
  0
SOLID
  5
BED
330
63A
100
AcDbEntity
  8
0
 62
     0
100
AcDbTrace
 10
99.86463100000001
 20
105.6984829999999
 30
0.0
 11
100.764631
 21
105.6984829999999
 31
0.0
 12
100.3146309999999
 22
102.9984829999999
 32
0.0
 13
100.3146309999999
 23
102.9984829999999
 33
0.0
  0
SOLID
  5
BEE
330
63A
100
AcDbEntity
  8
0
 62
     0
100
AcDbTrace
 10
99.86463100000001
 20
98.47048299999999
 30
0.0
 11
100.764631
 21
98.47048299999999
 31
0.0
 12
100.3146309999999
 22
101.1704829999999
 32
0.0
 13
100.3146309999999
 23
101.1704829999999
 33
0.0
  0
MTEXT
  5
BEF
330
63A
100
AcDbEntity
  8
0
 62
     0
100
AcDbMText
 10
93.68650599999998
 20
95.77048300000001
 30
0.0
 40
1.875
 41
0.0
 71
     5
 72
     1
  1
\A1;1.828
  7
TXT
 73
     1
 44
1.0
  0
POINT
  5
BF0
330
63A
100
AcDbEntity
  8
DEFPOINTS
 62
     0
100
AcDbPoint
 10
109.9296309999999
 20
102.9984829999999
 30
0.0
  0
POINT
  5
BF1
330
63A
100
AcDbEntity
  8
DEFPOINTS
 62
     0
100
AcDbPoint
 10
112.335631
 20
101.1704829999999
 30
0.0
  0
POINT
  5
BF2
330
63A
100
AcDbEntity
  8
DEFPOINTS
 62
     0
100
AcDbPoint
 10
100.3146309999999
 20
101.1704829999999
 30
0.0
  0
ENDBLK
  5
646
330
63A
100
AcDbEntity
  8
0
100
AcDbBlockEnd
  0
BLOCK
  5
655
330
64A
100
AcDbEntity
  8
0
100
AcDbBlockBegin
  2
*D8
 70
     1
 10
0.0
 20
0.0
 30
0.0
  3
*D8
  1

  0
LINE
  5
C07
330
64A
100
AcDbEntity
  8
0
 62
     0
370
    -2
100
AcDbLine
 10
112.335631
 20
102.1154829999999
 30
0.0
 11
112.335631
 21
109.793483
 31
0.0
  0
LINE
  5
C08
330
64A
100
AcDbEntity
  8
0
 62
     0
370
    -2
100
AcDbLine
 10
114.0856309999999
 20
102.1154829999999
 30
0.0
 11
114.0856309999999
 21
109.793483
 31
0.0
  0
LINE
  5
C09
330
64A
100
AcDbEntity
  8
0
 62
     0
370
    -2
100
AcDbLine
 10
109.635631
 20
108.398483
 30
0.0
 11
106.935631
 21
108.398483
 31
0.0
  0
LINE
  5
C0A
330
64A
100
AcDbEntity
  8
0
 62
     0
370
    -2
100
AcDbLine
 10
116.785631
 20
108.398483
 30
0.0
 11
119.485631
 21
108.398483
 31
0.0
  0
SOLID
  5
C0B
330
64A
100
AcDbEntity
  8
0
 62
     0
100
AcDbTrace
 10
109.635631
 20
108.848483
 30
0.0
 11
109.635631
 21
107.948483
 31
0.0
 12
112.335631
 22
108.398483
 32
0.0
 13
112.335631
 23
108.398483
 33
0.0
  0
SOLID
  5
C0C
330
64A
100
AcDbEntity
  8
0
 62
     0
100
AcDbTrace
 10
116.785631
 20
108.848483
 30
0.0
 11
116.785631
 21
107.948483
 31
0.0
 12
114.0856309999999
 22
108.398483
 32
0.0
 13
114.0856309999999
 23
108.398483
 33
0.0
  0
MTEXT
  5
C0D
330
64A
100
AcDbEntity
  8
0
 62
     0
100
AcDbMText
 10
123.2965685
 20
108.398483
 30
0.0
 40
1.875
 41
0.0
 71
     5
 72
     1
  1
\A1;1.750
  7
TXT
 73
     1
 44
1.0
  0
POINT
  5
C0E
330
64A
100
AcDbEntity
  8
DEFPOINTS
 62
     0
100
AcDbPoint
 10
112.335631
 20
101.1704829999999
 30
0.0
  0
POINT
  5
C0F
330
64A
100
AcDbEntity
  8
DEFPOINTS
 62
     0
100
AcDbPoint
 10
114.0856309999999
 20
101.1704829999999
 30
0.0
  0
POINT
  5
C10
330
64A
100
AcDbEntity
  8
DEFPOINTS
 62
     0
100
AcDbPoint
 10
114.0856309999999
 20
108.398483
 30
0.0
  0
ENDBLK
  5
656
330
64A
100
AcDbEntity
  8
0
100
AcDbBlockEnd
  0
BLOCK
  5
663
330
658
100
AcDbEntity
  8
0
100
AcDbBlockBegin
  2
*D9
 70
     1
 10
0.0
 20
0.0
 30
0.0
  3
*D9
  1

  0
LINE
  5
BFD
330
658
100
AcDbEntity
  8
0
 62
     0
370
    -2
100
AcDbLine
 10
109.9296309999999
 20
103.9434829999999
 30
0.0
 11
109.9296309999999
 21
114.0084829999999
 31
0.0
  0
LINE
  5
BFE
330
658
100
AcDbEntity
  8
0
 62
     0
370
    -2
100
AcDbLine
 10
112.335631
 20
102.1154829999999
 30
0.0
 11
112.335631
 21
114.0084829999999
 31
0.0
  0
LINE
  5
BFF
330
658
100
AcDbEntity
  8
0
 62
     0
370
    -2
100
AcDbLine
 10
107.229631
 20
112.613483
 30
0.0
 11
104.5296309999999
 21
112.613483
 31
0.0
  0
LINE
  5
C00
330
658
100
AcDbEntity
  8
0
 62
     0
370
    -2
100
AcDbLine
 10
115.035631
 20
112.613483
 30
0.0
 11
117.735631
 21
112.613483
 31
0.0
  0
SOLID
  5
C01
330
658
100
AcDbEntity
  8
0
 62
     0
100
AcDbTrace
 10
107.229631
 20
113.0634829999999
 30
0.0
 11
107.229631
 21
112.163483
 31
0.0
 12
109.9296309999999
 22
112.613483
 32
0.0
 13
109.9296309999999
 23
112.613483
 33
0.0
  0
SOLID
  5
C02
330
658
100
AcDbEntity
  8
0
 62
     0
100
AcDbTrace
 10
115.035631
 20
113.0634829999999
 30
0.0
 11
115.035631
 21
112.163483
 31
0.0
 12
112.335631
 22
112.613483
 32
0.0
 13
112.335631
 23
112.613483
 33
0.0
  0
MTEXT
  5
C03
330
658
100
AcDbEntity
  8
0
 62
     0
100
AcDbMText
 10
121.7809435
 20
112.613483
 30
0.0
 40
1.875
 41
0.0
 71
     5
 72
     1
  1
\A1;2.406
  7
TXT
 73
     1
 44
1.0
  0
POINT
  5
C04
330
658
100
AcDbEntity
  8
DEFPOINTS
 62
     0
100
AcDbPoint
 10
109.9296309999999
 20
102.9984829999999
 30
0.0
  0
POINT
  5
C05
330
658
100
AcDbEntity
  8
DEFPOINTS
 62
     0
100
AcDbPoint
 10
112.335631
 20
101.1704829999999
 30
0.0
  0
POINT
  5
C06
330
658
100
AcDbEntity
  8
DEFPOINTS
 62
     0
100
AcDbPoint
 10
112.335631
 20
112.613483
 30
0.0
  0
ENDBLK
  5
664
330
658
100
AcDbEntity
  8
0
100
AcDbBlockEnd
  0
BLOCK
  5
678
330
66D
100
AcDbEntity
  8
0
100
AcDbBlockBegin
  2
*D10
 70
     1
 10
0.0
 20
0.0
 30
0.0
  3
*D10
  1

  0
LINE
  5
C89
330
66D
100
AcDbEntity
  8
0
 62
     0
370
    -2
100
AcDbLine
 10
111.3671309999999
 20
170.383281
 30
0.0
 11
111.3671309999999
 21
170.833281
 31
0.0
  0
LINE
  5
C8A
330
66D
100
AcDbEntity
  8
0
 62
     0
370
    -2
100
AcDbLine
 10
130.492131
 20
170.383281
 30
0.0
 11
130.492131
 21
170.833281
 31
0.0
  0
LINE
  5
C8B
330
66D
100
AcDbEntity
  8
0
 62
     0
370
    -2
100
AcDbLine
 10
108.667131
 20
169.438281
 30
0.0
 11
105.9671309999999
 21
169.438281
 31
0.0
  0
LINE
  5
C8C
330
66D
100
AcDbEntity
  8
0
 62
     0
370
    -2
100
AcDbLine
 10
133.192131
 20
169.438281
 30
0.0
 11
135.892131
 21
169.438281
 31
0.0
  0
SOLID
  5
C8D
330
66D
100
AcDbEntity
  8
0
 62
     0
100
AcDbTrace
 10
108.667131
 20
169.888281
 30
0.0
 11
108.667131
 21
168.988281
 31
0.0
 12
111.3671309999999
 22
169.438281
 32
0.0
 13
111.3671309999999
 23
169.438281
 33
0.0
  0
SOLID
  5
C8E
330
66D
100
AcDbEntity
  8
0
 62
     0
100
AcDbTrace
 10
133.192131
 20
169.888281
 30
0.0
 11
133.192131
 21
168.988281
 31
0.0
 12
130.492131
 22
169.438281
 32
0.0
 13
130.492131
 23
169.438281
 33
0.0
  0
MTEXT
  5
C8F
330
66D
100
AcDbEntity
  8
0
 62
     0
100
AcDbMText
 10
120.929631
 20
169.438281
 30
0.0
 40
1.875
 41
0.0
 71
     5
 72
     1
  1
\A1;19.125±0.031
  7
TXT
 73
     1
 44
1.0
  0
POINT
  5
C90
330
66D
100
AcDbEntity
  8
DEFPOINTS
 62
     0
100
AcDbPoint
 10
111.3671309999999
 20
169.438281
 30
0.0
  0
POINT
  5
C91
330
66D
100
AcDbEntity
  8
DEFPOINTS
 62
     0
100
AcDbPoint
 10
130.492131
 20
169.438281
 30
0.0
  0
POINT
  5
C92
330
66D
100
AcDbEntity
  8
DEFPOINTS
 62
     0
100
AcDbPoint
 10
130.492131
 20
169.438281
 30
0.0
  0
ENDBLK
  5
679
330
66D
100
AcDbEntity
  8
0
100
AcDbBlockEnd
  0
BLOCK
  5
686
330
67B
100
AcDbEntity
  8
0
100
AcDbBlockBegin
  2
*D11
 70
     1
 10
0.0
 20
0.0
 30
0.0
  3
*D11
  1

  0
LINE
  5
C7F
330
67B
100
AcDbEntity
  8
0
 62
     0
370
    -2
100
AcDbLine
 10
111.774131
 20
174.5710449999999
 30
0.0
 11
111.774131
 21
175.021045
 31
0.0
  0
LINE
  5
C80
330
67B
100
AcDbEntity
  8
0
 62
     0
370
    -2
100
AcDbLine
 10
130.0861309999999
 20
174.5710449999999
 30
0.0
 11
130.0861309999999
 21
175.021045
 31
0.0
  0
LINE
  5
C81
330
67B
100
AcDbEntity
  8
0
 62
     0
370
    -2
100
AcDbLine
 10
109.074131
 20
173.626045
 30
0.0
 11
106.374131
 21
173.626045
 31
0.0
  0
LINE
  5
C82
330
67B
100
AcDbEntity
  8
0
 62
     0
370
    -2
100
AcDbLine
 10
132.7861309999999
 20
173.626045
 30
0.0
 11
135.4861309999999
 21
173.626045
 31
0.0
  0
SOLID
  5
C83
330
67B
100
AcDbEntity
  8
0
 62
     0
100
AcDbTrace
 10
109.074131
 20
174.0760449999999
 30
0.0
 11
109.074131
 21
173.176045
 31
0.0
 12
111.774131
 22
173.626045
 32
0.0
 13
111.774131
 23
173.626045
 33
0.0
  0
SOLID
  5
C84
330
67B
100
AcDbEntity
  8
0
 62
     0
100
AcDbTrace
 10
132.7861309999999
 20
174.0760449999999
 30
0.0
 11
132.7861309999999
 21
173.176045
 31
0.0
 12
130.0861309999999
 22
173.626045
 32
0.0
 13
130.0861309999999
 23
173.626045
 33
0.0
  0
MTEXT
  5
C85
330
67B
100
AcDbEntity
  8
0
 62
     0
100
AcDbMText
 10
120.930131
 20
173.626045
 30
0.0
 40
1.875
 41
0.0
 71
     5
 72
     1
  1
\A1;18.312±0.062
  7
TXT
 73
     1
 44
1.0
  0
POINT
  5
C86
330
67B
100
AcDbEntity
  8
DEFPOINTS
 62
     0
100
AcDbPoint
 10
111.774131
 20
173.626045
 30
0.0
  0
POINT
  5
C87
330
67B
100
AcDbEntity
  8
DEFPOINTS
 62
     0
100
AcDbPoint
 10
130.0861309999999
 20
173.626045
 30
0.0
  0
POINT
  5
C88
330
67B
100
AcDbEntity
  8
DEFPOINTS
 62
     0
100
AcDbPoint
 10
130.0861309999999
 20
173.626045
 30
0.0
  0
ENDBLK
  5
687
330
67B
100
AcDbEntity
  8
0
100
AcDbBlockEnd
  0
BLOCK
  5
694
330
689
100
AcDbEntity
  8
0
100
AcDbBlockBegin
  2
*D12
 70
     1
 10
0.0
 20
0.0
 30
0.0
  3
*D12
  1

  0
LINE
  5
C75
330
689
100
AcDbEntity
  8
0
 62
     0
370
    -2
100
AcDbLine
 10
111.961881
 20
178.5893259999999
 30
0.0
 11
111.961881
 21
179.039326
 31
0.0
  0
LINE
  5
C76
330
689
100
AcDbEntity
  8
0
 62
     0
370
    -2
100
AcDbLine
 10
129.8986309999999
 20
178.5893259999999
 30
0.0
 11
129.8986309999999
 21
179.039326
 31
0.0
  0
LINE
  5
C77
330
689
100
AcDbEntity
  8
0
 62
     0
370
    -2
100
AcDbLine
 10
109.261881
 20
177.644326
 30
0.0
 11
106.5618809999999
 21
177.644326
 31
0.0
  0
LINE
  5
C78
330
689
100
AcDbEntity
  8
0
 62
     0
370
    -2
100
AcDbLine
 10
132.5986309999999
 20
177.644326
 30
0.0
 11
135.298631
 21
177.644326
 31
0.0
  0
SOLID
  5
C79
330
689
100
AcDbEntity
  8
0
 62
     0
100
AcDbTrace
 10
109.261881
 20
178.0943259999999
 30
0.0
 11
109.261881
 21
177.194326
 31
0.0
 12
111.961881
 22
177.644326
 32
0.0
 13
111.961881
 23
177.644326
 33
0.0
  0
SOLID
  5
C7A
330
689
100
AcDbEntity
  8
0
 62
     0
100
AcDbTrace
 10
132.5986309999999
 20
178.0943259999999
 30
0.0
 11
132.5986309999999
 21
177.194326
 31
0.0
 12
129.8986309999999
 22
177.644326
 32
0.0
 13
129.8986309999999
 23
177.644326
 33
0.0
  0
MTEXT
  5
C7B
330
689
100
AcDbEntity
  8
0
 62
     0
100
AcDbMText
 10
120.930256
 20
177.644326
 30
0.0
 40
1.875
 41
0.0
 71
     5
 72
     1
  1
\A1;17.937±0.093
  7
TXT
 73
     1
 44
1.0
  0
POINT
  5
C7C
330
689
100
AcDbEntity
  8
DEFPOINTS
 62
     0
100
AcDbPoint
 10
111.961881
 20
177.644326
 30
0.0
  0
POINT
  5
C7D
330
689
100
AcDbEntity
  8
DEFPOINTS
 62
     0
100
AcDbPoint
 10
129.8986309999999
 20
177.644326
 30
0.0
  0
POINT
  5
C7E
330
689
100
AcDbEntity
  8
DEFPOINTS
 62
     0
100
AcDbPoint
 10
129.8986309999999
 20
177.644326
 30
0.0
  0
ENDBLK
  5
695
330
689
100
AcDbEntity
  8
0
100
AcDbBlockEnd
  0
BLOCK
  5
6A2
330
697
100
AcDbEntity
  8
0
100
AcDbBlockBegin
  2
*D13
 70
     1
 10
0.0
 20
0.0
 30
0.0
  3
*D13
  1

  0
LINE
  5
C57
330
697
100
AcDbEntity
  8
0
 62
     0
370
    -2
100
AcDbLine
 10
109.9296309999999
 20
187.208984
 30
0.0
 11
109.9296309999999
 21
193.058984
 31
0.0
  0
LINE
  5
C58
330
697
100
AcDbEntity
  8
0
 62
     0
370
    -2
100
AcDbLine
 10
131.929631
 20
187.208984
 30
0.0
 11
131.929631
 21
193.058984
 31
0.0
  0
LINE
  5
C59
330
697
100
AcDbEntity
  8
0
 62
     0
370
    -2
100
AcDbLine
 10
107.229631
 20
191.663984
 30
0.0
 11
104.5296309999999
 21
191.663984
 31
0.0
  0
LINE
  5
C5A
330
697
100
AcDbEntity
  8
0
 62
     0
370
    -2
100
AcDbLine
 10
134.6296309999999
 20
191.663984
 30
0.0
 11
137.329631
 21
191.663984
 31
0.0
  0
SOLID
  5
C5B
330
697
100
AcDbEntity
  8
0
 62
     0
100
AcDbTrace
 10
107.229631
 20
192.113984
 30
0.0
 11
107.229631
 21
191.213984
 31
0.0
 12
109.9296309999999
 22
191.663984
 32
0.0
 13
109.9296309999999
 23
191.663984
 33
0.0
  0
SOLID
  5
C5C
330
697
100
AcDbEntity
  8
0
 62
     0
100
AcDbTrace
 10
134.6296309999999
 20
192.113984
 30
0.0
 11
134.6296309999999
 21
191.213984
 31
0.0
 12
131.929631
 22
191.663984
 32
0.0
 13
131.929631
 23
191.663984
 33
0.0
  0
MTEXT
  5
C5D
330
697
100
AcDbEntity
  8
0
 62
     0
100
AcDbMText
 10
120.929631
 20
191.663984
 30
0.0
 40
1.875
 41
0.0
 71
     5
 72
     1
  1
\A1;22.000±0.062
  7
TXT
 73
     1
 44
1.0
  0
POINT
  5
C5E
330
697
100
AcDbEntity
  8
DEFPOINTS
 62
     0
100
AcDbPoint
 10
109.9296309999999
 20
186.263984
 30
0.0
  0
POINT
  5
C5F
330
697
100
AcDbEntity
  8
DEFPOINTS
 62
     0
100
AcDbPoint
 10
131.929631
 20
186.263984
 30
0.0
  0
POINT
  5
C60
330
697
100
AcDbEntity
  8
DEFPOINTS
 62
     0
100
AcDbPoint
 10
131.929631
 20
191.663984
 30
0.0
  0
ENDBLK
  5
6A3
330
697
100
AcDbEntity
  8
0
100
AcDbBlockEnd
  0
BLOCK
  5
6B0
330
6A5
100
AcDbEntity
  8
0
100
AcDbBlockBegin
  2
*D14
 70
     1
 10
0.0
 20
0.0
 30
0.0
  3
*D14
  1

  0
LINE
  5
C6B
330
6A5
100
AcDbEntity
  8
0
 62
     0
370
    -2
100
AcDbLine
 10
110.422131
 20
122.326984
 30
0.0
 11
98.91963099999999
 21
122.326984
 31
0.0
  0
LINE
  5
C6C
330
6A5
100
AcDbEntity
  8
0
 62
     0
370
    -2
100
AcDbLine
 10
110.422131
 20
183.638984
 30
0.0
 11
98.91963100000001
 21
183.638984
 31
0.0
  0
LINE
  5
C6D
330
6A5
100
AcDbEntity
  8
0
 62
     0
370
    -2
100
AcDbLine
 10
100.3146309999999
 20
125.026984
 30
0.0
 11
100.3146309999999
 21
150.695484
 31
0.0
  0
LINE
  5
C6E
330
6A5
100
AcDbEntity
  8
0
 62
     0
370
    -2
100
AcDbLine
 10
100.3146309999999
 20
180.938984
 30
0.0
 11
100.3146309999999
 21
155.270484
 31
0.0
  0
SOLID
  5
C6F
330
6A5
100
AcDbEntity
  8
0
 62
     0
100
AcDbTrace
 10
99.86463099999999
 20
125.026984
 30
0.0
 11
100.7646309999999
 21
125.026984
 31
0.0
 12
100.3146309999999
 22
122.326984
 32
0.0
 13
100.3146309999999
 23
122.326984
 33
0.0
  0
SOLID
  5
C70
330
6A5
100
AcDbEntity
  8
0
 62
     0
100
AcDbTrace
 10
99.86463100000001
 20
180.938984
 30
0.0
 11
100.764631
 21
180.938984
 31
0.0
 12
100.3146309999999
 22
183.638984
 32
0.0
 13
100.3146309999999
 23
183.638984
 33
0.0
  0
MTEXT
  5
C71
330
6A5
100
AcDbEntity
  8
0
 62
     0
100
AcDbMText
 10
100.3146309999999
 20
152.982984
 30
0.0
 40
1.875
 41
0.0
 71
     5
 72
     1
  1
\A1;A
  7
TXT
 73
     1
 44
1.0
  0
POINT
  5
C72
330
6A5
100
AcDbEntity
  8
DEFPOINTS
 62
     0
100
AcDbPoint
 10
111.3671309999999
 20
122.326984
 30
0.0
  0
POINT
  5
C73
330
6A5
100
AcDbEntity
  8
DEFPOINTS
 62
     0
100
AcDbPoint
 10
111.3671309999999
 20
183.638984
 30
0.0
  0
POINT
  5
C74
330
6A5
100
AcDbEntity
  8
DEFPOINTS
 62
     0
100
AcDbPoint
 10
100.3146309999999
 20
183.638984
 30
0.0
  0
ENDBLK
  5
6B1
330
6A5
100
AcDbEntity
  8
0
100
AcDbBlockEnd
  0
BLOCK
  5
6BE
330
6B3
100
AcDbEntity
  8
0
100
AcDbBlockBegin
  2
*D15
 70
     1
 10
0.0
 20
0.0
 30
0.0
  3
*D15
  1

  0
LINE
  5
C4D
330
6B3
100
AcDbEntity
  8
0
 62
     0
370
    -2
100
AcDbLine
 10
110.422131
 20
183.638984
 30
0.0
 11
98.91963100000001
 21
183.638984
 31
0.0
  0
LINE
  5
C4E
330
6B3
100
AcDbEntity
  8
0
 62
     0
370
    -2
100
AcDbLine
 10
108.984631
 20
186.263984
 30
0.0
 11
98.91963100000001
 21
186.263984
 31
0.0
  0
LINE
  5
C4F
330
6B3
100
AcDbEntity
  8
0
 62
     0
370
    -2
100
AcDbLine
 10
100.3146309999999
 20
180.938984
 30
0.0
 11
100.3146309999999
 21
178.238984
 31
0.0
  0
LINE
  5
C50
330
6B3
100
AcDbEntity
  8
0
 62
     0
370
    -2
100
AcDbLine
 10
100.3146309999999
 20
188.963984
 30
0.0
 11
100.3146309999999
 21
191.663984
 31
0.0
  0
SOLID
  5
C51
330
6B3
100
AcDbEntity
  8
0
 62
     0
100
AcDbTrace
 10
99.86463100000001
 20
180.938984
 30
0.0
 11
100.764631
 21
180.938984
 31
0.0
 12
100.3146309999999
 22
183.638984
 32
0.0
 13
100.3146309999999
 23
183.638984
 33
0.0
  0
SOLID
  5
C52
330
6B3
100
AcDbEntity
  8
0
 62
     0
100
AcDbTrace
 10
99.86463100000001
 20
188.963984
 30
0.0
 11
100.764631
 21
188.963984
 31
0.0
 12
100.3146309999999
 22
186.263984
 32
0.0
 13
100.3146309999999
 23
186.263984
 33
0.0
  0
MTEXT
  5
C53
330
6B3
100
AcDbEntity
  8
0
 62
     0
100
AcDbMText
 10
100.3146309999999
 20
184.951484
 30
0.0
 40
1.875
 41
0.0
 71
     5
 72
     1
  1
\A1;2.625
  7
TXT
 73
     1
 44
1.0
  0
POINT
  5
C54
330
6B3
100
AcDbEntity
  8
DEFPOINTS
 62
     0
100
AcDbPoint
 10
111.3671309999999
 20
183.638984
 30
0.0
  0
POINT
  5
C55
330
6B3
100
AcDbEntity
  8
DEFPOINTS
 62
     0
100
AcDbPoint
 10
109.9296309999999
 20
186.263984
 30
0.0
  0
POINT
  5
C56
330
6B3
100
AcDbEntity
  8
DEFPOINTS
 62
     0
100
AcDbPoint
 10
100.3146309999999
 20
186.263984
 30
0.0
  0
ENDBLK
  5
6BF
330
6B3
100
AcDbEntity
  8
0
100
AcDbBlockEnd
  0
BLOCK
  5
6CC
330
6C1
100
AcDbEntity
  8
0
100
AcDbBlockBegin
  2
*D16
 70
     1
 10
0.0
 20
0.0
 30
0.0
  3
*D16
  1

  0
LINE
  5
C61
330
6C1
100
AcDbEntity
  8
0
 62
     0
370
    -2
100
AcDbLine
 10
132.8746309999999
 20
119.701984
 30
0.0
 11
138.724631
 21
119.701984
 31
0.0
  0
LINE
  5
C62
330
6C1
100
AcDbEntity
  8
0
 62
     0
370
    -2
100
AcDbLine
 10
132.8746309999999
 20
186.263984
 30
0.0
 11
138.724631
 21
186.263984
 31
0.0
  0
LINE
  5
C63
330
6C1
100
AcDbEntity
  8
0
 62
     0
370
    -2
100
AcDbLine
 10
137.329631
 20
122.401984
 30
0.0
 11
137.329631
 21
150.695484
 31
0.0
  0
LINE
  5
C64
330
6C1
100
AcDbEntity
  8
0
 62
     0
370
    -2
100
AcDbLine
 10
137.329631
 20
183.563984
 30
0.0
 11
137.329631
 21
155.270484
 31
0.0
  0
SOLID
  5
C65
330
6C1
100
AcDbEntity
  8
0
 62
     0
100
AcDbTrace
 10
136.879631
 20
122.401984
 30
0.0
 11
137.7796309999999
 21
122.401984
 31
0.0
 12
137.329631
 22
119.701984
 32
0.0
 13
137.329631
 23
119.701984
 33
0.0
  0
SOLID
  5
C66
330
6C1
100
AcDbEntity
  8
0
 62
     0
100
AcDbTrace
 10
136.879631
 20
183.563984
 30
0.0
 11
137.7796309999999
 21
183.563984
 31
0.0
 12
137.329631
 22
186.263984
 32
0.0
 13
137.329631
 23
186.263984
 33
0.0
  0
MTEXT
  5
C67
330
6C1
100
AcDbEntity
  8
0
 62
     0
100
AcDbMText
 10
137.3296309999999
 20
152.982984
 30
0.0
 40
1.875
 41
0.0
 71
     5
 72
     1
  1
\A1;B
  7
TXT
 73
     1
 44
1.0
  0
POINT
  5
C68
330
6C1
100
AcDbEntity
  8
DEFPOINTS
 62
     0
100
AcDbPoint
 10
131.929631
 20
119.701984
 30
0.0
  0
POINT
  5
C69
330
6C1
100
AcDbEntity
  8
DEFPOINTS
 62
     0
100
AcDbPoint
 10
131.929631
 20
186.263984
 30
0.0
  0
POINT
  5
C6A
330
6C1
100
AcDbEntity
  8
DEFPOINTS
 62
     0
100
AcDbPoint
 10
137.329631
 20
186.263984
 30
0.0
  0
ENDBLK
  5
6CD
330
6C1
100
AcDbEntity
  8
0
100
AcDbBlockEnd
  0
BLOCK
  5
6DA
330
6CF
100
AcDbEntity
  8
0
100
AcDbBlockBegin
  2
*D17
 70
     1
 10
0.0
 20
0.0
 30
0.0
  3
*D17
  1

  0
LINE
  5
C39
330
6CF
100
AcDbEntity
  8
0
 62
     0
370
    -2
100
AcDbLine
 10
64.58754
 20
140.162484
 30
0.0
 11
64.58754
 21
140.612484
 31
0.0
  0
LINE
  5
C3A
330
6CF
100
AcDbEntity
  8
0
 62
     0
370
    -2
100
AcDbLine
 10
88.58754000000001
 20
140.162484
 30
0.0
 11
88.58754000000001
 21
140.612484
 31
0.0
  0
LINE
  5
C3B
330
6CF
100
AcDbEntity
  8
0
 62
     0
370
    -2
100
AcDbLine
 10
67.28754000000001
 20
139.217484
 30
0.0
 11
74.76879000000001
 21
139.217484
 31
0.0
  0
LINE
  5
C3C
330
6CF
100
AcDbEntity
  8
0
 62
     0
370
    -2
100
AcDbLine
 10
85.88753999999999
 20
139.217484
 30
0.0
 11
78.40628999999999
 21
139.217484
 31
0.0
  0
SOLID
  5
C3D
330
6CF
100
AcDbEntity
  8
0
 62
     0
100
AcDbTrace
 10
67.28754000000001
 20
139.6674839999999
 30
0.0
 11
67.28754000000001
 21
138.767484
 31
0.0
 12
64.58754
 22
139.217484
 32
0.0
 13
64.58754
 23
139.217484
 33
0.0
  0
SOLID
  5
C3E
330
6CF
100
AcDbEntity
  8
0
 62
     0
100
AcDbTrace
 10
85.88753999999999
 20
139.6674839999999
 30
0.0
 11
85.88753999999999
 21
138.767484
 31
0.0
 12
88.58754000000001
 22
139.217484
 32
0.0
 13
88.58754000000001
 23
139.217484
 33
0.0
  0
MTEXT
  5
C3F
330
6CF
100
AcDbEntity
  8
0
 62
     0
100
AcDbMText
 10
76.58754
 20
139.217484
 30
0.0
 40
1.875
 41
0.0
 71
     5
 72
     1
  1
\A1;D
  7
TXT
 73
     1
 44
1.0
  0
POINT
  5
C40
330
6CF
100
AcDbEntity
  8
DEFPOINTS
 62
     0
100
AcDbPoint
 10
64.58754
 20
139.217484
 30
0.0
  0
POINT
  5
C41
330
6CF
100
AcDbEntity
  8
DEFPOINTS
 62
     0
100
AcDbPoint
 10
88.58754000000001
 20
139.217484
 30
0.0
  0
POINT
  5
C42
330
6CF
100
AcDbEntity
  8
DEFPOINTS
 62
     0
100
AcDbPoint
 10
88.58754000000001
 20
139.217484
 30
0.0
  0
ENDBLK
  5
6DB
330
6CF
100
AcDbEntity
  8
0
100
AcDbBlockEnd
  0
BLOCK
  5
6E8
330
6DD
100
AcDbEntity
  8
0
100
AcDbBlockBegin
  2
*D18
 70
     1
 10
0.0
 20
0.0
 30
0.0
  3
*D18
  1

  0
LINE
  5
C43
330
6DD
100
AcDbEntity
  8
0
 62
     0
370
    -2
100
AcDbLine
 10
64.26779
 20
154.357984
 30
0.0
 11
55.39153999999999
 21
154.357984
 31
0.0
  0
LINE
  5
C44
330
6DD
100
AcDbEntity
  8
0
 62
     0
370
    -2
100
AcDbLine
 10
64.26779
 20
181.888984
 30
0.0
 11
55.39154
 21
181.888984
 31
0.0
  0
LINE
  5
C45
330
6DD
100
AcDbEntity
  8
0
 62
     0
370
    -2
100
AcDbLine
 10
56.78653999999999
 20
157.057984
 30
0.0
 11
56.78653999999999
 21
165.835984
 31
0.0
  0
LINE
  5
C46
330
6DD
100
AcDbEntity
  8
0
 62
     0
370
    -2
100
AcDbLine
 10
56.78654
 20
179.188984
 30
0.0
 11
56.78653999999999
 21
170.410984
 31
0.0
  0
SOLID
  5
C47
330
6DD
100
AcDbEntity
  8
0
 62
     0
100
AcDbTrace
 10
56.33653999999999
 20
157.057984
 30
0.0
 11
57.23653999999999
 21
157.057984
 31
0.0
 12
56.78653999999999
 22
154.357984
 32
0.0
 13
56.78653999999999
 23
154.357984
 33
0.0
  0
SOLID
  5
C48
330
6DD
100
AcDbEntity
  8
0
 62
     0
100
AcDbTrace
 10
56.33653999999999
 20
179.188984
 30
0.0
 11
57.23654
 21
179.188984
 31
0.0
 12
56.78654
 22
181.888984
 32
0.0
 13
56.78654
 23
181.888984
 33
0.0
  0
MTEXT
  5
C49
330
6DD
100
AcDbEntity
  8
0
 62
     0
100
AcDbMText
 10
56.78653999999997
 20
168.123484
 30
0.0
 40
1.875
 41
0.0
 71
     5
 72
     1
  1
\A1;E
  7
TXT
 73
     1
 44
1.0
  0
POINT
  5
C4A
330
6DD
100
AcDbEntity
  8
DEFPOINTS
 62
     0
100
AcDbPoint
 10
65.21278999999999
 20
154.357984
 30
0.0
  0
POINT
  5
C4B
330
6DD
100
AcDbEntity
  8
DEFPOINTS
 62
     0
100
AcDbPoint
 10
65.21278999999999
 20
181.888984
 30
0.0
  0
POINT
  5
C4C
330
6DD
100
AcDbEntity
  8
DEFPOINTS
 62
     0
100
AcDbPoint
 10
56.78654
 20
181.888984
 30
0.0
  0
ENDBLK
  5
6E9
330
6DD
100
AcDbEntity
  8
0
100
AcDbBlockEnd
  0
BLOCK
  5
6F6
330
6EB
100
AcDbEntity
  8
0
100
AcDbBlockBegin
  2
*D19
 70
     1
 10
0.0
 20
0.0
 30
0.0
  3
*D19
  1

  0
LINE
  5
BBF
330
6EB
100
AcDbEntity
  8
0
 62
     0
370
    -2
100
AcDbLine
 10
64.26779
 20
124.076984
 30
0.0
 11
48.969652
 21
124.076984
 31
0.0
  0
LINE
  5
BC0
330
6EB
100
AcDbEntity
  8
0
 62
     0
370
    -2
100
AcDbLine
 10
62.89254
 20
119.701984
 30
0.0
 11
48.969652
 21
119.701984
 31
0.0
  0
LINE
  5
BC1
330
6EB
100
AcDbEntity
  8
0
 62
     0
370
    -2
100
AcDbLine
 10
50.364652
 20
126.776984
 30
0.0
 11
50.364652
 21
129.476984
 31
0.0
  0
LINE
  5
BC2
330
6EB
100
AcDbEntity
  8
0
 62
     0
370
    -2
100
AcDbLine
 10
50.364652
 20
117.001984
 30
0.0
 11
50.364652
 21
114.301984
 31
0.0
  0
SOLID
  5
BC3
330
6EB
100
AcDbEntity
  8
0
 62
     0
100
AcDbTrace
 10
49.914652
 20
126.776984
 30
0.0
 11
50.814652
 21
126.776984
 31
0.0
 12
50.364652
 22
124.076984
 32
0.0
 13
50.364652
 23
124.076984
 33
0.0
  0
SOLID
  5
BC4
330
6EB
100
AcDbEntity
  8
0
 62
     0
100
AcDbTrace
 10
49.914652
 20
117.001984
 30
0.0
 11
50.814652
 21
117.001984
 31
0.0
 12
50.364652
 22
119.701984
 32
0.0
 13
50.364652
 23
119.701984
 33
0.0
  0
MTEXT
  5
BC5
330
6EB
100
AcDbEntity
  8
0
 62
     0
100
AcDbMText
 10
50.36465199999998
 20
121.889484
 30
0.0
 40
1.875
 41
0.0
 71
     5
 72
     1
  1
\A1;4.375
  7
TXT
 73
     1
 44
1.0
  0
POINT
  5
BC6
330
6EB
100
AcDbEntity
  8
DEFPOINTS
 62
     0
100
AcDbPoint
 10
65.21278999999999
 20
124.076984
 30
0.0
  0
POINT
  5
BC7
330
6EB
100
AcDbEntity
  8
DEFPOINTS
 62
     0
100
AcDbPoint
 10
63.83754
 20
119.701984
 30
0.0
  0
POINT
  5
BC8
330
6EB
100
AcDbEntity
  8
DEFPOINTS
 62
     0
100
AcDbPoint
 10
50.364652
 20
119.701984
 30
0.0
  0
ENDBLK
  5
6F7
330
6EB
100
AcDbEntity
  8
0
100
AcDbBlockEnd
  0
BLOCK
  5
704
330
6F9
100
AcDbEntity
  8
0
100
AcDbBlockBegin
  2
*D20
 70
     1
 10
0.0
 20
0.0
 30
0.0
  3
*D20
  1

  0
LINE
  5
BB5
330
6F9
100
AcDbEntity
  8
0
 62
     0
370
    -2
100
AcDbLine
 10
110.422131
 20
122.326984
 30
0.0
 11
98.91963100000001
 21
122.326984
 31
0.0
  0
LINE
  5
BB6
330
6F9
100
AcDbEntity
  8
0
 62
     0
370
    -2
100
AcDbLine
 10
108.984631
 20
119.701984
 30
0.0
 11
98.91963100000001
 21
119.701984
 31
0.0
  0
LINE
  5
BB7
330
6F9
100
AcDbEntity
  8
0
 62
     0
370
    -2
100
AcDbLine
 10
100.3146309999999
 20
125.026984
 30
0.0
 11
100.3146309999999
 21
127.726984
 31
0.0
  0
LINE
  5
BB8
330
6F9
100
AcDbEntity
  8
0
 62
     0
370
    -2
100
AcDbLine
 10
100.3146309999999
 20
117.001984
 30
0.0
 11
100.3146309999999
 21
114.301984
 31
0.0
  0
SOLID
  5
BB9
330
6F9
100
AcDbEntity
  8
0
 62
     0
100
AcDbTrace
 10
99.86463100000001
 20
125.026984
 30
0.0
 11
100.764631
 21
125.026984
 31
0.0
 12
100.3146309999999
 22
122.326984
 32
0.0
 13
100.3146309999999
 23
122.326984
 33
0.0
  0
SOLID
  5
BBA
330
6F9
100
AcDbEntity
  8
0
 62
     0
100
AcDbTrace
 10
99.86463100000001
 20
117.001984
 30
0.0
 11
100.764631
 21
117.001984
 31
0.0
 12
100.3146309999999
 22
119.701984
 32
0.0
 13
100.3146309999999
 23
119.701984
 33
0.0
  0
MTEXT
  5
BBB
330
6F9
100
AcDbEntity
  8
0
 62
     0
100
AcDbMText
 10
100.3146309999999
 20
121.014484
 30
0.0
 40
1.875
 41
0.0
 71
     5
 72
     1
  1
\A1;2.625
  7
TXT
 73
     1
 44
1.0
  0
POINT
  5
BBC
330
6F9
100
AcDbEntity
  8
DEFPOINTS
 62
     0
100
AcDbPoint
 10
111.3671309999999
 20
122.326984
 30
0.0
  0
POINT
  5
BBD
330
6F9
100
AcDbEntity
  8
DEFPOINTS
 62
     0
100
AcDbPoint
 10
109.9296309999999
 20
119.701984
 30
0.0
  0
POINT
  5
BBE
330
6F9
100
AcDbEntity
  8
DEFPOINTS
 62
     0
100
AcDbPoint
 10
100.3146309999999
 20
119.701984
 30
0.0
  0
ENDBLK
  5
705
330
6F9
100
AcDbEntity
  8
0
100
AcDbBlockEnd
  0
BLOCK
  5
712
330
707
100
AcDbEntity
  8
0
100
AcDbBlockBegin
  2
*D21
 70
     1
 10
0.0
 20
0.0
 30
0.0
  3
*D21
  1

  0
LINE
  5
BDE
330
707
100
AcDbEntity
  8
0
 62
     0
370
    -2
100
AcDbLine
 10
116.383131
 20
78.381483
 30
0.0
 11
116.383131
 21
70.703483
 31
0.0
  0
LINE
  5
BDF
330
707
100
AcDbEntity
  8
0
 62
     0
370
    -2
100
AcDbLine
 10
125.476131
 20
78.381483
 30
0.0
 11
125.476131
 21
70.703483
 31
0.0
  0
LINE
  5
BE0
330
707
100
AcDbEntity
  8
0
 62
     0
370
    -2
100
AcDbLine
 10
113.683131
 20
72.098483
 30
0.0
 11
110.983131
 21
72.098483
 31
0.0
  0
LINE
  5
BE1
330
707
100
AcDbEntity
  8
0
 62
     0
370
    -2
100
AcDbLine
 10
128.176131
 20
72.098483
 30
0.0
 11
130.876131
 21
72.098483
 31
0.0
  0
SOLID
  5
BE2
330
707
100
AcDbEntity
  8
0
 62
     0
100
AcDbTrace
 10
113.683131
 20
72.548483
 30
0.0
 11
113.683131
 21
71.648483
 31
0.0
 12
116.383131
 22
72.098483
 32
0.0
 13
116.383131
 23
72.098483
 33
0.0
  0
SOLID
  5
BE3
330
707
100
AcDbEntity
  8
0
 62
     0
100
AcDbTrace
 10
128.176131
 20
72.548483
 30
0.0
 11
128.176131
 21
71.648483
 31
0.0
 12
125.476131
 22
72.098483
 32
0.0
 13
125.476131
 23
72.098483
 33
0.0
  0
MTEXT
  5
BE4
330
707
100
AcDbEntity
  8
0
 62
     0
100
AcDbMText
 10
120.929631
 20
72.098483
 30
0.0
 40
1.875
 41
0.0
 71
     5
 72
     1
  1
\A1;9.093
  7
TXT
 73
     1
 44
1.0
  0
POINT
  5
BE5
330
707
100
AcDbEntity
  8
DEFPOINTS
 62
     0
100
AcDbPoint
 10
116.383131
 20
79.326483
 30
0.0
  0
POINT
  5
BE6
330
707
100
AcDbEntity
  8
DEFPOINTS
 62
     0
100
AcDbPoint
 10
125.476131
 20
79.326483
 30
0.0
  0
POINT
  5
BE7
330
707
100
AcDbEntity
  8
DEFPOINTS
 62
     0
100
AcDbPoint
 10
125.476131
 20
72.098483
 30
0.0
  0
ENDBLK
  5
713
330
707
100
AcDbEntity
  8
0
100
AcDbBlockEnd
  0
BLOCK
  5
720
330
715
100
AcDbEntity
  8
0
100
AcDbBlockBegin
  2
*D22
 70
     1
 10
0.0
 20
0.0
 30
0.0
  3
*D22
  1

  0
LINE
  5
BD4
330
715
100
AcDbEntity
  8
0
 62
     0
370
    -2
100
AcDbLine
 10
125.476131
 20
78.381483
 30
0.0
 11
125.476131
 21
66.488483
 31
0.0
  0
LINE
  5
BD5
330
715
100
AcDbEntity
  8
0
 62
     0
370
    -2
100
AcDbLine
 10
131.929631
 20
77.069483
 30
0.0
 11
131.929631
 21
66.488483
 31
0.0
  0
LINE
  5
BD6
330
715
100
AcDbEntity
  8
0
 62
     0
370
    -2
100
AcDbLine
 10
122.7761309999999
 20
67.883483
 30
0.0
 11
120.076131
 21
67.883483
 31
0.0
  0
LINE
  5
BD7
330
715
100
AcDbEntity
  8
0
 62
     0
370
    -2
100
AcDbLine
 10
134.6296309999999
 20
67.883483
 30
0.0
 11
137.329631
 21
67.883483
 31
0.0
  0
SOLID
  5
BD8
330
715
100
AcDbEntity
  8
0
 62
     0
100
AcDbTrace
 10
122.7761309999999
 20
68.333483
 30
0.0
 11
122.7761309999999
 21
67.433483
 31
0.0
 12
125.476131
 22
67.883483
 32
0.0
 13
125.476131
 23
67.883483
 33
0.0
  0
SOLID
  5
BD9
330
715
100
AcDbEntity
  8
0
 62
     0
100
AcDbTrace
 10
134.6296309999999
 20
68.333483
 30
0.0
 11
134.6296309999999
 21
67.433483
 31
0.0
 12
131.929631
 22
67.883483
 32
0.0
 13
131.929631
 23
67.883483
 33
0.0
  0
MTEXT
  5
BDA
330
715
100
AcDbEntity
  8
0
 62
     0
100
AcDbMText
 10
128.702881
 20
67.883483
 30
0.0
 40
1.875
 41
0.0
 71
     5
 72
     1
  1
\A1;6.454
  7
TXT
 73
     1
 44
1.0
  0
POINT
  5
BDB
330
715
100
AcDbEntity
  8
DEFPOINTS
 62
     0
100
AcDbPoint
 10
125.476131
 20
79.326483
 30
0.0
  0
POINT
  5
BDC
330
715
100
AcDbEntity
  8
DEFPOINTS
 62
     0
100
AcDbPoint
 10
131.929631
 20
78.014483
 30
0.0
  0
POINT
  5
BDD
330
715
100
AcDbEntity
  8
DEFPOINTS
 62
     0
100
AcDbPoint
 10
131.929631
 20
67.883483
 30
0.0
  0
ENDBLK
  5
721
330
715
100
AcDbEntity
  8
0
100
AcDbBlockEnd
  0
BLOCK
  5
89C
330
891
100
AcDbEntity
  8
0
100
AcDbBlockBegin
  2
*D23
 70
     1
 10
0.0
 20
0.0
 30
0.0
  3
*D23
  1

  0
LINE
  5
C25
330
891
100
AcDbEntity
  8
0
 62
     0
370
    -2
100
AcDbLine
 10
64.26779
 20
154.357984
 30
0.0
 11
55.39153999999999
 21
154.357984
 31
0.0
  0
LINE
  5
C26
330
891
100
AcDbEntity
  8
0
 62
     0
370
    -2
100
AcDbLine
 10
64.26779
 20
151.607984
 30
0.0
 11
55.39153999999999
 21
151.607984
 31
0.0
  0
LINE
  5
C27
330
891
100
AcDbEntity
  8
0
 62
     0
370
    -2
100
AcDbLine
 10
56.78654
 20
157.057984
 30
0.0
 11
56.78654
 21
159.757984
 31
0.0
  0
LINE
  5
C28
330
891
100
AcDbEntity
  8
0
 62
     0
370
    -2
100
AcDbLine
 10
56.78654
 20
148.907984
 30
0.0
 11
56.78654
 21
146.207984
 31
0.0
  0
SOLID
  5
C29
330
891
100
AcDbEntity
  8
0
 62
     0
100
AcDbTrace
 10
56.33653999999999
 20
157.057984
 30
0.0
 11
57.23654
 21
157.057984
 31
0.0
 12
56.78654
 22
154.357984
 32
0.0
 13
56.78654
 23
154.357984
 33
0.0
  0
SOLID
  5
C2A
330
891
100
AcDbEntity
  8
0
 62
     0
100
AcDbTrace
 10
56.33653999999999
 20
148.907984
 30
0.0
 11
57.23654
 21
148.907984
 31
0.0
 12
56.78654
 22
151.607984
 32
0.0
 13
56.78654
 23
151.607984
 33
0.0
  0
MTEXT
  5
C2B
330
891
100
AcDbEntity
  8
0
 62
     0
100
AcDbMText
 10
56.78653999999998
 20
152.982984
 30
0.0
 40
1.875
 41
0.0
 71
     5
 72
     1
  1
\A1;2.750
  7
TXT
 73
     1
 44
1.0
  0
POINT
  5
C2C
330
891
100
AcDbEntity
  8
DEFPOINTS
 62
     0
100
AcDbPoint
 10
65.21278999999999
 20
154.357984
 30
0.0
  0
POINT
  5
C2D
330
891
100
AcDbEntity
  8
DEFPOINTS
 62
     0
100
AcDbPoint
 10
65.21278999999999
 20
151.607984
 30
0.0
  0
POINT
  5
C2E
330
891
100
AcDbEntity
  8
DEFPOINTS
 62
     0
100
AcDbPoint
 10
56.78654
 20
151.607984
 30
0.0
  0
ENDBLK
  5
89D
330
891
100
AcDbEntity
  8
0
100
AcDbBlockEnd
  0
BLOCK
  5
8AA
330
89F
100
AcDbEntity
  8
0
100
AcDbBlockBegin
  2
*D24
 70
     1
 10
0.0
 20
0.0
 30
0.0
  3
*D24
  1

  0
LINE
  5
C2F
330
89F
100
AcDbEntity
  8
0
 62
     0
370
    -2
100
AcDbLine
 10
64.26779
 20
151.607984
 30
0.0
 11
55.39154000000001
 21
151.607984
 31
0.0
  0
LINE
  5
C30
330
89F
100
AcDbEntity
  8
0
 62
     0
370
    -2
100
AcDbLine
 10
64.26779
 20
124.076984
 30
0.0
 11
55.39154
 21
124.076984
 31
0.0
  0
LINE
  5
C31
330
89F
100
AcDbEntity
  8
0
 62
     0
370
    -2
100
AcDbLine
 10
56.78654000000001
 20
148.907984
 30
0.0
 11
56.78654
 21
140.129984
 31
0.0
  0
LINE
  5
C32
330
89F
100
AcDbEntity
  8
0
 62
     0
370
    -2
100
AcDbLine
 10
56.78654
 20
126.776984
 30
0.0
 11
56.78654
 21
135.554984
 31
0.0
  0
SOLID
  5
C33
330
89F
100
AcDbEntity
  8
0
 62
     0
100
AcDbTrace
 10
56.33654
 20
148.907984
 30
0.0
 11
57.23654000000001
 21
148.907984
 31
0.0
 12
56.78654000000001
 22
151.607984
 32
0.0
 13
56.78654000000001
 23
151.607984
 33
0.0
  0
SOLID
  5
C34
330
89F
100
AcDbEntity
  8
0
 62
     0
100
AcDbTrace
 10
56.33653999999999
 20
126.776984
 30
0.0
 11
57.23654
 21
126.776984
 31
0.0
 12
56.78654
 22
124.076984
 32
0.0
 13
56.78654
 23
124.076984
 33
0.0
  0
MTEXT
  5
C35
330
89F
100
AcDbEntity
  8
0
 62
     0
100
AcDbMText
 10
56.78653999999998
 20
137.842484
 30
0.0
 40
1.875
 41
0.0
 71
     5
 72
     1
  1
\A1;E
  7
TXT
 73
     1
 44
1.0
  0
POINT
  5
C36
330
89F
100
AcDbEntity
  8
DEFPOINTS
 62
     0
100
AcDbPoint
 10
65.21278999999999
 20
151.607984
 30
0.0
  0
POINT
  5
C37
330
89F
100
AcDbEntity
  8
DEFPOINTS
 62
     0
100
AcDbPoint
 10
65.21278999999999
 20
124.076984
 30
0.0
  0
POINT
  5
C38
330
89F
100
AcDbEntity
  8
DEFPOINTS
 62
     0
100
AcDbPoint
 10
56.78654
 20
124.076984
 30
0.0
  0
ENDBLK
  5
8AB
330
89F
100
AcDbEntity
  8
0
100
AcDbBlockEnd
  0
BLOCK
  5
9C6
330
9BB
100
AcDbEntity
  8
0
100
AcDbBlockBegin
  2
*D25
 70
     1
 10
0.0
 20
0.0
 30
0.0
  3
*D25
  1

  0
LINE
  5
BAB
330
9BB
100
AcDbEntity
  8
0
 62
     0
370
    -2
100
AcDbLine
 10
25.759227
 20
120.068984
 30
0.0
 11
25.759227
 21
112.906984
 31
0.0
  0
LINE
  5
BAC
330
9BB
100
AcDbEntity
  8
0
 62
     0
370
    -2
100
AcDbLine
 10
34.852227
 20
120.068984
 30
0.0
 11
34.852227
 21
112.906984
 31
0.0
  0
LINE
  5
BAD
330
9BB
100
AcDbEntity
  8
0
 62
     0
370
    -2
100
AcDbLine
 10
23.05922699999999
 20
114.301984
 30
0.0
 11
20.35922699999999
 21
114.301984
 31
0.0
  0
LINE
  5
BAE
330
9BB
100
AcDbEntity
  8
0
 62
     0
370
    -2
100
AcDbLine
 10
37.552227
 20
114.301984
 30
0.0
 11
40.25222699999999
 21
114.301984
 31
0.0
  0
SOLID
  5
BAF
330
9BB
100
AcDbEntity
  8
0
 62
     0
100
AcDbTrace
 10
23.05922699999999
 20
114.751984
 30
0.0
 11
23.05922699999999
 21
113.851984
 31
0.0
 12
25.759227
 22
114.301984
 32
0.0
 13
25.759227
 23
114.301984
 33
0.0
  0
SOLID
  5
BB0
330
9BB
100
AcDbEntity
  8
0
 62
     0
100
AcDbTrace
 10
37.552227
 20
114.751984
 30
0.0
 11
37.552227
 21
113.851984
 31
0.0
 12
34.852227
 22
114.301984
 32
0.0
 13
34.852227
 23
114.301984
 33
0.0
  0
MTEXT
  5
BB1
330
9BB
100
AcDbEntity
  8
0
 62
     0
100
AcDbMText
 10
30.305727
 20
114.301984
 30
0.0
 40
1.875
 41
0.0
 71
     5
 72
     1
  1
\A1;9.093
  7
TXT
 73
     1
 44
1.0
  0
POINT
  5
BB2
330
9BB
100
AcDbEntity
  8
DEFPOINTS
 62
     0
100
AcDbPoint
 10
25.759227
 20
121.013984
 30
0.0
  0
POINT
  5
BB3
330
9BB
100
AcDbEntity
  8
DEFPOINTS
 62
     0
100
AcDbPoint
 10
34.852227
 20
121.013984
 30
0.0
  0
POINT
  5
BB4
330
9BB
100
AcDbEntity
  8
DEFPOINTS
 62
     0
100
AcDbPoint
 10
34.852227
 20
114.301984
 30
0.0
  0
ENDBLK
  5
9C7
330
9BB
100
AcDbEntity
  8
0
100
AcDbBlockEnd
  0
BLOCK
  5
9D4
330
9C9
100
AcDbEntity
  8
0
100
AcDbBlockBegin
  2
*D26
 70
     1
 10
0.0
 20
0.0
 30
0.0
  3
*D26
  1

  0
LINE
  5
BA1
330
9C9
100
AcDbEntity
  8
0
 62
     0
370
    -2
100
AcDbLine
 10
34.852227
 20
120.068984
 30
0.0
 11
34.852227
 21
108.691984
 31
0.0
  0
LINE
  5
BA2
330
9C9
100
AcDbEntity
  8
0
 62
     0
370
    -2
100
AcDbLine
 10
41.305727
 20
118.756984
 30
0.0
 11
41.305727
 21
108.691984
 31
0.0
  0
LINE
  5
BA3
330
9C9
100
AcDbEntity
  8
0
 62
     0
370
    -2
100
AcDbLine
 10
32.15222699999999
 20
110.086984
 30
0.0
 11
29.452227
 21
110.086984
 31
0.0
  0
LINE
  5
BA4
330
9C9
100
AcDbEntity
  8
0
 62
     0
370
    -2
100
AcDbLine
 10
44.005727
 20
110.086984
 30
0.0
 11
46.705727
 21
110.086984
 31
0.0
  0
SOLID
  5
BA5
330
9C9
100
AcDbEntity
  8
0
 62
     0
100
AcDbTrace
 10
32.15222699999999
 20
110.536984
 30
0.0
 11
32.15222699999999
 21
109.636984
 31
0.0
 12
34.852227
 22
110.086984
 32
0.0
 13
34.852227
 23
110.086984
 33
0.0
  0
SOLID
  5
BA6
330
9C9
100
AcDbEntity
  8
0
 62
     0
100
AcDbTrace
 10
44.005727
 20
110.536984
 30
0.0
 11
44.005727
 21
109.636984
 31
0.0
 12
41.305727
 22
110.086984
 32
0.0
 13
41.305727
 23
110.086984
 33
0.0
  0
MTEXT
  5
BA7
330
9C9
100
AcDbEntity
  8
0
 62
     0
100
AcDbMText
 10
38.078977
 20
110.086984
 30
0.0
 40
1.875
 41
0.0
 71
     5
 72
     1
  1
\A1;6.454
  7
TXT
 73
     1
 44
1.0
  0
POINT
  5
BA8
330
9C9
100
AcDbEntity
  8
DEFPOINTS
 62
     0
100
AcDbPoint
 10
34.852227
 20
121.013984
 30
0.0
  0
POINT
  5
BA9
330
9C9
100
AcDbEntity
  8
DEFPOINTS
 62
     0
100
AcDbPoint
 10
41.305727
 20
119.701984
 30
0.0
  0
POINT
  5
BAA
330
9C9
100
AcDbEntity
  8
DEFPOINTS
 62
     0
100
AcDbPoint
 10
41.305727
 20
110.086984
 30
0.0
  0
ENDBLK
  5
9D5
330
9C9
100
AcDbEntity
  8
0
100
AcDbBlockEnd
  0
BLOCK
  5
9E2
330
9D7
100
AcDbEntity
  8
0
100
AcDbBlockBegin
  2
*D27
 70
     1
 10
0.0
 20
0.0
 30
0.0
  3
*D27
  1

  0
LINE
  5
B96
330
9D7
100
AcDbEntity
  8
0
 62
     0
370
    -2
100
AcDbLine
 10
24.81422699999999
 20
121.013984
 30
0.0
 11
12.51072699999999
 21
121.013984
 31
0.0
  0
LINE
  5
B97
330
9D7
100
AcDbEntity
  8
0
 62
     0
370
    -2
100
AcDbLine
 10
18.36072699999999
 20
119.701984
 30
0.0
 11
12.51072699999999
 21
119.701984
 31
0.0
  0
LINE
  5
B98
330
9D7
100
AcDbEntity
  8
0
 62
     0
370
    -2
100
AcDbLine
 10
13.90572699999999
 20
123.713984
 30
0.0
 11
13.905727
 21
126.413984
 31
0.0
  0
LINE
  5
B99
330
9D7
100
AcDbEntity
  8
0
 62
     0
370
    -2
100
AcDbLine
 10
13.90572699999999
 20
117.001984
 30
0.0
 11
13.90572699999999
 21
114.301984
 31
0.0
  0
LINE
  5
B9A
330
9D7
100
AcDbEntity
  8
0
 62
     0
370
    -2
100
AcDbLine
 10
13.90572699999999
 20
114.301984
 30
0.0
 11
11.20572699999999
 21
114.301984
 31
0.0
  0
SOLID
  5
B9B
330
9D7
100
AcDbEntity
  8
0
 62
     0
100
AcDbTrace
 10
13.45572699999999
 20
123.713984
 30
0.0
 11
14.35572699999999
 21
123.713984
 31
0.0
 12
13.90572699999999
 22
121.013984
 32
0.0
 13
13.90572699999999
 23
121.013984
 33
0.0
  0
SOLID
  5
B9C
330
9D7
100
AcDbEntity
  8
0
 62
     0
100
AcDbTrace
 10
13.45572699999999
 20
117.001984
 30
0.0
 11
14.35572699999999
 21
117.001984
 31
0.0
 12
13.90572699999999
 22
119.701984
 32
0.0
 13
13.90572699999999
 23
119.701984
 33
0.0
  0
MTEXT
  5
B9D
330
9D7
100
AcDbEntity
  8
0
 62
     0
100
AcDbMText
 10
7.51197699999998
 20
114.301984
 30
0.0
 40
1.875
 41
0.0
 71
     5
 72
     1
  1
\A1;1.312
  7
TXT
 73
     1
 44
1.0
  0
POINT
  5
B9E
330
9D7
100
AcDbEntity
  8
DEFPOINTS
 62
     0
100
AcDbPoint
 10
25.759227
 20
121.013984
 30
0.0
  0
POINT
  5
B9F
330
9D7
100
AcDbEntity
  8
DEFPOINTS
 62
     0
100
AcDbPoint
 10
19.30572699999999
 20
119.701984
 30
0.0
  0
POINT
  5
BA0
330
9D7
100
AcDbEntity
  8
DEFPOINTS
 62
     0
100
AcDbPoint
 10
13.90572699999999
 20
119.701984
 30
0.0
  0
ENDBLK
  5
9E3
330
9D7
100
AcDbEntity
  8
0
100
AcDbBlockEnd
  0
BLOCK
  5
9F0
330
9E5
100
AcDbEntity
  8
0
100
AcDbBlockBegin
  2
*D28
 70
     1
 10
0.0
 20
0.0
 30
0.0
  3
*D28
  1

  0
LINE
  5
C1B
330
9E5
100
AcDbEntity
  8
0
 62
     0
370
    -2
100
AcDbLine
 10
64.26779
 20
124.076984
 30
0.0
 11
48.96965199999998
 21
124.076984
 31
0.0
  0
LINE
  5
C1C
330
9E5
100
AcDbEntity
  8
0
 62
     0
370
    -2
100
AcDbLine
 10
64.26779
 20
181.888984
 30
0.0
 11
48.969652
 21
181.888984
 31
0.0
  0
LINE
  5
C1D
330
9E5
100
AcDbEntity
  8
0
 62
     0
370
    -2
100
AcDbLine
 10
50.36465199999998
 20
126.776984
 30
0.0
 11
50.36465199999999
 21
150.695484
 31
0.0
  0
LINE
  5
C1E
330
9E5
100
AcDbEntity
  8
0
 62
     0
370
    -2
100
AcDbLine
 10
50.364652
 20
179.188984
 30
0.0
 11
50.36465199999999
 21
155.270484
 31
0.0
  0
SOLID
  5
C1F
330
9E5
100
AcDbEntity
  8
0
 62
     0
100
AcDbTrace
 10
49.91465199999998
 20
126.776984
 30
0.0
 11
50.81465199999999
 21
126.776984
 31
0.0
 12
50.36465199999998
 22
124.076984
 32
0.0
 13
50.36465199999998
 23
124.076984
 33
0.0
  0
SOLID
  5
C20
330
9E5
100
AcDbEntity
  8
0
 62
     0
100
AcDbTrace
 10
49.914652
 20
179.188984
 30
0.0
 11
50.814652
 21
179.188984
 31
0.0
 12
50.364652
 22
181.888984
 32
0.0
 13
50.364652
 23
181.888984
 33
0.0
  0
MTEXT
  5
C21
330
9E5
100
AcDbEntity
  8
0
 62
     0
100
AcDbMText
 10
50.36465199999996
 20
152.982984
 30
0.0
 40
1.875
 41
0.0
 71
     5
 72
     1
  1
\A1;F
  7
TXT
 73
     1
 44
1.0
  0
POINT
  5
C22
330
9E5
100
AcDbEntity
  8
DEFPOINTS
 62
     0
100
AcDbPoint
 10
65.21278999999999
 20
124.076984
 30
0.0
  0
POINT
  5
C23
330
9E5
100
AcDbEntity
  8
DEFPOINTS
 62
     0
100
AcDbPoint
 10
65.21278999999999
 20
181.888984
 30
0.0
  0
POINT
  5
C24
330
9E5
100
AcDbEntity
  8
DEFPOINTS
 62
     0
100
AcDbPoint
 10
50.364652
 20
181.888984
 30
0.0
  0
ENDBLK
  5
9F1
330
9E5
100
AcDbEntity
  8
0
100
AcDbBlockEnd
  0
BLOCK
  5
9FE
330
9F3
100
AcDbEntity
  8
0
100
AcDbBlockBegin
  2
*D29
 70
     1
 10
0.0
 20
0.0
 30
0.0
  3
*D29
  1

  0
LINE
  5
BC9
330
9F3
100
AcDbEntity
  8
0
 62
     0
370
    -2
100
AcDbLine
 10
132.8746309999999
 20
77.498483
 30
0.0
 11
138.724631
 21
77.498483
 31
0.0
  0
LINE
  5
BCA
330
9F3
100
AcDbEntity
  8
0
 62
     0
370
    -2
100
AcDbLine
 10
126.421131
 20
79.326483
 30
0.0
 11
138.724631
 21
79.326483
 31
0.0
  0
LINE
  5
BCB
330
9F3
100
AcDbEntity
  8
0
 62
     0
370
    -2
100
AcDbLine
 10
137.329631
 20
74.79848299999999
 30
0.0
 11
137.329631
 21
72.09848299999999
 31
0.0
  0
LINE
  5
BCC
330
9F3
100
AcDbEntity
  8
0
 62
     0
370
    -2
100
AcDbLine
 10
137.329631
 20
82.02648299999999
 30
0.0
 11
137.329631
 21
84.72648300000001
 31
0.0
  0
LINE
  5
BCD
330
9F3
100
AcDbEntity
  8
0
 62
     0
370
    -2
100
AcDbLine
 10
137.329631
 20
84.72648300000001
 30
0.0
 11
140.0296309999999
 21
84.72648300000001
 31
0.0
  0
SOLID
  5
BCE
330
9F3
100
AcDbEntity
  8
0
 62
     0
100
AcDbTrace
 10
136.879631
 20
74.79848299999999
 30
0.0
 11
137.7796309999999
 21
74.79848299999999
 31
0.0
 12
137.329631
 22
77.498483
 32
0.0
 13
137.329631
 23
77.498483
 33
0.0
  0
SOLID
  5
BCF
330
9F3
100
AcDbEntity
  8
0
 62
     0
100
AcDbTrace
 10
136.879631
 20
82.02648299999999
 30
0.0
 11
137.7796309999999
 21
82.02648299999999
 31
0.0
 12
137.329631
 22
79.326483
 32
0.0
 13
137.329631
 23
79.326483
 33
0.0
  0
MTEXT
  5
BD0
330
9F3
100
AcDbEntity
  8
0
 62
     0
100
AcDbMText
 10
143.9577559999999
 20
84.72648300000001
 30
0.0
 40
1.875
 41
0.0
 71
     5
 72
     1
  1
\A1;1.828
  7
TXT
 73
     1
 44
1.0
  0
POINT
  5
BD1
330
9F3
100
AcDbEntity
  8
DEFPOINTS
 62
     0
100
AcDbPoint
 10
131.929631
 20
77.498483
 30
0.0
  0
POINT
  5
BD2
330
9F3
100
AcDbEntity
  8
DEFPOINTS
 62
     0
100
AcDbPoint
 10
125.476131
 20
79.326483
 30
0.0
  0
POINT
  5
BD3
330
9F3
100
AcDbEntity
  8
DEFPOINTS
 62
     0
100
AcDbPoint
 10
137.329631
 20
79.326483
 30
0.0
  0
ENDBLK
  5
9FF
330
9F3
100
AcDbEntity
  8
0
100
AcDbBlockEnd
  0
BLOCK
  5
A65
330
A5A
100
AcDbEntity
  8
0
100
AcDbBlockBegin
  2
*D30
 70
     1
 10
0.0
 20
0.0
 30
0.0
  3
*D30
  1

  0
LINE
  5
C11
330
A5A
100
AcDbEntity
  8
0
 62
     0
370
    -2
100
AcDbLine
 10
63.83754
 20
187.208984
 30
0.0
 11
63.83754
 21
193.867042
 31
0.0
  0
LINE
  5
C12
330
A5A
100
AcDbEntity
  8
0
 62
     0
370
    -2
100
AcDbLine
 10
89.33754
 20
187.208984
 30
0.0
 11
89.33754
 21
193.867042
 31
0.0
  0
LINE
  5
C13
330
A5A
100
AcDbEntity
  8
0
 62
     0
370
    -2
100
AcDbLine
 10
66.53754000000001
 20
192.4720419999999
 30
0.0
 11
74.76879000000001
 21
192.4720419999999
 31
0.0
  0
LINE
  5
C14
330
A5A
100
AcDbEntity
  8
0
 62
     0
370
    -2
100
AcDbLine
 10
86.63754
 20
192.4720419999999
 30
0.0
 11
78.40628999999999
 21
192.4720419999999
 31
0.0
  0
SOLID
  5
C15
330
A5A
100
AcDbEntity
  8
0
 62
     0
100
AcDbTrace
 10
66.53754000000001
 20
192.9220419999999
 30
0.0
 11
66.53754000000001
 21
192.0220419999999
 31
0.0
 12
63.83754
 22
192.4720419999999
 32
0.0
 13
63.83754
 23
192.4720419999999
 33
0.0
  0
SOLID
  5
C16
330
A5A
100
AcDbEntity
  8
0
 62
     0
100
AcDbTrace
 10
86.63754
 20
192.9220419999999
 30
0.0
 11
86.63754
 21
192.0220419999999
 31
0.0
 12
89.33754
 22
192.4720419999999
 32
0.0
 13
89.33754
 23
192.4720419999999
 33
0.0
  0
MTEXT
  5
C17
330
A5A
100
AcDbEntity
  8
0
 62
     0
100
AcDbMText
 10
76.58754
 20
192.4720419999999
 30
0.0
 40
1.875
 41
0.0
 71
     5
 72
     1
  1
\A1;C
  7
TXT
 73
     1
 44
1.0
  0
POINT
  5
C18
330
A5A
100
AcDbEntity
  8
DEFPOINTS
 62
     0
100
AcDbPoint
 10
63.83754
 20
186.263984
 30
0.0
  0
POINT
  5
C19
330
A5A
100
AcDbEntity
  8
DEFPOINTS
 62
     0
100
AcDbPoint
 10
89.33754
 20
186.263984
 30
0.0
  0
POINT
  5
C1A
330
A5A
100
AcDbEntity
  8
DEFPOINTS
 62
     0
100
AcDbPoint
 10
89.33754
 20
192.4720419999999
 30
0.0
  0
ENDBLK
  5
A66
330
A5A
100
AcDbEntity
  8
0
100
AcDbBlockEnd
  0
ENDSEC
  0
SECTION
  2
ENTITIES
  0
TEXT
  5
28B
330
1E
100
AcDbEntity
  8
DIM
100
AcDbText
 10
67.947406
 20
108.685211
 30
0.0
 40
1.25
  1

100
AcDbText
  0
TEXT
  5
28C
330
1E
100
AcDbEntity
  8
DIM
100
AcDbText
 10
69.009906
 20
104.5914519999999
 30
0.0
 40
1.0
  1

100
AcDbText
  0
TEXT
  5
28D
330
1E
100
AcDbEntity
  8
OBJECT
100
AcDbText
 10
69.86665000000001
 20
155.28811
 30
0.0
 40
1.25
  1

100
AcDbText
  0
INSERT
  5
28E
330
1E
100
AcDbEntity
  8
0
100
AcDbBlockReference
  2
HB
 10
0.0
 20
0.0
 30
0.0
 41
15.0
 42
15.0
 43
15.0
  0
LINE
  5
28F
330
1E
100
AcDbEntity
  8
0
100
AcDbLine
 10
0.93
 20
0.93
 30
0.0
 11
150.87
 21
0.93
 31
0.0
  0
LINE
  5
290
330
1E
100
AcDbEntity
  8
0
100
AcDbLine
 10
0.93
 20
4.049999999999999
 30
0.0
 11
150.87
 21
4.049999999999999
 31
0.0
  0
LINE
  5
291
330
1E
100
AcDbEntity
  8
0
100
AcDbLine
 10
0.93
 20
7.169999999999999
 30
0.0
 11
150.87
 21
7.169999999999999
 31
0.0
  0
LINE
  5
292
330
1E
100
AcDbEntity
  8
0
100
AcDbLine
 10
0.93
 20
10.28999999999999
 30
0.0
 11
150.87
 21
10.28999999999999
 31
0.0
  0
LINE
  5
293
330
1E
100
AcDbEntity
  8
0
100
AcDbLine
 10
0.93
 20
13.41
 30
0.0
 11
150.87
 21
13.41
 31
0.0
  0
LINE
  5
294
330
1E
100
AcDbEntity
  8
0
100
AcDbLine
 10
0.93
 20
16.53
 30
0.0
 11
150.87
 21
16.53
 31
0.0
  0
LINE
  5
295
330
1E
100
AcDbEntity
  8
0
100
AcDbLine
 10
0.93
 20
19.64999999999999
 30
0.0
 11
150.87
 21
19.64999999999999
 31
0.0
  0
LINE
  5
296
330
1E
100
AcDbEntity
  8
0
100
AcDbLine
 10
0.93
 20
22.77
 30
0.0
 11
150.87
 21
22.77
 31
0.0
  0
LINE
  5
297
330
1E
100
AcDbEntity
  8
0
100
AcDbLine
 10
0.93
 20
25.89
 30
0.0
 11
150.87
 21
25.89
 31
0.0
  0
LINE
  5
298
330
1E
100
AcDbEntity
  8
0
100
AcDbLine
 10
0.93
 20
29.01
 30
0.0
 11
150.87
 21
29.01
 31
0.0
  0
LINE
  5
299
330
1E
100
AcDbEntity
  8
0
100
AcDbLine
 10
0.93
 20
32.13
 30
0.0
 11
150.87
 21
32.13
 31
0.0
  0
LINE
  5
29A
330
1E
100
AcDbEntity
  8
0
100
AcDbLine
 10
0.93
 20
35.25
 30
0.0
 11
150.87
 21
35.25
 31
0.0
  0
LINE
  5
29B
330
1E
100
AcDbEntity
  8
0
100
AcDbLine
 10
0.93
 20
38.36999999999999
 30
0.0
 11
150.87
 21
38.36999999999999
 31
0.0
  0
LINE
  5
29C
330
1E
100
AcDbEntity
  8
0
100
AcDbLine
 10
0.93
 20
41.49
 30
0.0
 11
150.87
 21
41.49
 31
0.0
  0
LINE
  5
29D
330
1E
100
AcDbEntity
  8
0
100
AcDbLine
 10
0.93
 20
44.61
 30
0.0
 11
150.87
 21
44.61
 31
0.0
  0
LINE
  5
29E
330
1E
100
AcDbEntity
  8
0
100
AcDbLine
 10
0.93
 20
47.72999999999999
 30
0.0
 11
150.87
 21
47.72999999999999
 31
0.0
  0
LINE
  5
29F
330
1E
100
AcDbEntity
  8
0
100
AcDbLine
 10
0.93
 20
57.09
 30
0.0
 11
150.87
 21
57.09
 31
0.0
  0
LINE
  5
2A0
330
1E
100
AcDbEntity
  8
0
100
AcDbLine
 10
106.137857
 20
60.21
 30
0.0
 11
150.87
 21
60.21
 31
0.0
  0
TEXT
  5
2A1
330
1E
100
AcDbEntity
  8
0
100
AcDbText
 10
115.0941949999999
 20
57.62465200000001
 30
0.0
 40
1.875
  1
OPTIONAL ACCESSORIES
 41
0.75
  7
TXT
100
AcDbText
  0
TEXT
  5
2A2
330
1E
100
AcDbEntity
  8
0
100
AcDbText
 10
133.8500019999999
 20
53.912502
 30
0.0
 40
1.875
  1
ECONOGLAS
 41
0.75
  7
TXT
 72
     1
 11
139.9437519999999
 21
53.912502
 31
0.0
100
AcDbText
  0
TEXT
  5
2A3
330
1E
100
AcDbEntity
  8
0
100
AcDbText
 10
136.6625019999999
 20
51.27138
 30
0.0
 40
1.875
  1
DOORS
 41
0.75
  7
TXT
 72
     1
 11
139.9437519999999
 21
51.27138
 31
0.0
100
AcDbText
  0
TEXT
  5
2A4
330
1E
100
AcDbEntity
  8
0
100
AcDbText
 10
135.0218769999999
 20
48.630258
 30
0.0
 40
1.875
  1
PART NO.
 41
0.75
  7
TXT
 72
     1
 11
139.9437519999999
 21
48.630258
 31
0.0
100
AcDbText
  0
TEXT
  5
2A5
330
1E
100
AcDbEntity
  8
0
100
AcDbText
 10
111.9864889999999
 20
53.912502
 30
0.0
 40
1.875
  1
PANEL MTG.
 41
0.75
  7
TXT
 72
     1
 11
118.3146139999999
 21
53.912502
 31
0.0
100
AcDbText
  0
TEXT
  5
2A6
330
1E
100
AcDbEntity
  8
0
100
AcDbText
 10
115.267739
 20
51.27138
 30
0.0
 40
1.875
  1
RAILS
 41
0.75
  7
TXT
 72
     1
 11
118.3146139999999
 21
51.27138
 31
0.0
100
AcDbText
  0
TEXT
  5
2A7
330
1E
100
AcDbEntity
  8
0
100
AcDbText
 10
113.3927389999999
 20
48.630258
 30
0.0
 40
1.875
  1
PART NO.
 41
0.75
  7
TXT
 72
     1
 11
118.3146139999999
 21
48.630258
 31
0.0
100
AcDbText
  0
LINE
  5
2A8
330
1E
100
AcDbEntity
  8
0
100
AcDbLine
 10
128.9057139999999
 20
57.09
 30
0.0
 11
128.9057139999999
 21
0.93
 31
0.0
  0
LINE
  5
2A9
330
1E
100
AcDbEntity
  8
0
100
AcDbLine
 10
106.941429
 20
60.21
 30
0.0
 11
106.941429
 21
0.93
 31
0.0
  0
LINE
  5
2AA
330
1E
100
AcDbEntity
  8
0
100
AcDbLine
 10
106.137857
 20
60.21
 30
0.0
 11
106.137857
 21
0.93
 31
0.0
  0
LINE
  5
2AB
330
1E
100
AcDbEntity
  8
0
100
AcDbLine
 10
91.80750000000001
 20
57.09
 30
0.0
 11
91.80750000000001
 21
0.93
 31
0.0
  0
LINE
  5
2AC
330
1E
100
AcDbEntity
  8
0
100
AcDbLine
 10
77.477143
 20
57.09
 30
0.0
 11
77.477143
 21
0.93
 31
0.0
  0
LINE
  5
2AD
330
1E
100
AcDbEntity
  8
0
100
AcDbLine
 10
63.146786
 20
57.09
 30
0.0
 11
63.146786
 21
0.93
 31
0.0
  0
LINE
  5
2AE
330
1E
100
AcDbEntity
  8
0
100
AcDbLine
 10
48.816429
 20
57.09
 30
0.0
 11
48.816429
 21
0.93
 31
0.0
  0
LINE
  5
2AF
330
1E
100
AcDbEntity
  8
0
100
AcDbLine
 10
34.486071
 20
57.09
 30
0.0
 11
34.486071
 21
0.93
 31
0.0
  0
LINE
  5
2B0
330
1E
100
AcDbEntity
  8
0
100
AcDbLine
 10
20.155714
 20
57.09
 30
0.0
 11
20.155714
 21
0.93
 31
0.0
  0
TEXT
  5
2B1
330
1E
100
AcDbEntity
  8
0
100
AcDbText
 10
24.22919999999999
 20
53.980245
 30
0.0
 40
1.875
  1
PANEL
 41
0.75
  7
TXT
 72
     1
 11
27.51044999999999
 21
53.980245
 31
0.0
100
AcDbText
  0
TEXT
  5
2B2
330
1E
100
AcDbEntity
  8
0
100
AcDbText
 10
24.22919999999999
 20
51.27138
 30
0.0
 40
1.875
  1
SPACE
 41
0.75
  7
TXT
 72
     1
 11
27.51044999999999
 21
51.27138
 31
0.0
100
AcDbText
  0
TEXT
  5
2B3
330
1E
100
AcDbEntity
  8
0
100
AcDbText
 10
27.04169999999999
 20
48.775422
 30
0.0
 40
1.875
  1
A
 41
0.75
  7
TXT
 72
     1
 11
27.51044999999999
 21
48.775422
 31
0.0
100
AcDbText
  0
TEXT
  5
2B4
330
1E
100
AcDbEntity
  8
0
100
AcDbText
 10
41.37205699999999
 20
51.27138
 30
0.0
 40
1.875
  1
B
 41
0.75
  7
TXT
 72
     1
 11
41.84080699999999
 21
51.27138
 31
0.0
100
AcDbText
  0
TEXT
  5
2B5
330
1E
100
AcDbEntity
  8
0
100
AcDbText
 10
55.702415
 20
51.27138
 30
0.0
 40
1.875
  1
C
 41
0.75
  7
TXT
 72
     1
 11
56.171165
 21
51.27138
 31
0.0
100
AcDbText
  0
TEXT
  5
2B6
330
1E
100
AcDbEntity
  8
0
100
AcDbText
 10
70.03277199999999
 20
51.27138
 30
0.0
 40
1.875
  1
D
 41
0.75
  7
TXT
 72
     1
 11
70.50152199999999
 21
51.27138
 31
0.0
100
AcDbText
  0
TEXT
  5
2B7
330
1E
100
AcDbEntity
  8
0
100
AcDbText
 10
84.363129
 20
51.27138
 30
0.0
 40
1.875
  1
E
 41
0.75
  7
TXT
 72
     1
 11
84.831879
 21
51.27138
 31
0.0
100
AcDbText
  0
TEXT
  5
2B8
330
1E
100
AcDbEntity
  8
0
100
AcDbText
 10
98.693486
 20
51.27138
 30
0.0
 40
1.875
  1
F
 41
0.75
  7
TXT
 72
     1
 11
99.162236
 21
51.27138
 31
0.0
100
AcDbText
  0
TEXT
  5
2B9
330
1E
100
AcDbEntity
  8
0
100
AcDbText
 10
5.531900999999999
 20
51.27138
 30
0.0
 40
1.875
  1
PART NO.
 41
0.75
  7
TXT
 72
     1
 11
10.45377599999999
 21
51.27138
 31
0.0
100
AcDbText
  0
TEXT
  5
2BA
330
1E
100
AcDbEntity
  8
0
100
AcDbText
 10
4.840559999999999
 20
45.122343
 30
0.0
 40
1.875
  1
ER-16652
 41
0.75
  7
TXT
100
AcDbText
  0
TEXT
  5
2BB
330
1E
100
AcDbEntity
  8
0
100
AcDbText
 10
4.840559999999999
 20
41.997343
 30
0.0
 40
1.875
  1
ER-16653
 41
0.75
  7
TXT
100
AcDbText
  0
TEXT
  5
2BC
330
1E
100
AcDbEntity
  8
0
100
AcDbText
 10
4.840559999999999
 20
38.872343
 30
0.0
 40
1.875
  1
ER-16654
 41
0.75
  7
TXT
100
AcDbText
  0
TEXT
  5
2BD
330
1E
100
AcDbEntity
  8
0
100
AcDbText
 10
4.840559999999999
 20
35.747343
 30
0.0
 40
1.875
  1
ER-16655
 41
0.75
  7
TXT
100
AcDbText
  0
TEXT
  5
2BE
330
1E
100
AcDbEntity
  8
0
100
AcDbText
 10
4.840559999999999
 20
32.622343
 30
0.0
 40
1.875
  1
ER-16656
 41
0.75
  7
TXT
100
AcDbText
  0
TEXT
  5
2BF
330
1E
100
AcDbEntity
  8
0
100
AcDbText
 10
4.840559999999999
 20
29.497343
 30
0.0
 40
1.875
  1
ER-16662
 41
0.75
  7
TXT
100
AcDbText
  0
TEXT
  5
2C0
330
1E
100
AcDbEntity
  8
0
100
AcDbText
 10
4.840559999999999
 20
26.372343
 30
0.0
 40
1.875
  1
ER-16663
 41
0.75
  7
TXT
100
AcDbText
  0
TEXT
  5
2C1
330
1E
100
AcDbEntity
  8
0
100
AcDbText
 10
4.840559999999999
 20
23.247343
 30
0.0
 40
1.875
  1
ER-16664
 41
0.75
  7
TXT
100
AcDbText
  0
TEXT
  5
2C2
330
1E
100
AcDbEntity
  8
0
100
AcDbText
 10
4.840559999999999
 20
20.122343
 30
0.0
 40
1.875
  1
ER-16665
 41
0.75
  7
TXT
100
AcDbText
  0
TEXT
  5
2C3
330
1E
100
AcDbEntity
  8
0
100
AcDbText
 10
4.840559999999999
 20
16.997343
 30
0.0
 40
1.875
  1
ER-16666
 41
0.75
  7
TXT
100
AcDbText
  0
TEXT
  5
2C4
330
1E
100
AcDbEntity
  8
0
100
AcDbText
 10
4.840559999999999
 20
13.872343
 30
0.0
 40
1.875
  1
ER-16672
 41
0.75
  7
TXT
100
AcDbText
  0
TEXT
  5
2C5
330
1E
100
AcDbEntity
  8
0
100
AcDbText
 10
4.840559999999999
 20
10.747343
 30
0.0
 40
1.875
  1
ER-16673
 41
0.75
  7
TXT
100
AcDbText
  0
TEXT
  5
2C6
330
1E
100
AcDbEntity
  8
0
100
AcDbText
 10
4.840559999999999
 20
7.622342999999998
 30
0.0
 40
1.875
  1
ER-16674
 41
0.75
  7
TXT
100
AcDbText
  0
TEXT
  5
2C7
330
1E
100
AcDbEntity
  8
0
100
AcDbText
 10
4.840559999999999
 20
4.497342999999999
 30
0.0
 40
1.875
  1
ER-16675
 41
0.75
  7
TXT
100
AcDbText
  0
TEXT
  5
2C8
330
1E
100
AcDbEntity
  8
0
100
AcDbText
 10
4.840559999999999
 20
1.372343
 30
0.0
 40
1.875
  1
ER-16676
 41
0.75
  7
TXT
100
AcDbText
  0
TEXT
  5
2C9
330
1E
100
AcDbEntity
  8
0
100
AcDbText
 10
24.1568305
 20
45.23249999999999
 30
0.0
 40
1.875
  1
42.000
 41
0.75
  7
TXT
 72
     1
 11
27.320893
 21
45.23249999999999
 31
0.0
100
AcDbText
  0
TEXT
  5
2CA
330
1E
100
AcDbEntity
  8
0
100
AcDbText
 10
24.039643
 20
42.10749999999999
 30
0.0
 40
1.875
  1
52.500
 41
0.75
  7
TXT
 72
     1
 11
27.320893
 21
42.10749999999999
 31
0.0
100
AcDbText
  0
TEXT
  5
2CB
330
1E
100
AcDbEntity
  8
0
100
AcDbText
 10
24.1568305
 20
38.9825
 30
0.0
 40
1.875
  1
61.250
 41
0.75
  7
TXT
 72
     1
 11
27.320893
 21
38.9825
 31
0.0
100
AcDbText
  0
TEXT
  5
2CC
330
1E
100
AcDbEntity
  8
0
100
AcDbText
 10
24.274018
 20
35.8575
 30
0.0
 40
1.875
  1
70.000
 41
0.75
  7
TXT
 72
     1
 11
27.320893
 21
35.8575
 31
0.0
100
AcDbText
  0
TEXT
  5
2CD
330
1E
100
AcDbEntity
  8
0
100
AcDbText
 10
23.92245549999999
 20
32.7325
 30
0.0
 40
1.875
  1
78.750
 41
0.75
  7
TXT
 72
     1
 11
27.320893
 21
32.7325
 31
0.0
100
AcDbText
  0
TEXT
  5
2CE
330
1E
100
AcDbEntity
  8
0
100
AcDbText
 10
38.36999999999999
 20
45.23249999999999
 30
0.0
 40
1.875
  1
47.312
 41
0.75
  7
TXT
 72
     1
 11
41.65124999999999
 21
45.23249999999999
 31
0.0
100
AcDbText
  0
TEXT
  5
2CF
330
1E
100
AcDbEntity
  8
0
100
AcDbText
 10
38.36999999999999
 20
42.10749999999999
 30
0.0
 40
1.875
  1
57.812
 41
0.75
  7
TXT
 72
     1
 11
41.65124999999999
 21
42.10749999999999
 31
0.0
100
AcDbText
  0
TEXT
  5
2D0
330
1E
100
AcDbEntity
  8
0
100
AcDbText
 10
38.13562499999999
 20
38.9825
 30
0.0
 40
1.875
  1
66.562
 41
0.75
  7
TXT
 72
     1
 11
41.65124999999999
 21
38.9825
 31
0.0
100
AcDbText
  0
TEXT
  5
2D1
330
1E
100
AcDbEntity
  8
0
100
AcDbText
 10
38.36999999999999
 20
35.8575
 30
0.0
 40
1.875
  1
75.312
 41
0.75
  7
TXT
 72
     1
 11
41.65124999999999
 21
35.8575
 31
0.0
100
AcDbText
  0
TEXT
  5
2D2
330
1E
100
AcDbEntity
  8
0
100
AcDbText
 10
38.25281249999999
 20
32.7325
 30
0.0
 40
1.875
  1
84.062
 41
0.75
  7
TXT
 72
     1
 11
41.65124999999999
 21
32.7325
 31
0.0
100
AcDbText
  0
TEXT
  5
2D3
330
1E
100
AcDbEntity
  8
0
100
AcDbText
 10
52.934732
 20
45.23249999999999
 30
0.0
 40
1.875
  1
18.500
 41
0.75
  7
TXT
 72
     1
 11
55.981607
 21
45.23249999999999
 31
0.0
100
AcDbText
  0
TEXT
  5
2D4
330
1E
100
AcDbEntity
  8
0
100
AcDbText
 10
52.700357
 20
29.6275
 30
0.0
 40
1.875
  1
25.500
 41
0.75
  7
TXT
 72
     1
 11
55.981607
 21
29.6275
 31
0.0
100
AcDbText
  0
TEXT
  5
2D5
330
1E
100
AcDbEntity
  8
0
100
AcDbText
 10
52.700357
 20
14.0225
 30
0.0
 40
1.875
  1
30.750
 41
0.75
  7
TXT
 72
     1
 11
55.981607
 21
14.0225
 31
0.0
100
AcDbText
  0
TEXT
  5
2D6
330
1E
100
AcDbEntity
  8
0
100
AcDbText
 10
67.3822765
 20
45.23249999999999
 30
0.0
 40
1.875
  1
17.000
 41
0.75
  7
TXT
 72
     1
 11
70.311964
 21
45.23249999999999
 31
0.0
100
AcDbText
  0
TEXT
  5
2D7
330
1E
100
AcDbEntity
  8
0
100
AcDbText
 10
67.1479015
 20
17.1475
 30
0.0
 40
1.875
  1
24.000
 41
0.75
  7
TXT
 72
     1
 11
70.311964
 21
17.1475
 31
0.0
100
AcDbText
  0
TEXT
  5
2D8
330
1E
100
AcDbEntity
  8
0
100
AcDbText
 10
66.9135265
 20
1.542499999999999
 30
0.0
 40
1.875
  1
29.250
 41
0.75
  7
TXT
 72
     1
 11
70.311964
 21
1.542499999999999
 31
0.0
100
AcDbText
  0
TEXT
  5
2D9
330
1E
100
AcDbEntity
  8
0
100
AcDbText
 10
81.361071
 20
38.9925
 30
0.0
 40
1.875
  1
27.531
 41
0.75
  7
TXT
 72
     1
 11
84.642321
 21
38.9925
 31
0.0
100
AcDbText
  0
TEXT
  5
2DA
330
1E
100
AcDbEntity
  8
0
100
AcDbText
 10
81.4782585
 20
35.8675
 30
0.0
 40
1.875
  1
31.906
 41
0.75
  7
TXT
 72
     1
 11
84.642321
 21
35.8675
 31
0.0
100
AcDbText
  0
TEXT
  5
2DB
330
1E
100
AcDbEntity
  8
0
100
AcDbText
 10
81.361071
 20
32.7425
 30
0.0
 40
1.875
  1
36.281
 41
0.75
  7
TXT
 72
     1
 11
84.642321
 21
32.7425
 31
0.0
100
AcDbText
  0
TEXT
  5
2DC
330
1E
100
AcDbEntity
  8
0
100
AcDbText
 10
95.45705400000001
 20
45.23249999999999
 30
0.0
 40
1.875
  1
38.562
 41
0.75
  7
TXT
 72
     1
 11
98.97267900000001
 21
45.23249999999999
 31
0.0
100
AcDbText
  0
TEXT
  5
2DD
330
1E
100
AcDbEntity
  8
0
100
AcDbText
 10
95.57424150000001
 20
42.10749999999999
 30
0.0
 40
1.875
  1
49.062
 41
0.75
  7
TXT
 72
     1
 11
98.97267900000001
 21
42.10749999999999
 31
0.0
100
AcDbText
  0
TEXT
  5
2DE
330
1E
100
AcDbEntity
  8
0
100
AcDbText
 10
95.69142900000001
 20
38.9825
 30
0.0
 40
1.875
  1
57.812
 41
0.75
  7
TXT
 72
     1
 11
98.97267900000001
 21
38.9825
 31
0.0
100
AcDbText
  0
TEXT
  5
2DF
330
1E
100
AcDbEntity
  8
0
100
AcDbText
 10
95.45705400000001
 20
35.8575
 30
0.0
 40
1.875
  1
66.562
 41
0.75
  7
TXT
 72
     1
 11
98.97267900000001
 21
35.8575
 31
0.0
100
AcDbText
  0
TEXT
  5
2E0
330
1E
100
AcDbEntity
  8
0
100
AcDbText
 10
95.69142900000001
 20
32.7325
 30
0.0
 40
1.875
  1
75.312
 41
0.75
  7
TXT
 72
     1
 11
98.97267900000001
 21
32.7325
 31
0.0
100
AcDbText
  0
TEXT
  5
2E1
330
1E
100
AcDbEntity
  8
0
100
AcDbText
 10
112.6501334999999
 20
45.23249999999999
 30
0.0
 40
1.875
  1
PMR-9450
 41
0.75
  7
TXT
 72
     1
 11
117.9235709999999
 21
45.23249999999999
 31
0.0
100
AcDbText
  0
TEXT
  5
2E2
330
1E
100
AcDbEntity
  8
0
100
AcDbText
 10
112.7673209999999
 20
42.10749999999999
 30
0.0
 40
1.875
  1
PMR-9451
 41
0.75
  7
TXT
 72
     1
 11
117.9235709999999
 21
42.10749999999999
 31
0.0
100
AcDbText
  0
TEXT
  5
2E3
330
1E
100
AcDbEntity
  8
0
100
AcDbText
 10
112.5329459999999
 20
38.9825
 30
0.0
 40
1.875
  1
PMR-9452
 41
0.75
  7
TXT
 72
     1
 11
117.9235709999999
 21
38.9825
 31
0.0
100
AcDbText
  0
TEXT
  5
2E4
330
1E
100
AcDbEntity
  8
0
100
AcDbText
 10
112.5329459999999
 20
35.8575
 30
0.0
 40
1.875
  1
PMR-9453
 41
0.75
  7
TXT
 72
     1
 11
117.9235709999999
 21
35.8575
 31
0.0
100
AcDbText
  0
TEXT
  5
2E5
330
1E
100
AcDbEntity
  8
0
100
AcDbText
 10
112.5329459999999
 20
32.7325
 30
0.0
 40
1.875
  1
PMR-9454
 41
0.75
  7
TXT
 72
     1
 11
117.9235709999999
 21
32.7325
 31
0.0
100
AcDbText
  0
TEXT
  5
2E6
330
1E
100
AcDbEntity
  8
0
100
AcDbText
 10
134.262857
 20
45.23249999999999
 30
0.0
 40
1.875
  1
V-9763-L
 41
0.75
  7
TXT
 72
     1
 11
139.8878569999999
 21
45.23249999999999
 31
0.0
100
AcDbText
  0
TEXT
  5
2E7
330
1E
100
AcDbEntity
  8
0
100
AcDbText
 10
134.262857
 20
42.10749999999999
 30
0.0
 40
1.875
  1
V-9764-L
 41
0.75
  7
TXT
 72
     1
 11
139.8878569999999
 21
42.10749999999999
 31
0.0
100
AcDbText
  0
TEXT
  5
2E8
330
1E
100
AcDbEntity
  8
0
100
AcDbText
 10
134.262857
 20
38.9825
 30
0.0
 40
1.875
  1
V-9765-L
 41
0.75
  7
TXT
 72
     1
 11
139.8878569999999
 21
38.9825
 31
0.0
100
AcDbText
  0
TEXT
  5
2E9
330
1E
100
AcDbEntity
  8
0
100
AcDbText
 10
134.262857
 20
35.8575
 30
0.0
 40
1.875
  1
V-9766-L
 41
0.75
  7
TXT
 72
     1
 11
139.8878569999999
 21
35.8575
 31
0.0
100
AcDbText
  0
TEXT
  5
2EA
330
1E
100
AcDbEntity
  8
0
100
AcDbText
 10
134.262857
 20
32.7325
 30
0.0
 40
1.875
  1
V-9767-L
 41
0.75
  7
TXT
 72
     1
 11
139.8878569999999
 21
32.7325
 31
0.0
100
AcDbText
  0
TEXT
  5
2EB
330
1E
100
AcDbEntity
  8
0
100
AcDbText
 10
38.25281249999999
 20
17.1325
 30
0.0
 40
1.875
  1
84.062
 41
0.75
  7
TXT
 72
     1
 11
41.65124999999999
 21
17.1325
 31
0.0
100
AcDbText
  0
TEXT
  5
2EC
330
1E
100
AcDbEntity
  8
0
100
AcDbText
 10
38.36999999999999
 20
20.25749999999999
 30
0.0
 40
1.875
  1
75.312
 41
0.75
  7
TXT
 72
     1
 11
41.65124999999999
 21
20.25749999999999
 31
0.0
100
AcDbText
  0
TEXT
  5
2ED
330
1E
100
AcDbEntity
  8
0
100
AcDbText
 10
38.13562499999999
 20
23.38249999999999
 30
0.0
 40
1.875
  1
66.562
 41
0.75
  7
TXT
 72
     1
 11
41.65124999999999
 21
23.38249999999999
 31
0.0
100
AcDbText
  0
TEXT
  5
2EE
330
1E
100
AcDbEntity
  8
0
100
AcDbText
 10
38.36999999999999
 20
26.5075
 30
0.0
 40
1.875
  1
57.812
 41
0.75
  7
TXT
 72
     1
 11
41.65124999999999
 21
26.5075
 31
0.0
100
AcDbText
  0
TEXT
  5
2EF
330
1E
100
AcDbEntity
  8
0
100
AcDbText
 10
38.36999999999999
 20
29.6325
 30
0.0
 40
1.875
  1
47.312
 41
0.75
  7
TXT
 72
     1
 11
41.65124999999999
 21
29.6325
 31
0.0
100
AcDbText
  0
TEXT
  5
2F0
330
1E
100
AcDbEntity
  8
0
100
AcDbText
 10
23.92245549999999
 20
17.1325
 30
0.0
 40
1.875
  1
78.750
 41
0.75
  7
TXT
 72
     1
 11
27.320893
 21
17.1325
 31
0.0
100
AcDbText
  0
TEXT
  5
2F1
330
1E
100
AcDbEntity
  8
0
100
AcDbText
 10
24.274018
 20
20.25749999999999
 30
0.0
 40
1.875
  1
70.000
 41
0.75
  7
TXT
 72
     1
 11
27.320893
 21
20.25749999999999
 31
0.0
100
AcDbText
  0
TEXT
  5
2F2
330
1E
100
AcDbEntity
  8
0
100
AcDbText
 10
24.1568305
 20
23.38249999999999
 30
0.0
 40
1.875
  1
61.250
 41
0.75
  7
TXT
 72
     1
 11
27.320893
 21
23.38249999999999
 31
0.0
100
AcDbText
  0
TEXT
  5
2F3
330
1E
100
AcDbEntity
  8
0
100
AcDbText
 10
24.039643
 20
26.5075
 30
0.0
 40
1.875
  1
52.500
 41
0.75
  7
TXT
 72
     1
 11
27.320893
 21
26.5075
 31
0.0
100
AcDbText
  0
TEXT
  5
2F4
330
1E
100
AcDbEntity
  8
0
100
AcDbText
 10
24.1568305
 20
29.6325
 30
0.0
 40
1.875
  1
42.000
 41
0.75
  7
TXT
 72
     1
 11
27.320893
 21
29.6325
 31
0.0
100
AcDbText
  0
TEXT
  5
2F5
330
1E
100
AcDbEntity
  8
0
100
AcDbText
 10
134.262857
 20
17.1325
 30
0.0
 40
1.875
  1
V-9767-L
 41
0.75
  7
TXT
 72
     1
 11
139.8878569999999
 21
17.1325
 31
0.0
100
AcDbText
  0
TEXT
  5
2F6
330
1E
100
AcDbEntity
  8
0
100
AcDbText
 10
134.262857
 20
20.25749999999999
 30
0.0
 40
1.875
  1
V-9766-L
 41
0.75
  7
TXT
 72
     1
 11
139.8878569999999
 21
20.25749999999999
 31
0.0
100
AcDbText
  0
TEXT
  5
2F7
330
1E
100
AcDbEntity
  8
0
100
AcDbText
 10
134.262857
 20
23.38249999999999
 30
0.0
 40
1.875
  1
V-9765-L
 41
0.75
  7
TXT
 72
     1
 11
139.8878569999999
 21
23.38249999999999
 31
0.0
100
AcDbText
  0
TEXT
  5
2F8
330
1E
100
AcDbEntity
  8
0
100
AcDbText
 10
134.262857
 20
26.5075
 30
0.0
 40
1.875
  1
V-9764-L
 41
0.75
  7
TXT
 72
     1
 11
139.8878569999999
 21
26.5075
 31
0.0
100
AcDbText
  0
TEXT
  5
2F9
330
1E
100
AcDbEntity
  8
0
100
AcDbText
 10
134.262857
 20
29.6325
 30
0.0
 40
1.875
  1
V-9763-L
 41
0.75
  7
TXT
 72
     1
 11
139.8878569999999
 21
29.6325
 31
0.0
100
AcDbText
  0
TEXT
  5
2FA
330
1E
100
AcDbEntity
  8
0
100
AcDbText
 10
112.5329459999999
 20
17.1325
 30
0.0
 40
1.875
  1
PMR-9454
 41
0.75
  7
TXT
 72
     1
 11
117.9235709999999
 21
17.1325
 31
0.0
100
AcDbText
  0
TEXT
  5
2FB
330
1E
100
AcDbEntity
  8
0
100
AcDbText
 10
112.5329459999999
 20
20.25749999999999
 30
0.0
 40
1.875
  1
PMR-9453
 41
0.75
  7
TXT
 72
     1
 11
117.9235709999999
 21
20.25749999999999
 31
0.0
100
AcDbText
  0
TEXT
  5
2FC
330
1E
100
AcDbEntity
  8
0
100
AcDbText
 10
112.5329459999999
 20
23.38249999999999
 30
0.0
 40
1.875
  1
PMR-9452
 41
0.75
  7
TXT
 72
     1
 11
117.9235709999999
 21
23.38249999999999
 31
0.0
100
AcDbText
  0
TEXT
  5
2FD
330
1E
100
AcDbEntity
  8
0
100
AcDbText
 10
112.7673209999999
 20
26.5075
 30
0.0
 40
1.875
  1
PMR-9451
 41
0.75
  7
TXT
 72
     1
 11
117.9235709999999
 21
26.5075
 31
0.0
100
AcDbText
  0
TEXT
  5
2FE
330
1E
100
AcDbEntity
  8
0
100
AcDbText
 10
112.6501334999999
 20
29.6325
 30
0.0
 40
1.875
  1
PMR-9450
 41
0.75
  7
TXT
 72
     1
 11
117.9235709999999
 21
29.6325
 31
0.0
100
AcDbText
  0
TEXT
  5
2FF
330
1E
100
AcDbEntity
  8
0
100
AcDbText
 10
95.69142900000001
 20
17.1325
 30
0.0
 40
1.875
  1
75.312
 41
0.75
  7
TXT
 72
     1
 11
98.97267900000001
 21
17.1325
 31
0.0
100
AcDbText
  0
TEXT
  5
300
330
1E
100
AcDbEntity
  8
0
100
AcDbText
 10
95.45705400000001
 20
20.25749999999999
 30
0.0
 40
1.875
  1
66.562
 41
0.75
  7
TXT
 72
     1
 11
98.97267900000001
 21
20.25749999999999
 31
0.0
100
AcDbText
  0
TEXT
  5
301
330
1E
100
AcDbEntity
  8
0
100
AcDbText
 10
95.69142900000001
 20
23.38249999999999
 30
0.0
 40
1.875
  1
57.812
 41
0.75
  7
TXT
 72
     1
 11
98.97267900000001
 21
23.38249999999999
 31
0.0
100
AcDbText
  0
TEXT
  5
302
330
1E
100
AcDbEntity
  8
0
100
AcDbText
 10
95.57424150000001
 20
26.5075
 30
0.0
 40
1.875
  1
49.062
 41
0.75
  7
TXT
 72
     1
 11
98.97267900000001
 21
26.5075
 31
0.0
100
AcDbText
  0
TEXT
  5
303
330
1E
100
AcDbEntity
  8
0
100
AcDbText
 10
95.45705400000001
 20
29.6325
 30
0.0
 40
1.875
  1
38.562
 41
0.75
  7
TXT
 72
     1
 11
98.97267900000001
 21
29.6325
 31
0.0
100
AcDbText
  0
TEXT
  5
304
330
1E
100
AcDbEntity
  8
0
100
AcDbText
 10
81.361071
 20
17.14249999999999
 30
0.0
 40
1.875
  1
36.281
 41
0.75
  7
TXT
 72
     1
 11
84.642321
 21
17.14249999999999
 31
0.0
100
AcDbText
  0
TEXT
  5
305
330
1E
100
AcDbEntity
  8
0
100
AcDbText
 10
81.4782585
 20
20.26749999999999
 30
0.0
 40
1.875
  1
31.906
 41
0.75
  7
TXT
 72
     1
 11
84.642321
 21
20.26749999999999
 31
0.0
100
AcDbText
  0
TEXT
  5
306
330
1E
100
AcDbEntity
  8
0
100
AcDbText
 10
81.361071
 20
23.39249999999999
 30
0.0
 40
1.875
  1
27.531
 41
0.75
  7
TXT
 72
     1
 11
84.642321
 21
23.39249999999999
 31
0.0
100
AcDbText
  0
TEXT
  5
307
330
1E
100
AcDbEntity
  8
0
100
AcDbText
 10
24.1568305
 20
14.0325
 30
0.0
 40
1.875
  1
42.000
 41
0.75
  7
TXT
 72
     1
 11
27.320893
 21
14.0325
 31
0.0
100
AcDbText
  0
TEXT
  5
308
330
1E
100
AcDbEntity
  8
0
100
AcDbText
 10
24.039643
 20
10.9075
 30
0.0
 40
1.875
  1
52.500
 41
0.75
  7
TXT
 72
     1
 11
27.320893
 21
10.9075
 31
0.0
100
AcDbText
  0
TEXT
  5
309
330
1E
100
AcDbEntity
  8
0
100
AcDbText
 10
24.1568305
 20
7.782499999999999
 30
0.0
 40
1.875
  1
61.250
 41
0.75
  7
TXT
 72
     1
 11
27.320893
 21
7.782499999999999
 31
0.0
100
AcDbText
  0
TEXT
  5
30A
330
1E
100
AcDbEntity
  8
0
100
AcDbText
 10
24.274018
 20
4.657499999999999
 30
0.0
 40
1.875
  1
70.000
 41
0.75
  7
TXT
 72
     1
 11
27.320893
 21
4.657499999999999
 31
0.0
100
AcDbText
  0
TEXT
  5
30B
330
1E
100
AcDbEntity
  8
0
100
AcDbText
 10
23.92245549999999
 20
1.532499999999999
 30
0.0
 40
1.875
  1
78.750
 41
0.75
  7
TXT
 72
     1
 11
27.320893
 21
1.532499999999999
 31
0.0
100
AcDbText
  0
TEXT
  5
30C
330
1E
100
AcDbEntity
  8
0
100
AcDbText
 10
38.36999999999999
 20
14.0325
 30
0.0
 40
1.875
  1
47.312
 41
0.75
  7
TXT
 72
     1
 11
41.65124999999999
 21
14.0325
 31
0.0
100
AcDbText
  0
TEXT
  5
30D
330
1E
100
AcDbEntity
  8
0
100
AcDbText
 10
38.36999999999999
 20
10.9075
 30
0.0
 40
1.875
  1
57.812
 41
0.75
  7
TXT
 72
     1
 11
41.65124999999999
 21
10.9075
 31
0.0
100
AcDbText
  0
TEXT
  5
30E
330
1E
100
AcDbEntity
  8
0
100
AcDbText
 10
38.13562499999999
 20
7.782499999999999
 30
0.0
 40
1.875
  1
66.562
 41
0.75
  7
TXT
 72
     1
 11
41.65124999999999
 21
7.782499999999999
 31
0.0
100
AcDbText
  0
TEXT
  5
30F
330
1E
100
AcDbEntity
  8
0
100
AcDbText
 10
38.36999999999999
 20
4.657499999999999
 30
0.0
 40
1.875
  1
75.312
 41
0.75
  7
TXT
 72
     1
 11
41.65124999999999
 21
4.657499999999999
 31
0.0
100
AcDbText
  0
TEXT
  5
310
330
1E
100
AcDbEntity
  8
0
100
AcDbText
 10
38.25281249999999
 20
1.532499999999999
 30
0.0
 40
1.875
  1
84.062
 41
0.75
  7
TXT
 72
     1
 11
41.65124999999999
 21
1.532499999999999
 31
0.0
100
AcDbText
  0
TEXT
  5
311
330
1E
100
AcDbEntity
  8
0
100
AcDbText
 10
81.361071
 20
7.7925
 30
0.0
 40
1.875
  1
27.531
 41
0.75
  7
TXT
 72
     1
 11
84.642321
 21
7.7925
 31
0.0
100
AcDbText
  0
TEXT
  5
312
330
1E
100
AcDbEntity
  8
0
100
AcDbText
 10
81.4782585
 20
4.6675
 30
0.0
 40
1.875
  1
31.906
 41
0.75
  7
TXT
 72
     1
 11
84.642321
 21
4.6675
 31
0.0
100
AcDbText
  0
TEXT
  5
313
330
1E
100
AcDbEntity
  8
0
100
AcDbText
 10
81.361071
 20
1.542499999999999
 30
0.0
 40
1.875
  1
36.281
 41
0.75
  7
TXT
 72
     1
 11
84.642321
 21
1.542499999999999
 31
0.0
100
AcDbText
  0
TEXT
  5
314
330
1E
100
AcDbEntity
  8
0
100
AcDbText
 10
95.45705400000001
 20
14.0325
 30
0.0
 40
1.875
  1
38.562
 41
0.75
  7
TXT
 72
     1
 11
98.97267900000001
 21
14.0325
 31
0.0
100
AcDbText
  0
TEXT
  5
315
330
1E
100
AcDbEntity
  8
0
100
AcDbText
 10
95.57424150000001
 20
10.9075
 30
0.0
 40
1.875
  1
49.062
 41
0.75
  7
TXT
 72
     1
 11
98.97267900000001
 21
10.9075
 31
0.0
100
AcDbText
  0
TEXT
  5
316
330
1E
100
AcDbEntity
  8
0
100
AcDbText
 10
95.69142900000001
 20
7.782499999999999
 30
0.0
 40
1.875
  1
57.812
 41
0.75
  7
TXT
 72
     1
 11
98.97267900000001
 21
7.782499999999999
 31
0.0
100
AcDbText
  0
TEXT
  5
317
330
1E
100
AcDbEntity
  8
0
100
AcDbText
 10
95.45705400000001
 20
4.657499999999999
 30
0.0
 40
1.875
  1
66.562
 41
0.75
  7
TXT
 72
     1
 11
98.97267900000001
 21
4.657499999999999
 31
0.0
100
AcDbText
  0
TEXT
  5
318
330
1E
100
AcDbEntity
  8
0
100
AcDbText
 10
95.69142900000001
 20
1.532499999999999
 30
0.0
 40
1.875
  1
75.312
 41
0.75
  7
TXT
 72
     1
 11
98.97267900000001
 21
1.532499999999999
 31
0.0
100
AcDbText
  0
TEXT
  5
319
330
1E
100
AcDbEntity
  8
0
100
AcDbText
 10
112.6501334999999
 20
14.0325
 30
0.0
 40
1.875
  1
PMR-9450
 41
0.75
  7
TXT
 72
     1
 11
117.9235709999999
 21
14.0325
 31
0.0
100
AcDbText
  0
TEXT
  5
31A
330
1E
100
AcDbEntity
  8
0
100
AcDbText
 10
112.7673209999999
 20
10.9075
 30
0.0
 40
1.875
  1
PMR-9451
 41
0.75
  7
TXT
 72
     1
 11
117.9235709999999
 21
10.9075
 31
0.0
100
AcDbText
  0
TEXT
  5
31B
330
1E
100
AcDbEntity
  8
0
100
AcDbText
 10
112.5329459999999
 20
7.782499999999999
 30
0.0
 40
1.875
  1
PMR-9452
 41
0.75
  7
TXT
 72
     1
 11
117.9235709999999
 21
7.782499999999999
 31
0.0
100
AcDbText
  0
TEXT
  5
31C
330
1E
100
AcDbEntity
  8
0
100
AcDbText
 10
112.5329459999999
 20
4.657499999999999
 30
0.0
 40
1.875
  1
PMR-9453
 41
0.75
  7
TXT
 72
     1
 11
117.9235709999999
 21
4.657499999999999
 31
0.0
100
AcDbText
  0
TEXT
  5
31D
330
1E
100
AcDbEntity
  8
0
100
AcDbText
 10
112.5329459999999
 20
1.532499999999999
 30
0.0
 40
1.875
  1
PMR-9454
 41
0.75
  7
TXT
 72
     1
 11
117.9235709999999
 21
1.532499999999999
 31
0.0
100
AcDbText
  0
TEXT
  5
31E
330
1E
100
AcDbEntity
  8
0
100
AcDbText
 10
134.262857
 20
14.0325
 30
0.0
 40
1.875
  1
V-9763-L
 41
0.75
  7
TXT
 72
     1
 11
139.8878569999999
 21
14.0325
 31
0.0
100
AcDbText
  0
TEXT
  5
31F
330
1E
100
AcDbEntity
  8
0
100
AcDbText
 10
134.262857
 20
10.9075
 30
0.0
 40
1.875
  1
V-9764-L
 41
0.75
  7
TXT
 72
     1
 11
139.8878569999999
 21
10.9075
 31
0.0
100
AcDbText
  0
TEXT
  5
320
330
1E
100
AcDbEntity
  8
0
100
AcDbText
 10
134.262857
 20
7.782499999999999
 30
0.0
 40
1.875
  1
V-9765-L
 41
0.75
  7
TXT
 72
     1
 11
139.8878569999999
 21
7.782499999999999
 31
0.0
100
AcDbText
  0
TEXT
  5
321
330
1E
100
AcDbEntity
  8
0
100
AcDbText
 10
134.262857
 20
4.657499999999999
 30
0.0
 40
1.875
  1
V-9766-L
 41
0.75
  7
TXT
 72
     1
 11
139.8878569999999
 21
4.657499999999999
 31
0.0
100
AcDbText
  0
TEXT
  5
322
330
1E
100
AcDbEntity
  8
0
100
AcDbText
 10
134.262857
 20
1.532499999999999
 30
0.0
 40
1.875
  1
V-9767-L
 41
0.75
  7
TXT
 72
     1
 11
139.8878569999999
 21
1.532499999999999
 31
0.0
100
AcDbText
  0
TEXT
  5
323
330
1E
100
AcDbEntity
  8
0
100
AcDbText
 10
52.934732
 20
32.75249999999999
 30
0.0
 40
1.875
  1
18.500
 41
0.75
  7
TXT
 72
     1
 11
55.981607
 21
32.75249999999999
 31
0.0
100
AcDbText
  0
TEXT
  5
324
330
1E
100
AcDbEntity
  8
0
100
AcDbText
 10
52.700357
 20
17.1475
 30
0.0
 40
1.875
  1
25.500
 41
0.75
  7
TXT
 72
     1
 11
55.981607
 21
17.1475
 31
0.0
100
AcDbText
  0
TEXT
  5
325
330
1E
100
AcDbEntity
  8
0
100
AcDbText
 10
52.700357
 20
1.542499999999999
 30
0.0
 40
1.875
  1
30.750
 41
0.75
  7
TXT
 72
     1
 11
55.981607
 21
1.542499999999999
 31
0.0
100
AcDbText
  0
LINE
  5
326
330
1E
100
AcDbEntity
  8
0
100
AcDbLine
 10
55.981607
 20
44.235033
 30
0.0
 11
55.981607
 21
35.60627699999999
 31
0.0
  0
LINE
  5
327
330
1E
100
AcDbEntity
  8
0
100
AcDbLine
 10
55.981607
 20
28.63503299999999
 30
0.0
 11
55.981607
 21
20.00627699999999
 31
0.0
  0
LINE
  5
328
330
1E
100
AcDbEntity
  8
0
100
AcDbLine
 10
55.981607
 20
13.035033
 30
0.0
 11
55.981607
 21
4.406276999999999
 31
0.0
  0
TEXT
  5
329
330
1E
100
AcDbEntity
  8
0
100
AcDbText
 10
67.1479015
 20
29.6275
 30
0.0
 40
1.875
  1
24.000
 41
0.75
  7
TXT
 72
     1
 11
70.311964
 21
29.6275
 31
0.0
100
AcDbText
  0
TEXT
  5
32A
330
1E
100
AcDbEntity
  8
0
100
AcDbText
 10
66.9135265
 20
14.0225
 30
0.0
 40
1.875
  1
29.250
 41
0.75
  7
TXT
 72
     1
 11
70.311964
 21
14.0225
 31
0.0
100
AcDbText
  0
TEXT
  5
32B
330
1E
100
AcDbEntity
  8
0
100
AcDbText
 10
67.3822765
 20
32.75249999999999
 30
0.0
 40
1.875
  1
17.000
 41
0.75
  7
TXT
 72
     1
 11
70.311964
 21
32.75249999999999
 31
0.0
100
AcDbText
  0
LINE
  5
32C
330
1E
100
AcDbEntity
  8
0
100
AcDbLine
 10
70.311964
 20
44.235033
 30
0.0
 11
70.311964
 21
35.60627699999999
 31
0.0
  0
LINE
  5
32D
330
1E
100
AcDbEntity
  8
0
100
AcDbLine
 10
70.311964
 20
28.63503299999999
 30
0.0
 11
70.311964
 21
20.00627699999999
 31
0.0
  0
LINE
  5
32E
330
1E
100
AcDbEntity
  8
0
100
AcDbLine
 10
70.311964
 20
13.035033
 30
0.0
 11
70.311964
 21
4.406276999999999
 31
0.0
  0
TEXT
  5
32F
330
1E
100
AcDbEntity
  8
0
100
AcDbText
 10
14.71760619032943
 20
227.265
 30
0.0
 40
2.343214
  1
ECONOMIZER ADD-A-RACK (19" P.S., VENTED)
 41
0.53125
  7
TXT
 72
     1
 11
37.43579817470443
 21
227.265
 31
0.0
100
AcDbText
  0
TEXT
  5
330
330
1E
100
AcDbEntity
  8
0
100
AcDbText
 10
82.21825955029158
 20
227.265
 30
0.0
 40
2.343214
  1
ER-16652 thru ER-16676
 41
0.75
  7
TXT
 72
     1
 11
100.6710698002915
 21
227.265
 31
0.0
100
AcDbText
  0
LINE
  5
331
330
1E
100
AcDbEntity
  8
0
100
AcDbLine
 10
81.491213
 20
43.04999999999999
 30
0.0
 11
87.541223
 21
43.04999999999999
 31
0.0
  0
LINE
  5
332
330
1E
100
AcDbEntity
  8
0
100
AcDbLine
 10
81.491213
 20
46.16999999999999
 30
0.0
 11
87.541223
 21
46.16999999999999
 31
0.0
  0
LINE
  5
333
330
1E
100
AcDbEntity
  8
0
100
AcDbLine
 10
81.491213
 20
27.45
 30
0.0
 11
87.541223
 21
27.45
 31
0.0
  0
LINE
  5
334
330
1E
100
AcDbEntity
  8
0
100
AcDbLine
 10
81.491213
 20
30.57
 30
0.0
 11
87.541223
 21
30.57
 31
0.0
  0
LINE
  5
335
330
1E
100
AcDbEntity
  8
0
100
AcDbLine
 10
81.491213
 20
11.85
 30
0.0
 11
87.541223
 21
11.85
 31
0.0
  0
LINE
  5
336
330
1E
100
AcDbEntity
  8
0
100
AcDbLine
 10
81.491213
 20
14.97
 30
0.0
 11
87.541223
 21
14.97
 31
0.0
  0
TEXT
  5
337
330
1E
100
AcDbEntity
  8
DIM
100
AcDbText
 10
211.582185
 20
108.8408449999999
 30
0.0
 40
1.25
  1

100
AcDbText
  0
TEXT
  5
338
330
1E
100
AcDbEntity
  8
DIM
100
AcDbText
 10
212.644685
 20
104.747086
 30
0.0
 40
1.0
  1

100
AcDbText
  0
TEXT
  5
339
330
1E
100
AcDbEntity
  8
OBJECT
100
AcDbText
 10
213.5014289999999
 20
155.4437439999999
 30
0.0
 40
1.25
  1

100
AcDbText
  0
TEXT
  5
33A
330
1E
100
AcDbEntity
  8
DIM
100
AcDbText
 10
357.073631
 20
108.996479
 30
0.0
 40
1.25
  1

100
AcDbText
  0
TEXT
  5
33B
330
1E
100
AcDbEntity
  8
DIM
100
AcDbText
 10
358.1361309999999
 20
104.90272
 30
0.0
 40
1.0
  1

100
AcDbText
  0
TEXT
  5
33C
330
1E
100
AcDbEntity
  8
OBJECT
100
AcDbText
 10
358.992874
 20
155.599378
 30
0.0
 40
1.25
  1

100
AcDbText
  0
TEXT
  5
33D
330
1E
100
AcDbEntity
  8
DIM
100
AcDbText
 10
508.140495
 20
171.590656
 30
0.0
 40
1.25
  1

100
AcDbText
  0
TEXT
  5
33E
330
1E
100
AcDbEntity
  8
DIM
100
AcDbText
 10
509.202995
 20
167.4968979999999
 30
0.0
 40
1.0
  1

100
AcDbText
  0
TEXT
  5
33F
330
1E
100
AcDbEntity
  8
OBJECT
100
AcDbText
 10
510.0597379999999
 20
218.1935559999999
 30
0.0
 40
1.25
  1

100
AcDbText
  0
TEXT
  5
340
330
1E
100
AcDbEntity
  8
DIM
100
AcDbText
 10
713.140495
 20
171.590656
 30
0.0
 40
1.25
  1

100
AcDbText
  0
TEXT
  5
341
330
1E
100
AcDbEntity
  8
DIM
100
AcDbText
 10
714.202995
 20
167.4968979999999
 30
0.0
 40
1.0
  1

100
AcDbText
  0
TEXT
  5
342
330
1E
100
AcDbEntity
  8
OBJECT
100
AcDbText
 10
715.059738
 20
218.1935559999999
 30
0.0
 40
1.25
  1

100
AcDbText
  0
TEXT
  5
343
330
1E
100
AcDbEntity
  8
DIM
100
AcDbText
 10
918.1404949999999
 20
171.590656
 30
0.0
 40
1.25
  1

100
AcDbText
  0
TEXT
  5
344
330
1E
100
AcDbEntity
  8
DIM
100
AcDbText
 10
919.2029949999998
 20
167.4968979999999
 30
0.0
 40
1.0
  1

100
AcDbText
  0
TEXT
  5
345
330
1E
100
AcDbEntity
  8
DIM
100
AcDbText
 10
1082.140494999999
 20
171.590656
 30
0.0
 40
1.25
  1

100
AcDbText
  0
TEXT
  5
346
330
1E
100
AcDbEntity
  8
DIM
100
AcDbText
 10
1083.202994999999
 20
167.4968979999999
 30
0.0
 40
1.0
  1

100
AcDbText
  0
TEXT
  5
347
330
1E
100
AcDbEntity
  8
OBJECT
100
AcDbText
 10
1084.059738
 20
218.1935559999999
 30
0.0
 40
1.25
  1

100
AcDbText
  0
TEXT
  5
348
330
1E
100
AcDbEntity
  8
DIM
100
AcDbText
 10
1082.140494999999
 20
171.590656
 30
0.0
 40
1.25
  1

100
AcDbText
  0
TEXT
  5
349
330
1E
100
AcDbEntity
  8
DIM
100
AcDbText
 10
1083.202994999999
 20
167.4968979999999
 30
0.0
 40
1.0
  1

100
AcDbText
  0
TEXT
  5
34A
330
1E
100
AcDbEntity
  8
OBJECT
100
AcDbText
 10
1084.059738
 20
218.1935559999999
 30
0.0
 40
1.25
  1

100
AcDbText
  0
TEXT
  5
34B
330
1E
100
AcDbEntity
  8
DIM
100
AcDbText
 10
1100.107873
 20
356.515033
 30
0.0
 40
0.72
  1

100
AcDbText
  0
TEXT
  5
34C
330
1E
100
AcDbEntity
  8
DIM
100
AcDbText
 10
1036.571996
 20
333.639768
 30
0.0
 40
0.72
  1

100
AcDbText
  0
TEXT
  5
34D
330
1E
100
AcDbEntity
  8
DIM
100
AcDbText
 10
1187.484317
 20
284.5180299999999
 30
0.0
 40
0.72
  1

100
AcDbText
  0
TEXT
  5
34E
330
1E
100
AcDbEntity
  8
DIM
100
AcDbText
 10
1123.94844
 20
261.6427639999999
 30
0.0
 40
0.72
  1

100
AcDbText
  0
TEXT
  5
34F
330
1E
100
AcDbEntity
  8
DIM
100
AcDbText
 10
1090.137672999999
 20
370.129996
 30
0.0
 40
0.72
  1

100
AcDbText
  0
TEXT
  5
350
330
1E
100
AcDbEntity
  8
DIM
100
AcDbText
 10
1026.601796
 20
347.25473
 30
0.0
 40
0.72
  1

100
AcDbText
  0
TEXT
  5
351
330
1E
100
AcDbEntity
  8
DIM
100
AcDbText
 10
1026.601796
 20
387.2547299999999
 30
0.0
 40
0.72
  1

100
AcDbText
  0
TEXT
  5
352
330
1E
100
AcDbEntity
  8
DIM
100
AcDbText
 10
1088.101796
 20
387.2547299999999
 30
0.0
 40
0.72
  1

100
AcDbText
  0
TEXT
  5
353
330
1E
100
AcDbEntity
  8
DIM
100
AcDbText
 10
713.140495
 20
171.590656
 30
0.0
 40
1.25
  1

100
AcDbText
  0
TEXT
  5
354
330
1E
100
AcDbEntity
  8
DIM
100
AcDbText
 10
714.202995
 20
167.4968979999999
 30
0.0
 40
1.0
  1

100
AcDbText
  0
TEXT
  5
355
330
1E
100
AcDbEntity
  8
OBJECT
100
AcDbText
 10
715.059738
 20
218.1935559999999
 30
0.0
 40
1.25
  1

100
AcDbText
  0
TEXT
  5
356
330
1E
100
AcDbEntity
  8
DIM
100
AcDbText
 10
918.1404949999999
 20
171.590656
 30
0.0
 40
1.25
  1

100
AcDbText
  0
TEXT
  5
357
330
1E
100
AcDbEntity
  8
DIM
100
AcDbText
 10
919.2029949999998
 20
167.4968979999999
 30
0.0
 40
1.0
  1

100
AcDbText
  0
TEXT
  5
358
330
1E
100
AcDbEntity
  8
DIM
100
AcDbText
 10
1082.140494999999
 20
171.590656
 30
0.0
 40
1.25
  1

100
AcDbText
  0
TEXT
  5
359
330
1E
100
AcDbEntity
  8
DIM
100
AcDbText
 10
1083.202994999999
 20
167.4968979999999
 30
0.0
 40
1.0
  1

100
AcDbText
  0
TEXT
  5
35A
330
1E
100
AcDbEntity
  8
OBJECT
100
AcDbText
 10
1084.059738
 20
218.1935559999999
 30
0.0
 40
1.25
  1

100
AcDbText
  0
TEXT
  5
35B
330
1E
100
AcDbEntity
  8
DIM
100
AcDbText
 10
1082.140494999999
 20
171.590656
 30
0.0
 40
1.25
  1

100
AcDbText
  0
TEXT
  5
35C
330
1E
100
AcDbEntity
  8
DIM
100
AcDbText
 10
1083.202994999999
 20
167.4968979999999
 30
0.0
 40
1.0
  1

100
AcDbText
  0
TEXT
  5
35D
330
1E
100
AcDbEntity
  8
OBJECT
100
AcDbText
 10
1084.059738
 20
218.1935559999999
 30
0.0
 40
1.25
  1

100
AcDbText
  0
TEXT
  5
35E
330
1E
100
AcDbEntity
  8
DIM
100
AcDbText
 10
1100.107873
 20
356.515033
 30
0.0
 40
0.72
  1

100
AcDbText
  0
TEXT
  5
35F
330
1E
100
AcDbEntity
  8
DIM
100
AcDbText
 10
1036.571996
 20
333.639768
 30
0.0
 40
0.72
  1

100
AcDbText
  0
TEXT
  5
360
330
1E
100
AcDbEntity
  8
DIM
100
AcDbText
 10
1187.484317
 20
284.5180299999999
 30
0.0
 40
0.72
  1

100
AcDbText
  0
TEXT
  5
361
330
1E
100
AcDbEntity
  8
DIM
100
AcDbText
 10
1123.94844
 20
261.6427639999999
 30
0.0
 40
0.72
  1

100
AcDbText
  0
TEXT
  5
362
330
1E
100
AcDbEntity
  8
DIM
100
AcDbText
 10
1090.137672999999
 20
370.129996
 30
0.0
 40
0.72
  1

100
AcDbText
  0
TEXT
  5
363
330
1E
100
AcDbEntity
  8
DIM
100
AcDbText
 10
1026.601796
 20
347.25473
 30
0.0
 40
0.72
  1

100
AcDbText
  0
TEXT
  5
364
330
1E
100
AcDbEntity
  8
DIM
100
AcDbText
 10
1026.601796
 20
387.2547299999999
 30
0.0
 40
0.72
  1

100
AcDbText
  0
TEXT
  5
365
330
1E
100
AcDbEntity
  8
DIM
100
AcDbText
 10
1088.101796
 20
387.2547299999999
 30
0.0
 40
0.72
  1

100
AcDbText
  0
TEXT
  5
366
330
1E
100
AcDbEntity
  8
DIM
100
AcDbText
 10
692.640495
 20
171.590656
 30
0.0
 40
1.25
  1

100
AcDbText
  0
TEXT
  5
367
330
1E
100
AcDbEntity
  8
DIM
100
AcDbText
 10
693.702995
 20
167.4968979999999
 30
0.0
 40
1.0
  1

100
AcDbText
  0
TEXT
  5
368
330
1E
100
AcDbEntity
  8
DIM
100
AcDbText
 10
856.6404949999999
 20
171.590656
 30
0.0
 40
1.25
  1

100
AcDbText
  0
TEXT
  5
369
330
1E
100
AcDbEntity
  8
DIM
100
AcDbText
 10
857.7029949999998
 20
167.4968979999999
 30
0.0
 40
1.0
  1

100
AcDbText
  0
TEXT
  5
36A
330
1E
100
AcDbEntity
  8
OBJECT
100
AcDbText
 10
858.5597380000001
 20
218.1935559999999
 30
0.0
 40
1.25
  1

100
AcDbText
  0
TEXT
  5
36B
330
1E
100
AcDbEntity
  8
DIM
100
AcDbText
 10
856.6404949999999
 20
171.590656
 30
0.0
 40
1.25
  1

100
AcDbText
  0
TEXT
  5
36C
330
1E
100
AcDbEntity
  8
DIM
100
AcDbText
 10
857.7029949999998
 20
167.4968979999999
 30
0.0
 40
1.0
  1

100
AcDbText
  0
TEXT
  5
36D
330
1E
100
AcDbEntity
  8
OBJECT
100
AcDbText
 10
858.5597380000001
 20
218.1935559999999
 30
0.0
 40
1.25
  1

100
AcDbText
  0
TEXT
  5
36E
330
1E
100
AcDbEntity
  8
DIM
100
AcDbText
 10
874.607873
 20
356.515033
 30
0.0
 40
0.72
  1

100
AcDbText
  0
TEXT
  5
36F
330
1E
100
AcDbEntity
  8
DIM
100
AcDbText
 10
811.071996
 20
333.639768
 30
0.0
 40
0.72
  1

100
AcDbText
  0
TEXT
  5
370
330
1E
100
AcDbEntity
  8
DIM
100
AcDbText
 10
961.9843170000001
 20
284.5180299999999
 30
0.0
 40
0.72
  1

100
AcDbText
  0
TEXT
  5
371
330
1E
100
AcDbEntity
  8
DIM
100
AcDbText
 10
898.4484399999999
 20
261.6427639999999
 30
0.0
 40
0.72
  1

100
AcDbText
  0
TEXT
  5
372
330
1E
100
AcDbEntity
  8
DIM
100
AcDbText
 10
864.637673
 20
370.129996
 30
0.0
 40
0.72
  1

100
AcDbText
  0
TEXT
  5
373
330
1E
100
AcDbEntity
  8
DIM
100
AcDbText
 10
801.101796
 20
347.25473
 30
0.0
 40
0.72
  1

100
AcDbText
  0
TEXT
  5
374
330
1E
100
AcDbEntity
  8
DIM
100
AcDbText
 10
801.101796
 20
387.2547299999999
 30
0.0
 40
0.72
  1

100
AcDbText
  0
TEXT
  5
375
330
1E
100
AcDbEntity
  8
DIM
100
AcDbText
 10
862.601796
 20
387.2547299999999
 30
0.0
 40
0.72
  1

100
AcDbText
  0
TEXT
  5
376
330
1E
100
AcDbEntity
  8
DIM
100
AcDbText
 10
713.140495
 20
171.590656
 30
0.0
 40
1.25
  1

100
AcDbText
  0
TEXT
  5
377
330
1E
100
AcDbEntity
  8
DIM
100
AcDbText
 10
714.202995
 20
167.4968979999999
 30
0.0
 40
1.0
  1

100
AcDbText
  0
TEXT
  5
378
330
1E
100
AcDbEntity
  8
DIM
100
AcDbText
 10
877.1404949999999
 20
171.590656
 30
0.0
 40
1.25
  1

100
AcDbText
  0
TEXT
  5
379
330
1E
100
AcDbEntity
  8
DIM
100
AcDbText
 10
878.2029949999998
 20
167.4968979999999
 30
0.0
 40
1.0
  1

100
AcDbText
  0
TEXT
  5
37A
330
1E
100
AcDbEntity
  8
OBJECT
100
AcDbText
 10
879.0597380000001
 20
218.1935559999999
 30
0.0
 40
1.25
  1

100
AcDbText
  0
TEXT
  5
37B
330
1E
100
AcDbEntity
  8
DIM
100
AcDbText
 10
877.1404949999999
 20
171.590656
 30
0.0
 40
1.25
  1

100
AcDbText
  0
TEXT
  5
37C
330
1E
100
AcDbEntity
  8
DIM
100
AcDbText
 10
878.2029949999998
 20
167.4968979999999
 30
0.0
 40
1.0
  1

100
AcDbText
  0
TEXT
  5
37D
330
1E
100
AcDbEntity
  8
OBJECT
100
AcDbText
 10
879.0597380000001
 20
218.1935559999999
 30
0.0
 40
1.25
  1

100
AcDbText
  0
TEXT
  5
37E
330
1E
100
AcDbEntity
  8
DIM
100
AcDbText
 10
895.107873
 20
356.515033
 30
0.0
 40
0.72
  1

100
AcDbText
  0
TEXT
  5
37F
330
1E
100
AcDbEntity
  8
DIM
100
AcDbText
 10
831.571996
 20
333.639768
 30
0.0
 40
0.72
  1

100
AcDbText
  0
TEXT
  5
380
330
1E
100
AcDbEntity
  8
DIM
100
AcDbText
 10
982.4843170000001
 20
284.5180299999999
 30
0.0
 40
0.72
  1

100
AcDbText
  0
TEXT
  5
381
330
1E
100
AcDbEntity
  8
DIM
100
AcDbText
 10
918.9484399999999
 20
261.6427639999999
 30
0.0
 40
0.72
  1

100
AcDbText
  0
TEXT
  5
382
330
1E
100
AcDbEntity
  8
DIM
100
AcDbText
 10
885.137673
 20
370.129996
 30
0.0
 40
0.72
  1

100
AcDbText
  0
TEXT
  5
383
330
1E
100
AcDbEntity
  8
DIM
100
AcDbText
 10
821.601796
 20
347.25473
 30
0.0
 40
0.72
  1

100
AcDbText
  0
TEXT
  5
384
330
1E
100
AcDbEntity
  8
DIM
100
AcDbText
 10
821.601796
 20
387.2547299999999
 30
0.0
 40
0.72
  1

100
AcDbText
  0
TEXT
  5
385
330
1E
100
AcDbEntity
  8
DIM
100
AcDbText
 10
883.101796
 20
387.2547299999999
 30
0.0
 40
0.72
  1

100
AcDbText
  0
TEXT
  5
386
330
1E
100
AcDbEntity
  8
DIM
100
AcDbText
 10
613.892958
 20
130.4772669999999
 30
0.0
 40
1.25
  1

100
AcDbText
  0
TEXT
  5
387
330
1E
100
AcDbEntity
  8
DIM
100
AcDbText
 10
614.955458
 20
126.3835079999999
 30
0.0
 40
1.0
  1

100
AcDbText
  0
TEXT
  5
388
330
1E
100
AcDbEntity
  8
OBJECT
100
AcDbText
 10
615.8122019999999
 20
177.080166
 30
0.0
 40
1.25
  1

100
AcDbText
  0
TEXT
  5
389
330
1E
100
AcDbEntity
  8
DIM
100
AcDbText
 10
818.8929579999999
 20
130.4772669999999
 30
0.0
 40
1.25
  1

100
AcDbText
  0
TEXT
  5
38A
330
1E
100
AcDbEntity
  8
DIM
100
AcDbText
 10
819.955458
 20
126.3835079999999
 30
0.0
 40
1.0
  1

100
AcDbText
  0
TEXT
  5
38B
330
1E
100
AcDbEntity
  8
OBJECT
100
AcDbText
 10
820.8122019999999
 20
177.080166
 30
0.0
 40
1.25
  1

100
AcDbText
  0
TEXT
  5
38C
330
1E
100
AcDbEntity
  8
DIM
100
AcDbText
 10
1023.892958
 20
130.4772669999999
 30
0.0
 40
1.25
  1

100
AcDbText
  0
TEXT
  5
38D
330
1E
100
AcDbEntity
  8
DIM
100
AcDbText
 10
1024.955457999999
 20
126.3835079999999
 30
0.0
 40
1.0
  1

100
AcDbText
  0
TEXT
  5
38E
330
1E
100
AcDbEntity
  8
DIM
100
AcDbText
 10
1187.892957999999
 20
130.4772669999999
 30
0.0
 40
1.25
  1

100
AcDbText
  0
TEXT
  5
38F
330
1E
100
AcDbEntity
  8
DIM
100
AcDbText
 10
1188.955457999999
 20
126.3835079999999
 30
0.0
 40
1.0
  1

100
AcDbText
  0
TEXT
  5
390
330
1E
100
AcDbEntity
  8
OBJECT
100
AcDbText
 10
1189.812201999999
 20
177.080166
 30
0.0
 40
1.25
  1

100
AcDbText
  0
TEXT
  5
391
330
1E
100
AcDbEntity
  8
DIM
100
AcDbText
 10
1187.892957999999
 20
130.4772669999999
 30
0.0
 40
1.25
  1

100
AcDbText
  0
TEXT
  5
392
330
1E
100
AcDbEntity
  8
DIM
100
AcDbText
 10
1188.955457999999
 20
126.3835079999999
 30
0.0
 40
1.0
  1

100
AcDbText
  0
TEXT
  5
393
330
1E
100
AcDbEntity
  8
OBJECT
100
AcDbText
 10
1189.812201999999
 20
177.080166
 30
0.0
 40
1.25
  1

100
AcDbText
  0
TEXT
  5
394
330
1E
100
AcDbEntity
  8
DIM
100
AcDbText
 10
1205.860335999999
 20
315.401643
 30
0.0
 40
0.72
  1

100
AcDbText
  0
TEXT
  5
395
330
1E
100
AcDbEntity
  8
DIM
100
AcDbText
 10
1142.324458999999
 20
292.5263779999999
 30
0.0
 40
0.72
  1

100
AcDbText
  0
TEXT
  5
396
330
1E
100
AcDbEntity
  8
DIM
100
AcDbText
 10
1293.23678
 20
243.40464
 30
0.0
 40
0.72
  1

100
AcDbText
  0
TEXT
  5
397
330
1E
100
AcDbEntity
  8
DIM
100
AcDbText
 10
1229.700903
 20
220.529375
 30
0.0
 40
0.72
  1

100
AcDbText
  0
TEXT
  5
398
330
1E
100
AcDbEntity
  8
DIM
100
AcDbText
 10
1195.890136
 20
329.016606
 30
0.0
 40
0.72
  1

100
AcDbText
  0
TEXT
  5
399
330
1E
100
AcDbEntity
  8
DIM
100
AcDbText
 10
1132.354259
 20
306.141341
 30
0.0
 40
0.72
  1

100
AcDbText
  0
TEXT
  5
39A
330
1E
100
AcDbEntity
  8
DIM
100
AcDbText
 10
1132.354259
 20
346.141341
 30
0.0
 40
0.72
  1

100
AcDbText
  0
TEXT
  5
39B
330
1E
100
AcDbEntity
  8
DIM
100
AcDbText
 10
1193.854258999999
 20
346.141341
 30
0.0
 40
0.72
  1

100
AcDbText
  0
TEXT
  5
39C
330
1E
100
AcDbEntity
  8
DIM
100
AcDbText
 10
818.8929579999999
 20
130.4772669999999
 30
0.0
 40
1.25
  1

100
AcDbText
  0
TEXT
  5
39D
330
1E
100
AcDbEntity
  8
DIM
100
AcDbText
 10
819.955458
 20
126.3835079999999
 30
0.0
 40
1.0
  1

100
AcDbText
  0
TEXT
  5
39E
330
1E
100
AcDbEntity
  8
OBJECT
100
AcDbText
 10
820.8122019999999
 20
177.080166
 30
0.0
 40
1.25
  1

100
AcDbText
  0
TEXT
  5
39F
330
1E
100
AcDbEntity
  8
DIM
100
AcDbText
 10
1023.892958
 20
130.4772669999999
 30
0.0
 40
1.25
  1

100
AcDbText
  0
TEXT
  5
3A0
330
1E
100
AcDbEntity
  8
DIM
100
AcDbText
 10
1024.955457999999
 20
126.3835079999999
 30
0.0
 40
1.0
  1

100
AcDbText
  0
TEXT
  5
3A1
330
1E
100
AcDbEntity
  8
DIM
100
AcDbText
 10
1187.892957999999
 20
130.4772669999999
 30
0.0
 40
1.25
  1

100
AcDbText
  0
TEXT
  5
3A2
330
1E
100
AcDbEntity
  8
DIM
100
AcDbText
 10
1188.955457999999
 20
126.3835079999999
 30
0.0
 40
1.0
  1

100
AcDbText
  0
TEXT
  5
3A3
330
1E
100
AcDbEntity
  8
OBJECT
100
AcDbText
 10
1189.812201999999
 20
177.080166
 30
0.0
 40
1.25
  1

100
AcDbText
  0
TEXT
  5
3A4
330
1E
100
AcDbEntity
  8
DIM
100
AcDbText
 10
1187.892957999999
 20
130.4772669999999
 30
0.0
 40
1.25
  1

100
AcDbText
  0
TEXT
  5
3A5
330
1E
100
AcDbEntity
  8
DIM
100
AcDbText
 10
1188.955457999999
 20
126.3835079999999
 30
0.0
 40
1.0
  1

100
AcDbText
  0
TEXT
  5
3A6
330
1E
100
AcDbEntity
  8
OBJECT
100
AcDbText
 10
1189.812201999999
 20
177.080166
 30
0.0
 40
1.25
  1

100
AcDbText
  0
TEXT
  5
3A7
330
1E
100
AcDbEntity
  8
DIM
100
AcDbText
 10
1205.860335999999
 20
315.401643
 30
0.0
 40
0.72
  1

100
AcDbText
  0
TEXT
  5
3A8
330
1E
100
AcDbEntity
  8
DIM
100
AcDbText
 10
1142.324458999999
 20
292.5263779999999
 30
0.0
 40
0.72
  1

100
AcDbText
  0
TEXT
  5
3A9
330
1E
100
AcDbEntity
  8
DIM
100
AcDbText
 10
1293.23678
 20
243.40464
 30
0.0
 40
0.72
  1

100
AcDbText
  0
TEXT
  5
3AA
330
1E
100
AcDbEntity
  8
DIM
100
AcDbText
 10
1229.700903
 20
220.529375
 30
0.0
 40
0.72
  1

100
AcDbText
  0
TEXT
  5
3AB
330
1E
100
AcDbEntity
  8
DIM
100
AcDbText
 10
1195.890136
 20
329.016606
 30
0.0
 40
0.72
  1

100
AcDbText
  0
TEXT
  5
3AC
330
1E
100
AcDbEntity
  8
DIM
100
AcDbText
 10
1132.354259
 20
306.141341
 30
0.0
 40
0.72
  1

100
AcDbText
  0
TEXT
  5
3AD
330
1E
100
AcDbEntity
  8
DIM
100
AcDbText
 10
1132.354259
 20
346.141341
 30
0.0
 40
0.72
  1

100
AcDbText
  0
TEXT
  5
3AE
330
1E
100
AcDbEntity
  8
DIM
100
AcDbText
 10
1193.854258999999
 20
346.141341
 30
0.0
 40
0.72
  1

100
AcDbText
  0
TEXT
  5
3AF
330
1E
100
AcDbEntity
  8
DIM
100
AcDbText
 10
798.392958
 20
130.4772669999999
 30
0.0
 40
1.25
  1

100
AcDbText
  0
TEXT
  5
3B0
330
1E
100
AcDbEntity
  8
DIM
100
AcDbText
 10
799.4554579999999
 20
126.3835079999999
 30
0.0
 40
1.0
  1

100
AcDbText
  0
TEXT
  5
3B1
330
1E
100
AcDbEntity
  8
DIM
100
AcDbText
 10
962.392958
 20
130.4772669999999
 30
0.0
 40
1.25
  1

100
AcDbText
  0
TEXT
  5
3B2
330
1E
100
AcDbEntity
  8
DIM
100
AcDbText
 10
963.4554579999999
 20
126.3835079999999
 30
0.0
 40
1.0
  1

100
AcDbText
  0
TEXT
  5
3B3
330
1E
100
AcDbEntity
  8
OBJECT
100
AcDbText
 10
964.3122019999999
 20
177.080166
 30
0.0
 40
1.25
  1

100
AcDbText
  0
TEXT
  5
3B4
330
1E
100
AcDbEntity
  8
DIM
100
AcDbText
 10
962.392958
 20
130.4772669999999
 30
0.0
 40
1.25
  1

100
AcDbText
  0
TEXT
  5
3B5
330
1E
100
AcDbEntity
  8
DIM
100
AcDbText
 10
963.4554579999999
 20
126.3835079999999
 30
0.0
 40
1.0
  1

100
AcDbText
  0
TEXT
  5
3B6
330
1E
100
AcDbEntity
  8
OBJECT
100
AcDbText
 10
964.3122019999999
 20
177.080166
 30
0.0
 40
1.25
  1

100
AcDbText
  0
TEXT
  5
3B7
330
1E
100
AcDbEntity
  8
DIM
100
AcDbText
 10
980.360336
 20
315.401643
 30
0.0
 40
0.72
  1

100
AcDbText
  0
TEXT
  5
3B8
330
1E
100
AcDbEntity
  8
DIM
100
AcDbText
 10
916.8244589999998
 20
292.5263779999999
 30
0.0
 40
0.72
  1

100
AcDbText
  0
TEXT
  5
3B9
330
1E
100
AcDbEntity
  8
DIM
100
AcDbText
 10
1067.73678
 20
243.40464
 30
0.0
 40
0.72
  1

100
AcDbText
  0
TEXT
  5
3BA
330
1E
100
AcDbEntity
  8
DIM
100
AcDbText
 10
1004.200902999999
 20
220.529375
 30
0.0
 40
0.72
  1

100
AcDbText
  0
TEXT
  5
3BB
330
1E
100
AcDbEntity
  8
DIM
100
AcDbText
 10
970.3901359999999
 20
329.016606
 30
0.0
 40
0.72
  1

100
AcDbText
  0
TEXT
  5
3BC
330
1E
100
AcDbEntity
  8
DIM
100
AcDbText
 10
906.8542589999999
 20
306.141341
 30
0.0
 40
0.72
  1

100
AcDbText
  0
TEXT
  5
3BD
330
1E
100
AcDbEntity
  8
DIM
100
AcDbText
 10
906.8542589999999
 20
346.141341
 30
0.0
 40
0.72
  1

100
AcDbText
  0
TEXT
  5
3BE
330
1E
100
AcDbEntity
  8
DIM
100
AcDbText
 10
968.354259
 20
346.141341
 30
0.0
 40
0.72
  1

100
AcDbText
  0
TEXT
  5
3BF
330
1E
100
AcDbEntity
  8
DIM
100
AcDbText
 10
818.8929579999999
 20
130.4772669999999
 30
0.0
 40
1.25
  1

100
AcDbText
  0
TEXT
  5
3C0
330
1E
100
AcDbEntity
  8
DIM
100
AcDbText
 10
819.955458
 20
126.3835079999999
 30
0.0
 40
1.0
  1

100
AcDbText
  0
TEXT
  5
3C1
330
1E
100
AcDbEntity
  8
DIM
100
AcDbText
 10
982.892958
 20
130.4772669999999
 30
0.0
 40
1.25
  1

100
AcDbText
  0
TEXT
  5
3C2
330
1E
100
AcDbEntity
  8
DIM
100
AcDbText
 10
983.9554579999999
 20
126.3835079999999
 30
0.0
 40
1.0
  1

100
AcDbText
  0
TEXT
  5
3C3
330
1E
100
AcDbEntity
  8
OBJECT
100
AcDbText
 10
984.8122019999999
 20
177.080166
 30
0.0
 40
1.25
  1

100
AcDbText
  0
TEXT
  5
3C4
330
1E
100
AcDbEntity
  8
DIM
100
AcDbText
 10
982.892958
 20
130.4772669999999
 30
0.0
 40
1.25
  1

100
AcDbText
  0
TEXT
  5
3C5
330
1E
100
AcDbEntity
  8
DIM
100
AcDbText
 10
983.9554579999999
 20
126.3835079999999
 30
0.0
 40
1.0
  1

100
AcDbText
  0
TEXT
  5
3C6
330
1E
100
AcDbEntity
  8
OBJECT
100
AcDbText
 10
984.8122019999999
 20
177.080166
 30
0.0
 40
1.25
  1

100
AcDbText
  0
TEXT
  5
3C7
330
1E
100
AcDbEntity
  8
DIM
100
AcDbText
 10
1000.860336
 20
315.401643
 30
0.0
 40
0.72
  1

100
AcDbText
  0
TEXT
  5
3C8
330
1E
100
AcDbEntity
  8
DIM
100
AcDbText
 10
937.3244589999998
 20
292.5263779999999
 30
0.0
 40
0.72
  1

100
AcDbText
  0
TEXT
  5
3C9
330
1E
100
AcDbEntity
  8
DIM
100
AcDbText
 10
1088.23678
 20
243.40464
 30
0.0
 40
0.72
  1

100
AcDbText
  0
TEXT
  5
3CA
330
1E
100
AcDbEntity
  8
DIM
100
AcDbText
 10
1024.700903
 20
220.529375
 30
0.0
 40
0.72
  1

100
AcDbText
  0
TEXT
  5
3CB
330
1E
100
AcDbEntity
  8
DIM
100
AcDbText
 10
990.8901359999999
 20
329.016606
 30
0.0
 40
0.72
  1

100
AcDbText
  0
TEXT
  5
3CC
330
1E
100
AcDbEntity
  8
DIM
100
AcDbText
 10
927.3542589999999
 20
306.141341
 30
0.0
 40
0.72
  1

100
AcDbText
  0
TEXT
  5
3CD
330
1E
100
AcDbEntity
  8
DIM
100
AcDbText
 10
927.3542589999999
 20
346.141341
 30
0.0
 40
0.72
  1

100
AcDbText
  0
TEXT
  5
3CE
330
1E
100
AcDbEntity
  8
DIM
100
AcDbText
 10
988.854259
 20
346.141341
 30
0.0
 40
0.72
  1

100
AcDbText
  0
TEXT
  5
3CF
330
1E
100
AcDbEntity
  8
DIM
100
AcDbText
 10
538.953521
 20
110.139443
 30
0.0
 40
1.25
  1

100
AcDbText
  0
TEXT
  5
3D0
330
1E
100
AcDbEntity
  8
DIM
100
AcDbText
 10
540.016021
 20
106.045685
 30
0.0
 40
1.0
  1

100
AcDbText
  0
TEXT
  5
3D1
330
1E
100
AcDbEntity
  8
OBJECT
100
AcDbText
 10
540.8727650000001
 20
156.7423419999999
 30
0.0
 40
1.25
  1

100
AcDbText
  0
TEXT
  5
3D2
330
1E
100
AcDbEntity
  8
DIM
100
AcDbText
 10
743.953521
 20
110.139443
 30
0.0
 40
1.25
  1

100
AcDbText
  0
TEXT
  5
3D3
330
1E
100
AcDbEntity
  8
DIM
100
AcDbText
 10
745.0160209999999
 20
106.045685
 30
0.0
 40
1.0
  1

100
AcDbText
  0
TEXT
  5
3D4
330
1E
100
AcDbEntity
  8
OBJECT
100
AcDbText
 10
745.8727650000001
 20
156.7423419999999
 30
0.0
 40
1.25
  1

100
AcDbText
  0
TEXT
  5
3D5
330
1E
100
AcDbEntity
  8
DIM
100
AcDbText
 10
948.9535210000001
 20
110.139443
 30
0.0
 40
1.25
  1

100
AcDbText
  0
TEXT
  5
3D6
330
1E
100
AcDbEntity
  8
DIM
100
AcDbText
 10
950.0160210000002
 20
106.045685
 30
0.0
 40
1.0
  1

100
AcDbText
  0
TEXT
  5
3D7
330
1E
100
AcDbEntity
  8
DIM
100
AcDbText
 10
1112.953521
 20
110.139443
 30
0.0
 40
1.25
  1

100
AcDbText
  0
TEXT
  5
3D8
330
1E
100
AcDbEntity
  8
DIM
100
AcDbText
 10
1114.016021
 20
106.045685
 30
0.0
 40
1.0
  1

100
AcDbText
  0
TEXT
  5
3D9
330
1E
100
AcDbEntity
  8
OBJECT
100
AcDbText
 10
1114.872765
 20
156.7423419999999
 30
0.0
 40
1.25
  1

100
AcDbText
  0
TEXT
  5
3DA
330
1E
100
AcDbEntity
  8
DIM
100
AcDbText
 10
1112.953521
 20
110.139443
 30
0.0
 40
1.25
  1

100
AcDbText
  0
TEXT
  5
3DB
330
1E
100
AcDbEntity
  8
DIM
100
AcDbText
 10
1114.016021
 20
106.045685
 30
0.0
 40
1.0
  1

100
AcDbText
  0
TEXT
  5
3DC
330
1E
100
AcDbEntity
  8
OBJECT
100
AcDbText
 10
1114.872765
 20
156.7423419999999
 30
0.0
 40
1.25
  1

100
AcDbText
  0
TEXT
  5
3DD
330
1E
100
AcDbEntity
  8
DIM
100
AcDbText
 10
1130.920899
 20
295.06382
 30
0.0
 40
0.72
  1

100
AcDbText
  0
TEXT
  5
3DE
330
1E
100
AcDbEntity
  8
DIM
100
AcDbText
 10
1067.385022
 20
272.188554
 30
0.0
 40
0.72
  1

100
AcDbText
  0
TEXT
  5
3DF
330
1E
100
AcDbEntity
  8
DIM
100
AcDbText
 10
1218.297343
 20
223.066816
 30
0.0
 40
0.72
  1

100
AcDbText
  0
TEXT
  5
3E0
330
1E
100
AcDbEntity
  8
DIM
100
AcDbText
 10
1154.761466999999
 20
200.1915509999999
 30
0.0
 40
0.72
  1

100
AcDbText
  0
TEXT
  5
3E1
330
1E
100
AcDbEntity
  8
DIM
100
AcDbText
 10
1120.950698999999
 20
308.6787819999999
 30
0.0
 40
0.72
  1

100
AcDbText
  0
TEXT
  5
3E2
330
1E
100
AcDbEntity
  8
DIM
100
AcDbText
 10
1057.414821999999
 20
285.8035169999999
 30
0.0
 40
0.72
  1

100
AcDbText
  0
TEXT
  5
3E3
330
1E
100
AcDbEntity
  8
DIM
100
AcDbText
 10
1057.414821999999
 20
325.8035169999999
 30
0.0
 40
0.72
  1

100
AcDbText
  0
TEXT
  5
3E4
330
1E
100
AcDbEntity
  8
DIM
100
AcDbText
 10
1118.914822
 20
325.8035169999999
 30
0.0
 40
0.72
  1

100
AcDbText
  0
TEXT
  5
3E5
330
1E
100
AcDbEntity
  8
DIM
100
AcDbText
 10
743.953521
 20
110.139443
 30
0.0
 40
1.25
  1

100
AcDbText
  0
TEXT
  5
3E6
330
1E
100
AcDbEntity
  8
DIM
100
AcDbText
 10
745.0160209999999
 20
106.045685
 30
0.0
 40
1.0
  1

100
AcDbText
  0
TEXT
  5
3E7
330
1E
100
AcDbEntity
  8
OBJECT
100
AcDbText
 10
745.8727650000001
 20
156.7423419999999
 30
0.0
 40
1.25
  1

100
AcDbText
  0
TEXT
  5
3E8
330
1E
100
AcDbEntity
  8
DIM
100
AcDbText
 10
948.9535210000001
 20
110.139443
 30
0.0
 40
1.25
  1

100
AcDbText
  0
TEXT
  5
3E9
330
1E
100
AcDbEntity
  8
DIM
100
AcDbText
 10
950.0160210000002
 20
106.045685
 30
0.0
 40
1.0
  1

100
AcDbText
  0
TEXT
  5
3EA
330
1E
100
AcDbEntity
  8
DIM
100
AcDbText
 10
1112.953521
 20
110.139443
 30
0.0
 40
1.25
  1

100
AcDbText
  0
TEXT
  5
3EB
330
1E
100
AcDbEntity
  8
DIM
100
AcDbText
 10
1114.016021
 20
106.045685
 30
0.0
 40
1.0
  1

100
AcDbText
  0
TEXT
  5
3EC
330
1E
100
AcDbEntity
  8
OBJECT
100
AcDbText
 10
1114.872765
 20
156.7423419999999
 30
0.0
 40
1.25
  1

100
AcDbText
  0
TEXT
  5
3ED
330
1E
100
AcDbEntity
  8
DIM
100
AcDbText
 10
1112.953521
 20
110.139443
 30
0.0
 40
1.25
  1

100
AcDbText
  0
TEXT
  5
3EE
330
1E
100
AcDbEntity
  8
DIM
100
AcDbText
 10
1114.016021
 20
106.045685
 30
0.0
 40
1.0
  1

100
AcDbText
  0
TEXT
  5
3EF
330
1E
100
AcDbEntity
  8
OBJECT
100
AcDbText
 10
1114.872765
 20
156.7423419999999
 30
0.0
 40
1.25
  1

100
AcDbText
  0
TEXT
  5
3F0
330
1E
100
AcDbEntity
  8
DIM
100
AcDbText
 10
1130.920899
 20
295.06382
 30
0.0
 40
0.72
  1

100
AcDbText
  0
TEXT
  5
3F1
330
1E
100
AcDbEntity
  8
DIM
100
AcDbText
 10
1067.385022
 20
272.188554
 30
0.0
 40
0.72
  1

100
AcDbText
  0
TEXT
  5
3F2
330
1E
100
AcDbEntity
  8
DIM
100
AcDbText
 10
1218.297343
 20
223.066816
 30
0.0
 40
0.72
  1

100
AcDbText
  0
TEXT
  5
3F3
330
1E
100
AcDbEntity
  8
DIM
100
AcDbText
 10
1154.761466999999
 20
200.1915509999999
 30
0.0
 40
0.72
  1

100
AcDbText
  0
TEXT
  5
3F4
330
1E
100
AcDbEntity
  8
DIM
100
AcDbText
 10
1120.950698999999
 20
308.6787819999999
 30
0.0
 40
0.72
  1

100
AcDbText
  0
TEXT
  5
3F5
330
1E
100
AcDbEntity
  8
DIM
100
AcDbText
 10
1057.414821999999
 20
285.8035169999999
 30
0.0
 40
0.72
  1

100
AcDbText
  0
TEXT
  5
3F6
330
1E
100
AcDbEntity
  8
DIM
100
AcDbText
 10
1057.414821999999
 20
325.8035169999999
 30
0.0
 40
0.72
  1

100
AcDbText
  0
TEXT
  5
3F7
330
1E
100
AcDbEntity
  8
DIM
100
AcDbText
 10
1118.914822
 20
325.8035169999999
 30
0.0
 40
0.72
  1

100
AcDbText
  0
TEXT
  5
3F8
330
1E
100
AcDbEntity
  8
DIM
100
AcDbText
 10
723.453521
 20
110.139443
 30
0.0
 40
1.25
  1

100
AcDbText
  0
TEXT
  5
3F9
330
1E
100
AcDbEntity
  8
DIM
100
AcDbText
 10
724.516021
 20
106.045685
 30
0.0
 40
1.0
  1

100
AcDbText
  0
TEXT
  5
3FA
330
1E
100
AcDbEntity
  8
DIM
100
AcDbText
 10
887.4535210000001
 20
110.139443
 30
0.0
 40
1.25
  1

100
AcDbText
  0
TEXT
  5
3FB
330
1E
100
AcDbEntity
  8
DIM
100
AcDbText
 10
888.5160210000002
 20
106.045685
 30
0.0
 40
1.0
  1

100
AcDbText
  0
TEXT
  5
3FC
330
1E
100
AcDbEntity
  8
OBJECT
100
AcDbText
 10
889.372765
 20
156.7423419999999
 30
0.0
 40
1.25
  1

100
AcDbText
  0
TEXT
  5
3FD
330
1E
100
AcDbEntity
  8
DIM
100
AcDbText
 10
887.4535210000001
 20
110.139443
 30
0.0
 40
1.25
  1

100
AcDbText
  0
TEXT
  5
3FE
330
1E
100
AcDbEntity
  8
DIM
100
AcDbText
 10
888.5160210000002
 20
106.045685
 30
0.0
 40
1.0
  1

100
AcDbText
  0
TEXT
  5
3FF
330
1E
100
AcDbEntity
  8
OBJECT
100
AcDbText
 10
889.372765
 20
156.7423419999999
 30
0.0
 40
1.25
  1

100
AcDbText
  0
TEXT
  5
400
330
1E
100
AcDbEntity
  8
DIM
100
AcDbText
 10
905.4208990000001
 20
295.06382
 30
0.0
 40
0.72
  1

100
AcDbText
  0
TEXT
  5
401
330
1E
100
AcDbEntity
  8
DIM
100
AcDbText
 10
841.8850220000001
 20
272.188554
 30
0.0
 40
0.72
  1

100
AcDbText
  0
TEXT
  5
402
330
1E
100
AcDbEntity
  8
DIM
100
AcDbText
 10
992.7973429999999
 20
223.066816
 30
0.0
 40
0.72
  1

100
AcDbText
  0
TEXT
  5
403
330
1E
100
AcDbEntity
  8
DIM
100
AcDbText
 10
929.261467
 20
200.1915509999999
 30
0.0
 40
0.72
  1

100
AcDbText
  0
TEXT
  5
404
330
1E
100
AcDbEntity
  8
DIM
100
AcDbText
 10
895.450699
 20
308.6787819999999
 30
0.0
 40
0.72
  1

100
AcDbText
  0
TEXT
  5
405
330
1E
100
AcDbEntity
  8
DIM
100
AcDbText
 10
831.9148219999998
 20
285.8035169999999
 30
0.0
 40
0.72
  1

100
AcDbText
  0
TEXT
  5
406
330
1E
100
AcDbEntity
  8
DIM
100
AcDbText
 10
831.9148219999998
 20
325.8035169999999
 30
0.0
 40
0.72
  1

100
AcDbText
  0
TEXT
  5
407
330
1E
100
AcDbEntity
  8
DIM
100
AcDbText
 10
893.414822
 20
325.8035169999999
 30
0.0
 40
0.72
  1

100
AcDbText
  0
TEXT
  5
408
330
1E
100
AcDbEntity
  8
DIM
100
AcDbText
 10
743.953521
 20
110.139443
 30
0.0
 40
1.25
  1

100
AcDbText
  0
TEXT
  5
409
330
1E
100
AcDbEntity
  8
DIM
100
AcDbText
 10
745.0160209999999
 20
106.045685
 30
0.0
 40
1.0
  1

100
AcDbText
  0
TEXT
  5
40A
330
1E
100
AcDbEntity
  8
DIM
100
AcDbText
 10
907.9535210000001
 20
110.139443
 30
0.0
 40
1.25
  1

100
AcDbText
  0
TEXT
  5
40B
330
1E
100
AcDbEntity
  8
DIM
100
AcDbText
 10
909.0160210000002
 20
106.045685
 30
0.0
 40
1.0
  1

100
AcDbText
  0
TEXT
  5
40C
330
1E
100
AcDbEntity
  8
OBJECT
100
AcDbText
 10
909.872765
 20
156.7423419999999
 30
0.0
 40
1.25
  1

100
AcDbText
  0
TEXT
  5
40D
330
1E
100
AcDbEntity
  8
DIM
100
AcDbText
 10
907.9535210000001
 20
110.139443
 30
0.0
 40
1.25
  1

100
AcDbText
  0
TEXT
  5
40E
330
1E
100
AcDbEntity
  8
DIM
100
AcDbText
 10
909.0160210000002
 20
106.045685
 30
0.0
 40
1.0
  1

100
AcDbText
  0
TEXT
  5
40F
330
1E
100
AcDbEntity
  8
OBJECT
100
AcDbText
 10
909.872765
 20
156.7423419999999
 30
0.0
 40
1.25
  1

100
AcDbText
  0
TEXT
  5
410
330
1E
100
AcDbEntity
  8
DIM
100
AcDbText
 10
925.9208990000001
 20
295.06382
 30
0.0
 40
0.72
  1

100
AcDbText
  0
TEXT
  5
411
330
1E
100
AcDbEntity
  8
DIM
100
AcDbText
 10
862.3850220000001
 20
272.188554
 30
0.0
 40
0.72
  1

100
AcDbText
  0
TEXT
  5
412
330
1E
100
AcDbEntity
  8
DIM
100
AcDbText
 10
1013.297343
 20
223.066816
 30
0.0
 40
0.72
  1

100
AcDbText
  0
TEXT
  5
413
330
1E
100
AcDbEntity
  8
DIM
100
AcDbText
 10
949.761467
 20
200.1915509999999
 30
0.0
 40
0.72
  1

100
AcDbText
  0
TEXT
  5
414
330
1E
100
AcDbEntity
  8
DIM
100
AcDbText
 10
915.950699
 20
308.6787819999999
 30
0.0
 40
0.72
  1

100
AcDbText
  0
TEXT
  5
415
330
1E
100
AcDbEntity
  8
DIM
100
AcDbText
 10
852.414822
 20
285.8035169999999
 30
0.0
 40
0.72
  1

100
AcDbText
  0
TEXT
  5
416
330
1E
100
AcDbEntity
  8
DIM
100
AcDbText
 10
852.414822
 20
325.8035169999999
 30
0.0
 40
0.72
  1

100
AcDbText
  0
TEXT
  5
417
330
1E
100
AcDbEntity
  8
DIM
100
AcDbText
 10
913.914822
 20
325.8035169999999
 30
0.0
 40
0.72
  1

100
AcDbText
  0
TEXT
  5
418
330
1E
100
AcDbEntity
  8
DIM
100
AcDbText
 10
764.453521
 20
110.139443
 30
0.0
 40
1.25
  1

100
AcDbText
  0
TEXT
  5
419
330
1E
100
AcDbEntity
  8
DIM
100
AcDbText
 10
765.516021
 20
106.045685
 30
0.0
 40
1.0
  1

100
AcDbText
  0
TEXT
  5
41A
330
1E
100
AcDbEntity
  8
OBJECT
100
AcDbText
 10
766.3727650000001
 20
156.7423419999999
 30
0.0
 40
1.25
  1

100
AcDbText
  0
TEXT
  5
41B
330
1E
100
AcDbEntity
  8
DIM
100
AcDbText
 10
969.4535210000001
 20
110.139443
 30
0.0
 40
1.25
  1

100
AcDbText
  0
TEXT
  5
41C
330
1E
100
AcDbEntity
  8
DIM
100
AcDbText
 10
970.516021
 20
106.045685
 30
0.0
 40
1.0
  1

100
AcDbText
  0
TEXT
  5
41D
330
1E
100
AcDbEntity
  8
OBJECT
100
AcDbText
 10
971.372765
 20
156.7423419999999
 30
0.0
 40
1.25
  1

100
AcDbText
  0
TEXT
  5
41E
330
1E
100
AcDbEntity
  8
DIM
100
AcDbText
 10
1174.453521
 20
110.139443
 30
0.0
 40
1.25
  1

100
AcDbText
  0
TEXT
  5
41F
330
1E
100
AcDbEntity
  8
DIM
100
AcDbText
 10
1175.516021
 20
106.045685
 30
0.0
 40
1.0
  1

100
AcDbText
  0
TEXT
  5
420
330
1E
100
AcDbEntity
  8
DIM
100
AcDbText
 10
1338.453521
 20
110.139443
 30
0.0
 40
1.25
  1

100
AcDbText
  0
TEXT
  5
421
330
1E
100
AcDbEntity
  8
DIM
100
AcDbText
 10
1339.516021
 20
106.045685
 30
0.0
 40
1.0
  1

100
AcDbText
  0
TEXT
  5
422
330
1E
100
AcDbEntity
  8
OBJECT
100
AcDbText
 10
1340.372765
 20
156.7423419999999
 30
0.0
 40
1.25
  1

100
AcDbText
  0
TEXT
  5
423
330
1E
100
AcDbEntity
  8
DIM
100
AcDbText
 10
1338.453521
 20
110.139443
 30
0.0
 40
1.25
  1

100
AcDbText
  0
TEXT
  5
424
330
1E
100
AcDbEntity
  8
DIM
100
AcDbText
 10
1339.516021
 20
106.045685
 30
0.0
 40
1.0
  1

100
AcDbText
  0
TEXT
  5
425
330
1E
100
AcDbEntity
  8
OBJECT
100
AcDbText
 10
1340.372765
 20
156.7423419999999
 30
0.0
 40
1.25
  1

100
AcDbText
  0
TEXT
  5
426
330
1E
100
AcDbEntity
  8
DIM
100
AcDbText
 10
1356.420898999999
 20
295.06382
 30
0.0
 40
0.72
  1

100
AcDbText
  0
TEXT
  5
427
330
1E
100
AcDbEntity
  8
DIM
100
AcDbText
 10
1292.885022
 20
272.188554
 30
0.0
 40
0.72
  1

100
AcDbText
  0
TEXT
  5
428
330
1E
100
AcDbEntity
  8
DIM
100
AcDbText
 10
1443.797342999999
 20
223.066816
 30
0.0
 40
0.72
  1

100
AcDbText
  0
TEXT
  5
429
330
1E
100
AcDbEntity
  8
DIM
100
AcDbText
 10
1380.261467
 20
200.1915509999999
 30
0.0
 40
0.72
  1

100
AcDbText
  0
TEXT
  5
42A
330
1E
100
AcDbEntity
  8
DIM
100
AcDbText
 10
1346.450699
 20
308.6787819999999
 30
0.0
 40
0.72
  1

100
AcDbText
  0
TEXT
  5
42B
330
1E
100
AcDbEntity
  8
DIM
100
AcDbText
 10
1282.914822
 20
285.8035169999999
 30
0.0
 40
0.72
  1

100
AcDbText
  0
TEXT
  5
42C
330
1E
100
AcDbEntity
  8
DIM
100
AcDbText
 10
1282.914822
 20
325.8035169999999
 30
0.0
 40
0.72
  1

100
AcDbText
  0
TEXT
  5
42D
330
1E
100
AcDbEntity
  8
DIM
100
AcDbText
 10
1344.414822
 20
325.8035169999999
 30
0.0
 40
0.72
  1

100
AcDbText
  0
TEXT
  5
42E
330
1E
100
AcDbEntity
  8
DIM
100
AcDbText
 10
969.4535210000001
 20
110.139443
 30
0.0
 40
1.25
  1

100
AcDbText
  0
TEXT
  5
42F
330
1E
100
AcDbEntity
  8
DIM
100
AcDbText
 10
970.516021
 20
106.045685
 30
0.0
 40
1.0
  1

100
AcDbText
  0
TEXT
  5
430
330
1E
100
AcDbEntity
  8
OBJECT
100
AcDbText
 10
971.372765
 20
156.7423419999999
 30
0.0
 40
1.25
  1

100
AcDbText
  0
TEXT
  5
431
330
1E
100
AcDbEntity
  8
DIM
100
AcDbText
 10
1174.453521
 20
110.139443
 30
0.0
 40
1.25
  1

100
AcDbText
  0
TEXT
  5
432
330
1E
100
AcDbEntity
  8
DIM
100
AcDbText
 10
1175.516021
 20
106.045685
 30
0.0
 40
1.0
  1

100
AcDbText
  0
TEXT
  5
433
330
1E
100
AcDbEntity
  8
DIM
100
AcDbText
 10
1338.453521
 20
110.139443
 30
0.0
 40
1.25
  1

100
AcDbText
  0
TEXT
  5
434
330
1E
100
AcDbEntity
  8
DIM
100
AcDbText
 10
1339.516021
 20
106.045685
 30
0.0
 40
1.0
  1

100
AcDbText
  0
TEXT
  5
435
330
1E
100
AcDbEntity
  8
OBJECT
100
AcDbText
 10
1340.372765
 20
156.7423419999999
 30
0.0
 40
1.25
  1

100
AcDbText
  0
TEXT
  5
436
330
1E
100
AcDbEntity
  8
DIM
100
AcDbText
 10
1338.453521
 20
110.139443
 30
0.0
 40
1.25
  1

100
AcDbText
  0
TEXT
  5
437
330
1E
100
AcDbEntity
  8
DIM
100
AcDbText
 10
1339.516021
 20
106.045685
 30
0.0
 40
1.0
  1

100
AcDbText
  0
TEXT
  5
438
330
1E
100
AcDbEntity
  8
OBJECT
100
AcDbText
 10
1340.372765
 20
156.7423419999999
 30
0.0
 40
1.25
  1

100
AcDbText
  0
TEXT
  5
439
330
1E
100
AcDbEntity
  8
DIM
100
AcDbText
 10
1356.420898999999
 20
295.06382
 30
0.0
 40
0.72
  1

100
AcDbText
  0
TEXT
  5
43A
330
1E
100
AcDbEntity
  8
DIM
100
AcDbText
 10
1292.885022
 20
272.188554
 30
0.0
 40
0.72
  1

100
AcDbText
  0
TEXT
  5
43B
330
1E
100
AcDbEntity
  8
DIM
100
AcDbText
 10
1443.797342999999
 20
223.066816
 30
0.0
 40
0.72
  1

100
AcDbText
  0
TEXT
  5
43C
330
1E
100
AcDbEntity
  8
DIM
100
AcDbText
 10
1380.261467
 20
200.1915509999999
 30
0.0
 40
0.72
  1

100
AcDbText
  0
TEXT
  5
43D
330
1E
100
AcDbEntity
  8
DIM
100
AcDbText
 10
1346.450699
 20
308.6787819999999
 30
0.0
 40
0.72
  1

100
AcDbText
  0
TEXT
  5
43E
330
1E
100
AcDbEntity
  8
DIM
100
AcDbText
 10
1282.914822
 20
285.8035169999999
 30
0.0
 40
0.72
  1

100
AcDbText
  0
TEXT
  5
43F
330
1E
100
AcDbEntity
  8
DIM
100
AcDbText
 10
1282.914822
 20
325.8035169999999
 30
0.0
 40
0.72
  1

100
AcDbText
  0
TEXT
  5
440
330
1E
100
AcDbEntity
  8
DIM
100
AcDbText
 10
1344.414822
 20
325.8035169999999
 30
0.0
 40
0.72
  1

100
AcDbText
  0
TEXT
  5
441
330
1E
100
AcDbEntity
  8
DIM
100
AcDbText
 10
948.9535210000001
 20
110.139443
 30
0.0
 40
1.25
  1

100
AcDbText
  0
TEXT
  5
442
330
1E
100
AcDbEntity
  8
DIM
100
AcDbText
 10
950.0160210000002
 20
106.045685
 30
0.0
 40
1.0
  1

100
AcDbText
  0
TEXT
  5
443
330
1E
100
AcDbEntity
  8
DIM
100
AcDbText
 10
1112.953521
 20
110.139443
 30
0.0
 40
1.25
  1

100
AcDbText
  0
TEXT
  5
444
330
1E
100
AcDbEntity
  8
DIM
100
AcDbText
 10
1114.016021
 20
106.045685
 30
0.0
 40
1.0
  1

100
AcDbText
  0
TEXT
  5
445
330
1E
100
AcDbEntity
  8
OBJECT
100
AcDbText
 10
1114.872765
 20
156.7423419999999
 30
0.0
 40
1.25
  1

100
AcDbText
  0
TEXT
  5
446
330
1E
100
AcDbEntity
  8
DIM
100
AcDbText
 10
1112.953521
 20
110.139443
 30
0.0
 40
1.25
  1

100
AcDbText
  0
TEXT
  5
447
330
1E
100
AcDbEntity
  8
DIM
100
AcDbText
 10
1114.016021
 20
106.045685
 30
0.0
 40
1.0
  1

100
AcDbText
  0
TEXT
  5
448
330
1E
100
AcDbEntity
  8
OBJECT
100
AcDbText
 10
1114.872765
 20
156.7423419999999
 30
0.0
 40
1.25
  1

100
AcDbText
  0
TEXT
  5
449
330
1E
100
AcDbEntity
  8
DIM
100
AcDbText
 10
1130.920899
 20
295.06382
 30
0.0
 40
0.72
  1

100
AcDbText
  0
TEXT
  5
44A
330
1E
100
AcDbEntity
  8
DIM
100
AcDbText
 10
1067.385022
 20
272.188554
 30
0.0
 40
0.72
  1

100
AcDbText
  0
TEXT
  5
44B
330
1E
100
AcDbEntity
  8
DIM
100
AcDbText
 10
1218.297343
 20
223.066816
 30
0.0
 40
0.72
  1

100
AcDbText
  0
TEXT
  5
44C
330
1E
100
AcDbEntity
  8
DIM
100
AcDbText
 10
1154.761466999999
 20
200.1915509999999
 30
0.0
 40
0.72
  1

100
AcDbText
  0
TEXT
  5
44D
330
1E
100
AcDbEntity
  8
DIM
100
AcDbText
 10
1120.950698999999
 20
308.6787819999999
 30
0.0
 40
0.72
  1

100
AcDbText
  0
TEXT
  5
44E
330
1E
100
AcDbEntity
  8
DIM
100
AcDbText
 10
1057.414821999999
 20
285.8035169999999
 30
0.0
 40
0.72
  1

100
AcDbText
  0
TEXT
  5
44F
330
1E
100
AcDbEntity
  8
DIM
100
AcDbText
 10
1057.414821999999
 20
325.8035169999999
 30
0.0
 40
0.72
  1

100
AcDbText
  0
TEXT
  5
450
330
1E
100
AcDbEntity
  8
DIM
100
AcDbText
 10
1118.914822
 20
325.8035169999999
 30
0.0
 40
0.72
  1

100
AcDbText
  0
TEXT
  5
451
330
1E
100
AcDbEntity
  8
DIM
100
AcDbText
 10
969.4535210000001
 20
110.139443
 30
0.0
 40
1.25
  1

100
AcDbText
  0
TEXT
  5
452
330
1E
100
AcDbEntity
  8
DIM
100
AcDbText
 10
970.516021
 20
106.045685
 30
0.0
 40
1.0
  1

100
AcDbText
  0
TEXT
  5
453
330
1E
100
AcDbEntity
  8
DIM
100
AcDbText
 10
1133.453521
 20
110.139443
 30
0.0
 40
1.25
  1

100
AcDbText
  0
TEXT
  5
454
330
1E
100
AcDbEntity
  8
DIM
100
AcDbText
 10
1134.516021
 20
106.045685
 30
0.0
 40
1.0
  1

100
AcDbText
  0
TEXT
  5
455
330
1E
100
AcDbEntity
  8
OBJECT
100
AcDbText
 10
1135.372765
 20
156.7423419999999
 30
0.0
 40
1.25
  1

100
AcDbText
  0
TEXT
  5
456
330
1E
100
AcDbEntity
  8
DIM
100
AcDbText
 10
1133.453521
 20
110.139443
 30
0.0
 40
1.25
  1

100
AcDbText
  0
TEXT
  5
457
330
1E
100
AcDbEntity
  8
DIM
100
AcDbText
 10
1134.516021
 20
106.045685
 30
0.0
 40
1.0
  1

100
AcDbText
  0
TEXT
  5
458
330
1E
100
AcDbEntity
  8
OBJECT
100
AcDbText
 10
1135.372765
 20
156.7423419999999
 30
0.0
 40
1.25
  1

100
AcDbText
  0
TEXT
  5
459
330
1E
100
AcDbEntity
  8
DIM
100
AcDbText
 10
1151.420899
 20
295.06382
 30
0.0
 40
0.72
  1

100
AcDbText
  0
TEXT
  5
45A
330
1E
100
AcDbEntity
  8
DIM
100
AcDbText
 10
1087.885022
 20
272.188554
 30
0.0
 40
0.72
  1

100
AcDbText
  0
TEXT
  5
45B
330
1E
100
AcDbEntity
  8
DIM
100
AcDbText
 10
1238.797343
 20
223.066816
 30
0.0
 40
0.72
  1

100
AcDbText
  0
TEXT
  5
45C
330
1E
100
AcDbEntity
  8
DIM
100
AcDbText
 10
1175.261467
 20
200.1915509999999
 30
0.0
 40
0.72
  1

100
AcDbText
  0
TEXT
  5
45D
330
1E
100
AcDbEntity
  8
DIM
100
AcDbText
 10
1141.450698999999
 20
308.6787819999999
 30
0.0
 40
0.72
  1

100
AcDbText
  0
TEXT
  5
45E
330
1E
100
AcDbEntity
  8
DIM
100
AcDbText
 10
1077.914822
 20
285.8035169999999
 30
0.0
 40
0.72
  1

100
AcDbText
  0
TEXT
  5
45F
330
1E
100
AcDbEntity
  8
DIM
100
AcDbText
 10
1077.914822
 20
325.8035169999999
 30
0.0
 40
0.72
  1

100
AcDbText
  0
TEXT
  5
460
330
1E
100
AcDbEntity
  8
DIM
100
AcDbText
 10
1139.414821999999
 20
325.8035169999999
 30
0.0
 40
0.72
  1

100
AcDbText
  0
TEXT
  5
461
330
1E
100
AcDbEntity
  8
DIM
100
AcDbText
 10
969.4535210000001
 20
110.139443
 30
0.0
 40
1.25
  1

100
AcDbText
  0
TEXT
  5
462
330
1E
100
AcDbEntity
  8
DIM
100
AcDbText
 10
970.516021
 20
106.045685
 30
0.0
 40
1.0
  1

100
AcDbText
  0
TEXT
  5
463
330
1E
100
AcDbEntity
  8
OBJECT
100
AcDbText
 10
971.372765
 20
156.7423419999999
 30
0.0
 40
1.25
  1

100
AcDbText
  0
TEXT
  5
464
330
1E
100
AcDbEntity
  8
DIM
100
AcDbText
 10
1174.453521
 20
110.139443
 30
0.0
 40
1.25
  1

100
AcDbText
  0
TEXT
  5
465
330
1E
100
AcDbEntity
  8
DIM
100
AcDbText
 10
1175.516021
 20
106.045685
 30
0.0
 40
1.0
  1

100
AcDbText
  0
TEXT
  5
466
330
1E
100
AcDbEntity
  8
DIM
100
AcDbText
 10
1338.453521
 20
110.139443
 30
0.0
 40
1.25
  1

100
AcDbText
  0
TEXT
  5
467
330
1E
100
AcDbEntity
  8
DIM
100
AcDbText
 10
1339.516021
 20
106.045685
 30
0.0
 40
1.0
  1

100
AcDbText
  0
TEXT
  5
468
330
1E
100
AcDbEntity
  8
OBJECT
100
AcDbText
 10
1340.372765
 20
156.7423419999999
 30
0.0
 40
1.25
  1

100
AcDbText
  0
TEXT
  5
469
330
1E
100
AcDbEntity
  8
DIM
100
AcDbText
 10
1338.453521
 20
110.139443
 30
0.0
 40
1.25
  1

100
AcDbText
  0
TEXT
  5
46A
330
1E
100
AcDbEntity
  8
DIM
100
AcDbText
 10
1339.516021
 20
106.045685
 30
0.0
 40
1.0
  1

100
AcDbText
  0
TEXT
  5
46B
330
1E
100
AcDbEntity
  8
OBJECT
100
AcDbText
 10
1340.372765
 20
156.7423419999999
 30
0.0
 40
1.25
  1

100
AcDbText
  0
TEXT
  5
46C
330
1E
100
AcDbEntity
  8
DIM
100
AcDbText
 10
1356.420898999999
 20
295.06382
 30
0.0
 40
0.72
  1

100
AcDbText
  0
TEXT
  5
46D
330
1E
100
AcDbEntity
  8
DIM
100
AcDbText
 10
1292.885022
 20
272.188554
 30
0.0
 40
0.72
  1

100
AcDbText
  0
TEXT
  5
46E
330
1E
100
AcDbEntity
  8
DIM
100
AcDbText
 10
1443.797342999999
 20
223.066816
 30
0.0
 40
0.72
  1

100
AcDbText
  0
TEXT
  5
46F
330
1E
100
AcDbEntity
  8
DIM
100
AcDbText
 10
1380.261467
 20
200.1915509999999
 30
0.0
 40
0.72
  1

100
AcDbText
  0
TEXT
  5
470
330
1E
100
AcDbEntity
  8
DIM
100
AcDbText
 10
1346.450699
 20
308.6787819999999
 30
0.0
 40
0.72
  1

100
AcDbText
  0
TEXT
  5
471
330
1E
100
AcDbEntity
  8
DIM
100
AcDbText
 10
1282.914822
 20
285.8035169999999
 30
0.0
 40
0.72
  1

100
AcDbText
  0
TEXT
  5
472
330
1E
100
AcDbEntity
  8
DIM
100
AcDbText
 10
1282.914822
 20
325.8035169999999
 30
0.0
 40
0.72
  1

100
AcDbText
  0
TEXT
  5
473
330
1E
100
AcDbEntity
  8
DIM
100
AcDbText
 10
1344.414822
 20
325.8035169999999
 30
0.0
 40
0.72
  1

100
AcDbText
  0
TEXT
  5
474
330
1E
100
AcDbEntity
  8
DIM
100
AcDbText
 10
1133.453521
 20
110.139443
 30
0.0
 40
1.25
  1

100
AcDbText
  0
TEXT
  5
475
330
1E
100
AcDbEntity
  8
DIM
100
AcDbText
 10
1134.516021
 20
106.045685
 30
0.0
 40
1.0
  1

100
AcDbText
  0
TEXT
  5
476
330
1E
100
AcDbEntity
  8
OBJECT
100
AcDbText
 10
1135.372765
 20
156.7423419999999
 30
0.0
 40
1.25
  1

100
AcDbText
  0
TEXT
  5
477
330
1E
100
AcDbEntity
  8
DIM
100
AcDbText
 10
1338.453521
 20
110.139443
 30
0.0
 40
1.25
  1

100
AcDbText
  0
TEXT
  5
478
330
1E
100
AcDbEntity
  8
DIM
100
AcDbText
 10
1339.516021
 20
106.045685
 30
0.0
 40
1.0
  1

100
AcDbText
  0
TEXT
  5
479
330
1E
100
AcDbEntity
  8
OBJECT
100
AcDbText
 10
1340.372765
 20
156.7423419999999
 30
0.0
 40
1.25
  1

100
AcDbText
  0
TEXT
  5
47A
330
1E
100
AcDbEntity
  8
DIM
100
AcDbText
 10
1543.453521
 20
110.139443
 30
0.0
 40
1.25
  1

100
AcDbText
  0
TEXT
  5
47B
330
1E
100
AcDbEntity
  8
DIM
100
AcDbText
 10
1544.516021
 20
106.045685
 30
0.0
 40
1.0
  1

100
AcDbText
  0
TEXT
  5
47C
330
1E
100
AcDbEntity
  8
DIM
100
AcDbText
 10
1707.453521
 20
110.139443
 30
0.0
 40
1.25
  1

100
AcDbText
  0
TEXT
  5
47D
330
1E
100
AcDbEntity
  8
DIM
100
AcDbText
 10
1708.516021
 20
106.045685
 30
0.0
 40
1.0
  1

100
AcDbText
  0
TEXT
  5
47E
330
1E
100
AcDbEntity
  8
OBJECT
100
AcDbText
 10
1709.372764999999
 20
156.7423419999999
 30
0.0
 40
1.25
  1

100
AcDbText
  0
TEXT
  5
47F
330
1E
100
AcDbEntity
  8
DIM
100
AcDbText
 10
1707.453521
 20
110.139443
 30
0.0
 40
1.25
  1

100
AcDbText
  0
TEXT
  5
480
330
1E
100
AcDbEntity
  8
DIM
100
AcDbText
 10
1708.516021
 20
106.045685
 30
0.0
 40
1.0
  1

100
AcDbText
  0
TEXT
  5
481
330
1E
100
AcDbEntity
  8
OBJECT
100
AcDbText
 10
1709.372764999999
 20
156.7423419999999
 30
0.0
 40
1.25
  1

100
AcDbText
  0
TEXT
  5
482
330
1E
100
AcDbEntity
  8
DIM
100
AcDbText
 10
1725.420898999999
 20
295.06382
 30
0.0
 40
0.72
  1

100
AcDbText
  0
TEXT
  5
483
330
1E
100
AcDbEntity
  8
DIM
100
AcDbText
 10
1661.885022
 20
272.188554
 30
0.0
 40
0.72
  1

100
AcDbText
  0
TEXT
  5
484
330
1E
100
AcDbEntity
  8
DIM
100
AcDbText
 10
1812.797343
 20
223.066816
 30
0.0
 40
0.72
  1

100
AcDbText
  0
TEXT
  5
485
330
1E
100
AcDbEntity
  8
DIM
100
AcDbText
 10
1749.261467
 20
200.1915509999999
 30
0.0
 40
0.72
  1

100
AcDbText
  0
TEXT
  5
486
330
1E
100
AcDbEntity
  8
DIM
100
AcDbText
 10
1715.450698999999
 20
308.6787819999999
 30
0.0
 40
0.72
  1

100
AcDbText
  0
TEXT
  5
487
330
1E
100
AcDbEntity
  8
DIM
100
AcDbText
 10
1651.914821999999
 20
285.8035169999999
 30
0.0
 40
0.72
  1

100
AcDbText
  0
TEXT
  5
488
330
1E
100
AcDbEntity
  8
DIM
100
AcDbText
 10
1651.914821999999
 20
325.8035169999999
 30
0.0
 40
0.72
  1

100
AcDbText
  0
TEXT
  5
489
330
1E
100
AcDbEntity
  8
DIM
100
AcDbText
 10
1713.414822
 20
325.8035169999999
 30
0.0
 40
0.72
  1

100
AcDbText
  0
TEXT
  5
48A
330
1E
100
AcDbEntity
  8
DIM
100
AcDbText
 10
1338.453521
 20
110.139443
 30
0.0
 40
1.25
  1

100
AcDbText
  0
TEXT
  5
48B
330
1E
100
AcDbEntity
  8
DIM
100
AcDbText
 10
1339.516021
 20
106.045685
 30
0.0
 40
1.0
  1

100
AcDbText
  0
TEXT
  5
48C
330
1E
100
AcDbEntity
  8
OBJECT
100
AcDbText
 10
1340.372765
 20
156.7423419999999
 30
0.0
 40
1.25
  1

100
AcDbText
  0
TEXT
  5
48D
330
1E
100
AcDbEntity
  8
DIM
100
AcDbText
 10
1543.453521
 20
110.139443
 30
0.0
 40
1.25
  1

100
AcDbText
  0
TEXT
  5
48E
330
1E
100
AcDbEntity
  8
DIM
100
AcDbText
 10
1544.516021
 20
106.045685
 30
0.0
 40
1.0
  1

100
AcDbText
  0
TEXT
  5
48F
330
1E
100
AcDbEntity
  8
DIM
100
AcDbText
 10
1707.453521
 20
110.139443
 30
0.0
 40
1.25
  1

100
AcDbText
  0
TEXT
  5
490
330
1E
100
AcDbEntity
  8
DIM
100
AcDbText
 10
1708.516021
 20
106.045685
 30
0.0
 40
1.0
  1

100
AcDbText
  0
TEXT
  5
491
330
1E
100
AcDbEntity
  8
OBJECT
100
AcDbText
 10
1709.372764999999
 20
156.7423419999999
 30
0.0
 40
1.25
  1

100
AcDbText
  0
TEXT
  5
492
330
1E
100
AcDbEntity
  8
DIM
100
AcDbText
 10
1707.453521
 20
110.139443
 30
0.0
 40
1.25
  1

100
AcDbText
  0
TEXT
  5
493
330
1E
100
AcDbEntity
  8
DIM
100
AcDbText
 10
1708.516021
 20
106.045685
 30
0.0
 40
1.0
  1

100
AcDbText
  0
TEXT
  5
494
330
1E
100
AcDbEntity
  8
OBJECT
100
AcDbText
 10
1709.372764999999
 20
156.7423419999999
 30
0.0
 40
1.25
  1

100
AcDbText
  0
TEXT
  5
495
330
1E
100
AcDbEntity
  8
DIM
100
AcDbText
 10
1725.420898999999
 20
295.06382
 30
0.0
 40
0.72
  1

100
AcDbText
  0
TEXT
  5
496
330
1E
100
AcDbEntity
  8
DIM
100
AcDbText
 10
1661.885022
 20
272.188554
 30
0.0
 40
0.72
  1

100
AcDbText
  0
TEXT
  5
497
330
1E
100
AcDbEntity
  8
DIM
100
AcDbText
 10
1812.797343
 20
223.066816
 30
0.0
 40
0.72
  1

100
AcDbText
  0
TEXT
  5
498
330
1E
100
AcDbEntity
  8
DIM
100
AcDbText
 10
1749.261467
 20
200.1915509999999
 30
0.0
 40
0.72
  1

100
AcDbText
  0
TEXT
  5
499
330
1E
100
AcDbEntity
  8
DIM
100
AcDbText
 10
1715.450698999999
 20
308.6787819999999
 30
0.0
 40
0.72
  1

100
AcDbText
  0
TEXT
  5
49A
330
1E
100
AcDbEntity
  8
DIM
100
AcDbText
 10
1651.914821999999
 20
285.8035169999999
 30
0.0
 40
0.72
  1

100
AcDbText
  0
TEXT
  5
49B
330
1E
100
AcDbEntity
  8
DIM
100
AcDbText
 10
1651.914821999999
 20
325.8035169999999
 30
0.0
 40
0.72
  1

100
AcDbText
  0
TEXT
  5
49C
330
1E
100
AcDbEntity
  8
DIM
100
AcDbText
 10
1713.414822
 20
325.8035169999999
 30
0.0
 40
0.72
  1

100
AcDbText
  0
TEXT
  5
49D
330
1E
100
AcDbEntity
  8
DIM
100
AcDbText
 10
1317.953521
 20
110.139443
 30
0.0
 40
1.25
  1

100
AcDbText
  0
TEXT
  5
49E
330
1E
100
AcDbEntity
  8
DIM
100
AcDbText
 10
1319.016021
 20
106.045685
 30
0.0
 40
1.0
  1

100
AcDbText
  0
TEXT
  5
49F
330
1E
100
AcDbEntity
  8
DIM
100
AcDbText
 10
1481.953521
 20
110.139443
 30
0.0
 40
1.25
  1

100
AcDbText
  0
TEXT
  5
4A0
330
1E
100
AcDbEntity
  8
DIM
100
AcDbText
 10
1483.016021
 20
106.045685
 30
0.0
 40
1.0
  1

100
AcDbText
  0
TEXT
  5
4A1
330
1E
100
AcDbEntity
  8
OBJECT
100
AcDbText
 10
1483.872765
 20
156.7423419999999
 30
0.0
 40
1.25
  1

100
AcDbText
  0
TEXT
  5
4A2
330
1E
100
AcDbEntity
  8
DIM
100
AcDbText
 10
1481.953521
 20
110.139443
 30
0.0
 40
1.25
  1

100
AcDbText
  0
TEXT
  5
4A3
330
1E
100
AcDbEntity
  8
DIM
100
AcDbText
 10
1483.016021
 20
106.045685
 30
0.0
 40
1.0
  1

100
AcDbText
  0
TEXT
  5
4A4
330
1E
100
AcDbEntity
  8
OBJECT
100
AcDbText
 10
1483.872765
 20
156.7423419999999
 30
0.0
 40
1.25
  1

100
AcDbText
  0
TEXT
  5
4A5
330
1E
100
AcDbEntity
  8
DIM
100
AcDbText
 10
1499.920899
 20
295.06382
 30
0.0
 40
0.72
  1

100
AcDbText
  0
TEXT
  5
4A6
330
1E
100
AcDbEntity
  8
DIM
100
AcDbText
 10
1436.385022
 20
272.188554
 30
0.0
 40
0.72
  1

100
AcDbText
  0
TEXT
  5
4A7
330
1E
100
AcDbEntity
  8
DIM
100
AcDbText
 10
1587.297343
 20
223.066816
 30
0.0
 40
0.72
  1

100
AcDbText
  0
TEXT
  5
4A8
330
1E
100
AcDbEntity
  8
DIM
100
AcDbText
 10
1523.761467
 20
200.1915509999999
 30
0.0
 40
0.72
  1

100
AcDbText
  0
TEXT
  5
4A9
330
1E
100
AcDbEntity
  8
DIM
100
AcDbText
 10
1489.950699
 20
308.6787819999999
 30
0.0
 40
0.72
  1

100
AcDbText
  0
TEXT
  5
4AA
330
1E
100
AcDbEntity
  8
DIM
100
AcDbText
 10
1426.414821999999
 20
285.8035169999999
 30
0.0
 40
0.72
  1

100
AcDbText
  0
TEXT
  5
4AB
330
1E
100
AcDbEntity
  8
DIM
100
AcDbText
 10
1426.414821999999
 20
325.8035169999999
 30
0.0
 40
0.72
  1

100
AcDbText
  0
TEXT
  5
4AC
330
1E
100
AcDbEntity
  8
DIM
100
AcDbText
 10
1487.914822
 20
325.8035169999999
 30
0.0
 40
0.72
  1

100
AcDbText
  0
TEXT
  5
4AD
330
1E
100
AcDbEntity
  8
DIM
100
AcDbText
 10
1133.453521
 20
110.139443
 30
0.0
 40
1.25
  1

100
AcDbText
  0
TEXT
  5
4AE
330
1E
100
AcDbEntity
  8
DIM
100
AcDbText
 10
1134.516021
 20
106.045685
 30
0.0
 40
1.0
  1

100
AcDbText
  0
TEXT
  5
4AF
330
1E
100
AcDbEntity
  8
DIM
100
AcDbText
 10
1297.453521
 20
110.139443
 30
0.0
 40
1.25
  1

100
AcDbText
  0
TEXT
  5
4B0
330
1E
100
AcDbEntity
  8
DIM
100
AcDbText
 10
1298.516021
 20
106.045685
 30
0.0
 40
1.0
  1

100
AcDbText
  0
TEXT
  5
4B1
330
1E
100
AcDbEntity
  8
OBJECT
100
AcDbText
 10
1299.372765
 20
156.7423419999999
 30
0.0
 40
1.25
  1

100
AcDbText
  0
TEXT
  5
4B2
330
1E
100
AcDbEntity
  8
DIM
100
AcDbText
 10
1297.453521
 20
110.139443
 30
0.0
 40
1.25
  1

100
AcDbText
  0
TEXT
  5
4B3
330
1E
100
AcDbEntity
  8
DIM
100
AcDbText
 10
1298.516021
 20
106.045685
 30
0.0
 40
1.0
  1

100
AcDbText
  0
TEXT
  5
4B4
330
1E
100
AcDbEntity
  8
OBJECT
100
AcDbText
 10
1299.372765
 20
156.7423419999999
 30
0.0
 40
1.25
  1

100
AcDbText
  0
TEXT
  5
4B5
330
1E
100
AcDbEntity
  8
DIM
100
AcDbText
 10
1315.420899
 20
295.06382
 30
0.0
 40
0.72
  1

100
AcDbText
  0
TEXT
  5
4B6
330
1E
100
AcDbEntity
  8
DIM
100
AcDbText
 10
1251.885022
 20
272.188554
 30
0.0
 40
0.72
  1

100
AcDbText
  0
TEXT
  5
4B7
330
1E
100
AcDbEntity
  8
DIM
100
AcDbText
 10
1402.797343
 20
223.066816
 30
0.0
 40
0.72
  1

100
AcDbText
  0
TEXT
  5
4B8
330
1E
100
AcDbEntity
  8
DIM
100
AcDbText
 10
1339.261467
 20
200.1915509999999
 30
0.0
 40
0.72
  1

100
AcDbText
  0
TEXT
  5
4B9
330
1E
100
AcDbEntity
  8
DIM
100
AcDbText
 10
1305.450699
 20
308.6787819999999
 30
0.0
 40
0.72
  1

100
AcDbText
  0
TEXT
  5
4BA
330
1E
100
AcDbEntity
  8
DIM
100
AcDbText
 10
1241.914822
 20
285.8035169999999
 30
0.0
 40
0.72
  1

100
AcDbText
  0
TEXT
  5
4BB
330
1E
100
AcDbEntity
  8
DIM
100
AcDbText
 10
1241.914822
 20
325.8035169999999
 30
0.0
 40
0.72
  1

100
AcDbText
  0
TEXT
  5
4BC
330
1E
100
AcDbEntity
  8
DIM
100
AcDbText
 10
1303.414822
 20
325.8035169999999
 30
0.0
 40
0.72
  1

100
AcDbText
  0
TEXT
  5
4BD
330
1E
100
AcDbEntity
  8
DIM
100
AcDbText
 10
1153.953521
 20
110.139443
 30
0.0
 40
1.25
  1

100
AcDbText
  0
TEXT
  5
4BE
330
1E
100
AcDbEntity
  8
DIM
100
AcDbText
 10
1155.016021
 20
106.045685
 30
0.0
 40
1.0
  1

100
AcDbText
  0
TEXT
  5
4BF
330
1E
100
AcDbEntity
  8
OBJECT
100
AcDbText
 10
1155.872765
 20
156.7423419999999
 30
0.0
 40
1.25
  1

100
AcDbText
  0
TEXT
  5
4C0
330
1E
100
AcDbEntity
  8
DIM
100
AcDbText
 10
1358.953521
 20
110.139443
 30
0.0
 40
1.25
  1

100
AcDbText
  0
TEXT
  5
4C1
330
1E
100
AcDbEntity
  8
DIM
100
AcDbText
 10
1360.016021
 20
106.045685
 30
0.0
 40
1.0
  1

100
AcDbText
  0
TEXT
  5
4C2
330
1E
100
AcDbEntity
  8
DIM
100
AcDbText
 10
1522.953521
 20
110.139443
 30
0.0
 40
1.25
  1

100
AcDbText
  0
TEXT
  5
4C3
330
1E
100
AcDbEntity
  8
DIM
100
AcDbText
 10
1524.016021
 20
106.045685
 30
0.0
 40
1.0
  1

100
AcDbText
  0
TEXT
  5
4C4
330
1E
100
AcDbEntity
  8
OBJECT
100
AcDbText
 10
1524.872765
 20
156.7423419999999
 30
0.0
 40
1.25
  1

100
AcDbText
  0
TEXT
  5
4C5
330
1E
100
AcDbEntity
  8
DIM
100
AcDbText
 10
1522.953521
 20
110.139443
 30
0.0
 40
1.25
  1

100
AcDbText
  0
TEXT
  5
4C6
330
1E
100
AcDbEntity
  8
DIM
100
AcDbText
 10
1524.016021
 20
106.045685
 30
0.0
 40
1.0
  1

100
AcDbText
  0
TEXT
  5
4C7
330
1E
100
AcDbEntity
  8
OBJECT
100
AcDbText
 10
1524.872765
 20
156.7423419999999
 30
0.0
 40
1.25
  1

100
AcDbText
  0
TEXT
  5
4C8
330
1E
100
AcDbEntity
  8
DIM
100
AcDbText
 10
1540.920899
 20
295.06382
 30
0.0
 40
0.72
  1

100
AcDbText
  0
TEXT
  5
4C9
330
1E
100
AcDbEntity
  8
DIM
100
AcDbText
 10
1477.385022
 20
272.188554
 30
0.0
 40
0.72
  1

100
AcDbText
  0
TEXT
  5
4CA
330
1E
100
AcDbEntity
  8
DIM
100
AcDbText
 10
1628.297342999999
 20
223.066816
 30
0.0
 40
0.72
  1

100
AcDbText
  0
TEXT
  5
4CB
330
1E
100
AcDbEntity
  8
DIM
100
AcDbText
 10
1564.761467
 20
200.1915509999999
 30
0.0
 40
0.72
  1

100
AcDbText
  0
TEXT
  5
4CC
330
1E
100
AcDbEntity
  8
DIM
100
AcDbText
 10
1530.950699
 20
308.6787819999999
 30
0.0
 40
0.72
  1

100
AcDbText
  0
TEXT
  5
4CD
330
1E
100
AcDbEntity
  8
DIM
100
AcDbText
 10
1467.414822
 20
285.8035169999999
 30
0.0
 40
0.72
  1

100
AcDbText
  0
TEXT
  5
4CE
330
1E
100
AcDbEntity
  8
DIM
100
AcDbText
 10
1467.414822
 20
325.8035169999999
 30
0.0
 40
0.72
  1

100
AcDbText
  0
TEXT
  5
4CF
330
1E
100
AcDbEntity
  8
DIM
100
AcDbText
 10
1528.914821999999
 20
325.8035169999999
 30
0.0
 40
0.72
  1

100
AcDbText
  0
TEXT
  5
4D0
330
1E
100
AcDbEntity
  8
DIM
100
AcDbText
 10
1317.953521
 20
110.139443
 30
0.0
 40
1.25
  1

100
AcDbText
  0
TEXT
  5
4D1
330
1E
100
AcDbEntity
  8
DIM
100
AcDbText
 10
1319.016021
 20
106.045685
 30
0.0
 40
1.0
  1

100
AcDbText
  0
TEXT
  5
4D2
330
1E
100
AcDbEntity
  8
OBJECT
100
AcDbText
 10
1319.872765
 20
156.7423419999999
 30
0.0
 40
1.25
  1

100
AcDbText
  0
TEXT
  5
4D3
330
1E
100
AcDbEntity
  8
DIM
100
AcDbText
 10
1522.953521
 20
110.139443
 30
0.0
 40
1.25
  1

100
AcDbText
  0
TEXT
  5
4D4
330
1E
100
AcDbEntity
  8
DIM
100
AcDbText
 10
1524.016021
 20
106.045685
 30
0.0
 40
1.0
  1

100
AcDbText
  0
TEXT
  5
4D5
330
1E
100
AcDbEntity
  8
OBJECT
100
AcDbText
 10
1524.872765
 20
156.7423419999999
 30
0.0
 40
1.25
  1

100
AcDbText
  0
TEXT
  5
4D6
330
1E
100
AcDbEntity
  8
DIM
100
AcDbText
 10
1727.953521
 20
110.139443
 30
0.0
 40
1.25
  1

100
AcDbText
  0
TEXT
  5
4D7
330
1E
100
AcDbEntity
  8
DIM
100
AcDbText
 10
1729.016021
 20
106.045685
 30
0.0
 40
1.0
  1

100
AcDbText
  0
TEXT
  5
4D8
330
1E
100
AcDbEntity
  8
DIM
100
AcDbText
 10
1891.953521
 20
110.139443
 30
0.0
 40
1.25
  1

100
AcDbText
  0
TEXT
  5
4D9
330
1E
100
AcDbEntity
  8
DIM
100
AcDbText
 10
1893.016021
 20
106.045685
 30
0.0
 40
1.0
  1

100
AcDbText
  0
TEXT
  5
4DA
330
1E
100
AcDbEntity
  8
OBJECT
100
AcDbText
 10
1893.872765
 20
156.7423419999999
 30
0.0
 40
1.25
  1

100
AcDbText
  0
TEXT
  5
4DB
330
1E
100
AcDbEntity
  8
DIM
100
AcDbText
 10
1891.953521
 20
110.139443
 30
0.0
 40
1.25
  1

100
AcDbText
  0
TEXT
  5
4DC
330
1E
100
AcDbEntity
  8
DIM
100
AcDbText
 10
1893.016021
 20
106.045685
 30
0.0
 40
1.0
  1

100
AcDbText
  0
TEXT
  5
4DD
330
1E
100
AcDbEntity
  8
OBJECT
100
AcDbText
 10
1893.872765
 20
156.7423419999999
 30
0.0
 40
1.25
  1

100
AcDbText
  0
TEXT
  5
4DE
330
1E
100
AcDbEntity
  8
DIM
100
AcDbText
 10
1909.920898999999
 20
295.06382
 30
0.0
 40
0.72
  1

100
AcDbText
  0
TEXT
  5
4DF
330
1E
100
AcDbEntity
  8
DIM
100
AcDbText
 10
1846.385022
 20
272.188554
 30
0.0
 40
0.72
  1

100
AcDbText
  0
TEXT
  5
4E0
330
1E
100
AcDbEntity
  8
DIM
100
AcDbText
 10
1997.297342999999
 20
223.066816
 30
0.0
 40
0.72
  1

100
AcDbText
  0
TEXT
  5
4E1
330
1E
100
AcDbEntity
  8
DIM
100
AcDbText
 10
1933.761467
 20
200.1915509999999
 30
0.0
 40
0.72
  1

100
AcDbText
  0
TEXT
  5
4E2
330
1E
100
AcDbEntity
  8
DIM
100
AcDbText
 10
1899.950698999999
 20
308.6787819999999
 30
0.0
 40
0.72
  1

100
AcDbText
  0
TEXT
  5
4E3
330
1E
100
AcDbEntity
  8
DIM
100
AcDbText
 10
1836.414822
 20
285.8035169999999
 30
0.0
 40
0.72
  1

100
AcDbText
  0
TEXT
  5
4E4
330
1E
100
AcDbEntity
  8
DIM
100
AcDbText
 10
1836.414822
 20
325.8035169999999
 30
0.0
 40
0.72
  1

100
AcDbText
  0
TEXT
  5
4E5
330
1E
100
AcDbEntity
  8
DIM
100
AcDbText
 10
1897.914821999999
 20
325.8035169999999
 30
0.0
 40
0.72
  1

100
AcDbText
  0
TEXT
  5
4E6
330
1E
100
AcDbEntity
  8
DIM
100
AcDbText
 10
1522.953521
 20
110.139443
 30
0.0
 40
1.25
  1

100
AcDbText
  0
TEXT
  5
4E7
330
1E
100
AcDbEntity
  8
DIM
100
AcDbText
 10
1524.016021
 20
106.045685
 30
0.0
 40
1.0
  1

100
AcDbText
  0
TEXT
  5
4E8
330
1E
100
AcDbEntity
  8
OBJECT
100
AcDbText
 10
1524.872765
 20
156.7423419999999
 30
0.0
 40
1.25
  1

100
AcDbText
  0
TEXT
  5
4E9
330
1E
100
AcDbEntity
  8
DIM
100
AcDbText
 10
1727.953521
 20
110.139443
 30
0.0
 40
1.25
  1

100
AcDbText
  0
TEXT
  5
4EA
330
1E
100
AcDbEntity
  8
DIM
100
AcDbText
 10
1729.016021
 20
106.045685
 30
0.0
 40
1.0
  1

100
AcDbText
  0
TEXT
  5
4EB
330
1E
100
AcDbEntity
  8
DIM
100
AcDbText
 10
1891.953521
 20
110.139443
 30
0.0
 40
1.25
  1

100
AcDbText
  0
TEXT
  5
4EC
330
1E
100
AcDbEntity
  8
DIM
100
AcDbText
 10
1893.016021
 20
106.045685
 30
0.0
 40
1.0
  1

100
AcDbText
  0
TEXT
  5
4ED
330
1E
100
AcDbEntity
  8
OBJECT
100
AcDbText
 10
1893.872765
 20
156.7423419999999
 30
0.0
 40
1.25
  1

100
AcDbText
  0
TEXT
  5
4EE
330
1E
100
AcDbEntity
  8
DIM
100
AcDbText
 10
1891.953521
 20
110.139443
 30
0.0
 40
1.25
  1

100
AcDbText
  0
TEXT
  5
4EF
330
1E
100
AcDbEntity
  8
DIM
100
AcDbText
 10
1893.016021
 20
106.045685
 30
0.0
 40
1.0
  1

100
AcDbText
  0
TEXT
  5
4F0
330
1E
100
AcDbEntity
  8
OBJECT
100
AcDbText
 10
1893.872765
 20
156.7423419999999
 30
0.0
 40
1.25
  1

100
AcDbText
  0
TEXT
  5
4F1
330
1E
100
AcDbEntity
  8
DIM
100
AcDbText
 10
1909.920898999999
 20
295.06382
 30
0.0
 40
0.72
  1

100
AcDbText
  0
TEXT
  5
4F2
330
1E
100
AcDbEntity
  8
DIM
100
AcDbText
 10
1846.385022
 20
272.188554
 30
0.0
 40
0.72
  1

100
AcDbText
  0
TEXT
  5
4F3
330
1E
100
AcDbEntity
  8
DIM
100
AcDbText
 10
1997.297342999999
 20
223.066816
 30
0.0
 40
0.72
  1

100
AcDbText
  0
TEXT
  5
4F4
330
1E
100
AcDbEntity
  8
DIM
100
AcDbText
 10
1933.761467
 20
200.1915509999999
 30
0.0
 40
0.72
  1

100
AcDbText
  0
TEXT
  5
4F5
330
1E
100
AcDbEntity
  8
DIM
100
AcDbText
 10
1899.950698999999
 20
308.6787819999999
 30
0.0
 40
0.72
  1

100
AcDbText
  0
TEXT
  5
4F6
330
1E
100
AcDbEntity
  8
DIM
100
AcDbText
 10
1836.414822
 20
285.8035169999999
 30
0.0
 40
0.72
  1

100
AcDbText
  0
TEXT
  5
4F7
330
1E
100
AcDbEntity
  8
DIM
100
AcDbText
 10
1836.414822
 20
325.8035169999999
 30
0.0
 40
0.72
  1

100
AcDbText
  0
TEXT
  5
4F8
330
1E
100
AcDbEntity
  8
DIM
100
AcDbText
 10
1897.914821999999
 20
325.8035169999999
 30
0.0
 40
0.72
  1

100
AcDbText
  0
TEXT
  5
4F9
330
1E
100
AcDbEntity
  8
DIM
100
AcDbText
 10
1502.453521
 20
110.139443
 30
0.0
 40
1.25
  1

100
AcDbText
  0
TEXT
  5
4FA
330
1E
100
AcDbEntity
  8
DIM
100
AcDbText
 10
1503.516021
 20
106.045685
 30
0.0
 40
1.0
  1

100
AcDbText
  0
TEXT
  5
4FB
330
1E
100
AcDbEntity
  8
DIM
100
AcDbText
 10
1666.453521
 20
110.139443
 30
0.0
 40
1.25
  1

100
AcDbText
  0
TEXT
  5
4FC
330
1E
100
AcDbEntity
  8
DIM
100
AcDbText
 10
1667.516021
 20
106.045685
 30
0.0
 40
1.0
  1

100
AcDbText
  0
TEXT
  5
4FD
330
1E
100
AcDbEntity
  8
OBJECT
100
AcDbText
 10
1668.372765
 20
156.7423419999999
 30
0.0
 40
1.25
  1

100
AcDbText
  0
TEXT
  5
4FE
330
1E
100
AcDbEntity
  8
DIM
100
AcDbText
 10
1666.453521
 20
110.139443
 30
0.0
 40
1.25
  1

100
AcDbText
  0
TEXT
  5
4FF
330
1E
100
AcDbEntity
  8
DIM
100
AcDbText
 10
1667.516021
 20
106.045685
 30
0.0
 40
1.0
  1

100
AcDbText
  0
TEXT
  5
500
330
1E
100
AcDbEntity
  8
OBJECT
100
AcDbText
 10
1668.372765
 20
156.7423419999999
 30
0.0
 40
1.25
  1

100
AcDbText
  0
TEXT
  5
501
330
1E
100
AcDbEntity
  8
DIM
100
AcDbText
 10
1684.420899
 20
295.06382
 30
0.0
 40
0.72
  1

100
AcDbText
  0
TEXT
  5
502
330
1E
100
AcDbEntity
  8
DIM
100
AcDbText
 10
1620.885022
 20
272.188554
 30
0.0
 40
0.72
  1

100
AcDbText
  0
TEXT
  5
503
330
1E
100
AcDbEntity
  8
DIM
100
AcDbText
 10
1771.797343
 20
223.066816
 30
0.0
 40
0.72
  1

100
AcDbText
  0
TEXT
  5
504
330
1E
100
AcDbEntity
  8
DIM
100
AcDbText
 10
1708.261467
 20
200.1915509999999
 30
0.0
 40
0.72
  1

100
AcDbText
  0
TEXT
  5
505
330
1E
100
AcDbEntity
  8
DIM
100
AcDbText
 10
1674.450699
 20
308.6787819999999
 30
0.0
 40
0.72
  1

100
AcDbText
  0
TEXT
  5
506
330
1E
100
AcDbEntity
  8
DIM
100
AcDbText
 10
1610.914822
 20
285.8035169999999
 30
0.0
 40
0.72
  1

100
AcDbText
  0
TEXT
  5
507
330
1E
100
AcDbEntity
  8
DIM
100
AcDbText
 10
1610.914822
 20
325.8035169999999
 30
0.0
 40
0.72
  1

100
AcDbText
  0
TEXT
  5
508
330
1E
100
AcDbEntity
  8
DIM
100
AcDbText
 10
1672.414822
 20
325.8035169999999
 30
0.0
 40
0.72
  1

100
AcDbText
  0
TEXT
  5
509
330
1E
100
AcDbEntity
  8
DIM
100
AcDbText
 10
1317.953521
 20
110.139443
 30
0.0
 40
1.25
  1

100
AcDbText
  0
TEXT
  5
50A
330
1E
100
AcDbEntity
  8
DIM
100
AcDbText
 10
1319.016021
 20
106.045685
 30
0.0
 40
1.0
  1

100
AcDbText
  0
TEXT
  5
50B
330
1E
100
AcDbEntity
  8
OBJECT
100
AcDbText
 10
1319.872765
 20
156.7423419999999
 30
0.0
 40
1.25
  1

100
AcDbText
  0
INSERT
  5
50C
330
1E
100
AcDbEntity
  8
0
100
AcDbBlockReference
  2
TOP
 10
120.929631
 20
211.1411319999999
 30
0.0
  0
LWPOLYLINE
  5
50D
330
1E
100
AcDbEntity
  8
0
100
AcDbPolyline
 90
        4
 70
     0
 10
115.9996449999999
 20
211.16771
 40
0.0
 41
1.012499999999999
 10
113.420059
 20
211.965039
 40
0.0
 41
0.0
 10
104.485293
 20
214.7267049999999
 40
0.0
 41
0.0
 10
102.61029
 20
214.7267049999999
 40
0.0
 41
0.0
  0
TEXT
  5
513
330
1E
100
AcDbEntity
  8
0
100
AcDbText
 10
75.422744
 20
213.789204
 30
0.0
 40
1.875002999999999
  1
MOUNTING PROVISIONS
 41
0.75
100
AcDbText
  0
TEXT
  5
514
330
1E
100
AcDbEntity
  8
0
100
AcDbText
 10
78.704
 20
210.664198
 30
0.0
 40
1.875002999999999
  1
FOR OPTIONAL FAN.
 41
0.75
100
AcDbText
  0
TEXT
  5
515
330
1E
100
AcDbEntity
  8
DIM
100
AcDbText
 10
1154.150601
 20
269.8527649999999
 30
0.0
 40
1.25
  1

100
AcDbText
  0
TEXT
  5
516
330
1E
100
AcDbEntity
  8
DIM
100
AcDbText
 10
1155.213100999999
 20
265.7590069999999
 30
0.0
 40
1.0
  1

100
AcDbText
  0
TEXT
  5
517
330
1E
100
AcDbEntity
  8
OBJECT
100
AcDbText
 10
1156.069843999999
 20
316.455664
 30
0.0
 40
1.25
  1

100
AcDbText
  0
INSERT
  5
518
330
1E
100
AcDbEntity
  8
0
100
AcDbBlockReference
  2
HLT
 10
125.851631
 20
224.2031319999999
 30
0.0
  0
INSERT
  5
519
330
1E
100
AcDbEntity
  8
0
100
AcDbBlockReference
  2
HLT
 10
115.974631
 20
224.2031319999999
 30
0.0
  0
TEXT
  5
51A
330
1E
100
AcDbEntity
  8
DIM
100
AcDbText
 10
969.4535210000001
 20
254.139443
 30
0.0
 40
1.25
  1

100
AcDbText
  0
TEXT
  5
51B
330
1E
100
AcDbEntity
  8
DIM
100
AcDbText
 10
970.516021
 20
250.045685
 30
0.0
 40
1.0
  1

100
AcDbText
  0
TEXT
  5
51C
330
1E
100
AcDbEntity
  8
OBJECT
100
AcDbText
 10
971.372765
 20
300.742342
 30
0.0
 40
1.25
  1

100
AcDbText
  0
INSERT
  5
51D
330
1E
100
AcDbEntity
  8
0
100
AcDbBlockReference
  2
HLT
 10
125.851631
 20
77.18648299999999
 30
0.0
 41
-1.0
 50
180.0
  0
INSERT
  5
51E
330
1E
100
AcDbEntity
  8
0
100
AcDbBlockReference
  2
HLT
 10
115.974631
 20
77.18648299999999
 30
0.0
 41
-1.0
 50
180.0
  0
TEXT
  5
51F
330
1E
100
AcDbEntity
  8
DIM
100
AcDbText
 10
969.4535210000001
 20
110.139443
 30
0.0
 40
1.25
  1

100
AcDbText
  0
TEXT
  5
520
330
1E
100
AcDbEntity
  8
DIM
100
AcDbText
 10
970.516021
 20
106.045685
 30
0.0
 40
1.0
  1

100
AcDbText
  0
TEXT
  5
521
330
1E
100
AcDbEntity
  8
OBJECT
100
AcDbText
 10
971.372765
 20
156.7423419999999
 30
0.0
 40
1.25
  1

100
AcDbText
  0
TEXT
  5
522
330
1E
100
AcDbEntity
  8
DIM
100
AcDbText
 10
764.453521
 20
110.139443
 30
0.0
 40
1.25
  1

100
AcDbText
  0
TEXT
  5
523
330
1E
100
AcDbEntity
  8
DIM
100
AcDbText
 10
765.516021
 20
106.045685
 30
0.0
 40
1.0
  1

100
AcDbText
  0
TEXT
  5
524
330
1E
100
AcDbEntity
  8
OBJECT
100
AcDbText
 10
766.3727650000001
 20
156.7423419999999
 30
0.0
 40
1.25
  1

100
AcDbText
  0
INSERT
  5
525
330
1E
100
AcDbEntity
  8
0
100
AcDbBlockReference
  2
L15
 10
25.303727
 20
181.175984
 30
0.0
  0
INSERT
  5
526
330
1E
100
AcDbEntity
  8
0
100
AcDbBlockReference
  2
L15
 10
35.17822699999999
 20
181.175984
 30
0.0
  0
INSERT
  5
527
330
1E
100
AcDbEntity
  8
0
100
AcDbBlockReference
  2
L15
 10
25.303727
 20
139.486984
 30
0.0
  0
INSERT
  5
528
330
1E
100
AcDbEntity
  8
0
100
AcDbBlockReference
  2
L15
 10
35.17822699999999
 20
139.486984
 30
0.0
  0
INSERT
  5
529
330
1E
100
AcDbEntity
  8
0
100
AcDbBlockReference
  2
L15S
 10
63.83754
 20
139.450984
 30
0.0
 50
270.0
  0
INSERT
  5
52A
330
1E
100
AcDbEntity
  8
0
100
AcDbBlockReference
  2
L15S
 10
63.83754
 20
181.1399839999999
 30
0.0
 50
270.0
  0
TEXT
  5
52B
330
1E
100
AcDbEntity
  8
DIM
100
AcDbText
 10
365.510837
 20
108.852073
 30
0.0
 40
1.25
  1

100
AcDbText
  0
TEXT
  5
52C
330
1E
100
AcDbEntity
  8
DIM
100
AcDbText
 10
366.573337
 20
104.7583149999999
 30
0.0
 40
1.0
  1

100
AcDbText
  0
TEXT
  5
52D
330
1E
100
AcDbEntity
  8
OBJECT
100
AcDbText
 10
367.4300799999999
 20
155.4549719999999
 30
0.0
 40
1.25
  1

100
AcDbText
  0
TEXT
  5
52E
330
1E
100
AcDbEntity
  8
DIM
100
AcDbText
 10
511.624176
 20
109.007707
 30
0.0
 40
1.25
  1

100
AcDbText
  0
TEXT
  5
52F
330
1E
100
AcDbEntity
  8
DIM
100
AcDbText
 10
512.686676
 20
104.913948
 30
0.0
 40
1.0
  1

100
AcDbText
  0
TEXT
  5
530
330
1E
100
AcDbEntity
  8
OBJECT
100
AcDbText
 10
513.543419
 20
155.610606
 30
0.0
 40
1.25
  1

100
AcDbText
  0
TEXT
  5
531
330
1E
100
AcDbEntity
  8
DIM
100
AcDbText
 10
662.69104
 20
171.601885
 30
0.0
 40
1.25
  1

100
AcDbText
  0
TEXT
  5
532
330
1E
100
AcDbEntity
  8
DIM
100
AcDbText
 10
663.75354
 20
167.5081259999999
 30
0.0
 40
1.0
  1

100
AcDbText
  0
TEXT
  5
533
330
1E
100
AcDbEntity
  8
OBJECT
100
AcDbText
 10
664.610283
 20
218.204784
 30
0.0
 40
1.25
  1

100
AcDbText
  0
TEXT
  5
534
330
1E
100
AcDbEntity
  8
DIM
100
AcDbText
 10
867.69104
 20
171.601885
 30
0.0
 40
1.25
  1

100
AcDbText
  0
TEXT
  5
535
330
1E
100
AcDbEntity
  8
DIM
100
AcDbText
 10
868.7535399999999
 20
167.5081259999999
 30
0.0
 40
1.0
  1

100
AcDbText
  0
TEXT
  5
536
330
1E
100
AcDbEntity
  8
OBJECT
100
AcDbText
 10
869.6102829999999
 20
218.204784
 30
0.0
 40
1.25
  1

100
AcDbText
  0
TEXT
  5
537
330
1E
100
AcDbEntity
  8
DIM
100
AcDbText
 10
1072.69104
 20
171.601885
 30
0.0
 40
1.25
  1

100
AcDbText
  0
TEXT
  5
538
330
1E
100
AcDbEntity
  8
DIM
100
AcDbText
 10
1073.75354
 20
167.5081259999999
 30
0.0
 40
1.0
  1

100
AcDbText
  0
TEXT
  5
539
330
1E
100
AcDbEntity
  8
DIM
100
AcDbText
 10
1236.69104
 20
171.601885
 30
0.0
 40
1.25
  1

100
AcDbText
  0
TEXT
  5
53A
330
1E
100
AcDbEntity
  8
DIM
100
AcDbText
 10
1237.753539999999
 20
167.5081259999999
 30
0.0
 40
1.0
  1

100
AcDbText
  0
TEXT
  5
53B
330
1E
100
AcDbEntity
  8
OBJECT
100
AcDbText
 10
1238.610283
 20
218.204784
 30
0.0
 40
1.25
  1

100
AcDbText
  0
TEXT
  5
53C
330
1E
100
AcDbEntity
  8
DIM
100
AcDbText
 10
1236.69104
 20
171.601885
 30
0.0
 40
1.25
  1

100
AcDbText
  0
TEXT
  5
53D
330
1E
100
AcDbEntity
  8
DIM
100
AcDbText
 10
1237.753539999999
 20
167.5081259999999
 30
0.0
 40
1.0
  1

100
AcDbText
  0
TEXT
  5
53E
330
1E
100
AcDbEntity
  8
OBJECT
100
AcDbText
 10
1238.610283
 20
218.204784
 30
0.0
 40
1.25
  1

100
AcDbText
  0
TEXT
  5
53F
330
1E
100
AcDbEntity
  8
DIM
100
AcDbText
 10
1254.658417
 20
356.5262609999999
 30
0.0
 40
0.72
  1

100
AcDbText
  0
TEXT
  5
540
330
1E
100
AcDbEntity
  8
DIM
100
AcDbText
 10
1191.122541
 20
333.650996
 30
0.0
 40
0.72
  1

100
AcDbText
  0
TEXT
  5
541
330
1E
100
AcDbEntity
  8
DIM
100
AcDbText
 10
1342.034862
 20
284.529258
 30
0.0
 40
0.72
  1

100
AcDbText
  0
TEXT
  5
542
330
1E
100
AcDbEntity
  8
DIM
100
AcDbText
 10
1278.498985
 20
261.653993
 30
0.0
 40
0.72
  1

100
AcDbText
  0
TEXT
  5
543
330
1E
100
AcDbEntity
  8
DIM
100
AcDbText
 10
1244.688218
 20
370.141224
 30
0.0
 40
0.72
  1

100
AcDbText
  0
TEXT
  5
544
330
1E
100
AcDbEntity
  8
DIM
100
AcDbText
 10
1181.152340999999
 20
347.265959
 30
0.0
 40
0.72
  1

100
AcDbText
  0
TEXT
  5
545
330
1E
100
AcDbEntity
  8
DIM
100
AcDbText
 10
1181.152340999999
 20
387.2659589999999
 30
0.0
 40
0.72
  1

100
AcDbText
  0
TEXT
  5
546
330
1E
100
AcDbEntity
  8
DIM
100
AcDbText
 10
1242.652341
 20
387.2659589999999
 30
0.0
 40
0.72
  1

100
AcDbText
  0
TEXT
  5
547
330
1E
100
AcDbEntity
  8
DIM
100
AcDbText
 10
867.69104
 20
171.601885
 30
0.0
 40
1.25
  1

100
AcDbText
  0
TEXT
  5
548
330
1E
100
AcDbEntity
  8
DIM
100
AcDbText
 10
868.7535399999999
 20
167.5081259999999
 30
0.0
 40
1.0
  1

100
AcDbText
  0
TEXT
  5
549
330
1E
100
AcDbEntity
  8
OBJECT
100
AcDbText
 10
869.6102829999999
 20
218.204784
 30
0.0
 40
1.25
  1

100
AcDbText
  0
TEXT
  5
54A
330
1E
100
AcDbEntity
  8
0
100
AcDbText
 10
3.429805999999999
 20
98.637072
 30
0.0
 40
1.674107
  1
%%uMATERIAL:
 41
0.75
100
AcDbText
  0
TEXT
  5
54B
330
1E
100
AcDbEntity
  8
0
100
AcDbText
 10
3.429805999999999
 20
95.851357
 30
0.0
 40
1.674107
  1
REAR DOOR
 41
0.75
100
AcDbText
  0
TEXT
  5
54C
330
1E
100
AcDbEntity
  8
0
100
AcDbText
 10
3.429805999999999
 20
93.06564300000001
 30
0.0
 40
1.674107
  1
REAR DOOR STIFFENER
 41
0.75
100
AcDbText
  0
TEXT
  5
54D
330
1E
100
AcDbEntity
  8
0
100
AcDbText
 10
3.429805999999999
 20
90.279929
 30
0.0
 40
1.674107
  1
TOP, BOTTOM, RAIL SUPPORTS
 41
0.75
100
AcDbText
  0
TEXT
  5
54E
330
1E
100
AcDbEntity
  8
0
100
AcDbText
 10
3.429805999999999
 20
87.49421400000001
 30
0.0
 40
1.674107
  1
 AND DOOR STOPS
 41
0.75
100
AcDbText
  0
TEXT
  5
54F
330
1E
100
AcDbEntity
  8
0
100
AcDbText
 10
3.429805999999999
 20
84.7085
 30
0.0
 40
1.674107
  1
VERTICAL RAILS
 41
0.75
100
AcDbText
  0
TEXT
  5
550
330
1E
100
AcDbEntity
  8
0
100
AcDbText
 10
3.429805999999999
 20
81.92278599999999
 30
0.0
 40
1.674107
  1
PANEL MOUNTING RAILS
 41
0.75
100
AcDbText
  0
TEXT
  5
551
330
1E
100
AcDbEntity
  8
0
100
AcDbText
 10
3.429805999999999
 20
76.35135699999999
 30
0.0
 40
1.674107
  1
%%uFINISH:
 41
0.75
100
AcDbText
  0
TEXT
  5
552
330
1E
100
AcDbEntity
  8
0
100
AcDbText
 10
3.429805999999999
 20
73.56564300000001
 30
0.0
 40
1.674107
  1
FRAME ASSEMBLY
 41
0.75
100
AcDbText
  0
TEXT
  5
553
330
1E
100
AcDbEntity
  8
0
100
AcDbText
 10
3.429805999999999
 20
70.77992900000001
 30
0.0
 40
1.674107
  1
 AND REAR DOOR
 41
0.75
100
AcDbText
  0
TEXT
  5
554
330
1E
100
AcDbEntity
  8
0
100
AcDbText
 10
3.429805999999999
 20
62.422786
 30
0.0
 40
1.674107
  1
PANEL MOUNTING RAILS
 41
0.75
100
AcDbText
  0
TEXT
  5
555
330
1E
100
AcDbEntity
  8
0
100
AcDbText
 10
3.429805999999999
 20
59.63707199999999
 30
0.0
 40
1.674107
  1
 AND DOOR STOPS
 41
0.75
100
AcDbText
  0
TEXT
  5
556
330
1E
100
AcDbEntity
  8
0
100
AcDbText
 10
49.32650575000001
 20
70.77992900000001
 30
0.0
 40
1.674107
  1
SAND TEXTURE
 41
0.75
 72
     2
 11
63.974942
 21
70.77992900000001
 31
0.0
100
AcDbText
  0
TEXT
  5
557
330
1E
100
AcDbEntity
  8
0
100
AcDbText
 10
49.32650575000001
 20
59.63707199999999
 30
0.0
 40
1.674107
  1
SMOOTH BLACK
 41
0.75
 72
     2
 11
63.974942
 21
59.63707199999999
 31
0.0
100
AcDbText
  0
TEXT
  5
558
330
1E
100
AcDbEntity
  8
0
100
AcDbText
 10
50.372822625
 20
95.851357
 30
0.0
 40
1.674107
  1
20 GA. STEEL
 41
0.75
 72
     2
 11
63.974942
 21
95.851357
 31
0.0
100
AcDbText
  0
TEXT
  5
559
330
1E
100
AcDbEntity
  8
0
100
AcDbText
 10
50.582086
 20
93.06564300000001
 30
0.0
 40
1.674107
  1
18 GA. STEEL
 41
0.75
 72
     2
 11
63.974942
 21
93.06564300000001
 31
0.0
100
AcDbText
  0
TEXT
  5
55A
330
1E
100
AcDbEntity
  8
0
100
AcDbText
 10
50.582086
 20
87.49421400000001
 30
0.0
 40
1.674107
  1
16 GA. STEEL
 41
0.75
 72
     2
 11
63.974942
 21
87.49421400000001
 31
0.0
100
AcDbText
  0
TEXT
  5
55B
330
1E
100
AcDbEntity
  8
0
100
AcDbText
 10
50.582086
 20
84.7085
 30
0.0
 40
1.674107
  1
14 GA. STEEL
 41
0.75
 72
     2
 11
63.974942
 21
84.7085
 31
0.0
100
AcDbText
  0
TEXT
  5
55C
330
1E
100
AcDbEntity
  8
0
100
AcDbText
 10
50.582086
 20
81.92278599999999
 30
0.0
 40
1.674107
  1
12 GA. STEEL
 41
0.75
 72
     2
 11
63.974942
 21
81.92278599999999
 31
0.0
100
AcDbText
  0
TEXT
  5
55D
330
1E
100
AcDbEntity
  8
0
100
AcDbText
 10
41.79302425
 20
67.99421399999999
 30
0.0
 40
1.674107
  1
ROYAL BLUE TEXTURE
 41
0.75
 72
     2
 11
63.974942
 21
67.99421399999999
 31
0.0
100
AcDbText
  0
TEXT
  5
55E
330
1E
100
AcDbEntity
  8
0
100
AcDbText
 10
48.07092550000001
 20
65.2085
 30
0.0
 40
1.674107
  1
BLACK TEXTURE
 41
0.75
 72
     2
 11
63.974942
 21
65.2085
 31
0.0
100
AcDbText
  0
LINE
  5
55F
330
1E
100
AcDbEntity
  8
0
100
AcDbLine
 10
48.63672499999999
 20
59.63707199999999
 30
0.0
 11
22.33821199999999
 21
59.63707199999999
 31
0.0
  0
LINE
  5
560
330
1E
100
AcDbEntity
  8
0
100
AcDbLine
 10
47.36568
 20
65.2085
 30
0.0
 11
22.33821199999999
 21
65.2085
 31
0.0
  0
LINE
  5
561
330
1E
100
AcDbEntity
  8
0
100
AcDbLine
 10
40.752307
 20
67.99421399999999
 30
0.0
 11
22.33821199999999
 21
67.99421399999999
 31
0.0
  0
LINE
  5
562
330
1E
100
AcDbEntity
  8
0
100
AcDbLine
 10
48.676673
 20
70.77992900000001
 30
0.0
 11
22.33821199999999
 21
70.77992900000001
 31
0.0
  0
LINE
  5
563
330
1E
100
AcDbEntity
  8
0
100
AcDbLine
 10
49.771562
 20
81.92278599999999
 30
0.0
 11
27.74979
 21
81.92278599999999
 31
0.0
  0
LINE
  5
564
330
1E
100
AcDbEntity
  8
0
100
AcDbLine
 10
49.771562
 20
84.7085
 30
0.0
 11
20.653814
 21
84.7085
 31
0.0
  0
LINE
  5
565
330
1E
100
AcDbEntity
  8
0
100
AcDbLine
 10
49.771562
 20
87.49421400000001
 30
0.0
 11
22.42780799999999
 21
87.49421400000001
 31
0.0
  0
LINE
  5
566
330
1E
100
AcDbEntity
  8
0
100
AcDbLine
 10
49.771562
 20
93.06564300000001
 30
0.0
 11
26.862793
 21
93.06564300000001
 31
0.0
  0
LINE
  5
567
330
1E
100
AcDbEntity
  8
0
100
AcDbLine
 10
49.771562
 20
95.851357
 30
0.0
 11
14.893637
 21
95.851357
 31
0.0
  0
TEXT
  5
568
330
1E
100
AcDbEntity
  8
DIM
100
AcDbText
 10
1072.69104
 20
171.601885
 30
0.0
 40
1.25
  1

100
AcDbText
  0
TEXT
  5
569
330
1E
100
AcDbEntity
  8
DIM
100
AcDbText
 10
1073.75354
 20
167.5081259999999
 30
0.0
 40
1.0
  1

100
AcDbText
  0
TEXT
  5
56A
330
1E
100
AcDbEntity
  8
DIM
100
AcDbText
 10
1236.69104
 20
171.601885
 30
0.0
 40
1.25
  1

100
AcDbText
  0
TEXT
  5
56B
330
1E
100
AcDbEntity
  8
DIM
100
AcDbText
 10
1237.753539999999
 20
167.5081259999999
 30
0.0
 40
1.0
  1

100
AcDbText
  0
TEXT
  5
56C
330
1E
100
AcDbEntity
  8
OBJECT
100
AcDbText
 10
1238.610283
 20
218.204784
 30
0.0
 40
1.25
  1

100
AcDbText
  0
TEXT
  5
56D
330
1E
100
AcDbEntity
  8
DIM
100
AcDbText
 10
1236.69104
 20
171.601885
 30
0.0
 40
1.25
  1

100
AcDbText
  0
TEXT
  5
56E
330
1E
100
AcDbEntity
  8
DIM
100
AcDbText
 10
1237.753539999999
 20
167.5081259999999
 30
0.0
 40
1.0
  1

100
AcDbText
  0
TEXT
  5
56F
330
1E
100
AcDbEntity
  8
OBJECT
100
AcDbText
 10
1238.610283
 20
218.204784
 30
0.0
 40
1.25
  1

100
AcDbText
  0
TEXT
  5
570
330
1E
100
AcDbEntity
  8
DIM
100
AcDbText
 10
1254.658417
 20
356.5262609999999
 30
0.0
 40
0.72
  1

100
AcDbText
  0
TEXT
  5
571
330
1E
100
AcDbEntity
  8
DIM
100
AcDbText
 10
1191.122541
 20
333.650996
 30
0.0
 40
0.72
  1

100
AcDbText
  0
TEXT
  5
572
330
1E
100
AcDbEntity
  8
DIM
100
AcDbText
 10
1342.034862
 20
284.529258
 30
0.0
 40
0.72
  1

100
AcDbText
  0
TEXT
  5
573
330
1E
100
AcDbEntity
  8
DIM
100
AcDbText
 10
1278.498985
 20
261.653993
 30
0.0
 40
0.72
  1

100
AcDbText
  0
TEXT
  5
574
330
1E
100
AcDbEntity
  8
DIM
100
AcDbText
 10
1244.688218
 20
370.141224
 30
0.0
 40
0.72
  1

100
AcDbText
  0
TEXT
  5
575
330
1E
100
AcDbEntity
  8
DIM
100
AcDbText
 10
1181.152340999999
 20
347.265959
 30
0.0
 40
0.72
  1

100
AcDbText
  0
TEXT
  5
576
330
1E
100
AcDbEntity
  8
DIM
100
AcDbText
 10
1181.152340999999
 20
387.2659589999999
 30
0.0
 40
0.72
  1

100
AcDbText
  0
TEXT
  5
577
330
1E
100
AcDbEntity
  8
DIM
100
AcDbText
 10
1242.652341
 20
387.2659589999999
 30
0.0
 40
0.72
  1

100
AcDbText
  0
TEXT
  5
578
330
1E
100
AcDbEntity
  8
DIM
100
AcDbText
 10
847.19104
 20
171.601885
 30
0.0
 40
1.25
  1

100
AcDbText
  0
TEXT
  5
579
330
1E
100
AcDbEntity
  8
DIM
100
AcDbText
 10
848.2535399999999
 20
167.5081259999999
 30
0.0
 40
1.0
  1

100
AcDbText
  0
TEXT
  5
57A
330
1E
100
AcDbEntity
  8
DIM
100
AcDbText
 10
1011.19104
 20
171.601885
 30
0.0
 40
1.25
  1

100
AcDbText
  0
TEXT
  5
57B
330
1E
100
AcDbEntity
  8
DIM
100
AcDbText
 10
1012.25354
 20
167.5081259999999
 30
0.0
 40
1.0
  1

100
AcDbText
  0
TEXT
  5
57C
330
1E
100
AcDbEntity
  8
OBJECT
100
AcDbText
 10
1013.110283
 20
218.204784
 30
0.0
 40
1.25
  1

100
AcDbText
  0
TEXT
  5
57D
330
1E
100
AcDbEntity
  8
DIM
100
AcDbText
 10
1011.19104
 20
171.601885
 30
0.0
 40
1.25
  1

100
AcDbText
  0
TEXT
  5
57E
330
1E
100
AcDbEntity
  8
DIM
100
AcDbText
 10
1012.25354
 20
167.5081259999999
 30
0.0
 40
1.0
  1

100
AcDbText
  0
TEXT
  5
57F
330
1E
100
AcDbEntity
  8
OBJECT
100
AcDbText
 10
1013.110283
 20
218.204784
 30
0.0
 40
1.25
  1

100
AcDbText
  0
TEXT
  5
580
330
1E
100
AcDbEntity
  8
DIM
100
AcDbText
 10
1029.158417
 20
356.5262609999999
 30
0.0
 40
0.72
  1

100
AcDbText
  0
TEXT
  5
581
330
1E
100
AcDbEntity
  8
DIM
100
AcDbText
 10
965.6225410000001
 20
333.650996
 30
0.0
 40
0.72
  1

100
AcDbText
  0
TEXT
  5
582
330
1E
100
AcDbEntity
  8
DIM
100
AcDbText
 10
1116.534861999999
 20
284.529258
 30
0.0
 40
0.72
  1

100
AcDbText
  0
TEXT
  5
583
330
1E
100
AcDbEntity
  8
DIM
100
AcDbText
 10
1052.998985
 20
261.653993
 30
0.0
 40
0.72
  1

100
AcDbText
  0
TEXT
  5
584
330
1E
100
AcDbEntity
  8
DIM
100
AcDbText
 10
1019.188218
 20
370.141224
 30
0.0
 40
0.72
  1

100
AcDbText
  0
TEXT
  5
585
330
1E
100
AcDbEntity
  8
DIM
100
AcDbText
 10
955.652341
 20
347.265959
 30
0.0
 40
0.72
  1

100
AcDbText
  0
TEXT
  5
586
330
1E
100
AcDbEntity
  8
DIM
100
AcDbText
 10
955.652341
 20
387.2659589999999
 30
0.0
 40
0.72
  1

100
AcDbText
  0
TEXT
  5
587
330
1E
100
AcDbEntity
  8
DIM
100
AcDbText
 10
1017.152341
 20
387.2659589999999
 30
0.0
 40
0.72
  1

100
AcDbText
  0
TEXT
  5
588
330
1E
100
AcDbEntity
  8
DIM
100
AcDbText
 10
867.69104
 20
171.601885
 30
0.0
 40
1.25
  1

100
AcDbText
  0
TEXT
  5
589
330
1E
100
AcDbEntity
  8
DIM
100
AcDbText
 10
868.7535399999999
 20
167.5081259999999
 30
0.0
 40
1.0
  1

100
AcDbText
  0
TEXT
  5
58A
330
1E
100
AcDbEntity
  8
DIM
100
AcDbText
 10
1031.691039999999
 20
171.601885
 30
0.0
 40
1.25
  1

100
AcDbText
  0
TEXT
  5
58B
330
1E
100
AcDbEntity
  8
DIM
100
AcDbText
 10
1032.75354
 20
167.5081259999999
 30
0.0
 40
1.0
  1

100
AcDbText
  0
TEXT
  5
58C
330
1E
100
AcDbEntity
  8
OBJECT
100
AcDbText
 10
1033.610283
 20
218.204784
 30
0.0
 40
1.25
  1

100
AcDbText
  0
TEXT
  5
58D
330
1E
100
AcDbEntity
  8
DIM
100
AcDbText
 10
1031.691039999999
 20
171.601885
 30
0.0
 40
1.25
  1

100
AcDbText
  0
TEXT
  5
58E
330
1E
100
AcDbEntity
  8
DIM
100
AcDbText
 10
1032.75354
 20
167.5081259999999
 30
0.0
 40
1.0
  1

100
AcDbText
  0
TEXT
  5
58F
330
1E
100
AcDbEntity
  8
OBJECT
100
AcDbText
 10
1033.610283
 20
218.204784
 30
0.0
 40
1.25
  1

100
AcDbText
  0
TEXT
  5
590
330
1E
100
AcDbEntity
  8
DIM
100
AcDbText
 10
1049.658417
 20
356.5262609999999
 30
0.0
 40
0.72
  1

100
AcDbText
  0
TEXT
  5
591
330
1E
100
AcDbEntity
  8
DIM
100
AcDbText
 10
986.1225410000001
 20
333.650996
 30
0.0
 40
0.72
  1

100
AcDbText
  0
TEXT
  5
592
330
1E
100
AcDbEntity
  8
DIM
100
AcDbText
 10
1137.034861999999
 20
284.529258
 30
0.0
 40
0.72
  1

100
AcDbText
  0
TEXT
  5
593
330
1E
100
AcDbEntity
  8
DIM
100
AcDbText
 10
1073.498985
 20
261.653993
 30
0.0
 40
0.72
  1

100
AcDbText
  0
TEXT
  5
594
330
1E
100
AcDbEntity
  8
DIM
100
AcDbText
 10
1039.688217999999
 20
370.141224
 30
0.0
 40
0.72
  1

100
AcDbText
  0
TEXT
  5
595
330
1E
100
AcDbEntity
  8
DIM
100
AcDbText
 10
976.152341
 20
347.265959
 30
0.0
 40
0.72
  1

100
AcDbText
  0
TEXT
  5
596
330
1E
100
AcDbEntity
  8
DIM
100
AcDbText
 10
976.152341
 20
387.2659589999999
 30
0.0
 40
0.72
  1

100
AcDbText
  0
TEXT
  5
597
330
1E
100
AcDbEntity
  8
DIM
100
AcDbText
 10
1037.652341
 20
387.2659589999999
 30
0.0
 40
0.72
  1

100
AcDbText
  0
TEXT
  5
598
330
1E
100
AcDbEntity
  8
DIM
100
AcDbText
 10
768.4435030000001
 20
130.4884949999999
 30
0.0
 40
1.25
  1

100
AcDbText
  0
TEXT
  5
599
330
1E
100
AcDbEntity
  8
DIM
100
AcDbText
 10
769.5060030000001
 20
126.394736
 30
0.0
 40
1.0
  1

100
AcDbText
  0
TEXT
  5
59A
330
1E
100
AcDbEntity
  8
OBJECT
100
AcDbText
 10
770.362746
 20
177.0913939999999
 30
0.0
 40
1.25
  1

100
AcDbText
  0
TEXT
  5
59B
330
1E
100
AcDbEntity
  8
DIM
100
AcDbText
 10
973.443503
 20
130.4884949999999
 30
0.0
 40
1.25
  1

100
AcDbText
  0
TEXT
  5
59C
330
1E
100
AcDbEntity
  8
DIM
100
AcDbText
 10
974.5060029999999
 20
126.394736
 30
0.0
 40
1.0
  1

100
AcDbText
  0
TEXT
  5
59D
330
1E
100
AcDbEntity
  8
OBJECT
100
AcDbText
 10
975.3627460000002
 20
177.0913939999999
 30
0.0
 40
1.25
  1

100
AcDbText
  0
TEXT
  5
59E
330
1E
100
AcDbEntity
  8
DIM
100
AcDbText
 10
1178.443503
 20
130.4884949999999
 30
0.0
 40
1.25
  1

100
AcDbText
  0
TEXT
  5
59F
330
1E
100
AcDbEntity
  8
DIM
100
AcDbText
 10
1179.506002999999
 20
126.394736
 30
0.0
 40
1.0
  1

100
AcDbText
  0
TEXT
  5
5A0
330
1E
100
AcDbEntity
  8
DIM
100
AcDbText
 10
1342.443503
 20
130.4884949999999
 30
0.0
 40
1.25
  1

100
AcDbText
  0
TEXT
  5
5A1
330
1E
100
AcDbEntity
  8
DIM
100
AcDbText
 10
1343.506003
 20
126.394736
 30
0.0
 40
1.0
  1

100
AcDbText
  0
TEXT
  5
5A2
330
1E
100
AcDbEntity
  8
OBJECT
100
AcDbText
 10
1344.362746
 20
177.0913939999999
 30
0.0
 40
1.25
  1

100
AcDbText
  0
TEXT
  5
5A3
330
1E
100
AcDbEntity
  8
DIM
100
AcDbText
 10
1342.443503
 20
130.4884949999999
 30
0.0
 40
1.25
  1

100
AcDbText
  0
TEXT
  5
5A4
330
1E
100
AcDbEntity
  8
DIM
100
AcDbText
 10
1343.506003
 20
126.394736
 30
0.0
 40
1.0
  1

100
AcDbText
  0
TEXT
  5
5A5
330
1E
100
AcDbEntity
  8
OBJECT
100
AcDbText
 10
1344.362746
 20
177.0913939999999
 30
0.0
 40
1.25
  1

100
AcDbText
  0
TEXT
  5
5A6
330
1E
100
AcDbEntity
  8
DIM
100
AcDbText
 10
1360.410880999999
 20
315.412872
 30
0.0
 40
0.72
  1

100
AcDbText
  0
TEXT
  5
5A7
330
1E
100
AcDbEntity
  8
DIM
100
AcDbText
 10
1296.875004
 20
292.5376059999999
 30
0.0
 40
0.72
  1

100
AcDbText
  0
TEXT
  5
5A8
330
1E
100
AcDbEntity
  8
DIM
100
AcDbText
 10
1447.787325
 20
243.415868
 30
0.0
 40
0.72
  1

100
AcDbText
  0
TEXT
  5
5A9
330
1E
100
AcDbEntity
  8
DIM
100
AcDbText
 10
1384.251448
 20
220.5406029999999
 30
0.0
 40
0.72
  1

100
AcDbText
  0
TEXT
  5
5AA
330
1E
100
AcDbEntity
  8
DIM
100
AcDbText
 10
1350.440681
 20
329.0278339999999
 30
0.0
 40
0.72
  1

100
AcDbText
  0
TEXT
  5
5AB
330
1E
100
AcDbEntity
  8
DIM
100
AcDbText
 10
1286.904804
 20
306.1525689999999
 30
0.0
 40
0.72
  1

100
AcDbText
  0
TEXT
  5
5AC
330
1E
100
AcDbEntity
  8
DIM
100
AcDbText
 10
1286.904804
 20
346.1525689999999
 30
0.0
 40
0.72
  1

100
AcDbText
  0
TEXT
  5
5AD
330
1E
100
AcDbEntity
  8
DIM
100
AcDbText
 10
1348.404804
 20
346.1525689999999
 30
0.0
 40
0.72
  1

100
AcDbText
  0
LINE
  5
5AE
330
1E
100
AcDbEntity
  8
0
100
AcDbLine
 10
131.929631
 20
119.701984
 30
0.0
 11
131.929631
 21
186.263984
 31
0.0
  0
LINE
  5
5AF
330
1E
100
AcDbEntity
  8
0
100
AcDbLine
 10
131.929631
 20
186.263984
 30
0.0
 11
109.9296309999999
 21
186.263984
 31
0.0
  0
LINE
  5
5B0
330
1E
100
AcDbEntity
  8
0
100
AcDbLine
 10
109.9296309999999
 20
186.263984
 30
0.0
 11
109.9296309999999
 21
119.701984
 31
0.0
  0
LINE
  5
5B1
330
1E
100
AcDbEntity
  8
0
100
AcDbLine
 10
109.9296309999999
 20
119.701984
 30
0.0
 11
131.929631
 21
119.701984
 31
0.0
  0
LINE
  5
5B2
330
1E
100
AcDbEntity
  8
0
100
AcDbLine
 10
130.492131
 20
119.701984
 30
0.0
 11
130.492131
 21
186.263984
 31
0.0
  0
LINE
  5
5B3
330
1E
100
AcDbEntity
  8
0
100
AcDbLine
 10
111.3671309999999
 20
186.263984
 30
0.0
 11
111.3671309999999
 21
119.701984
 31
0.0
  0
LINE
  5
5B4
330
1E
100
AcDbEntity
  8
0
100
AcDbLine
 10
111.3671309999999
 20
122.326984
 30
0.0
 11
130.492131
 21
122.326984
 31
0.0
  0
LINE
  5
5B5
330
1E
100
AcDbEntity
  8
0
100
AcDbLine
 10
130.492131
 20
183.638984
 30
0.0
 11
111.3671309999999
 21
183.638984
 31
0.0
  0
LINE
  5
5B6
330
1E
100
AcDbEntity
  8
0
100
AcDbLine
 10
89.33754
 20
146.996692
 30
0.0
 11
89.33754
 21
186.263984
 31
0.0
  0
LINE
  5
5B7
330
1E
100
AcDbEntity
  8
0
100
AcDbLine
 10
89.33754
 20
186.263984
 30
0.0
 11
63.83754
 21
186.263984
 31
0.0
  0
LINE
  5
5B8
330
1E
100
AcDbEntity
  8
0
100
AcDbLine
 10
63.83754
 20
186.263984
 30
0.0
 11
63.83754
 21
181.348451
 31
0.0
  0
LINE
  5
5B9
330
1E
100
AcDbEntity
  8
0
100
AcDbLine
 10
87.86953999999999
 20
183.638984
 30
0.0
 11
65.30554000000001
 21
183.638984
 31
0.0
  0
ARC
  5
5BA
330
1E
100
AcDbEntity
  8
0
100
AcDbCircle
 10
34.852227
 20
121.013984
 30
0.0
 40
0.5545
100
AcDbArc
 50
96.41980600000001
 51
263.5801939999999
  0
LINE
  5
5BB
330
1E
100
AcDbEntity
  8
0
100
AcDbLine
 10
34.914227
 20
120.5241989999999
 30
0.0
 11
34.914227
 21
120.3810139999999
 31
0.0
  0
LINE
  5
5BC
330
1E
100
AcDbEntity
  8
0
100
AcDbLine
 10
34.790227
 20
121.6060419999999
 30
0.0
 11
34.790227
 21
121.6431639999999
 31
0.0
  0
LINE
  5
5BD
330
1E
100
AcDbEntity
  8
0
100
AcDbLine
 10
34.790227
 20
120.5241989999999
 30
0.0
 11
34.790227
 21
120.3810139999999
 31
0.0
  0
ARC
  5
5BE
330
1E
100
AcDbEntity
  8
0
100
AcDbCircle
 10
34.852227
 20
121.013984
 30
0.0
 40
0.5545
100
AcDbArc
 50
276.419806
 51
83.58019399999999
  0
LINE
  5
5BF
330
1E
100
AcDbEntity
  8
0
100
AcDbLine
 10
34.914227
 20
121.6060419999999
 30
0.0
 11
34.914227
 21
121.6431639999999
 31
0.0
  0
LINE
  5
5C0
330
1E
100
AcDbEntity
  8
0
100
AcDbLine
 10
34.914227
 20
121.462857
 30
0.0
 11
34.914227
 21
121.6060419999999
 31
0.0
  0
LINE
  5
5C1
330
1E
100
AcDbEntity
  8
0
100
AcDbLine
 10
34.790227
 20
121.6060419999999
 30
0.0
 11
34.790227
 21
121.462857
 31
0.0
  0
LINE
  5
5C2
330
1E
100
AcDbEntity
  8
0
100
AcDbLine
 10
25.821227
 20
121.6060419999999
 30
0.0
 11
25.821227
 21
121.462857
 31
0.0
  0
LINE
  5
5C3
330
1E
100
AcDbEntity
  8
0
100
AcDbLine
 10
25.69722699999999
 20
121.462857
 30
0.0
 11
25.69722699999999
 21
121.6060419999999
 31
0.0
  0
LINE
  5
5C4
330
1E
100
AcDbEntity
  8
0
100
AcDbLine
 10
25.69722699999999
 20
121.6060419999999
 30
0.0
 11
25.69722699999999
 21
121.6431639999999
 31
0.0
  0
ARC
  5
5C5
330
1E
100
AcDbEntity
  8
0
100
AcDbCircle
 10
25.759227
 20
121.013984
 30
0.0
 40
0.5545
100
AcDbArc
 50
96.41980600000001
 51
263.5801939999999
  0
LINE
  5
5C6
330
1E
100
AcDbEntity
  8
0
100
AcDbLine
 10
25.821227
 20
120.5241989999999
 30
0.0
 11
25.821227
 21
120.3810139999999
 31
0.0
  0
LINE
  5
5C7
330
1E
100
AcDbEntity
  8
0
100
AcDbLine
 10
25.821227
 20
121.6060419999999
 30
0.0
 11
25.821227
 21
121.6431639999999
 31
0.0
  0
LINE
  5
5C8
330
1E
100
AcDbEntity
  8
0
100
AcDbLine
 10
25.69722699999999
 20
120.5241989999999
 30
0.0
 11
25.69722699999999
 21
120.3810139999999
 31
0.0
  0
ARC
  5
5C9
330
1E
100
AcDbEntity
  8
0
100
AcDbCircle
 10
25.759227
 20
121.013984
 30
0.0
 40
0.5545
100
AcDbArc
 50
276.419806
 51
83.58019399999999
  0
LINE
  5
5CA
330
1E
100
AcDbEntity
  8
0
100
AcDbLine
 10
41.305727
 20
119.701984
 30
0.0
 11
19.30572699999999
 21
119.701984
 31
0.0
  0
LINE
  5
5CB
330
1E
100
AcDbEntity
  8
0
100
AcDbLine
 10
41.305727
 20
186.263984
 30
0.0
 11
41.305727
 21
119.701984
 31
0.0
  0
LINE
  5
5CC
330
1E
100
AcDbEntity
  8
0
100
AcDbLine
 10
19.30572699999999
 20
186.263984
 30
0.0
 11
41.305727
 21
186.263984
 31
0.0
  0
LINE
  5
5CD
330
1E
100
AcDbEntity
  8
0
100
AcDbLine
 10
19.30572699999999
 20
119.701984
 30
0.0
 11
19.30572699999999
 21
186.263984
 31
0.0
  0
LINE
  5
5CE
330
1E
100
AcDbEntity
  8
0
100
AcDbLine
 10
87.86953999999999
 20
148.403206
 30
0.0
 11
87.86953999999999
 21
186.263984
 31
0.0
  0
LINE
  5
5CF
330
1E
100
AcDbEntity
  8
0
100
AcDbLine
 10
65.30554000000001
 20
186.263984
 30
0.0
 11
65.30554000000001
 21
182.029885
 31
0.0
  0
LINE
  5
5D0
330
1E
100
AcDbEntity
  8
0
100
AcDbLine
 10
110.007631
 20
102.9204829999999
 30
0.0
 11
131.8516309999999
 21
102.9204829999999
 31
0.0
  0
LINE
  5
5D1
330
1E
100
AcDbEntity
  8
0
100
AcDbLine
 10
131.8516309999999
 20
102.9204829999999
 30
0.0
 11
131.8516309999999
 21
77.57648299999999
 31
0.0
  0
LINE
  5
5D2
330
1E
100
AcDbEntity
  8
0
100
AcDbLine
 10
110.007631
 20
102.9204829999999
 30
0.0
 11
110.007631
 21
77.57648299999999
 31
0.0
  0
LINE
  5
5D3
330
1E
100
AcDbEntity
  8
0
100
AcDbLine
 10
110.085631
 20
102.4204829999999
 30
0.0
 11
131.7736309999999
 21
102.4204829999999
 31
0.0
  0
LINE
  5
5D4
330
1E
100
AcDbEntity
  8
0
100
AcDbLine
 10
131.7736309999999
 20
102.4204829999999
 30
0.0
 11
131.7736309999999
 21
102.9204829999999
 31
0.0
  0
LINE
  5
5D5
330
1E
100
AcDbEntity
  8
0
100
AcDbLine
 10
110.085631
 20
102.4204829999999
 30
0.0
 11
110.085631
 21
102.9204829999999
 31
0.0
  0
CIRCLE
  5
5D6
330
1E
100
AcDbEntity
  8
0
100
AcDbCircle
 10
129.5236309999999
 20
101.1704829999999
 30
0.0
 40
0.156
  0
CIRCLE
  5
5D7
330
1E
100
AcDbEntity
  8
0
100
AcDbCircle
 10
127.773631
 20
101.1704829999999
 30
0.0
 40
0.156
  0
CIRCLE
  5
5D8
330
1E
100
AcDbEntity
  8
0
100
AcDbCircle
 10
129.5236309999999
 20
98.17048299999999
 30
0.0
 40
0.156
  0
CIRCLE
  5
5D9
330
1E
100
AcDbEntity
  8
0
100
AcDbCircle
 10
127.773631
 20
98.17048299999999
 30
0.0
 40
0.156
  0
CIRCLE
  5
5DA
330
1E
100
AcDbEntity
  8
0
100
AcDbCircle
 10
114.0856309999999
 20
98.17048299999999
 30
0.0
 40
0.156
  0
CIRCLE
  5
5DB
330
1E
100
AcDbEntity
  8
0
100
AcDbCircle
 10
112.335631
 20
98.17048299999999
 30
0.0
 40
0.156
  0
CIRCLE
  5
5DC
330
1E
100
AcDbEntity
  8
0
100
AcDbCircle
 10
114.0856309999999
 20
101.1704829999999
 30
0.0
 40
0.156
  0
CIRCLE
  5
5DD
330
1E
100
AcDbEntity
  8
0
100
AcDbCircle
 10
112.335631
 20
101.1704829999999
 30
0.0
 40
0.156
  0
CIRCLE
  5
5DE
330
1E
100
AcDbEntity
  8
0
100
AcDbCircle
 10
112.335631
 20
79.326483
 30
0.0
 40
0.156
  0
CIRCLE
  5
5DF
330
1E
100
AcDbEntity
  8
0
100
AcDbCircle
 10
114.0856309999999
 20
79.326483
 30
0.0
 40
0.156
  0
CIRCLE
  5
5E0
330
1E
100
AcDbEntity
  8
0
100
AcDbCircle
 10
112.335631
 20
82.32648299999999
 30
0.0
 40
0.156
  0
CIRCLE
  5
5E1
330
1E
100
AcDbEntity
  8
0
100
AcDbCircle
 10
114.0856309999999
 20
82.32648299999999
 30
0.0
 40
0.156
  0
CIRCLE
  5
5E2
330
1E
100
AcDbEntity
  8
0
100
AcDbCircle
 10
127.773631
 20
82.32648299999999
 30
0.0
 40
0.156
  0
CIRCLE
  5
5E3
330
1E
100
AcDbEntity
  8
0
100
AcDbCircle
 10
129.5236309999999
 20
82.32648299999999
 30
0.0
 40
0.156
  0
CIRCLE
  5
5E4
330
1E
100
AcDbEntity
  8
0
100
AcDbCircle
 10
127.773631
 20
79.326483
 30
0.0
 40
0.156
  0
CIRCLE
  5
5E5
330
1E
100
AcDbEntity
  8
0
100
AcDbCircle
 10
129.5236309999999
 20
79.326483
 30
0.0
 40
0.156
  0
LINE
  5
5E6
330
1E
100
AcDbEntity
  8
0
100
AcDbLine
 10
110.085631
 20
78.076483
 30
0.0
 11
110.085631
 21
77.57648299999999
 31
0.0
  0
LINE
  5
5E7
330
1E
100
AcDbEntity
  8
0
100
AcDbLine
 10
131.7736309999999
 20
78.076483
 30
0.0
 11
131.7736309999999
 21
77.57648299999999
 31
0.0
  0
LINE
  5
5E8
330
1E
100
AcDbEntity
  8
0
100
AcDbLine
 10
110.085631
 20
78.076483
 30
0.0
 11
131.7736309999999
 21
78.076483
 31
0.0
  0
LINE
  5
5E9
330
1E
100
AcDbEntity
  8
0
100
AcDbLine
 10
110.007631
 20
77.57648299999999
 30
0.0
 11
131.8516309999999
 21
77.57648299999999
 31
0.0
  0
ARC
  5
5EA
330
1E
100
AcDbEntity
  8
0
100
AcDbCircle
 10
125.476131
 20
79.326483
 30
0.0
 40
0.5545
100
AcDbArc
 50
96.41980600000001
 51
263.5801939999999
  0
LINE
  5
5EB
330
1E
100
AcDbEntity
  8
0
100
AcDbLine
 10
125.538131
 20
78.83669799999999
 30
0.0
 11
125.538131
 21
78.69351299999999
 31
0.0
  0
LINE
  5
5EC
330
1E
100
AcDbEntity
  8
0
100
AcDbLine
 10
125.414131
 20
79.918542
 30
0.0
 11
125.414131
 21
79.955664
 31
0.0
  0
LINE
  5
5ED
330
1E
100
AcDbEntity
  8
0
100
AcDbLine
 10
125.414131
 20
78.83669799999999
 30
0.0
 11
125.414131
 21
78.69351299999999
 31
0.0
  0
ARC
  5
5EE
330
1E
100
AcDbEntity
  8
0
100
AcDbCircle
 10
125.476131
 20
79.326483
 30
0.0
 40
0.5545
100
AcDbArc
 50
276.419806
 51
83.58019399999999
  0
LINE
  5
5EF
330
1E
100
AcDbEntity
  8
0
100
AcDbLine
 10
125.538131
 20
79.918542
 30
0.0
 11
125.538131
 21
79.955664
 31
0.0
  0
LINE
  5
5F0
330
1E
100
AcDbEntity
  8
0
100
AcDbLine
 10
125.538131
 20
79.775356
 30
0.0
 11
125.538131
 21
79.918542
 31
0.0
  0
LINE
  5
5F1
330
1E
100
AcDbEntity
  8
0
100
AcDbLine
 10
125.414131
 20
79.918542
 30
0.0
 11
125.414131
 21
79.775356
 31
0.0
  0
LINE
  5
5F2
330
1E
100
AcDbEntity
  8
0
100
AcDbLine
 10
116.445131
 20
79.918542
 30
0.0
 11
116.445131
 21
79.775356
 31
0.0
  0
LINE
  5
5F3
330
1E
100
AcDbEntity
  8
0
100
AcDbLine
 10
116.321131
 20
79.775356
 30
0.0
 11
116.321131
 21
79.918542
 31
0.0
  0
LINE
  5
5F4
330
1E
100
AcDbEntity
  8
0
100
AcDbLine
 10
116.321131
 20
79.918542
 30
0.0
 11
116.321131
 21
79.955664
 31
0.0
  0
ARC
  5
5F5
330
1E
100
AcDbEntity
  8
0
100
AcDbCircle
 10
116.383131
 20
79.326483
 30
0.0
 40
0.5545
100
AcDbArc
 50
96.41980600000001
 51
263.5801939999999
  0
LINE
  5
5F6
330
1E
100
AcDbEntity
  8
0
100
AcDbLine
 10
116.445131
 20
78.83669799999999
 30
0.0
 11
116.445131
 21
78.69351299999999
 31
0.0
  0
LINE
  5
5F7
330
1E
100
AcDbEntity
  8
0
100
AcDbLine
 10
116.445131
 20
79.918542
 30
0.0
 11
116.445131
 21
79.955664
 31
0.0
  0
LINE
  5
5F8
330
1E
100
AcDbEntity
  8
0
100
AcDbLine
 10
116.321131
 20
78.83669799999999
 30
0.0
 11
116.321131
 21
78.69351299999999
 31
0.0
  0
ARC
  5
5F9
330
1E
100
AcDbEntity
  8
0
100
AcDbCircle
 10
116.383131
 20
79.326483
 30
0.0
 40
0.5545
100
AcDbArc
 50
276.419806
 51
83.58019399999999
  0
TEXT
  5
5FA
330
1E
100
AcDbEntity
  8
DIM
100
AcDbText
 10
973.443503
 20
130.4884949999999
 30
0.0
 40
1.25
  1

100
AcDbText
  0
TEXT
  5
5FB
330
1E
100
AcDbEntity
  8
DIM
100
AcDbText
 10
974.5060029999999
 20
126.394736
 30
0.0
 40
1.0
  1

100
AcDbText
  0
LINE
  5
5FC
330
1E
100
AcDbEntity
  8
0
100
AcDbLine
 10
130.492131
 20
198.3911319999999
 30
0.0
 11
131.929631
 21
198.3911319999999
 31
0.0
  0
LINE
  5
5FD
330
1E
100
AcDbEntity
  8
0
100
AcDbLine
 10
110.007631
 20
198.4691319999999
 30
0.0
 11
110.007631
 21
223.8131319999999
 31
0.0
  0
LINE
  5
5FE
330
1E
100
AcDbEntity
  8
0
100
AcDbLine
 10
131.8516309999999
 20
198.4691319999999
 30
0.0
 11
131.8516309999999
 21
223.8131319999999
 31
0.0
  0
LINE
  5
5FF
330
1E
100
AcDbEntity
  8
0
100
AcDbLine
 10
110.007631
 20
198.4691319999999
 30
0.0
 11
131.8516309999999
 21
198.4691319999999
 31
0.0
  0
LINE
  5
600
330
1E
100
AcDbEntity
  8
0
100
AcDbLine
 10
131.929631
 20
198.3911319999999
 30
0.0
 11
131.929631
 21
199.859132
 31
0.0
  0
LINE
  5
601
330
1E
100
AcDbEntity
  8
0
100
AcDbLine
 10
109.9296309999999
 20
198.3911319999999
 30
0.0
 11
109.9296309999999
 21
199.859132
 31
0.0
  0
LINE
  5
602
330
1E
100
AcDbEntity
  8
0
100
AcDbLine
 10
109.9296309999999
 20
198.3911319999999
 30
0.0
 11
111.3671309999999
 21
198.3911319999999
 31
0.0
  0
LINE
  5
603
330
1E
100
AcDbEntity
  8
0
100
AcDbLine
 10
109.9296309999999
 20
223.8911319999999
 30
0.0
 11
111.3671309999999
 21
223.8911319999999
 31
0.0
  0
LINE
  5
604
330
1E
100
AcDbEntity
  8
0
100
AcDbLine
 10
109.9296309999999
 20
223.8911319999999
 30
0.0
 11
109.9296309999999
 21
222.4231319999999
 31
0.0
  0
LINE
  5
605
330
1E
100
AcDbEntity
  8
0
100
AcDbLine
 10
131.929631
 20
223.8911319999999
 30
0.0
 11
131.929631
 21
222.4231319999999
 31
0.0
  0
LINE
  5
606
330
1E
100
AcDbEntity
  8
0
100
AcDbLine
 10
110.007631
 20
223.8131319999999
 30
0.0
 11
131.8516309999999
 21
223.8131319999999
 31
0.0
  0
LINE
  5
607
330
1E
100
AcDbEntity
  8
0
100
AcDbLine
 10
109.9296309999999
 20
222.4231319999999
 30
0.0
 11
110.007631
 21
222.4231319999999
 31
0.0
  0
LINE
  5
608
330
1E
100
AcDbEntity
  8
0
100
AcDbLine
 10
109.9296309999999
 20
199.859132
 30
0.0
 11
110.007631
 21
199.859132
 31
0.0
  0
LINE
  5
609
330
1E
100
AcDbEntity
  8
0
100
AcDbLine
 10
131.8516309999999
 20
222.4231319999999
 30
0.0
 11
131.929631
 21
222.4231319999999
 31
0.0
  0
LINE
  5
60A
330
1E
100
AcDbEntity
  8
0
100
AcDbLine
 10
131.8516309999999
 20
199.859132
 30
0.0
 11
131.929631
 21
199.859132
 31
0.0
  0
LINE
  5
60B
330
1E
100
AcDbEntity
  8
0
100
AcDbLine
 10
129.8986309999999
 20
122.356984
 30
0.0
 11
129.8986309999999
 21
183.606984
 31
0.0
  0
LINE
  5
60C
330
1E
100
AcDbEntity
  8
0
100
AcDbLine
 10
111.961881
 20
183.606984
 30
0.0
 11
111.961881
 21
122.356984
 31
0.0
  0
CIRCLE
  5
60D
330
1E
100
AcDbEntity
  8
0
100
AcDbCircle
 10
130.0861309999999
 20
123.857984
 30
0.0
 40
0.095
  0
CIRCLE
  5
60E
330
1E
100
AcDbEntity
  8
0
100
AcDbCircle
 10
130.0861309999999
 20
123.232984
 30
0.0
 40
0.095
  0
CIRCLE
  5
60F
330
1E
100
AcDbEntity
  8
0
100
AcDbCircle
 10
130.0861309999999
 20
122.607984
 30
0.0
 40
0.095
  0
CIRCLE
  5
610
330
1E
100
AcDbEntity
  8
0
100
AcDbCircle
 10
111.774131
 20
122.607984
 30
0.0
 40
0.095
  0
CIRCLE
  5
611
330
1E
100
AcDbEntity
  8
0
100
AcDbCircle
 10
111.774131
 20
123.232984
 30
0.0
 40
0.095
  0
CIRCLE
  5
612
330
1E
100
AcDbEntity
  8
0
100
AcDbCircle
 10
111.774131
 20
123.857984
 30
0.0
 40
0.095
  0
LINE
  5
613
330
1E
100
AcDbEntity
  8
0
100
AcDbLine
 10
39.869227
 20
123.576984
 30
0.0
 11
39.354227
 21
123.576984
 31
0.0
  0
LINE
  5
614
330
1E
100
AcDbEntity
  8
0
100
AcDbLine
 10
39.354227
 20
123.576984
 30
0.0
 11
39.354227
 21
122.326984
 31
0.0
  0
LINE
  5
615
330
1E
100
AcDbEntity
  8
0
100
AcDbLine
 10
39.354227
 20
182.388984
 30
0.0
 11
39.354227
 21
183.638984
 31
0.0
  0
LINE
  5
616
330
1E
100
AcDbEntity
  8
0
100
AcDbLine
 10
39.869227
 20
182.388984
 30
0.0
 11
39.354227
 21
182.388984
 31
0.0
  0
TEXT
  5
617
330
1E
100
AcDbEntity
  8
OBJECT
100
AcDbText
 10
975.3627460000002
 20
177.0913939999999
 30
0.0
 40
1.25
  1

100
AcDbText
  0
TEXT
  5
618
330
1E
100
AcDbEntity
  8
0
100
AcDbText
 10
8.145578
 20
220.7713959999999
 30
0.0
 40
1.674
  1
%%uNOTES:
 41
0.75
100
AcDbText
  0
TEXT
  5
619
330
1E
100
AcDbEntity
  8
0
100
AcDbText
 10
8.145578
 20
217.98586
 30
0.0
 40
1.674
  1
PANEL MOUNTING RAILS TAPPED #10-32 ON E.I.A. UNIVERSAL
 41
0.75
100
AcDbText
  0
TEXT
  5
61A
330
1E
100
AcDbEntity
  8
0
100
AcDbText
 10
8.145578
 20
209.6292519999999
 30
0.0
 40
1.674
  1
MOUNTING HOLES PIERCED IN BASE FOR #RC-7758 CASTERS.
 41
0.75
100
AcDbText
  0
TEXT
  5
61B
330
1E
100
AcDbEntity
  8
0
100
AcDbText
 10
5.552952999999999
 20
217.98586
 30
0.0
 40
1.674
  1
1
 41
0.75
 72
     4
 11
5.762202999999999
 21
218.82286
 31
0.0
100
AcDbText
  0
LWPOLYLINE
  5
61C
330
1E
100
AcDbEntity
  8
0
100
AcDbPolyline
 90
        6
 70
     1
 43
0.0
 10
4.989016
 20
220.16206
 10
4.215828
 20
218.82286
 10
4.989016
 20
217.48366
 10
6.535391
 20
217.48366
 10
7.308577999999999
 20
218.82286
 10
6.535391
 20
220.16206
  0
TEXT
  5
624
330
1E
100
AcDbEntity
  8
0
100
AcDbText
 10
115.751896625
 20
195.0118449999999
 30
0.0
 40
1.71875
  1
%%uTOP VIEW
 41
0.75
 72
     1
 11
120.929631
 21
195.0118449999999
 31
0.0
100
AcDbText
  0
TEXT
  5
625
330
1E
100
AcDbEntity
  8
0
100
AcDbText
 10
114.462834125
 20
115.9697169999999
 30
0.0
 40
1.71875
  1
%%uFRONT VIEW
 41
0.75
 72
     1
 11
120.929631
 21
115.9697169999999
 31
0.0
100
AcDbText
  0
TEXT
  5
626
330
1E
100
AcDbEntity
  8
0
100
AcDbText
 10
70.753135125
 20
115.877472
 30
0.0
 40
1.71875
  1
%%uSIDE VIEW
 41
0.75
 72
     1
 11
76.360557
 21
115.877472
 31
0.0
100
AcDbText
  0
TEXT
  5
627
330
1E
100
AcDbEntity
  8
0
100
AcDbText
 10
24.483461375
 20
105.496361
 30
0.0
 40
1.71875
  1
%%uREAR VIEW
 41
0.75
 72
     1
 11
30.305727
 21
105.496361
 31
0.0
100
AcDbText
  0
TEXT
  5
628
330
1E
100
AcDbEntity
  8
0
100
AcDbText
 10
113.818302875
 20
63.39039200000001
 30
0.0
 40
1.71875
  1
%%uBOTTOM VIEW
 41
0.75
 72
     1
 11
120.929631
 21
63.39039200000001
 31
0.0
100
AcDbText
  0
LINE
  5
629
330
1E
100
AcDbEntity
  8
0
100
AcDbLine
 10
111.476131
 20
223.8911319999999
 30
0.0
 11
111.476131
 21
223.8131319999999
 31
0.0
  0
LINE
  5
62A
330
1E
100
AcDbEntity
  8
0
100
AcDbLine
 10
130.492131
 20
223.8911319999999
 30
0.0
 11
131.929631
 21
223.8911319999999
 31
0.0
  0
DIMENSION
  5
62B
330
1E
100
AcDbEntity
  8
0
100
AcDbDimension
  2
*D6
 10
104.529631
 20
98.17048299999999
 30
0.0
 11
104.5296309999999
 21
99.67048300000001
 31
0.0
 70
    32
 71
     5
 42
3.0
  3
23NSTDI
100
AcDbAlignedDimension
 13
112.335631
 23
101.1704829999999
 33
0.0
 14
112.335631
 24
98.17048299999999
 34
0.0
 50
270.0
100
AcDbRotatedDimension
  0
DIMENSION
  5
639
330
1E
100
AcDbEntity
  8
0
100
AcDbDimension
  2
*D7
 10
100.3146309999999
 20
101.1704829999999
 30
0.0
 11
93.68650599999998
 21
95.77048300000001
 31
0.0
 70
    32
 71
     5
 42
1.828000000000002
  3
23NSTD
100
AcDbAlignedDimension
 13
109.9296309999999
 23
102.9984829999999
 33
0.0
 14
112.335631
 24
101.1704829999999
 34
0.0
 50
270.0
100
AcDbRotatedDimension
  0
LINE
  5
647
330
1E
100
AcDbEntity
  8
0
100
AcDbLine
 10
131.351631
 20
102.4204829999999
 30
0.0
 11
131.351631
 21
78.076483
 31
0.0
  0
LINE
  5
648
330
1E
100
AcDbEntity
  8
0
100
AcDbLine
 10
110.507631
 20
102.4204829999999
 30
0.0
 11
110.507631
 21
78.076483
 31
0.0
  0
DIMENSION
  5
649
330
1E
100
AcDbEntity
  8
0
100
AcDbDimension
  2
*D8
 10
114.0856309999999
 20
108.398483
 30
0.0
 11
123.2965685
 21
108.398483
 31
0.0
 70
    32
 71
     5
 42
1.75
  3
23NSTD
100
AcDbAlignedDimension
 13
112.335631
 23
101.1704829999999
 33
0.0
 14
114.0856309999999
 24
101.1704829999999
 34
0.0
100
AcDbRotatedDimension
  0
DIMENSION
  5
657
330
1E
100
AcDbEntity
  8
0
100
AcDbDimension
  2
*D9
 10
112.335631
 20
112.613483
 30
0.0
 11
121.7809435
 21
112.613483
 31
0.0
 70
    32
 71
     5
 42
2.406000000000005
  3
23NSTD
100
AcDbAlignedDimension
 13
109.9296309999999
 23
102.9984829999999
 33
0.0
 14
112.335631
 24
101.1704829999999
 34
0.0
100
AcDbRotatedDimension
  0
LWPOLYLINE
  5
665
330
1E
100
AcDbEntity
  8
0
100
AcDbPolyline
 90
        4
 70
     0
 10
116.149131
 20
90.248483
 40
0.0
 41
1.012502
 10
113.80474
 20
88.909134
 40
0.0
 41
0.0
 10
101.4926699999999
 20
82.20796400000001
 40
0.0
 41
0.0
 10
99.617667
 20
82.20796400000001
 40
0.0
 41
0.0
  0
TEXT
  5
66B
330
1E
100
AcDbEntity
  8
0
100
AcDbText
 10
83.17801700000002
 20
81.270462
 30
0.0
 40
1.875002999999999
  1
9.561 x 9.561
 41
0.75
  7
TXT
 72
     2
 11
98.17804100000001
 21
81.270462
 31
0.0
100
AcDbText
  0
DIMENSION
  5
66C
330
1E
100
AcDbEntity
  8
0
100
AcDbDimension
  2
*D10
 10
130.492131
 20
169.438281
 30
0.0
 11
120.929631
 21
169.438281
 31
0.0
 70
    32
  1
<>
 71
     5
 42
19.125
  3
23T-P0$031000-M0$031000I
100
AcDbAlignedDimension
 13
111.3671309999999
 23
169.438281
 33
0.0
 14
130.492131
 24
169.438281
 34
0.0
100
AcDbRotatedDimension
  0
DIMENSION
  5
67A
330
1E
100
AcDbEntity
  8
0
100
AcDbDimension
  2
*D11
 10
130.0861309999999
 20
173.626045
 30
0.0
 11
120.930131
 21
173.626045
 31
0.0
 70
    32
  1
<>
 71
     5
 42
18.31199999999998
  3
23T-P0$062000-M0$062000I
100
AcDbAlignedDimension
 13
111.774131
 23
173.626045
 33
0.0
 14
130.0861309999999
 24
173.626045
 34
0.0
100
AcDbRotatedDimension
  0
DIMENSION
  5
688
330
1E
100
AcDbEntity
  8
0
100
AcDbDimension
  2
*D12
 10
129.8986309999999
 20
177.644326
 30
0.0
 11
120.930256
 21
177.644326
 31
0.0
 70
    32
  1
<>
 71
     5
 42
17.93674999999999
  3
23T-P0$093000-M0$093000I
100
AcDbAlignedDimension
 13
111.961881
 23
177.644326
 33
0.0
 14
129.8986309999999
 24
177.644326
 34
0.0
100
AcDbRotatedDimension
  0
DIMENSION
  5
696
330
1E
100
AcDbEntity
  8
0
100
AcDbDimension
  2
*D13
 10
131.929631
 20
191.663984
 30
0.0
 11
120.929631
 21
191.663984
 31
0.0
 70
    32
  1
<>
 71
     5
 42
22.0
  3
23T-P0$062000-M0$062000I
100
AcDbAlignedDimension
 13
109.9296309999999
 23
186.263984
 33
0.0
 14
131.929631
 24
186.263984
 34
0.0
100
AcDbRotatedDimension
  0
DIMENSION
  5
6A4
330
1E
100
AcDbEntity
  8
0
100
AcDbDimension
  2
*D14
 10
100.3146309999999
 20
183.638984
 30
0.0
 11
100.3146309999999
 21
152.982984
 31
0.0
 70
    32
  1
A
 71
     5
 42
61.31200000000001
  3
23T-P0$031000-M0$031000
100
AcDbAlignedDimension
 13
111.3671309999999
 23
122.326984
 33
0.0
 14
111.3671309999999
 24
183.638984
 34
0.0
 50
90.0
100
AcDbRotatedDimension
  0
DIMENSION
  5
6B2
330
1E
100
AcDbEntity
  8
0
100
AcDbDimension
  2
*D15
 10
100.3146309999999
 20
186.263984
 30
0.0
 11
100.3146309999999
 21
184.951484
 31
0.0
 70
    32
 71
     5
 42
2.625
  3
23NSTDI
100
AcDbAlignedDimension
 13
111.3671309999999
 23
183.638984
 33
0.0
 14
109.9296309999999
 24
186.263984
 34
0.0
 50
90.0
100
AcDbRotatedDimension
  0
DIMENSION
  5
6C0
330
1E
100
AcDbEntity
  8
0
100
AcDbDimension
  2
*D16
 10
137.329631
 20
186.263984
 30
0.0
 11
137.3296309999999
 21
152.982984
 31
0.0
 70
    32
  1
B
 71
     5
 42
66.56200000000001
  3
23T-P0$062000-M0$062000
100
AcDbAlignedDimension
 13
131.929631
 23
119.701984
 33
0.0
 14
131.929631
 24
186.263984
 34
0.0
 50
90.0
100
AcDbRotatedDimension
  0
DIMENSION
  5
6CE
330
1E
100
AcDbEntity
  8
0
100
AcDbDimension
  2
*D17
 10
88.58754000000001
 20
139.217484
 30
0.0
 11
76.58754
 21
139.217484
 31
0.0
 70
    32
  1
D
 71
     5
 42
24.0
  3
23NSTD
100
AcDbAlignedDimension
 13
64.58754
 23
139.217484
 33
0.0
 14
88.58754000000001
 24
139.217484
 34
0.0
100
AcDbRotatedDimension
  0
DIMENSION
  5
6DC
330
1E
100
AcDbEntity
  8
0
100
AcDbDimension
  2
*D18
 10
56.78654
 20
181.888984
 30
0.0
 11
56.78653999999997
 21
168.123484
 31
0.0
 70
    32
  1
E
 71
     5
 42
27.531
  3
23NSTD
100
AcDbAlignedDimension
 13
65.21278999999999
 23
154.357984
 33
0.0
 14
65.21278999999999
 24
181.888984
 34
0.0
 50
90.0
100
AcDbRotatedDimension
  0
DIMENSION
  5
6EA
330
1E
100
AcDbEntity
  8
0
100
AcDbDimension
  2
*D19
 10
50.364652
 20
119.701984
 30
0.0
 11
50.36465199999998
 21
121.889484
 31
0.0
 70
    32
 71
     5
 42
4.375
  3
23NSTDI
100
AcDbAlignedDimension
 13
65.21278999999999
 23
124.076984
 33
0.0
 14
63.83754
 24
119.701984
 34
0.0
 50
90.0
100
AcDbRotatedDimension
  0
DIMENSION
  5
6F8
330
1E
100
AcDbEntity
  8
0
100
AcDbDimension
  2
*D20
 10
100.3146309999999
 20
119.701984
 30
0.0
 11
100.3146309999999
 21
121.014484
 31
0.0
 70
    32
 71
     5
 42
2.625
  3
23NSTDI
100
AcDbAlignedDimension
 13
111.3671309999999
 23
122.326984
 33
0.0
 14
109.9296309999999
 24
119.701984
 34
0.0
 50
90.0
100
AcDbRotatedDimension
  0
DIMENSION
  5
706
330
1E
100
AcDbEntity
  8
0
100
AcDbDimension
  2
*D21
 10
125.476131
 20
72.098483
 30
0.0
 11
120.929631
 21
72.098483
 31
0.0
 70
    32
 71
     5
 42
9.093000000000003
  3
23NSTDI
100
AcDbAlignedDimension
 13
116.383131
 23
79.326483
 33
0.0
 14
125.476131
 24
79.326483
 34
0.0
100
AcDbRotatedDimension
  0
DIMENSION
  5
714
330
1E
100
AcDbEntity
  8
0
100
AcDbDimension
  2
*D22
 10
131.929631
 20
67.883483
 30
0.0
 11
128.702881
 21
67.883483
 31
0.0
 70
    32
 71
     5
 42
6.453499999999991
  3
23NSTDI
100
AcDbAlignedDimension
 13
125.476131
 23
79.326483
 33
0.0
 14
131.929631
 24
78.014483
 34
0.0
100
AcDbRotatedDimension
  0
LWPOLYLINE
  5
722
330
1E
100
AcDbEntity
  8
0
100
AcDbPolyline
 90
        4
 70
     0
 10
25.329794
 20
120.6631879999999
 40
0.0
 41
1.012499999999999
 10
24.14798
 20
118.235573
 40
0.0
 41
0.0
 10
20.679395
 20
111.1091149999999
 40
0.0
 41
0.0
 10
18.80439199999999
 20
111.1091149999999
 40
0.0
 41
0.0
  0
TEXT
  5
728
330
1E
100
AcDbEntity
  8
0
100
AcDbText
 10
6.851247875000002
 20
110.171613
 30
0.0
 40
1.875002999999999
  1
1.109 DIA.
 41
0.75
 72
     2
 11
16.929389
 21
110.171613
 31
0.0
100
AcDbText
  0
TEXT
  5
729
330
1E
100
AcDbEntity
  8
0
100
AcDbText
 10
6.148121749999999
 20
107.046608
 30
0.0
 40
1.875002999999999
  1
KNOCKOUT
 41
0.75
 72
     2
 11
16.929389
 21
107.046608
 31
0.0
100
AcDbText
  0
TEXT
  5
72A
330
1E
100
AcDbEntity
  8
0
100
AcDbText
 10
4.273118749999998
 20
103.9216029999999
 30
0.0
 40
1.875002999999999
  1
(4) PLACES
 41
0.75
 72
     2
 11
16.929389
 21
103.9216029999999
 31
0.0
100
AcDbText
  0
CIRCLE
  5
72B
330
1E
100
AcDbEntity
  8
0
100
AcDbCircle
 10
111.774131
 20
124.982984
 30
0.0
 40
0.095
  0
CIRCLE
  5
72C
330
1E
100
AcDbEntity
  8
0
100
AcDbCircle
 10
111.774131
 20
125.6079839999999
 30
0.0
 40
0.095
  0
CIRCLE
  5
72D
330
1E
100
AcDbEntity
  8
0
100
AcDbCircle
 10
111.774131
 20
124.3579839999999
 30
0.0
 40
0.095
  0
CIRCLE
  5
72E
330
1E
100
AcDbEntity
  8
0
100
AcDbCircle
 10
130.0861309999999
 20
125.6079839999999
 30
0.0
 40
0.095
  0
CIRCLE
  5
72F
330
1E
100
AcDbEntity
  8
0
100
AcDbCircle
 10
130.0861309999999
 20
124.982984
 30
0.0
 40
0.095
  0
CIRCLE
  5
730
330
1E
100
AcDbEntity
  8
0
100
AcDbCircle
 10
130.0861309999999
 20
124.3579839999999
 30
0.0
 40
0.095
  0
CIRCLE
  5
731
330
1E
100
AcDbEntity
  8
0
100
AcDbCircle
 10
111.774131
 20
126.732984
 30
0.0
 40
0.095
  0
CIRCLE
  5
732
330
1E
100
AcDbEntity
  8
0
100
AcDbCircle
 10
111.774131
 20
127.357984
 30
0.0
 40
0.095
  0
CIRCLE
  5
733
330
1E
100
AcDbEntity
  8
0
100
AcDbCircle
 10
111.774131
 20
126.107984
 30
0.0
 40
0.095
  0
CIRCLE
  5
734
330
1E
100
AcDbEntity
  8
0
100
AcDbCircle
 10
130.0861309999999
 20
127.357984
 30
0.0
 40
0.095
  0
CIRCLE
  5
735
330
1E
100
AcDbEntity
  8
0
100
AcDbCircle
 10
130.0861309999999
 20
126.732984
 30
0.0
 40
0.095
  0
CIRCLE
  5
736
330
1E
100
AcDbEntity
  8
0
100
AcDbCircle
 10
130.0861309999999
 20
126.107984
 30
0.0
 40
0.095
  0
CIRCLE
  5
737
330
1E
100
AcDbEntity
  8
0
100
AcDbCircle
 10
111.774131
 20
128.482984
 30
0.0
 40
0.095
  0
CIRCLE
  5
738
330
1E
100
AcDbEntity
  8
0
100
AcDbCircle
 10
111.774131
 20
129.107984
 30
0.0
 40
0.095
  0
CIRCLE
  5
739
330
1E
100
AcDbEntity
  8
0
100
AcDbCircle
 10
111.774131
 20
127.857984
 30
0.0
 40
0.095
  0
CIRCLE
  5
73A
330
1E
100
AcDbEntity
  8
0
100
AcDbCircle
 10
130.0861309999999
 20
129.107984
 30
0.0
 40
0.095
  0
CIRCLE
  5
73B
330
1E
100
AcDbEntity
  8
0
100
AcDbCircle
 10
130.0861309999999
 20
128.482984
 30
0.0
 40
0.095
  0
CIRCLE
  5
73C
330
1E
100
AcDbEntity
  8
0
100
AcDbCircle
 10
130.0861309999999
 20
127.857984
 30
0.0
 40
0.095
  0
CIRCLE
  5
73D
330
1E
100
AcDbEntity
  8
0
100
AcDbCircle
 10
111.774131
 20
130.232984
 30
0.0
 40
0.095
  0
CIRCLE
  5
73E
330
1E
100
AcDbEntity
  8
0
100
AcDbCircle
 10
111.774131
 20
130.857984
 30
0.0
 40
0.095
  0
CIRCLE
  5
73F
330
1E
100
AcDbEntity
  8
0
100
AcDbCircle
 10
111.774131
 20
129.607984
 30
0.0
 40
0.095
  0
CIRCLE
  5
740
330
1E
100
AcDbEntity
  8
0
100
AcDbCircle
 10
130.0861309999999
 20
130.857984
 30
0.0
 40
0.095
  0
CIRCLE
  5
741
330
1E
100
AcDbEntity
  8
0
100
AcDbCircle
 10
130.0861309999999
 20
130.232984
 30
0.0
 40
0.095
  0
CIRCLE
  5
742
330
1E
100
AcDbEntity
  8
0
100
AcDbCircle
 10
130.0861309999999
 20
129.607984
 30
0.0
 40
0.095
  0
CIRCLE
  5
743
330
1E
100
AcDbEntity
  8
0
100
AcDbCircle
 10
111.774131
 20
131.982984
 30
0.0
 40
0.095
  0
CIRCLE
  5
744
330
1E
100
AcDbEntity
  8
0
100
AcDbCircle
 10
111.774131
 20
132.607984
 30
0.0
 40
0.095
  0
CIRCLE
  5
745
330
1E
100
AcDbEntity
  8
0
100
AcDbCircle
 10
111.774131
 20
131.357984
 30
0.0
 40
0.095
  0
CIRCLE
  5
746
330
1E
100
AcDbEntity
  8
0
100
AcDbCircle
 10
130.0861309999999
 20
132.607984
 30
0.0
 40
0.095
  0
CIRCLE
  5
747
330
1E
100
AcDbEntity
  8
0
100
AcDbCircle
 10
130.0861309999999
 20
131.982984
 30
0.0
 40
0.095
  0
CIRCLE
  5
748
330
1E
100
AcDbEntity
  8
0
100
AcDbCircle
 10
130.0861309999999
 20
131.357984
 30
0.0
 40
0.095
  0
CIRCLE
  5
749
330
1E
100
AcDbEntity
  8
0
100
AcDbCircle
 10
111.774131
 20
133.732984
 30
0.0
 40
0.095
  0
CIRCLE
  5
74A
330
1E
100
AcDbEntity
  8
0
100
AcDbCircle
 10
111.774131
 20
134.357984
 30
0.0
 40
0.095
  0
CIRCLE
  5
74B
330
1E
100
AcDbEntity
  8
0
100
AcDbCircle
 10
111.774131
 20
133.107984
 30
0.0
 40
0.095
  0
CIRCLE
  5
74C
330
1E
100
AcDbEntity
  8
0
100
AcDbCircle
 10
130.0861309999999
 20
134.357984
 30
0.0
 40
0.095
  0
CIRCLE
  5
74D
330
1E
100
AcDbEntity
  8
0
100
AcDbCircle
 10
130.0861309999999
 20
133.732984
 30
0.0
 40
0.095
  0
CIRCLE
  5
74E
330
1E
100
AcDbEntity
  8
0
100
AcDbCircle
 10
130.0861309999999
 20
133.107984
 30
0.0
 40
0.095
  0
CIRCLE
  5
74F
330
1E
100
AcDbEntity
  8
0
100
AcDbCircle
 10
111.774131
 20
135.482984
 30
0.0
 40
0.095
  0
CIRCLE
  5
750
330
1E
100
AcDbEntity
  8
0
100
AcDbCircle
 10
111.774131
 20
136.107984
 30
0.0
 40
0.095
  0
CIRCLE
  5
751
330
1E
100
AcDbEntity
  8
0
100
AcDbCircle
 10
111.774131
 20
134.857984
 30
0.0
 40
0.095
  0
CIRCLE
  5
752
330
1E
100
AcDbEntity
  8
0
100
AcDbCircle
 10
130.0861309999999
 20
136.107984
 30
0.0
 40
0.095
  0
CIRCLE
  5
753
330
1E
100
AcDbEntity
  8
0
100
AcDbCircle
 10
130.0861309999999
 20
135.482984
 30
0.0
 40
0.095
  0
CIRCLE
  5
754
330
1E
100
AcDbEntity
  8
0
100
AcDbCircle
 10
130.0861309999999
 20
134.857984
 30
0.0
 40
0.095
  0
CIRCLE
  5
755
330
1E
100
AcDbEntity
  8
0
100
AcDbCircle
 10
111.774131
 20
137.232984
 30
0.0
 40
0.095
  0
CIRCLE
  5
756
330
1E
100
AcDbEntity
  8
0
100
AcDbCircle
 10
111.774131
 20
137.857984
 30
0.0
 40
0.095
  0
CIRCLE
  5
757
330
1E
100
AcDbEntity
  8
0
100
AcDbCircle
 10
111.774131
 20
136.607984
 30
0.0
 40
0.095
  0
CIRCLE
  5
758
330
1E
100
AcDbEntity
  8
0
100
AcDbCircle
 10
130.0861309999999
 20
137.857984
 30
0.0
 40
0.095
  0
CIRCLE
  5
759
330
1E
100
AcDbEntity
  8
0
100
AcDbCircle
 10
130.0861309999999
 20
137.232984
 30
0.0
 40
0.095
  0
CIRCLE
  5
75A
330
1E
100
AcDbEntity
  8
0
100
AcDbCircle
 10
130.0861309999999
 20
136.607984
 30
0.0
 40
0.095
  0
CIRCLE
  5
75B
330
1E
100
AcDbEntity
  8
0
100
AcDbCircle
 10
111.774131
 20
138.982984
 30
0.0
 40
0.095
  0
CIRCLE
  5
75C
330
1E
100
AcDbEntity
  8
0
100
AcDbCircle
 10
111.774131
 20
139.607984
 30
0.0
 40
0.095
  0
CIRCLE
  5
75D
330
1E
100
AcDbEntity
  8
0
100
AcDbCircle
 10
111.774131
 20
138.357984
 30
0.0
 40
0.095
  0
CIRCLE
  5
75E
330
1E
100
AcDbEntity
  8
0
100
AcDbCircle
 10
130.0861309999999
 20
139.607984
 30
0.0
 40
0.095
  0
CIRCLE
  5
75F
330
1E
100
AcDbEntity
  8
0
100
AcDbCircle
 10
130.0861309999999
 20
138.982984
 30
0.0
 40
0.095
  0
CIRCLE
  5
760
330
1E
100
AcDbEntity
  8
0
100
AcDbCircle
 10
130.0861309999999
 20
138.357984
 30
0.0
 40
0.095
  0
CIRCLE
  5
761
330
1E
100
AcDbEntity
  8
0
100
AcDbCircle
 10
111.774131
 20
140.732984
 30
0.0
 40
0.095
  0
CIRCLE
  5
762
330
1E
100
AcDbEntity
  8
0
100
AcDbCircle
 10
111.774131
 20
141.357984
 30
0.0
 40
0.095
  0
CIRCLE
  5
763
330
1E
100
AcDbEntity
  8
0
100
AcDbCircle
 10
111.774131
 20
140.107984
 30
0.0
 40
0.095
  0
CIRCLE
  5
764
330
1E
100
AcDbEntity
  8
0
100
AcDbCircle
 10
130.0861309999999
 20
141.357984
 30
0.0
 40
0.095
  0
CIRCLE
  5
765
330
1E
100
AcDbEntity
  8
0
100
AcDbCircle
 10
130.0861309999999
 20
140.732984
 30
0.0
 40
0.095
  0
CIRCLE
  5
766
330
1E
100
AcDbEntity
  8
0
100
AcDbCircle
 10
130.0861309999999
 20
140.107984
 30
0.0
 40
0.095
  0
CIRCLE
  5
767
330
1E
100
AcDbEntity
  8
0
100
AcDbCircle
 10
111.774131
 20
142.482984
 30
0.0
 40
0.095
  0
CIRCLE
  5
768
330
1E
100
AcDbEntity
  8
0
100
AcDbCircle
 10
111.774131
 20
143.107984
 30
0.0
 40
0.095
  0
CIRCLE
  5
769
330
1E
100
AcDbEntity
  8
0
100
AcDbCircle
 10
111.774131
 20
141.857984
 30
0.0
 40
0.095
  0
CIRCLE
  5
76A
330
1E
100
AcDbEntity
  8
0
100
AcDbCircle
 10
130.0861309999999
 20
143.107984
 30
0.0
 40
0.095
  0
CIRCLE
  5
76B
330
1E
100
AcDbEntity
  8
0
100
AcDbCircle
 10
130.0861309999999
 20
142.482984
 30
0.0
 40
0.095
  0
CIRCLE
  5
76C
330
1E
100
AcDbEntity
  8
0
100
AcDbCircle
 10
130.0861309999999
 20
141.857984
 30
0.0
 40
0.095
  0
CIRCLE
  5
76D
330
1E
100
AcDbEntity
  8
0
100
AcDbCircle
 10
111.774131
 20
144.232984
 30
0.0
 40
0.095
  0
CIRCLE
  5
76E
330
1E
100
AcDbEntity
  8
0
100
AcDbCircle
 10
111.774131
 20
144.857984
 30
0.0
 40
0.095
  0
CIRCLE
  5
76F
330
1E
100
AcDbEntity
  8
0
100
AcDbCircle
 10
111.774131
 20
143.607984
 30
0.0
 40
0.095
  0
CIRCLE
  5
770
330
1E
100
AcDbEntity
  8
0
100
AcDbCircle
 10
130.0861309999999
 20
144.857984
 30
0.0
 40
0.095
  0
CIRCLE
  5
771
330
1E
100
AcDbEntity
  8
0
100
AcDbCircle
 10
130.0861309999999
 20
144.232984
 30
0.0
 40
0.095
  0
CIRCLE
  5
772
330
1E
100
AcDbEntity
  8
0
100
AcDbCircle
 10
130.0861309999999
 20
143.607984
 30
0.0
 40
0.095
  0
CIRCLE
  5
773
330
1E
100
AcDbEntity
  8
0
100
AcDbCircle
 10
111.774131
 20
145.982984
 30
0.0
 40
0.095
  0
CIRCLE
  5
774
330
1E
100
AcDbEntity
  8
0
100
AcDbCircle
 10
111.774131
 20
146.607984
 30
0.0
 40
0.095
  0
CIRCLE
  5
775
330
1E
100
AcDbEntity
  8
0
100
AcDbCircle
 10
111.774131
 20
145.357984
 30
0.0
 40
0.095
  0
CIRCLE
  5
776
330
1E
100
AcDbEntity
  8
0
100
AcDbCircle
 10
130.0861309999999
 20
146.607984
 30
0.0
 40
0.095
  0
CIRCLE
  5
777
330
1E
100
AcDbEntity
  8
0
100
AcDbCircle
 10
130.0861309999999
 20
145.982984
 30
0.0
 40
0.095
  0
CIRCLE
  5
778
330
1E
100
AcDbEntity
  8
0
100
AcDbCircle
 10
130.0861309999999
 20
145.357984
 30
0.0
 40
0.095
  0
CIRCLE
  5
779
330
1E
100
AcDbEntity
  8
0
100
AcDbCircle
 10
111.774131
 20
147.732984
 30
0.0
 40
0.095
  0
CIRCLE
  5
77A
330
1E
100
AcDbEntity
  8
0
100
AcDbCircle
 10
111.774131
 20
148.357984
 30
0.0
 40
0.095
  0
CIRCLE
  5
77B
330
1E
100
AcDbEntity
  8
0
100
AcDbCircle
 10
111.774131
 20
147.107984
 30
0.0
 40
0.095
  0
CIRCLE
  5
77C
330
1E
100
AcDbEntity
  8
0
100
AcDbCircle
 10
130.0861309999999
 20
148.357984
 30
0.0
 40
0.095
  0
CIRCLE
  5
77D
330
1E
100
AcDbEntity
  8
0
100
AcDbCircle
 10
130.0861309999999
 20
147.732984
 30
0.0
 40
0.095
  0
CIRCLE
  5
77E
330
1E
100
AcDbEntity
  8
0
100
AcDbCircle
 10
130.0861309999999
 20
147.107984
 30
0.0
 40
0.095
  0
CIRCLE
  5
77F
330
1E
100
AcDbEntity
  8
0
100
AcDbCircle
 10
111.774131
 20
168.732984
 30
0.0
 40
0.095
  0
CIRCLE
  5
780
330
1E
100
AcDbEntity
  8
0
100
AcDbCircle
 10
111.774131
 20
169.357984
 30
0.0
 40
0.095
  0
CIRCLE
  5
781
330
1E
100
AcDbEntity
  8
0
100
AcDbCircle
 10
111.774131
 20
148.857984
 30
0.0
 40
0.095
  0
CIRCLE
  5
782
330
1E
100
AcDbEntity
  8
0
100
AcDbCircle
 10
130.0861309999999
 20
169.357984
 30
0.0
 40
0.095
  0
CIRCLE
  5
783
330
1E
100
AcDbEntity
  8
0
100
AcDbCircle
 10
130.0861309999999
 20
168.732984
 30
0.0
 40
0.095
  0
CIRCLE
  5
784
330
1E
100
AcDbEntity
  8
0
100
AcDbCircle
 10
130.0861309999999
 20
148.857984
 30
0.0
 40
0.095
  0
CIRCLE
  5
785
330
1E
100
AcDbEntity
  8
0
100
AcDbCircle
 10
111.774131
 20
170.482984
 30
0.0
 40
0.095
  0
CIRCLE
  5
786
330
1E
100
AcDbEntity
  8
0
100
AcDbCircle
 10
111.774131
 20
171.107984
 30
0.0
 40
0.095
  0
CIRCLE
  5
787
330
1E
100
AcDbEntity
  8
0
100
AcDbCircle
 10
111.774131
 20
169.857984
 30
0.0
 40
0.095
  0
CIRCLE
  5
788
330
1E
100
AcDbEntity
  8
0
100
AcDbCircle
 10
130.0861309999999
 20
171.107984
 30
0.0
 40
0.095
  0
CIRCLE
  5
789
330
1E
100
AcDbEntity
  8
0
100
AcDbCircle
 10
130.0861309999999
 20
170.482984
 30
0.0
 40
0.095
  0
CIRCLE
  5
78A
330
1E
100
AcDbEntity
  8
0
100
AcDbCircle
 10
130.0861309999999
 20
169.857984
 30
0.0
 40
0.095
  0
CIRCLE
  5
78B
330
1E
100
AcDbEntity
  8
0
100
AcDbCircle
 10
111.774131
 20
172.232984
 30
0.0
 40
0.095
  0
CIRCLE
  5
78C
330
1E
100
AcDbEntity
  8
0
100
AcDbCircle
 10
111.774131
 20
172.857984
 30
0.0
 40
0.095
  0
CIRCLE
  5
78D
330
1E
100
AcDbEntity
  8
0
100
AcDbCircle
 10
111.774131
 20
171.607984
 30
0.0
 40
0.095
  0
CIRCLE
  5
78E
330
1E
100
AcDbEntity
  8
0
100
AcDbCircle
 10
130.0861309999999
 20
172.857984
 30
0.0
 40
0.095
  0
CIRCLE
  5
78F
330
1E
100
AcDbEntity
  8
0
100
AcDbCircle
 10
130.0861309999999
 20
172.232984
 30
0.0
 40
0.095
  0
CIRCLE
  5
790
330
1E
100
AcDbEntity
  8
0
100
AcDbCircle
 10
130.0861309999999
 20
171.607984
 30
0.0
 40
0.095
  0
CIRCLE
  5
791
330
1E
100
AcDbEntity
  8
0
100
AcDbCircle
 10
111.774131
 20
173.982984
 30
0.0
 40
0.095
  0
CIRCLE
  5
792
330
1E
100
AcDbEntity
  8
0
100
AcDbCircle
 10
111.774131
 20
174.607984
 30
0.0
 40
0.095
  0
CIRCLE
  5
793
330
1E
100
AcDbEntity
  8
0
100
AcDbCircle
 10
111.774131
 20
173.357984
 30
0.0
 40
0.095
  0
CIRCLE
  5
794
330
1E
100
AcDbEntity
  8
0
100
AcDbCircle
 10
130.0861309999999
 20
174.607984
 30
0.0
 40
0.095
  0
CIRCLE
  5
795
330
1E
100
AcDbEntity
  8
0
100
AcDbCircle
 10
130.0861309999999
 20
173.982984
 30
0.0
 40
0.095
  0
CIRCLE
  5
796
330
1E
100
AcDbEntity
  8
0
100
AcDbCircle
 10
130.0861309999999
 20
173.357984
 30
0.0
 40
0.095
  0
CIRCLE
  5
797
330
1E
100
AcDbEntity
  8
0
100
AcDbCircle
 10
111.774131
 20
175.732984
 30
0.0
 40
0.095
  0
CIRCLE
  5
798
330
1E
100
AcDbEntity
  8
0
100
AcDbCircle
 10
111.774131
 20
176.357984
 30
0.0
 40
0.095
  0
CIRCLE
  5
799
330
1E
100
AcDbEntity
  8
0
100
AcDbCircle
 10
111.774131
 20
175.107984
 30
0.0
 40
0.095
  0
CIRCLE
  5
79A
330
1E
100
AcDbEntity
  8
0
100
AcDbCircle
 10
130.0861309999999
 20
176.357984
 30
0.0
 40
0.095
  0
CIRCLE
  5
79B
330
1E
100
AcDbEntity
  8
0
100
AcDbCircle
 10
130.0861309999999
 20
175.732984
 30
0.0
 40
0.095
  0
CIRCLE
  5
79C
330
1E
100
AcDbEntity
  8
0
100
AcDbCircle
 10
130.0861309999999
 20
175.107984
 30
0.0
 40
0.095
  0
CIRCLE
  5
79D
330
1E
100
AcDbEntity
  8
0
100
AcDbCircle
 10
111.774131
 20
177.482984
 30
0.0
 40
0.095
  0
CIRCLE
  5
79E
330
1E
100
AcDbEntity
  8
0
100
AcDbCircle
 10
111.774131
 20
178.107984
 30
0.0
 40
0.095
  0
CIRCLE
  5
79F
330
1E
100
AcDbEntity
  8
0
100
AcDbCircle
 10
111.774131
 20
176.857984
 30
0.0
 40
0.095
  0
CIRCLE
  5
7A0
330
1E
100
AcDbEntity
  8
0
100
AcDbCircle
 10
130.0861309999999
 20
178.107984
 30
0.0
 40
0.095
  0
CIRCLE
  5
7A1
330
1E
100
AcDbEntity
  8
0
100
AcDbCircle
 10
130.0861309999999
 20
177.482984
 30
0.0
 40
0.095
  0
CIRCLE
  5
7A2
330
1E
100
AcDbEntity
  8
0
100
AcDbCircle
 10
130.0861309999999
 20
176.857984
 30
0.0
 40
0.095
  0
CIRCLE
  5
7A3
330
1E
100
AcDbEntity
  8
0
100
AcDbCircle
 10
111.774131
 20
179.232984
 30
0.0
 40
0.095
  0
CIRCLE
  5
7A4
330
1E
100
AcDbEntity
  8
0
100
AcDbCircle
 10
111.774131
 20
179.857984
 30
0.0
 40
0.095
  0
CIRCLE
  5
7A5
330
1E
100
AcDbEntity
  8
0
100
AcDbCircle
 10
111.774131
 20
178.607984
 30
0.0
 40
0.095
  0
CIRCLE
  5
7A6
330
1E
100
AcDbEntity
  8
0
100
AcDbCircle
 10
130.0861309999999
 20
179.857984
 30
0.0
 40
0.095
  0
CIRCLE
  5
7A7
330
1E
100
AcDbEntity
  8
0
100
AcDbCircle
 10
130.0861309999999
 20
179.232984
 30
0.0
 40
0.095
  0
CIRCLE
  5
7A8
330
1E
100
AcDbEntity
  8
0
100
AcDbCircle
 10
130.0861309999999
 20
178.607984
 30
0.0
 40
0.095
  0
CIRCLE
  5
7A9
330
1E
100
AcDbEntity
  8
0
100
AcDbCircle
 10
111.774131
 20
180.982984
 30
0.0
 40
0.095
  0
CIRCLE
  5
7AA
330
1E
100
AcDbEntity
  8
0
100
AcDbCircle
 10
111.774131
 20
181.607984
 30
0.0
 40
0.095
  0
CIRCLE
  5
7AB
330
1E
100
AcDbEntity
  8
0
100
AcDbCircle
 10
111.774131
 20
180.357984
 30
0.0
 40
0.095
  0
CIRCLE
  5
7AC
330
1E
100
AcDbEntity
  8
0
100
AcDbCircle
 10
130.0861309999999
 20
181.607984
 30
0.0
 40
0.095
  0
CIRCLE
  5
7AD
330
1E
100
AcDbEntity
  8
0
100
AcDbCircle
 10
130.0861309999999
 20
180.982984
 30
0.0
 40
0.095
  0
CIRCLE
  5
7AE
330
1E
100
AcDbEntity
  8
0
100
AcDbCircle
 10
130.0861309999999
 20
180.357984
 30
0.0
 40
0.095
  0
CIRCLE
  5
7AF
330
1E
100
AcDbEntity
  8
0
100
AcDbCircle
 10
111.774131
 20
182.732984
 30
0.0
 40
0.095
  0
CIRCLE
  5
7B0
330
1E
100
AcDbEntity
  8
0
100
AcDbCircle
 10
111.774131
 20
183.357984
 30
0.0
 40
0.095
  0
CIRCLE
  5
7B1
330
1E
100
AcDbEntity
  8
0
100
AcDbCircle
 10
111.774131
 20
182.107984
 30
0.0
 40
0.095
  0
CIRCLE
  5
7B2
330
1E
100
AcDbEntity
  8
0
100
AcDbCircle
 10
130.0861309999999
 20
183.357984
 30
0.0
 40
0.095
  0
CIRCLE
  5
7B3
330
1E
100
AcDbEntity
  8
0
100
AcDbCircle
 10
130.0861309999999
 20
182.732984
 30
0.0
 40
0.095
  0
CIRCLE
  5
7B4
330
1E
100
AcDbEntity
  8
0
100
AcDbCircle
 10
130.0861309999999
 20
182.107984
 30
0.0
 40
0.095
  0
TEXT
  5
7B5
330
1E
100
AcDbEntity
  8
0
100
AcDbText
 10
8.145578
 20
215.200324
 30
0.0
 40
1.674
  1
 SPACING AND ARE FULLY ADJUSTABLE.
 41
0.75
100
AcDbText
  0
LWPOLYLINE
  5
7B6
330
1E
100
AcDbEntity
  8
0
100
AcDbPolyline
 90
        6
 70
     1
 43
0.0
 10
4.989016
 20
211.805452
 10
4.215828
 20
210.466252
 10
4.989016
 20
209.127052
 10
6.535391
 20
209.127052
 10
7.308577999999999
 20
210.466252
 10
6.535391
 20
211.805452
  0
TEXT
  5
7BE
330
1E
100
AcDbEntity
  8
0
100
AcDbText
 10
5.343702999999999
 20
209.6292519999999
 30
0.0
 40
1.674
  1
2
 41
0.75
 72
     4
 11
5.762202999999999
 21
210.466252
 31
0.0
100
AcDbText
  0
TEXT
  5
7BF
330
1E
100
AcDbEntity
  8
DIM
100
AcDbText
 10
1178.443503
 20
130.4884949999999
 30
0.0
 40
1.25
  1

100
AcDbText
  0
TEXT
  5
7C0
330
1E
100
AcDbEntity
  8
DIM
100
AcDbText
 10
1179.506002999999
 20
126.394736
 30
0.0
 40
1.0
  1

100
AcDbText
  0
TEXT
  5
7C1
330
1E
100
AcDbEntity
  8
DIM
100
AcDbText
 10
1342.443503
 20
130.4884949999999
 30
0.0
 40
1.25
  1

100
AcDbText
  0
TEXT
  5
7C2
330
1E
100
AcDbEntity
  8
DIM
100
AcDbText
 10
1343.506003
 20
126.394736
 30
0.0
 40
1.0
  1

100
AcDbText
  0
TEXT
  5
7C3
330
1E
100
AcDbEntity
  8
OBJECT
100
AcDbText
 10
1344.362746
 20
177.0913939999999
 30
0.0
 40
1.25
  1

100
AcDbText
  0
TEXT
  5
7C4
330
1E
100
AcDbEntity
  8
DIM
100
AcDbText
 10
1342.443503
 20
130.4884949999999
 30
0.0
 40
1.25
  1

100
AcDbText
  0
TEXT
  5
7C5
330
1E
100
AcDbEntity
  8
DIM
100
AcDbText
 10
1343.506003
 20
126.394736
 30
0.0
 40
1.0
  1

100
AcDbText
  0
TEXT
  5
7C6
330
1E
100
AcDbEntity
  8
OBJECT
100
AcDbText
 10
1344.362746
 20
177.0913939999999
 30
0.0
 40
1.25
  1

100
AcDbText
  0
ARC
  5
7C7
330
1E
100
AcDbEntity
  8
0
100
AcDbCircle
 10
85.08779
 20
126.826984
 30
0.0
 40
0.1405
100
AcDbArc
 50
295.3225089999999
 51
61.09766600000001
  0
ARC
  5
7C8
330
1E
100
AcDbEntity
  8
0
100
AcDbCircle
 10
85.08779
 20
124.076984
 30
0.0
 40
0.1405
100
AcDbArc
 50
295.3225089999999
 51
61.09766600000001
  0
ARC
  5
7C9
330
1E
100
AcDbEntity
  8
0
100
AcDbCircle
 10
83.83779
 20
124.076984
 30
0.0
 40
0.1405
100
AcDbArc
 50
38.142522
 51
321.8574779999999
  0
ARC
  5
7CA
330
1E
100
AcDbEntity
  8
0
100
AcDbCircle
 10
83.83779
 20
126.826984
 30
0.0
 40
0.1405
100
AcDbArc
 50
38.142522
 51
321.8574779999999
  0
CIRCLE
  5
7CB
330
1E
100
AcDbEntity
  8
0
100
AcDbCircle
 10
85.58778999999999
 20
124.076984
 30
0.0
 40
0.218
  0
TEXT
  5
7CC
330
1E
100
AcDbEntity
  8
DIM
100
AcDbText
 10
1360.410880999999
 20
315.412872
 30
0.0
 40
0.72
  1

100
AcDbText
  0
TEXT
  5
7CD
330
1E
100
AcDbEntity
  8
DIM
100
AcDbText
 10
1296.875004
 20
292.5376059999999
 30
0.0
 40
0.72
  1

100
AcDbText
  0
TEXT
  5
7CE
330
1E
100
AcDbEntity
  8
DIM
100
AcDbText
 10
1447.787325
 20
243.415868
 30
0.0
 40
0.72
  1

100
AcDbText
  0
TEXT
  5
7CF
330
1E
100
AcDbEntity
  8
DIM
100
AcDbText
 10
1384.251448
 20
220.5406029999999
 30
0.0
 40
0.72
  1

100
AcDbText
  0
TEXT
  5
7D0
330
1E
100
AcDbEntity
  8
DIM
100
AcDbText
 10
1350.440681
 20
329.0278339999999
 30
0.0
 40
0.72
  1

100
AcDbText
  0
TEXT
  5
7D1
330
1E
100
AcDbEntity
  8
DIM
100
AcDbText
 10
1286.904804
 20
306.1525689999999
 30
0.0
 40
0.72
  1

100
AcDbText
  0
TEXT
  5
7D2
330
1E
100
AcDbEntity
  8
DIM
100
AcDbText
 10
1286.904804
 20
346.1525689999999
 30
0.0
 40
0.72
  1

100
AcDbText
  0
TEXT
  5
7D3
330
1E
100
AcDbEntity
  8
DIM
100
AcDbText
 10
1348.404804
 20
346.1525689999999
 30
0.0
 40
0.72
  1

100
AcDbText
  0
LINE
  5
7D4
330
1E
100
AcDbEntity
  8
0
100
AcDbLine
 10
111.3671309999999
 20
183.606984
 30
0.0
 11
111.961881
 21
183.606984
 31
0.0
  0
LINE
  5
7D5
330
1E
100
AcDbEntity
  8
0
100
AcDbLine
 10
111.3671309999999
 20
122.356984
 30
0.0
 11
111.961881
 21
122.356984
 31
0.0
  0
LINE
  5
7D6
330
1E
100
AcDbEntity
  8
0
100
AcDbLine
 10
129.8986309999999
 20
122.356984
 30
0.0
 11
130.492131
 21
122.356984
 31
0.0
  0
LINE
  5
7D7
330
1E
100
AcDbEntity
  8
0
100
AcDbLine
 10
129.8986309999999
 20
183.606984
 30
0.0
 11
130.492131
 21
183.606984
 31
0.0
  0
ARC
  5
7D8
330
1E
100
AcDbEntity
  8
0
100
AcDbCircle
 10
85.08779
 20
124.076984
 30
0.0
 40
0.1405
100
AcDbArc
 50
118.902334
 51
244.677491
  0
ARC
  5
7D9
330
1E
100
AcDbEntity
  8
0
100
AcDbCircle
 10
85.08779
 20
126.826984
 30
0.0
 40
0.1405
100
AcDbArc
 50
118.902334
 51
244.677491
  0
LINE
  5
7DA
330
1E
100
AcDbEntity
  8
0
100
AcDbLine
 10
63.43254
 20
125.561734
 30
0.0
 11
63.43254
 21
127.062234
 31
0.0
  0
LINE
  5
7DB
330
1E
100
AcDbEntity
  8
0
100
AcDbLine
 10
63.77553999999999
 20
127.062234
 30
0.0
 11
63.77553999999999
 21
125.561734
 31
0.0
  0
LINE
  5
7DC
330
1E
100
AcDbEntity
  8
0
100
AcDbLine
 10
63.83754
 20
125.561734
 30
0.0
 11
63.43254
 21
125.561734
 31
0.0
  0
LINE
  5
7DD
330
1E
100
AcDbEntity
  8
0
100
AcDbLine
 10
63.43254
 20
127.062234
 30
0.0
 11
63.83754
 21
127.062234
 31
0.0
  0
ARC
  5
7DE
330
1E
100
AcDbEntity
  8
0
100
AcDbCircle
 10
63.940288
 20
127.014985
 30
0.0
 40
0.5099420000000001
100
AcDbArc
 50
139.9319069999999
 51
174.683658
  0
ARC
  5
7DF
330
1E
100
AcDbEntity
  8
0
100
AcDbCircle
 10
63.267791
 20
127.014985
 30
0.0
 40
0.5099420000000001
100
AcDbArc
 50
5.316341999999999
 51
40.06809299999999
  0
LINE
  5
7E0
330
1E
100
AcDbEntity
  8
0
100
AcDbLine
 10
63.55004
 20
127.343234
 30
0.0
 11
63.65804
 21
127.343234
 31
0.0
  0
LINE
  5
7E1
330
1E
100
AcDbEntity
  8
0
100
AcDbLine
 10
20.74322699999999
 20
119.701984
 30
0.0
 11
20.74322699999999
 21
123.8365409999999
 31
0.0
  0
LINE
  5
7E2
330
1E
100
AcDbEntity
  8
0
100
AcDbLine
 10
39.868227
 20
186.263984
 30
0.0
 11
39.868227
 21
119.701984
 31
0.0
  0
LINE
  5
7E3
330
1E
100
AcDbEntity
  8
0
100
AcDbLine
 10
39.868227
 20
122.326984
 30
0.0
 11
20.74322699999999
 21
122.326984
 31
0.0
  0
LINE
  5
7E4
330
1E
100
AcDbEntity
  8
0
100
AcDbLine
 10
20.74222699999999
 20
183.638984
 30
0.0
 11
39.868227
 21
183.638984
 31
0.0
  0
LINE
  5
7E5
330
1E
100
AcDbEntity
  8
0
100
AcDbLine
 10
20.594727
 20
177.748984
 30
0.0
 11
20.70272699999999
 21
177.748984
 31
0.0
  0
ARC
  5
7E6
330
1E
100
AcDbEntity
  8
0
100
AcDbCircle
 10
20.31247899999999
 20
178.077232
 30
0.0
 40
0.5099420000000001
100
AcDbArc
 50
319.9319069999999
 51
354.6836579999999
  0
ARC
  5
7E7
330
1E
100
AcDbEntity
  8
0
100
AcDbCircle
 10
20.98497599999999
 20
178.077232
 30
0.0
 40
0.5099420000000001
100
AcDbArc
 50
185.3163419999999
 51
220.068093
  0
LINE
  5
7E8
330
1E
100
AcDbEntity
  8
0
100
AcDbLine
 10
20.477227
 20
178.029984
 30
0.0
 11
20.477227
 21
179.5294839999999
 31
0.0
  0
LINE
  5
7E9
330
1E
100
AcDbEntity
  8
0
100
AcDbLine
 10
20.820227
 20
178.029984
 30
0.0
 11
20.477227
 21
178.029984
 31
0.0
  0
LINE
  5
7EA
330
1E
100
AcDbEntity
  8
0
100
AcDbLine
 10
20.477227
 20
124.062234
 30
0.0
 11
20.477227
 21
125.561734
 31
0.0
  0
LINE
  5
7EB
330
1E
100
AcDbEntity
  8
0
100
AcDbLine
 10
20.594727
 20
123.781234
 30
0.0
 11
20.70272699999999
 21
123.781234
 31
0.0
  0
ARC
  5
7EC
330
1E
100
AcDbEntity
  8
0
100
AcDbCircle
 10
20.31247899999999
 20
124.109482
 30
0.0
 40
0.5099420000000001
100
AcDbArc
 50
319.9319069999999
 51
354.6836579999999
  0
ARC
  5
7ED
330
1E
100
AcDbEntity
  8
0
100
AcDbCircle
 10
20.98497599999999
 20
124.109482
 30
0.0
 40
0.5099420000000001
100
AcDbArc
 50
185.3163419999999
 51
220.068093
  0
LINE
  5
7EE
330
1E
100
AcDbEntity
  8
0
100
AcDbLine
 10
20.820227
 20
124.062234
 30
0.0
 11
20.477227
 21
124.062234
 31
0.0
  0
ARC
  5
7EF
330
1E
100
AcDbEntity
  8
0
100
AcDbCircle
 10
63.940288
 20
124.108482
 30
0.0
 40
0.5099420000000001
100
AcDbArc
 50
185.3163419999999
 51
220.068093
  0
ARC
  5
7F0
330
1E
100
AcDbEntity
  8
0
100
AcDbCircle
 10
63.267791
 20
124.108482
 30
0.0
 40
0.5099420000000001
100
AcDbArc
 50
319.9319069999999
 51
354.6836579999999
  0
LINE
  5
7F1
330
1E
100
AcDbEntity
  8
0
100
AcDbLine
 10
63.43254
 20
124.061234
 30
0.0
 11
63.83754
 21
124.061234
 31
0.0
  0
LINE
  5
7F2
330
1E
100
AcDbEntity
  8
0
100
AcDbLine
 10
63.43254
 20
125.561734
 30
0.0
 11
63.43254
 21
124.061234
 31
0.0
  0
LINE
  5
7F3
330
1E
100
AcDbEntity
  8
0
100
AcDbLine
 10
63.55004
 20
123.780234
 30
0.0
 11
63.65804
 21
123.780234
 31
0.0
  0
LINE
  5
7F4
330
1E
100
AcDbEntity
  8
0
100
AcDbLine
 10
63.77553999999999
 20
124.061234
 30
0.0
 11
63.77553999999999
 21
125.561734
 31
0.0
  0
ARC
  5
7F5
330
1E
100
AcDbEntity
  8
0
100
AcDbCircle
 10
63.940288
 20
180.982985
 30
0.0
 40
0.5099420000000001
100
AcDbArc
 50
139.9319069999999
 51
174.683658
  0
ARC
  5
7F6
330
1E
100
AcDbEntity
  8
0
100
AcDbCircle
 10
63.267791
 20
180.982985
 30
0.0
 40
0.5099420000000001
100
AcDbArc
 50
5.316341999999999
 51
40.06809299999999
  0
LINE
  5
7F7
330
1E
100
AcDbEntity
  8
0
100
AcDbLine
 10
63.77553999999999
 20
178.029234
 30
0.0
 11
63.77553999999999
 21
179.529734
 31
0.0
  0
LINE
  5
7F8
330
1E
100
AcDbEntity
  8
0
100
AcDbLine
 10
63.43254
 20
179.529734
 30
0.0
 11
63.43254
 21
178.029234
 31
0.0
  0
LINE
  5
7F9
330
1E
100
AcDbEntity
  8
0
100
AcDbLine
 10
63.55004
 20
177.7482339999999
 30
0.0
 11
63.65804
 21
177.7482339999999
 31
0.0
  0
LINE
  5
7FA
330
1E
100
AcDbEntity
  8
0
100
AcDbLine
 10
63.43254
 20
178.029234
 30
0.0
 11
63.83754
 21
178.029234
 31
0.0
  0
ARC
  5
7FB
330
1E
100
AcDbEntity
  8
0
100
AcDbCircle
 10
63.267791
 20
178.0764819999999
 30
0.0
 40
0.5099420000000001
100
AcDbArc
 50
319.9319069999999
 51
354.6836579999999
  0
ARC
  5
7FC
330
1E
100
AcDbEntity
  8
0
100
AcDbCircle
 10
63.940288
 20
178.0764819999999
 30
0.0
 40
0.5099420000000001
100
AcDbArc
 50
185.3163419999999
 51
220.068093
  0
LINE
  5
7FD
330
1E
100
AcDbEntity
  8
0
100
AcDbLine
 10
63.83754
 20
179.529734
 30
0.0
 11
63.43254
 21
179.529734
 31
0.0
  0
LINE
  5
7FE
330
1E
100
AcDbEntity
  8
0
100
AcDbLine
 10
63.43254
 20
181.0302339999999
 30
0.0
 11
63.83754
 21
181.0302339999999
 31
0.0
  0
LINE
  5
7FF
330
1E
100
AcDbEntity
  8
0
100
AcDbLine
 10
63.43254
 20
179.529734
 30
0.0
 11
63.43254
 21
181.0302339999999
 31
0.0
  0
LINE
  5
800
330
1E
100
AcDbEntity
  8
0
100
AcDbLine
 10
63.77553999999999
 20
181.0302339999999
 30
0.0
 11
63.77553999999999
 21
179.529734
 31
0.0
  0
LINE
  5
801
330
1E
100
AcDbEntity
  8
0
100
AcDbLine
 10
63.55004
 20
181.311234
 30
0.0
 11
63.65804
 21
181.311234
 31
0.0
  0
LINE
  5
802
330
1E
100
AcDbEntity
  8
0
100
AcDbLine
 10
130.585631
 20
223.9531319999999
 30
0.0
 11
130.492131
 21
223.9531319999999
 31
0.0
  0
LINE
  5
803
330
1E
100
AcDbEntity
  8
0
100
AcDbLine
 10
130.585631
 20
223.9531319999999
 30
0.0
 11
130.585631
 21
223.9531319999999
 31
0.0
  0
CIRCLE
  5
804
330
1E
100
AcDbEntity
  8
0
100
AcDbCircle
 10
130.585631
 20
224.124632
 30
0.0
 40
0.055
  0
LINE
  5
805
330
1E
100
AcDbEntity
  8
0
100
AcDbLine
 10
130.414131
 20
223.8131319999999
 30
0.0
 11
130.414131
 21
224.124632
 31
0.0
  0
LINE
  5
806
330
1E
100
AcDbEntity
  8
0
100
AcDbLine
 10
130.492131
 20
223.8131319999999
 30
0.0
 11
130.492131
 21
223.9808609999999
 31
0.0
  0
LINE
  5
807
330
1E
100
AcDbEntity
  8
0
100
AcDbLine
 10
111.476131
 20
223.8911319999999
 30
0.0
 11
130.414131
 21
223.8911319999999
 31
0.0
  0
LINE
  5
808
330
1E
100
AcDbEntity
  8
0
100
AcDbLine
 10
111.3671309999999
 20
223.8911319999999
 30
0.0
 11
111.3671309999999
 21
223.8131319999999
 31
0.0
  0
LINE
  5
809
330
1E
100
AcDbEntity
  8
0
100
AcDbLine
 10
111.3671309999999
 20
198.3911319999999
 30
0.0
 11
111.3671309999999
 21
198.4691319999999
 31
0.0
  0
LINE
  5
80A
330
1E
100
AcDbEntity
  8
0
100
AcDbLine
 10
130.492131
 20
198.3911319999999
 30
0.0
 11
130.492131
 21
198.4691319999999
 31
0.0
  0
LINE
  5
80B
330
1E
100
AcDbEntity
  8
0
100
AcDbLine
 10
131.929631
 20
102.9984829999999
 30
0.0
 11
131.929631
 21
101.5304829999999
 31
0.0
  0
LINE
  5
80C
330
1E
100
AcDbEntity
  8
0
100
AcDbLine
 10
109.9296309999999
 20
102.9984829999999
 30
0.0
 11
109.9296309999999
 21
101.5304829999999
 31
0.0
  0
LINE
  5
80D
330
1E
100
AcDbEntity
  8
0
100
AcDbLine
 10
109.9296309999999
 20
102.9984829999999
 30
0.0
 11
111.3671309999999
 21
102.9984829999999
 31
0.0
  0
LINE
  5
80E
330
1E
100
AcDbEntity
  8
0
100
AcDbLine
 10
111.3671309999999
 20
102.9984829999999
 30
0.0
 11
111.3671309999999
 21
102.9204829999999
 31
0.0
  0
LINE
  5
80F
330
1E
100
AcDbEntity
  8
0
100
AcDbLine
 10
130.492131
 20
102.9984829999999
 30
0.0
 11
131.929631
 21
102.9984829999999
 31
0.0
  0
LINE
  5
810
330
1E
100
AcDbEntity
  8
0
100
AcDbLine
 10
130.492131
 20
102.9984829999999
 30
0.0
 11
130.492131
 21
102.9204829999999
 31
0.0
  0
LINE
  5
811
330
1E
100
AcDbEntity
  8
0
100
AcDbLine
 10
111.476131
 20
77.498483
 30
0.0
 11
130.414131
 21
77.498483
 31
0.0
  0
LINE
  5
812
330
1E
100
AcDbEntity
  8
0
100
AcDbLine
 10
109.9296309999999
 20
101.5304829999999
 30
0.0
 11
110.007631
 21
101.5304829999999
 31
0.0
  0
LINE
  5
813
330
1E
100
AcDbEntity
  8
0
100
AcDbLine
 10
109.9296309999999
 20
77.498483
 30
0.0
 11
111.3671309999999
 21
77.498483
 31
0.0
  0
LINE
  5
814
330
1E
100
AcDbEntity
  8
0
100
AcDbLine
 10
109.9296309999999
 20
78.96648299999999
 30
0.0
 11
110.007631
 21
78.96648299999999
 31
0.0
  0
LINE
  5
815
330
1E
100
AcDbEntity
  8
0
100
AcDbLine
 10
109.9296309999999
 20
77.498483
 30
0.0
 11
109.9296309999999
 21
78.96648299999999
 31
0.0
  0
LINE
  5
816
330
1E
100
AcDbEntity
  8
0
100
AcDbLine
 10
111.3671309999999
 20
77.498483
 30
0.0
 11
111.3671309999999
 21
77.57648299999999
 31
0.0
  0
LINE
  5
817
330
1E
100
AcDbEntity
  8
0
100
AcDbLine
 10
111.476131
 20
77.498483
 30
0.0
 11
111.476131
 21
77.57648299999999
 31
0.0
  0
LINE
  5
818
330
1E
100
AcDbEntity
  8
0
100
AcDbLine
 10
131.8516309999999
 20
101.5304829999999
 30
0.0
 11
131.929631
 21
101.5304829999999
 31
0.0
  0
LINE
  5
819
330
1E
100
AcDbEntity
  8
0
100
AcDbLine
 10
130.492131
 20
77.498483
 30
0.0
 11
131.929631
 21
77.498483
 31
0.0
  0
LINE
  5
81A
330
1E
100
AcDbEntity
  8
0
100
AcDbLine
 10
130.414131
 20
77.57648299999999
 30
0.0
 11
130.414131
 21
77.264983
 31
0.0
  0
LINE
  5
81B
330
1E
100
AcDbEntity
  8
0
100
AcDbLine
 10
130.492131
 20
77.57648299999999
 30
0.0
 11
130.492131
 21
77.408754
 31
0.0
  0
CIRCLE
  5
81C
330
1E
100
AcDbEntity
  8
0
100
AcDbCircle
 10
130.585631
 20
77.264983
 30
0.0
 40
0.055
  0
LINE
  5
81D
330
1E
100
AcDbEntity
  8
0
100
AcDbLine
 10
130.585631
 20
77.436483
 30
0.0
 11
130.492131
 21
77.436483
 31
0.0
  0
LINE
  5
81E
330
1E
100
AcDbEntity
  8
0
100
AcDbLine
 10
130.585631
 20
77.436483
 30
0.0
 11
130.585631
 21
77.436483
 31
0.0
  0
LINE
  5
81F
330
1E
100
AcDbEntity
  8
0
100
AcDbLine
 10
131.8516309999999
 20
78.96648299999999
 30
0.0
 11
131.929631
 21
78.96648299999999
 31
0.0
  0
LINE
  5
820
330
1E
100
AcDbEntity
  8
0
100
AcDbLine
 10
131.929631
 20
77.498483
 30
0.0
 11
131.929631
 21
78.96648299999999
 31
0.0
  0
CIRCLE
  5
821
330
1E
100
AcDbEntity
  8
0
100
AcDbCircle
 10
130.585631
 20
77.264983
 30
0.0
 40
0.1715
  0
CIRCLE
  5
822
330
1E
100
AcDbEntity
  8
0
100
AcDbCircle
 10
130.585631
 20
224.124632
 30
0.0
 40
0.1715
  0
LINE
  5
823
330
1E
100
AcDbEntity
  8
0
100
AcDbLine
 10
20.74322699999999
 20
181.255926
 30
0.0
 11
20.74322699999999
 21
186.263984
 31
0.0
  0
LINE
  5
824
330
1E
100
AcDbEntity
  8
0
100
AcDbLine
 10
20.74322699999999
 20
127.287926
 30
0.0
 11
20.74322699999999
 21
177.8042909999999
 31
0.0
  0
LINE
  5
825
330
1E
100
AcDbEntity
  8
0
100
AcDbLine
 10
20.477227
 20
179.529734
 30
0.0
 11
20.477227
 21
181.0302339999999
 31
0.0
  0
LINE
  5
826
330
1E
100
AcDbEntity
  8
0
100
AcDbLine
 10
20.820227
 20
183.577234
 30
0.0
 11
20.820227
 21
122.389734
 31
0.0
  0
LINE
  5
827
330
1E
100
AcDbEntity
  8
0
100
AcDbLine
 10
39.758227
 20
122.389734
 30
0.0
 11
39.758227
 21
183.577234
 31
0.0
  0
LINE
  5
828
330
1E
100
AcDbEntity
  8
0
100
AcDbLine
 10
20.820227
 20
122.389734
 30
0.0
 11
39.758227
 21
122.389734
 31
0.0
  0
LINE
  5
829
330
1E
100
AcDbEntity
  8
0
100
AcDbLine
 10
20.477227
 20
125.561734
 30
0.0
 11
20.477227
 21
127.062234
 31
0.0
  0
LINE
  5
82A
330
1E
100
AcDbEntity
  8
0
100
AcDbLine
 10
20.477227
 20
125.561734
 30
0.0
 11
20.820227
 21
125.561734
 31
0.0
  0
ARC
  5
82B
330
1E
100
AcDbEntity
  8
0
100
AcDbCircle
 10
20.98497599999999
 20
127.014985
 30
0.0
 40
0.5099420000000001
100
AcDbArc
 50
139.9319069999999
 51
174.683658
  0
LINE
  5
82C
330
1E
100
AcDbEntity
  8
0
100
AcDbLine
 10
20.477227
 20
127.062234
 30
0.0
 11
20.820227
 21
127.062234
 31
0.0
  0
ARC
  5
82D
330
1E
100
AcDbEntity
  8
0
100
AcDbCircle
 10
20.31247899999999
 20
127.014985
 30
0.0
 40
0.5099420000000001
100
AcDbArc
 50
5.316341999999999
 51
40.06809299999999
  0
LINE
  5
82E
330
1E
100
AcDbEntity
  8
0
100
AcDbLine
 10
20.594727
 20
127.343234
 30
0.0
 11
20.70272699999999
 21
127.343234
 31
0.0
  0
LINE
  5
82F
330
1E
100
AcDbEntity
  8
0
100
AcDbLine
 10
20.477227
 20
179.529734
 30
0.0
 11
20.820227
 21
179.529734
 31
0.0
  0
LINE
  5
830
330
1E
100
AcDbEntity
  8
0
100
AcDbLine
 10
39.758227
 20
183.577234
 30
0.0
 11
20.820227
 21
183.577234
 31
0.0
  0
LINE
  5
831
330
1E
100
AcDbEntity
  8
0
100
AcDbLine
 10
20.477227
 20
181.0302339999999
 30
0.0
 11
20.820227
 21
181.0302339999999
 31
0.0
  0
ARC
  5
832
330
1E
100
AcDbEntity
  8
0
100
AcDbCircle
 10
20.98497599999999
 20
180.982985
 30
0.0
 40
0.5099420000000001
100
AcDbArc
 50
139.9319069999999
 51
174.683658
  0
LINE
  5
833
330
1E
100
AcDbEntity
  8
0
100
AcDbLine
 10
20.594727
 20
181.311234
 30
0.0
 11
20.70272699999999
 21
181.311234
 31
0.0
  0
ARC
  5
834
330
1E
100
AcDbEntity
  8
0
100
AcDbCircle
 10
20.31247899999999
 20
180.982985
 30
0.0
 40
0.5099420000000001
100
AcDbArc
 50
5.316341999999999
 51
40.06809299999999
  0
CIRCLE
  5
835
330
1E
100
AcDbEntity
  8
0
100
AcDbCircle
 10
111.774131
 20
168.107984
 30
0.0
 40
0.095
  0
CIRCLE
  5
836
330
1E
100
AcDbEntity
  8
0
100
AcDbCircle
 10
111.774131
 20
154.732984
 30
0.0
 40
0.095
  0
CIRCLE
  5
837
330
1E
100
AcDbEntity
  8
0
100
AcDbCircle
 10
111.774131
 20
155.357984
 30
0.0
 40
0.095
  0
CIRCLE
  5
838
330
1E
100
AcDbEntity
  8
0
100
AcDbCircle
 10
111.774131
 20
155.857984
 30
0.0
 40
0.095
  0
CIRCLE
  5
839
330
1E
100
AcDbEntity
  8
0
100
AcDbCircle
 10
111.774131
 20
166.982984
 30
0.0
 40
0.095
  0
CIRCLE
  5
83A
330
1E
100
AcDbEntity
  8
0
100
AcDbCircle
 10
111.774131
 20
167.607984
 30
0.0
 40
0.095
  0
CIRCLE
  5
83B
330
1E
100
AcDbEntity
  8
0
100
AcDbCircle
 10
111.774131
 20
157.607984
 30
0.0
 40
0.095
  0
CIRCLE
  5
83C
330
1E
100
AcDbEntity
  8
0
100
AcDbCircle
 10
111.774131
 20
156.482984
 30
0.0
 40
0.095
  0
CIRCLE
  5
83D
330
1E
100
AcDbEntity
  8
0
100
AcDbCircle
 10
111.774131
 20
157.107984
 30
0.0
 40
0.095
  0
CIRCLE
  5
83E
330
1E
100
AcDbEntity
  8
0
100
AcDbCircle
 10
130.0861309999999
 20
168.107984
 30
0.0
 40
0.095
  0
CIRCLE
  5
83F
330
1E
100
AcDbEntity
  8
0
100
AcDbCircle
 10
130.0861309999999
 20
155.357984
 30
0.0
 40
0.095
  0
CIRCLE
  5
840
330
1E
100
AcDbEntity
  8
0
100
AcDbCircle
 10
130.0861309999999
 20
154.732984
 30
0.0
 40
0.095
  0
CIRCLE
  5
841
330
1E
100
AcDbEntity
  8
0
100
AcDbCircle
 10
130.0861309999999
 20
155.857984
 30
0.0
 40
0.095
  0
CIRCLE
  5
842
330
1E
100
AcDbEntity
  8
0
100
AcDbCircle
 10
130.0861309999999
 20
167.607984
 30
0.0
 40
0.095
  0
CIRCLE
  5
843
330
1E
100
AcDbEntity
  8
0
100
AcDbCircle
 10
130.0861309999999
 20
166.982984
 30
0.0
 40
0.095
  0
CIRCLE
  5
844
330
1E
100
AcDbEntity
  8
0
100
AcDbCircle
 10
130.0861309999999
 20
157.607984
 30
0.0
 40
0.095
  0
CIRCLE
  5
845
330
1E
100
AcDbEntity
  8
0
100
AcDbCircle
 10
130.0861309999999
 20
156.482984
 30
0.0
 40
0.095
  0
CIRCLE
  5
846
330
1E
100
AcDbEntity
  8
0
100
AcDbCircle
 10
130.0861309999999
 20
157.107984
 30
0.0
 40
0.095
  0
CIRCLE
  5
847
330
1E
100
AcDbEntity
  8
0
100
AcDbCircle
 10
111.774131
 20
154.107984
 30
0.0
 40
0.095
  0
CIRCLE
  5
848
330
1E
100
AcDbEntity
  8
0
100
AcDbCircle
 10
111.774131
 20
149.482984
 30
0.0
 40
0.095
  0
CIRCLE
  5
849
330
1E
100
AcDbEntity
  8
0
100
AcDbCircle
 10
111.774131
 20
150.107984
 30
0.0
 40
0.095
  0
CIRCLE
  5
84A
330
1E
100
AcDbEntity
  8
0
100
AcDbCircle
 10
111.774131
 20
150.607984
 30
0.0
 40
0.095
  0
CIRCLE
  5
84B
330
1E
100
AcDbEntity
  8
0
100
AcDbCircle
 10
111.774131
 20
152.982984
 30
0.0
 40
0.095
  0
CIRCLE
  5
84C
330
1E
100
AcDbEntity
  8
0
100
AcDbCircle
 10
111.774131
 20
153.607984
 30
0.0
 40
0.095
  0
CIRCLE
  5
84D
330
1E
100
AcDbEntity
  8
0
100
AcDbCircle
 10
111.774131
 20
152.357984
 30
0.0
 40
0.095
  0
CIRCLE
  5
84E
330
1E
100
AcDbEntity
  8
0
100
AcDbCircle
 10
111.774131
 20
151.232984
 30
0.0
 40
0.095
  0
CIRCLE
  5
84F
330
1E
100
AcDbEntity
  8
0
100
AcDbCircle
 10
111.774131
 20
151.857984
 30
0.0
 40
0.095
  0
CIRCLE
  5
850
330
1E
100
AcDbEntity
  8
0
100
AcDbCircle
 10
130.0861309999999
 20
154.107984
 30
0.0
 40
0.095
  0
CIRCLE
  5
851
330
1E
100
AcDbEntity
  8
0
100
AcDbCircle
 10
130.0861309999999
 20
150.107984
 30
0.0
 40
0.095
  0
CIRCLE
  5
852
330
1E
100
AcDbEntity
  8
0
100
AcDbCircle
 10
130.0861309999999
 20
149.482984
 30
0.0
 40
0.095
  0
CIRCLE
  5
853
330
1E
100
AcDbEntity
  8
0
100
AcDbCircle
 10
130.0861309999999
 20
150.607984
 30
0.0
 40
0.095
  0
CIRCLE
  5
854
330
1E
100
AcDbEntity
  8
0
100
AcDbCircle
 10
130.0861309999999
 20
153.607984
 30
0.0
 40
0.095
  0
CIRCLE
  5
855
330
1E
100
AcDbEntity
  8
0
100
AcDbCircle
 10
130.0861309999999
 20
152.982984
 30
0.0
 40
0.095
  0
CIRCLE
  5
856
330
1E
100
AcDbEntity
  8
0
100
AcDbCircle
 10
130.0861309999999
 20
152.357984
 30
0.0
 40
0.095
  0
CIRCLE
  5
857
330
1E
100
AcDbEntity
  8
0
100
AcDbCircle
 10
130.0861309999999
 20
151.232984
 30
0.0
 40
0.095
  0
CIRCLE
  5
858
330
1E
100
AcDbEntity
  8
0
100
AcDbCircle
 10
130.0861309999999
 20
151.857984
 30
0.0
 40
0.095
  0
TEXT
  5
859
330
1E
100
AcDbEntity
  8
DIM
100
AcDbText
 10
952.943503
 20
130.4884949999999
 30
0.0
 40
1.25
  1

100
AcDbText
  0
TEXT
  5
85A
330
1E
100
AcDbEntity
  8
DIM
100
AcDbText
 10
954.0060029999999
 20
126.394736
 30
0.0
 40
1.0
  1

100
AcDbText
  0
TEXT
  5
85B
330
1E
100
AcDbEntity
  8
DIM
100
AcDbText
 10
1116.943503
 20
130.4884949999999
 30
0.0
 40
1.25
  1

100
AcDbText
  0
TEXT
  5
85C
330
1E
100
AcDbEntity
  8
DIM
100
AcDbText
 10
1118.006003
 20
126.394736
 30
0.0
 40
1.0
  1

100
AcDbText
  0
TEXT
  5
85D
330
1E
100
AcDbEntity
  8
OBJECT
100
AcDbText
 10
1118.862746
 20
177.0913939999999
 30
0.0
 40
1.25
  1

100
AcDbText
  0
TEXT
  5
85E
330
1E
100
AcDbEntity
  8
DIM
100
AcDbText
 10
1116.943503
 20
130.4884949999999
 30
0.0
 40
1.25
  1

100
AcDbText
  0
TEXT
  5
85F
330
1E
100
AcDbEntity
  8
DIM
100
AcDbText
 10
1118.006003
 20
126.394736
 30
0.0
 40
1.0
  1

100
AcDbText
  0
TEXT
  5
860
330
1E
100
AcDbEntity
  8
OBJECT
100
AcDbText
 10
1118.862746
 20
177.0913939999999
 30
0.0
 40
1.25
  1

100
AcDbText
  0
TEXT
  5
861
330
1E
100
AcDbEntity
  8
DIM
100
AcDbText
 10
1134.910881
 20
315.412872
 30
0.0
 40
0.72
  1

100
AcDbText
  0
TEXT
  5
862
330
1E
100
AcDbEntity
  8
DIM
100
AcDbText
 10
1071.375004
 20
292.5376059999999
 30
0.0
 40
0.72
  1

100
AcDbText
  0
TEXT
  5
863
330
1E
100
AcDbEntity
  8
DIM
100
AcDbText
 10
1222.287325
 20
243.415868
 30
0.0
 40
0.72
  1

100
AcDbText
  0
TEXT
  5
864
330
1E
100
AcDbEntity
  8
DIM
100
AcDbText
 10
1158.751448
 20
220.5406029999999
 30
0.0
 40
0.72
  1

100
AcDbText
  0
TEXT
  5
865
330
1E
100
AcDbEntity
  8
DIM
100
AcDbText
 10
1124.940680999999
 20
329.0278339999999
 30
0.0
 40
0.72
  1

100
AcDbText
  0
TEXT
  5
866
330
1E
100
AcDbEntity
  8
DIM
100
AcDbText
 10
1061.404804
 20
306.1525689999999
 30
0.0
 40
0.72
  1

100
AcDbText
  0
TEXT
  5
867
330
1E
100
AcDbEntity
  8
DIM
100
AcDbText
 10
1061.404804
 20
346.1525689999999
 30
0.0
 40
0.72
  1

100
AcDbText
  0
TEXT
  5
868
330
1E
100
AcDbEntity
  8
DIM
100
AcDbText
 10
1122.904804
 20
346.1525689999999
 30
0.0
 40
0.72
  1

100
AcDbText
  0
CIRCLE
  5
869
330
1E
100
AcDbEntity
  8
0
100
AcDbCircle
 10
38.633227
 20
152.982984
 30
0.0
 40
0.3175
  0
CIRCLE
  5
86A
330
1E
100
AcDbEntity
  8
0
100
AcDbCircle
 10
38.633227
 20
152.982984
 30
0.0
 40
0.453125
  0
LINE
  5
86B
330
1E
100
AcDbEntity
  8
0
100
AcDbLine
 10
38.588227
 20
152.730484
 30
0.0
 11
38.67822699999999
 21
152.730484
 31
0.0
  0
LINE
  5
86C
330
1E
100
AcDbEntity
  8
0
100
AcDbLine
 10
38.588227
 20
153.120484
 30
0.0
 11
38.67822699999999
 21
153.120484
 31
0.0
  0
LINE
  5
86D
330
1E
100
AcDbEntity
  8
0
100
AcDbLine
 10
38.588227
 20
153.120484
 30
0.0
 11
38.588227
 21
152.730484
 31
0.0
  0
LINE
  5
86E
330
1E
100
AcDbEntity
  8
0
100
AcDbLine
 10
38.67822699999999
 20
153.120484
 30
0.0
 11
38.67822699999999
 21
152.730484
 31
0.0
  0
ARC
  5
86F
330
1E
100
AcDbEntity
  8
0
100
AcDbCircle
 10
38.633227
 20
152.982984
 30
0.0
 40
0.125
100
AcDbArc
 50
291.1001959999999
 51
68.899804
  0
ARC
  5
870
330
1E
100
AcDbEntity
  8
0
100
AcDbCircle
 10
38.633227
 20
152.982984
 30
0.0
 40
0.125
100
AcDbArc
 50
111.100196
 51
248.899804
  0
ARC
  5
871
330
1E
100
AcDbEntity
  8
0
100
AcDbCircle
 10
85.58778999999999
 20
126.826984
 30
0.0
 40
0.1405
100
AcDbArc
 50
118.902334
 51
244.677491
  0
CIRCLE
  5
872
330
1E
100
AcDbEntity
  8
0
100
AcDbCircle
 10
111.774131
 20
158.232984
 30
0.0
 40
0.095
  0
CIRCLE
  5
873
330
1E
100
AcDbEntity
  8
0
100
AcDbCircle
 10
130.0861309999999
 20
158.232984
 30
0.0
 40
0.095
  0
CIRCLE
  5
874
330
1E
100
AcDbEntity
  8
0
100
AcDbCircle
 10
111.774131
 20
164.607984
 30
0.0
 40
0.095
  0
CIRCLE
  5
875
330
1E
100
AcDbEntity
  8
0
100
AcDbCircle
 10
111.774131
 20
161.107984
 30
0.0
 40
0.095
  0
CIRCLE
  5
876
330
1E
100
AcDbEntity
  8
0
100
AcDbCircle
 10
111.774131
 20
160.607984
 30
0.0
 40
0.095
  0
CIRCLE
  5
877
330
1E
100
AcDbEntity
  8
0
100
AcDbCircle
 10
111.774131
 20
159.982984
 30
0.0
 40
0.095
  0
CIRCLE
  5
878
330
1E
100
AcDbEntity
  8
0
100
AcDbCircle
 10
111.774131
 20
159.357984
 30
0.0
 40
0.095
  0
CIRCLE
  5
879
330
1E
100
AcDbEntity
  8
0
100
AcDbCircle
 10
111.774131
 20
158.857984
 30
0.0
 40
0.095
  0
CIRCLE
  5
87A
330
1E
100
AcDbEntity
  8
0
100
AcDbCircle
 10
111.774131
 20
164.107984
 30
0.0
 40
0.095
  0
CIRCLE
  5
87B
330
1E
100
AcDbEntity
  8
0
100
AcDbCircle
 10
111.774131
 20
162.357984
 30
0.0
 40
0.095
  0
CIRCLE
  5
87C
330
1E
100
AcDbEntity
  8
0
100
AcDbCircle
 10
111.774131
 20
161.732984
 30
0.0
 40
0.095
  0
CIRCLE
  5
87D
330
1E
100
AcDbEntity
  8
0
100
AcDbCircle
 10
111.774131
 20
162.857984
 30
0.0
 40
0.095
  0
CIRCLE
  5
87E
330
1E
100
AcDbEntity
  8
0
100
AcDbCircle
 10
111.774131
 20
163.482984
 30
0.0
 40
0.095
  0
CIRCLE
  5
87F
330
1E
100
AcDbEntity
  8
0
100
AcDbCircle
 10
111.774131
 20
165.857984
 30
0.0
 40
0.095
  0
CIRCLE
  5
880
330
1E
100
AcDbEntity
  8
0
100
AcDbCircle
 10
111.774131
 20
165.232984
 30
0.0
 40
0.095
  0
CIRCLE
  5
881
330
1E
100
AcDbEntity
  8
0
100
AcDbCircle
 10
111.774131
 20
166.357984
 30
0.0
 40
0.095
  0
CIRCLE
  5
882
330
1E
100
AcDbEntity
  8
0
100
AcDbCircle
 10
130.0861309999999
 20
164.607984
 30
0.0
 40
0.095
  0
CIRCLE
  5
883
330
1E
100
AcDbEntity
  8
0
100
AcDbCircle
 10
130.0861309999999
 20
161.107984
 30
0.0
 40
0.095
  0
CIRCLE
  5
884
330
1E
100
AcDbEntity
  8
0
100
AcDbCircle
 10
130.0861309999999
 20
160.607984
 30
0.0
 40
0.095
  0
CIRCLE
  5
885
330
1E
100
AcDbEntity
  8
0
100
AcDbCircle
 10
130.0861309999999
 20
159.982984
 30
0.0
 40
0.095
  0
CIRCLE
  5
886
330
1E
100
AcDbEntity
  8
0
100
AcDbCircle
 10
130.0861309999999
 20
159.357984
 30
0.0
 40
0.095
  0
CIRCLE
  5
887
330
1E
100
AcDbEntity
  8
0
100
AcDbCircle
 10
130.0861309999999
 20
158.857984
 30
0.0
 40
0.095
  0
CIRCLE
  5
888
330
1E
100
AcDbEntity
  8
0
100
AcDbCircle
 10
130.0861309999999
 20
164.107984
 30
0.0
 40
0.095
  0
CIRCLE
  5
889
330
1E
100
AcDbEntity
  8
0
100
AcDbCircle
 10
130.0861309999999
 20
161.732984
 30
0.0
 40
0.095
  0
CIRCLE
  5
88A
330
1E
100
AcDbEntity
  8
0
100
AcDbCircle
 10
130.0861309999999
 20
162.357984
 30
0.0
 40
0.095
  0
CIRCLE
  5
88B
330
1E
100
AcDbEntity
  8
0
100
AcDbCircle
 10
130.0861309999999
 20
162.857984
 30
0.0
 40
0.095
  0
CIRCLE
  5
88C
330
1E
100
AcDbEntity
  8
0
100
AcDbCircle
 10
130.0861309999999
 20
163.482984
 30
0.0
 40
0.095
  0
CIRCLE
  5
88D
330
1E
100
AcDbEntity
  8
0
100
AcDbCircle
 10
130.0861309999999
 20
165.857984
 30
0.0
 40
0.095
  0
CIRCLE
  5
88E
330
1E
100
AcDbEntity
  8
0
100
AcDbCircle
 10
130.0861309999999
 20
165.232984
 30
0.0
 40
0.095
  0
CIRCLE
  5
88F
330
1E
100
AcDbEntity
  8
0
100
AcDbCircle
 10
130.0861309999999
 20
166.357984
 30
0.0
 40
0.095
  0
DIMENSION
  5
890
330
1E
100
AcDbEntity
  8
0
100
AcDbDimension
  2
*D23
 10
56.78654
 20
151.607984
 30
0.0
 11
56.78653999999998
 21
152.982984
 31
0.0
 70
    32
 71
     5
 42
2.75
  3
23NSTDI
100
AcDbAlignedDimension
 13
65.21278999999999
 23
154.357984
 33
0.0
 14
65.21278999999999
 24
151.607984
 34
0.0
 50
90.0
100
AcDbRotatedDimension
  0
DIMENSION
  5
89E
330
1E
100
AcDbEntity
  8
0
100
AcDbDimension
  2
*D24
 10
56.78654
 20
124.076984
 30
0.0
 11
56.78653999999998
 21
137.842484
 31
0.0
 70
    32
  1
E
 71
     5
 42
27.53100000000002
  3
23NSTD
100
AcDbAlignedDimension
 13
65.21278999999999
 23
151.607984
 33
0.0
 14
65.21278999999999
 24
124.076984
 34
0.0
 50
90.0
100
AcDbRotatedDimension
  0
TEXT
  5
8AC
330
1E
100
AcDbEntity
  8
DIM
100
AcDbText
 10
973.443503
 20
130.4884949999999
 30
0.0
 40
1.25
  1

100
AcDbText
  0
TEXT
  5
8AD
330
1E
100
AcDbEntity
  8
DIM
100
AcDbText
 10
974.5060029999999
 20
126.394736
 30
0.0
 40
1.0
  1

100
AcDbText
  0
TEXT
  5
8AE
330
1E
100
AcDbEntity
  8
DIM
100
AcDbText
 10
1137.443502999999
 20
130.4884949999999
 30
0.0
 40
1.25
  1

100
AcDbText
  0
TEXT
  5
8AF
330
1E
100
AcDbEntity
  8
DIM
100
AcDbText
 10
1138.506003
 20
126.394736
 30
0.0
 40
1.0
  1

100
AcDbText
  0
LINE
  5
8B0
330
1E
100
AcDbEntity
  8
0
100
AcDbLine
 10
89.33754
 20
119.701984
 30
0.0
 11
63.83754
 21
119.701984
 31
0.0
  0
LINE
  5
8B1
330
1E
100
AcDbEntity
  8
0
100
AcDbLine
 10
89.25954
 20
122.326984
 30
0.0
 11
63.91554
 21
122.326984
 31
0.0
  0
CIRCLE
  5
8B2
330
1E
100
AcDbEntity
  8
0
100
AcDbCircle
 10
87.52454
 20
122.951984
 30
0.0
 40
0.0735
  0
CIRCLE
  5
8B3
330
1E
100
AcDbEntity
  8
0
100
AcDbCircle
 10
65.65054
 20
122.951984
 30
0.0
 40
0.0735
  0
LINE
  5
8B4
330
1E
100
AcDbEntity
  8
0
100
AcDbLine
 10
87.86953999999999
 20
122.326984
 30
0.0
 11
87.86953999999999
 21
123.701984
 31
0.0
  0
CIRCLE
  5
8B5
330
1E
100
AcDbEntity
  8
0
100
AcDbCircle
 10
66.33754
 20
180.513984
 30
0.0
 40
0.1405
  0
LINE
  5
8B6
330
1E
100
AcDbEntity
  8
0
100
AcDbLine
 10
66.02554000000001
 20
181.513984
 30
0.0
 11
66.02554000000001
 21
179.513984
 31
0.0
  0
LINE
  5
8B7
330
1E
100
AcDbEntity
  8
0
100
AcDbLine
 10
66.64954
 20
181.513984
 30
0.0
 11
66.64954
 21
179.513984
 31
0.0
  0
LINE
  5
8B8
330
1E
100
AcDbEntity
  8
0
100
AcDbLine
 10
66.64954
 20
180.138984
 30
0.0
 11
66.02554000000001
 21
180.138984
 31
0.0
  0
LINE
  5
8B9
330
1E
100
AcDbEntity
  8
0
100
AcDbLine
 10
66.64954
 20
180.888984
 30
0.0
 11
66.02554000000001
 21
180.888984
 31
0.0
  0
LINE
  5
8BA
330
1E
100
AcDbEntity
  8
0
100
AcDbLine
 10
87.30653999999999
 20
122.326984
 30
0.0
 11
87.30653999999999
 21
123.701984
 31
0.0
  0
LINE
  5
8BB
330
1E
100
AcDbEntity
  8
0
100
AcDbLine
 10
63.83754
 20
181.348451
 30
0.0
 11
63.83754
 21
119.701984
 31
0.0
  0
LINE
  5
8BC
330
1E
100
AcDbEntity
  8
0
100
AcDbLine
 10
89.33754
 20
119.701984
 30
0.0
 11
89.33754
 21
146.996692
 31
0.0
  0
LINE
  5
8BD
330
1E
100
AcDbEntity
  8
0
100
AcDbLine
 10
64.61879
 20
181.7111009999999
 30
0.0
 11
64.61879
 21
178.763984
 31
0.0
  0
LINE
  5
8BE
330
1E
100
AcDbEntity
  8
0
100
AcDbLine
 10
89.25954
 20
119.701984
 30
0.0
 11
89.25954
 21
122.326984
 31
0.0
  0
LINE
  5
8BF
330
1E
100
AcDbEntity
  8
0
100
AcDbLine
 10
89.19754000000001
 20
119.763984
 30
0.0
 11
89.19754000000001
 21
122.264984
 31
0.0
  0
LINE
  5
8C0
330
1E
100
AcDbEntity
  8
0
100
AcDbLine
 10
89.19754000000001
 20
119.763984
 30
0.0
 11
63.97754
 21
119.763984
 31
0.0
  0
LINE
  5
8C1
330
1E
100
AcDbEntity
  8
0
100
AcDbLine
 10
89.19754000000001
 20
122.264984
 30
0.0
 11
63.97754
 21
122.264984
 31
0.0
  0
LINE
  5
8C2
330
1E
100
AcDbEntity
  8
0
100
AcDbLine
 10
63.97754
 20
122.264984
 30
0.0
 11
63.97754
 21
119.763984
 31
0.0
  0
LINE
  5
8C3
330
1E
100
AcDbEntity
  8
0
100
AcDbLine
 10
63.91554
 20
122.326984
 30
0.0
 11
63.91554
 21
119.701984
 31
0.0
  0
LINE
  5
8C4
330
1E
100
AcDbEntity
  8
0
100
AcDbLine
 10
88.58754000000001
 20
122.326984
 30
0.0
 11
88.58754000000001
 21
147.659829
 31
0.0
  0
LINE
  5
8C5
330
1E
100
AcDbEntity
  8
0
100
AcDbLine
 10
64.58754
 20
181.696595
 30
0.0
 11
64.58754
 21
122.326984
 31
0.0
  0
ARC
  5
8C6
330
1E
100
AcDbEntity
  8
0
100
AcDbCircle
 10
65.21278999999999
 20
181.888984
 30
0.0
 40
0.1405
100
AcDbArc
 50
165.72567
 51
64.07504799999999
  0
CIRCLE
  5
8C7
330
1E
100
AcDbEntity
  8
0
100
AcDbCircle
 10
65.83778999999999
 20
181.888984
 30
0.0
 40
0.1405
  0
CIRCLE
  5
8C8
330
1E
100
AcDbEntity
  8
0
100
AcDbCircle
 10
66.33779
 20
181.888984
 30
0.0
 40
0.1405
  0
CIRCLE
  5
8C9
330
1E
100
AcDbEntity
  8
0
100
AcDbCircle
 10
66.96279
 20
181.888984
 30
0.0
 40
0.1405
  0
CIRCLE
  5
8CA
330
1E
100
AcDbEntity
  8
0
100
AcDbCircle
 10
66.96279
 20
179.138984
 30
0.0
 40
0.1405
  0
CIRCLE
  5
8CB
330
1E
100
AcDbEntity
  8
0
100
AcDbCircle
 10
66.33779
 20
179.138984
 30
0.0
 40
0.1405
  0
CIRCLE
  5
8CC
330
1E
100
AcDbEntity
  8
0
100
AcDbCircle
 10
65.83778999999999
 20
179.138984
 30
0.0
 40
0.1405
  0
CIRCLE
  5
8CD
330
1E
100
AcDbEntity
  8
0
100
AcDbCircle
 10
65.21278999999999
 20
179.138984
 30
0.0
 40
0.1405
  0
CIRCLE
  5
8CE
330
1E
100
AcDbEntity
  8
0
100
AcDbCircle
 10
86.21228999999999
 20
126.826984
 30
0.0
 40
0.1405
  0
CIRCLE
  5
8CF
330
1E
100
AcDbEntity
  8
0
100
AcDbCircle
 10
86.83728999999999
 20
126.826984
 30
0.0
 40
0.1405
  0
CIRCLE
  5
8D0
330
1E
100
AcDbEntity
  8
0
100
AcDbCircle
 10
87.33729
 20
126.826984
 30
0.0
 40
0.1405
  0
CIRCLE
  5
8D1
330
1E
100
AcDbEntity
  8
0
100
AcDbCircle
 10
87.96229
 20
126.826984
 30
0.0
 40
0.1405
  0
CIRCLE
  5
8D2
330
1E
100
AcDbEntity
  8
0
100
AcDbCircle
 10
87.96229
 20
124.076984
 30
0.0
 40
0.1405
  0
CIRCLE
  5
8D3
330
1E
100
AcDbEntity
  8
0
100
AcDbCircle
 10
87.33729
 20
124.076984
 30
0.0
 40
0.1405
  0
CIRCLE
  5
8D4
330
1E
100
AcDbEntity
  8
0
100
AcDbCircle
 10
86.83728999999999
 20
124.076984
 30
0.0
 40
0.1405
  0
CIRCLE
  5
8D5
330
1E
100
AcDbEntity
  8
0
100
AcDbCircle
 10
86.21228999999999
 20
124.076984
 30
0.0
 40
0.1405
  0
CIRCLE
  5
8D6
330
1E
100
AcDbEntity
  8
0
100
AcDbCircle
 10
65.21278999999999
 20
126.826984
 30
0.0
 40
0.1405
  0
CIRCLE
  5
8D7
330
1E
100
AcDbEntity
  8
0
100
AcDbCircle
 10
65.83778999999999
 20
126.826984
 30
0.0
 40
0.1405
  0
CIRCLE
  5
8D8
330
1E
100
AcDbEntity
  8
0
100
AcDbCircle
 10
66.33779
 20
126.826984
 30
0.0
 40
0.1405
  0
CIRCLE
  5
8D9
330
1E
100
AcDbEntity
  8
0
100
AcDbCircle
 10
66.96279
 20
126.826984
 30
0.0
 40
0.1405
  0
CIRCLE
  5
8DA
330
1E
100
AcDbEntity
  8
0
100
AcDbCircle
 10
66.96279
 20
124.076984
 30
0.0
 40
0.1405
  0
CIRCLE
  5
8DB
330
1E
100
AcDbEntity
  8
0
100
AcDbCircle
 10
66.33779
 20
124.076984
 30
0.0
 40
0.1405
  0
CIRCLE
  5
8DC
330
1E
100
AcDbEntity
  8
0
100
AcDbCircle
 10
65.83778999999999
 20
124.076984
 30
0.0
 40
0.1405
  0
CIRCLE
  5
8DD
330
1E
100
AcDbEntity
  8
0
100
AcDbCircle
 10
65.21278999999999
 20
124.076984
 30
0.0
 40
0.1405
  0
LINE
  5
8DE
330
1E
100
AcDbEntity
  8
0
100
AcDbLine
 10
88.55629
 20
123.701984
 30
0.0
 11
88.55629
 21
127.201984
 31
0.0
  0
LINE
  5
8DF
330
1E
100
AcDbEntity
  8
0
100
AcDbLine
 10
64.61879
 20
123.701984
 30
0.0
 11
64.61879
 21
127.201984
 31
0.0
  0
CIRCLE
  5
8E0
330
1E
100
AcDbEntity
  8
0
100
AcDbCircle
 10
86.83754
 20
125.451984
 30
0.0
 40
0.1405
  0
LINE
  5
8E1
330
1E
100
AcDbEntity
  8
0
100
AcDbLine
 10
87.14954
 20
126.451984
 30
0.0
 11
87.14954
 21
124.451984
 31
0.0
  0
LINE
  5
8E2
330
1E
100
AcDbEntity
  8
0
100
AcDbLine
 10
86.52554
 20
126.451984
 30
0.0
 11
86.52554
 21
124.451984
 31
0.0
  0
LINE
  5
8E3
330
1E
100
AcDbEntity
  8
0
100
AcDbLine
 10
87.14954
 20
125.076984
 30
0.0
 11
86.52554
 21
125.076984
 31
0.0
  0
LINE
  5
8E4
330
1E
100
AcDbEntity
  8
0
100
AcDbLine
 10
87.14954
 20
125.826984
 30
0.0
 11
86.52554
 21
125.826984
 31
0.0
  0
LINE
  5
8E5
330
1E
100
AcDbEntity
  8
0
100
AcDbLine
 10
66.64954
 20
125.076984
 30
0.0
 11
66.02554000000001
 21
125.076984
 31
0.0
  0
LINE
  5
8E6
330
1E
100
AcDbEntity
  8
0
100
AcDbLine
 10
66.64954
 20
125.826984
 30
0.0
 11
66.02554000000001
 21
125.826984
 31
0.0
  0
LINE
  5
8E7
330
1E
100
AcDbEntity
  8
0
100
AcDbLine
 10
66.64954
 20
126.451984
 30
0.0
 11
66.64954
 21
124.451984
 31
0.0
  0
LINE
  5
8E8
330
1E
100
AcDbEntity
  8
0
100
AcDbLine
 10
66.02554000000001
 20
126.451984
 30
0.0
 11
66.02554000000001
 21
124.451984
 31
0.0
  0
CIRCLE
  5
8E9
330
1E
100
AcDbEntity
  8
0
100
AcDbCircle
 10
66.33754
 20
125.451984
 30
0.0
 40
0.1405
  0
LINE
  5
8EA
330
1E
100
AcDbEntity
  8
0
100
AcDbLine
 10
65.30554000000001
 20
178.763984
 30
0.0
 11
65.30554000000001
 21
154.732984
 31
0.0
  0
LINE
  5
8EB
330
1E
100
AcDbEntity
  8
0
100
AcDbLine
 10
65.30554000000001
 20
123.701984
 30
0.0
 11
65.30554000000001
 21
122.326984
 31
0.0
  0
LINE
  5
8EC
330
1E
100
AcDbEntity
  8
0
100
AcDbLine
 10
65.86853999999999
 20
123.701984
 30
0.0
 11
65.86853999999999
 21
122.326984
 31
0.0
  0
LINE
  5
8ED
330
1E
100
AcDbEntity
  8
0
100
AcDbLine
 10
87.86953999999999
 20
127.201984
 30
0.0
 11
87.86953999999999
 21
148.403206
 31
0.0
  0
LINE
  5
8EE
330
1E
100
AcDbEntity
  8
0
100
AcDbLine
 10
65.86853999999999
 20
183.638984
 30
0.0
 11
65.86853999999999
 21
182.150256
 31
0.0
  0
LINE
  5
8EF
330
1E
100
AcDbEntity
  8
0
100
AcDbLine
 10
87.30653999999999
 20
127.201984
 30
0.0
 11
87.30653999999999
 21
149.01053
 31
0.0
  0
LINE
  5
8F0
330
1E
100
AcDbEntity
  8
0
100
AcDbLine
 10
88.55629
 20
127.201984
 30
0.0
 11
86.02629
 21
127.201984
 31
0.0
  0
LINE
  5
8F1
330
1E
100
AcDbEntity
  8
0
100
AcDbLine
 10
88.55629
 20
126.576984
 30
0.0
 11
86.02629
 21
126.576984
 31
0.0
  0
LINE
  5
8F2
330
1E
100
AcDbEntity
  8
0
100
AcDbLine
 10
88.55629
 20
124.326984
 30
0.0
 11
86.02629
 21
124.326984
 31
0.0
  0
LINE
  5
8F3
330
1E
100
AcDbEntity
  8
0
100
AcDbLine
 10
88.55629
 20
123.701984
 30
0.0
 11
86.02629
 21
123.701984
 31
0.0
  0
TEXT
  5
8F4
330
1E
100
AcDbEntity
  8
OBJECT
100
AcDbText
 10
1139.362746
 20
177.0913939999999
 30
0.0
 40
1.25
  1

100
AcDbText
  0
CIRCLE
  5
8F5
330
1E
100
AcDbEntity
  8
0
100
AcDbCircle
 10
71.08779
 20
126.826984
 30
0.0
 40
0.1405
  0
CIRCLE
  5
8F6
330
1E
100
AcDbEntity
  8
0
100
AcDbCircle
 10
71.08779
 20
124.076984
 30
0.0
 40
0.1405
  0
CIRCLE
  5
8F7
330
1E
100
AcDbEntity
  8
0
100
AcDbCircle
 10
71.58779
 20
126.826984
 30
0.0
 40
0.1405
  0
CIRCLE
  5
8F8
330
1E
100
AcDbEntity
  8
0
100
AcDbCircle
 10
72.21279
 20
126.826984
 30
0.0
 40
0.1405
  0
CIRCLE
  5
8F9
330
1E
100
AcDbEntity
  8
0
100
AcDbCircle
 10
72.83779
 20
126.826984
 30
0.0
 40
0.1405
  0
CIRCLE
  5
8FA
330
1E
100
AcDbEntity
  8
0
100
AcDbCircle
 10
71.58779
 20
124.076984
 30
0.0
 40
0.1405
  0
CIRCLE
  5
8FB
330
1E
100
AcDbEntity
  8
0
100
AcDbCircle
 10
72.21279
 20
124.076984
 30
0.0
 40
0.1405
  0
CIRCLE
  5
8FC
330
1E
100
AcDbEntity
  8
0
100
AcDbCircle
 10
72.83779
 20
124.076984
 30
0.0
 40
0.1405
  0
CIRCLE
  5
8FD
330
1E
100
AcDbEntity
  8
0
100
AcDbCircle
 10
73.33778999999999
 20
126.826984
 30
0.0
 40
0.1405
  0
CIRCLE
  5
8FE
330
1E
100
AcDbEntity
  8
0
100
AcDbCircle
 10
73.96278999999999
 20
126.826984
 30
0.0
 40
0.1405
  0
CIRCLE
  5
8FF
330
1E
100
AcDbEntity
  8
0
100
AcDbCircle
 10
74.58778999999999
 20
126.826984
 30
0.0
 40
0.1405
  0
CIRCLE
  5
900
330
1E
100
AcDbEntity
  8
0
100
AcDbCircle
 10
73.33778999999999
 20
124.076984
 30
0.0
 40
0.1405
  0
CIRCLE
  5
901
330
1E
100
AcDbEntity
  8
0
100
AcDbCircle
 10
73.96278999999999
 20
124.076984
 30
0.0
 40
0.1405
  0
CIRCLE
  5
902
330
1E
100
AcDbEntity
  8
0
100
AcDbCircle
 10
74.58778999999999
 20
124.076984
 30
0.0
 40
0.1405
  0
CIRCLE
  5
903
330
1E
100
AcDbEntity
  8
0
100
AcDbCircle
 10
75.08779
 20
126.826984
 30
0.0
 40
0.1405
  0
CIRCLE
  5
904
330
1E
100
AcDbEntity
  8
0
100
AcDbCircle
 10
75.71279
 20
126.826984
 30
0.0
 40
0.1405
  0
CIRCLE
  5
905
330
1E
100
AcDbEntity
  8
0
100
AcDbCircle
 10
76.33779
 20
126.826984
 30
0.0
 40
0.1405
  0
CIRCLE
  5
906
330
1E
100
AcDbEntity
  8
0
100
AcDbCircle
 10
75.08779
 20
124.076984
 30
0.0
 40
0.1405
  0
CIRCLE
  5
907
330
1E
100
AcDbEntity
  8
0
100
AcDbCircle
 10
75.71279
 20
124.076984
 30
0.0
 40
0.1405
  0
CIRCLE
  5
908
330
1E
100
AcDbEntity
  8
0
100
AcDbCircle
 10
76.33779
 20
124.076984
 30
0.0
 40
0.1405
  0
CIRCLE
  5
909
330
1E
100
AcDbEntity
  8
0
100
AcDbCircle
 10
76.83779
 20
126.826984
 30
0.0
 40
0.1405
  0
CIRCLE
  5
90A
330
1E
100
AcDbEntity
  8
0
100
AcDbCircle
 10
77.46279
 20
126.826984
 30
0.0
 40
0.1405
  0
CIRCLE
  5
90B
330
1E
100
AcDbEntity
  8
0
100
AcDbCircle
 10
78.08779
 20
126.826984
 30
0.0
 40
0.1405
  0
CIRCLE
  5
90C
330
1E
100
AcDbEntity
  8
0
100
AcDbCircle
 10
76.83779
 20
124.076984
 30
0.0
 40
0.1405
  0
CIRCLE
  5
90D
330
1E
100
AcDbEntity
  8
0
100
AcDbCircle
 10
77.46279
 20
124.076984
 30
0.0
 40
0.1405
  0
CIRCLE
  5
90E
330
1E
100
AcDbEntity
  8
0
100
AcDbCircle
 10
78.08779
 20
124.076984
 30
0.0
 40
0.1405
  0
CIRCLE
  5
90F
330
1E
100
AcDbEntity
  8
0
100
AcDbCircle
 10
78.58779
 20
126.826984
 30
0.0
 40
0.1405
  0
CIRCLE
  5
910
330
1E
100
AcDbEntity
  8
0
100
AcDbCircle
 10
79.21279
 20
126.826984
 30
0.0
 40
0.1405
  0
CIRCLE
  5
911
330
1E
100
AcDbEntity
  8
0
100
AcDbCircle
 10
79.83779
 20
126.826984
 30
0.0
 40
0.1405
  0
CIRCLE
  5
912
330
1E
100
AcDbEntity
  8
0
100
AcDbCircle
 10
78.58779
 20
124.076984
 30
0.0
 40
0.1405
  0
CIRCLE
  5
913
330
1E
100
AcDbEntity
  8
0
100
AcDbCircle
 10
79.21279
 20
124.076984
 30
0.0
 40
0.1405
  0
CIRCLE
  5
914
330
1E
100
AcDbEntity
  8
0
100
AcDbCircle
 10
79.83779
 20
124.076984
 30
0.0
 40
0.1405
  0
TEXT
  5
915
330
1E
100
AcDbEntity
  8
DIM
100
AcDbText
 10
1137.443502999999
 20
130.4884949999999
 30
0.0
 40
1.25
  1

100
AcDbText
  0
TEXT
  5
916
330
1E
100
AcDbEntity
  8
DIM
100
AcDbText
 10
1138.506003
 20
126.394736
 30
0.0
 40
1.0
  1

100
AcDbText
  0
TEXT
  5
917
330
1E
100
AcDbEntity
  8
OBJECT
100
AcDbText
 10
1139.362746
 20
177.0913939999999
 30
0.0
 40
1.25
  1

100
AcDbText
  0
CIRCLE
  5
918
330
1E
100
AcDbEntity
  8
0
100
AcDbCircle
 10
81.58779
 20
126.826984
 30
0.0
 40
0.1405
  0
CIRCLE
  5
919
330
1E
100
AcDbEntity
  8
0
100
AcDbCircle
 10
81.58779
 20
124.076984
 30
0.0
 40
0.1405
  0
CIRCLE
  5
91A
330
1E
100
AcDbEntity
  8
0
100
AcDbCircle
 10
80.96279
 20
124.076984
 30
0.0
 40
0.1405
  0
CIRCLE
  5
91B
330
1E
100
AcDbEntity
  8
0
100
AcDbCircle
 10
80.33779
 20
124.076984
 30
0.0
 40
0.1405
  0
CIRCLE
  5
91C
330
1E
100
AcDbEntity
  8
0
100
AcDbCircle
 10
80.96279
 20
126.826984
 30
0.0
 40
0.1405
  0
CIRCLE
  5
91D
330
1E
100
AcDbEntity
  8
0
100
AcDbCircle
 10
80.33779
 20
126.826984
 30
0.0
 40
0.1405
  0
CIRCLE
  5
91E
330
1E
100
AcDbEntity
  8
0
100
AcDbCircle
 10
82.08778999999999
 20
124.076984
 30
0.0
 40
0.1405
  0
CIRCLE
  5
91F
330
1E
100
AcDbEntity
  8
0
100
AcDbCircle
 10
82.08778999999999
 20
126.826984
 30
0.0
 40
0.1405
  0
INSERT
  5
920
330
1E
100
AcDbEntity
  8
0
100
AcDbBlockReference
  2
CUTOUT
 10
76.58754
 20
125.451984
 30
0.0
  0
INSERT
  5
921
330
1E
100
AcDbEntity
  8
0
100
AcDbBlockReference
  2
CUTOUT
 10
80.08754000000001
 20
125.451984
 30
0.0
  0
INSERT
  5
922
330
1E
100
AcDbEntity
  8
0
100
AcDbBlockReference
  2
CUTOUT
 10
78.33754
 20
125.451984
 30
0.0
  0
CIRCLE
  5
923
330
1E
100
AcDbEntity
  8
0
100
AcDbCircle
 10
64.19754000000001
 20
124.467984
 30
0.0
 40
0.1405
  0
CIRCLE
  5
924
330
1E
100
AcDbEntity
  8
0
100
AcDbCircle
 10
64.19754000000001
 20
125.154984
 30
0.0
 40
0.1405
  0
CIRCLE
  5
925
330
1E
100
AcDbEntity
  8
0
100
AcDbCircle
 10
64.19754000000001
 20
126.842984
 30
0.0
 40
0.1405
  0
CIRCLE
  5
926
330
1E
100
AcDbEntity
  8
0
100
AcDbCircle
 10
64.19754000000001
 20
127.529984
 30
0.0
 40
0.1405
  0
ARC
  5
927
330
1E
100
AcDbEntity
  8
0
100
AcDbCircle
 10
64.19754000000001
 20
181.497984
 30
0.0
 40
0.1405
100
AcDbArc
 50
198.384862
 51
31.41585599999999
  0
CIRCLE
  5
928
330
1E
100
AcDbEntity
  8
0
100
AcDbCircle
 10
64.19754000000001
 20
179.1229839999999
 30
0.0
 40
0.1405
  0
CIRCLE
  5
929
330
1E
100
AcDbEntity
  8
0
100
AcDbCircle
 10
64.19754000000001
 20
180.810984
 30
0.0
 40
0.1405
  0
CIRCLE
  5
92A
330
1E
100
AcDbEntity
  8
0
100
AcDbCircle
 10
64.19754000000001
 20
178.435984
 30
0.0
 40
0.1405
  0
CIRCLE
  5
92B
330
1E
100
AcDbEntity
  8
0
100
AcDbCircle
 10
88.97754
 20
124.467984
 30
0.0
 40
0.1405
  0
CIRCLE
  5
92C
330
1E
100
AcDbEntity
  8
0
100
AcDbCircle
 10
88.97754
 20
126.842984
 30
0.0
 40
0.1405
  0
CIRCLE
  5
92D
330
1E
100
AcDbEntity
  8
0
100
AcDbCircle
 10
88.97754
 20
125.154984
 30
0.0
 40
0.1405
  0
CIRCLE
  5
92E
330
1E
100
AcDbEntity
  8
0
100
AcDbCircle
 10
88.97754
 20
127.529984
 30
0.0
 40
0.1405
  0
TEXT
  5
92F
330
1E
100
AcDbEntity
  8
DIM
100
AcDbText
 10
1155.410881
 20
315.412872
 30
0.0
 40
0.72
  1

100
AcDbText
  0
TEXT
  5
930
330
1E
100
AcDbEntity
  8
DIM
100
AcDbText
 10
1091.875004
 20
292.5376059999999
 30
0.0
 40
0.72
  1

100
AcDbText
  0
TEXT
  5
931
330
1E
100
AcDbEntity
  8
DIM
100
AcDbText
 10
1242.787325
 20
243.415868
 30
0.0
 40
0.72
  1

100
AcDbText
  0
TEXT
  5
932
330
1E
100
AcDbEntity
  8
DIM
100
AcDbText
 10
1179.251448
 20
220.5406029999999
 30
0.0
 40
0.72
  1

100
AcDbText
  0
TEXT
  5
933
330
1E
100
AcDbEntity
  8
DIM
100
AcDbText
 10
1145.440680999999
 20
329.0278339999999
 30
0.0
 40
0.72
  1

100
AcDbText
  0
TEXT
  5
934
330
1E
100
AcDbEntity
  8
DIM
100
AcDbText
 10
1081.904804
 20
306.1525689999999
 30
0.0
 40
0.72
  1

100
AcDbText
  0
TEXT
  5
935
330
1E
100
AcDbEntity
  8
DIM
100
AcDbText
 10
1081.904804
 20
346.1525689999999
 30
0.0
 40
0.72
  1

100
AcDbText
  0
TEXT
  5
936
330
1E
100
AcDbEntity
  8
DIM
100
AcDbText
 10
1143.404803999999
 20
346.1525689999999
 30
0.0
 40
0.72
  1

100
AcDbText
  0
INSERT
  5
937
330
1E
100
AcDbEntity
  8
0
100
AcDbBlockReference
  2
CUTOUT
 10
78.33754
 20
152.982984
 30
0.0
  0
INSERT
  5
938
330
1E
100
AcDbEntity
  8
0
100
AcDbBlockReference
  2
CUTOUT
 10
80.08754000000001
 20
152.982984
 30
0.0
  0
INSERT
  5
939
330
1E
100
AcDbEntity
  8
0
100
AcDbBlockReference
  2
CUTOUT
 10
76.58754
 20
152.982984
 30
0.0
  0
CIRCLE
  5
93A
330
1E
100
AcDbEntity
  8
0
100
AcDbCircle
 10
66.33754
 20
152.982984
 30
0.0
 40
0.1405
  0
LINE
  5
93B
330
1E
100
AcDbEntity
  8
0
100
AcDbLine
 10
66.02554000000001
 20
153.982984
 30
0.0
 11
66.02554000000001
 21
151.982984
 31
0.0
  0
LINE
  5
93C
330
1E
100
AcDbEntity
  8
0
100
AcDbLine
 10
66.64954
 20
153.982984
 30
0.0
 11
66.64954
 21
151.982984
 31
0.0
  0
LINE
  5
93D
330
1E
100
AcDbEntity
  8
0
100
AcDbLine
 10
64.61879
 20
151.232984
 30
0.0
 11
64.61879
 21
154.732984
 31
0.0
  0
CIRCLE
  5
93E
330
1E
100
AcDbEntity
  8
0
100
AcDbCircle
 10
65.83778999999999
 20
151.607984
 30
0.0
 40
0.1405
  0
CIRCLE
  5
93F
330
1E
100
AcDbEntity
  8
0
100
AcDbCircle
 10
65.21278999999999
 20
151.607984
 30
0.0
 40
0.1405
  0
LINE
  5
940
330
1E
100
AcDbEntity
  8
0
100
AcDbLine
 10
66.64954
 20
152.607984
 30
0.0
 11
66.02554000000001
 21
152.607984
 31
0.0
  0
CIRCLE
  5
941
330
1E
100
AcDbEntity
  8
0
100
AcDbCircle
 10
66.33779
 20
151.607984
 30
0.0
 40
0.1405
  0
CIRCLE
  5
942
330
1E
100
AcDbEntity
  8
0
100
AcDbCircle
 10
66.96279
 20
151.607984
 30
0.0
 40
0.1405
  0
CIRCLE
  5
943
330
1E
100
AcDbEntity
  8
0
100
AcDbCircle
 10
72.21279
 20
151.607984
 30
0.0
 40
0.1405
  0
CIRCLE
  5
944
330
1E
100
AcDbEntity
  8
0
100
AcDbCircle
 10
71.58779
 20
151.607984
 30
0.0
 40
0.1405
  0
CIRCLE
  5
945
330
1E
100
AcDbEntity
  8
0
100
AcDbCircle
 10
71.08779
 20
151.607984
 30
0.0
 40
0.1405
  0
CIRCLE
  5
946
330
1E
100
AcDbEntity
  8
0
100
AcDbCircle
 10
73.96278999999999
 20
151.607984
 30
0.0
 40
0.1405
  0
CIRCLE
  5
947
330
1E
100
AcDbEntity
  8
0
100
AcDbCircle
 10
73.33778999999999
 20
151.607984
 30
0.0
 40
0.1405
  0
CIRCLE
  5
948
330
1E
100
AcDbEntity
  8
0
100
AcDbCircle
 10
72.83779
 20
151.607984
 30
0.0
 40
0.1405
  0
CIRCLE
  5
949
330
1E
100
AcDbEntity
  8
0
100
AcDbCircle
 10
77.46279
 20
151.607984
 30
0.0
 40
0.1405
  0
CIRCLE
  5
94A
330
1E
100
AcDbEntity
  8
0
100
AcDbCircle
 10
75.71279
 20
151.607984
 30
0.0
 40
0.1405
  0
CIRCLE
  5
94B
330
1E
100
AcDbEntity
  8
0
100
AcDbCircle
 10
75.08779
 20
151.607984
 30
0.0
 40
0.1405
  0
CIRCLE
  5
94C
330
1E
100
AcDbEntity
  8
0
100
AcDbCircle
 10
74.58778999999999
 20
151.607984
 30
0.0
 40
0.1405
  0
CIRCLE
  5
94D
330
1E
100
AcDbEntity
  8
0
100
AcDbCircle
 10
76.83779
 20
151.607984
 30
0.0
 40
0.1405
  0
CIRCLE
  5
94E
330
1E
100
AcDbEntity
  8
0
100
AcDbCircle
 10
76.33779
 20
151.607984
 30
0.0
 40
0.1405
  0
CIRCLE
  5
94F
330
1E
100
AcDbEntity
  8
0
100
AcDbCircle
 10
78.58779
 20
151.607984
 30
0.0
 40
0.1405
  0
CIRCLE
  5
950
330
1E
100
AcDbEntity
  8
0
100
AcDbCircle
 10
78.08779
 20
151.607984
 30
0.0
 40
0.1405
  0
CIRCLE
  5
951
330
1E
100
AcDbEntity
  8
0
100
AcDbCircle
 10
80.33779
 20
151.607984
 30
0.0
 40
0.1405
  0
CIRCLE
  5
952
330
1E
100
AcDbEntity
  8
0
100
AcDbCircle
 10
79.83779
 20
151.607984
 30
0.0
 40
0.1405
  0
CIRCLE
  5
953
330
1E
100
AcDbEntity
  8
0
100
AcDbCircle
 10
79.21279
 20
151.607984
 30
0.0
 40
0.1405
  0
CIRCLE
  5
954
330
1E
100
AcDbEntity
  8
0
100
AcDbCircle
 10
65.83778999999999
 20
154.357984
 30
0.0
 40
0.1405
  0
CIRCLE
  5
955
330
1E
100
AcDbEntity
  8
0
100
AcDbCircle
 10
65.21278999999999
 20
154.357984
 30
0.0
 40
0.1405
  0
LINE
  5
956
330
1E
100
AcDbEntity
  8
0
100
AcDbLine
 10
66.64954
 20
153.357984
 30
0.0
 11
66.02554000000001
 21
153.357984
 31
0.0
  0
CIRCLE
  5
957
330
1E
100
AcDbEntity
  8
0
100
AcDbCircle
 10
66.96279
 20
154.357984
 30
0.0
 40
0.1405
  0
CIRCLE
  5
958
330
1E
100
AcDbEntity
  8
0
100
AcDbCircle
 10
66.33779
 20
154.357984
 30
0.0
 40
0.1405
  0
CIRCLE
  5
959
330
1E
100
AcDbEntity
  8
0
100
AcDbCircle
 10
72.21279
 20
154.357984
 30
0.0
 40
0.1405
  0
CIRCLE
  5
95A
330
1E
100
AcDbEntity
  8
0
100
AcDbCircle
 10
71.58779
 20
154.357984
 30
0.0
 40
0.1405
  0
CIRCLE
  5
95B
330
1E
100
AcDbEntity
  8
0
100
AcDbCircle
 10
71.08779
 20
154.357984
 30
0.0
 40
0.1405
  0
CIRCLE
  5
95C
330
1E
100
AcDbEntity
  8
0
100
AcDbCircle
 10
73.96278999999999
 20
154.357984
 30
0.0
 40
0.1405
  0
CIRCLE
  5
95D
330
1E
100
AcDbEntity
  8
0
100
AcDbCircle
 10
73.33778999999999
 20
154.357984
 30
0.0
 40
0.1405
  0
CIRCLE
  5
95E
330
1E
100
AcDbEntity
  8
0
100
AcDbCircle
 10
72.83779
 20
154.357984
 30
0.0
 40
0.1405
  0
CIRCLE
  5
95F
330
1E
100
AcDbEntity
  8
0
100
AcDbCircle
 10
77.46279
 20
154.357984
 30
0.0
 40
0.1405
  0
CIRCLE
  5
960
330
1E
100
AcDbEntity
  8
0
100
AcDbCircle
 10
75.71279
 20
154.357984
 30
0.0
 40
0.1405
  0
CIRCLE
  5
961
330
1E
100
AcDbEntity
  8
0
100
AcDbCircle
 10
75.08779
 20
154.357984
 30
0.0
 40
0.1405
  0
CIRCLE
  5
962
330
1E
100
AcDbEntity
  8
0
100
AcDbCircle
 10
74.58778999999999
 20
154.357984
 30
0.0
 40
0.1405
  0
CIRCLE
  5
963
330
1E
100
AcDbEntity
  8
0
100
AcDbCircle
 10
76.83779
 20
154.357984
 30
0.0
 40
0.1405
  0
CIRCLE
  5
964
330
1E
100
AcDbEntity
  8
0
100
AcDbCircle
 10
76.33779
 20
154.357984
 30
0.0
 40
0.1405
  0
CIRCLE
  5
965
330
1E
100
AcDbEntity
  8
0
100
AcDbCircle
 10
78.58779
 20
154.357984
 30
0.0
 40
0.1405
  0
CIRCLE
  5
966
330
1E
100
AcDbEntity
  8
0
100
AcDbCircle
 10
78.08779
 20
154.357984
 30
0.0
 40
0.1405
  0
CIRCLE
  5
967
330
1E
100
AcDbEntity
  8
0
100
AcDbCircle
 10
80.33779
 20
154.357984
 30
0.0
 40
0.1405
  0
CIRCLE
  5
968
330
1E
100
AcDbEntity
  8
0
100
AcDbCircle
 10
79.83779
 20
154.357984
 30
0.0
 40
0.1405
  0
CIRCLE
  5
969
330
1E
100
AcDbEntity
  8
0
100
AcDbCircle
 10
79.21279
 20
154.357984
 30
0.0
 40
0.1405
  0
CIRCLE
  5
96A
330
1E
100
AcDbEntity
  8
0
100
AcDbCircle
 10
82.08778999999999
 20
151.607984
 30
0.0
 40
0.1405
  0
CIRCLE
  5
96B
330
1E
100
AcDbEntity
  8
0
100
AcDbCircle
 10
80.96279
 20
151.607984
 30
0.0
 40
0.1405
  0
CIRCLE
  5
96C
330
1E
100
AcDbEntity
  8
0
100
AcDbCircle
 10
81.58779
 20
151.607984
 30
0.0
 40
0.1405
  0
CIRCLE
  5
96D
330
1E
100
AcDbEntity
  8
0
100
AcDbCircle
 10
80.96279
 20
154.357984
 30
0.0
 40
0.1405
  0
CIRCLE
  5
96E
330
1E
100
AcDbEntity
  8
0
100
AcDbCircle
 10
81.58779
 20
154.357984
 30
0.0
 40
0.1405
  0
LINE
  5
96F
330
1E
100
AcDbEntity
  8
0
100
AcDbLine
 10
65.30554000000001
 20
151.232984
 30
0.0
 11
65.30554000000001
 21
127.201984
 31
0.0
  0
LINE
  5
970
330
1E
100
AcDbEntity
  8
0
100
AcDbLine
 10
65.86853999999999
 20
151.232984
 30
0.0
 11
65.86853999999999
 21
127.201984
 31
0.0
  0
CIRCLE
  5
971
330
1E
100
AcDbEntity
  8
0
100
AcDbCircle
 10
70.46279
 20
124.076984
 30
0.0
 40
0.1405
  0
CIRCLE
  5
972
330
1E
100
AcDbEntity
  8
0
100
AcDbCircle
 10
68.71279
 20
124.076984
 30
0.0
 40
0.1405
  0
CIRCLE
  5
973
330
1E
100
AcDbEntity
  8
0
100
AcDbCircle
 10
68.08779
 20
124.076984
 30
0.0
 40
0.1405
  0
CIRCLE
  5
974
330
1E
100
AcDbEntity
  8
0
100
AcDbCircle
 10
67.58779
 20
124.076984
 30
0.0
 40
0.1405
  0
CIRCLE
  5
975
330
1E
100
AcDbEntity
  8
0
100
AcDbCircle
 10
69.83779
 20
124.076984
 30
0.0
 40
0.1405
  0
CIRCLE
  5
976
330
1E
100
AcDbEntity
  8
0
100
AcDbCircle
 10
69.33779
 20
124.076984
 30
0.0
 40
0.1405
  0
CIRCLE
  5
977
330
1E
100
AcDbEntity
  8
0
100
AcDbCircle
 10
70.46279
 20
126.826984
 30
0.0
 40
0.1405
  0
CIRCLE
  5
978
330
1E
100
AcDbEntity
  8
0
100
AcDbCircle
 10
68.71279
 20
126.826984
 30
0.0
 40
0.1405
  0
CIRCLE
  5
979
330
1E
100
AcDbEntity
  8
0
100
AcDbCircle
 10
68.08779
 20
126.826984
 30
0.0
 40
0.1405
  0
CIRCLE
  5
97A
330
1E
100
AcDbEntity
  8
0
100
AcDbCircle
 10
67.58779
 20
126.826984
 30
0.0
 40
0.1405
  0
CIRCLE
  5
97B
330
1E
100
AcDbEntity
  8
0
100
AcDbCircle
 10
69.83779
 20
126.826984
 30
0.0
 40
0.1405
  0
CIRCLE
  5
97C
330
1E
100
AcDbEntity
  8
0
100
AcDbCircle
 10
69.33779
 20
126.826984
 30
0.0
 40
0.1405
  0
CIRCLE
  5
97D
330
1E
100
AcDbEntity
  8
0
100
AcDbCircle
 10
70.46279
 20
154.357984
 30
0.0
 40
0.1405
  0
CIRCLE
  5
97E
330
1E
100
AcDbEntity
  8
0
100
AcDbCircle
 10
70.46279
 20
151.607984
 30
0.0
 40
0.1405
  0
CIRCLE
  5
97F
330
1E
100
AcDbEntity
  8
0
100
AcDbCircle
 10
68.71279
 20
151.607984
 30
0.0
 40
0.1405
  0
CIRCLE
  5
980
330
1E
100
AcDbEntity
  8
0
100
AcDbCircle
 10
67.58779
 20
151.607984
 30
0.0
 40
0.1405
  0
CIRCLE
  5
981
330
1E
100
AcDbEntity
  8
0
100
AcDbCircle
 10
68.08779
 20
151.607984
 30
0.0
 40
0.1405
  0
CIRCLE
  5
982
330
1E
100
AcDbEntity
  8
0
100
AcDbCircle
 10
69.33779
 20
151.607984
 30
0.0
 40
0.1405
  0
CIRCLE
  5
983
330
1E
100
AcDbEntity
  8
0
100
AcDbCircle
 10
69.83779
 20
151.607984
 30
0.0
 40
0.1405
  0
CIRCLE
  5
984
330
1E
100
AcDbEntity
  8
0
100
AcDbCircle
 10
68.71279
 20
154.357984
 30
0.0
 40
0.1405
  0
CIRCLE
  5
985
330
1E
100
AcDbEntity
  8
0
100
AcDbCircle
 10
67.58779
 20
154.357984
 30
0.0
 40
0.1405
  0
CIRCLE
  5
986
330
1E
100
AcDbEntity
  8
0
100
AcDbCircle
 10
68.08779
 20
154.357984
 30
0.0
 40
0.1405
  0
CIRCLE
  5
987
330
1E
100
AcDbEntity
  8
0
100
AcDbCircle
 10
69.33779
 20
154.357984
 30
0.0
 40
0.1405
  0
CIRCLE
  5
988
330
1E
100
AcDbEntity
  8
0
100
AcDbCircle
 10
69.83779
 20
154.357984
 30
0.0
 40
0.1405
  0
CIRCLE
  5
989
330
1E
100
AcDbEntity
  8
0
100
AcDbCircle
 10
68.71279
 20
179.138984
 30
0.0
 40
0.1405
  0
CIRCLE
  5
98A
330
1E
100
AcDbEntity
  8
0
100
AcDbCircle
 10
68.08779
 20
179.138984
 30
0.0
 40
0.1405
  0
CIRCLE
  5
98B
330
1E
100
AcDbEntity
  8
0
100
AcDbCircle
 10
67.58779
 20
179.138984
 30
0.0
 40
0.1405
  0
CIRCLE
  5
98C
330
1E
100
AcDbEntity
  8
0
100
AcDbCircle
 10
69.83779
 20
179.138984
 30
0.0
 40
0.1405
  0
CIRCLE
  5
98D
330
1E
100
AcDbEntity
  8
0
100
AcDbCircle
 10
69.33779
 20
179.138984
 30
0.0
 40
0.1405
  0
ARC
  5
98E
330
1E
100
AcDbEntity
  8
0
100
AcDbCircle
 10
68.08779
 20
181.888984
 30
0.0
 40
0.1405
100
AcDbArc
 50
136.564984
 51
329.517297
  0
CIRCLE
  5
98F
330
1E
100
AcDbEntity
  8
0
100
AcDbCircle
 10
67.58779
 20
181.888984
 30
0.0
 40
0.1405
  0
ARC
  5
990
330
1E
100
AcDbEntity
  8
0
100
AcDbCircle
 10
82.71228999999999
 20
151.607984
 30
0.0
 40
0.1405
100
AcDbArc
 50
140.903968
 51
261.255391
  0
CIRCLE
  5
991
330
1E
100
AcDbEntity
  8
0
100
AcDbCircle
 10
82.71228999999999
 20
126.826984
 30
0.0
 40
0.1405
  0
CIRCLE
  5
992
330
1E
100
AcDbEntity
  8
0
100
AcDbCircle
 10
83.33728999999999
 20
126.826984
 30
0.0
 40
0.1405
  0
CIRCLE
  5
993
330
1E
100
AcDbEntity
  8
0
100
AcDbCircle
 10
82.71228999999999
 20
124.076984
 30
0.0
 40
0.1405
  0
CIRCLE
  5
994
330
1E
100
AcDbEntity
  8
0
100
AcDbCircle
 10
83.33728999999999
 20
124.076984
 30
0.0
 40
0.1405
  0
LWPOLYLINE
  5
995
330
1E
100
AcDbEntity
  8
0
100
AcDbPolyline
 90
        4
 70
     1
 43
0.0
 10
65.61829
 20
125.326984
 10
65.68129
 20
125.326984
 42
1.0
 10
65.68129
 20
125.576984
 10
65.61829
 20
125.576984
 42
1.0
  0
LWPOLYLINE
  5
99B
330
1E
100
AcDbEntity
  8
0
100
AcDbPolyline
 90
        4
 70
     1
 43
0.0
 10
87.55679
 20
125.326984
 10
87.49379000000001
 20
125.326984
 42
-1.0
 10
87.49379000000001
 20
125.576984
 10
87.55679
 20
125.576984
 42
-1.0
  0
LWPOLYLINE
  5
9A1
330
1E
100
AcDbEntity
  8
0
100
AcDbPolyline
 90
        4
 70
     1
 43
0.0
 10
65.61829
 20
152.857984
 10
65.68129
 20
152.857984
 42
1.0
 10
65.68129
 20
153.107984
 10
65.61829
 20
153.107984
 42
1.0
  0
LWPOLYLINE
  5
9A7
330
1E
100
AcDbEntity
  8
0
100
AcDbPolyline
 90
        4
 70
     1
 43
0.0
 10
65.61829
 20
180.388984
 10
65.68129
 20
180.388984
 42
1.0
 10
65.68129
 20
180.638984
 10
65.61829
 20
180.638984
 42
1.0
  0
LINE
  5
9AD
330
1E
100
AcDbEntity
  8
0
100
AcDbLine
 10
68.446404
 20
181.638984
 30
0.0
 11
64.61879
 21
181.638984
 31
0.0
  0
LINE
  5
9AE
330
1E
100
AcDbEntity
  8
0
100
AcDbLine
 10
70.05491500000001
 20
179.388984
 30
0.0
 11
64.61879
 21
179.388984
 31
0.0
  0
LINE
  5
9AF
330
1E
100
AcDbEntity
  8
0
100
AcDbLine
 10
70.50524899999999
 20
178.763984
 30
0.0
 11
64.61879
 21
178.763984
 31
0.0
  0
LINE
  5
9B0
330
1E
100
AcDbEntity
  8
0
100
AcDbLine
 10
81.97557900000001
 20
154.107984
 30
0.0
 11
64.61879
 21
154.107984
 31
0.0
  0
LINE
  5
9B1
330
1E
100
AcDbEntity
  8
0
100
AcDbLine
 10
81.76035
 20
154.732984
 30
0.0
 11
64.61879
 21
154.732984
 31
0.0
  0
LINE
  5
9B2
330
1E
100
AcDbEntity
  8
0
100
AcDbLine
 10
82.54103699999999
 20
151.857984
 30
0.0
 11
64.61879
 21
151.857984
 31
0.0
  0
LINE
  5
9B3
330
1E
100
AcDbEntity
  8
0
100
AcDbLine
 10
82.83611500000001
 20
151.232984
 30
0.0
 11
64.61879
 21
151.232984
 31
0.0
  0
LINE
  5
9B4
330
1E
100
AcDbEntity
  8
0
100
AcDbLine
 10
83.94828999999999
 20
127.201984
 30
0.0
 11
64.61879
 21
127.201984
 31
0.0
  0
LINE
  5
9B5
330
1E
100
AcDbEntity
  8
0
100
AcDbLine
 10
83.94828999999999
 20
126.576984
 30
0.0
 11
64.61879
 21
126.576984
 31
0.0
  0
LINE
  5
9B6
330
1E
100
AcDbEntity
  8
0
100
AcDbLine
 10
83.94828999999999
 20
124.326984
 30
0.0
 11
64.61879
 21
124.326984
 31
0.0
  0
LINE
  5
9B7
330
1E
100
AcDbEntity
  8
0
100
AcDbLine
 10
83.94828999999999
 20
123.701984
 30
0.0
 11
64.61879
 21
123.701984
 31
0.0
  0
LINE
  5
9B8
330
1E
100
AcDbEntity
  8
0
100
AcDbLine
 10
119.939631
 20
90.248483
 30
0.0
 11
121.919631
 21
90.248483
 31
0.0
  0
LINE
  5
9B9
330
1E
100
AcDbEntity
  8
0
100
AcDbLine
 10
120.929631
 20
89.258483
 30
0.0
 11
120.929631
 21
91.238483
 31
0.0
  0
DIMENSION
  5
9BA
330
1E
100
AcDbEntity
  8
0
100
AcDbDimension
  2
*D25
 10
34.852227
 20
114.301984
 30
0.0
 11
30.305727
 21
114.301984
 31
0.0
 70
    32
 71
     5
 42
9.092999999999999
  3
23NSTDI
100
AcDbAlignedDimension
 13
25.759227
 23
121.013984
 33
0.0
 14
34.852227
 24
121.013984
 34
0.0
100
AcDbRotatedDimension
  0
DIMENSION
  5
9C8
330
1E
100
AcDbEntity
  8
0
100
AcDbDimension
  2
*D26
 10
41.305727
 20
110.086984
 30
0.0
 11
38.078977
 21
110.086984
 31
0.0
 70
    32
 71
     5
 42
6.453500000000005
  3
23NSTDI
100
AcDbAlignedDimension
 13
34.852227
 23
121.013984
 33
0.0
 14
41.305727
 24
119.701984
 34
0.0
100
AcDbRotatedDimension
  0
DIMENSION
  5
9D6
330
1E
100
AcDbEntity
  8
0
100
AcDbDimension
  2
*D27
 10
13.90572699999999
 20
119.701984
 30
0.0
 11
7.51197699999998
 21
114.301984
 31
0.0
 70
    32
 71
     5
 42
1.311999999999997
  3
23NSTD
100
AcDbAlignedDimension
 13
25.759227
 23
121.013984
 33
0.0
 14
19.30572699999999
 24
119.701984
 34
0.0
 50
90.0
100
AcDbRotatedDimension
  0
DIMENSION
  5
9E4
330
1E
100
AcDbEntity
  8
0
100
AcDbDimension
  2
*D28
 10
50.364652
 20
181.888984
 30
0.0
 11
50.36465199999996
 21
152.982984
 31
0.0
 70
    32
  1
F
 71
     5
 42
57.81200000000002
  3
23NSTD
100
AcDbAlignedDimension
 13
65.21278999999999
 23
124.076984
 33
0.0
 14
65.21278999999999
 24
181.888984
 34
0.0
 50
90.0
100
AcDbRotatedDimension
  0
DIMENSION
  5
9F2
330
1E
100
AcDbEntity
  8
0
100
AcDbDimension
  2
*D29
 10
137.329631
 20
79.326483
 30
0.0
 11
143.9577559999999
 21
84.72648300000001
 31
0.0
 70
    32
 71
     5
 42
1.828000000000002
  3
23NSTD
100
AcDbAlignedDimension
 13
131.929631
 23
77.498483
 33
0.0
 14
125.476131
 24
79.326483
 34
0.0
 50
90.0
100
AcDbRotatedDimension
  0
CIRCLE
  5
A00
330
1E
100
AcDbEntity
  8
0
100
AcDbCircle
 10
84.19829
 20
150.106984
 30
0.0
 40
0.1405
  0
LINE
  5
A01
330
1E
100
AcDbEntity
  8
0
100
AcDbLine
 10
86.02629
 20
122.356984
 30
0.0
 11
86.02629
 21
150.058332
 31
0.0
  0
LINE
  5
A02
330
1E
100
AcDbEntity
  8
0
100
AcDbLine
 10
83.94828999999999
 20
150.656687
 30
0.0
 11
83.94828999999999
 21
122.356984
 31
0.0
  0
LINE
  5
A03
330
1E
100
AcDbEntity
  8
0
100
AcDbLine
 10
85.91729
 20
122.356984
 30
0.0
 11
85.91729
 21
150.118408
 31
0.0
  0
LINE
  5
A04
330
1E
100
AcDbEntity
  8
0
100
AcDbLine
 10
84.63528999999999
 20
150.542955
 30
0.0
 11
84.63528999999999
 21
122.356984
 31
0.0
  0
CIRCLE
  5
A05
330
1E
100
AcDbEntity
  8
0
100
AcDbCircle
 10
84.19829
 20
134.856984
 30
0.0
 40
0.1405
  0
CIRCLE
  5
A06
330
1E
100
AcDbEntity
  8
0
100
AcDbCircle
 10
84.19829
 20
123.231984
 30
0.0
 40
0.1405
  0
LINE
  5
A07
330
1E
100
AcDbEntity
  8
0
100
AcDbLine
 10
83.94828999999999
 20
122.356984
 30
0.0
 11
86.02629
 21
122.356984
 31
0.0
  0
CIRCLE
  5
A08
330
1E
100
AcDbEntity
  8
0
100
AcDbCircle
 10
84.19829
 20
122.606984
 30
0.0
 40
0.1405
  0
CIRCLE
  5
A09
330
1E
100
AcDbEntity
  8
0
100
AcDbCircle
 10
84.19829
 20
125.606984
 30
0.0
 40
0.1405
  0
CIRCLE
  5
A0A
330
1E
100
AcDbEntity
  8
0
100
AcDbCircle
 10
84.19829
 20
124.981984
 30
0.0
 40
0.1405
  0
CIRCLE
  5
A0B
330
1E
100
AcDbEntity
  8
0
100
AcDbCircle
 10
84.19829
 20
126.106984
 30
0.0
 40
0.1405
  0
CIRCLE
  5
A0C
330
1E
100
AcDbEntity
  8
0
100
AcDbCircle
 10
84.19829
 20
126.731984
 30
0.0
 40
0.1405
  0
CIRCLE
  5
A0D
330
1E
100
AcDbEntity
  8
0
100
AcDbCircle
 10
84.19829
 20
123.856984
 30
0.0
 40
0.1405
  0
CIRCLE
  5
A0E
330
1E
100
AcDbEntity
  8
0
100
AcDbCircle
 10
84.19829
 20
124.356984
 30
0.0
 40
0.1405
  0
CIRCLE
  5
A0F
330
1E
100
AcDbEntity
  8
0
100
AcDbCircle
 10
84.19829
 20
130.856984
 30
0.0
 40
0.1405
  0
CIRCLE
  5
A10
330
1E
100
AcDbEntity
  8
0
100
AcDbCircle
 10
84.19829
 20
130.231984
 30
0.0
 40
0.1405
  0
CIRCLE
  5
A11
330
1E
100
AcDbEntity
  8
0
100
AcDbCircle
 10
84.19829
 20
129.106984
 30
0.0
 40
0.1405
  0
CIRCLE
  5
A12
330
1E
100
AcDbEntity
  8
0
100
AcDbCircle
 10
84.19829
 20
128.481984
 30
0.0
 40
0.1405
  0
CIRCLE
  5
A13
330
1E
100
AcDbEntity
  8
0
100
AcDbCircle
 10
84.19829
 20
129.606984
 30
0.0
 40
0.1405
  0
CIRCLE
  5
A14
330
1E
100
AcDbEntity
  8
0
100
AcDbCircle
 10
84.19829
 20
127.856984
 30
0.0
 40
0.1405
  0
CIRCLE
  5
A15
330
1E
100
AcDbEntity
  8
0
100
AcDbCircle
 10
84.19829
 20
127.356984
 30
0.0
 40
0.1405
  0
CIRCLE
  5
A16
330
1E
100
AcDbEntity
  8
0
100
AcDbCircle
 10
84.19829
 20
132.606984
 30
0.0
 40
0.1405
  0
CIRCLE
  5
A17
330
1E
100
AcDbEntity
  8
0
100
AcDbCircle
 10
84.19829
 20
133.731984
 30
0.0
 40
0.1405
  0
CIRCLE
  5
A18
330
1E
100
AcDbEntity
  8
0
100
AcDbCircle
 10
84.19829
 20
133.106984
 30
0.0
 40
0.1405
  0
CIRCLE
  5
A19
330
1E
100
AcDbEntity
  8
0
100
AcDbCircle
 10
84.19829
 20
134.356984
 30
0.0
 40
0.1405
  0
CIRCLE
  5
A1A
330
1E
100
AcDbEntity
  8
0
100
AcDbCircle
 10
84.19829
 20
131.356984
 30
0.0
 40
0.1405
  0
CIRCLE
  5
A1B
330
1E
100
AcDbEntity
  8
0
100
AcDbCircle
 10
84.19829
 20
131.981984
 30
0.0
 40
0.1405
  0
CIRCLE
  5
A1C
330
1E
100
AcDbEntity
  8
0
100
AcDbCircle
 10
84.19829
 20
142.481984
 30
0.0
 40
0.1405
  0
CIRCLE
  5
A1D
330
1E
100
AcDbEntity
  8
0
100
AcDbCircle
 10
84.19829
 20
137.856984
 30
0.0
 40
0.1405
  0
CIRCLE
  5
A1E
330
1E
100
AcDbEntity
  8
0
100
AcDbCircle
 10
84.19829
 20
136.106984
 30
0.0
 40
0.1405
  0
CIRCLE
  5
A1F
330
1E
100
AcDbEntity
  8
0
100
AcDbCircle
 10
84.19829
 20
137.231984
 30
0.0
 40
0.1405
  0
CIRCLE
  5
A20
330
1E
100
AcDbEntity
  8
0
100
AcDbCircle
 10
84.19829
 20
136.606984
 30
0.0
 40
0.1405
  0
CIRCLE
  5
A21
330
1E
100
AcDbEntity
  8
0
100
AcDbCircle
 10
84.19829
 20
138.356984
 30
0.0
 40
0.1405
  0
CIRCLE
  5
A22
330
1E
100
AcDbEntity
  8
0
100
AcDbCircle
 10
84.19829
 20
135.481984
 30
0.0
 40
0.1405
  0
CIRCLE
  5
A23
330
1E
100
AcDbEntity
  8
0
100
AcDbCircle
 10
84.19829
 20
139.606984
 30
0.0
 40
0.1405
  0
CIRCLE
  5
A24
330
1E
100
AcDbEntity
  8
0
100
AcDbCircle
 10
84.19829
 20
141.356984
 30
0.0
 40
0.1405
  0
CIRCLE
  5
A25
330
1E
100
AcDbEntity
  8
0
100
AcDbCircle
 10
84.19829
 20
140.731984
 30
0.0
 40
0.1405
  0
CIRCLE
  5
A26
330
1E
100
AcDbEntity
  8
0
100
AcDbCircle
 10
84.19829
 20
140.106984
 30
0.0
 40
0.1405
  0
CIRCLE
  5
A27
330
1E
100
AcDbEntity
  8
0
100
AcDbCircle
 10
84.19829
 20
141.856984
 30
0.0
 40
0.1405
  0
CIRCLE
  5
A28
330
1E
100
AcDbEntity
  8
0
100
AcDbCircle
 10
84.19829
 20
138.981984
 30
0.0
 40
0.1405
  0
CIRCLE
  5
A29
330
1E
100
AcDbEntity
  8
0
100
AcDbCircle
 10
84.19829
 20
145.356984
 30
0.0
 40
0.1405
  0
CIRCLE
  5
A2A
330
1E
100
AcDbEntity
  8
0
100
AcDbCircle
 10
84.19829
 20
144.856984
 30
0.0
 40
0.1405
  0
CIRCLE
  5
A2B
330
1E
100
AcDbEntity
  8
0
100
AcDbCircle
 10
84.19829
 20
144.231984
 30
0.0
 40
0.1405
  0
CIRCLE
  5
A2C
330
1E
100
AcDbEntity
  8
0
100
AcDbCircle
 10
84.19829
 20
143.606984
 30
0.0
 40
0.1405
  0
CIRCLE
  5
A2D
330
1E
100
AcDbEntity
  8
0
100
AcDbCircle
 10
84.19829
 20
145.981984
 30
0.0
 40
0.1405
  0
CIRCLE
  5
A2E
330
1E
100
AcDbEntity
  8
0
100
AcDbCircle
 10
84.19829
 20
143.106984
 30
0.0
 40
0.1405
  0
CIRCLE
  5
A2F
330
1E
100
AcDbEntity
  8
0
100
AcDbCircle
 10
84.19829
 20
148.856984
 30
0.0
 40
0.1405
  0
CIRCLE
  5
A30
330
1E
100
AcDbEntity
  8
0
100
AcDbCircle
 10
84.19829
 20
148.356984
 30
0.0
 40
0.1405
  0
CIRCLE
  5
A31
330
1E
100
AcDbEntity
  8
0
100
AcDbCircle
 10
84.19829
 20
147.731984
 30
0.0
 40
0.1405
  0
CIRCLE
  5
A32
330
1E
100
AcDbEntity
  8
0
100
AcDbCircle
 10
84.19829
 20
149.481984
 30
0.0
 40
0.1405
  0
CIRCLE
  5
A33
330
1E
100
AcDbEntity
  8
0
100
AcDbCircle
 10
84.19829
 20
146.606984
 30
0.0
 40
0.1405
  0
CIRCLE
  5
A34
330
1E
100
AcDbEntity
  8
0
100
AcDbCircle
 10
84.19829
 20
147.106984
 30
0.0
 40
0.1405
  0
LWPOLYLINE
  5
A35
330
1E
100
AcDbEntity
  8
0
100
AcDbPolyline
 90
        4
 70
     1
 43
0.0
 10
84.96278999999999
 20
138.415984
 10
85.58778999999999
 20
138.415984
 42
1.0
 10
85.58778999999999
 20
138.665984
 10
84.96278999999999
 20
138.665984
 42
1.0
  0
LWPOLYLINE
  5
A3B
330
1E
100
AcDbEntity
  8
0
100
AcDbPolyline
 90
        4
 70
     1
 43
0.0
 10
85.58778999999999
 20
135.915984
 10
84.96278999999999
 20
135.915984
 42
1.0
 10
84.96278999999999
 20
135.665984
 10
85.58778999999999
 20
135.665984
 42
1.0
  0
LWPOLYLINE
  5
A41
330
1E
100
AcDbEntity
  8
0
100
AcDbPolyline
 90
        4
 70
     1
 43
0.0
 10
85.58778999999999
 20
126.949984
 10
84.96278999999999
 20
126.949984
 42
1.0
 10
84.96278999999999
 20
126.699984
 10
85.58778999999999
 20
126.699984
 42
1.0
  0
LWPOLYLINE
  5
A47
330
1E
100
AcDbEntity
  8
0
100
AcDbPolyline
 90
        4
 70
     1
 43
0.0
 10
85.58778999999999
 20
125.574984
 10
84.96278999999999
 20
125.574984
 42
1.0
 10
84.96278999999999
 20
125.324984
 10
85.58778999999999
 20
125.324984
 42
1.0
  0
LWPOLYLINE
  5
A4D
330
1E
100
AcDbEntity
  8
0
100
AcDbPolyline
 90
        4
 70
     1
 43
0.0
 10
85.58778999999999
 20
124.199984
 10
84.96278999999999
 20
124.199984
 42
1.0
 10
84.96278999999999
 20
123.949984
 10
85.58778999999999
 20
123.949984
 42
1.0
  0
LWPOLYLINE
  5
A53
330
1E
100
AcDbEntity
  8
0
100
AcDbPolyline
 90
        4
 70
     1
 43
0.0
 10
85.58778999999999
 20
122.824984
 10
84.96278999999999
 20
122.824984
 42
1.0
 10
84.96278999999999
 20
122.574984
 10
85.58778999999999
 20
122.574984
 42
1.0
  0
DIMENSION
  5
A59
330
1E
100
AcDbEntity
  8
0
100
AcDbDimension
  2
*D30
 10
89.33754
 20
192.4720419999999
 30
0.0
 11
76.58754
 21
192.4720419999999
 31
0.0
 70
    32
  1
C
 71
     5
 42
25.5
  3
23NSTD
100
AcDbAlignedDimension
 13
63.83754
 23
186.263984
 33
0.0
 14
89.33754
 24
186.263984
 34
0.0
100
AcDbRotatedDimension
  0
LINE
  5
A67
330
1E
100
AcDbEntity
  8
0
100
AcDbLine
 10
87.30653999999999
 20
154.732984
 30
0.0
 11
81.76035
 21
154.732984
 31
0.0
  0
LINE
  5
A68
330
1E
100
AcDbEntity
  8
0
100
AcDbLine
 10
87.30653999999999
 20
151.232984
 30
0.0
 11
82.83611500000001
 21
151.232984
 31
0.0
  0
LINE
  5
A69
330
1E
100
AcDbEntity
  8
0
100
AcDbLine
 10
87.30653999999999
 20
178.763984
 30
0.0
 11
70.50524899999999
 21
178.763984
 31
0.0
  0
LINE
  5
A6A
330
1E
100
AcDbEntity
  8
0
100
AcDbLine
 10
87.30653999999999
 20
182.263984
 30
0.0
 11
65.86853999999999
 21
182.263984
 31
0.0
  0
LINE
  5
A6B
330
1E
100
AcDbEntity
  8
0
100
AcDbLine
 10
87.30653999999999
 20
183.638984
 30
0.0
 11
87.30653999999999
 21
149.01053
 31
0.0
  0
LINE
  5
A6C
330
1E
100
AcDbEntity
  8
0
100
AcDbLine
 10
86.02629
 20
183.608984
 30
0.0
 11
86.02629
 21
182.263984
 31
0.0
  0
LINE
  5
A6D
330
1E
100
AcDbEntity
  8
0
100
AcDbLine
 10
84.52628999999999
 20
150.5629749999999
 30
0.0
 11
84.52628999999999
 21
151.232984
 31
0.0
  0
LINE
  5
A6E
330
1E
100
AcDbEntity
  8
0
100
AcDbLine
 10
83.94828999999999
 20
150.656687
 30
0.0
 11
83.94828999999999
 21
151.232984
 31
0.0
  0
LINE
  5
A6F
330
1E
100
AcDbEntity
  8
0
100
AcDbLine
 10
86.02629
 20
151.232984
 30
0.0
 11
86.02629
 21
150.058332
 31
0.0
  0
LINE
  5
A70
330
1E
100
AcDbEntity
  8
0
100
AcDbLine
 10
83.94828999999999
 20
154.732984
 30
0.0
 11
83.94828999999999
 21
178.763984
 31
0.0
  0
LINE
  5
A71
330
1E
100
AcDbEntity
  8
0
100
AcDbLine
 10
84.52628999999999
 20
154.732984
 30
0.0
 11
84.52628999999999
 21
178.763984
 31
0.0
  0
LINE
  5
A72
330
1E
100
AcDbEntity
  8
0
100
AcDbLine
 10
86.02629
 20
178.763984
 30
0.0
 11
86.02629
 21
154.732984
 31
0.0
  0
LINE
  5
A73
330
1E
100
AcDbEntity
  8
0
100
AcDbLine
 10
84.52628999999999
 20
182.263984
 30
0.0
 11
84.52628999999999
 21
183.608984
 31
0.0
  0
LINE
  5
A74
330
1E
100
AcDbEntity
  8
0
100
AcDbLine
 10
83.94828999999999
 20
182.263984
 30
0.0
 11
83.94828999999999
 21
183.608984
 31
0.0
  0
LINE
  5
A75
330
1E
100
AcDbEntity
  8
0
100
AcDbLine
 10
83.94828999999999
 20
183.608984
 30
0.0
 11
86.02629
 21
183.608984
 31
0.0
  0
LWPOLYLINE
  5
A76
330
1E
100
AcDbEntity
  8
0
100
AcDbPolyline
 90
        9
 70
     0
 43
0.0
 10
63.83754
 20
181.348451
 10
65.383962
 20
182.066288
 10
66.810135
 20
182.3134169999999
 10
67.872794
 20
182.070584
 10
68.664877
 20
181.474599
 10
69.279319
 20
180.6622679999999
 10
69.809057
 20
179.7704009999999
 10
70.34702800000001
 20
178.935806
 10
70.50524899999999
 20
178.763984
  0
LWPOLYLINE
  5
A81
330
1E
100
AcDbEntity
  8
0
100
AcDbPolyline
 90
        8
 70
     0
 43
0.0
 10
81.76035
 20
154.732984
 10
81.892826
 20
154.3942729999999
 10
82.085938
 20
153.7261889999999
 10
82.24029200000002
 20
153.069359
 10
82.37963200000001
 20
152.44956
 10
82.52770500000002
 20
151.89257
 10
82.708256
 20
151.4241659999999
 10
82.83611500000001
 20
151.232984
  0
LWPOLYLINE
  5
A8B
330
1E
100
AcDbEntity
  8
0
100
AcDbPolyline
 90
        6
 70
     0
 43
0.0
 10
83.94828999999999
 20
150.656687
 10
84.085534
 20
150.631533
 10
84.586474
 20
150.5536129999999
 10
85.133811
 20
150.434117
 10
85.71915200000001
 20
150.227614
 10
86.02629
 20
150.058332
  0
LWPOLYLINE
  5
A93
330
1E
100
AcDbEntity
  8
0
100
AcDbPolyline
 90
        4
 70
     0
 43
0.0
 10
87.30653999999999
 20
149.01053
 10
87.63656899999999
 20
148.655887
 10
88.411065
 20
147.815865
 10
89.33754
 20
146.996692
  0
LINE
  5
A99
330
1E
100
AcDbEntity
  8
0
100
AcDbLine
 10
86.52554
 20
153.982984
 30
0.0
 11
86.52554
 21
151.982984
 31
0.0
  0
LINE
  5
A9A
330
1E
100
AcDbEntity
  8
0
100
AcDbLine
 10
87.14954
 20
153.982984
 30
0.0
 11
87.14954
 21
151.982984
 31
0.0
  0
LINE
  5
A9B
330
1E
100
AcDbEntity
  8
0
100
AcDbLine
 10
86.52554
 20
152.607984
 30
0.0
 11
87.14954
 21
152.607984
 31
0.0
  0
LINE
  5
A9C
330
1E
100
AcDbEntity
  8
0
100
AcDbLine
 10
86.52554
 20
153.357984
 30
0.0
 11
87.14954
 21
153.357984
 31
0.0
  0
LWPOLYLINE
  5
A9D
330
1E
100
AcDbEntity
  8
0
100
AcDbPolyline
 90
        4
 70
     1
 43
0.0
 10
87.55679
 20
152.857984
 10
87.49379000000001
 20
152.857984
 42
-1.0
 10
87.49379000000001
 20
153.107984
 10
87.55679
 20
153.107984
 42
-1.0
  0
CIRCLE
  5
AA3
330
1E
100
AcDbEntity
  8
0
100
AcDbCircle
 10
86.83754
 20
152.982984
 30
0.0
 40
0.1405
  0
LINE
  5
AA4
330
1E
100
AcDbEntity
  8
0
100
AcDbLine
 10
65.86853999999999
 20
178.763984
 30
0.0
 11
65.86853999999999
 21
154.732984
 31
0.0
  0
INSERT
  5
AA5
330
1E
100
AcDbEntity
  8
0
100
AcDbBlockReference
  2
CUTOUT
 10
76.58754
 20
180.513984
 30
0.0
  0
INSERT
  5
AA6
330
1E
100
AcDbEntity
  8
0
100
AcDbBlockReference
  2
CUTOUT
 10
80.08754000000001
 20
180.513984
 30
0.0
  0
INSERT
  5
AA7
330
1E
100
AcDbEntity
  8
0
100
AcDbBlockReference
  2
CUTOUT
 10
78.33754
 20
180.513984
 30
0.0
  0
LINE
  5
AA8
330
1E
100
AcDbEntity
  8
0
100
AcDbLine
 10
86.52554
 20
181.513984
 30
0.0
 11
86.52554
 21
179.513984
 31
0.0
  0
LINE
  5
AA9
330
1E
100
AcDbEntity
  8
0
100
AcDbLine
 10
87.14954
 20
181.513984
 30
0.0
 11
87.14954
 21
179.513984
 31
0.0
  0
LINE
  5
AAA
330
1E
100
AcDbEntity
  8
0
100
AcDbLine
 10
86.52554
 20
180.888984
 30
0.0
 11
87.14954
 21
180.888984
 31
0.0
  0
LINE
  5
AAB
330
1E
100
AcDbEntity
  8
0
100
AcDbLine
 10
86.52554
 20
180.138984
 30
0.0
 11
87.14954
 21
180.138984
 31
0.0
  0
LWPOLYLINE
  5
AAC
330
1E
100
AcDbEntity
  8
0
100
AcDbPolyline
 90
        4
 70
     1
 43
0.0
 10
87.55679
 20
180.388984
 10
87.49379000000001
 20
180.388984
 42
-1.0
 10
87.49379000000001
 20
180.638984
 10
87.55679
 20
180.638984
 42
-1.0
  0
CIRCLE
  5
AB2
330
1E
100
AcDbEntity
  8
0
100
AcDbCircle
 10
86.83754
 20
180.513984
 30
0.0
 40
0.1405
  0
CIRCLE
  5
AB3
330
1E
100
AcDbEntity
  8
0
100
AcDbCircle
 10
84.19829
 20
165.233984
 30
0.0
 40
0.1405
  0
CIRCLE
  5
AB4
330
1E
100
AcDbEntity
  8
0
100
AcDbCircle
 10
84.19829
 20
157.608984
 30
0.0
 40
0.1405
  0
ARC
  5
AB5
330
1E
100
AcDbEntity
  8
0
100
AcDbCircle
 10
84.19829
 20
151.233984
 30
0.0
 40
0.1405
100
AcDbArc
 50
180.407803
 51
359.592197
  0
CIRCLE
  5
AB6
330
1E
100
AcDbEntity
  8
0
100
AcDbCircle
 10
84.19829
 20
150.608984
 30
0.0
 40
0.1405
  0
CIRCLE
  5
AB7
330
1E
100
AcDbEntity
  8
0
100
AcDbCircle
 10
84.19829
 20
155.858984
 30
0.0
 40
0.1405
  0
CIRCLE
  5
AB8
330
1E
100
AcDbEntity
  8
0
100
AcDbCircle
 10
84.19829
 20
155.358984
 30
0.0
 40
0.1405
  0
CIRCLE
  5
AB9
330
1E
100
AcDbEntity
  8
0
100
AcDbCircle
 10
84.19829
 20
156.483984
 30
0.0
 40
0.1405
  0
CIRCLE
  5
ABA
330
1E
100
AcDbEntity
  8
0
100
AcDbCircle
 10
84.19829
 20
157.108984
 30
0.0
 40
0.1405
  0
ARC
  5
ABB
330
1E
100
AcDbEntity
  8
0
100
AcDbCircle
 10
84.19829
 20
154.733984
 30
0.0
 40
0.1405
100
AcDbArc
 50
359.592197
 51
180.407803
  0
CIRCLE
  5
ABC
330
1E
100
AcDbEntity
  8
0
100
AcDbCircle
 10
84.19829
 20
158.858984
 30
0.0
 40
0.1405
  0
CIRCLE
  5
ABD
330
1E
100
AcDbEntity
  8
0
100
AcDbCircle
 10
84.19829
 20
159.358984
 30
0.0
 40
0.1405
  0
CIRCLE
  5
ABE
330
1E
100
AcDbEntity
  8
0
100
AcDbCircle
 10
84.19829
 20
160.608984
 30
0.0
 40
0.1405
  0
CIRCLE
  5
ABF
330
1E
100
AcDbEntity
  8
0
100
AcDbCircle
 10
84.19829
 20
159.983984
 30
0.0
 40
0.1405
  0
CIRCLE
  5
AC0
330
1E
100
AcDbEntity
  8
0
100
AcDbCircle
 10
84.19829
 20
161.108984
 30
0.0
 40
0.1405
  0
CIRCLE
  5
AC1
330
1E
100
AcDbEntity
  8
0
100
AcDbCircle
 10
84.19829
 20
158.233984
 30
0.0
 40
0.1405
  0
CIRCLE
  5
AC2
330
1E
100
AcDbEntity
  8
0
100
AcDbCircle
 10
84.19829
 20
163.483984
 30
0.0
 40
0.1405
  0
CIRCLE
  5
AC3
330
1E
100
AcDbEntity
  8
0
100
AcDbCircle
 10
84.19829
 20
162.858984
 30
0.0
 40
0.1405
  0
CIRCLE
  5
AC4
330
1E
100
AcDbEntity
  8
0
100
AcDbCircle
 10
84.19829
 20
164.108984
 30
0.0
 40
0.1405
  0
CIRCLE
  5
AC5
330
1E
100
AcDbEntity
  8
0
100
AcDbCircle
 10
84.19829
 20
164.608984
 30
0.0
 40
0.1405
  0
CIRCLE
  5
AC6
330
1E
100
AcDbEntity
  8
0
100
AcDbCircle
 10
84.19829
 20
161.733984
 30
0.0
 40
0.1405
  0
CIRCLE
  5
AC7
330
1E
100
AcDbEntity
  8
0
100
AcDbCircle
 10
84.19829
 20
162.358984
 30
0.0
 40
0.1405
  0
CIRCLE
  5
AC8
330
1E
100
AcDbEntity
  8
0
100
AcDbCircle
 10
84.19829
 20
172.858984
 30
0.0
 40
0.1405
  0
CIRCLE
  5
AC9
330
1E
100
AcDbEntity
  8
0
100
AcDbCircle
 10
84.19829
 20
166.983984
 30
0.0
 40
0.1405
  0
CIRCLE
  5
ACA
330
1E
100
AcDbEntity
  8
0
100
AcDbCircle
 10
84.19829
 20
166.358984
 30
0.0
 40
0.1405
  0
CIRCLE
  5
ACB
330
1E
100
AcDbEntity
  8
0
100
AcDbCircle
 10
84.19829
 20
168.108984
 30
0.0
 40
0.1405
  0
CIRCLE
  5
ACC
330
1E
100
AcDbEntity
  8
0
100
AcDbCircle
 10
84.19829
 20
167.608984
 30
0.0
 40
0.1405
  0
CIRCLE
  5
ACD
330
1E
100
AcDbEntity
  8
0
100
AcDbCircle
 10
84.19829
 20
168.733984
 30
0.0
 40
0.1405
  0
CIRCLE
  5
ACE
330
1E
100
AcDbEntity
  8
0
100
AcDbCircle
 10
84.19829
 20
165.858984
 30
0.0
 40
0.1405
  0
CIRCLE
  5
ACF
330
1E
100
AcDbEntity
  8
0
100
AcDbCircle
 10
84.19829
 20
171.108984
 30
0.0
 40
0.1405
  0
CIRCLE
  5
AD0
330
1E
100
AcDbEntity
  8
0
100
AcDbCircle
 10
84.19829
 20
170.483984
 30
0.0
 40
0.1405
  0
CIRCLE
  5
AD1
330
1E
100
AcDbEntity
  8
0
100
AcDbCircle
 10
84.19829
 20
171.608984
 30
0.0
 40
0.1405
  0
CIRCLE
  5
AD2
330
1E
100
AcDbEntity
  8
0
100
AcDbCircle
 10
84.19829
 20
172.233984
 30
0.0
 40
0.1405
  0
CIRCLE
  5
AD3
330
1E
100
AcDbEntity
  8
0
100
AcDbCircle
 10
84.19829
 20
169.358984
 30
0.0
 40
0.1405
  0
CIRCLE
  5
AD4
330
1E
100
AcDbEntity
  8
0
100
AcDbCircle
 10
84.19829
 20
169.858984
 30
0.0
 40
0.1405
  0
CIRCLE
  5
AD5
330
1E
100
AcDbEntity
  8
0
100
AcDbCircle
 10
84.19829
 20
174.608984
 30
0.0
 40
0.1405
  0
CIRCLE
  5
AD6
330
1E
100
AcDbEntity
  8
0
100
AcDbCircle
 10
84.19829
 20
173.983984
 30
0.0
 40
0.1405
  0
CIRCLE
  5
AD7
330
1E
100
AcDbEntity
  8
0
100
AcDbCircle
 10
84.19829
 20
175.733984
 30
0.0
 40
0.1405
  0
CIRCLE
  5
AD8
330
1E
100
AcDbEntity
  8
0
100
AcDbCircle
 10
84.19829
 20
175.108984
 30
0.0
 40
0.1405
  0
CIRCLE
  5
AD9
330
1E
100
AcDbEntity
  8
0
100
AcDbCircle
 10
84.19829
 20
176.358984
 30
0.0
 40
0.1405
  0
CIRCLE
  5
ADA
330
1E
100
AcDbEntity
  8
0
100
AcDbCircle
 10
84.19829
 20
173.358984
 30
0.0
 40
0.1405
  0
CIRCLE
  5
ADB
330
1E
100
AcDbEntity
  8
0
100
AcDbCircle
 10
84.19829
 20
178.608984
 30
0.0
 40
0.1405
  0
CIRCLE
  5
ADC
330
1E
100
AcDbEntity
  8
0
100
AcDbCircle
 10
84.19829
 20
178.108984
 30
0.0
 40
0.1405
  0
CIRCLE
  5
ADD
330
1E
100
AcDbEntity
  8
0
100
AcDbCircle
 10
84.19829
 20
176.858984
 30
0.0
 40
0.1405
  0
CIRCLE
  5
ADE
330
1E
100
AcDbEntity
  8
0
100
AcDbCircle
 10
84.19829
 20
177.483984
 30
0.0
 40
0.1405
  0
CIRCLE
  5
ADF
330
1E
100
AcDbEntity
  8
0
100
AcDbCircle
 10
84.19829
 20
183.358984
 30
0.0
 40
0.1405
  0
CIRCLE
  5
AE0
330
1E
100
AcDbEntity
  8
0
100
AcDbCircle
 10
84.19829
 20
182.733984
 30
0.0
 40
0.1405
  0
LWPOLYLINE
  5
AE1
330
1E
100
AcDbEntity
  8
0
100
AcDbPolyline
 90
        4
 70
     1
 43
0.0
 10
85.58778999999999
 20
183.390984
 10
84.96278999999999
 20
183.390984
 42
1.0
 10
84.96278999999999
 20
183.140984
 10
85.58778999999999
 20
183.140984
 42
1.0
  0
LWPOLYLINE
  5
AE7
330
1E
100
AcDbEntity
  8
0
100
AcDbPolyline
 90
        4
 70
     1
 43
0.0
 10
85.58778999999999
 20
170.297984
 10
84.96278999999999
 20
170.297984
 42
1.0
 10
84.96278999999999
 20
170.047984
 10
85.58778999999999
 20
170.047984
 42
1.0
  0
LWPOLYLINE
  5
AED
330
1E
100
AcDbEntity
  8
0
100
AcDbPolyline
 90
        4
 70
     1
 43
0.0
 10
85.58778999999999
 20
167.547984
 10
84.96278999999999
 20
167.547984
 42
1.0
 10
84.96278999999999
 20
167.297984
 10
85.58778999999999
 20
167.297984
 42
1.0
  0
LWPOLYLINE
  5
AF3
330
1E
100
AcDbEntity
  8
0
100
AcDbPolyline
 90
        5
 70
     0
 43
0.0
 10
116.149131
 20
85.46798299999998
 10
125.710131
 20
85.46798299999998
 10
125.710131
 20
95.028983
 10
116.149131
 20
95.028983
 10
116.149131
 20
85.46798299999998
  0
TEXT
  5
AFA
330
1E
100
AcDbEntity
  8
0
100
AcDbText
 10
80.3655125
 20
78.234832
 30
0.0
 40
1.875002999999999
  1
SQUARE CUTOUT
 41
0.75
  7
TXT
 72
     2
 11
98.17804100000001
 21
78.234832
 31
0.0
100
AcDbText
  0
TEXT
  5
AFB
330
1E
100
AcDbEntity
  8
0
100
AcDbText
 10
8.145578
 20
204.2850099999999
 30
0.0
 40
1.674
  1
LOAD RATING:  1200 LBS. MAX.
 41
0.75
100
AcDbText
  0
TEXT
  5
AFC
330
1E
100
AcDbEntity
  8
0
100
AcDbText
 10
5.343702999999999
 20
204.28501
 30
0.0
 40
1.674
  1
3
 41
0.75
 72
     4
 11
5.762202999999999
 21
205.12201
 31
0.0
100
AcDbText
  0
LWPOLYLINE
  5
AFD
330
1E
100
AcDbEntity
  8
0
100
AcDbPolyline
 90
        6
 70
     1
 43
0.0
 10
4.989016
 20
206.46121
 10
4.215828
 20
205.12201
 10
4.989016
 20
203.78281
 10
6.535391
 20
203.78281
 10
7.308577999999999
 20
205.12201
 10
6.535391
 20
206.46121
  0
TEXT
  5
B90
330
1E
100
AcDbEntity
  8
0
100
AcDbText
 10
139.0055217297707
 20
227.265
 30
0.0
 40
2.343214
  1
1-27-11
 41
0.75
  7
TXT
 72
     1
 11
143.9848514797707
 21
227.265
 31
0.0
100
AcDbText
  0
ENDSEC
  0
SECTION
  2
OBJECTS
  0
DICTIONARY
  5
C
330
0
100
AcDbDictionary
281
     1
  3
ACAD_GROUP
350
D
  3
ACAD_LAYOUT
350
19
  3
ACAD_MLINESTYLE
350
16
  3
ACAD_PLOTSETTINGS
350
18
  3
ACAD_PLOTSTYLENAME
350
E
  0
DICTIONARY
  5
D
102
{ACAD_REACTORS
330
C
102
}
330
C
100
AcDbDictionary
281
     1
  0
DICTIONARY
  5
19
102
{ACAD_REACTORS
330
C
102
}
330
C
100
AcDbDictionary
281
     1
  3
Layout1
350
1D
  3
Model
350
21
  0
DICTIONARY
  5
16
102
{ACAD_REACTORS
330
C
102
}
330
C
100
AcDbDictionary
281
     1
  3
Standard
350
17
  0
DICTIONARY
  5
18
102
{ACAD_REACTORS
330
C
102
}
330
C
100
AcDbDictionary
281
     1
  0
ACDBDICTIONARYWDFLT
  5
E
102
{ACAD_REACTORS
330
C
102
}
330
C
100
AcDbDictionary
281
     1
  3
Normal
350
F
100
AcDbDictionaryWithDefault
340
F
  0
LAYOUT
  5
1D
102
{ACAD_REACTORS
330
19
102
}
330
19
100
AcDbPlotSettings
  1

  2
None
  4

  6

 40
0.0
 41
0.0
 42
0.0
 43
0.0
 44
0.0
 45
0.0
 46
0.0
 47
0.0
 48
0.0
 49
0.0
140
0.0
141
0.0
142
1.0
143
1.0
 70
   688
 72
     0
 73
     0
 74
     5
  7
monochrome.ctb
 75
    16
147
1.0
148
0.0
149
0.0
100
AcDbLayout
  1
Layout1
 70
     0
 71
     1
 10
0.0
 20
0.0
 11
12.0
 21
9.0
 12
0.0
 22
0.0
 32
0.0
 14
1.000000000000000E+20
 24
1.000000000000000E+20
 34
1.000000000000000E+20
 15
-1.000000000000000E+20
 25
-1.000000000000000E+20
 35
-1.000000000000000E+20
146
0.0
 13
0.0
 23
0.0
 33
0.0
 16
1.0
 26
0.0
 36
0.0
 17
0.0
 27
1.0
 37
0.0
 76
     0
330
1A
  0
LAYOUT
  5
21
102
{ACAD_REACTORS
330
19
102
}
330
19
100
AcDbPlotSettings
  1

  2
RICOH Aficio 1060 PCL 5e.pc3
  4
Letter
  6

 40
7.143749713897705
 41
5.027085304260253
 42
7.14373779296875
 43
5.027069091796875
 44
215.8999938964843
 45
279.3999938964843
 46
12.95399999999999
 47
0.0
 48
0.0
 49
0.0
140
0.0
141
0.0
142
1.0
143
21.92735225573839
 70
 11956
 72
     0
 73
     0
 74
     1
  7
monochrome.ctb
 75
     0
147
0.0456051413931338
148
0.3750380713132244
149
0.1803371406397446
100
AcDbLayout
  1
Model
 70
     1
 71
     0
 10
0.0
 20
0.0
 11
12.0
 21
9.0
 12
0.0
 22
0.0
 32
0.0
 14
0.0
 24
0.0
 34
0.0
 15
0.0
 25
0.0
 35
0.0
146
0.0
 13
0.0
 23
0.0
 33
0.0
 16
1.0
 26
0.0
 36
0.0
 17
0.0
 27
1.0
 37
0.0
 76
     0
330
1E
  0
MLINESTYLE
  5
17
102
{ACAD_REACTORS
330
16
102
}
330
16
100
AcDbMlineStyle
  2
STANDARD
 70
     0
  3

 62
   256
 51
90.0
 52
90.0
 71
     2
 49
0.5
 62
   256
  6
BYLAYER
 49
-0.5
 62
   256
  6
BYLAYER
  0
ACDBPLACEHOLDER
  5
F
102
{ACAD_REACTORS
330
E
102
}
330
E
  0
ENDSEC
  0
EOF
