  0
SECTION
  2
HEADER
  9
$ACADVER
  1
AC1015
  9
$ACADMAINTVER
 70
     6
  9
$DWGCODEPAGE
  3
ANSI_1252
  9
$INSBASE
 10
0.0
 20
0.0
 30
0.0
  9
$EXTMIN
 10
0.0
 20
0.0
 30
0.0
  9
$EXTMAX
 10
16.6
 20
9.659999999999996
 30
0.0
  9
$LIMMIN
 10
0.0
 20
0.0
  9
$LIMMAX
 10
12.0
 20
9.0
  9
$ORTHOMODE
 70
     0
  9
$REGENMODE
 70
     1
  9
$FILLMODE
 70
     1
  9
$QTEXTMODE
 70
     0
  9
$MIRRTEXT
 70
     1
  9
$LTSCALE
 40
0.375
  9
$ATTMODE
 70
     1
  9
$TEXTSIZE
 40
0.125
  9
$TRACEWID
 40
0.05
  9
$TEXTSTYLE
  7
TXT
  9
$CLAYER
  8
TEXT
  9
$CELTYPE
  6
ByLayer
  9
$CECOLOR
 62
   256
  9
$CELTSCALE
 40
1.0
  9
$DISPSILH
 70
     0
  9
$DIMSCALE
 40
1.0
  9
$DIMASZ
 40
0.18
  9
$DIMEXO
 40
0.063
  9
$DIMDLI
 40
0.281
  9
$DIMRND
 40
0.0
  9
$DIMDLE
 40
0.0
  9
$DIMEXE
 40
0.093
  9
$DIMTP
 40
0.0
  9
$DIMTM
 40
0.0
  9
$DIMTXT
 40
0.125
  9
$DIMCEN
 40
0.09
  9
$DIMTSZ
 40
0.0
  9
$DIMTOL
 70
     0
  9
$DIMLIM
 70
     0
  9
$DIMTIH
 70
     1
  9
$DIMTOH
 70
     1
  9
$DIMSE1
 70
     0
  9
$DIMSE2
 70
     0
  9
$DIMTAD
 70
     0
  9
$DIMZIN
 70
     0
  9
$DIMBLK
  1

  9
$DIMASO
 70
     1
  9
$DIMSHO
 70
     1
  9
$DIMPOST
  1

  9
$DIMAPOST
  1

  9
$DIMALT
 70
     0
  9
$DIMALTD
 70
     2
  9
$DIMALTF
 40
25.4
  9
$DIMLFAC
 40
1.0
  9
$DIMTOFL
 70
     0
  9
$DIMTVP
 40
0.0
  9
$DIMTIX
 70
     0
  9
$DIMSOXD
 70
     0
  9
$DIMSAH
 70
     0
  9
$DIMBLK1
  1

  9
$DIMBLK2
  1

  9
$DIMSTYLE
  2
23NSTD
  9
$DIMCLRD
 70
     0
  9
$DIMCLRE
 70
     0
  9
$DIMCLRT
 70
     0
  9
$DIMTFAC
 40
1.0
  9
$DIMGAP
 40
0.09
  9
$DIMJUST
 70
     0
  9
$DIMSD1
 70
     0
  9
$DIMSD2
 70
     0
  9
$DIMTOLJ
 70
     1
  9
$DIMTZIN
 70
     0
  9
$DIMALTZ
 70
     0
  9
$DIMALTTZ
 70
     0
  9
$DIMUPT
 70
     0
  9
$DIMDEC
 70
     3
  9
$DIMTDEC
 70
     3
  9
$DIMALTU
 70
     2
  9
$DIMALTTD
 70
     2
  9
$DIMTXSTY
  7
TXT
  9
$DIMAUNIT
 70
     0
  9
$DIMADEC
 70
     0
  9
$DIMALTRND
 40
0.0
  9
$DIMAZIN
 70
     0
  9
$DIMDSEP
 70
    46
  9
$DIMATFIT
 70
     1
  9
$DIMFRAC
 70
     0
  9
$DIMLDRBLK
  1

  9
$DIMLUNIT
 70
     2
  9
$DIMLWD
 70
    -2
  9
$DIMLWE
 70
    -2
  9
$DIMTMOVE
 70
     0
  9
$LUNITS
 70
     2
  9
$LUPREC
 70
     3
  9
$SKETCHINC
 40
0.1
  9
$FILLETRAD
 40
0.5
  9
$AUNITS
 70
     0
  9
$AUPREC
 70
     0
  9
$MENU
  1
.
  9
$ELEVATION
 40
0.0
  9
$PELEVATION
 40
0.0
  9
$THICKNESS
 40
0.0
  9
$LIMCHECK
 70
     0
  9
$CHAMFERA
 40
0.5
  9
$CHAMFERB
 40
0.5
  9
$CHAMFERC
 40
1.0
  9
$CHAMFERD
 40
0.0
  9
$SKPOLY
 70
     0
  9
$TDCREATE
 40
2452718.642103044
  9
$TDUCREATE
 40
2452718.808769711
  9
$TDUPDATE
 40
2452901.309624560
  9
$TDUUPDATE
 40
2452901.476291227
  9
$TDINDWG
 40
0.1325334722
  9
$TDUSRTIMER
 40
0.1325334722
  9
$USRTIMER
 70
     1
  9
$ANGBASE
 50
0.0
  9
$ANGDIR
 70
     0
  9
$PDMODE
 70
     0
  9
$PDSIZE
 40
0.0
  9
$PLINEWID
 40
0.0
  9
$SPLFRAME
 70
     0
  9
$SPLINETYPE
 70
     6
  9
$SPLINESEGS
 70
     8
  9
$HANDSEED
  5
31CF
  9
$SURFTAB1
 70
     6
  9
$SURFTAB2
 70
     6
  9
$SURFTYPE
 70
     6
  9
$SURFU
 70
     6
  9
$SURFV
 70
     6
  9
$UCSBASE
  2

  9
$UCSNAME
  2

  9
$UCSORG
 10
0.0
 20
0.0
 30
0.0
  9
$UCSXDIR
 10
1.0
 20
0.0
 30
0.0
  9
$UCSYDIR
 10
0.0
 20
1.0
 30
0.0
  9
$UCSORTHOREF
  2

  9
$UCSORTHOVIEW
 70
     0
  9
$UCSORGTOP
 10
0.0
 20
0.0
 30
0.0
  9
$UCSORGBOTTOM
 10
0.0
 20
0.0
 30
0.0
  9
$UCSORGLEFT
 10
0.0
 20
0.0
 30
0.0
  9
$UCSORGRIGHT
 10
0.0
 20
0.0
 30
0.0
  9
$UCSORGFRONT
 10
0.0
 20
0.0
 30
0.0
  9
$UCSORGBACK
 10
0.0
 20
0.0
 30
0.0
  9
$PUCSBASE
  2

  9
$PUCSNAME
  2

  9
$PUCSORG
 10
0.0
 20
0.0
 30
0.0
  9
$PUCSXDIR
 10
1.0
 20
0.0
 30
0.0
  9
$PUCSYDIR
 10
0.0
 20
1.0
 30
0.0
  9
$PUCSORTHOREF
  2

  9
$PUCSORTHOVIEW
 70
     0
  9
$PUCSORGTOP
 10
0.0
 20
0.0
 30
0.0
  9
$PUCSORGBOTTOM
 10
0.0
 20
0.0
 30
0.0
  9
$PUCSORGLEFT
 10
0.0
 20
0.0
 30
0.0
  9
$PUCSORGRIGHT
 10
0.0
 20
0.0
 30
0.0
  9
$PUCSORGFRONT
 10
0.0
 20
0.0
 30
0.0
  9
$PUCSORGBACK
 10
0.0
 20
0.0
 30
0.0
  9
$USERI1
 70
     0
  9
$USERI2
 70
     0
  9
$USERI3
 70
     0
  9
$USERI4
 70
     0
  9
$USERI5
 70
     0
  9
$USERR1
 40
0.0
  9
$USERR2
 40
0.0
  9
$USERR3
 40
0.0
  9
$USERR4
 40
0.0
  9
$USERR5
 40
0.0
  9
$WORLDVIEW
 70
     1
  9
$SHADEDGE
 70
     3
  9
$SHADEDIF
 70
    70
  9
$TILEMODE
 70
     1
  9
$MAXACTVP
 70
    64
  9
$PINSBASE
 10
0.0
 20
0.0
 30
0.0
  9
$PLIMCHECK
 70
     0
  9
$PEXTMIN
 10
1.000000000000000E+20
 20
1.000000000000000E+20
 30
1.000000000000000E+20
  9
$PEXTMAX
 10
-1.000000000000000E+20
 20
-1.000000000000000E+20
 30
-1.000000000000000E+20
  9
$PLIMMIN
 10
0.0
 20
0.0
  9
$PLIMMAX
 10
12.0
 20
9.0
  9
$UNITMODE
 70
     0
  9
$VISRETAIN
 70
     1
  9
$PLINEGEN
 70
     0
  9
$PSLTSCALE
 70
     1
  9
$TREEDEPTH
 70
  3020
  9
$CMLSTYLE
  2
Standard
  9
$CMLJUST
 70
     0
  9
$CMLSCALE
 40
1.0
  9
$PROXYGRAPHICS
 70
     1
  9
$MEASUREMENT
 70
     0
  9
$CELWEIGHT
370
    -1
  9
$ENDCAPS
280
     0
  9
$JOINSTYLE
280
     0
  9
$LWDISPLAY
290
     0
  9
$INSUNITS
 70
     1
  9
$HYPERLINKBASE
  1

  9
$STYLESHEET
  1
monochrome.ctb
  9
$XEDIT
290
     1
  9
$CEPSNTYPE
380
     0
  9
$PSTYLEMODE
290
     1
  9
$FINGERPRINTGUID
  2
{FDEAD576-A652-11D2-9A35-0060089B3A3F}
  9
$VERSIONGUID
  2
{B7ADB842-E9CA-11D7-8525-00C04F604D21}
  9
$EXTNAMES
290
     1
  9
$PSVPSCALE
 40
0.0
  9
$OLESTARTUP
290
     0
  0
ENDSEC
  0
SECTION
  2
CLASSES
  0
CLASS
  1
ACDBDICTIONARYWDFLT
  2
AcDbDictionaryWithDefault
  3
AutoCAD 2000
 90
        0
280
     0
281
     0
  0
CLASS
  1
ACDBPLACEHOLDER
  2
AcDbPlaceHolder
  3
AutoCAD 2000
 90
        0
280
     0
281
     0
  0
CLASS
  1
LAYOUT
  2
AcDbLayout
  3
AutoCAD 2000
 90
        0
280
     0
281
     0
  0
ENDSEC
  0
SECTION
  2
TABLES
  0
TABLE
  2
VPORT
  5
8
330
0
100
AcDbSymbolTable
 70
     2
  0
VPORT
  5
31CE
330
8
100
AcDbSymbolTableRecord
100
AcDbViewportTableRecord
  2
*Active
 70
     0
 10
0.0
 20
0.0
 11
1.0
 21
1.0
 12
8.389213900536136
 22
4.854958825383889
 13
0.0
 23
0.0
 14
0.5
 24
0.5
 15
0.5
 25
0.5
 16
0.0
 26
0.0
 36
1.0
 17
0.0
 27
0.0
 37
0.0
 40
9.828063781487738
 41
1.870841487279843
 42
50.0
 43
0.0
 44
0.0
 50
0.0
 51
0.0
 71
     0
 72
   100
 73
     1
 74
     2
 75
     0
 76
     0
 77
     0
 78
     0
281
     0
 65
     1
110
0.0
120
0.0
130
0.0
111
1.0
121
0.0
131
0.0
112
0.0
122
1.0
132
0.0
 79
     0
146
0.0
  0
ENDTAB
  0
TABLE
  2
LTYPE
  5
5
330
0
100
AcDbSymbolTable
 70
     4
  0
LTYPE
  5
14
330
5
100
AcDbSymbolTableRecord
100
AcDbLinetypeTableRecord
  2
ByBlock
 70
     0
  3

 72
    65
 73
     0
 40
0.0
  0
LTYPE
  5
15
330
5
100
AcDbSymbolTableRecord
100
AcDbLinetypeTableRecord
  2
ByLayer
 70
     0
  3

 72
    65
 73
     0
 40
0.0
  0
LTYPE
  5
16
330
5
100
AcDbSymbolTableRecord
100
AcDbLinetypeTableRecord
  2
Continuous
 70
     0
  3
Solid line
 72
    65
 73
     0
 40
0.0
  0
LTYPE
  5
48
330
5
100
AcDbSymbolTableRecord
100
AcDbLinetypeTableRecord
  2
HIDDEN
 70
     0
  3
_ _ _ _ _ _ _ _ _ _ _ _ _ _ _ _ _ _ _ _ _ _ _
 72
    65
 73
     2
 40
0.375
 49
0.25
 74
     0
 49
-0.125
 74
     0
  0
LTYPE
  5
49
330
5
100
AcDbSymbolTableRecord
100
AcDbLinetypeTableRecord
  2
PHANTOM
 70
     0
  3
_____ _ _ _____ _ _ _____ _ _ _____ _ _ ____
 72
    65
 73
     6
 40
2.5
 49
1.25
 74
     0
 49
-0.25
 74
     0
 49
0.25
 74
     0
 49
-0.25
 74
     0
 49
0.25
 74
     0
 49
-0.25
 74
     0
  0
LTYPE
  5
4A
330
5
100
AcDbSymbolTableRecord
100
AcDbLinetypeTableRecord
  2
CENTER
 70
     0
  3
____ _ ____ _ ____ _ ____ _ ____ _ ____ _ ____
 72
    65
 73
     4
 40
2.0
 49
1.25
 74
     0
 49
-0.25
 74
     0
 49
0.25
 74
     0
 49
-0.25
 74
     0
  0
ENDTAB
  0
TABLE
  2
LAYER
  5
2
330
0
100
AcDbSymbolTable
 70
     9
  0
LAYER
  5
10
330
2
100
AcDbSymbolTableRecord
100
AcDbLayerTableRecord
  2
0
 70
     0
 62
     7
  6
Continuous
370
    -3
390
F
  0
LAYER
  5
4D
330
2
100
AcDbSymbolTableRecord
100
AcDbLayerTableRecord
  2
OBJECT
 70
     0
 62
     7
  6
Continuous
370
    -3
390
F
  0
LAYER
  5
4E
330
2
100
AcDbSymbolTableRecord
100
AcDbLayerTableRecord
  2
DIM
 70
     0
 62
     7
  6
Continuous
370
    -3
390
F
  0
LAYER
  5
4F
330
2
100
AcDbSymbolTableRecord
100
AcDbLayerTableRecord
  2
HIDDEN
 70
     0
 62
     7
  6
HIDDEN
370
    -3
390
F
  0
LAYER
  5
50
330
2
100
AcDbSymbolTableRecord
100
AcDbLayerTableRecord
  2
BEND
 70
     0
 62
     7
  6
PHANTOM
370
    -3
390
F
  0
LAYER
  5
51
330
2
100
AcDbSymbolTableRecord
100
AcDbLayerTableRecord
  2
TEXT
 70
     0
 62
     7
  6
Continuous
370
    -3
390
F
  0
LAYER
  5
52
330
2
100
AcDbSymbolTableRecord
100
AcDbLayerTableRecord
  2
TITLE
 70
     0
 62
     7
  6
Continuous
370
    -3
390
F
  0
LAYER
  5
53
330
2
100
AcDbSymbolTableRecord
100
AcDbLayerTableRecord
  2
CENTER
 70
     0
 62
     7
  6
CENTER
370
    -3
390
F
  0
LAYER
  5
66
330
2
100
AcDbSymbolTableRecord
100
AcDbLayerTableRecord
  2
Defpoints
 70
     0
 62
     7
  6
Continuous
290
     0
370
    -3
390
F
  0
ENDTAB
  0
TABLE
  2
STYLE
  5
3
330
0
100
AcDbSymbolTable
 70
     2
  0
STYLE
  5
11
330
3
100
AcDbSymbolTableRecord
100
AcDbTextStyleTableRecord
  2
Standard
 70
     0
 40
0.0
 41
1.0
 50
0.0
 71
     0
 42
0.156
  3
txt
  4

  0
STYLE
  5
54
330
3
100
AcDbSymbolTableRecord
100
AcDbTextStyleTableRecord
  2
TXT
 70
     0
 40
0.0
 41
0.75
 50
0.0
 71
     0
 42
0.125
  3
TXT.shx
  4

  0
ENDTAB
  0
TABLE
  2
VIEW
  5
6
330
0
100
AcDbSymbolTable
 70
     0
  0
ENDTAB
  0
TABLE
  2
UCS
  5
7
330
0
100
AcDbSymbolTable
 70
     0
  0
ENDTAB
  0
TABLE
  2
APPID
  5
9
330
0
100
AcDbSymbolTable
 70
     2
  0
APPID
  5
12
330
9
100
AcDbSymbolTableRecord
100
AcDbRegAppTableRecord
  2
ACAD
 70
     0
  0
APPID
  5
2611
330
9
100
AcDbSymbolTableRecord
100
AcDbRegAppTableRecord
  2
DCO15
 70
     0
  0
ENDTAB
  0
TABLE
  2
DIMSTYLE
  5
A
330
0
100
AcDbSymbolTable
 70
     2
100
AcDbDimStyleTable
 71
     1
340
55
  0
DIMSTYLE
105
55
102
{ACAD_REACTORS
330
275C
330
264E
330
26D8
330
274D
330
26D6
330
26D5
330
28DF
330
26D7
330
266A
330
2686
330
2678
330
26C6
330
26B7
330
26A9
330
2632
330
265C
330
2640
330
29B0
330
29BF
330
2A39
330
2D3F
330
2D42
330
2ED8
102
}
330
A
100
AcDbSymbolTableRecord
100
AcDbDimStyleTableRecord
  2
23NSTD
 70
     0
 42
0.063
 43
0.281
 44
0.093
140
0.125
271
     3
272
     3
289
     1
340
54
  0
DIMSTYLE
105
56
330
A
100
AcDbSymbolTableRecord
100
AcDbDimStyleTableRecord
  2
23NSTDI
 70
     0
 42
0.063
 43
0.281
 44
0.093
140
0.125
174
     1
271
     3
272
     3
289
     0
340
54
  0
ENDTAB
  0
TABLE
  2
BLOCK_RECORD
  5
1
330
0
100
AcDbSymbolTable
 70
    25
  0
BLOCK_RECORD
  5
1F
330
1
100
AcDbSymbolTableRecord
100
AcDbBlockTableRecord
  2
*Model_Space
340
22
  0
BLOCK_RECORD
  5
1B
330
1
100
AcDbSymbolTableRecord
100
AcDbBlockTableRecord
  2
*Paper_Space
340
1E
  0
BLOCK_RECORD
  5
23
330
1
100
AcDbSymbolTableRecord
100
AcDbBlockTableRecord
  2
*Paper_Space0
340
26
  0
BLOCK_RECORD
  5
68
330
1
100
AcDbSymbolTableRecord
100
AcDbBlockTableRecord
  2
Hbs
340
0
102
{BLKREFS
331
81
102
}
  0
BLOCK_RECORD
  5
2633
330
1
100
AcDbSymbolTableRecord
100
AcDbBlockTableRecord
  2
*D2
340
0
  0
BLOCK_RECORD
  5
2641
330
1
100
AcDbSymbolTableRecord
100
AcDbBlockTableRecord
  2
*D3
340
0
  0
BLOCK_RECORD
  5
264F
330
1
100
AcDbSymbolTableRecord
100
AcDbBlockTableRecord
  2
*D4
340
0
  0
BLOCK_RECORD
  5
265D
330
1
100
AcDbSymbolTableRecord
100
AcDbBlockTableRecord
  2
*D5
340
0
  0
BLOCK_RECORD
  5
266B
330
1
100
AcDbSymbolTableRecord
100
AcDbBlockTableRecord
  2
*D6
340
0
  0
BLOCK_RECORD
  5
2679
330
1
100
AcDbSymbolTableRecord
100
AcDbBlockTableRecord
  2
*D7
340
0
  0
BLOCK_RECORD
  5
2687
330
1
100
AcDbSymbolTableRecord
100
AcDbBlockTableRecord
  2
*D8
340
0
  0
BLOCK_RECORD
  5
26AA
330
1
100
AcDbSymbolTableRecord
100
AcDbBlockTableRecord
  2
*D9
340
0
  0
BLOCK_RECORD
  5
26B8
330
1
100
AcDbSymbolTableRecord
100
AcDbBlockTableRecord
  2
*D10
340
0
  0
BLOCK_RECORD
  5
26C7
330
1
100
AcDbSymbolTableRecord
100
AcDbBlockTableRecord
  2
*D11
340
0
  0
BLOCK_RECORD
  5
26D9
330
1
100
AcDbSymbolTableRecord
100
AcDbBlockTableRecord
  2
*D12
340
0
  0
BLOCK_RECORD
  5
26E6
330
1
100
AcDbSymbolTableRecord
100
AcDbBlockTableRecord
  2
*D13
340
0
  0
BLOCK_RECORD
  5
26F3
330
1
100
AcDbSymbolTableRecord
100
AcDbBlockTableRecord
  2
*D14
340
0
  0
BLOCK_RECORD
  5
2700
330
1
100
AcDbSymbolTableRecord
100
AcDbBlockTableRecord
  2
*D15
340
0
  0
BLOCK_RECORD
  5
274E
330
1
100
AcDbSymbolTableRecord
100
AcDbBlockTableRecord
  2
*D16
340
0
  0
BLOCK_RECORD
  5
275D
330
1
100
AcDbSymbolTableRecord
100
AcDbBlockTableRecord
  2
*D17
340
0
  0
BLOCK_RECORD
  5
28E0
330
1
100
AcDbSymbolTableRecord
100
AcDbBlockTableRecord
  2
*D18
340
0
  0
BLOCK_RECORD
  5
29B1
330
1
100
AcDbSymbolTableRecord
100
AcDbBlockTableRecord
  2
*D19
340
0
  0
BLOCK_RECORD
  5
29C0
330
1
100
AcDbSymbolTableRecord
100
AcDbBlockTableRecord
  2
*D20
340
0
  0
BLOCK_RECORD
  5
2A3A
330
1
100
AcDbSymbolTableRecord
100
AcDbBlockTableRecord
  2
*D21
340
0
  0
BLOCK_RECORD
  5
2D6D
330
1
100
AcDbSymbolTableRecord
100
AcDbBlockTableRecord
  2
*D22
340
0
  0
BLOCK_RECORD
  5
2D7A
330
1
100
AcDbSymbolTableRecord
100
AcDbBlockTableRecord
  2
*D23
340
0
  0
BLOCK_RECORD
  5
2ED9
330
1
100
AcDbSymbolTableRecord
100
AcDbBlockTableRecord
  2
*D24
340
0
  0
ENDTAB
  0
ENDSEC
  0
SECTION
  2
BLOCKS
  0
BLOCK
  5
20
330
1F
100
AcDbEntity
  8
0
100
AcDbBlockBegin
  2
*Model_Space
 70
     0
 10
0.0
 20
0.0
 30
0.0
  3
*Model_Space
  1

  0
ENDBLK
  5
21
330
1F
100
AcDbEntity
  8
0
100
AcDbBlockEnd
  0
BLOCK
  5
1C
330
1B
100
AcDbEntity
 67
     1
  8
0
100
AcDbBlockBegin
  2
*Paper_Space
 70
     0
 10
0.0
 20
0.0
 30
0.0
  3
*Paper_Space
  1

  0
ENDBLK
  5
1D
330
1B
100
AcDbEntity
 67
     1
  8
0
100
AcDbBlockEnd
  0
BLOCK
  5
24
330
23
100
AcDbEntity
  8
0
100
AcDbBlockBegin
  2
*Paper_Space0
 70
     0
 10
0.0
 20
0.0
 30
0.0
  3
*Paper_Space0
  1

  0
ENDBLK
  5
25
330
23
100
AcDbEntity
  8
0
100
AcDbBlockEnd
  0
BLOCK
  5
7F
330
68
100
AcDbEntity
  8
0
100
AcDbBlockBegin
  2
Hbs
 70
     0
 10
0.0
 20
0.0
 30
0.0
  3
Hbs
  1

  0
LINE
  5
69
330
68
100
AcDbEntity
  8
TITLE
100
AcDbLine
 10
0.0619999999999976
 20
9.179999999999999
 30
0.0
 11
16.53799999999999
 21
9.180000000000003
 31
0.0
  0
TEXT
  5
6A
330
68
100
AcDbEntity
  8
TEXT
100
AcDbText
 10
0.2078333333333345
 20
9.220079195640078
 30
0.0
 40
0.125
  1
NAME
  7
TXT
 72
     1
 11
0.4370000000000012
 21
9.220079195640078
 31
0.0
100
AcDbText
  0
TEXT
  5
6B
330
68
100
AcDbEntity
  8
TEXT
100
AcDbText
 10
0.2078333333333345
 20
9.42841252897341
 30
0.0
 40
0.125
  1
PART
  7
TXT
 72
     1
 11
0.4370000000000012
 21
9.42841252897341
 31
0.0
100
AcDbText
  0
LINE
  5
6C
330
68
100
AcDbEntity
  8
TITLE
100
AcDbLine
 10
0.8120000000000011
 20
9.179999999999999
 30
0.0
 11
0.8119999999999976
 21
9.597999999999998
 31
0.0
  0
TEXT
  5
6D
330
68
100
AcDbEntity
  8
TEXT
100
AcDbText
 10
7.207833333333332
 20
9.42841252897341
 30
0.0
 40
0.125
  1
PART
  7
TXT
 72
     1
 11
7.436999999999999
 21
9.42841252897341
 31
0.0
100
AcDbText
  0
TEXT
  5
6E
330
68
100
AcDbEntity
  8
TEXT
100
AcDbText
 10
7.311999999999999
 20
9.220079195640078
 30
0.0
 40
0.125
  1
No.
  7
TXT
 72
     1
 11
7.436999999999999
 21
9.220079195640078
 31
0.0
100
AcDbText
  0
LINE
  5
6F
330
68
100
AcDbEntity
  8
TITLE
100
AcDbLine
 10
7.061999999999999
 20
9.597999999999998
 30
0.0
 11
7.061999999999999
 21
9.179999999999999
 31
0.0
  0
LINE
  5
70
330
68
100
AcDbEntity
  8
TITLE
100
AcDbLine
 10
7.000000000000001
 20
9.597999999999998
 30
0.0
 11
7.000000000000001
 21
9.179999999999999
 31
0.0
  0
LINE
  5
71
330
68
100
AcDbEntity
  8
TITLE
100
AcDbLine
 10
7.811999999999999
 20
9.597999999999998
 30
0.0
 11
7.811999999999999
 21
9.179999999999999
 31
0.0
  0
LINE
  5
72
330
68
100
AcDbEntity
  8
TITLE
100
AcDbLine
 10
16.6
 20
9.659999999999996
 30
0.0
 11
16.59999999999999
 21
0.0
 31
0.0
  0
LINE
  5
73
330
68
100
AcDbEntity
  8
TITLE
100
AcDbLine
 10
16.59999999999999
 20
0.0
 30
0.0
 11
0.0
 21
0.0
 31
0.0
  0
LINE
  5
74
330
68
100
AcDbEntity
  8
TITLE
100
AcDbLine
 10
0.0
 20
0.0
 30
0.0
 11
0.0
 21
9.659999999999996
 31
0.0
  0
LINE
  5
75
330
68
100
AcDbEntity
  8
TITLE
100
AcDbLine
 10
0.0
 20
9.659999999999996
 30
0.0
 11
16.6
 21
9.659999999999996
 31
0.0
  0
LINE
  5
76
330
68
100
AcDbEntity
  8
TITLE
100
AcDbLine
 10
16.53799999999999
 20
9.598000000000006
 30
0.0
 11
16.53799999999999
 21
0.0620000000000012
 31
0.0
  0
LINE
  5
77
330
68
100
AcDbEntity
  8
TITLE
100
AcDbLine
 10
16.53799999999999
 20
0.0620000000000012
 30
0.0
 11
0.0620000000000012
 21
0.0620000000000012
 31
0.0
  0
LINE
  5
78
330
68
100
AcDbEntity
  8
TITLE
100
AcDbLine
 10
0.0620000000000012
 20
0.0620000000000012
 30
0.0
 11
0.0620000000000012
 21
9.597999999999998
 31
0.0
  0
LINE
  5
79
330
68
100
AcDbEntity
  8
TITLE
100
AcDbLine
 10
0.0620000000000012
 20
9.597999999999998
 30
0.0
 11
16.53799999999999
 21
9.598000000000006
 31
0.0
  0
LINE
  5
7A
330
68
100
AcDbEntity
  8
TITLE
100
AcDbLine
 10
13.99999113305
 20
9.597999999999998
 30
0.0
 11
13.99999113305
 21
9.179999999999999
 31
0.0
  0
LINE
  5
7B
330
68
100
AcDbEntity
  8
TITLE
100
AcDbLine
 10
14.81199113305
 20
9.597999999999998
 30
0.0
 11
14.81199113305
 21
9.179999999999999
 31
0.0
  0
LINE
  5
7C
330
68
100
AcDbEntity
  8
TITLE
100
AcDbLine
 10
14.06199113305
 20
9.597999999999998
 30
0.0
 11
14.06199113305
 21
9.179999999999999
 31
0.0
  0
TEXT
  5
7D
330
68
100
AcDbEntity
  8
TEXT
100
AcDbText
 10
14.20782446638333
 20
9.220079195640078
 30
0.0
 40
0.125
  1
DATE
  7
TXT
 72
     1
 11
14.43699113305
 21
9.220079195640078
 31
0.0
100
AcDbText
  0
TEXT
  5
7E
330
68
100
AcDbEntity
  8
TEXT
100
AcDbText
 10
14.22865779971667
 20
9.42841252897341
 30
0.0
 40
0.125
  1
REV.
  7
TXT
 72
     1
 11
14.43699113305
 21
9.42841252897341
 31
0.0
100
AcDbText
  0
ENDBLK
  5
80
330
68
100
AcDbEntity
  8
0
100
AcDbBlockEnd
  0
BLOCK
  5
263E
330
2633
100
AcDbEntity
  8
0
100
AcDbBlockBegin
  2
*D2
 70
     1
 10
0.0
 20
0.0
 30
0.0
  3
*D2
  1

  0
LINE
  5
2FA2
330
2633
100
AcDbEntity
  8
DIM
 62
     0
370
    -2
100
AcDbLine
 10
8.403222691086977
 20
3.961898377923969
 30
0.0
 11
8.403222691086977
 21
5.025515610419109
 31
0.0
  0
LINE
  5
2FA3
330
2633
100
AcDbEntity
  8
DIM
 62
     0
370
    -2
100
AcDbLine
 10
11.26122269108697
 20
3.961898377923969
 30
0.0
 11
11.26122269108697
 21
5.025515610419109
 31
0.0
  0
LINE
  5
2FA4
330
2633
100
AcDbEntity
  8
DIM
 62
     0
370
    -2
100
AcDbLine
 10
8.583222691086977
 20
4.932515610419109
 30
0.0
 11
9.554722691086977
 21
4.932515610419109
 31
0.0
  0
LINE
  5
2FA5
330
2633
100
AcDbEntity
  8
DIM
 62
     0
370
    -2
100
AcDbLine
 10
11.08122269108697
 20
4.932515610419109
 30
0.0
 11
10.10972269108697
 21
4.932515610419109
 31
0.0
  0
SOLID
  5
2FA6
330
2633
100
AcDbEntity
  8
DIM
 62
     0
100
AcDbTrace
 10
8.583222691086977
 20
4.962515610419109
 30
0.0
 11
8.583222691086977
 21
4.902515610419109
 31
0.0
 12
8.403222691086977
 22
4.932515610419109
 32
0.0
 13
8.403222691086977
 23
4.932515610419109
 33
0.0
  0
SOLID
  5
2FA7
330
2633
100
AcDbEntity
  8
DIM
 62
     0
100
AcDbTrace
 10
11.08122269108697
 20
4.962515610419109
 30
0.0
 11
11.08122269108697
 21
4.902515610419109
 31
0.0
 12
11.26122269108697
 22
4.932515610419109
 32
0.0
 13
11.26122269108697
 23
4.932515610419109
 33
0.0
  0
MTEXT
  5
2FA8
330
2633
100
AcDbEntity
  8
DIM
 62
     0
100
AcDbMText
 10
9.832222691086977
 20
4.932515610419109
 30
0.0
 40
0.125
 41
0.0
 71
     5
 72
     1
  1
\A1;2.858
  7
TXT
 73
     1
 44
1.0
  0
POINT
  5
2FA9
330
2633
100
AcDbEntity
  8
Defpoints
 62
     0
100
AcDbPoint
 10
8.403222691086977
 20
3.898898377923969
 30
0.0
  0
POINT
  5
2FAA
330
2633
100
AcDbEntity
  8
Defpoints
 62
     0
100
AcDbPoint
 10
11.26122269108697
 20
3.898898377923969
 30
0.0
  0
POINT
  5
2FAB
330
2633
100
AcDbEntity
  8
Defpoints
 62
     0
100
AcDbPoint
 10
11.26122269108697
 20
4.932515610419109
 30
0.0
  0
ENDBLK
  5
263F
330
2633
100
AcDbEntity
  8
0
100
AcDbBlockEnd
  0
BLOCK
  5
264C
330
2641
100
AcDbEntity
  8
0
100
AcDbBlockBegin
  2
*D3
 70
     1
 10
0.0
 20
0.0
 30
0.0
  3
*D3
  1

  0
LINE
  5
3007
330
2641
100
AcDbEntity
  8
DIM
 62
     0
370
    -2
100
AcDbLine
 10
11.33522269108697
 20
4.398898377923966
 30
0.0
 11
11.80679246370976
 21
4.398898377923966
 31
0.0
  0
LINE
  5
3008
330
2641
100
AcDbEntity
  8
DIM
 62
     0
370
    -2
100
AcDbLine
 10
11.33522269108697
 20
3.398898377923972
 30
0.0
 11
11.80679246370976
 21
3.398898377923972
 31
0.0
  0
LINE
  5
3009
330
2641
100
AcDbEntity
  8
DIM
 62
     0
370
    -2
100
AcDbLine
 10
11.71379246370976
 20
4.218898377923967
 30
0.0
 11
11.71379246370976
 21
4.051398377923969
 31
0.0
  0
LINE
  5
300A
330
2641
100
AcDbEntity
  8
DIM
 62
     0
370
    -2
100
AcDbLine
 10
11.71379246370976
 20
3.578898377923972
 30
0.0
 11
11.71379246370976
 21
3.746398377923969
 31
0.0
  0
SOLID
  5
300B
330
2641
100
AcDbEntity
  8
DIM
 62
     0
100
AcDbTrace
 10
11.68379246370976
 20
4.218898377923967
 30
0.0
 11
11.74379246370976
 21
4.218898377923967
 31
0.0
 12
11.71379246370976
 22
4.398898377923966
 32
0.0
 13
11.71379246370976
 23
4.398898377923966
 33
0.0
  0
SOLID
  5
300C
330
2641
100
AcDbEntity
  8
DIM
 62
     0
100
AcDbTrace
 10
11.68379246370976
 20
3.578898377923972
 30
0.0
 11
11.74379246370976
 21
3.578898377923972
 31
0.0
 12
11.71379246370976
 22
3.398898377923972
 32
0.0
 13
11.71379246370976
 23
3.398898377923972
 33
0.0
  0
MTEXT
  5
300D
330
2641
100
AcDbEntity
  8
DIM
 62
     0
100
AcDbMText
 10
11.71379246370976
 20
3.898898377923971
 30
0.0
 40
0.125
 41
0.0
 71
     5
 72
     1
  1
\A1;1.000
  7
TXT
 73
     1
 44
1.0
  0
POINT
  5
300E
330
2641
100
AcDbEntity
  8
Defpoints
 62
     0
100
AcDbPoint
 10
11.27222269108697
 20
4.398898377923966
 30
0.0
  0
POINT
  5
300F
330
2641
100
AcDbEntity
  8
Defpoints
 62
     0
100
AcDbPoint
 10
11.27222269108697
 20
3.398898377923972
 30
0.0
  0
POINT
  5
3010
330
2641
100
AcDbEntity
  8
Defpoints
 62
     0
100
AcDbPoint
 10
11.71379246370976
 20
3.398898377923972
 30
0.0
  0
ENDBLK
  5
264D
330
2641
100
AcDbEntity
  8
0
100
AcDbBlockEnd
  0
BLOCK
  5
265A
330
264F
100
AcDbEntity
  8
0
100
AcDbBlockBegin
  2
*D4
 70
     1
 10
0.0
 20
0.0
 30
0.0
  3
*D4
  1

  0
LINE
  5
2F5B
330
264F
100
AcDbEntity
  8
DIM
 62
     0
370
    -2
100
AcDbLine
 10
8.238222691086978
 20
3.961898377923969
 30
0.0
 11
8.238222691086978
 21
5.304622463239802
 31
0.0
  0
LINE
  5
2F5C
330
264F
100
AcDbEntity
  8
DIM
 62
     0
370
    -2
100
AcDbLine
 10
11.42622269108697
 20
3.961898377923969
 30
0.0
 11
11.42622269108697
 21
5.304622463239802
 31
0.0
  0
LINE
  5
2F5D
330
264F
100
AcDbEntity
  8
DIM
 62
     0
370
    -2
100
AcDbLine
 10
8.418222691086977
 20
5.211622463239802
 30
0.0
 11
9.570347691086977
 21
5.211622463239802
 31
0.0
  0
LINE
  5
2F5E
330
264F
100
AcDbEntity
  8
DIM
 62
     0
370
    -2
100
AcDbLine
 10
11.24622269108697
 20
5.211622463239802
 30
0.0
 11
10.09409769108697
 21
5.211622463239802
 31
0.0
  0
SOLID
  5
2F5F
330
264F
100
AcDbEntity
  8
DIM
 62
     0
100
AcDbTrace
 10
8.418222691086977
 20
5.241622463239802
 30
0.0
 11
8.418222691086977
 21
5.181622463239802
 31
0.0
 12
8.238222691086978
 22
5.211622463239802
 32
0.0
 13
8.238222691086978
 23
5.211622463239802
 33
0.0
  0
SOLID
  5
2F60
330
264F
100
AcDbEntity
  8
DIM
 62
     0
100
AcDbTrace
 10
11.24622269108697
 20
5.241622463239802
 30
0.0
 11
11.24622269108697
 21
5.181622463239802
 31
0.0
 12
11.42622269108697
 22
5.211622463239802
 32
0.0
 13
11.42622269108697
 23
5.211622463239802
 33
0.0
  0
MTEXT
  5
2F61
330
264F
100
AcDbEntity
  8
DIM
 62
     0
100
AcDbMText
 10
9.832222691086977
 20
5.211622463239802
 30
0.0
 40
0.125
 41
0.0
 71
     5
 72
     1
  1
\A1;3.188
  7
TXT
 73
     1
 44
1.0
  0
POINT
  5
2F62
330
264F
100
AcDbEntity
  8
Defpoints
 62
     0
100
AcDbPoint
 10
8.238222691086978
 20
3.898898377923969
 30
0.0
  0
POINT
  5
2F63
330
264F
100
AcDbEntity
  8
Defpoints
 62
     0
100
AcDbPoint
 10
11.42622269108697
 20
3.898898377923969
 30
0.0
  0
POINT
  5
2F64
330
264F
100
AcDbEntity
  8
Defpoints
 62
     0
100
AcDbPoint
 10
11.42622269108697
 20
5.211622463239802
 30
0.0
  0
ENDBLK
  5
265B
330
264F
100
AcDbEntity
  8
0
100
AcDbBlockEnd
  0
BLOCK
  5
2668
330
265D
100
AcDbEntity
  8
0
100
AcDbBlockBegin
  2
*D5
 70
     1
 10
0.0
 20
0.0
 30
0.0
  3
*D5
  1

  0
LINE
  5
2FFD
330
265D
100
AcDbEntity
  8
DIM
 62
     0
370
    -2
100
AcDbLine
 10
11.11322269108698
 20
4.648898377923969
 30
0.0
 11
12.26536686513389
 21
4.648898377923969
 31
0.0
  0
LINE
  5
2FFE
330
265D
100
AcDbEntity
  8
DIM
 62
     0
370
    -2
100
AcDbLine
 10
11.11322269108698
 20
3.148898377923969
 30
0.0
 11
12.26536686513389
 21
3.148898377923969
 31
0.0
  0
LINE
  5
2FFF
330
265D
100
AcDbEntity
  8
DIM
 62
     0
370
    -2
100
AcDbLine
 10
12.17236686513389
 20
4.468898377923969
 30
0.0
 11
12.17236686513389
 21
4.051398377923969
 31
0.0
  0
LINE
  5
3000
330
265D
100
AcDbEntity
  8
DIM
 62
     0
370
    -2
100
AcDbLine
 10
12.17236686513389
 20
3.328898377923969
 30
0.0
 11
12.17236686513389
 21
3.746398377923969
 31
0.0
  0
SOLID
  5
3001
330
265D
100
AcDbEntity
  8
DIM
 62
     0
100
AcDbTrace
 10
12.14236686513389
 20
4.468898377923969
 30
0.0
 11
12.20236686513389
 21
4.468898377923969
 31
0.0
 12
12.17236686513389
 22
4.648898377923969
 32
0.0
 13
12.17236686513389
 23
4.648898377923969
 33
0.0
  0
SOLID
  5
3002
330
265D
100
AcDbEntity
  8
DIM
 62
     0
100
AcDbTrace
 10
12.14236686513389
 20
3.328898377923969
 30
0.0
 11
12.20236686513389
 21
3.328898377923969
 31
0.0
 12
12.17236686513389
 22
3.148898377923969
 32
0.0
 13
12.17236686513389
 23
3.148898377923969
 33
0.0
  0
MTEXT
  5
3003
330
265D
100
AcDbEntity
  8
DIM
 62
     0
100
AcDbMText
 10
12.17236686513389
 20
3.898898377923971
 30
0.0
 40
0.125
 41
0.0
 71
     5
 72
     1
  1
\A1;1.500
  7
TXT
 73
     1
 44
1.0
  0
POINT
  5
3004
330
265D
100
AcDbEntity
  8
Defpoints
 62
     0
100
AcDbPoint
 10
11.05022269108697
 20
4.648898377923969
 30
0.0
  0
POINT
  5
3005
330
265D
100
AcDbEntity
  8
Defpoints
 62
     0
100
AcDbPoint
 10
11.05022269108697
 20
3.148898377923969
 30
0.0
  0
POINT
  5
3006
330
265D
100
AcDbEntity
  8
Defpoints
 62
     0
100
AcDbPoint
 10
12.17236686513389
 20
3.148898377923969
 30
0.0
  0
ENDBLK
  5
2669
330
265D
100
AcDbEntity
  8
0
100
AcDbBlockEnd
  0
BLOCK
  5
2676
330
266B
100
AcDbEntity
  8
0
100
AcDbBlockBegin
  2
*D6
 70
     1
 10
0.0
 20
0.0
 30
0.0
  3
*D6
  1

  0
LINE
  5
2FD4
330
266B
100
AcDbEntity
  8
DIM
 62
     0
370
    -2
100
AcDbLine
 10
11.11222269108697
 20
3.147898377923969
 30
0.0
 11
11.11222269108697
 21
2.813557978758076
 31
0.0
  0
LINE
  5
2FD5
330
266B
100
AcDbEntity
  8
DIM
 62
     0
370
    -2
100
AcDbLine
 10
8.552222691086978
 20
3.147898377923969
 30
0.0
 11
8.552222691086978
 21
2.813557978758076
 31
0.0
  0
LINE
  5
2FD6
330
266B
100
AcDbEntity
  8
DIM
 62
     0
370
    -2
100
AcDbLine
 10
10.93222269108697
 20
2.906557978758076
 30
0.0
 11
10.10191019108698
 21
2.906557978758076
 31
0.0
  0
LINE
  5
2FD7
330
266B
100
AcDbEntity
  8
DIM
 62
     0
370
    -2
100
AcDbLine
 10
8.732222691086978
 20
2.906557978758076
 30
0.0
 11
9.562535191086979
 21
2.906557978758076
 31
0.0
  0
SOLID
  5
2FD8
330
266B
100
AcDbEntity
  8
DIM
 62
     0
100
AcDbTrace
 10
10.93222269108697
 20
2.936557978758076
 30
0.0
 11
10.93222269108697
 21
2.876557978758076
 31
0.0
 12
11.11222269108697
 22
2.906557978758076
 32
0.0
 13
11.11222269108697
 23
2.906557978758076
 33
0.0
  0
SOLID
  5
2FD9
330
266B
100
AcDbEntity
  8
DIM
 62
     0
100
AcDbTrace
 10
8.732222691086978
 20
2.936557978758076
 30
0.0
 11
8.732222691086978
 21
2.876557978758076
 31
0.0
 12
8.552222691086978
 22
2.906557978758076
 32
0.0
 13
8.552222691086978
 23
2.906557978758076
 33
0.0
  0
MTEXT
  5
2FDA
330
266B
100
AcDbEntity
  8
DIM
 62
     0
100
AcDbMText
 10
9.832222691086979
 20
2.906557978758076
 30
0.0
 40
0.125
 41
0.0
 71
     5
 72
     1
  1
\A1;2.560
  7
TXT
 73
     1
 44
1.0
  0
POINT
  5
2FDB
330
266B
100
AcDbEntity
  8
Defpoints
 62
     0
100
AcDbPoint
 10
11.11222269108697
 20
3.210898377923969
 30
0.0
  0
POINT
  5
2FDC
330
266B
100
AcDbEntity
  8
Defpoints
 62
     0
100
AcDbPoint
 10
8.552222691086978
 20
3.210898377923969
 30
0.0
  0
POINT
  5
2FDD
330
266B
100
AcDbEntity
  8
Defpoints
 62
     0
100
AcDbPoint
 10
8.552222691086978
 20
2.906557978758076
 30
0.0
  0
ENDBLK
  5
2677
330
266B
100
AcDbEntity
  8
0
100
AcDbBlockEnd
  0
BLOCK
  5
2684
330
2679
100
AcDbEntity
  8
0
100
AcDbBlockBegin
  2
*D7
 70
     1
 10
0.0
 20
0.0
 30
0.0
  3
*D7
  1

  0
LINE
  5
310C
330
2679
100
AcDbEntity
  8
DIM
 62
     0
370
    -2
100
AcDbLine
 10
11.48922269108697
 20
2.36189837792397
 30
0.0
 11
11.92901593954762
 21
2.36189837792397
 31
0.0
  0
LINE
  5
310D
330
2679
100
AcDbEntity
  8
DIM
 62
     0
370
    -2
100
AcDbLine
 10
11.09711967688443
 20
1.37789837792397
 30
0.0
 11
11.92901593954762
 21
1.37789837792397
 31
0.0
  0
LINE
  5
310E
330
2679
100
AcDbEntity
  8
DIM
 62
     0
370
    -2
100
AcDbLine
 10
11.83601593954762
 20
2.18189837792397
 30
0.0
 11
11.83601593954762
 21
2.02239837792397
 31
0.0
  0
LINE
  5
310F
330
2679
100
AcDbEntity
  8
DIM
 62
     0
370
    -2
100
AcDbLine
 10
11.83601593954762
 20
1.55789837792397
 30
0.0
 11
11.83601593954762
 21
1.71739837792397
 31
0.0
  0
SOLID
  5
3110
330
2679
100
AcDbEntity
  8
DIM
 62
     0
100
AcDbTrace
 10
11.80601593954762
 20
2.18189837792397
 30
0.0
 11
11.86601593954762
 21
2.18189837792397
 31
0.0
 12
11.83601593954762
 22
2.36189837792397
 32
0.0
 13
11.83601593954762
 23
2.36189837792397
 33
0.0
  0
SOLID
  5
3111
330
2679
100
AcDbEntity
  8
DIM
 62
     0
100
AcDbTrace
 10
11.80601593954762
 20
1.55789837792397
 30
0.0
 11
11.86601593954762
 21
1.55789837792397
 31
0.0
 12
11.83601593954762
 22
1.37789837792397
 32
0.0
 13
11.83601593954762
 23
1.37789837792397
 33
0.0
  0
MTEXT
  5
3112
330
2679
100
AcDbEntity
  8
DIM
 62
     0
100
AcDbMText
 10
11.83601593954762
 20
1.869898377923972
 30
0.0
 40
0.125
 41
0.0
 71
     5
 72
     1
  1
\A1;0.984
  7
TXT
 73
     1
 44
1.0
  0
POINT
  5
3113
330
2679
100
AcDbEntity
  8
Defpoints
 62
     0
100
AcDbPoint
 10
11.42622269108697
 20
2.36189837792397
 30
0.0
  0
POINT
  5
3114
330
2679
100
AcDbEntity
  8
Defpoints
 62
     0
100
AcDbPoint
 10
11.03411967688443
 20
1.37789837792397
 30
0.0
  0
POINT
  5
3115
330
2679
100
AcDbEntity
  8
Defpoints
 62
     0
100
AcDbPoint
 10
11.83601593954762
 20
1.37789837792397
 30
0.0
  0
ENDBLK
  5
2685
330
2679
100
AcDbEntity
  8
0
100
AcDbBlockEnd
  0
BLOCK
  5
2692
330
2687
100
AcDbEntity
  8
0
100
AcDbBlockBegin
  2
*D8
 70
     1
 10
0.0
 20
0.0
 30
0.0
  3
*D8
  1

  0
LINE
  5
3102
330
2687
100
AcDbEntity
  8
DIM
 62
     0
370
    -2
100
AcDbLine
 10
10.2277771591205
 20
1.44889837792397
 30
0.0
 11
10.13477715912051
 21
1.44889837792397
 31
0.0
  0
LINE
  5
3103
330
2687
100
AcDbEntity
  8
DIM
 62
     0
370
    -2
100
AcDbLine
 10
10.2277771591205
 20
2.36189837792397
 30
0.0
 11
10.13477715912051
 21
2.36189837792397
 31
0.0
  0
LINE
  5
3104
330
2687
100
AcDbEntity
  8
DIM
 62
     0
370
    -2
100
AcDbLine
 10
10.22777715912051
 20
1.62889837792397
 30
0.0
 11
10.22777715912051
 21
1.75289837792397
 31
0.0
  0
LINE
  5
3105
330
2687
100
AcDbEntity
  8
DIM
 62
     0
370
    -2
100
AcDbLine
 10
10.22777715912051
 20
2.18189837792397
 30
0.0
 11
10.22777715912051
 21
2.05789837792397
 31
0.0
  0
SOLID
  5
3106
330
2687
100
AcDbEntity
  8
DIM
 62
     0
100
AcDbTrace
 10
10.19777715912051
 20
1.62889837792397
 30
0.0
 11
10.2577771591205
 21
1.62889837792397
 31
0.0
 12
10.22777715912051
 22
1.44889837792397
 32
0.0
 13
10.22777715912051
 23
1.44889837792397
 33
0.0
  0
SOLID
  5
3107
330
2687
100
AcDbEntity
  8
DIM
 62
     0
100
AcDbTrace
 10
10.19777715912051
 20
2.18189837792397
 30
0.0
 11
10.2577771591205
 21
2.18189837792397
 31
0.0
 12
10.22777715912051
 22
2.36189837792397
 32
0.0
 13
10.22777715912051
 23
2.36189837792397
 33
0.0
  0
MTEXT
  5
3108
330
2687
100
AcDbEntity
  8
DIM
 62
     0
100
AcDbMText
 10
10.22777715912051
 20
1.905398377923971
 30
0.0
 40
0.125
 41
0.0
 71
     5
 72
     1
  1
\A1;0.913
  7
TXT
 73
     1
 44
1.0
  0
POINT
  5
3109
330
2687
100
AcDbEntity
  8
Defpoints
 62
     0
100
AcDbPoint
 10
10.2907771591205
 20
1.44889837792397
 30
0.0
  0
POINT
  5
310A
330
2687
100
AcDbEntity
  8
Defpoints
 62
     0
100
AcDbPoint
 10
10.2907771591205
 20
2.36189837792397
 30
0.0
  0
POINT
  5
310B
330
2687
100
AcDbEntity
  8
Defpoints
 62
     0
100
AcDbPoint
 10
10.22777715912051
 20
2.36189837792397
 30
0.0
  0
ENDBLK
  5
2693
330
2687
100
AcDbEntity
  8
0
100
AcDbBlockEnd
  0
BLOCK
  5
26B5
330
26AA
100
AcDbEntity
  8
0
100
AcDbBlockBegin
  2
*D9
 70
     1
 10
0.0
 20
0.0
 30
0.0
  3
*D9
  1

  0
LINE
  5
2FCA
330
26AA
100
AcDbEntity
  8
DIM
 62
     0
370
    -2
100
AcDbLine
 10
8.641222691086978
 20
4.335898377923967
 30
0.0
 11
8.641222691086978
 21
4.112006943501882
 31
0.0
  0
LINE
  5
2FCB
330
26AA
100
AcDbEntity
  8
DIM
 62
     0
370
    -2
100
AcDbLine
 10
11.02322269108697
 20
4.335898377923967
 30
0.0
 11
11.02322269108697
 21
4.112006943501882
 31
0.0
  0
LINE
  5
2FCC
330
26AA
100
AcDbEntity
  8
DIM
 62
     0
370
    -2
100
AcDbLine
 10
8.821222691086978
 20
4.205006943501881
 30
0.0
 11
9.554722691086979
 21
4.205006943501881
 31
0.0
  0
LINE
  5
2FCD
330
26AA
100
AcDbEntity
  8
DIM
 62
     0
370
    -2
100
AcDbLine
 10
10.84322269108698
 20
4.205006943501881
 30
0.0
 11
10.10972269108697
 21
4.205006943501881
 31
0.0
  0
SOLID
  5
2FCE
330
26AA
100
AcDbEntity
  8
DIM
 62
     0
100
AcDbTrace
 10
8.821222691086978
 20
4.235006943501882
 30
0.0
 11
8.821222691086978
 21
4.175006943501881
 31
0.0
 12
8.641222691086978
 22
4.205006943501881
 32
0.0
 13
8.641222691086978
 23
4.205006943501881
 33
0.0
  0
SOLID
  5
2FCF
330
26AA
100
AcDbEntity
  8
DIM
 62
     0
100
AcDbTrace
 10
10.84322269108698
 20
4.235006943501882
 30
0.0
 11
10.84322269108698
 21
4.175006943501881
 31
0.0
 12
11.02322269108697
 22
4.205006943501881
 32
0.0
 13
11.02322269108697
 23
4.205006943501881
 33
0.0
  0
MTEXT
  5
2FD0
330
26AA
100
AcDbEntity
  8
DIM
 62
     0
100
AcDbMText
 10
9.832222691086979
 20
4.205006943501881
 30
0.0
 40
0.125
 41
0.0
 71
     5
 72
     1
  1
\A1;2.382
  7
TXT
 73
     1
 44
1.0
  0
POINT
  5
2FD1
330
26AA
100
AcDbEntity
  8
Defpoints
 62
     0
100
AcDbPoint
 10
8.641222691086978
 20
4.398898377923966
 30
0.0
  0
POINT
  5
2FD2
330
26AA
100
AcDbEntity
  8
Defpoints
 62
     0
100
AcDbPoint
 10
11.02322269108697
 20
4.398898377923966
 30
0.0
  0
POINT
  5
2FD3
330
26AA
100
AcDbEntity
  8
Defpoints
 62
     0
100
AcDbPoint
 10
11.02322269108697
 20
4.205006943501881
 30
0.0
  0
ENDBLK
  5
26B6
330
26AA
100
AcDbEntity
  8
0
100
AcDbBlockEnd
  0
BLOCK
  5
26C3
330
26B8
100
AcDbEntity
  8
0
100
AcDbBlockBegin
  2
*D10
 70
     1
 10
0.0
 20
0.0
 30
0.0
  3
*D10
  1

  0
LINE
  5
2FE8
330
26B8
100
AcDbEntity
  8
DIM
 62
     0
370
    -2
100
AcDbLine
 10
10.79917107818375
 20
4.557898377923969
 30
0.0
 11
10.34652718878761
 21
4.557898377923969
 31
0.0
  0
LINE
  5
2FE9
330
26B8
100
AcDbEntity
  8
DIM
 62
     0
370
    -2
100
AcDbLine
 10
10.79917107818375
 20
3.239898377923969
 30
0.0
 11
10.34652718878761
 21
3.239898377923969
 31
0.0
  0
LINE
  5
2FEA
330
26B8
100
AcDbEntity
  8
DIM
 62
     0
370
    -2
100
AcDbLine
 10
10.43952718878761
 20
4.377898377923969
 30
0.0
 11
10.43952718878761
 21
4.051398377923969
 31
0.0
  0
LINE
  5
2FEB
330
26B8
100
AcDbEntity
  8
DIM
 62
     0
370
    -2
100
AcDbLine
 10
10.43952718878761
 20
3.419898377923969
 30
0.0
 11
10.43952718878761
 21
3.74639837792397
 31
0.0
  0
SOLID
  5
2FEC
330
26B8
100
AcDbEntity
  8
DIM
 62
     0
100
AcDbTrace
 10
10.40952718878761
 20
4.377898377923969
 30
0.0
 11
10.46952718878761
 21
4.377898377923969
 31
0.0
 12
10.43952718878761
 22
4.557898377923969
 32
0.0
 13
10.43952718878761
 23
4.557898377923969
 33
0.0
  0
SOLID
  5
2FED
330
26B8
100
AcDbEntity
  8
DIM
 62
     0
100
AcDbTrace
 10
10.40952718878761
 20
3.419898377923969
 30
0.0
 11
10.46952718878761
 21
3.419898377923969
 31
0.0
 12
10.43952718878761
 22
3.239898377923969
 32
0.0
 13
10.43952718878761
 23
3.239898377923969
 33
0.0
  0
MTEXT
  5
2FEE
330
26B8
100
AcDbEntity
  8
DIM
 62
     0
100
AcDbMText
 10
10.43952718878761
 20
3.898898377923971
 30
0.0
 40
0.125
 41
0.0
 71
     5
 72
     1
  1
\A1;1.318
  7
TXT
 73
     1
 44
1.0
  0
POINT
  5
2FEF
330
26B8
100
AcDbEntity
  8
Defpoints
 62
     0
100
AcDbPoint
 10
10.86217107818375
 20
4.557898377923969
 30
0.0
  0
POINT
  5
2FF0
330
26B8
100
AcDbEntity
  8
Defpoints
 62
     0
100
AcDbPoint
 10
10.86217107818375
 20
3.239898377923969
 30
0.0
  0
POINT
  5
2FF1
330
26B8
100
AcDbEntity
  8
Defpoints
 62
     0
100
AcDbPoint
 10
10.43952718878761
 20
3.239898377923969
 30
0.0
  0
ENDBLK
  5
26C4
330
26B8
100
AcDbEntity
  8
0
100
AcDbBlockEnd
  0
BLOCK
  5
26D2
330
26C7
100
AcDbEntity
  8
0
100
AcDbBlockBegin
  2
*D11
 70
     1
 10
0.0
 20
0.0
 30
0.0
  3
*D11
  1

  0
LINE
  5
2FDE
330
26C7
100
AcDbEntity
  8
DIM
 62
     0
370
    -2
100
AcDbLine
 10
8.802274303990206
 20
3.302898377923969
 30
0.0
 11
8.802274303990206
 21
3.602541685060899
 31
0.0
  0
LINE
  5
2FDF
330
26C7
100
AcDbEntity
  8
DIM
 62
     0
370
    -2
100
AcDbLine
 10
10.86217107818375
 20
3.302898377923969
 30
0.0
 11
10.86217107818375
 21
3.602541685060899
 31
0.0
  0
LINE
  5
2FE0
330
26C7
100
AcDbEntity
  8
DIM
 62
     0
370
    -2
100
AcDbLine
 10
8.982274303990205
 20
3.509541685060899
 30
0.0
 11
9.570347691086979
 21
3.509541685060899
 31
0.0
  0
LINE
  5
2FE1
330
26C7
100
AcDbEntity
  8
DIM
 62
     0
370
    -2
100
AcDbLine
 10
10.68217107818375
 20
3.509541685060899
 30
0.0
 11
10.09409769108698
 21
3.509541685060899
 31
0.0
  0
SOLID
  5
2FE2
330
26C7
100
AcDbEntity
  8
DIM
 62
     0
100
AcDbTrace
 10
8.982274303990205
 20
3.539541685060898
 30
0.0
 11
8.982274303990205
 21
3.479541685060899
 31
0.0
 12
8.802274303990206
 22
3.509541685060899
 32
0.0
 13
8.802274303990206
 23
3.509541685060899
 33
0.0
  0
SOLID
  5
2FE3
330
26C7
100
AcDbEntity
  8
DIM
 62
     0
100
AcDbTrace
 10
10.68217107818375
 20
3.539541685060898
 30
0.0
 11
10.68217107818375
 21
3.479541685060899
 31
0.0
 12
10.86217107818375
 22
3.509541685060899
 32
0.0
 13
10.86217107818375
 23
3.509541685060899
 33
0.0
  0
MTEXT
  5
2FE4
330
26C7
100
AcDbEntity
  8
DIM
 62
     0
100
AcDbMText
 10
9.832222691086979
 20
3.509541685060899
 30
0.0
 40
0.125
 41
0.0
 71
     5
 72
     1
  1
\A1;2.060
  7
TXT
 73
     1
 44
1.0
  0
POINT
  5
2FE5
330
26C7
100
AcDbEntity
  8
Defpoints
 62
     0
100
AcDbPoint
 10
8.802274303990206
 20
3.239898377923969
 30
0.0
  0
POINT
  5
2FE6
330
26C7
100
AcDbEntity
  8
Defpoints
 62
     0
100
AcDbPoint
 10
10.86217107818375
 20
3.239898377923969
 30
0.0
  0
POINT
  5
2FE7
330
26C7
100
AcDbEntity
  8
Defpoints
 62
     0
100
AcDbPoint
 10
10.86217107818375
 20
3.509541685060899
 30
0.0
  0
ENDBLK
  5
26D3
330
26C7
100
AcDbEntity
  8
0
100
AcDbBlockEnd
  0
BLOCK
  5
26E4
330
26D9
100
AcDbEntity
  8
0
100
AcDbBlockBegin
  2
*D12
 70
     1
 10
0.0
 20
0.0
 30
0.0
  3
*D12
  1

  0
LINE
  5
2F6F
330
26D9
100
AcDbEntity
  8
DIM
 62
     0
370
    -2
100
AcDbLine
 10
2.152577027791743
 20
3.961898377923969
 30
0.0
 11
2.152577027791743
 21
5.025515610419109
 31
0.0
  0
LINE
  5
2F70
330
26D9
100
AcDbEntity
  8
DIM
 62
     0
370
    -2
100
AcDbLine
 10
5.010577027791743
 20
3.961898377923969
 30
0.0
 11
5.010577027791743
 21
5.025515610419109
 31
0.0
  0
LINE
  5
2F71
330
26D9
100
AcDbEntity
  8
DIM
 62
     0
370
    -2
100
AcDbLine
 10
2.332577027791744
 20
4.932515610419109
 30
0.0
 11
3.304077027791744
 21
4.932515610419109
 31
0.0
  0
LINE
  5
2F72
330
26D9
100
AcDbEntity
  8
DIM
 62
     0
370
    -2
100
AcDbLine
 10
4.830577027791743
 20
4.932515610419109
 30
0.0
 11
3.859077027791744
 21
4.932515610419109
 31
0.0
  0
SOLID
  5
2F73
330
26D9
100
AcDbEntity
  8
DIM
 62
     0
100
AcDbTrace
 10
2.332577027791744
 20
4.962515610419109
 30
0.0
 11
2.332577027791744
 21
4.902515610419109
 31
0.0
 12
2.152577027791743
 22
4.932515610419109
 32
0.0
 13
2.152577027791743
 23
4.932515610419109
 33
0.0
  0
SOLID
  5
2F74
330
26D9
100
AcDbEntity
  8
DIM
 62
     0
100
AcDbTrace
 10
4.830577027791743
 20
4.962515610419109
 30
0.0
 11
4.830577027791743
 21
4.902515610419109
 31
0.0
 12
5.010577027791743
 22
4.932515610419109
 32
0.0
 13
5.010577027791743
 23
4.932515610419109
 33
0.0
  0
MTEXT
  5
2F75
330
26D9
100
AcDbEntity
  8
DIM
 62
     0
100
AcDbMText
 10
3.581577027791744
 20
4.932515610419109
 30
0.0
 40
0.125
 41
0.0
 71
     5
 72
     1
  1
\A1;2.858
  7
TXT
 73
     1
 44
1.0
  0
POINT
  5
2F76
330
26D9
100
AcDbEntity
  8
Defpoints
 62
     0
100
AcDbPoint
 10
2.152577027791743
 20
3.898898377923969
 30
0.0
  0
POINT
  5
2F77
330
26D9
100
AcDbEntity
  8
Defpoints
 62
     0
100
AcDbPoint
 10
5.010577027791743
 20
3.898898377923969
 30
0.0
  0
POINT
  5
2F78
330
26D9
100
AcDbEntity
  8
Defpoints
 62
     0
100
AcDbPoint
 10
5.010577027791743
 20
4.932515610419109
 30
0.0
  0
ENDBLK
  5
26E5
330
26D9
100
AcDbEntity
  8
0
100
AcDbBlockEnd
  0
BLOCK
  5
26F1
330
26E6
100
AcDbEntity
  8
0
100
AcDbBlockBegin
  2
*D13
 70
     1
 10
0.0
 20
0.0
 30
0.0
  3
*D13
  1

  0
LINE
  5
2F79
330
26E6
100
AcDbEntity
  8
DIM
 62
     0
370
    -2
100
AcDbLine
 10
1.987577027791743
 20
3.961898377923969
 30
0.0
 11
1.987577027791743
 21
5.304622463239802
 31
0.0
  0
LINE
  5
2F7A
330
26E6
100
AcDbEntity
  8
DIM
 62
     0
370
    -2
100
AcDbLine
 10
5.175577027791742
 20
3.961898377923969
 30
0.0
 11
5.175577027791742
 21
5.304622463239802
 31
0.0
  0
LINE
  5
2F7B
330
26E6
100
AcDbEntity
  8
DIM
 62
     0
370
    -2
100
AcDbLine
 10
2.167577027791744
 20
5.211622463239802
 30
0.0
 11
3.319702027791743
 21
5.211622463239802
 31
0.0
  0
LINE
  5
2F7C
330
26E6
100
AcDbEntity
  8
DIM
 62
     0
370
    -2
100
AcDbLine
 10
4.995577027791743
 20
5.211622463239802
 30
0.0
 11
3.843452027791743
 21
5.211622463239802
 31
0.0
  0
SOLID
  5
2F7D
330
26E6
100
AcDbEntity
  8
DIM
 62
     0
100
AcDbTrace
 10
2.167577027791744
 20
5.241622463239802
 30
0.0
 11
2.167577027791744
 21
5.181622463239802
 31
0.0
 12
1.987577027791743
 22
5.211622463239802
 32
0.0
 13
1.987577027791743
 23
5.211622463239802
 33
0.0
  0
SOLID
  5
2F7E
330
26E6
100
AcDbEntity
  8
DIM
 62
     0
100
AcDbTrace
 10
4.995577027791743
 20
5.241622463239802
 30
0.0
 11
4.995577027791743
 21
5.181622463239802
 31
0.0
 12
5.175577027791742
 22
5.211622463239802
 32
0.0
 13
5.175577027791742
 23
5.211622463239802
 33
0.0
  0
MTEXT
  5
2F7F
330
26E6
100
AcDbEntity
  8
DIM
 62
     0
100
AcDbMText
 10
3.581577027791743
 20
5.211622463239802
 30
0.0
 40
0.125
 41
0.0
 71
     5
 72
     1
  1
\A1;3.188
  7
TXT
 73
     1
 44
1.0
  0
POINT
  5
2F80
330
26E6
100
AcDbEntity
  8
Defpoints
 62
     0
100
AcDbPoint
 10
1.987577027791743
 20
3.898898377923969
 30
0.0
  0
POINT
  5
2F81
330
26E6
100
AcDbEntity
  8
Defpoints
 62
     0
100
AcDbPoint
 10
5.175577027791742
 20
3.898898377923969
 30
0.0
  0
POINT
  5
2F82
330
26E6
100
AcDbEntity
  8
Defpoints
 62
     0
100
AcDbPoint
 10
5.175577027791742
 20
5.211622463239802
 30
0.0
  0
ENDBLK
  5
26F2
330
26E6
100
AcDbEntity
  8
0
100
AcDbBlockEnd
  0
BLOCK
  5
26FE
330
26F3
100
AcDbEntity
  8
0
100
AcDbBlockBegin
  2
*D14
 70
     1
 10
0.0
 20
0.0
 30
0.0
  3
*D14
  1

  0
LINE
  5
2F98
330
26F3
100
AcDbEntity
  8
DIM
 62
     0
370
    -2
100
AcDbLine
 10
4.862577027791744
 20
4.648898377923969
 30
0.0
 11
5.724442481494346
 21
4.648898377923969
 31
0.0
  0
LINE
  5
2F99
330
26F3
100
AcDbEntity
  8
DIM
 62
     0
370
    -2
100
AcDbLine
 10
4.862577027791744
 20
3.148898377923969
 30
0.0
 11
5.724442481494346
 21
3.148898377923968
 31
0.0
  0
LINE
  5
2F9A
330
26F3
100
AcDbEntity
  8
DIM
 62
     0
370
    -2
100
AcDbLine
 10
5.631442481494346
 20
4.468898377923969
 30
0.0
 11
5.631442481494346
 21
4.05139837792397
 31
0.0
  0
LINE
  5
2F9B
330
26F3
100
AcDbEntity
  8
DIM
 62
     0
370
    -2
100
AcDbLine
 10
5.631442481494346
 20
3.328898377923969
 30
0.0
 11
5.631442481494346
 21
3.746398377923969
 31
0.0
  0
SOLID
  5
2F9C
330
26F3
100
AcDbEntity
  8
DIM
 62
     0
100
AcDbTrace
 10
5.601442481494346
 20
4.468898377923969
 30
0.0
 11
5.661442481494346
 21
4.468898377923969
 31
0.0
 12
5.631442481494346
 22
4.648898377923969
 32
0.0
 13
5.631442481494346
 23
4.648898377923969
 33
0.0
  0
SOLID
  5
2F9D
330
26F3
100
AcDbEntity
  8
DIM
 62
     0
100
AcDbTrace
 10
5.601442481494346
 20
3.328898377923969
 30
0.0
 11
5.661442481494346
 21
3.328898377923969
 31
0.0
 12
5.631442481494346
 22
3.148898377923968
 32
0.0
 13
5.631442481494346
 23
3.148898377923968
 33
0.0
  0
MTEXT
  5
2F9E
330
26F3
100
AcDbEntity
  8
DIM
 62
     0
100
AcDbMText
 10
5.631442481494345
 20
3.89889837792397
 30
0.0
 40
0.125
 41
0.0
 71
     5
 72
     1
  1
\A1;1.500
  7
TXT
 73
     1
 44
1.0
  0
POINT
  5
2F9F
330
26F3
100
AcDbEntity
  8
Defpoints
 62
     0
100
AcDbPoint
 10
4.799577027791745
 20
4.648898377923969
 30
0.0
  0
POINT
  5
2FA0
330
26F3
100
AcDbEntity
  8
Defpoints
 62
     0
100
AcDbPoint
 10
4.799577027791745
 20
3.148898377923969
 30
0.0
  0
POINT
  5
2FA1
330
26F3
100
AcDbEntity
  8
Defpoints
 62
     0
100
AcDbPoint
 10
5.631442481494346
 20
3.148898377923968
 30
0.0
  0
ENDBLK
  5
26FF
330
26F3
100
AcDbEntity
  8
0
100
AcDbBlockEnd
  0
BLOCK
  5
270B
330
2700
100
AcDbEntity
  8
0
100
AcDbBlockBegin
  2
*D15
 70
     1
 10
0.0
 20
0.0
 30
0.0
  3
*D15
  1

  0
LINE
  5
2F83
330
2700
100
AcDbEntity
  8
DIM
 62
     0
370
    -2
100
AcDbLine
 10
4.861577027791744
 20
3.147898377923969
 30
0.0
 11
4.861577027791744
 21
2.813557978758076
 31
0.0
  0
LINE
  5
2F84
330
2700
100
AcDbEntity
  8
DIM
 62
     0
370
    -2
100
AcDbLine
 10
2.301577027791744
 20
3.147898377923969
 30
0.0
 11
2.301577027791744
 21
2.813557978758076
 31
0.0
  0
LINE
  5
2F85
330
2700
100
AcDbEntity
  8
DIM
 62
     0
370
    -2
100
AcDbLine
 10
4.681577027791744
 20
2.906557978758076
 30
0.0
 11
3.851264527791744
 21
2.906557978758076
 31
0.0
  0
LINE
  5
2F86
330
2700
100
AcDbEntity
  8
DIM
 62
     0
370
    -2
100
AcDbLine
 10
2.481577027791744
 20
2.906557978758076
 30
0.0
 11
3.311889527791744
 21
2.906557978758076
 31
0.0
  0
SOLID
  5
2F87
330
2700
100
AcDbEntity
  8
DIM
 62
     0
100
AcDbTrace
 10
4.681577027791744
 20
2.936557978758076
 30
0.0
 11
4.681577027791744
 21
2.876557978758076
 31
0.0
 12
4.861577027791744
 22
2.906557978758076
 32
0.0
 13
4.861577027791744
 23
2.906557978758076
 33
0.0
  0
SOLID
  5
2F88
330
2700
100
AcDbEntity
  8
DIM
 62
     0
100
AcDbTrace
 10
2.481577027791744
 20
2.936557978758076
 30
0.0
 11
2.481577027791744
 21
2.876557978758076
 31
0.0
 12
2.301577027791744
 22
2.906557978758076
 32
0.0
 13
2.301577027791744
 23
2.906557978758076
 33
0.0
  0
MTEXT
  5
2F89
330
2700
100
AcDbEntity
  8
DIM
 62
     0
100
AcDbMText
 10
3.581577027791744
 20
2.906557978758076
 30
0.0
 40
0.125
 41
0.0
 71
     5
 72
     1
  1
\A1;2.560
  7
TXT
 73
     1
 44
1.0
  0
POINT
  5
2F8A
330
2700
100
AcDbEntity
  8
Defpoints
 62
     0
100
AcDbPoint
 10
4.861577027791744
 20
3.210898377923969
 30
0.0
  0
POINT
  5
2F8B
330
2700
100
AcDbEntity
  8
Defpoints
 62
     0
100
AcDbPoint
 10
2.301577027791744
 20
3.210898377923969
 30
0.0
  0
POINT
  5
2F8C
330
2700
100
AcDbEntity
  8
Defpoints
 62
     0
100
AcDbPoint
 10
2.301577027791744
 20
2.906557978758076
 30
0.0
  0
ENDBLK
  5
270C
330
2700
100
AcDbEntity
  8
0
100
AcDbBlockEnd
  0
BLOCK
  5
275A
330
274E
100
AcDbEntity
  8
0
100
AcDbBlockBegin
  2
*D16
 70
     1
 10
0.0
 20
0.0
 30
0.0
  3
*D16
  1

  0
LINE
  5
2F8D
330
274E
100
AcDbEntity
  8
DIM
 62
     0
370
    -2
100
AcDbLine
 10
5.238577027791746
 20
2.452611042947894
 30
0.0
 11
5.584633490113102
 21
2.452611042947894
 31
0.0
  0
LINE
  5
2F8E
330
274E
100
AcDbEntity
  8
DIM
 62
     0
370
    -2
100
AcDbLine
 10
5.176577027791746
 20
2.514611042947894
 30
0.0
 11
5.584633490113102
 21
2.514611042947894
 31
0.0
  0
LINE
  5
2F8F
330
274E
100
AcDbEntity
  8
DIM
 62
     0
370
    -2
100
AcDbLine
 10
5.491633490113102
 20
2.272611042947894
 30
0.0
 11
5.491633490113102
 21
2.092611042947894
 31
0.0
  0
LINE
  5
2F90
330
274E
100
AcDbEntity
  8
DIM
 62
     0
370
    -2
100
AcDbLine
 10
5.491633490113102
 20
2.694611042947894
 30
0.0
 11
5.491633490113102
 21
2.874611042947894
 31
0.0
  0
LINE
  5
2F91
330
274E
100
AcDbEntity
  8
DIM
 62
     0
370
    -2
100
AcDbLine
 10
5.491633490113102
 20
2.874611042947894
 30
0.0
 11
5.671633490113102
 21
2.874611042947894
 31
0.0
  0
SOLID
  5
2F92
330
274E
100
AcDbEntity
  8
DIM
 62
     0
100
AcDbTrace
 10
5.461633490113102
 20
2.272611042947894
 30
0.0
 11
5.521633490113102
 21
2.272611042947894
 31
0.0
 12
5.491633490113102
 22
2.452611042947894
 32
0.0
 13
5.491633490113102
 23
2.452611042947894
 33
0.0
  0
SOLID
  5
2F93
330
274E
100
AcDbEntity
  8
DIM
 62
     0
100
AcDbTrace
 10
5.461633490113102
 20
2.694611042947894
 30
0.0
 11
5.521633490113102
 21
2.694611042947894
 31
0.0
 12
5.491633490113102
 22
2.514611042947894
 32
0.0
 13
5.491633490113102
 23
2.514611042947894
 33
0.0
  0
MTEXT
  5
2F94
330
274E
100
AcDbEntity
  8
DIM
 62
     0
100
AcDbMText
 10
5.9335084901131
 20
2.874611042947895
 30
0.0
 40
0.125
 41
0.0
 71
     5
 72
     1
  1
\A1;0.062
  7
TXT
 73
     1
 44
1.0
  0
POINT
  5
2F95
330
274E
100
AcDbEntity
  8
Defpoints
 62
     0
100
AcDbPoint
 10
5.175577027791747
 20
2.452611042947894
 30
0.0
  0
POINT
  5
2F96
330
274E
100
AcDbEntity
  8
Defpoints
 62
     0
100
AcDbPoint
 10
5.113577027791746
 20
2.514611042947894
 30
0.0
  0
POINT
  5
2F97
330
274E
100
AcDbEntity
  8
Defpoints
 62
     0
100
AcDbPoint
 10
5.491633490113102
 20
2.514611042947894
 30
0.0
  0
ENDBLK
  5
275B
330
274E
100
AcDbEntity
  8
0
100
AcDbBlockEnd
  0
BLOCK
  5
2768
330
275D
100
AcDbEntity
  8
0
100
AcDbBlockBegin
  2
*D17
 70
     1
 10
0.0
 20
0.0
 30
0.0
  3
*D17
  1

  0
LINE
  5
2F43
330
275D
100
AcDbEntity
  8
DIM
 62
     0
370
    -2
100
AcDbLine
 10
8.551222691086978
 20
4.648898377923969
 30
0.0
 11
7.845259951863201
 21
4.648898377923969
 31
0.0
  0
LINE
  5
2F44
330
275D
100
AcDbEntity
  8
DIM
 62
     0
370
    -2
100
AcDbLine
 10
8.340222691086976
 20
3.898898377923969
 30
0.0
 11
7.845259951863201
 21
3.898898377923969
 31
0.0
  0
LINE
  5
2F45
330
275D
100
AcDbEntity
  8
DIM
 62
     0
370
    -2
100
AcDbLine
 10
7.938259951863201
 20
4.828898377923969
 30
0.0
 11
7.938259951863201
 21
5.008898377923969
 31
0.0
  0
LINE
  5
2F46
330
275D
100
AcDbEntity
  8
DIM
 62
     0
370
    -2
100
AcDbLine
 10
7.938259951863201
 20
3.718898377923969
 30
0.0
 11
7.938259951863201
 21
3.538898377923969
 31
0.0
  0
SOLID
  5
2F47
330
275D
100
AcDbEntity
  8
DIM
 62
     0
100
AcDbTrace
 10
7.9082599518632
 20
4.828898377923969
 30
0.0
 11
7.968259951863201
 21
4.828898377923969
 31
0.0
 12
7.938259951863201
 22
4.648898377923969
 32
0.0
 13
7.938259951863201
 23
4.648898377923969
 33
0.0
  0
SOLID
  5
2F48
330
275D
100
AcDbEntity
  8
DIM
 62
     0
100
AcDbTrace
 10
7.9082599518632
 20
3.718898377923969
 30
0.0
 11
7.968259951863201
 21
3.718898377923969
 31
0.0
 12
7.938259951863201
 22
3.898898377923969
 32
0.0
 13
7.938259951863201
 23
3.898898377923969
 33
0.0
  0
MTEXT
  5
2F49
330
275D
100
AcDbEntity
  8
DIM
 62
     0
100
AcDbMText
 10
7.9382599518632
 20
4.27389837792397
 30
0.0
 40
0.125
 41
0.0
 71
     5
 72
     1
  1
\A1;0.750
  7
TXT
 73
     1
 44
1.0
  0
POINT
  5
2F4A
330
275D
100
AcDbEntity
  8
Defpoints
 62
     0
100
AcDbPoint
 10
8.614222691086979
 20
4.648898377923969
 30
0.0
  0
POINT
  5
2F4B
330
275D
100
AcDbEntity
  8
Defpoints
 62
     0
100
AcDbPoint
 10
8.403222691086977
 20
3.898898377923969
 30
0.0
  0
POINT
  5
2F4C
330
275D
100
AcDbEntity
  8
Defpoints
 62
     0
100
AcDbPoint
 10
7.938259951863201
 20
3.898898377923969
 30
0.0
  0
ENDBLK
  5
2769
330
275D
100
AcDbEntity
  8
0
100
AcDbBlockEnd
  0
BLOCK
  5
28EB
330
28E0
100
AcDbEntity
  8
0
100
AcDbBlockBegin
  2
*D18
 70
     1
 10
0.0
 20
0.0
 30
0.0
  3
*D18
  1

  0
LINE
  5
2F65
330
28E0
100
AcDbEntity
  8
DIM
 62
     0
370
    -2
100
AcDbLine
 10
2.300577027791744
 20
4.648898377923969
 30
0.0
 11
1.594614288567967
 21
4.64889837792397
 31
0.0
  0
LINE
  5
2F66
330
28E0
100
AcDbEntity
  8
DIM
 62
     0
370
    -2
100
AcDbLine
 10
2.089577027791742
 20
3.898898377923969
 30
0.0
 11
1.594614288567966
 21
3.898898377923969
 31
0.0
  0
LINE
  5
2F67
330
28E0
100
AcDbEntity
  8
DIM
 62
     0
370
    -2
100
AcDbLine
 10
1.687614288567966
 20
4.82889837792397
 30
0.0
 11
1.687614288567966
 21
5.00889837792397
 31
0.0
  0
LINE
  5
2F68
330
28E0
100
AcDbEntity
  8
DIM
 62
     0
370
    -2
100
AcDbLine
 10
1.687614288567966
 20
3.718898377923969
 30
0.0
 11
1.687614288567966
 21
3.538898377923969
 31
0.0
  0
SOLID
  5
2F69
330
28E0
100
AcDbEntity
  8
DIM
 62
     0
100
AcDbTrace
 10
1.657614288567966
 20
4.82889837792397
 30
0.0
 11
1.717614288567967
 21
4.82889837792397
 31
0.0
 12
1.687614288567966
 22
4.64889837792397
 32
0.0
 13
1.687614288567966
 23
4.64889837792397
 33
0.0
  0
SOLID
  5
2F6A
330
28E0
100
AcDbEntity
  8
DIM
 62
     0
100
AcDbTrace
 10
1.657614288567966
 20
3.718898377923969
 30
0.0
 11
1.717614288567966
 21
3.718898377923969
 31
0.0
 12
1.687614288567966
 22
3.898898377923969
 32
0.0
 13
1.687614288567966
 23
3.898898377923969
 33
0.0
  0
MTEXT
  5
2F6B
330
28E0
100
AcDbEntity
  8
DIM
 62
     0
100
AcDbMText
 10
1.687614288567966
 20
4.27389837792397
 30
0.0
 40
0.125
 41
0.0
 71
     5
 72
     1
  1
\A1;0.750
  7
TXT
 73
     1
 44
1.0
  0
POINT
  5
2F6C
330
28E0
100
AcDbEntity
  8
Defpoints
 62
     0
100
AcDbPoint
 10
2.363577027791745
 20
4.648898377923969
 30
0.0
  0
POINT
  5
2F6D
330
28E0
100
AcDbEntity
  8
Defpoints
 62
     0
100
AcDbPoint
 10
2.152577027791743
 20
3.898898377923969
 30
0.0
  0
POINT
  5
2F6E
330
28E0
100
AcDbEntity
  8
Defpoints
 62
     0
100
AcDbPoint
 10
1.687614288567966
 20
3.898898377923969
 30
0.0
  0
ENDBLK
  5
28EC
330
28E0
100
AcDbEntity
  8
0
100
AcDbBlockEnd
  0
BLOCK
  5
29BD
330
29B1
100
AcDbEntity
  8
0
100
AcDbBlockBegin
  2
*D19
 70
     1
 10
0.0
 20
0.0
 30
0.0
  3
*D19
  1

  0
LINE
  5
317B
330
29B1
100
AcDbEntity
  8
DIM
 62
     0
370
    -2
100
AcDbLine
 10
13.41478119797844
 20
3.608898377923972
 30
0.0
 11
13.0525182859035
 21
3.608898377923972
 31
0.0
  0
LINE
  5
317C
330
29B1
100
AcDbEntity
  8
DIM
 62
     0
370
    -2
100
AcDbLine
 10
13.41478119797844
 20
3.398898377923972
 30
0.0
 11
13.0525182859035
 21
3.398898377923972
 31
0.0
  0
LINE
  5
317D
330
29B1
100
AcDbEntity
  8
DIM
 62
     0
370
    -2
100
AcDbLine
 10
13.1455182859035
 20
3.788898377923972
 30
0.0
 11
13.1455182859035
 21
3.968898377923972
 31
0.0
  0
LINE
  5
317E
330
29B1
100
AcDbEntity
  8
DIM
 62
     0
370
    -2
100
AcDbLine
 10
13.1455182859035
 20
3.218898377923971
 30
0.0
 11
13.1455182859035
 21
3.038898377923972
 31
0.0
  0
SOLID
  5
317F
330
29B1
100
AcDbEntity
  8
DIM
 62
     0
100
AcDbTrace
 10
13.1155182859035
 20
3.788898377923972
 30
0.0
 11
13.1755182859035
 21
3.788898377923972
 31
0.0
 12
13.1455182859035
 22
3.608898377923972
 32
0.0
 13
13.1455182859035
 23
3.608898377923972
 33
0.0
  0
SOLID
  5
3180
330
29B1
100
AcDbEntity
  8
DIM
 62
     0
100
AcDbTrace
 10
13.1155182859035
 20
3.218898377923971
 30
0.0
 11
13.1755182859035
 21
3.218898377923971
 31
0.0
 12
13.1455182859035
 22
3.398898377923972
 32
0.0
 13
13.1455182859035
 23
3.398898377923972
 33
0.0
  0
MTEXT
  5
3181
330
29B1
100
AcDbEntity
  8
DIM
 62
     0
100
AcDbMText
 10
13.1455182859035
 20
3.503898377923974
 30
0.0
 40
0.125
 41
0.0
 71
     5
 72
     1
  1
\A1;0.210
  7
TXT
 73
     1
 44
1.0
  0
POINT
  5
3182
330
29B1
100
AcDbEntity
  8
Defpoints
 62
     0
100
AcDbPoint
 10
13.47778119797844
 20
3.608898377923972
 30
0.0
  0
POINT
  5
3183
330
29B1
100
AcDbEntity
  8
Defpoints
 62
     0
100
AcDbPoint
 10
13.47778119797844
 20
3.398898377923972
 30
0.0
  0
POINT
  5
3184
330
29B1
100
AcDbEntity
  8
Defpoints
 62
     0
100
AcDbPoint
 10
13.1455182859035
 20
3.398898377923972
 30
0.0
  0
ENDBLK
  5
29BE
330
29B1
100
AcDbEntity
  8
0
100
AcDbBlockEnd
  0
BLOCK
  5
29CB
330
29C0
100
AcDbEntity
  8
0
100
AcDbBlockBegin
  2
*D20
 70
     1
 10
0.0
 20
0.0
 30
0.0
  3
*D20
  1

  0
LINE
  5
318F
330
29C0
100
AcDbEntity
  8
DIM
 62
     0
370
    -2
100
AcDbLine
 10
13.58978119797844
 20
3.335898377923971
 30
0.0
 11
13.58978119797844
 21
2.78943415378017
 31
0.0
  0
LINE
  5
3190
330
29C0
100
AcDbEntity
  8
DIM
 62
     0
370
    -2
100
AcDbLine
 10
13.47778119797844
 20
3.085898377923969
 30
0.0
 11
13.47778119797844
 21
2.78943415378017
 31
0.0
  0
LINE
  5
3191
330
29C0
100
AcDbEntity
  8
DIM
 62
     0
370
    -2
100
AcDbLine
 10
13.76978119797844
 20
2.88243415378017
 30
0.0
 11
13.94978119797844
 21
2.88243415378017
 31
0.0
  0
LINE
  5
3192
330
29C0
100
AcDbEntity
  8
DIM
 62
     0
370
    -2
100
AcDbLine
 10
13.29778119797844
 20
2.88243415378017
 30
0.0
 11
13.11778119797844
 21
2.88243415378017
 31
0.0
  0
SOLID
  5
3193
330
29C0
100
AcDbEntity
  8
DIM
 62
     0
100
AcDbTrace
 10
13.76978119797844
 20
2.91243415378017
 30
0.0
 11
13.76978119797844
 21
2.852434153780171
 31
0.0
 12
13.58978119797844
 22
2.88243415378017
 32
0.0
 13
13.58978119797844
 23
2.88243415378017
 33
0.0
  0
SOLID
  5
3194
330
29C0
100
AcDbEntity
  8
DIM
 62
     0
100
AcDbTrace
 10
13.29778119797844
 20
2.91243415378017
 30
0.0
 11
13.29778119797844
 21
2.852434153780171
 31
0.0
 12
13.47778119797844
 22
2.88243415378017
 32
0.0
 13
13.47778119797844
 23
2.88243415378017
 33
0.0
  0
MTEXT
  5
3195
330
29C0
100
AcDbEntity
  8
DIM
 62
     0
100
AcDbMText
 10
12.87934369797844
 20
2.88243415378017
 30
0.0
 40
0.125
 41
0.0
 71
     5
 72
     1
  1
\A1;0.112
  7
TXT
 73
     1
 44
1.0
  0
POINT
  5
3196
330
29C0
100
AcDbEntity
  8
Defpoints
 62
     0
100
AcDbPoint
 10
13.58978119797844
 20
3.398898377923972
 30
0.0
  0
POINT
  5
3197
330
29C0
100
AcDbEntity
  8
Defpoints
 62
     0
100
AcDbPoint
 10
13.47778119797844
 20
3.148898377923969
 30
0.0
  0
POINT
  5
3198
330
29C0
100
AcDbEntity
  8
Defpoints
 62
     0
100
AcDbPoint
 10
13.47778119797844
 20
2.88243415378017
 30
0.0
  0
ENDBLK
  5
29CC
330
29C0
100
AcDbEntity
  8
0
100
AcDbBlockEnd
  0
BLOCK
  5
2A49
330
2A3A
100
AcDbEntity
  8
0
100
AcDbBlockBegin
  2
*D21
 70
     1
 10
0.0
 20
0.0
 30
0.0
  3
*D21
  1

  0
LINE
  5
315D
330
2A3A
100
AcDbEntity
  8
DIM
 62
     0
370
    -2
100
AcDbLine
 10
8.552222691086978
 20
2.276769045044313
 30
0.0
 11
8.552222691086981
 21
0.9905146461836002
 31
0.0
  0
LINE
  5
315E
330
2A3A
100
AcDbEntity
  8
DIM
 62
     0
370
    -2
100
AcDbLine
 10
8.56943464979537
 20
1.375825923930005
 30
0.0
 11
8.576156637354788
 21
0.9907235145683904
 31
0.0
  0
ARC
  5
315F
330
2A3A
100
AcDbEntity
  8
DIM
 62
     0
370
    -2
100
AcDbCircle
 10
8.552222691086978
 20
2.361898377923969
 30
0.0
 40
1.278383731740369
100
AcDbArc
 50
253.8113938564934
 51
270.0000000000001
  0
LINE
  5
3160
330
2A3A
100
AcDbEntity
  8
DIM
 62
     0
370
    -2
100
AcDbLine
 10
8.195809132531531
 20
1.134203651676326
 30
0.0
 11
8.015809132531529
 21
1.134203651676326
 31
0.0
  0
ARC
  5
3161
330
2A3A
100
AcDbEntity
  8
DIM
 62
     0
370
    -2
100
AcDbCircle
 10
8.552222691086978
 20
2.36189837792397
 30
0.0
 40
1.278383731740369
100
AcDbArc
 50
253.8518303025126
 51
261.9259151512563
  0
ARC
  5
3162
330
2A3A
100
AcDbEntity
  8
DIM
 62
     0
370
    -2
100
AcDbCircle
 10
8.552222691086978
 20
2.36189837792397
 30
0.0
 40
1.278383731740369
100
AcDbArc
 50
279.0740848487437
 51
287.1481696974873
  0
SOLID
  5
3163
330
2A3A
100
AcDbEntity
  8
DIM
 62
     0
100
AcDbTrace
 10
8.374781359176461
 20
1.126112459857789
 30
0.0
 11
8.370557275385401
 21
1.066261335255773
 31
0.0
 12
8.55222269108698
 22
1.0835146461836
 32
0.0
 13
8.55222269108698
 23
1.0835146461836
 33
0.0
  0
SOLID
  5
3164
330
2A3A
100
AcDbEntity
  8
DIM
 62
     0
100
AcDbTrace
 10
8.756472422529675
 20
1.069629165723352
 30
0.0
 11
8.75120443593475
 21
1.12939745428205
 31
0.0
 12
8.574533563556121
 22
1.083709350217934
 32
0.0
 13
8.574533563556121
 23
1.083709350217934
 33
0.0
  0
MTEXT
  5
3165
330
2A3A
100
AcDbEntity
  8
DIM
 62
     0
100
AcDbMText
 10
7.67580913253153
 20
1.134203651676326
 30
0.0
 40
0.125
 41
0.0
 71
     5
 72
     1
  1
\A1;1° TYP.
  7
TXT
 73
     1
 44
1.0
  0
POINT
  5
3166
330
2A3A
100
AcDbEntity
  8
Defpoints
 62
     0
100
AcDbPoint
 10
8.56709702560196
 20
1.08360118253036
 30
0.0
  0
POINT
  5
3167
330
2A3A
100
AcDbEntity
  8
Defpoints
 62
     0
100
AcDbPoint
 10
8.552222691086978
 20
2.361898377923969
 30
0.0
  0
POINT
  5
3168
330
2A3A
100
AcDbEntity
  8
Defpoints
 62
     0
100
AcDbPoint
 10
8.552222691086978
 20
2.361898377923969
 30
0.0
  0
POINT
  5
3169
330
2A3A
100
AcDbEntity
  8
Defpoints
 62
     0
100
AcDbPoint
 10
8.552222691086978
 20
2.339769045044313
 30
0.0
  0
POINT
  5
316A
330
2A3A
100
AcDbEntity
  8
Defpoints
 62
     0
100
AcDbPoint
 10
8.568335148189822
 20
1.438816328724858
 30
0.0
  0
ENDBLK
  5
2A4A
330
2A3A
100
AcDbEntity
  8
0
100
AcDbBlockEnd
  0
BLOCK
  5
2D78
330
2D6D
100
AcDbEntity
  8
0
100
AcDbBlockBegin
  2
*D22
 70
     1
 10
0.0
 20
0.0
 30
0.0
  3
*D22
  1

  0
LINE
  5
2E8E
330
2D6D
100
AcDbEntity
  8
DIM
 62
     0
370
    -2
100
AcDbLine
 10
11.11322269108698
 20
8.755122372351355
 30
0.0
 11
11.97508814478958
 21
8.755122372351355
 31
0.0
  0
LINE
  5
2E8F
330
2D6D
100
AcDbEntity
  8
DIM
 62
     0
370
    -2
100
AcDbLine
 10
11.11322269108698
 20
7.255122372351355
 30
0.0
 11
11.97508814478958
 21
7.255122372351355
 31
0.0
  0
LINE
  5
2E90
330
2D6D
100
AcDbEntity
  8
DIM
 62
     0
370
    -2
100
AcDbLine
 10
11.88208814478958
 20
8.575122372351355
 30
0.0
 11
11.88208814478958
 21
8.157622372351353
 31
0.0
  0
LINE
  5
2E91
330
2D6D
100
AcDbEntity
  8
DIM
 62
     0
370
    -2
100
AcDbLine
 10
11.88208814478958
 20
7.435122372351354
 30
0.0
 11
11.88208814478958
 21
7.852622372351352
 31
0.0
  0
SOLID
  5
2E92
330
2D6D
100
AcDbEntity
  8
DIM
 62
     0
100
AcDbTrace
 10
11.85208814478958
 20
8.575122372351355
 30
0.0
 11
11.91208814478958
 21
8.575122372351355
 31
0.0
 12
11.88208814478958
 22
8.755122372351355
 32
0.0
 13
11.88208814478958
 23
8.755122372351355
 33
0.0
  0
SOLID
  5
2E93
330
2D6D
100
AcDbEntity
  8
DIM
 62
     0
100
AcDbTrace
 10
11.85208814478958
 20
7.435122372351354
 30
0.0
 11
11.91208814478958
 21
7.435122372351354
 31
0.0
 12
11.88208814478958
 22
7.255122372351355
 32
0.0
 13
11.88208814478958
 23
7.255122372351355
 33
0.0
  0
MTEXT
  5
2E94
330
2D6D
100
AcDbEntity
  8
DIM
 62
     0
100
AcDbMText
 10
11.88208814478958
 20
8.005122372351355
 30
0.0
 40
0.125
 41
0.0
 71
     5
 72
     1
  1
\A1;1.500
  7
TXT
 73
     1
 44
1.0
  0
POINT
  5
2E95
330
2D6D
100
AcDbEntity
  8
Defpoints
 62
     0
100
AcDbPoint
 10
11.05022269108697
 20
8.755122372351355
 30
0.0
  0
POINT
  5
2E96
330
2D6D
100
AcDbEntity
  8
Defpoints
 62
     0
100
AcDbPoint
 10
11.05022269108697
 20
7.255122372351355
 30
0.0
  0
POINT
  5
2E97
330
2D6D
100
AcDbEntity
  8
Defpoints
 62
     0
100
AcDbPoint
 10
11.88208814478958
 20
7.255122372351355
 30
0.0
  0
ENDBLK
  5
2D79
330
2D6D
100
AcDbEntity
  8
0
100
AcDbBlockEnd
  0
BLOCK
  5
2D85
330
2D7A
100
AcDbEntity
  8
0
100
AcDbBlockBegin
  2
*D23
 70
     1
 10
0.0
 20
0.0
 30
0.0
  3
*D23
  1

  0
LINE
  5
2E98
330
2D7A
100
AcDbEntity
  8
DIM
 62
     0
370
    -2
100
AcDbLine
 10
11.11222269108697
 20
7.254122372351355
 30
0.0
 11
11.11222269108697
 21
6.919781973185462
 31
0.0
  0
LINE
  5
2E99
330
2D7A
100
AcDbEntity
  8
DIM
 62
     0
370
    -2
100
AcDbLine
 10
8.552222691086978
 20
7.254122372351355
 30
0.0
 11
8.552222691086978
 21
6.919781973185462
 31
0.0
  0
LINE
  5
2E9A
330
2D7A
100
AcDbEntity
  8
DIM
 62
     0
370
    -2
100
AcDbLine
 10
10.93222269108697
 20
7.012781973185462
 30
0.0
 11
10.10191019108698
 21
7.012781973185462
 31
0.0
  0
LINE
  5
2E9B
330
2D7A
100
AcDbEntity
  8
DIM
 62
     0
370
    -2
100
AcDbLine
 10
8.732222691086978
 20
7.012781973185462
 30
0.0
 11
9.562535191086979
 21
7.012781973185462
 31
0.0
  0
SOLID
  5
2E9C
330
2D7A
100
AcDbEntity
  8
DIM
 62
     0
100
AcDbTrace
 10
10.93222269108697
 20
7.042781973185462
 30
0.0
 11
10.93222269108697
 21
6.982781973185462
 31
0.0
 12
11.11222269108697
 22
7.012781973185462
 32
0.0
 13
11.11222269108697
 23
7.012781973185462
 33
0.0
  0
SOLID
  5
2E9D
330
2D7A
100
AcDbEntity
  8
DIM
 62
     0
100
AcDbTrace
 10
8.732222691086978
 20
7.042781973185462
 30
0.0
 11
8.732222691086978
 21
6.982781973185462
 31
0.0
 12
8.552222691086978
 22
7.012781973185462
 32
0.0
 13
8.552222691086978
 23
7.012781973185462
 33
0.0
  0
MTEXT
  5
2E9E
330
2D7A
100
AcDbEntity
  8
DIM
 62
     0
100
AcDbMText
 10
9.832222691086979
 20
7.012781973185462
 30
0.0
 40
0.125
 41
0.0
 71
     5
 72
     1
  1
\A1;2.560
  7
TXT
 73
     1
 44
1.0
  0
POINT
  5
2E9F
330
2D7A
100
AcDbEntity
  8
Defpoints
 62
     0
100
AcDbPoint
 10
11.11222269108697
 20
7.317122372351355
 30
0.0
  0
POINT
  5
2EA0
330
2D7A
100
AcDbEntity
  8
Defpoints
 62
     0
100
AcDbPoint
 10
8.552222691086978
 20
7.317122372351355
 30
0.0
  0
POINT
  5
2EA1
330
2D7A
100
AcDbEntity
  8
Defpoints
 62
     0
100
AcDbPoint
 10
8.552222691086978
 20
7.012781973185462
 30
0.0
  0
ENDBLK
  5
2D86
330
2D7A
100
AcDbEntity
  8
0
100
AcDbBlockEnd
  0
BLOCK
  5
2EE4
330
2ED9
100
AcDbEntity
  8
0
100
AcDbBlockBegin
  2
*D24
 70
     1
 10
0.0
 20
0.0
 30
0.0
  3
*D24
  1

  0
LINE
  5
3151
330
2ED9
100
AcDbEntity
  8
DIM
 62
     0
370
    -2
100
AcDbLine
 10
11.42722269108698
 20
6.678139349985654
 30
0.0
 11
11.92901593954762
 21
6.678139349985654
 31
0.0
  0
LINE
  5
3152
330
2ED9
100
AcDbEntity
  8
DIM
 62
     0
370
    -2
100
AcDbLine
 10
11.09711967688443
 20
5.632139349985654
 30
0.0
 11
11.92901593954762
 21
5.632139349985654
 31
0.0
  0
LINE
  5
3153
330
2ED9
100
AcDbEntity
  8
DIM
 62
     0
370
    -2
100
AcDbLine
 10
11.83601593954762
 20
6.498139349985654
 30
0.0
 11
11.83601593954762
 21
6.307639349985653
 31
0.0
  0
LINE
  5
3154
330
2ED9
100
AcDbEntity
  8
DIM
 62
     0
370
    -2
100
AcDbLine
 10
11.83601593954762
 20
5.812139349985653
 30
0.0
 11
11.83601593954762
 21
6.002639349985654
 31
0.0
  0
SOLID
  5
3155
330
2ED9
100
AcDbEntity
  8
DIM
 62
     0
100
AcDbTrace
 10
11.80601593954762
 20
6.498139349985654
 30
0.0
 11
11.86601593954762
 21
6.498139349985654
 31
0.0
 12
11.83601593954762
 22
6.678139349985654
 32
0.0
 13
11.83601593954762
 23
6.678139349985654
 33
0.0
  0
SOLID
  5
3156
330
2ED9
100
AcDbEntity
  8
DIM
 62
     0
100
AcDbTrace
 10
11.80601593954762
 20
5.812139349985653
 30
0.0
 11
11.86601593954762
 21
5.812139349985653
 31
0.0
 12
11.83601593954762
 22
5.632139349985654
 32
0.0
 13
11.83601593954762
 23
5.632139349985654
 33
0.0
  0
MTEXT
  5
3157
330
2ED9
100
AcDbEntity
  8
DIM
 62
     0
100
AcDbMText
 10
11.83601593954761
 20
6.155139349985655
 30
0.0
 40
0.125
 41
0.0
 71
     5
 72
     1
  1
\A1;1.046
  7
TXT
 73
     1
 44
1.0
  0
POINT
  5
3158
330
2ED9
100
AcDbEntity
  8
Defpoints
 62
     0
100
AcDbPoint
 10
11.36422269108698
 20
6.678139349985654
 30
0.0
  0
POINT
  5
3159
330
2ED9
100
AcDbEntity
  8
Defpoints
 62
     0
100
AcDbPoint
 10
11.03411967688443
 20
5.632139349985654
 30
0.0
  0
POINT
  5
315A
330
2ED9
100
AcDbEntity
  8
Defpoints
 62
     0
100
AcDbPoint
 10
11.83601593954762
 20
5.632139349985654
 30
0.0
  0
ENDBLK
  5
2EE5
330
2ED9
100
AcDbEntity
  8
0
100
AcDbBlockEnd
  0
ENDSEC
  0
SECTION
  2
ENTITIES
  0
INSERT
  5
81
330
1F
100
AcDbEntity
  8
TITLE
100
AcDbBlockReference
  2
Hbs
 10
0.0
 20
0.0
 30
0.0
  0
LINE
  5
121
330
1F
100
AcDbEntity
  8
OBJECT
100
AcDbLine
 10
10.86217107818375
 20
4.557898377923969
 30
0.0
 11
8.802274303990206
 21
4.557898377923969
 31
0.0
  0
LINE
  5
122
330
1F
100
AcDbEntity
  8
OBJECT
100
AcDbLine
 10
10.86217107818375
 20
3.239898377923969
 30
0.0
 11
8.802274303990206
 21
3.239898377923969
 31
0.0
  0
LINE
  5
125
330
1F
100
AcDbEntity
  8
OBJECT
100
AcDbLine
 10
8.592222691086977
 20
3.188898377923969
 30
0.0
 11
11.07222269108697
 21
3.188898377923969
 31
0.0
  0
LINE
  5
126
330
1F
100
AcDbEntity
  8
OBJECT
100
AcDbLine
 10
11.07222269108697
 20
4.608898377923969
 30
0.0
 11
8.592222691086977
 21
4.608898377923969
 31
0.0
  0
LWPOLYLINE
  5
127
330
1F
100
AcDbEntity
  8
OBJECT
100
AcDbPolyline
 90
       12
 70
     0
 43
0.0
 10
11.11222269108697
 20
4.448898377923966
 10
11.11222269108697
 20
4.586898377923969
 42
0.4142135623730951
 10
11.05022269108697
 20
4.648898377923969
 10
8.614222691086979
 20
4.648898377923969
 42
0.4142135623730951
 10
8.552222691086978
 20
4.586898377923969
 10
8.552222691086978
 20
4.125898377923969
 42
-0.4142135623730951
 10
8.490222691086978
 20
4.063898377923969
 10
8.403222691086977
 20
4.063898377923969
 42
0.9999999999999998
 10
8.403222691086977
 20
3.733898377923969
 10
8.490222691086978
 20
3.733898377923969
 42
-0.4142135623730951
 10
8.552222691086978
 20
3.671898377923969
 10
8.552222691086978
 20
3.658898377923971
  0
LWPOLYLINE
  5
128
330
1F
100
AcDbEntity
  8
OBJECT
100
AcDbPolyline
 90
        6
 70
     0
 43
0.0
 10
8.552222691086978
 20
3.348898377923972
 10
8.552222691086978
 20
3.210898377923969
 42
0.4142135623730951
 10
8.614222691086979
 20
3.148898377923969
 10
11.05022269108697
 20
3.148898377923969
 42
0.4142135623730951
 10
11.11222269108697
 20
3.210898377923969
 10
11.11222269108697
 20
3.348898377923972
  0
LWPOLYLINE
  5
12B
330
1F
100
AcDbEntity
  8
OBJECT
100
AcDbPolyline
 90
        4
 70
     0
 43
0.0
 10
4.666577027791747
 20
2.452611042947894
 10
4.666577027791747
 20
2.432611042947893
 10
2.496577027791745
 20
2.432611042947894
 10
2.496577027791745
 20
2.452611042947895
  0
LWPOLYLINE
  5
12C
330
1F
100
AcDbEntity
  8
OBJECT
100
AcDbPolyline
 90
       32
 70
     1
 43
0.0
 10
4.861577027791746
 20
1.873385558904413
 10
4.861577027791746
 20
2.011385558904415
 42
0.4142135623730951
 10
4.799577027791745
 20
2.073385558904417
 10
2.363577027791746
 20
2.073385558904417
 42
0.4142135623730951
 10
2.301577027791746
 20
2.011385558904415
 10
2.301577027791745
 20
1.873385558904413
 10
2.141577027791745
 20
1.873385558904413
 10
2.141577027791745
 20
1.563385558904412
 10
2.301577027791745
 20
1.563385558904412
 10
2.301577027791745
 20
1.550385558904415
 42
-0.4142135623730951
 10
2.239577027791745
 20
1.488385558904415
 10
2.152577027791745
 20
1.488385558904415
 42
0.9999999999999998
 10
2.152577027791745
 20
1.158385558904415
 10
2.239577027791745
 20
1.158385558904415
 42
-0.4142135623730951
 10
2.301577027791745
 20
1.096385558904414
 10
2.301577027791746
 20
0.6353855589044147
 42
0.4142135623730951
 10
2.363577027791746
 20
0.5733855589044135
 10
4.799577027791745
 20
0.5733855589044135
 42
0.4142135623730951
 10
4.861577027791746
 20
0.6353855589044147
 10
4.861577027791746
 20
0.7733855589044172
 10
5.021577027791746
 20
0.7733855589044172
 10
5.021577027791746
 20
1.083385558904417
 10
4.861577027791745
 20
1.083385558904417
 10
4.861577027791745
 20
1.096385558904414
 42
-0.4142135623730951
 10
4.923577027791745
 20
1.158385558904415
 10
5.010577027791746
 20
1.158385558904415
 42
0.9999999999999998
 10
5.010577027791746
 20
1.488385558904415
 10
4.923577027791745
 20
1.488385558904415
 42
-0.4142135623730951
 10
4.861577027791745
 20
1.550385558904415
 10
4.861577027791746
 20
1.563385558904412
 10
5.021577027791746
 20
1.563385558904412
 10
5.021577027791746
 20
1.873385558904413
  0
LWPOLYLINE
  5
12D
330
1F
100
AcDbEntity
  8
OBJECT
100
AcDbPolyline
 90
        4
 70
     1
 43
0.0
 10
2.525577027791745
 20
0.6233855589044151
 42
-0.9999999999999998
 10
2.525577027791745
 20
0.6813855589044149
 10
4.637577027791746
 20
0.6813855589044149
 42
-0.9999999999999998
 10
4.637577027791746
 20
0.6233855589044151
  0
LWPOLYLINE
  5
12E
330
1F
100
AcDbEntity
  8
OBJECT
100
AcDbPolyline
 90
        4
 70
     1
 43
0.0
 10
2.525577027791745
 20
2.023385558904416
 42
0.9999999999999998
 10
2.525577027791745
 20
1.965385558904415
 10
4.637577027791746
 20
1.965385558904415
 42
0.9999999999999998
 10
4.637577027791746
 20
2.023385558904416
  0
LWPOLYLINE
  5
12F
330
1F
100
AcDbEntity
  8
HIDDEN
100
AcDbPolyline
 90
        4
 70
     1
 43
0.0
 10
2.525577027791745
 20
3.198898377923969
 42
-0.9999999999999998
 10
2.525577027791745
 20
3.256898377923969
 10
4.637577027791746
 20
3.256898377923969
 42
-0.9999999999999998
 10
4.637577027791746
 20
3.198898377923969
  0
LWPOLYLINE
  5
130
330
1F
100
AcDbEntity
  8
HIDDEN
100
AcDbPolyline
 90
        4
 70
     1
 43
0.0
 10
2.525577027791745
 20
4.59889837792397
 42
0.9999999999999998
 10
2.525577027791745
 20
4.540898377923969
 10
4.637577027791746
 20
4.540898377923969
 42
0.9999999999999998
 10
4.637577027791746
 20
4.59889837792397
  0
LWPOLYLINE
  5
131
330
1F
100
AcDbEntity
  8
OBJECT
100
AcDbPolyline
 90
       32
 70
     1
 43
0.0
 10
4.861577027791746
 20
3.348898377923971
 10
4.861577027791746
 20
3.210898377923968
 42
-0.4142135623730951
 10
4.799577027791745
 20
3.148898377923967
 10
2.363577027791746
 20
3.148898377923967
 42
-0.4142135623730951
 10
2.301577027791746
 20
3.210898377923968
 10
2.301577027791745
 20
3.348898377923971
 10
2.141577027791745
 20
3.348898377923971
 10
2.141577027791745
 20
3.658898377923971
 10
2.301577027791745
 20
3.658898377923971
 10
2.301577027791745
 20
3.671898377923969
 42
0.4142135623730951
 10
2.239577027791745
 20
3.733898377923969
 10
2.152577027791745
 20
3.733898377923969
 42
-0.9999999999999998
 10
2.152577027791745
 20
4.063898377923969
 10
2.239577027791745
 20
4.063898377923969
 42
0.4142135623730951
 10
2.301577027791745
 20
4.125898377923969
 10
2.301577027791746
 20
4.58689837792397
 42
-0.4142135623730951
 10
2.363577027791746
 20
4.648898377923971
 10
4.799577027791745
 20
4.648898377923971
 42
-0.4142135623730951
 10
4.861577027791746
 20
4.58689837792397
 10
4.861577027791746
 20
4.448898377923967
 10
5.021577027791746
 20
4.448898377923967
 10
5.021577027791746
 20
4.138898377923966
 10
4.861577027791745
 20
4.138898377923966
 10
4.861577027791745
 20
4.125898377923969
 42
0.4142135623730951
 10
4.923577027791745
 20
4.063898377923969
 10
5.010577027791746
 20
4.063898377923969
 42
-0.9999999999999998
 10
5.010577027791746
 20
3.733898377923969
 10
4.923577027791745
 20
3.733898377923969
 42
0.4142135623730951
 10
4.861577027791745
 20
3.671898377923969
 10
4.861577027791746
 20
3.658898377923971
 10
5.021577027791746
 20
3.658898377923971
 10
5.021577027791746
 20
3.348898377923971
  0
LINE
  5
132
330
1F
100
AcDbEntity
  8
OBJECT
100
AcDbLine
 10
5.175577027791746
 20
2.452611042947894
 30
0.0
 11
1.987577027791745
 21
2.452611042947895
 31
0.0
  0
LINE
  5
133
330
1F
100
AcDbEntity
  8
OBJECT
100
AcDbLine
 10
5.113577027791746
 20
2.514611042947894
 30
0.0
 11
2.049577027791745
 21
2.514611042947894
 31
0.0
  0
CIRCLE
  5
134
330
1F
100
AcDbEntity
  8
OBJECT
100
AcDbCircle
 10
2.152577027791746
 20
1.323385558904415
 30
0.0
 40
0.065
  0
CIRCLE
  5
135
330
1F
100
AcDbEntity
  8
OBJECT
100
AcDbCircle
 10
2.401577027791745
 20
0.6733855589044158
 30
0.0
 40
0.04
  0
LWPOLYLINE
  5
136
330
1F
100
AcDbEntity
  8
OBJECT
100
AcDbPolyline
 90
        4
 70
     1
 43
0.0
 10
2.409577027791746
 20
1.119385558904415
 42
-0.9999999999999998
 10
2.351577027791746
 20
1.119385558904415
 10
2.351577027791746
 20
1.527385558904414
 42
-0.9999999999999998
 10
2.409577027791746
 20
1.527385558904414
  0
LINE
  5
137
330
1F
100
AcDbEntity
  8
CENTER
100
AcDbLine
 10
3.581577027791745
 20
1.233385558904415
 30
0.0
 11
3.581577027791745
 21
1.413385558904415
 31
0.0
  0
LINE
  5
138
330
1F
100
AcDbEntity
  8
CENTER
100
AcDbLine
 10
3.491577027791745
 20
1.323385558904415
 30
0.0
 11
3.671577027791744
 21
1.323385558904415
 31
0.0
  0
ARC
  5
139
330
1F
100
AcDbEntity
  8
OBJECT
100
AcDbCircle
 10
2.049577027791745
 20
2.452611042947894
 30
0.0
 40
0.062
100
AcDbArc
 50
90.00000000000003
 51
180.0
  0
LINE
  5
13A
330
1F
100
AcDbEntity
  8
OBJECT
100
AcDbLine
 10
1.987577027791745
 20
2.452611042947894
 30
0.0
 11
1.987577027791745
 21
2.452611042947895
 31
0.0
  0
LWPOLYLINE
  5
13B
330
1F
100
AcDbEntity
  8
OBJECT
100
AcDbPolyline
 90
        3
 70
     0
 43
0.0
 10
2.172577027791745
 20
2.514611042947894
 42
0.4142135623730943
 10
2.141577027791745
 20
2.483611042947893
 10
2.141577027791745
 20
2.452611042947895
  0
CIRCLE
  5
13C
330
1F
100
AcDbEntity
  8
OBJECT
100
AcDbCircle
 10
2.152577027791746
 20
3.898898377923969
 30
0.0
 40
0.065
  0
CIRCLE
  5
13D
330
1F
100
AcDbEntity
  8
HIDDEN
100
AcDbCircle
 10
2.401577027791745
 20
3.248898377923969
 30
0.0
 40
0.04
  0
CIRCLE
  5
13E
330
1F
100
AcDbEntity
  8
OBJECT
100
AcDbCircle
 10
2.401577027791745
 20
1.973385558904414
 30
0.0
 40
0.04
  0
LWPOLYLINE
  5
13F
330
1F
100
AcDbEntity
  8
OBJECT
100
AcDbPolyline
 90
        5
 70
     0
 43
0.0
 10
2.441577027791746
 20
2.452611042947895
 10
2.441577027791746
 20
2.33032901064514
 10
2.401577027791746
 20
2.319611042947895
 10
2.361577027791746
 20
2.33032901064514
 10
2.361577027791746
 20
2.452611042947895
  0
LINE
  5
140
330
1F
100
AcDbEntity
  8
OBJECT
100
AcDbLine
 10
2.361577027791746
 20
2.33032901064514
 30
0.0
 11
2.441577027791746
 21
2.33032901064514
 31
0.0
  0
LINE
  5
141
330
1F
100
AcDbEntity
  8
OBJECT
100
AcDbLine
 10
2.301577027791745
 20
2.452611042947894
 30
0.0
 11
2.301577027791745
 21
2.452611042947895
 31
0.0
  0
ARC
  5
142
330
1F
100
AcDbEntity
  8
OBJECT
100
AcDbCircle
 10
2.363577027791745
 20
2.452611042947894
 30
0.0
 40
0.062
100
AcDbArc
 50
90.00000000000003
 51
180.0
  0
LWPOLYLINE
  5
143
330
1F
100
AcDbEntity
  8
HIDDEN
100
AcDbPolyline
 90
        4
 70
     1
 43
0.0
 10
2.409577027791746
 20
3.694898377923969
 42
-0.9999999999999998
 10
2.351577027791746
 20
3.694898377923969
 10
2.351577027791746
 20
4.102898377923969
 42
-0.9999999999999998
 10
2.409577027791746
 20
4.102898377923969
  0
CIRCLE
  5
144
330
1F
100
AcDbEntity
  8
HIDDEN
100
AcDbCircle
 10
2.401577027791745
 20
4.548898377923968
 30
0.0
 40
0.04
  0
LINE
  5
145
330
1F
100
AcDbEntity
  8
CENTER
100
AcDbLine
 10
3.581577027791745
 20
3.808898377923969
 30
0.0
 11
3.581577027791745
 21
3.988898377923969
 31
0.0
  0
LINE
  5
146
330
1F
100
AcDbEntity
  8
CENTER
100
AcDbLine
 10
3.491577027791745
 20
3.898898377923969
 30
0.0
 11
3.671577027791744
 21
3.898898377923969
 31
0.0
  0
CIRCLE
  5
14A
330
1F
100
AcDbEntity
  8
OBJECT
100
AcDbCircle
 10
4.761577027791744
 20
0.6733855589044158
 30
0.0
 40
0.04
  0
LWPOLYLINE
  5
14B
330
1F
100
AcDbEntity
  8
OBJECT
100
AcDbPolyline
 90
        4
 70
     1
 43
0.0
 10
4.753577027791745
 20
1.119385558904415
 42
0.9999999999999998
 10
4.811577027791745
 20
1.119385558904415
 10
4.811577027791745
 20
1.527385558904414
 42
0.9999999999999998
 10
4.753577027791745
 20
1.527385558904414
  0
CIRCLE
  5
14C
330
1F
100
AcDbEntity
  8
OBJECT
100
AcDbCircle
 10
5.010577027791747
 20
1.323385558904415
 30
0.0
 40
0.065
  0
LINE
  5
14E
330
1F
100
AcDbEntity
  8
OBJECT
100
AcDbLine
 10
6.211852537892246
 20
3.208898377923969
 30
0.0
 11
6.211852537892246
 21
3.288898377923973
 31
0.0
  0
LWPOLYLINE
  5
14F
330
1F
100
AcDbEntity
  8
OBJECT
100
AcDbPolyline
 90
        5
 70
     0
 43
0.0
 10
6.089570505589491
 20
3.288898377923973
 10
6.211852537892246
 20
3.288898377923973
 10
6.222570505589491
 20
3.24889837792397
 10
6.211852537892246
 20
3.208898377923969
 10
6.089570505589491
 20
3.208898377923969
  0
CIRCLE
  5
150
330
1F
100
AcDbEntity
  8
HIDDEN
100
AcDbCircle
 10
4.761577027791744
 20
3.248898377923969
 30
0.0
 40
0.04
  0
LINE
  5
151
330
1F
100
AcDbEntity
  8
OBJECT
100
AcDbLine
 10
6.027570505589492
 20
4.586898377923971
 30
0.0
 11
6.027570505589492
 21
3.210898377923968
 31
0.0
  0
LINE
  5
152
330
1F
100
AcDbEntity
  8
OBJECT
100
AcDbLine
 10
6.089570505589492
 20
4.648898377923972
 30
0.0
 11
6.089570505589492
 21
3.148898377923971
 31
0.0
  0
CIRCLE
  5
153
330
1F
100
AcDbEntity
  8
OBJECT
100
AcDbCircle
 10
4.761577027791744
 20
1.973385558904414
 30
0.0
 40
0.04
  0
ARC
  5
154
330
1F
100
AcDbEntity
  8
OBJECT
100
AcDbCircle
 10
4.799577027791745
 20
2.452611042947894
 30
0.0
 40
0.062
100
AcDbArc
 50
0.0000000000000064
 51
89.99999999999998
  0
LINE
  5
155
330
1F
100
AcDbEntity
  8
OBJECT
100
AcDbLine
 10
4.801577027791745
 20
2.33032901064514
 30
0.0
 11
4.721577027791745
 21
2.33032901064514
 31
0.0
  0
LWPOLYLINE
  5
156
330
1F
100
AcDbEntity
  8
OBJECT
100
AcDbPolyline
 90
        5
 70
     0
 43
0.0
 10
4.721577027791745
 20
2.452611042947895
 10
4.721577027791745
 20
2.33032901064514
 10
4.761577027791745
 20
2.319611042947895
 10
4.801577027791745
 20
2.33032901064514
 10
4.801577027791745
 20
2.452611042947895
  0
LINE
  5
157
330
1F
100
AcDbEntity
  8
OBJECT
100
AcDbLine
 10
4.861577027791746
 20
2.452611042947894
 30
0.0
 11
4.861577027791746
 21
2.452611042947895
 31
0.0
  0
LWPOLYLINE
  5
158
330
1F
100
AcDbEntity
  8
OBJECT
100
AcDbPolyline
 90
        3
 70
     0
 43
0.0
 10
4.990577027791746
 20
2.514611042947894
 42
-0.4142135623730943
 10
5.021577027791746
 20
2.483611042947893
 10
5.021577027791746
 20
2.452611042947895
  0
LINE
  5
159
330
1F
100
AcDbEntity
  8
OBJECT
100
AcDbLine
 10
5.175577027791746
 20
2.452611042947894
 30
0.0
 11
5.175577027791746
 21
2.452611042947895
 31
0.0
  0
ARC
  5
15A
330
1F
100
AcDbEntity
  8
OBJECT
100
AcDbCircle
 10
5.113577027791746
 20
2.452611042947894
 30
0.0
 40
0.062
100
AcDbArc
 50
0.0
 51
90.00000000000003
  0
ARC
  5
15B
330
1F
100
AcDbEntity
  8
OBJECT
100
AcDbCircle
 10
6.089570505589492
 20
3.210898377923969
 30
0.0
 40
0.062
100
AcDbArc
 50
180.0
 51
270.0
  0
LINE
  5
15C
330
1F
100
AcDbEntity
  8
OBJECT
100
AcDbLine
 10
6.089570505589492
 20
3.148898377923971
 30
0.0
 11
6.089570505589492
 21
3.148898377923971
 31
0.0
  0
LWPOLYLINE
  5
15D
330
1F
100
AcDbEntity
  8
OBJECT
100
AcDbPolyline
 90
        4
 70
     0
 43
0.0
 10
6.089570505589492
 20
4.131898377923969
 10
6.109570505589491
 20
4.131898377923969
 10
6.109570505589491
 20
3.66589837792397
 10
6.089570505589492
 20
3.66589837792397
  0
LWPOLYLINE
  5
15E
330
1F
100
AcDbEntity
  8
HIDDEN
100
AcDbPolyline
 90
        4
 70
     1
 43
0.0
 10
4.753577027791745
 20
3.694898377923969
 42
0.9999999999999998
 10
4.811577027791745
 20
3.694898377923969
 10
4.811577027791745
 20
4.102898377923969
 42
0.9999999999999998
 10
4.753577027791745
 20
4.102898377923969
  0
CIRCLE
  5
15F
330
1F
100
AcDbEntity
  8
OBJECT
100
AcDbCircle
 10
5.010577027791747
 20
3.898898377923969
 30
0.0
 40
0.065
  0
LWPOLYLINE
  5
160
330
1F
100
AcDbEntity
  8
OBJECT
100
AcDbPolyline
 90
        3
 70
     0
 43
0.0
 10
6.027570505589492
 20
3.379898377923974
 42
0.4142135623731035
 10
6.058570505589491
 20
3.348898377923974
 10
6.089570505589492
 20
3.348898377923974
  0
ARC
  5
161
330
1F
100
AcDbEntity
  8
OBJECT
100
AcDbCircle
 10
6.089570505589492
 20
3.795898377923971
 30
0.0
 40
0.062
100
AcDbArc
 50
180.0
 51
270.0
  0
LWPOLYLINE
  5
162
330
1F
100
AcDbEntity
  8
OBJECT
100
AcDbPolyline
 90
        3
 70
     0
 43
0.0
 10
6.089570505589492
 20
3.658898377923973
 10
6.058570505589491
 20
3.658898377923973
 42
0.4142135623730951
 10
6.027570505589492
 20
3.627898377923973
  0
CIRCLE
  5
163
330
1F
100
AcDbEntity
  8
HIDDEN
100
AcDbCircle
 10
4.761577027791744
 20
4.548898377923968
 30
0.0
 40
0.04
  0
LWPOLYLINE
  5
164
330
1F
100
AcDbEntity
  8
OBJECT
100
AcDbPolyline
 90
        3
 70
     0
 43
0.0
 10
6.089570505589492
 20
4.138898377923968
 10
6.058570505589491
 20
4.138898377923968
 42
-0.4142135623730951
 10
6.027570505589492
 20
4.169898377923968
  0
ARC
  5
165
330
1F
100
AcDbEntity
  8
OBJECT
100
AcDbCircle
 10
6.089570505589492
 20
4.001898377923971
 30
0.0
 40
0.062
100
AcDbArc
 50
90.0
 51
180.0
  0
LWPOLYLINE
  5
166
330
1F
100
AcDbEntity
  8
OBJECT
100
AcDbPolyline
 90
        5
 70
     0
 43
0.0
 10
6.089570505589492
 20
4.508898377923972
 10
6.211852537892246
 20
4.50889837792397
 10
6.222570505589491
 20
4.548898377923969
 10
6.211852537892246
 20
4.588898377923968
 10
6.089570505589492
 20
4.58889837792397
  0
LINE
  5
167
330
1F
100
AcDbEntity
  8
OBJECT
100
AcDbLine
 10
6.211852537892246
 20
4.588898377923968
 30
0.0
 11
6.211852537892246
 21
4.50889837792397
 31
0.0
  0
LWPOLYLINE
  5
168
330
1F
100
AcDbEntity
  8
OBJECT
100
AcDbPolyline
 90
        3
 70
     0
 43
0.0
 10
6.027570505589492
 20
4.417898377923969
 42
-0.4142135623731035
 10
6.058570505589491
 20
4.44889837792397
 10
6.089570505589492
 20
4.44889837792397
  0
ARC
  5
169
330
1F
100
AcDbEntity
  8
OBJECT
100
AcDbCircle
 10
6.089570505589492
 20
4.586898377923973
 30
0.0
 40
0.062
100
AcDbArc
 50
90.0
 51
180.0
  0
LINE
  5
16A
330
1F
100
AcDbEntity
  8
OBJECT
100
AcDbLine
 10
6.089570505589492
 20
4.648898377923972
 30
0.0
 11
6.089570505589492
 21
4.648898377923972
 31
0.0
  0
CIRCLE
  5
16B
330
1F
100
AcDbEntity
  8
OBJECT
100
AcDbCircle
 10
8.652222691086979
 20
3.248898377923969
 30
0.0
 40
0.04
  0
LINE
  5
16C
330
1F
100
AcDbEntity
  8
OBJECT
100
AcDbLine
 10
8.592222691086977
 20
3.398898377923972
 30
0.0
 11
8.592222691086977
 21
3.188898377923969
 31
0.0
  0
CIRCLE
  5
175
330
1F
100
AcDbEntity
  8
OBJECT
100
AcDbCircle
 10
8.403222691086977
 20
3.898898377923969
 30
0.0
 40
0.065
  0
LINE
  5
176
330
1F
100
AcDbEntity
  8
OBJECT
100
AcDbLine
 10
8.592222691086977
 20
4.608898377923969
 30
0.0
 11
8.592222691086977
 21
3.608898377923972
 31
0.0
  0
LINE
  5
177
330
1F
100
AcDbEntity
  8
OBJECT
100
AcDbLine
 10
8.641222691086978
 20
3.398898377923972
 30
0.0
 11
8.641222691086978
 21
4.398898377923966
 31
0.0
  0
LINE
  5
178
330
1F
100
AcDbEntity
  8
OBJECT
100
AcDbLine
 10
8.641222691086978
 20
3.608898377923972
 30
0.0
 11
8.392222691086978
 21
3.608898377923972
 31
0.0
  0
LINE
  5
179
330
1F
100
AcDbEntity
  8
OBJECT
100
AcDbLine
 10
8.552222691086978
 20
3.658898377923971
 30
0.0
 11
8.392222691086978
 21
3.658898377923971
 31
0.0
  0
LINE
  5
17A
330
1F
100
AcDbEntity
  8
OBJECT
100
AcDbLine
 10
8.641222691086978
 20
3.398898377923972
 30
0.0
 11
8.392222691086978
 21
3.398898377923972
 31
0.0
  0
LINE
  5
17B
330
1F
100
AcDbEntity
  8
OBJECT
100
AcDbLine
 10
8.552222691086978
 20
3.348898377923972
 30
0.0
 11
8.392222691086978
 21
3.348898377923972
 31
0.0
  0
LINE
  5
17C
330
1F
100
AcDbEntity
  8
OBJECT
100
AcDbLine
 10
8.392222691086978
 20
3.658898377923971
 30
0.0
 11
8.392222691086978
 21
3.348898377923972
 31
0.0
  0
LINE
  5
17D
330
1F
100
AcDbEntity
  8
OBJECT
100
AcDbLine
 10
8.802274303990206
 20
3.239898377923969
 30
0.0
 11
8.641222691086978
 21
3.398898377923972
 31
0.0
  0
LINE
  5
17E
330
1F
100
AcDbEntity
  8
OBJECT
100
AcDbLine
 10
8.802274303990206
 20
4.557898377923969
 30
0.0
 11
8.641222691086978
 21
4.398898377923966
 31
0.0
  0
CIRCLE
  5
17F
330
1F
100
AcDbEntity
  8
OBJECT
100
AcDbCircle
 10
8.652222691086979
 20
4.548898377923968
 30
0.0
 40
0.04
  0
LINE
  5
180
330
1F
100
AcDbEntity
  8
CENTER
100
AcDbLine
 10
9.832222691086979
 20
3.808898377923969
 30
0.0
 11
9.832222691086979
 21
3.988898377923969
 31
0.0
  0
LINE
  5
181
330
1F
100
AcDbEntity
  8
CENTER
100
AcDbLine
 10
9.742222691086979
 20
3.898898377923969
 30
0.0
 11
9.922222691086979
 21
3.898898377923969
 31
0.0
  0
LINE
  5
18D
330
1F
100
AcDbEntity
  8
OBJECT
100
AcDbLine
 10
11.07222269108697
 20
3.188898377923969
 30
0.0
 11
11.07222269108697
 21
3.398898377923972
 31
0.0
  0
CIRCLE
  5
190
330
1F
100
AcDbEntity
  8
OBJECT
100
AcDbCircle
 10
11.01222269108697
 20
3.248898377923969
 30
0.0
 40
0.04
  0
LINE
  5
19A
330
1F
100
AcDbEntity
  8
OBJECT
100
AcDbLine
 10
11.02322269108697
 20
4.398898377923966
 30
0.0
 11
11.27222269108697
 21
4.398898377923966
 31
0.0
  0
LINE
  5
19B
330
1F
100
AcDbEntity
  8
OBJECT
100
AcDbLine
 10
11.11222269108697
 20
4.448898377923966
 30
0.0
 11
11.27222269108697
 21
4.448898377923966
 31
0.0
  0
LINE
  5
19C
330
1F
100
AcDbEntity
  8
OBJECT
100
AcDbLine
 10
11.02322269108697
 20
4.188898377923966
 30
0.0
 11
11.27222269108697
 21
4.188898377923966
 31
0.0
  0
LINE
  5
19D
330
1F
100
AcDbEntity
  8
OBJECT
100
AcDbLine
 10
11.11222269108697
 20
4.138898377923966
 30
0.0
 11
11.27222269108697
 21
4.138898377923966
 31
0.0
  0
LINE
  5
19E
330
1F
100
AcDbEntity
  8
OBJECT
100
AcDbLine
 10
11.02322269108697
 20
3.608898377923972
 30
0.0
 11
11.27222269108697
 21
3.608898377923972
 31
0.0
  0
LINE
  5
19F
330
1F
100
AcDbEntity
  8
OBJECT
100
AcDbLine
 10
11.11222269108697
 20
3.658898377923971
 30
0.0
 11
11.27222269108697
 21
3.658898377923971
 31
0.0
  0
LINE
  5
1A0
330
1F
100
AcDbEntity
  8
OBJECT
100
AcDbLine
 10
11.02322269108697
 20
3.398898377923972
 30
0.0
 11
11.27222269108697
 21
3.398898377923972
 31
0.0
  0
LINE
  5
1A1
330
1F
100
AcDbEntity
  8
OBJECT
100
AcDbLine
 10
11.11222269108697
 20
3.348898377923972
 30
0.0
 11
11.27222269108697
 21
3.348898377923972
 31
0.0
  0
CIRCLE
  5
1A2
330
1F
100
AcDbEntity
  8
OBJECT
100
AcDbCircle
 10
11.26122269108697
 20
3.898898377923969
 30
0.0
 40
0.065
  0
LWPOLYLINE
  5
1A3
330
1F
100
AcDbEntity
  8
OBJECT
100
AcDbPolyline
 90
        8
 70
     0
 43
0.0
 10
11.11222269108697
 20
3.658898377923971
 10
11.11222269108697
 20
3.671898377923969
 42
-0.4142135623730951
 10
11.17422269108697
 20
3.733898377923969
 10
11.26122269108697
 20
3.733898377923969
 42
0.9999999999999998
 10
11.26122269108697
 20
4.063898377923969
 10
11.17422269108697
 20
4.063898377923969
 42
-0.4142135623730951
 10
11.11222269108697
 20
4.125898377923969
 10
11.11222269108697
 20
4.138898377923966
  0
LINE
  5
1A4
330
1F
100
AcDbEntity
  8
OBJECT
100
AcDbLine
 10
11.02322269108697
 20
3.398898377923972
 30
0.0
 11
11.02322269108697
 21
4.398898377923966
 31
0.0
  0
LINE
  5
1A5
330
1F
100
AcDbEntity
  8
OBJECT
100
AcDbLine
 10
11.07222269108697
 20
3.608898377923972
 30
0.0
 11
11.07222269108697
 21
4.188898377923965
 31
0.0
  0
LINE
  5
1A6
330
1F
100
AcDbEntity
  8
OBJECT
100
AcDbLine
 10
10.86217107818375
 20
3.239898377923969
 30
0.0
 11
11.02322269108697
 21
3.398898377923972
 31
0.0
  0
LINE
  5
1A7
330
1F
100
AcDbEntity
  8
OBJECT
100
AcDbLine
 10
10.86217107818375
 20
4.557898377923969
 30
0.0
 11
11.02322269108697
 21
4.398898377923966
 31
0.0
  0
LINE
  5
1A8
330
1F
100
AcDbEntity
  8
OBJECT
100
AcDbLine
 10
11.07222269108697
 20
4.608898377923969
 30
0.0
 11
11.07222269108697
 21
4.398898377923966
 31
0.0
  0
LINE
  5
1A9
330
1F
100
AcDbEntity
  8
OBJECT
100
AcDbLine
 10
11.07222269108697
 20
4.398898377923967
 30
0.0
 11
11.07222269108697
 21
4.608898377923969
 31
0.0
  0
CIRCLE
  5
1AA
330
1F
100
AcDbEntity
  8
OBJECT
100
AcDbCircle
 10
11.01222269108697
 20
4.548898377923968
 30
0.0
 40
0.04
  0
LINE
  5
1AE
330
1F
100
AcDbEntity
  8
OBJECT
100
AcDbLine
 10
11.27222269108697
 20
3.658898377923971
 30
0.0
 11
11.27222269108697
 21
3.348898377923972
 31
0.0
  0
LINE
  5
1B2
330
1F
100
AcDbEntity
  8
OBJECT
100
AcDbLine
 10
11.27222269108697
 20
4.138898377923966
 30
0.0
 11
11.27222269108697
 21
4.448898377923966
 31
0.0
  0
DIMENSION
  5
2632
330
1F
100
AcDbEntity
  8
DIM
100
AcDbDimension
  2
*D2
 10
11.26122269108697
 20
4.932515610419109
 30
0.0
 11
9.832222691086977
 21
4.932515610419109
 31
0.0
 70
    32
 71
     5
 42
2.858
  3
23NSTD
100
AcDbAlignedDimension
 13
8.403222691086977
 23
3.898898377923969
 33
0.0
 14
11.26122269108697
 24
3.898898377923969
 34
0.0
100
AcDbRotatedDimension
  0
DIMENSION
  5
2640
330
1F
100
AcDbEntity
  8
DIM
100
AcDbDimension
  2
*D3
 10
11.71379246370976
 20
3.398898377923972
 30
0.0
 11
11.71379246370976
 21
3.898898377923971
 31
0.0
 70
    32
 71
     5
 42
0.9999999999999946
  3
23NSTD
100
AcDbAlignedDimension
 13
11.27222269108697
 23
4.398898377923966
 33
0.0
 14
11.27222269108697
 24
3.398898377923972
 34
0.0
 50
90.0
100
AcDbRotatedDimension
  0
DIMENSION
  5
264E
330
1F
100
AcDbEntity
  8
DIM
100
AcDbDimension
  2
*D4
 10
11.42622269108697
 20
5.211622463239802
 30
0.0
 11
9.832222691086977
 21
5.211622463239802
 31
0.0
 70
    32
 71
     5
 42
3.187999999999998
  3
23NSTD
100
AcDbAlignedDimension
 13
8.238222691086978
 23
3.898898377923969
 33
0.0
 14
11.42622269108697
 24
3.898898377923969
 34
0.0
100
AcDbRotatedDimension
  0
DIMENSION
  5
265C
330
1F
100
AcDbEntity
  8
DIM
100
AcDbDimension
  2
*D5
 10
12.17236686513389
 20
3.148898377923969
 30
0.0
 11
12.17236686513389
 21
3.898898377923971
 31
0.0
 70
    32
 71
     5
 42
1.5
  3
23NSTD
100
AcDbAlignedDimension
 13
11.05022269108697
 23
4.648898377923969
 33
0.0
 14
11.05022269108697
 24
3.148898377923969
 34
0.0
 50
90.0
100
AcDbRotatedDimension
  0
DIMENSION
  5
266A
330
1F
100
AcDbEntity
  8
DIM
100
AcDbDimension
  2
*D6
 10
8.552222691086978
 20
2.906557978758076
 30
0.0
 11
9.832222691086979
 21
2.906557978758076
 31
0.0
 70
    32
 71
     5
 42
2.56
  3
23NSTD
100
AcDbAlignedDimension
 13
11.11222269108697
 23
3.210898377923969
 33
0.0
 14
8.552222691086978
 24
3.210898377923969
 34
0.0
100
AcDbRotatedDimension
  0
DIMENSION
  5
2678
330
1F
100
AcDbEntity
  8
DIM
100
AcDbDimension
  2
*D7
 10
11.83601593954762
 20
1.37789837792397
 30
0.0
 11
11.83601593954762
 21
1.869898377923972
 31
0.0
 70
    32
 71
     5
 42
0.9840000000000001
  3
23NSTD
100
AcDbAlignedDimension
 13
11.42622269108697
 23
2.36189837792397
 33
0.0
 14
11.03411967688443
 24
1.37789837792397
 34
0.0
 50
90.0
100
AcDbRotatedDimension
  0
DIMENSION
  5
2686
330
1F
100
AcDbEntity
  8
DIM
100
AcDbDimension
  2
*D8
 10
10.22777715912051
 20
2.36189837792397
 30
0.0
 11
10.22777715912051
 21
1.905398377923971
 31
0.0
 70
    32
 71
     5
 42
0.9130000000000002
  3
23NSTD
100
AcDbAlignedDimension
 13
10.2907771591205
 23
1.44889837792397
 33
0.0
 14
10.2907771591205
 24
2.36189837792397
 34
0.0
 50
90.0
100
AcDbRotatedDimension
  0
DIMENSION
  5
26A9
330
1F
100
AcDbEntity
  8
DIM
100
AcDbDimension
  2
*D9
 10
11.02322269108697
 20
4.205006943501881
 30
0.0
 11
9.832222691086979
 21
4.205006943501881
 31
0.0
 70
    32
 71
     5
 42
2.381999999999999
  3
23NSTD
100
AcDbAlignedDimension
 13
8.641222691086978
 23
4.398898377923966
 33
0.0
 14
11.02322269108697
 24
4.398898377923966
 34
0.0
100
AcDbRotatedDimension
  0
DIMENSION
  5
26B7
330
1F
100
AcDbEntity
  8
DIM
100
AcDbDimension
  2
*D10
 10
10.43952718878761
 20
3.239898377923969
 30
0.0
 11
10.43952718878761
 21
3.898898377923971
 31
0.0
 70
    32
 71
     5
 42
1.318
  3
23NSTD
100
AcDbAlignedDimension
 13
10.86217107818375
 23
4.557898377923969
 33
0.0
 14
10.86217107818375
 24
3.239898377923969
 34
0.0
 50
90.0
100
AcDbRotatedDimension
  0
DIMENSION
  5
26C6
330
1F
100
AcDbEntity
  8
DIM
100
AcDbDimension
  2
*D11
 10
10.86217107818375
 20
3.509541685060899
 30
0.0
 11
9.832222691086979
 21
3.509541685060899
 31
0.0
 70
    32
 71
     5
 42
2.059896774193544
  3
23NSTD
100
AcDbAlignedDimension
 13
8.802274303990206
 23
3.239898377923969
 33
0.0
 14
10.86217107818375
 24
3.239898377923969
 34
0.0
100
AcDbRotatedDimension
  0
DIMENSION
  5
26D5
330
1F
100
AcDbEntity
  8
DIM
100
AcDbDimension
  2
*D12
 10
5.010577027791743
 20
4.932515610419109
 30
0.0
 11
3.581577027791744
 21
4.932515610419109
 31
0.0
 70
    32
 71
     5
 42
2.857999999999999
  3
23NSTD
100
AcDbAlignedDimension
 13
2.152577027791743
 23
3.898898377923969
 33
0.0
 14
5.010577027791743
 24
3.898898377923969
 34
0.0
100
AcDbRotatedDimension
  0
DIMENSION
  5
26D6
330
1F
100
AcDbEntity
  8
DIM
100
AcDbDimension
  2
*D13
 10
5.175577027791742
 20
5.211622463239802
 30
0.0
 11
3.581577027791743
 21
5.211622463239802
 31
0.0
 70
    32
 71
     5
 42
3.187999999999998
  3
23NSTD
100
AcDbAlignedDimension
 13
1.987577027791743
 23
3.898898377923969
 33
0.0
 14
5.175577027791742
 24
3.898898377923969
 34
0.0
100
AcDbRotatedDimension
  0
DIMENSION
  5
26D7
330
1F
100
AcDbEntity
  8
DIM
100
AcDbDimension
  2
*D14
 10
5.631442481494346
 20
3.148898377923968
 30
0.0
 11
5.631442481494345
 21
3.89889837792397
 31
0.0
 70
   160
 71
     5
 42
1.5
  3
23NSTD
100
AcDbAlignedDimension
 13
4.799577027791745
 23
4.648898377923969
 33
0.0
 14
4.799577027791745
 24
3.148898377923969
 34
0.0
 50
90.0
100
AcDbRotatedDimension
  0
DIMENSION
  5
26D8
330
1F
100
AcDbEntity
  8
DIM
100
AcDbDimension
  2
*D15
 10
2.301577027791744
 20
2.906557978758076
 30
0.0
 11
3.581577027791744
 21
2.906557978758076
 31
0.0
 70
    32
 71
     5
 42
2.56
  3
23NSTD
100
AcDbAlignedDimension
 13
4.861577027791744
 23
3.210898377923969
 33
0.0
 14
2.301577027791744
 24
3.210898377923969
 34
0.0
100
AcDbRotatedDimension
  0
DIMENSION
  5
274D
330
1F
100
AcDbEntity
  8
DIM
100
AcDbDimension
  2
*D16
 10
5.491633490113102
 20
2.514611042947894
 30
0.0
 11
5.9335084901131
 21
2.874611042947895
 31
0.0
 70
    32
 71
     5
 42
0.0620000000000003
  3
23NSTD
100
AcDbAlignedDimension
 13
5.175577027791747
 23
2.452611042947894
 33
0.0
 14
5.113577027791746
 24
2.514611042947894
 34
0.0
 50
90.0
100
AcDbRotatedDimension
  0
DIMENSION
  5
275C
330
1F
100
AcDbEntity
  8
DIM
100
AcDbDimension
  2
*D17
 10
7.938259951863201
 20
3.898898377923969
 30
0.0
 11
7.9382599518632
 21
4.27389837792397
 31
0.0
 70
    32
 71
     5
 42
0.75
  3
23NSTD
100
AcDbAlignedDimension
 13
8.614222691086979
 23
4.648898377923969
 33
0.0
 14
8.403222691086977
 24
3.898898377923969
 34
0.0
 50
90.0
100
AcDbRotatedDimension
  0
DIMENSION
  5
28DF
330
1F
100
AcDbEntity
  8
DIM
100
AcDbDimension
  2
*D18
 10
1.687614288567966
 20
3.898898377923969
 30
0.0
 11
1.687614288567966
 21
4.27389837792397
 31
0.0
 70
    32
 71
     5
 42
0.7500000000000005
  3
23NSTD
100
AcDbAlignedDimension
 13
2.363577027791745
 23
4.648898377923969
 33
0.0
 14
2.152577027791743
 24
3.898898377923969
 34
0.0
 50
90.0
100
AcDbRotatedDimension
  0
TEXT
  5
28FD
330
1F
100
AcDbEntity
  8
TEXT
100
AcDbText
 10
2.950500000000001
 20
9.310999999999999
 30
0.0
 40
0.156
  1
UTILIBOX (STYLE K)
 41
0.75
  7
TXT
 72
     4
 11
3.906000000000001
 21
9.388999999999999
 31
0.0
100
AcDbText
  0
TEXT
  5
28FE
330
1F
100
AcDbEntity
  8
TEXT
100
AcDbText
 10
10.554995566525
 20
9.310999999999999
 30
0.0
 40
0.156
  1
CU-1951
 41
0.75
  7
TXT
 72
     4
 11
10.905995566525
 21
9.388999999999999
 31
0.0
100
AcDbText
  0
DIMENSION
  5
29B0
330
1F
100
AcDbEntity
  8
DIM
100
AcDbDimension
  2
*D19
 10
13.1455182859035
 20
3.398898377923972
 30
0.0
 11
13.1455182859035
 21
3.503898377923974
 31
0.0
 70
   160
 71
     5
 42
0.21
  3
23NSTD
100
AcDbAlignedDimension
 13
13.47778119797844
 23
3.608898377923972
 33
0.0
 14
13.47778119797844
 24
3.398898377923972
 34
0.0
 50
90.0
100
AcDbRotatedDimension
  0
DIMENSION
  5
29BF
330
1F
100
AcDbEntity
  8
DIM
100
AcDbDimension
  2
*D20
 10
13.47778119797844
 20
2.88243415378017
 30
0.0
 11
12.87934369797844
 21
2.88243415378017
 31
0.0
 70
   160
 71
     5
 42
0.1119999999999983
  3
23NSTD
100
AcDbAlignedDimension
 13
13.58978119797844
 23
3.398898377923972
 33
0.0
 14
13.47778119797844
 24
3.148898377923969
 34
0.0
100
AcDbRotatedDimension
  0
LEADER
  5
29E2
330
1F
100
AcDbEntity
  8
DIM
100
AcDbLeader
  3
23NSTD
 73
     0
 75
     1
 40
0.3333333333333334
 41
0.84375
 76
     3
 10
8.368800986524211
 20
7.949984851052392
 30
0.0
 10
8.031297073893302
 20
7.044210524784169
 30
0.0
 10
7.851297073893302
 20
7.044210524784169
 30
0.0
340
29E3
213
0.0
223
-0.0625
233
0.0
1001
ACAD
1000
DSTYLE
1002
{
1070
   147
1040
0.09
1070
    77
1070
     0
1002
}
  0
MTEXT
  5
29E3
102
{ACAD_REACTORS
330
29E2
102
}
330
1F
100
AcDbEntity
  8
DIM
100
AcDbMText
 10
7.761297073893302
 20
7.106710524784169
 30
0.0
 40
0.125
 41
0.0
 71
     3
 72
     1
  1
0.130 DIA.\P(2) PLACES
  7
TXT
 73
     1
 44
1.0
  0
DIMENSION
  5
2A39
330
1F
100
AcDbEntity
  8
DIM
100
AcDbDimension
  2
*D21
 10
8.56833514818982
 20
1.438816328724858
 30
0.0
 11
7.67580913253153
 21
1.134203651676326
 31
0.0
 70
    34
  1
<> TYP.
 71
     5
 42
0.0174532925199413
  3
23NSTD
100
AcDb2LineAngularDimension
 13
8.552222691086978
 23
2.361898377923969
 33
0.0
 14
8.552222691086978
 24
2.339769045044313
 34
0.0
 15
8.552222691086978
 25
2.361898377923969
 35
0.0
 16
8.56709702560196
 26
1.08360118253036
 36
0.0
  0
TEXT
  5
2A8B
330
1F
100
AcDbEntity
  8
TEXT
100
AcDbText
 10
0.7473826756854223
 20
8.655448642401609
 30
0.0
 40
0.125
  1
MATERIAL: HIGH-IMPACT ABS
 41
0.75
  7
TXT
100
AcDbText
  0
TEXT
  5
2A8C
330
1F
100
AcDbEntity
  8
TEXT
100
AcDbText
 10
0.7473826756854223
 20
8.238781975734941
 30
0.0
 40
0.125
  1
FINISH: BLACK TEXTURED
 41
0.75
  7
TXT
100
AcDbText
  0
TEXT
  5
2A8D
330
1F
100
AcDbEntity
  8
TEXT
100
AcDbText
 10
0.7473826756854223
 20
8.238781975734941
 30
0.0
 40
0.125
  1
 
 41
0.75
  7
TXT
100
AcDbText
  0
TEXT
  5
2A8E
330
1F
100
AcDbEntity
  8
TEXT
100
AcDbText
 10
0.7473826756854223
 20
7.822115309068273
 30
0.0
 40
0.125
  1
ALL DIMENSIONS HAVE %%p0.015 TOLERANCE.
 41
0.75
  7
TXT
100
AcDbText
  0
TEXT
  5
2A90
330
1F
100
AcDbEntity
  8
TEXT
100
AcDbText
 10
0.7473826756854223
 20
8.655448642401609
 30
0.0
 40
0.125
  1
 
 41
0.75
  7
TXT
100
AcDbText
  0
TEXT
  5
2A91
330
1F
100
AcDbEntity
  8
TEXT
100
AcDbText
 10
1.577488541009245
 20
8.447115309068275
 30
0.0
 40
0.125
  1
(FLAMMABILITY RATING OF UL94-HB)
 41
0.75
  7
TXT
100
AcDbText
  0
TEXT
  5
2C6A
330
1F
100
AcDbEntity
  8
TEXT
100
AcDbText
 10
3.287127027791745
 20
0.2263421158691266
 30
0.0
 40
0.156
  1
%%uCOVER
 41
0.75
  7
TXT
 72
     4
 11
3.581577027791745
 21
0.2887421158691266
 31
0.0
100
AcDbText
  0
TEXT
  5
2C6C
330
1F
100
AcDbEntity
  8
TEXT
100
AcDbText
 10
9.615772691086979
 20
0.8082607233133673
 30
0.0
 40
0.156
  1
%%uBODY
 41
0.75
  7
TXT
 72
     4
 11
9.832222691086979
 21
0.8706607233133674
 31
0.0
100
AcDbText
  0
LWPOLYLINE
  5
2D3C
330
1F
100
AcDbEntity
  8
HIDDEN
100
AcDbPolyline
 90
        4
 70
     1
 43
0.0
 10
11.00422269108698
 20
7.801122372351355
 42
0.9999999999999998
 10
11.06222269108698
 20
7.801122372351355
 10
11.06222269108698
 20
8.209122372351355
 42
0.9999999999999998
 10
11.00422269108698
 20
8.209122372351355
  0
LWPOLYLINE
  5
2D3D
330
1F
100
AcDbEntity
  8
HIDDEN
100
AcDbPolyline
 90
        4
 70
     1
 43
0.0
 10
8.66022269108698
 20
7.801122372351355
 42
-0.9999999999999998
 10
8.60222269108698
 20
7.801122372351355
 10
8.60222269108698
 20
8.209122372351355
 42
-0.9999999999999998
 10
8.66022269108698
 20
8.209122372351355
  0
DIMENSION
  5
2D3F
330
1F
100
AcDbEntity
  8
DIM
100
AcDbDimension
  2
*D22
 10
11.88208814478958
 20
7.255122372351355
 30
0.0
 11
11.88208814478958
 21
8.005122372351355
 31
0.0
 70
   160
 71
     5
 42
1.499999999999999
  3
23NSTD
100
AcDbAlignedDimension
 13
11.05022269108697
 23
8.755122372351355
 33
0.0
 14
11.05022269108697
 24
7.255122372351355
 34
0.0
 50
90.0
100
AcDbRotatedDimension
  0
LINE
  5
2D40
330
1F
100
AcDbEntity
  8
OBJECT
100
AcDbLine
 10
12.39614193385055
 20
8.693122372351357
 30
0.0
 11
12.39614193385055
 21
7.317122372351354
 31
0.0
  0
DIMENSION
  5
2D42
330
1F
100
AcDbEntity
  8
DIM
100
AcDbDimension
  2
*D23
 10
8.552222691086978
 20
7.012781973185462
 30
0.0
 11
9.832222691086979
 21
7.012781973185462
 31
0.0
 70
    32
 71
     5
 42
2.56
  3
23NSTD
100
AcDbAlignedDimension
 13
11.11222269108697
 23
7.317122372351355
 33
0.0
 14
8.552222691086978
 24
7.317122372351355
 34
0.0
100
AcDbRotatedDimension
  0
LINE
  5
2D43
330
1F
100
AcDbEntity
  8
OBJECT
100
AcDbLine
 10
11.36422269108698
 20
6.678139349985654
 30
0.0
 11
8.300222691086977
 21
6.678139349985654
 31
0.0
  0
LWPOLYLINE
  5
2D46
330
1F
100
AcDbEntity
  8
HIDDEN
100
AcDbPolyline
 90
        4
 70
     1
 43
0.0
 10
8.776222691086978
 20
7.305122372351354
 42
-0.9999999999999998
 10
8.776222691086978
 20
7.363122372351354
 10
10.88822269108698
 20
7.363122372351354
 42
-0.9999999999999998
 10
10.88822269108698
 20
7.305122372351354
  0
LINE
  5
2D47
330
1F
100
AcDbEntity
  8
HIDDEN
100
AcDbLine
 10
8.612222691086978
 20
6.4938573176829
 30
0.0
 11
8.692222691086978
 21
6.4938573176829
 31
0.0
  0
LWPOLYLINE
  5
2D48
330
1F
100
AcDbEntity
  8
HIDDEN
100
AcDbPolyline
 90
        5
 70
     0
 43
0.0
 10
8.692222691086978
 20
6.616139349985655
 10
8.692222691086978
 20
6.4938573176829
 10
8.652222691086977
 20
6.483139349985655
 10
8.612222691086978
 20
6.4938573176829
 10
8.612222691086978
 20
6.616139349985655
  0
ARC
  5
2D49
330
1F
100
AcDbEntity
  8
OBJECT
100
AcDbCircle
 10
8.300222691086977
 20
6.616139349985654
 30
0.0
 40
0.062
100
AcDbArc
 50
90.00000000000003
 51
180.0
  0
LINE
  5
2D4A
330
1F
100
AcDbEntity
  8
OBJECT
100
AcDbLine
 10
8.238222691086978
 20
6.616139349985654
 30
0.0
 11
8.238222691086978
 21
6.616139349985655
 31
0.0
  0
ARC
  5
2D4B
330
1F
100
AcDbEntity
  8
OBJECT
100
AcDbCircle
 10
8.614222691086977
 20
6.616139349985654
 30
0.0
 40
0.062
100
AcDbArc
 50
90.00000000000003
 51
180.0
  0
LWPOLYLINE
  5
2D4C
330
1F
100
AcDbEntity
  8
OBJECT
100
AcDbPolyline
 90
        3
 70
     0
 43
0.0
 10
8.423222691086978
 20
6.678139349985654
 42
0.4142135623730943
 10
8.392222691086978
 20
6.647139349985653
 10
8.392222691086978
 20
6.616139349985655
  0
LINE
  5
2D4D
330
1F
100
AcDbEntity
  8
OBJECT
100
AcDbLine
 10
8.552222691086978
 20
6.616139349985654
 30
0.0
 11
8.552222691086978
 21
6.616139349985655
 31
0.0
  0
CIRCLE
  5
2D4E
330
1F
100
AcDbEntity
  8
HIDDEN
100
AcDbCircle
 10
8.652222691086979
 20
7.355122372351355
 30
0.0
 40
0.04
  0
CIRCLE
  5
2D4F
330
1F
100
AcDbEntity
  8
OBJECT
100
AcDbCircle
 10
8.40322269108698
 20
8.005122372351355
 30
0.0
 40
0.065
  0
LWPOLYLINE
  5
2D51
330
1F
100
AcDbEntity
  8
OBJECT
100
AcDbPolyline
 90
        3
 70
     0
 43
0.0
 10
11.24122269108698
 20
6.678139349985654
 42
-0.4142135623730943
 10
11.27222269108697
 20
6.647139349985653
 10
11.27222269108697
 20
6.616139349985655
  0
ARC
  5
2D52
330
1F
100
AcDbEntity
  8
OBJECT
100
AcDbCircle
 10
11.05022269108697
 20
6.616139349985654
 30
0.0
 40
0.062
100
AcDbArc
 50
0.0000000000000064
 51
89.99999999999998
  0
LINE
  5
2D53
330
1F
100
AcDbEntity
  8
HIDDEN
100
AcDbLine
 10
11.05222269108697
 20
6.4938573176829
 30
0.0
 11
10.97222269108697
 21
6.4938573176829
 31
0.0
  0
LWPOLYLINE
  5
2D54
330
1F
100
AcDbEntity
  8
HIDDEN
100
AcDbPolyline
 90
        5
 70
     0
 43
0.0
 10
10.97222269108697
 20
6.616139349985655
 10
10.97222269108697
 20
6.4938573176829
 10
11.01222269108697
 20
6.483139349985655
 10
11.05222269108697
 20
6.4938573176829
 10
11.05222269108697
 20
6.616139349985655
  0
LINE
  5
2D55
330
1F
100
AcDbEntity
  8
OBJECT
100
AcDbLine
 10
11.11222269108697
 20
6.616139349985654
 30
0.0
 11
11.11222269108697
 21
6.616139349985655
 31
0.0
  0
ARC
  5
2D56
330
1F
100
AcDbEntity
  8
OBJECT
100
AcDbCircle
 10
11.36422269108698
 20
6.616139349985654
 30
0.0
 40
0.062
100
AcDbArc
 50
0.0
 51
90.00000000000003
  0
LINE
  5
2D57
330
1F
100
AcDbEntity
  8
OBJECT
100
AcDbLine
 10
11.42622269108698
 20
6.616139349985654
 30
0.0
 11
11.42622269108698
 21
6.616139349985655
 31
0.0
  0
LINE
  5
2D58
330
1F
100
AcDbEntity
  8
CENTER
100
AcDbLine
 10
9.832222691086979
 20
7.915122372351355
 30
0.0
 11
9.832222691086979
 21
8.095122372351355
 31
0.0
  0
LINE
  5
2D59
330
1F
100
AcDbEntity
  8
CENTER
100
AcDbLine
 10
9.742222691086979
 20
8.005122372351355
 30
0.0
 11
9.922222691086979
 21
8.005122372351355
 31
0.0
  0
CIRCLE
  5
2D5A
330
1F
100
AcDbEntity
  8
HIDDEN
100
AcDbCircle
 10
11.01222269108697
 20
7.355122372351355
 30
0.0
 40
0.04
  0
CIRCLE
  5
2D5B
330
1F
100
AcDbEntity
  8
OBJECT
100
AcDbCircle
 10
11.26122269108698
 20
8.005122372351355
 30
0.0
 40
0.065
  0
ARC
  5
2D5C
330
1F
100
AcDbEntity
  8
OBJECT
100
AcDbCircle
 10
12.45814193385055
 20
7.317122372351355
 30
0.0
 40
0.062
100
AcDbArc
 50
180.0
 51
270.0
  0
LWPOLYLINE
  5
2D5D
330
1F
100
AcDbEntity
  8
HIDDEN
100
AcDbPolyline
 90
        5
 70
     0
 43
0.0
 10
12.45814193385055
 20
7.395122372351359
 10
12.58042396615331
 20
7.395122372351359
 10
12.59114193385055
 20
7.355122372351356
 10
12.58042396615331
 20
7.315122372351355
 10
12.45814193385055
 20
7.315122372351355
  0
LINE
  5
2D5E
330
1F
100
AcDbEntity
  8
OBJECT
100
AcDbLine
 10
12.45814193385055
 20
7.255122372351356
 30
0.0
 11
12.45814193385055
 21
7.255122372351356
 31
0.0
  0
LINE
  5
2D5F
330
1F
100
AcDbEntity
  8
HIDDEN
100
AcDbLine
 10
12.58042396615331
 20
7.315122372351355
 30
0.0
 11
12.58042396615331
 21
7.395122372351359
 31
0.0
  0
LWPOLYLINE
  5
2D60
330
1F
100
AcDbEntity
  8
OBJECT
100
AcDbPolyline
 90
        3
 70
     0
 43
0.0
 10
12.39614193385055
 20
7.48612237235136
 42
0.4142135623731035
 10
12.42714193385055
 20
7.455122372351359
 10
12.45814193385055
 20
7.455122372351359
  0
LWPOLYLINE
  5
2D61
330
1F
100
AcDbEntity
  8
OBJECT
100
AcDbPolyline
 90
        3
 70
     0
 43
0.0
 10
12.45814193385055
 20
7.765122372351359
 10
12.42714193385055
 20
7.765122372351359
 42
0.4142135623730951
 10
12.39614193385055
 20
7.734122372351359
  0
ARC
  5
2D62
330
1F
100
AcDbEntity
  8
OBJECT
100
AcDbCircle
 10
12.45814193385055
 20
7.902122372351357
 30
0.0
 40
0.062
100
AcDbArc
 50
180.0
 51
270.0
  0
ARC
  5
2D63
330
1F
100
AcDbEntity
  8
OBJECT
100
AcDbCircle
 10
12.45814193385055
 20
8.108122372351356
 30
0.0
 40
0.062
100
AcDbArc
 50
90.0
 51
180.0
  0
LWPOLYLINE
  5
2D64
330
1F
100
AcDbEntity
  8
HIDDEN
100
AcDbPolyline
 90
        4
 70
     1
 43
0.0
 10
8.776222691086978
 20
8.705122372351356
 42
0.9999999999999998
 10
8.776222691086978
 20
8.647122372351354
 10
10.88822269108698
 20
8.647122372351354
 42
0.9999999999999998
 10
10.88822269108698
 20
8.705122372351356
  0
CIRCLE
  5
2D65
330
1F
100
AcDbEntity
  8
HIDDEN
100
AcDbCircle
 10
8.652222691086979
 20
8.655122372351353
 30
0.0
 40
0.04
  0
CIRCLE
  5
2D66
330
1F
100
AcDbEntity
  8
HIDDEN
100
AcDbCircle
 10
11.01222269108697
 20
8.655122372351353
 30
0.0
 40
0.04
  0
LWPOLYLINE
  5
2D67
330
1F
100
AcDbEntity
  8
OBJECT
100
AcDbPolyline
 90
        3
 70
     0
 43
0.0
 10
12.45814193385055
 20
8.245122372351353
 10
12.42714193385055
 20
8.245122372351353
 42
-0.4142135623730951
 10
12.39614193385055
 20
8.276122372351354
  0
LWPOLYLINE
  5
2D68
330
1F
100
AcDbEntity
  8
OBJECT
100
AcDbPolyline
 90
        3
 70
     0
 43
0.0
 10
12.39614193385055
 20
8.524122372351355
 42
-0.4142135623731035
 10
12.42714193385055
 20
8.555122372351355
 10
12.45814193385055
 20
8.555122372351355
  0
ARC
  5
2D69
330
1F
100
AcDbEntity
  8
OBJECT
100
AcDbCircle
 10
12.45814193385055
 20
8.693122372351359
 30
0.0
 40
0.062
100
AcDbArc
 50
90.0
 51
180.0
  0
LWPOLYLINE
  5
2D6A
330
1F
100
AcDbEntity
  8
HIDDEN
100
AcDbPolyline
 90
        5
 70
     0
 43
0.0
 10
12.45814193385055
 20
8.615122372351358
 10
12.58042396615331
 20
8.615122372351356
 10
12.59114193385055
 20
8.655122372351355
 10
12.58042396615331
 20
8.695122372351354
 10
12.45814193385055
 20
8.695122372351356
  0
LINE
  5
2D6B
330
1F
100
AcDbEntity
  8
OBJECT
100
AcDbLine
 10
12.45814193385055
 20
8.755122372351358
 30
0.0
 11
12.45814193385055
 21
8.755122372351358
 31
0.0
  0
LINE
  5
2D6C
330
1F
100
AcDbEntity
  8
HIDDEN
100
AcDbLine
 10
12.58042396615331
 20
8.695122372351354
 30
0.0
 11
12.58042396615331
 21
8.615122372351356
 31
0.0
  0
LINE
  5
2EA2
330
1F
100
AcDbEntity
  8
HIDDEN
100
AcDbLine
 10
12.45814193385055
 20
8.715122372351354
 30
0.0
 11
12.49814193385055
 21
8.715122372351354
 31
0.0
  0
LWPOLYLINE
  5
2EA3
330
1F
100
AcDbEntity
  8
OBJECT
100
AcDbPolyline
 90
        6
 70
     0
 43
0.0
 10
12.45814193385055
 20
8.245122372351353
 10
12.60714193385055
 20
8.245122372351353
 42
0.4142135623730951
 10
12.63814193385055
 20
8.276122372351352
 10
12.63814193385055
 20
8.524122372351353
 42
0.4142135623730951
 10
12.60714193385055
 20
8.555122372351352
 10
12.45814193385055
 20
8.555122372351352
  0
LWPOLYLINE
  5
2EA4
330
1F
100
AcDbEntity
  8
OBJECT
100
AcDbPolyline
 90
        4
 70
     0
 43
0.0
 10
12.45814193385055
 20
8.295122372351352
 10
12.57014193385055
 20
8.29512237235135
 10
12.57014193385055
 20
8.505122372351351
 10
12.45814193385055
 20
8.505122372351351
  0
ARC
  5
2EA6
330
1F
100
AcDbEntity
  8
OBJECT
100
AcDbCircle
 10
12.45814193385055
 20
8.108122372351356
 30
0.0
 40
0.062
100
AcDbArc
 50
0.0
 51
90.00000000000003
  0
ARC
  5
2EA7
330
1F
100
AcDbEntity
  8
OBJECT
100
AcDbCircle
 10
12.45814193385055
 20
7.902122372351355
 30
0.0
 40
0.062
100
AcDbArc
 50
270.0
 51
0.0
  0
LWPOLYLINE
  5
2EA8
330
1F
100
AcDbEntity
  8
OBJECT
100
AcDbPolyline
 90
        6
 70
     0
 43
0.0
 10
12.45814193385055
 20
7.765122372351357
 10
12.60714193385055
 20
7.765122372351357
 42
-0.4142135623730951
 10
12.63814193385055
 20
7.734122372351357
 10
12.63814193385055
 20
7.486122372351357
 42
-0.4142135623730951
 10
12.60714193385055
 20
7.455122372351357
 10
12.45814193385055
 20
7.455122372351357
  0
LWPOLYLINE
  5
2EA9
330
1F
100
AcDbEntity
  8
OBJECT
100
AcDbPolyline
 90
        4
 70
     0
 43
0.0
 10
12.45814193385055
 20
7.715122372351357
 10
12.57014193385055
 20
7.715122372351358
 10
12.57014193385055
 20
7.505122372351357
 10
12.45814193385055
 20
7.505122372351357
  0
LINE
  5
2EAA
330
1F
100
AcDbEntity
  8
HIDDEN
100
AcDbLine
 10
12.45814193385055
 20
7.295122372351354
 30
0.0
 11
12.49814193385055
 21
7.295122372351354
 31
0.0
  0
LINE
  5
2EAC
330
1F
100
AcDbEntity
  8
OBJECT
100
AcDbLine
 10
12.45814193385055
 20
8.755122372351355
 30
0.0
 11
12.45814193385055
 21
7.255122372351355
 31
0.0
  0
LINE
  5
2EAE
330
1F
100
AcDbEntity
  8
OBJECT
100
AcDbLine
 10
12.52014193385055
 20
7.902122372351355
 30
0.0
 11
12.52014193385055
 21
8.108122372351356
 31
0.0
  0
LINE
  5
2EB1
330
1F
100
AcDbEntity
  8
HIDDEN
100
AcDbLine
 10
12.49814193385055
 20
8.715122372351354
 30
0.0
 11
12.49814193385055
 21
7.715122372351358
 31
0.0
  0
LINE
  5
2EB4
330
1F
100
AcDbEntity
  8
HIDDEN
100
AcDbLine
 10
12.49814193385055
 20
7.505122372351357
 30
0.0
 11
12.49814193385055
 21
7.295122372351354
 31
0.0
  0
LINE
  5
2EBB
330
1F
100
AcDbEntity
  8
OBJECT
100
AcDbLine
 10
11.42622269108698
 20
6.616139349985655
 30
0.0
 11
8.238222691086978
 21
6.616139349985654
 31
0.0
  0
ARC
  5
2EBC
330
1F
100
AcDbEntity
  8
OBJECT
100
AcDbCircle
 10
8.300222691086977
 20
6.616139349985655
 30
0.0
 40
0.062
100
AcDbArc
 50
180.0
 51
270.0
  0
LINE
  5
2EBD
330
1F
100
AcDbEntity
  8
OBJECT
100
AcDbLine
 10
8.238222691086978
 20
6.616139349985655
 30
0.0
 11
8.238222691086978
 21
6.616139349985654
 31
0.0
  0
LINE
  5
2EC3
330
1F
100
AcDbEntity
  8
HIDDEN
100
AcDbLine
 10
11.07222269108697
 20
6.576139349985653
 30
0.0
 11
8.592222691086977
 21
6.576139349985653
 31
0.0
  0
ARC
  5
2EC8
330
1F
100
AcDbEntity
  8
OBJECT
100
AcDbCircle
 10
8.423222691086978
 20
6.467139349985654
 30
0.0
 40
0.031
100
AcDbArc
 50
180.0
 51
269.9999999999998
  0
LINE
  5
2EC9
330
1F
100
AcDbEntity
  8
OBJECT
100
AcDbLine
 10
8.552222691086978
 20
6.436139349985654
 30
0.0
 11
8.423222691086978
 21
6.436139349985654
 31
0.0
  0
LINE
  5
2ECA
330
1F
100
AcDbEntity
  8
OBJECT
100
AcDbLine
 10
8.392222691086978
 20
6.467139349985654
 30
0.0
 11
8.392222691086978
 21
6.616139349985654
 31
0.0
  0
LINE
  5
2ECB
330
1F
100
AcDbEntity
  8
OBJECT
100
AcDbLine
 10
8.392222691086978
 20
6.554139349985654
 30
0.0
 11
8.300222691086977
 21
6.554139349985654
 31
0.0
  0
LINE
  5
2ECC
330
1F
100
AcDbEntity
  8
HIDDEN
100
AcDbLine
 10
8.592222691086977
 20
6.616139349985654
 30
0.0
 11
8.592222691086977
 21
6.576139349985653
 31
0.0
  0
LINE
  5
2ECF
330
1F
100
AcDbEntity
  8
OBJECT
100
AcDbLine
 10
11.11222269108697
 20
6.436139349985654
 30
0.0
 11
11.24122269108697
 21
6.436139349985654
 31
0.0
  0
LINE
  5
2ED1
330
1F
100
AcDbEntity
  8
HIDDEN
100
AcDbLine
 10
11.07222269108697
 20
6.616139349985654
 30
0.0
 11
11.07222269108697
 21
6.576139349985653
 31
0.0
  0
ARC
  5
2ED2
330
1F
100
AcDbEntity
  8
OBJECT
100
AcDbCircle
 10
11.24122269108697
 20
6.467139349985654
 30
0.0
 40
0.031
100
AcDbArc
 50
270.0000000000001
 51
0.0000000000000064
  0
ARC
  5
2ED3
330
1F
100
AcDbEntity
  8
OBJECT
100
AcDbCircle
 10
11.36422269108698
 20
6.616139349985655
 30
0.0
 40
0.062
100
AcDbArc
 50
270.0
 51
0.0000000000000064
  0
LINE
  5
2ED4
330
1F
100
AcDbEntity
  8
OBJECT
100
AcDbLine
 10
11.27222269108697
 20
6.467139349985654
 30
0.0
 11
11.27222269108697
 21
6.616139349985654
 31
0.0
  0
LINE
  5
2ED5
330
1F
100
AcDbEntity
  8
OBJECT
100
AcDbLine
 10
11.27222269108697
 20
6.554139349985654
 30
0.0
 11
11.36422269108698
 21
6.554139349985654
 31
0.0
  0
LINE
  5
2ED6
330
1F
100
AcDbEntity
  8
OBJECT
100
AcDbLine
 10
11.42622269108698
 20
6.616139349985655
 30
0.0
 11
11.42622269108698
 21
6.616139349985654
 31
0.0
  0
DIMENSION
  5
2ED8
330
1F
100
AcDbEntity
  8
DIM
100
AcDbDimension
  2
*D24
 10
11.83601593954762
 20
5.632139349985654
 30
0.0
 11
11.83601593954761
 21
6.155139349985655
 31
0.0
 70
    32
 71
     5
 42
1.046
  3
23NSTD
100
AcDbAlignedDimension
 13
11.36422269108698
 23
6.678139349985654
 33
0.0
 14
11.03411967688443
 24
5.632139349985654
 34
0.0
 50
90.0
100
AcDbRotatedDimension
  0
TEXT
  5
2EFB
330
1F
100
AcDbEntity
  8
TEXT
100
AcDbText
 10
0.7473826756854223
 20
7.822115309068273
 30
0.0
 40
0.125
  1
 
 41
0.75
  7
TXT
100
AcDbText
  0
TEXT
  5
2EFC
330
1F
100
AcDbEntity
  8
TEXT
100
AcDbText
 10
0.7473826756854223
 20
7.61378197573494
 30
0.0
 40
0.125
  1
 
 41
0.75
  7
TXT
100
AcDbText
  0
TEXT
  5
2EFD
330
1F
100
AcDbEntity
  8
TEXT
100
AcDbText
 10
0.7473826756854223
 20
7.405448642401607
 30
0.0
 40
0.125
  1
 
 41
0.75
  7
TXT
100
AcDbText
  0
TEXT
  5
2EFE
330
1F
100
AcDbEntity
  8
TEXT
100
AcDbText
 10
0.7473826756854223
 20
7.197115309068274
 30
0.0
 40
0.125
  1
BOX FEATURES PRESS-FIT COVER AND
 41
0.75
  7
TXT
100
AcDbText
  0
TEXT
  5
2EFF
330
1F
100
AcDbEntity
  8
TEXT
100
AcDbText
 10
0.7473826756854223
 20
6.988781975734941
 30
0.0
 40
0.125
  1
THREE MOLDED-IN PROTRUDING WIRE/CABLE ENTRY POINTS.
 41
0.75
  7
TXT
100
AcDbText
  0
LWPOLYLINE
  5
2F2A
330
1F
100
AcDbEntity
  8
OBJECT
100
AcDbPolyline
 90
       32
 70
     1
 43
0.0
 10
11.11222269108698
 20
7.455122372351357
 10
11.11222269108698
 20
7.317122372351354
 42
-0.4142135623730951
 10
11.05022269108697
 20
7.255122372351353
 10
8.614222691086979
 20
7.255122372351353
 42
-0.4142135623730951
 10
8.55222269108698
 20
7.317122372351354
 10
8.55222269108698
 20
7.455122372351357
 10
8.392222691086979
 20
7.455122372351357
 10
8.392222691086979
 20
7.765122372351357
 10
8.55222269108698
 20
7.765122372351357
 10
8.55222269108698
 20
7.778122372351354
 42
0.4142135623730951
 10
8.49022269108698
 20
7.840122372351355
 10
8.40322269108698
 20
7.840122372351355
 42
-0.9999999999999998
 10
8.40322269108698
 20
8.170122372351354
 10
8.49022269108698
 20
8.170122372351354
 42
0.4142135623730951
 10
8.55222269108698
 20
8.232122372351355
 10
8.55222269108698
 20
8.693122372351355
 42
-0.4142135623730951
 10
8.614222691086979
 20
8.755122372351356
 10
11.05022269108697
 20
8.755122372351356
 42
-0.4142135623730951
 10
11.11222269108698
 20
8.693122372351355
 10
11.11222269108698
 20
8.555122372351352
 10
11.27222269108698
 20
8.555122372351352
 10
11.27222269108698
 20
8.245122372351353
 10
11.11222269108698
 20
8.245122372351353
 10
11.11222269108698
 20
8.232122372351355
 42
0.4142135623730951
 10
11.17422269108698
 20
8.170122372351354
 10
11.26122269108698
 20
8.170122372351354
 42
-0.9999999999999998
 10
11.26122269108698
 20
7.840122372351355
 10
11.17422269108698
 20
7.840122372351355
 42
0.4142135623730951
 10
11.11222269108698
 20
7.778122372351354
 10
11.11222269108698
 20
7.765122372351357
 10
11.27222269108698
 20
7.765122372351357
 10
11.27222269108698
 20
7.455122372351357
  0
LINE
  5
2F2E
330
1F
100
AcDbEntity
  8
HIDDEN
100
AcDbLine
 10
8.802274303990206
 20
8.664122372351354
 30
0.0
 11
8.641222691086978
 21
8.505122372351351
 31
0.0
  0
LINE
  5
2F2F
330
1F
100
AcDbEntity
  8
HIDDEN
100
AcDbLine
 10
10.86217107818375
 20
8.664122372351354
 30
0.0
 11
8.802274303990206
 21
8.664122372351354
 31
0.0
  0
LINE
  5
2F30
330
1F
100
AcDbEntity
  8
HIDDEN
100
AcDbLine
 10
11.07222269108697
 20
8.715122372351356
 30
0.0
 11
8.592222691086977
 21
8.715122372351356
 31
0.0
  0
LINE
  5
2F31
330
1F
100
AcDbEntity
  8
HIDDEN
100
AcDbLine
 10
8.592222691086977
 20
8.715122372351356
 30
0.0
 11
8.592222691086977
 21
7.715122372351357
 31
0.0
  0
LINE
  5
2F32
330
1F
100
AcDbEntity
  8
HIDDEN
100
AcDbLine
 10
11.07222269108697
 20
8.715122372351356
 30
0.0
 11
11.07222269108697
 21
8.505122372351351
 31
0.0
  0
LINE
  5
2F33
330
1F
100
AcDbEntity
  8
HIDDEN
100
AcDbLine
 10
10.86217107818375
 20
8.664122372351354
 30
0.0
 11
11.02322269108697
 21
8.505122372351351
 31
0.0
  0
LINE
  5
2F34
330
1F
100
AcDbEntity
  8
HIDDEN
100
AcDbLine
 10
11.02322269108697
 20
8.505122372351351
 30
0.0
 11
11.27222269108697
 21
8.505122372351351
 31
0.0
  0
LINE
  5
2F35
330
1F
100
AcDbEntity
  8
HIDDEN
100
AcDbLine
 10
11.02322269108697
 20
8.295122372351352
 30
0.0
 11
11.27222269108697
 21
8.295122372351352
 31
0.0
  0
LINE
  5
2F36
330
1F
100
AcDbEntity
  8
HIDDEN
100
AcDbLine
 10
10.86217107818375
 20
7.346122372351355
 30
0.0
 11
11.02322269108697
 21
7.505122372351357
 31
0.0
  0
LINE
  5
2F37
330
1F
100
AcDbEntity
  8
HIDDEN
100
AcDbLine
 10
11.02322269108697
 20
7.505122372351357
 30
0.0
 11
11.02322269108697
 21
8.505122372351351
 31
0.0
  0
LINE
  5
2F38
330
1F
100
AcDbEntity
  8
HIDDEN
100
AcDbLine
 10
11.02322269108697
 20
7.505122372351357
 30
0.0
 11
11.27222269108697
 21
7.505122372351357
 31
0.0
  0
LINE
  5
2F39
330
1F
100
AcDbEntity
  8
HIDDEN
100
AcDbLine
 10
11.02322269108697
 20
7.715122372351357
 30
0.0
 11
11.27222269108697
 21
7.715122372351357
 31
0.0
  0
LINE
  5
2F3A
330
1F
100
AcDbEntity
  8
HIDDEN
100
AcDbLine
 10
11.07222269108697
 20
7.715122372351357
 30
0.0
 11
11.07222269108697
 21
8.29512237235135
 31
0.0
  0
LINE
  5
2F3B
330
1F
100
AcDbEntity
  8
HIDDEN
100
AcDbLine
 10
10.86217107818375
 20
7.346122372351355
 30
0.0
 11
8.802274303990206
 21
7.346122372351355
 31
0.0
  0
LINE
  5
2F3C
330
1F
100
AcDbEntity
  8
HIDDEN
100
AcDbLine
 10
8.802274303990206
 20
7.346122372351355
 30
0.0
 11
8.641222691086978
 21
7.505122372351357
 31
0.0
  0
LINE
  5
2F3D
330
1F
100
AcDbEntity
  8
HIDDEN
100
AcDbLine
 10
8.641222691086978
 20
7.505122372351357
 30
0.0
 11
8.641222691086978
 21
8.505122372351351
 31
0.0
  0
LINE
  5
2F3E
330
1F
100
AcDbEntity
  8
HIDDEN
100
AcDbLine
 10
8.641222691086978
 20
7.505122372351357
 30
0.0
 11
8.392222691086978
 21
7.505122372351357
 31
0.0
  0
LINE
  5
2F3F
330
1F
100
AcDbEntity
  8
HIDDEN
100
AcDbLine
 10
8.592222691086977
 20
7.505122372351357
 30
0.0
 11
8.592222691086977
 21
7.295122372351355
 31
0.0
  0
LINE
  5
2F40
330
1F
100
AcDbEntity
  8
HIDDEN
100
AcDbLine
 10
8.641222691086978
 20
7.715122372351357
 30
0.0
 11
8.392222691086978
 21
7.715122372351357
 31
0.0
  0
LINE
  5
2F41
330
1F
100
AcDbEntity
  8
HIDDEN
100
AcDbLine
 10
8.592222691086977
 20
7.295122372351355
 30
0.0
 11
11.07222269108697
 21
7.295122372351355
 31
0.0
  0
LINE
  5
2F42
330
1F
100
AcDbEntity
  8
HIDDEN
100
AcDbLine
 10
11.07222269108697
 20
7.295122372351355
 30
0.0
 11
11.07222269108697
 21
7.505122372351357
 31
0.0
  0
LINE
  5
3051
330
1F
100
AcDbEntity
  8
HIDDEN
100
AcDbLine
 10
11.00798441940464
 20
1.44889837792397
 30
0.0
 11
8.656460962769314
 21
1.44889837792397
 31
0.0
  0
LINE
  5
3052
330
1F
100
AcDbEntity
  8
OBJECT
100
AcDbLine
 10
11.03411967688443
 20
1.37789837792397
 30
0.0
 11
8.630325705289516
 21
1.377898377923969
 31
0.0
  0
LINE
  5
3053
330
1F
100
AcDbEntity
  8
HIDDEN
100
AcDbLine
 10
11.07222269108697
 20
2.321898377923968
 30
0.0
 11
8.592222691086977
 21
2.321898377923969
 31
0.0
  0
LINE
  5
3054
330
1F
100
AcDbEntity
  8
OBJECT
100
AcDbLine
 10
11.42622269108697
 20
2.36189837792397
 30
0.0
 11
8.238222691086978
 21
2.361898377923969
 31
0.0
  0
LINE
  5
3055
330
1F
100
AcDbEntity
  8
HIDDEN
100
AcDbLine
 10
8.641222691086978
 20
2.321898377923969
 30
0.0
 11
8.656460962769314
 21
1.44889837792397
 31
0.0
  0
LINE
  5
3056
330
1F
100
AcDbEntity
  8
HIDDEN
100
AcDbLine
 10
8.802274303990206
 20
2.321898377923969
 30
0.0
 11
8.802274303990206
 21
1.44889837792397
 31
0.0
  0
LINE
  5
3057
330
1F
100
AcDbEntity
  8
OBJECT
100
AcDbLine
 10
8.552222691086978
 20
2.361898377923969
 30
0.0
 11
8.56833514818982
 21
1.438816328724858
 31
0.0
  0
ARC
  5
3058
330
1F
100
AcDbEntity
  8
OBJECT
100
AcDbCircle
 10
8.630325705289516
 20
1.439898377923969
 30
0.0
 40
0.062
100
AcDbArc
 50
181.0
 51
270.0
  0
LINE
  5
3059
330
1F
100
AcDbEntity
  8
OBJECT
100
AcDbLine
 10
8.552222691086978
 20
2.181898377923969
 30
0.0
 11
8.423222691086978
 21
2.181898377923969
 31
0.0
  0
LINE
  5
305A
330
1F
100
AcDbEntity
  8
OBJECT
100
AcDbLine
 10
8.392222691086978
 20
2.212898377923969
 30
0.0
 11
8.392222691086978
 21
2.361898377923969
 31
0.0
  0
ARC
  5
305B
330
1F
100
AcDbEntity
  8
OBJECT
100
AcDbCircle
 10
8.300222691086977
 20
2.36189837792397
 30
0.0
 40
0.062
100
AcDbArc
 50
180.0
 51
270.0
  0
ARC
  5
305C
330
1F
100
AcDbEntity
  8
OBJECT
100
AcDbCircle
 10
8.423222691086978
 20
2.212898377923969
 30
0.0
 40
0.031
100
AcDbArc
 50
180.0
 51
269.9999999999997
  0
LINE
  5
305D
330
1F
100
AcDbEntity
  8
OBJECT
100
AcDbLine
 10
8.392222691086978
 20
2.29989837792397
 30
0.0
 11
8.300222691086977
 21
2.29989837792397
 31
0.0
  0
LINE
  5
305E
330
1F
100
AcDbEntity
  8
OBJECT
100
AcDbLine
 10
8.238222691086978
 20
2.36189837792397
 30
0.0
 11
8.238222691086978
 21
2.361898377923969
 31
0.0
  0
LWPOLYLINE
  5
305F
330
1F
100
AcDbEntity
  8
HIDDEN
100
AcDbPolyline
 90
        4
 70
     0
 43
0.0
 10
8.692222691086978
 20
2.321898377923969
 10
8.692222691086978
 20
1.82189837792397
 10
8.61222269108698
 20
1.82189837792397
 10
8.61222269108698
 20
2.321898377923969
  0
LINE
  5
3060
330
1F
100
AcDbEntity
  8
HIDDEN
100
AcDbLine
 10
8.592222691086977
 20
2.361898377923969
 30
0.0
 11
8.592222691086977
 21
2.321898377923969
 31
0.0
  0
LINE
  5
3061
330
1F
100
AcDbEntity
  8
HIDDEN
100
AcDbLine
 10
11.00798441940464
 20
1.44889837792397
 30
0.0
 11
11.02322269108697
 21
2.321898377923969
 31
0.0
  0
LINE
  5
3062
330
1F
100
AcDbEntity
  8
HIDDEN
100
AcDbLine
 10
10.86217107818374
 20
2.321898377923969
 30
0.0
 11
10.86217107818374
 21
1.44889837792397
 31
0.0
  0
LINE
  5
3063
330
1F
100
AcDbEntity
  8
OBJECT
100
AcDbLine
 10
11.09611023398413
 20
1.438816328724858
 30
0.0
 11
11.11222269108697
 21
2.361898377923969
 31
0.0
  0
ARC
  5
3064
330
1F
100
AcDbEntity
  8
OBJECT
100
AcDbCircle
 10
11.03411967688443
 20
1.43989837792397
 30
0.0
 40
0.062
100
AcDbArc
 50
270.0
 51
358.9999999999999
  0
LINE
  5
3065
330
1F
100
AcDbEntity
  8
OBJECT
100
AcDbLine
 10
11.11222269108697
 20
2.181898377923969
 30
0.0
 11
11.24122269108697
 21
2.181898377923969
 31
0.0
  0
LWPOLYLINE
  5
3066
330
1F
100
AcDbEntity
  8
HIDDEN
100
AcDbPolyline
 90
        4
 70
     0
 43
0.0
 10
10.97222269108698
 20
2.321898377923969
 10
10.97222269108698
 20
1.82189837792397
 10
11.05222269108697
 20
1.82189837792397
 10
11.05222269108697
 20
2.321898377923969
  0
LINE
  5
3067
330
1F
100
AcDbEntity
  8
HIDDEN
100
AcDbLine
 10
11.07222269108697
 20
2.361898377923969
 30
0.0
 11
11.07222269108697
 21
2.321898377923968
 31
0.0
  0
LINE
  5
3068
330
1F
100
AcDbEntity
  8
OBJECT
100
AcDbLine
 10
11.27222269108698
 20
2.212898377923969
 30
0.0
 11
11.27222269108698
 21
2.361898377923969
 31
0.0
  0
ARC
  5
3069
330
1F
100
AcDbEntity
  8
OBJECT
100
AcDbCircle
 10
11.36422269108698
 20
2.36189837792397
 30
0.0
 40
0.062
100
AcDbArc
 50
270.0
 51
0.0000000000000127
  0
ARC
  5
306A
330
1F
100
AcDbEntity
  8
OBJECT
100
AcDbCircle
 10
11.24122269108697
 20
2.212898377923969
 30
0.0
 40
0.031
100
AcDbArc
 50
270.0000000000001
 51
0.0000000000000127
  0
LINE
  5
306B
330
1F
100
AcDbEntity
  8
OBJECT
100
AcDbLine
 10
11.27222269108698
 20
2.29989837792397
 30
0.0
 11
11.36422269108698
 21
2.29989837792397
 31
0.0
  0
LINE
  5
306C
330
1F
100
AcDbEntity
  8
OBJECT
100
AcDbLine
 10
11.42622269108697
 20
2.36189837792397
 30
0.0
 11
11.42622269108697
 21
2.361898377923969
 31
0.0
  0
LWPOLYLINE
  5
306D
330
1F
100
AcDbEntity
  8
HIDDEN
100
AcDbPolyline
 90
        4
 70
     0
 43
0.0
 10
13.51778119797844
 20
4.588898377923969
 10
14.01778119797844
 20
4.588898377923969
 10
14.01778119797844
 20
4.508898377923969
 10
13.51778119797844
 20
4.508898377923969
  0
LWPOLYLINE
  5
306E
330
1F
100
AcDbEntity
  8
HIDDEN
100
AcDbPolyline
 90
        4
 70
     0
 43
0.0
 10
13.51778119797844
 20
3.208898377923969
 10
14.01778119797844
 20
3.208898377923969
 10
14.01778119797844
 20
3.288898377923969
 10
13.51778119797844
 20
3.288898377923969
  0
LINE
  5
306F
330
1F
100
AcDbEntity
  8
HIDDEN
100
AcDbLine
 10
14.39078119797844
 20
4.542660106241634
 30
0.0
 11
13.51778119797844
 21
4.557898377923969
 31
0.0
  0
LINE
  5
3070
330
1F
100
AcDbEntity
  8
HIDDEN
100
AcDbLine
 10
13.51778119797844
 20
3.239898377923969
 30
0.0
 11
14.39078119797844
 21
3.255136649606302
 31
0.0
  0
LINE
  5
3071
330
1F
100
AcDbEntity
  8
OBJECT
100
AcDbLine
 10
14.40086324717755
 20
4.632785920821127
 30
0.0
 11
13.47778119797844
 21
4.648898377923969
 31
0.0
  0
LINE
  5
3072
330
1F
100
AcDbEntity
  8
OBJECT
100
AcDbLine
 10
13.47778119797844
 20
3.148898377923969
 30
0.0
 11
14.40086324717755
 21
3.165010835026811
 31
0.0
  0
LINE
  5
3073
330
1F
100
AcDbEntity
  8
HIDDEN
100
AcDbLine
 10
14.39078119797844
 20
3.398898377923971
 30
0.0
 11
13.58978119797844
 21
3.398898377923972
 31
0.0
  0
LINE
  5
3074
330
1F
100
AcDbEntity
  8
HIDDEN
100
AcDbLine
 10
14.39078119797844
 20
4.398898377923966
 30
0.0
 11
13.51778119797844
 21
4.398898377923966
 31
0.0
  0
LINE
  5
3075
330
1F
100
AcDbEntity
  8
OBJECT
100
AcDbLine
 10
13.47778119797844
 20
3.398898377923972
 30
0.0
 11
13.47778119797844
 21
3.148898377923969
 31
0.0
  0
LINE
  5
3076
330
1F
100
AcDbEntity
  8
HIDDEN
100
AcDbLine
 10
13.51778119797844
 20
3.398898377923972
 30
0.0
 11
13.51778119797844
 21
3.188898377923968
 31
0.0
  0
LINE
  5
3077
330
1F
100
AcDbEntity
  8
HIDDEN
100
AcDbLine
 10
13.47778119797844
 20
3.188898377923968
 30
0.0
 11
13.51778119797844
 21
3.188898377923968
 31
0.0
  0
LINE
  5
3078
330
1F
100
AcDbEntity
  8
OBJECT
100
AcDbLine
 10
13.47778119797844
 20
4.648898377923969
 30
0.0
 11
13.47778119797844
 21
3.608898377923972
 31
0.0
  0
LINE
  5
3079
330
1F
100
AcDbEntity
  8
OBJECT
100
AcDbLine
 10
13.53978119797844
 20
3.795898377923969
 30
0.0
 11
13.53978119797844
 21
4.00189837792397
 31
0.0
  0
LINE
  5
307A
330
1F
100
AcDbEntity
  8
HIDDEN
100
AcDbLine
 10
13.51778119797844
 20
4.608898377923968
 30
0.0
 11
13.51778119797844
 21
3.608898377923972
 31
0.0
  0
LWPOLYLINE
  5
307B
330
1F
100
AcDbEntity
  8
OBJECT
100
AcDbPolyline
 90
        4
 70
     0
 43
0.0
 10
13.47778119797844
 20
3.608898377923972
 10
13.58978119797844
 20
3.608898377923972
 10
13.58978119797844
 20
3.398898377923972
 10
13.47778119797844
 20
3.398898377923972
  0
LWPOLYLINE
  5
307C
330
1F
100
AcDbEntity
  8
OBJECT
100
AcDbPolyline
 90
        6
 70
     0
 43
0.0
 10
13.47778119797844
 20
3.658898377923971
 10
13.62678119797844
 20
3.658898377923971
 42
-0.4142135623730951
 10
13.65778119797844
 20
3.627898377923972
 10
13.65778119797844
 20
3.379898377923971
 42
-0.4142135623730951
 10
13.62678119797844
 20
3.348898377923972
 10
13.47778119797844
 20
3.348898377923972
  0
ARC
  5
307D
330
1F
100
AcDbEntity
  8
OBJECT
100
AcDbCircle
 10
13.47778119797844
 20
3.795898377923969
 30
0.0
 40
0.062
100
AcDbArc
 50
270.0
 51
0.0
  0
LWPOLYLINE
  5
307E
330
1F
100
AcDbEntity
  8
OBJECT
100
AcDbPolyline
 90
        4
 70
     0
 43
0.0
 10
13.47778119797844
 20
4.188898377923966
 10
13.58978119797844
 20
4.188898377923965
 10
13.58978119797844
 20
4.398898377923966
 10
13.47778119797844
 20
4.398898377923966
  0
LWPOLYLINE
  5
307F
330
1F
100
AcDbEntity
  8
OBJECT
100
AcDbPolyline
 90
        6
 70
     0
 43
0.0
 10
13.47778119797844
 20
4.138898377923966
 10
13.62678119797844
 20
4.138898377923966
 42
0.4142135623730951
 10
13.65778119797844
 20
4.169898377923966
 10
13.65778119797844
 20
4.417898377923966
 42
0.4142135623730951
 10
13.62678119797844
 20
4.448898377923966
 10
13.47778119797844
 20
4.448898377923966
  0
ARC
  5
3080
330
1F
100
AcDbEntity
  8
OBJECT
100
AcDbCircle
 10
13.47778119797844
 20
4.00189837792397
 30
0.0
 40
0.062
100
AcDbArc
 50
0.0
 51
90.0
  0
LINE
  5
3081
330
1F
100
AcDbEntity
  8
HIDDEN
100
AcDbLine
 10
13.47778119797844
 20
4.608898377923968
 30
0.0
 11
13.51778119797844
 21
4.608898377923968
 31
0.0
  0
ARC
  5
3082
330
1F
100
AcDbEntity
  8
OBJECT
100
AcDbCircle
 10
14.39978119797844
 20
3.227001392126508
 30
0.0
 40
0.062
100
AcDbArc
 50
271.0
 51
0.0
  0
LINE
  5
3083
330
1F
100
AcDbEntity
  8
HIDDEN
100
AcDbLine
 10
14.39078119797844
 20
4.542660106241634
 30
0.0
 11
14.39078119797844
 21
3.255136649606302
 31
0.0
  0
LINE
  5
3084
330
1F
100
AcDbEntity
  8
OBJECT
100
AcDbLine
 10
14.46178119797844
 20
4.570795363721431
 30
0.0
 11
14.46178119797844
 21
3.227001392126508
 31
0.0
  0
ARC
  5
3085
330
1F
100
AcDbEntity
  8
OBJECT
100
AcDbCircle
 10
14.39978119797844
 20
4.570795363721431
 30
0.0
 40
0.062
100
AcDbArc
 50
0.0
 51
88.99999999999996
  0
LINE
  5
3139
330
1F
100
AcDbEntity
  8
HIDDEN
100
AcDbLine
 10
11.00798441940464
 20
5.703139349985653
 30
0.0
 11
8.656460962769314
 21
5.703139349985653
 31
0.0
  0
LINE
  5
313A
330
1F
100
AcDbEntity
  8
OBJECT
100
AcDbLine
 10
11.03411967688443
 20
5.632139349985654
 30
0.0
 11
8.630325705289516
 21
5.632139349985653
 31
0.0
  0
ARC
  5
313B
330
1F
100
AcDbEntity
  8
OBJECT
100
AcDbCircle
 10
8.630325705289516
 20
5.694139349985653
 30
0.0
 40
0.062
100
AcDbArc
 50
181.0
 51
270.0
  0
ARC
  5
313C
330
1F
100
AcDbEntity
  8
OBJECT
100
AcDbCircle
 10
11.03411967688443
 20
5.694139349985654
 30
0.0
 40
0.062
100
AcDbArc
 50
270.0
 51
358.9999999999999
  0
LINE
  5
313D
330
1F
100
AcDbEntity
  8
HIDDEN
100
AcDbLine
 10
11.00798441940464
 20
5.703139349985653
 30
0.0
 11
11.02322269108697
 21
6.576139349985653
 31
0.0
  0
LINE
  5
313E
330
1F
100
AcDbEntity
  8
HIDDEN
100
AcDbLine
 10
10.86217107818374
 20
6.576139349985653
 30
0.0
 11
10.86217107818374
 21
5.703139349985653
 31
0.0
  0
LINE
  5
313F
330
1F
100
AcDbEntity
  8
OBJECT
100
AcDbLine
 10
11.09611023398413
 20
5.693057300786542
 30
0.0
 11
11.11222269108697
 21
6.616139349985653
 31
0.0
  0
LWPOLYLINE
  5
3140
330
1F
100
AcDbEntity
  8
HIDDEN
100
AcDbPolyline
 90
        4
 70
     0
 43
0.0
 10
10.97222269108698
 20
6.576139349985653
 10
10.97222269108698
 20
6.076139349985654
 10
11.05222269108697
 20
6.076139349985654
 10
11.05222269108697
 20
6.576139349985653
  0
LINE
  5
3141
330
1F
100
AcDbEntity
  8
HIDDEN
100
AcDbLine
 10
8.802274303990206
 20
6.576139349985653
 30
0.0
 11
8.802274303990206
 21
5.703139349985653
 31
0.0
  0
LWPOLYLINE
  5
3142
330
1F
100
AcDbEntity
  8
HIDDEN
100
AcDbPolyline
 90
        4
 70
     0
 43
0.0
 10
8.692222691086978
 20
6.576139349985653
 10
8.692222691086978
 20
6.076139349985654
 10
8.61222269108698
 20
6.076139349985654
 10
8.61222269108698
 20
6.576139349985653
  0
LINE
  5
3143
330
1F
100
AcDbEntity
  8
OBJECT
100
AcDbLine
 10
8.552222691086978
 20
6.616139349985653
 30
0.0
 11
8.56833514818982
 21
5.693057300786541
 31
0.0
  0
LINE
  5
3144
330
1F
100
AcDbEntity
  8
HIDDEN
100
AcDbLine
 10
8.641222691086978
 20
6.576139349985653
 30
0.0
 11
8.656460962769314
 21
5.703139349985653
 31
0.0
  0
LINE
  5
3145
330
1F
100
AcDbEntity
  8
OBJECT
100
AcDbLine
 10
13.38122398304966
 20
8.739009915248516
 30
0.0
 11
12.45814193385055
 21
8.755122372351358
 31
0.0
  0
LINE
  5
3146
330
1F
100
AcDbEntity
  8
OBJECT
100
AcDbLine
 10
12.45814193385055
 20
7.255122372351358
 30
0.0
 11
13.38122398304966
 21
7.271234829454201
 31
0.0
  0
LINE
  5
3147
330
1F
100
AcDbEntity
  8
HIDDEN
100
AcDbLine
 10
13.37114193385055
 20
8.648884100669024
 30
0.0
 11
13.37114193385055
 21
7.361360644033691
 31
0.0
  0
LINE
  5
3148
330
1F
100
AcDbEntity
  8
OBJECT
100
AcDbLine
 10
13.44214193385055
 20
8.67701935814882
 30
0.0
 11
13.44214193385055
 21
7.333225386553896
 31
0.0
  0
LINE
  5
3149
330
1F
100
AcDbEntity
  8
HIDDEN
100
AcDbLine
 10
12.49814193385055
 20
7.346122372351358
 30
0.0
 11
13.37114193385055
 21
7.361360644033691
 31
0.0
  0
LWPOLYLINE
  5
314A
330
1F
100
AcDbEntity
  8
HIDDEN
100
AcDbPolyline
 90
        4
 70
     0
 43
0.0
 10
12.49814193385055
 20
7.315122372351358
 10
12.99814193385055
 20
7.315122372351358
 10
12.99814193385055
 20
7.395122372351358
 10
12.49814193385055
 20
7.395122372351358
  0
ARC
  5
314B
330
1F
100
AcDbEntity
  8
OBJECT
100
AcDbCircle
 10
13.38014193385055
 20
7.333225386553896
 30
0.0
 40
0.062
100
AcDbArc
 50
271.0
 51
0.0
  0
LINE
  5
314C
330
1F
100
AcDbEntity
  8
HIDDEN
100
AcDbLine
 10
13.37114193385056
 20
7.50512237235136
 30
0.0
 11
12.57014193385055
 21
7.505122372351361
 31
0.0
  0
LINE
  5
314D
330
1F
100
AcDbEntity
  8
HIDDEN
100
AcDbLine
 10
13.37114193385055
 20
8.648884100669024
 30
0.0
 11
12.49814193385055
 21
8.664122372351357
 31
0.0
  0
LINE
  5
314E
330
1F
100
AcDbEntity
  8
HIDDEN
100
AcDbLine
 10
13.37114193385056
 20
8.505122372351355
 30
0.0
 11
12.49814193385055
 21
8.505122372351355
 31
0.0
  0
LWPOLYLINE
  5
314F
330
1F
100
AcDbEntity
  8
HIDDEN
100
AcDbPolyline
 90
        4
 70
     0
 43
0.0
 10
12.49814193385055
 20
8.695122372351359
 10
12.99814193385055
 20
8.695122372351359
 10
12.99814193385055
 20
8.615122372351358
 10
12.49814193385055
 20
8.615122372351358
  0
ARC
  5
3150
330
1F
100
AcDbEntity
  8
OBJECT
100
AcDbCircle
 10
13.38014193385055
 20
8.67701935814882
 30
0.0
 40
0.062
100
AcDbArc
 50
0.0
 51
88.99999999999996
  0
LINE
  5
319A
330
1F
100
AcDbEntity
  8
OBJECT
100
AcDbLine
 10
6.222303448323405
 20
8.67701935814882
 30
0.0
 11
6.222303448323401
 21
7.333225386553896
 31
0.0
  0
LINE
  5
319B
330
1F
100
AcDbEntity
  8
HIDDEN
100
AcDbLine
 10
6.293303448323403
 20
8.648884100669024
 30
0.0
 11
6.293303448323403
 21
7.361360644033691
 31
0.0
  0
LINE
  5
319C
330
1F
100
AcDbEntity
  8
HIDDEN
100
AcDbLine
 10
7.166303448323402
 20
8.715122372351354
 30
0.0
 11
7.166303448323402
 21
7.715122372351358
 31
0.0
  0
LINE
  5
319D
330
1F
100
AcDbEntity
  8
OBJECT
100
AcDbLine
 10
7.206303448323403
 20
8.755122372351355
 30
0.0
 11
7.206303448323403
 21
7.255122372351355
 31
0.0
  0
ARC
  5
319E
330
1F
100
AcDbEntity
  8
OBJECT
100
AcDbCircle
 10
7.206303448323403
 20
7.902122372351355
 30
0.0
 40
0.062
100
AcDbArc
 50
180.0
 51
270.0
  0
ARC
  5
319F
330
1F
100
AcDbEntity
  8
OBJECT
100
AcDbCircle
 10
7.206303448323403
 20
7.902122372351357
 30
0.0
 40
0.062
100
AcDbArc
 50
270.0
 51
0.000000000000007
  0
LINE
  5
31A0
330
1F
100
AcDbEntity
  8
OBJECT
100
AcDbLine
 10
7.268303448323402
 20
8.693122372351357
 30
0.0
 11
7.268303448323402
 21
7.317122372351354
 31
0.0
  0
LINE
  5
31A1
330
1F
100
AcDbEntity
  8
HIDDEN
100
AcDbLine
 10
6.293303448323399
 20
7.50512237235136
 30
0.0
 11
7.094303448323405
 21
7.505122372351361
 31
0.0
  0
LWPOLYLINE
  5
31A2
330
1F
100
AcDbEntity
  8
HIDDEN
100
AcDbPolyline
 90
        4
 70
     0
 43
0.0
 10
7.1663034483234
 20
7.315122372351358
 10
6.666303448323404
 20
7.315122372351358
 10
6.666303448323404
 20
7.395122372351358
 10
7.1663034483234
 20
7.395122372351358
  0
LINE
  5
31A3
330
1F
100
AcDbEntity
  8
HIDDEN
100
AcDbLine
 10
7.166303448323404
 20
7.346122372351358
 30
0.0
 11
6.293303448323403
 21
7.361360644033691
 31
0.0
  0
LINE
  5
31A4
330
1F
100
AcDbEntity
  8
OBJECT
100
AcDbLine
 10
7.206303448323403
 20
7.255122372351358
 30
0.0
 11
6.283221399124293
 21
7.271234829454201
 31
0.0
  0
LINE
  5
31A5
330
1F
100
AcDbEntity
  8
HIDDEN
100
AcDbLine
 10
7.166303448323402
 20
7.505122372351357
 30
0.0
 11
7.166303448323402
 21
7.295122372351354
 31
0.0
  0
LWPOLYLINE
  5
31A6
330
1F
100
AcDbEntity
  8
OBJECT
100
AcDbPolyline
 90
        6
 70
     0
 43
0.0
 10
7.206303448323403
 20
7.765122372351357
 10
7.057303448323402
 20
7.765122372351357
 42
0.4142135623730951
 10
7.026303448323403
 20
7.734122372351357
 10
7.026303448323403
 20
7.486122372351357
 42
0.4142135623730951
 10
7.057303448323402
 20
7.455122372351357
 10
7.206303448323403
 20
7.455122372351357
  0
LWPOLYLINE
  5
31A7
330
1F
100
AcDbEntity
  8
OBJECT
100
AcDbPolyline
 90
        3
 70
     0
 43
0.0
 10
7.268303448323402
 20
7.48612237235136
 42
-0.4142135623731035
 10
7.237303448323403
 20
7.455122372351359
 10
7.206303448323403
 20
7.455122372351359
  0
LWPOLYLINE
  5
31A8
330
1F
100
AcDbEntity
  8
HIDDEN
100
AcDbPolyline
 90
        5
 70
     0
 43
0.0
 10
7.206303448323403
 20
7.395122372351359
 10
7.084021416020648
 20
7.395122372351359
 10
7.073303448323404
 20
7.355122372351356
 10
7.084021416020648
 20
7.315122372351355
 10
7.206303448323403
 20
7.315122372351355
  0
ARC
  5
31A9
330
1F
100
AcDbEntity
  8
OBJECT
100
AcDbCircle
 10
7.206303448323403
 20
7.317122372351355
 30
0.0
 40
0.062
100
AcDbArc
 50
270.0
 51
359.9999999999999
  0
LINE
  5
31AA
330
1F
100
AcDbEntity
  8
OBJECT
100
AcDbLine
 10
7.206303448323403
 20
7.255122372351356
 30
0.0
 11
7.206303448323403
 21
7.255122372351356
 31
0.0
  0
LINE
  5
31AB
330
1F
100
AcDbEntity
  8
HIDDEN
100
AcDbLine
 10
7.206303448323403
 20
7.295122372351354
 30
0.0
 11
7.166303448323402
 21
7.295122372351354
 31
0.0
  0
LINE
  5
31AC
330
1F
100
AcDbEntity
  8
HIDDEN
100
AcDbLine
 10
7.084021416020648
 20
7.315122372351355
 30
0.0
 11
7.084021416020648
 21
7.395122372351359
 31
0.0
  0
LWPOLYLINE
  5
31AD
330
1F
100
AcDbEntity
  8
OBJECT
100
AcDbPolyline
 90
        4
 70
     0
 43
0.0
 10
7.206303448323403
 20
7.715122372351357
 10
7.094303448323405
 20
7.715122372351358
 10
7.094303448323405
 20
7.505122372351357
 10
7.206303448323403
 20
7.505122372351357
  0
LWPOLYLINE
  5
31AE
330
1F
100
AcDbEntity
  8
OBJECT
100
AcDbPolyline
 90
        3
 70
     0
 43
0.0
 10
7.206303448323403
 20
7.765122372351359
 10
7.237303448323403
 20
7.765122372351359
 42
-0.4142135623730951
 10
7.268303448323402
 20
7.734122372351359
  0
ARC
  5
31AF
330
1F
100
AcDbEntity
  8
OBJECT
100
AcDbCircle
 10
6.284303448323402
 20
7.333225386553896
 30
0.0
 40
0.062
100
AcDbArc
 50
180.0
 51
268.9999999999999
  0
LINE
  5
31B0
330
1F
100
AcDbEntity
  8
HIDDEN
100
AcDbLine
 10
6.293303448323399
 20
8.505122372351355
 30
0.0
 11
7.166303448323404
 21
8.505122372351355
 31
0.0
  0
ARC
  5
31B1
330
1F
100
AcDbEntity
  8
OBJECT
100
AcDbCircle
 10
7.206303448323403
 20
8.108122372351356
 30
0.0
 40
0.062
100
AcDbArc
 50
89.99999999999998
 51
180.0
  0
ARC
  5
31B2
330
1F
100
AcDbEntity
  8
OBJECT
100
AcDbCircle
 10
7.206303448323403
 20
8.108122372351356
 30
0.0
 40
0.062
100
AcDbArc
 50
0.000000000000007
 51
90.0
  0
LINE
  5
31B3
330
1F
100
AcDbEntity
  8
OBJECT
100
AcDbLine
 10
7.144303448323404
 20
7.902122372351355
 30
0.0
 11
7.144303448323404
 21
8.108122372351356
 31
0.0
  0
LWPOLYLINE
  5
31B8
330
1F
100
AcDbEntity
  8
HIDDEN
100
AcDbPolyline
 90
        4
 70
     0
 43
0.0
 10
7.1663034483234
 20
8.695122372351359
 10
6.666303448323404
 20
8.695122372351359
 10
6.666303448323404
 20
8.615122372351358
 10
7.1663034483234
 20
8.615122372351358
  0
LINE
  5
31B9
330
1F
100
AcDbEntity
  8
HIDDEN
100
AcDbLine
 10
6.293303448323403
 20
8.648884100669024
 30
0.0
 11
7.166303448323404
 21
8.664122372351357
 31
0.0
  0
LINE
  5
31BA
330
1F
100
AcDbEntity
  8
OBJECT
100
AcDbLine
 10
6.283221399124293
 20
8.739009915248516
 30
0.0
 11
7.206303448323403
 21
8.755122372351358
 31
0.0
  0
LWPOLYLINE
  5
31BB
330
1F
100
AcDbEntity
  8
HIDDEN
100
AcDbPolyline
 90
        5
 70
     0
 43
0.0
 10
7.206303448323403
 20
8.615122372351358
 10
7.084021416020648
 20
8.615122372351356
 10
7.073303448323404
 20
8.655122372351355
 10
7.084021416020648
 20
8.695122372351354
 10
7.206303448323403
 20
8.695122372351356
  0
LINE
  5
31BC
330
1F
100
AcDbEntity
  8
HIDDEN
100
AcDbLine
 10
7.206303448323403
 20
8.715122372351354
 30
0.0
 11
7.166303448323402
 21
8.715122372351354
 31
0.0
  0
LINE
  5
31BD
330
1F
100
AcDbEntity
  8
OBJECT
100
AcDbLine
 10
7.206303448323403
 20
8.755122372351358
 30
0.0
 11
7.206303448323403
 21
8.755122372351358
 31
0.0
  0
ARC
  5
31BE
330
1F
100
AcDbEntity
  8
OBJECT
100
AcDbCircle
 10
7.206303448323403
 20
8.693122372351359
 30
0.0
 40
0.062
100
AcDbArc
 50
359.9999999999999
 51
90.0
  0
LINE
  5
31BF
330
1F
100
AcDbEntity
  8
HIDDEN
100
AcDbLine
 10
7.084021416020648
 20
8.695122372351354
 30
0.0
 11
7.084021416020648
 21
8.615122372351356
 31
0.0
  0
ARC
  5
31C0
330
1F
100
AcDbEntity
  8
OBJECT
100
AcDbCircle
 10
6.284303448323406
 20
8.67701935814882
 30
0.0
 40
0.062
100
AcDbArc
 50
91.00000000000004
 51
180.0
  0
ENDSEC
  0
SECTION
  2
OBJECTS
  0
DICTIONARY
  5
C
330
0
100
AcDbDictionary
281
     1
  3
ACAD_GROUP
350
D
  3
ACAD_LAYOUT
350
1A
  3
ACAD_MLINESTYLE
350
17
  3
ACAD_PLOTSETTINGS
350
19
  3
ACAD_PLOTSTYLENAME
350
E
  3
AcadDim
350
29E1
  3
ASE_INDEX_DICTIONARY
350
274A
  0
DICTIONARY
  5
D
102
{ACAD_REACTORS
330
C
102
}
330
C
100
AcDbDictionary
281
     1
  0
DICTIONARY
  5
1A
102
{ACAD_REACTORS
330
C
102
}
330
C
100
AcDbDictionary
281
     1
  3
Layout1
350
1E
  3
Layout2
350
26
  3
Model
350
22
  0
DICTIONARY
  5
17
102
{ACAD_REACTORS
330
C
102
}
330
C
100
AcDbDictionary
281
     1
  3
Standard
350
18
  0
DICTIONARY
  5
19
102
{ACAD_REACTORS
330
C
102
}
330
C
100
AcDbDictionary
281
     1
  0
ACDBDICTIONARYWDFLT
  5
E
102
{ACAD_REACTORS
330
C
102
}
330
C
100
AcDbDictionary
281
     1
  3
Normal
350
F
100
AcDbDictionaryWithDefault
340
F
  0
XRECORD
  5
29E1
102
{ACAD_REACTORS
330
C
102
}
330
C
100
AcDbXrecord
280
     1
 90
   990106
  3

 60
     0
 61
     0
 62
     1
 63
     1
 64
     0
 65
     0
 66
     0
 67
     3
 68
     1
 69
     0
 70
     0
 71
     0
 72
     0
 40
0.0
170
     2
340
29E3
  0
DICTIONARY
  5
274A
102
{ACAD_REACTORS
330
C
102
}
330
C
100
AcDbDictionary
281
     1
  3
ASEBlockHierarchyIndexRecord
350
274B
1001
DCO15
1040
1461492688.108999
  0
LAYOUT
  5
1E
102
{ACAD_REACTORS
330
1A
102
}
330
1A
100
AcDbPlotSettings
  1

  2

  4

  6

 40
0.0
 41
0.0
 42
0.0
 43
0.0
 44
0.0
 45
0.0
 46
0.0
 47
0.0
 48
0.0
 49
0.0
140
0.0
141
0.0
142
1.0
143
1.0
 70
   688
 72
     0
 73
     0
 74
     5
  7
monochrome.ctb
 75
    16
147
1.0
148
0.0
149
0.0
100
AcDbLayout
  1
Layout1
 70
     1
 71
     1
 10
0.0
 20
0.0
 11
12.0
 21
9.0
 12
0.0
 22
0.0
 32
0.0
 14
1.000000000000000E+20
 24
1.000000000000000E+20
 34
1.000000000000000E+20
 15
-1.000000000000000E+20
 25
-1.000000000000000E+20
 35
-1.000000000000000E+20
146
0.0
 13
0.0
 23
0.0
 33
0.0
 16
1.0
 26
0.0
 36
0.0
 17
0.0
 27
1.0
 37
0.0
 76
     0
330
1B
  0
LAYOUT
  5
26
102
{ACAD_REACTORS
330
1A
102
}
330
1A
100
AcDbPlotSettings
  1

  2

  4

  6

 40
0.0
 41
0.0
 42
0.0
 43
0.0
 44
0.0
 45
0.0
 46
0.0
 47
0.0
 48
0.0
 49
0.0
140
0.0
141
0.0
142
1.0
143
1.0
 70
   688
 72
     0
 73
     0
 74
     5
  7
monochrome.ctb
 75
    16
147
1.0
148
0.0
149
0.0
100
AcDbLayout
  1
Layout2
 70
     1
 71
     2
 10
0.0
 20
0.0
 11
12.0
 21
9.0
 12
0.0
 22
0.0
 32
0.0
 14
0.0
 24
0.0
 34
0.0
 15
0.0
 25
0.0
 35
0.0
146
0.0
 13
0.0
 23
0.0
 33
0.0
 16
1.0
 26
0.0
 36
0.0
 17
0.0
 27
1.0
 37
0.0
 76
     0
330
23
  0
LAYOUT
  5
22
102
{ACAD_REACTORS
330
1A
102
}
330
1A
100
AcDbPlotSettings
  1

  2
Acrobat PDFWriter
  4
Tabloid
  6

 40
3.174999952316284
 41
3.174999952316284
 42
3.17498779296875
 43
3.17498779296875
 44
431.8000183105469
 45
279.3999938964843
 46
0.0
 47
12.7
 48
0.0
 49
0.0
140
0.0
141
0.0
142
1.0
143
0.991105193489062
 70
 11956
 72
     0
 73
     0
 74
     1
  7
monochrome.ctb
 75
     0
147
1.008974634145165
148
0.012866449948551
149
0.0074873437652244
100
AcDbLayout
  1
Model
 70
     1
 71
     0
 10
0.0
 20
0.0
 11
12.0
 21
9.0
 12
0.0
 22
0.0
 32
0.0
 14
0.0
 24
0.0
 34
0.0
 15
0.0
 25
0.0
 35
0.0
146
0.0
 13
0.0
 23
0.0
 33
0.0
 16
1.0
 26
0.0
 36
0.0
 17
0.0
 27
1.0
 37
0.0
 76
     0
330
1F
  0
MLINESTYLE
  5
18
102
{ACAD_REACTORS
330
17
102
}
330
17
100
AcDbMlineStyle
  2
STANDARD
 70
     0
  3

 62
   256
 51
90.0
 52
90.0
 71
     2
 49
0.5
 62
   256
  6
BYLAYER
 49
-0.5
 62
   256
  6
BYLAYER
  0
ACDBPLACEHOLDER
  5
F
102
{ACAD_REACTORS
330
E
102
}
330
E
  0
XRECORD
  5
274B
102
{ACAD_REACTORS
330
274A
102
}
330
274A
100
AcDbXrecord
280
     1
330
81
330
0
330
0
330
0
330
0
330
0
330
0
330
0
330
0
330
0
330
0
330
0
330
0
330
0
330
0
  0
ENDSEC
  0
EOF
