  0
SECTION
  2
HEADER
  9
$ACADVER
  1
AC1015
  9
$ACADMAINTVER
 70
     6
  9
$DWGCODEPAGE
  3
ANSI_1252
  9
$INSBASE
 10
0.0
 20
0.0
 30
0.0
  9
$EXTMIN
 10
0.0
 20
0.0
 30
0.0
  9
$EXTMAX
 10
16.6
 20
9.659999999999996
 30
0.0
  9
$LIMMIN
 10
0.0
 20
0.0
  9
$LIMMAX
 10
12.0
 20
9.0
  9
$ORTHOMODE
 70
     1
  9
$REGENMODE
 70
     1
  9
$FILLMODE
 70
     1
  9
$QTEXTMODE
 70
     0
  9
$MIRRTEXT
 70
     1
  9
$LTSCALE
 40
0.375
  9
$ATTMODE
 70
     1
  9
$TEXTSIZE
 40
0.125
  9
$TRACEWID
 40
0.05
  9
$TEXTSTYLE
  7
TXT
  9
$CLAYER
  8
DIM
  9
$CELTYPE
  6
ByLayer
  9
$CECOLOR
 62
   256
  9
$CELTSCALE
 40
1.0
  9
$DISPSILH
 70
     0
  9
$DIMSCALE
 40
1.0
  9
$DIMASZ
 40
0.18
  9
$DIMEXO
 40
0.063
  9
$DIMDLI
 40
0.281
  9
$DIMRND
 40
0.0
  9
$DIMDLE
 40
0.0
  9
$DIMEXE
 40
0.093
  9
$DIMTP
 40
0.0
  9
$DIMTM
 40
0.0
  9
$DIMTXT
 40
0.125
  9
$DIMCEN
 40
0.09
  9
$DIMTSZ
 40
0.0
  9
$DIMTOL
 70
     0
  9
$DIMLIM
 70
     0
  9
$DIMTIH
 70
     1
  9
$DIMTOH
 70
     1
  9
$DIMSE1
 70
     0
  9
$DIMSE2
 70
     0
  9
$DIMTAD
 70
     0
  9
$DIMZIN
 70
     0
  9
$DIMBLK
  1

  9
$DIMASO
 70
     1
  9
$DIMSHO
 70
     1
  9
$DIMPOST
  1

  9
$DIMAPOST
  1

  9
$DIMALT
 70
     0
  9
$DIMALTD
 70
     2
  9
$DIMALTF
 40
25.4
  9
$DIMLFAC
 40
1.0
  9
$DIMTOFL
 70
     0
  9
$DIMTVP
 40
0.0
  9
$DIMTIX
 70
     0
  9
$DIMSOXD
 70
     0
  9
$DIMSAH
 70
     0
  9
$DIMBLK1
  1

  9
$DIMBLK2
  1

  9
$DIMSTYLE
  2
23NSTD
  9
$DIMCLRD
 70
     0
  9
$DIMCLRE
 70
     0
  9
$DIMCLRT
 70
     0
  9
$DIMTFAC
 40
1.0
  9
$DIMGAP
 40
0.09
  9
$DIMJUST
 70
     0
  9
$DIMSD1
 70
     0
  9
$DIMSD2
 70
     0
  9
$DIMTOLJ
 70
     1
  9
$DIMTZIN
 70
     0
  9
$DIMALTZ
 70
     0
  9
$DIMALTTZ
 70
     0
  9
$DIMUPT
 70
     0
  9
$DIMDEC
 70
     3
  9
$DIMTDEC
 70
     3
  9
$DIMALTU
 70
     2
  9
$DIMALTTD
 70
     2
  9
$DIMTXSTY
  7
TXT
  9
$DIMAUNIT
 70
     0
  9
$DIMADEC
 70
     0
  9
$DIMALTRND
 40
0.0
  9
$DIMAZIN
 70
     0
  9
$DIMDSEP
 70
    46
  9
$DIMATFIT
 70
     1
  9
$DIMFRAC
 70
     0
  9
$DIMLDRBLK
  1

  9
$DIMLUNIT
 70
     2
  9
$DIMLWD
 70
    -2
  9
$DIMLWE
 70
    -2
  9
$DIMTMOVE
 70
     0
  9
$LUNITS
 70
     2
  9
$LUPREC
 70
     3
  9
$SKETCHINC
 40
0.1
  9
$FILLETRAD
 40
0.5
  9
$AUNITS
 70
     0
  9
$AUPREC
 70
     0
  9
$MENU
  1
.
  9
$ELEVATION
 40
0.0
  9
$PELEVATION
 40
0.0
  9
$THICKNESS
 40
0.0
  9
$LIMCHECK
 70
     0
  9
$CHAMFERA
 40
0.5
  9
$CHAMFERB
 40
0.5
  9
$CHAMFERC
 40
1.0
  9
$CHAMFERD
 40
0.0
  9
$SKPOLY
 70
     0
  9
$TDCREATE
 40
2452718.642103044
  9
$TDUCREATE
 40
2452718.808769711
  9
$TDUPDATE
 40
2452901.310888309
  9
$TDUUPDATE
 40
2452901.477554977
  9
$TDINDWG
 40
0.1501472106
  9
$TDUSRTIMER
 40
0.1501472106
  9
$USRTIMER
 70
     1
  9
$ANGBASE
 50
0.0
  9
$ANGDIR
 70
     0
  9
$PDMODE
 70
     0
  9
$PDSIZE
 40
0.0
  9
$PLINEWID
 40
0.0
  9
$SPLFRAME
 70
     0
  9
$SPLINETYPE
 70
     6
  9
$SPLINESEGS
 70
     8
  9
$HANDSEED
  5
3AB0
  9
$SURFTAB1
 70
     6
  9
$SURFTAB2
 70
     6
  9
$SURFTYPE
 70
     6
  9
$SURFU
 70
     6
  9
$SURFV
 70
     6
  9
$UCSBASE
  2

  9
$UCSNAME
  2

  9
$UCSORG
 10
0.0
 20
0.0
 30
0.0
  9
$UCSXDIR
 10
1.0
 20
0.0
 30
0.0
  9
$UCSYDIR
 10
0.0
 20
1.0
 30
0.0
  9
$UCSORTHOREF
  2

  9
$UCSORTHOVIEW
 70
     0
  9
$UCSORGTOP
 10
0.0
 20
0.0
 30
0.0
  9
$UCSORGBOTTOM
 10
0.0
 20
0.0
 30
0.0
  9
$UCSORGLEFT
 10
0.0
 20
0.0
 30
0.0
  9
$UCSORGRIGHT
 10
0.0
 20
0.0
 30
0.0
  9
$UCSORGFRONT
 10
0.0
 20
0.0
 30
0.0
  9
$UCSORGBACK
 10
0.0
 20
0.0
 30
0.0
  9
$PUCSBASE
  2

  9
$PUCSNAME
  2

  9
$PUCSORG
 10
0.0
 20
0.0
 30
0.0
  9
$PUCSXDIR
 10
1.0
 20
0.0
 30
0.0
  9
$PUCSYDIR
 10
0.0
 20
1.0
 30
0.0
  9
$PUCSORTHOREF
  2

  9
$PUCSORTHOVIEW
 70
     0
  9
$PUCSORGTOP
 10
0.0
 20
0.0
 30
0.0
  9
$PUCSORGBOTTOM
 10
0.0
 20
0.0
 30
0.0
  9
$PUCSORGLEFT
 10
0.0
 20
0.0
 30
0.0
  9
$PUCSORGRIGHT
 10
0.0
 20
0.0
 30
0.0
  9
$PUCSORGFRONT
 10
0.0
 20
0.0
 30
0.0
  9
$PUCSORGBACK
 10
0.0
 20
0.0
 30
0.0
  9
$USERI1
 70
     0
  9
$USERI2
 70
     0
  9
$USERI3
 70
     0
  9
$USERI4
 70
     0
  9
$USERI5
 70
     0
  9
$USERR1
 40
0.0
  9
$USERR2
 40
0.0
  9
$USERR3
 40
0.0
  9
$USERR4
 40
0.0
  9
$USERR5
 40
0.0
  9
$WORLDVIEW
 70
     1
  9
$SHADEDGE
 70
     3
  9
$SHADEDIF
 70
    70
  9
$TILEMODE
 70
     1
  9
$MAXACTVP
 70
    64
  9
$PINSBASE
 10
0.0
 20
0.0
 30
0.0
  9
$PLIMCHECK
 70
     0
  9
$PEXTMIN
 10
1.000000000000000E+20
 20
1.000000000000000E+20
 30
1.000000000000000E+20
  9
$PEXTMAX
 10
-1.000000000000000E+20
 20
-1.000000000000000E+20
 30
-1.000000000000000E+20
  9
$PLIMMIN
 10
0.0
 20
0.0
  9
$PLIMMAX
 10
12.0
 20
9.0
  9
$UNITMODE
 70
     0
  9
$VISRETAIN
 70
     1
  9
$PLINEGEN
 70
     0
  9
$PSLTSCALE
 70
     1
  9
$TREEDEPTH
 70
  3020
  9
$CMLSTYLE
  2
Standard
  9
$CMLJUST
 70
     0
  9
$CMLSCALE
 40
1.0
  9
$PROXYGRAPHICS
 70
     1
  9
$MEASUREMENT
 70
     0
  9
$CELWEIGHT
370
    -1
  9
$ENDCAPS
280
     0
  9
$JOINSTYLE
280
     0
  9
$LWDISPLAY
290
     0
  9
$INSUNITS
 70
     1
  9
$HYPERLINKBASE
  1

  9
$STYLESHEET
  1
monochrome.ctb
  9
$XEDIT
290
     1
  9
$CEPSNTYPE
380
     0
  9
$PSTYLEMODE
290
     1
  9
$FINGERPRINTGUID
  2
{FDEAD576-A652-11D2-9A35-0060089B3A3F}
  9
$VERSIONGUID
  2
{DF63E352-E9CA-11D7-8525-00C04F604D21}
  9
$EXTNAMES
290
     1
  9
$PSVPSCALE
 40
0.0
  9
$OLESTARTUP
290
     0
  0
ENDSEC
  0
SECTION
  2
CLASSES
  0
CLASS
  1
ACDBDICTIONARYWDFLT
  2
AcDbDictionaryWithDefault
  3
AutoCAD 2000
 90
        0
280
     0
281
     0
  0
CLASS
  1
ACDBPLACEHOLDER
  2
AcDbPlaceHolder
  3
AutoCAD 2000
 90
        0
280
     0
281
     0
  0
CLASS
  1
LAYOUT
  2
AcDbLayout
  3
AutoCAD 2000
 90
        0
280
     0
281
     0
  0
ENDSEC
  0
SECTION
  2
TABLES
  0
TABLE
  2
VPORT
  5
8
330
0
100
AcDbSymbolTable
 70
     2
  0
VPORT
  5
3AAF
330
8
100
AcDbSymbolTableRecord
100
AcDbViewportTableRecord
  2
*Active
 70
     0
 10
0.0
 20
0.0
 11
1.0
 21
1.0
 12
8.389213900536137
 22
4.854961781546569
 13
0.0
 23
0.0
 14
0.5
 24
0.5
 15
0.5
 25
0.5
 16
0.0
 26
0.0
 36
1.0
 17
0.0
 27
0.0
 37
0.0
 40
9.82922783497543
 41
1.870841487279843
 42
50.0
 43
0.0
 44
0.0
 50
0.0
 51
0.0
 71
     0
 72
   100
 73
     1
 74
     2
 75
     0
 76
     0
 77
     0
 78
     0
281
     0
 65
     1
110
0.0
120
0.0
130
0.0
111
1.0
121
0.0
131
0.0
112
0.0
122
1.0
132
0.0
 79
     0
146
0.0
  0
ENDTAB
  0
TABLE
  2
LTYPE
  5
5
330
0
100
AcDbSymbolTable
 70
     4
  0
LTYPE
  5
14
330
5
100
AcDbSymbolTableRecord
100
AcDbLinetypeTableRecord
  2
ByBlock
 70
     0
  3

 72
    65
 73
     0
 40
0.0
  0
LTYPE
  5
15
330
5
100
AcDbSymbolTableRecord
100
AcDbLinetypeTableRecord
  2
ByLayer
 70
     0
  3

 72
    65
 73
     0
 40
0.0
  0
LTYPE
  5
16
330
5
100
AcDbSymbolTableRecord
100
AcDbLinetypeTableRecord
  2
Continuous
 70
     0
  3
Solid line
 72
    65
 73
     0
 40
0.0
  0
LTYPE
  5
48
330
5
100
AcDbSymbolTableRecord
100
AcDbLinetypeTableRecord
  2
HIDDEN
 70
     0
  3
_ _ _ _ _ _ _ _ _ _ _ _ _ _ _ _ _ _ _ _ _ _ _
 72
    65
 73
     2
 40
0.375
 49
0.25
 74
     0
 49
-0.125
 74
     0
  0
LTYPE
  5
49
330
5
100
AcDbSymbolTableRecord
100
AcDbLinetypeTableRecord
  2
PHANTOM
 70
     0
  3
_____ _ _ _____ _ _ _____ _ _ _____ _ _ ____
 72
    65
 73
     6
 40
2.5
 49
1.25
 74
     0
 49
-0.25
 74
     0
 49
0.25
 74
     0
 49
-0.25
 74
     0
 49
0.25
 74
     0
 49
-0.25
 74
     0
  0
LTYPE
  5
4A
330
5
100
AcDbSymbolTableRecord
100
AcDbLinetypeTableRecord
  2
CENTER
 70
     0
  3
____ _ ____ _ ____ _ ____ _ ____ _ ____ _ ____
 72
    65
 73
     4
 40
2.0
 49
1.25
 74
     0
 49
-0.25
 74
     0
 49
0.25
 74
     0
 49
-0.25
 74
     0
  0
ENDTAB
  0
TABLE
  2
LAYER
  5
2
330
0
100
AcDbSymbolTable
 70
     9
  0
LAYER
  5
10
330
2
100
AcDbSymbolTableRecord
100
AcDbLayerTableRecord
  2
0
 70
     0
 62
     7
  6
Continuous
370
    -3
390
F
  0
LAYER
  5
4D
330
2
100
AcDbSymbolTableRecord
100
AcDbLayerTableRecord
  2
OBJECT
 70
     0
 62
     7
  6
Continuous
370
    -3
390
F
  0
LAYER
  5
4E
330
2
100
AcDbSymbolTableRecord
100
AcDbLayerTableRecord
  2
DIM
 70
     0
 62
     7
  6
Continuous
370
    -3
390
F
  0
LAYER
  5
4F
330
2
100
AcDbSymbolTableRecord
100
AcDbLayerTableRecord
  2
HIDDEN
 70
     0
 62
     7
  6
HIDDEN
370
    -3
390
F
  0
LAYER
  5
50
330
2
100
AcDbSymbolTableRecord
100
AcDbLayerTableRecord
  2
BEND
 70
     0
 62
     7
  6
PHANTOM
370
    -3
390
F
  0
LAYER
  5
51
330
2
100
AcDbSymbolTableRecord
100
AcDbLayerTableRecord
  2
TEXT
 70
     0
 62
     7
  6
Continuous
370
    -3
390
F
  0
LAYER
  5
52
330
2
100
AcDbSymbolTableRecord
100
AcDbLayerTableRecord
  2
TITLE
 70
     0
 62
     7
  6
Continuous
370
    -3
390
F
  0
LAYER
  5
53
330
2
100
AcDbSymbolTableRecord
100
AcDbLayerTableRecord
  2
CENTER
 70
     0
 62
     7
  6
CENTER
370
    -3
390
F
  0
LAYER
  5
66
330
2
100
AcDbSymbolTableRecord
100
AcDbLayerTableRecord
  2
Defpoints
 70
     0
 62
     7
  6
Continuous
290
     0
370
    -3
390
F
  0
ENDTAB
  0
TABLE
  2
STYLE
  5
3
330
0
100
AcDbSymbolTable
 70
     2
  0
STYLE
  5
11
330
3
100
AcDbSymbolTableRecord
100
AcDbTextStyleTableRecord
  2
Standard
 70
     0
 40
0.0
 41
1.0
 50
0.0
 71
     0
 42
0.156
  3
txt
  4

  0
STYLE
  5
54
330
3
100
AcDbSymbolTableRecord
100
AcDbTextStyleTableRecord
  2
TXT
 70
     0
 40
0.0
 41
0.75
 50
0.0
 71
     0
 42
0.125
  3
TXT.shx
  4

  0
ENDTAB
  0
TABLE
  2
VIEW
  5
6
330
0
100
AcDbSymbolTable
 70
     0
  0
ENDTAB
  0
TABLE
  2
UCS
  5
7
330
0
100
AcDbSymbolTable
 70
     0
  0
ENDTAB
  0
TABLE
  2
APPID
  5
9
330
0
100
AcDbSymbolTable
 70
     2
  0
APPID
  5
12
330
9
100
AcDbSymbolTableRecord
100
AcDbRegAppTableRecord
  2
ACAD
 70
     0
  0
APPID
  5
2611
330
9
100
AcDbSymbolTableRecord
100
AcDbRegAppTableRecord
  2
DCO15
 70
     0
  0
ENDTAB
  0
TABLE
  2
DIMSTYLE
  5
A
330
0
100
AcDbSymbolTable
 70
     2
100
AcDbDimStyleTable
 71
     1
340
55
  0
DIMSTYLE
105
55
102
{ACAD_REACTORS
330
274D
330
2686
330
2678
330
26C6
330
26B7
330
26A9
330
2640
330
2A39
330
32E7
330
32F5
330
3303
330
3311
330
3333
330
3468
330
3477
330
34B2
330
34B1
330
34B3
330
34B0
330
34AF
330
3901
330
3908
330
39D6
330
3A1B
330
3A2A
102
}
330
A
100
AcDbSymbolTableRecord
100
AcDbDimStyleTableRecord
  2
23NSTD
 70
     0
 42
0.063
 43
0.281
 44
0.093
140
0.125
271
     3
272
     3
289
     1
340
54
  0
DIMSTYLE
105
56
330
A
100
AcDbSymbolTableRecord
100
AcDbDimStyleTableRecord
  2
23NSTDI
 70
     0
 42
0.063
 43
0.281
 44
0.093
140
0.125
174
     1
271
     3
272
     3
289
     0
340
54
  0
ENDTAB
  0
TABLE
  2
BLOCK_RECORD
  5
1
330
0
100
AcDbSymbolTable
 70
    27
  0
BLOCK_RECORD
  5
1F
330
1
100
AcDbSymbolTableRecord
100
AcDbBlockTableRecord
  2
*Model_Space
340
22
  0
BLOCK_RECORD
  5
1B
330
1
100
AcDbSymbolTableRecord
100
AcDbBlockTableRecord
  2
*Paper_Space
340
1E
  0
BLOCK_RECORD
  5
23
330
1
100
AcDbSymbolTableRecord
100
AcDbBlockTableRecord
  2
*Paper_Space0
340
26
  0
BLOCK_RECORD
  5
68
330
1
100
AcDbSymbolTableRecord
100
AcDbBlockTableRecord
  2
Hbs
340
0
102
{BLKREFS
331
81
102
}
  0
BLOCK_RECORD
  5
2641
330
1
100
AcDbSymbolTableRecord
100
AcDbBlockTableRecord
  2
*D2
340
0
  0
BLOCK_RECORD
  5
2679
330
1
100
AcDbSymbolTableRecord
100
AcDbBlockTableRecord
  2
*D3
340
0
  0
BLOCK_RECORD
  5
2687
330
1
100
AcDbSymbolTableRecord
100
AcDbBlockTableRecord
  2
*D4
340
0
  0
BLOCK_RECORD
  5
26AA
330
1
100
AcDbSymbolTableRecord
100
AcDbBlockTableRecord
  2
*D5
340
0
  0
BLOCK_RECORD
  5
26B8
330
1
100
AcDbSymbolTableRecord
100
AcDbBlockTableRecord
  2
*D6
340
0
  0
BLOCK_RECORD
  5
26C7
330
1
100
AcDbSymbolTableRecord
100
AcDbBlockTableRecord
  2
*D7
340
0
  0
BLOCK_RECORD
  5
274E
330
1
100
AcDbSymbolTableRecord
100
AcDbBlockTableRecord
  2
*D8
340
0
  0
BLOCK_RECORD
  5
2A3A
330
1
100
AcDbSymbolTableRecord
100
AcDbBlockTableRecord
  2
*D9
340
0
  0
BLOCK_RECORD
  5
32E8
330
1
100
AcDbSymbolTableRecord
100
AcDbBlockTableRecord
  2
*D10
340
0
  0
BLOCK_RECORD
  5
32F6
330
1
100
AcDbSymbolTableRecord
100
AcDbBlockTableRecord
  2
*D11
340
0
  0
BLOCK_RECORD
  5
3304
330
1
100
AcDbSymbolTableRecord
100
AcDbBlockTableRecord
  2
*D12
340
0
  0
BLOCK_RECORD
  5
3312
330
1
100
AcDbSymbolTableRecord
100
AcDbBlockTableRecord
  2
*D13
340
0
  0
BLOCK_RECORD
  5
3334
330
1
100
AcDbSymbolTableRecord
100
AcDbBlockTableRecord
  2
*D14
340
0
  0
BLOCK_RECORD
  5
3469
330
1
100
AcDbSymbolTableRecord
100
AcDbBlockTableRecord
  2
*D15
340
0
  0
BLOCK_RECORD
  5
3478
330
1
100
AcDbSymbolTableRecord
100
AcDbBlockTableRecord
  2
*D16
340
0
  0
BLOCK_RECORD
  5
34B4
330
1
100
AcDbSymbolTableRecord
100
AcDbBlockTableRecord
  2
*D17
340
0
  0
BLOCK_RECORD
  5
34C1
330
1
100
AcDbSymbolTableRecord
100
AcDbBlockTableRecord
  2
*D18
340
0
  0
BLOCK_RECORD
  5
34CE
330
1
100
AcDbSymbolTableRecord
100
AcDbBlockTableRecord
  2
*D19
340
0
  0
BLOCK_RECORD
  5
34DB
330
1
100
AcDbSymbolTableRecord
100
AcDbBlockTableRecord
  2
*D20
340
0
  0
BLOCK_RECORD
  5
34E8
330
1
100
AcDbSymbolTableRecord
100
AcDbBlockTableRecord
  2
*D21
340
0
  0
BLOCK_RECORD
  5
3950
330
1
100
AcDbSymbolTableRecord
100
AcDbBlockTableRecord
  2
*D22
340
0
  0
BLOCK_RECORD
  5
396A
330
1
100
AcDbSymbolTableRecord
100
AcDbBlockTableRecord
  2
*D23
340
0
  0
BLOCK_RECORD
  5
39D7
330
1
100
AcDbSymbolTableRecord
100
AcDbBlockTableRecord
  2
*D24
340
0
  0
BLOCK_RECORD
  5
3A1C
330
1
100
AcDbSymbolTableRecord
100
AcDbBlockTableRecord
  2
*D25
340
0
  0
BLOCK_RECORD
  5
3A2B
330
1
100
AcDbSymbolTableRecord
100
AcDbBlockTableRecord
  2
*D26
340
0
  0
ENDTAB
  0
ENDSEC
  0
SECTION
  2
BLOCKS
  0
BLOCK
  5
20
330
1F
100
AcDbEntity
  8
0
100
AcDbBlockBegin
  2
*Model_Space
 70
     0
 10
0.0
 20
0.0
 30
0.0
  3
*Model_Space
  1

  0
ENDBLK
  5
21
330
1F
100
AcDbEntity
  8
0
100
AcDbBlockEnd
  0
BLOCK
  5
1C
330
1B
100
AcDbEntity
 67
     1
  8
0
100
AcDbBlockBegin
  2
*Paper_Space
 70
     0
 10
0.0
 20
0.0
 30
0.0
  3
*Paper_Space
  1

  0
ENDBLK
  5
1D
330
1B
100
AcDbEntity
 67
     1
  8
0
100
AcDbBlockEnd
  0
BLOCK
  5
24
330
23
100
AcDbEntity
  8
0
100
AcDbBlockBegin
  2
*Paper_Space0
 70
     0
 10
0.0
 20
0.0
 30
0.0
  3
*Paper_Space0
  1

  0
ENDBLK
  5
25
330
23
100
AcDbEntity
  8
0
100
AcDbBlockEnd
  0
BLOCK
  5
7F
330
68
100
AcDbEntity
  8
0
100
AcDbBlockBegin
  2
Hbs
 70
     0
 10
0.0
 20
0.0
 30
0.0
  3
Hbs
  1

  0
LINE
  5
69
330
68
100
AcDbEntity
  8
TITLE
100
AcDbLine
 10
0.0619999999999976
 20
9.179999999999999
 30
0.0
 11
16.53799999999999
 21
9.180000000000003
 31
0.0
  0
TEXT
  5
6A
330
68
100
AcDbEntity
  8
TEXT
100
AcDbText
 10
0.2078333333333345
 20
9.220079195640078
 30
0.0
 40
0.125
  1
NAME
  7
TXT
 72
     1
 11
0.4370000000000012
 21
9.220079195640078
 31
0.0
100
AcDbText
  0
TEXT
  5
6B
330
68
100
AcDbEntity
  8
TEXT
100
AcDbText
 10
0.2078333333333345
 20
9.42841252897341
 30
0.0
 40
0.125
  1
PART
  7
TXT
 72
     1
 11
0.4370000000000012
 21
9.42841252897341
 31
0.0
100
AcDbText
  0
LINE
  5
6C
330
68
100
AcDbEntity
  8
TITLE
100
AcDbLine
 10
0.8120000000000011
 20
9.179999999999999
 30
0.0
 11
0.8119999999999976
 21
9.597999999999998
 31
0.0
  0
TEXT
  5
6D
330
68
100
AcDbEntity
  8
TEXT
100
AcDbText
 10
7.207833333333332
 20
9.42841252897341
 30
0.0
 40
0.125
  1
PART
  7
TXT
 72
     1
 11
7.436999999999999
 21
9.42841252897341
 31
0.0
100
AcDbText
  0
TEXT
  5
6E
330
68
100
AcDbEntity
  8
TEXT
100
AcDbText
 10
7.311999999999999
 20
9.220079195640078
 30
0.0
 40
0.125
  1
No.
  7
TXT
 72
     1
 11
7.436999999999999
 21
9.220079195640078
 31
0.0
100
AcDbText
  0
LINE
  5
6F
330
68
100
AcDbEntity
  8
TITLE
100
AcDbLine
 10
7.061999999999999
 20
9.597999999999998
 30
0.0
 11
7.061999999999999
 21
9.179999999999999
 31
0.0
  0
LINE
  5
70
330
68
100
AcDbEntity
  8
TITLE
100
AcDbLine
 10
7.000000000000001
 20
9.597999999999998
 30
0.0
 11
7.000000000000001
 21
9.179999999999999
 31
0.0
  0
LINE
  5
71
330
68
100
AcDbEntity
  8
TITLE
100
AcDbLine
 10
7.811999999999999
 20
9.597999999999998
 30
0.0
 11
7.811999999999999
 21
9.179999999999999
 31
0.0
  0
LINE
  5
72
330
68
100
AcDbEntity
  8
TITLE
100
AcDbLine
 10
16.6
 20
9.659999999999996
 30
0.0
 11
16.59999999999999
 21
0.0
 31
0.0
  0
LINE
  5
73
330
68
100
AcDbEntity
  8
TITLE
100
AcDbLine
 10
16.59999999999999
 20
0.0
 30
0.0
 11
0.0
 21
0.0
 31
0.0
  0
LINE
  5
74
330
68
100
AcDbEntity
  8
TITLE
100
AcDbLine
 10
0.0
 20
0.0
 30
0.0
 11
0.0
 21
9.659999999999996
 31
0.0
  0
LINE
  5
75
330
68
100
AcDbEntity
  8
TITLE
100
AcDbLine
 10
0.0
 20
9.659999999999996
 30
0.0
 11
16.6
 21
9.659999999999996
 31
0.0
  0
LINE
  5
76
330
68
100
AcDbEntity
  8
TITLE
100
AcDbLine
 10
16.53799999999999
 20
9.598000000000006
 30
0.0
 11
16.53799999999999
 21
0.0620000000000012
 31
0.0
  0
LINE
  5
77
330
68
100
AcDbEntity
  8
TITLE
100
AcDbLine
 10
16.53799999999999
 20
0.0620000000000012
 30
0.0
 11
0.0620000000000012
 21
0.0620000000000012
 31
0.0
  0
LINE
  5
78
330
68
100
AcDbEntity
  8
TITLE
100
AcDbLine
 10
0.0620000000000012
 20
0.0620000000000012
 30
0.0
 11
0.0620000000000012
 21
9.597999999999998
 31
0.0
  0
LINE
  5
79
330
68
100
AcDbEntity
  8
TITLE
100
AcDbLine
 10
0.0620000000000012
 20
9.597999999999998
 30
0.0
 11
16.53799999999999
 21
9.598000000000006
 31
0.0
  0
LINE
  5
7A
330
68
100
AcDbEntity
  8
TITLE
100
AcDbLine
 10
13.99999113305
 20
9.597999999999998
 30
0.0
 11
13.99999113305
 21
9.179999999999999
 31
0.0
  0
LINE
  5
7B
330
68
100
AcDbEntity
  8
TITLE
100
AcDbLine
 10
14.81199113305
 20
9.597999999999998
 30
0.0
 11
14.81199113305
 21
9.179999999999999
 31
0.0
  0
LINE
  5
7C
330
68
100
AcDbEntity
  8
TITLE
100
AcDbLine
 10
14.06199113305
 20
9.597999999999998
 30
0.0
 11
14.06199113305
 21
9.179999999999999
 31
0.0
  0
TEXT
  5
7D
330
68
100
AcDbEntity
  8
TEXT
100
AcDbText
 10
14.20782446638333
 20
9.220079195640078
 30
0.0
 40
0.125
  1
DATE
  7
TXT
 72
     1
 11
14.43699113305
 21
9.220079195640078
 31
0.0
100
AcDbText
  0
TEXT
  5
7E
330
68
100
AcDbEntity
  8
TEXT
100
AcDbText
 10
14.22865779971667
 20
9.42841252897341
 30
0.0
 40
0.125
  1
REV.
  7
TXT
 72
     1
 11
14.43699113305
 21
9.42841252897341
 31
0.0
100
AcDbText
  0
ENDBLK
  5
80
330
68
100
AcDbEntity
  8
0
100
AcDbBlockEnd
  0
BLOCK
  5
264C
330
2641
100
AcDbEntity
  8
0
100
AcDbBlockBegin
  2
*D2
 70
     1
 10
0.0
 20
0.0
 30
0.0
  3
*D2
  1

  0
LINE
  5
38F5
330
2641
100
AcDbEntity
  8
DIM
 62
     0
370
    -2
100
AcDbLine
 10
12.23226839674718
 20
4.633863202386404
 30
0.0
 11
12.75283816936997
 21
4.633863202386404
 31
0.0
  0
LINE
  5
38F6
330
2641
100
AcDbEntity
  8
DIM
 62
     0
370
    -2
100
AcDbLine
 10
12.23226839674718
 20
3.401863202386412
 30
0.0
 11
12.75283816936996
 21
3.401863202386412
 31
0.0
  0
LINE
  5
38F7
330
2641
100
AcDbEntity
  8
DIM
 62
     0
370
    -2
100
AcDbLine
 10
12.65983816936997
 20
4.453863202386404
 30
0.0
 11
12.65983816936997
 21
4.170363202386408
 31
0.0
  0
LINE
  5
38F8
330
2641
100
AcDbEntity
  8
DIM
 62
     0
370
    -2
100
AcDbLine
 10
12.65983816936996
 20
3.581863202386412
 30
0.0
 11
12.65983816936996
 21
3.865363202386408
 31
0.0
  0
SOLID
  5
38F9
330
2641
100
AcDbEntity
  8
DIM
 62
     0
100
AcDbTrace
 10
12.62983816936997
 20
4.453863202386404
 30
0.0
 11
12.68983816936996
 21
4.453863202386404
 31
0.0
 12
12.65983816936997
 22
4.633863202386404
 32
0.0
 13
12.65983816936997
 23
4.633863202386404
 33
0.0
  0
SOLID
  5
38FA
330
2641
100
AcDbEntity
  8
DIM
 62
     0
100
AcDbTrace
 10
12.62983816936996
 20
3.581863202386412
 30
0.0
 11
12.68983816936996
 21
3.581863202386412
 31
0.0
 12
12.65983816936996
 22
3.401863202386412
 32
0.0
 13
12.65983816936996
 23
3.401863202386412
 33
0.0
  0
MTEXT
  5
38FB
330
2641
100
AcDbEntity
  8
DIM
 62
     0
100
AcDbMText
 10
12.65983816936996
 20
4.01786320238641
 30
0.0
 40
0.125
 41
0.0
 71
     5
 72
     1
  1
\A1;1.232
  7
TXT
 73
     1
 44
1.0
  0
POINT
  5
38FC
330
2641
100
AcDbEntity
  8
Defpoints
 62
     0
100
AcDbPoint
 10
12.16926839674718
 20
4.633863202386404
 30
0.0
  0
POINT
  5
38FD
330
2641
100
AcDbEntity
  8
Defpoints
 62
     0
100
AcDbPoint
 10
12.16926839674718
 20
3.401863202386412
 30
0.0
  0
POINT
  5
38FE
330
2641
100
AcDbEntity
  8
Defpoints
 62
     0
100
AcDbPoint
 10
12.65983816936996
 20
3.401863202386412
 30
0.0
  0
ENDBLK
  5
264D
330
2641
100
AcDbEntity
  8
0
100
AcDbBlockEnd
  0
BLOCK
  5
2684
330
2679
100
AcDbEntity
  8
0
100
AcDbBlockBegin
  2
*D3
 70
     1
 10
0.0
 20
0.0
 30
0.0
  3
*D3
  1

  0
LINE
  5
38AF
330
2679
100
AcDbEntity
  8
DIM
 62
     0
370
    -2
100
AcDbLine
 10
12.39526839674717
 20
2.277277725535705
 30
0.0
 11
12.75283816936996
 21
2.277277725535705
 31
0.0
  0
LINE
  5
38B0
330
2679
100
AcDbEntity
  8
DIM
 62
     0
370
    -2
100
AcDbLine
 10
12.05853126064867
 20
1.490277725535704
 30
0.0
 11
12.75283816936996
 21
1.490277725535704
 31
0.0
  0
LINE
  5
38B1
330
2679
100
AcDbEntity
  8
DIM
 62
     0
370
    -2
100
AcDbLine
 10
12.65983816936996
 20
2.457277725535705
 30
0.0
 11
12.65983816936996
 21
2.637277725535704
 31
0.0
  0
LINE
  5
38B2
330
2679
100
AcDbEntity
  8
DIM
 62
     0
370
    -2
100
AcDbLine
 10
12.65983816936996
 20
1.310277725535704
 30
0.0
 11
12.65983816936996
 21
1.130277725535704
 31
0.0
  0
SOLID
  5
38B3
330
2679
100
AcDbEntity
  8
DIM
 62
     0
100
AcDbTrace
 10
12.62983816936996
 20
2.457277725535705
 30
0.0
 11
12.68983816936996
 21
2.457277725535705
 31
0.0
 12
12.65983816936996
 22
2.277277725535705
 32
0.0
 13
12.65983816936996
 23
2.277277725535705
 33
0.0
  0
SOLID
  5
38B4
330
2679
100
AcDbEntity
  8
DIM
 62
     0
100
AcDbTrace
 10
12.62983816936996
 20
1.310277725535704
 30
0.0
 11
12.68983816936996
 21
1.310277725535704
 31
0.0
 12
12.65983816936996
 22
1.490277725535704
 32
0.0
 13
12.65983816936996
 23
1.490277725535704
 33
0.0
  0
MTEXT
  5
38B5
330
2679
100
AcDbEntity
  8
DIM
 62
     0
100
AcDbMText
 10
12.65983816936996
 20
1.883777725535706
 30
0.0
 40
0.125
 41
0.0
 71
     5
 72
     1
  1
\A1;0.787
  7
TXT
 73
     1
 44
1.0
  0
POINT
  5
38B6
330
2679
100
AcDbEntity
  8
Defpoints
 62
     0
100
AcDbPoint
 10
12.33226839674717
 20
2.277277725535705
 30
0.0
  0
POINT
  5
38B7
330
2679
100
AcDbEntity
  8
Defpoints
 62
     0
100
AcDbPoint
 10
11.99553126064867
 20
1.490277725535704
 30
0.0
  0
POINT
  5
38B8
330
2679
100
AcDbEntity
  8
Defpoints
 62
     0
100
AcDbPoint
 10
12.65983816936996
 20
1.490277725535704
 30
0.0
  0
ENDBLK
  5
2685
330
2679
100
AcDbEntity
  8
0
100
AcDbBlockEnd
  0
BLOCK
  5
2692
330
2687
100
AcDbEntity
  8
0
100
AcDbBlockBegin
  2
*D4
 70
     1
 10
0.0
 20
0.0
 30
0.0
  3
*D4
  1

  0
LINE
  5
38B9
330
2687
100
AcDbEntity
  8
DIM
 62
     0
370
    -2
100
AcDbLine
 10
10.84181528876361
 20
1.561340342268179
 30
0.0
 11
10.7488228647807
 21
1.561340342268179
 31
0.0
  0
LINE
  5
38BA
330
2687
100
AcDbEntity
  8
DIM
 62
     0
370
    -2
100
AcDbLine
 10
10.8418228647807
 20
2.277277725535705
 30
0.0
 11
10.7488228647807
 21
2.277277725535705
 31
0.0
  0
LINE
  5
38BB
330
2687
100
AcDbEntity
  8
DIM
 62
     0
370
    -2
100
AcDbLine
 10
10.84182286478071
 20
1.381340342268179
 30
0.0
 11
10.84182286478071
 21
1.201340342268178
 31
0.0
  0
LINE
  5
38BC
330
2687
100
AcDbEntity
  8
DIM
 62
     0
370
    -2
100
AcDbLine
 10
10.84182286478071
 20
2.457277725535705
 30
0.0
 11
10.84182286478071
 21
2.637277725535704
 31
0.0
  0
SOLID
  5
38BD
330
2687
100
AcDbEntity
  8
DIM
 62
     0
100
AcDbTrace
 10
10.81182286478071
 20
1.381340342268179
 30
0.0
 11
10.8718228647807
 21
1.381340342268179
 31
0.0
 12
10.84182286478071
 22
1.561340342268179
 32
0.0
 13
10.84182286478071
 23
1.561340342268179
 33
0.0
  0
SOLID
  5
38BE
330
2687
100
AcDbEntity
  8
DIM
 62
     0
100
AcDbTrace
 10
10.81182286478071
 20
2.457277725535705
 30
0.0
 11
10.8718228647807
 21
2.457277725535705
 31
0.0
 12
10.84182286478071
 22
2.277277725535705
 32
0.0
 13
10.84182286478071
 23
2.277277725535705
 33
0.0
  0
MTEXT
  5
38BF
330
2687
100
AcDbEntity
  8
DIM
 62
     0
100
AcDbMText
 10
10.84182286478071
 20
1.919309033901943
 30
0.0
 40
0.125
 41
0.0
 71
     5
 72
     1
  1
\A1;0.716
  7
TXT
 73
     1
 44
1.0
  0
POINT
  5
38C0
330
2687
100
AcDbEntity
  8
Defpoints
 62
     0
100
AcDbPoint
 10
10.90481528876361
 20
1.561340342268179
 30
0.0
  0
POINT
  5
38C1
330
2687
100
AcDbEntity
  8
Defpoints
 62
     0
100
AcDbPoint
 10
10.90482286478071
 20
2.277277725535705
 30
0.0
  0
POINT
  5
38C2
330
2687
100
AcDbEntity
  8
Defpoints
 62
     0
100
AcDbPoint
 10
10.84182286478071
 20
2.277277725535705
 30
0.0
  0
ENDBLK
  5
2693
330
2687
100
AcDbEntity
  8
0
100
AcDbBlockEnd
  0
BLOCK
  5
26B5
330
26AA
100
AcDbEntity
  8
0
100
AcDbBlockBegin
  2
*D5
 70
     1
 10
0.0
 20
0.0
 30
0.0
  3
*D5
  1

  0
LINE
  5
38C3
330
26AA
100
AcDbEntity
  8
DIM
 62
     0
370
    -2
100
AcDbLine
 10
9.26426839674718
 20
4.570863202386406
 30
0.0
 11
9.26426839674718
 21
4.377628735736674
 31
0.0
  0
LINE
  5
38C4
330
26AA
100
AcDbEntity
  8
DIM
 62
     0
370
    -2
100
AcDbLine
 10
11.92026839674718
 20
4.570863202386404
 30
0.0
 11
11.92026839674718
 21
4.377628735736674
 31
0.0
  0
LINE
  5
38C5
330
26AA
100
AcDbEntity
  8
DIM
 62
     0
370
    -2
100
AcDbLine
 10
9.44426839674718
 20
4.470628735736674
 30
0.0
 11
10.31476839674718
 21
4.470628735736674
 31
0.0
  0
LINE
  5
38C6
330
26AA
100
AcDbEntity
  8
DIM
 62
     0
370
    -2
100
AcDbLine
 10
11.74026839674717
 20
4.470628735736674
 30
0.0
 11
10.86976839674717
 21
4.470628735736674
 31
0.0
  0
SOLID
  5
38C7
330
26AA
100
AcDbEntity
  8
DIM
 62
     0
100
AcDbTrace
 10
9.44426839674718
 20
4.500628735736674
 30
0.0
 11
9.44426839674718
 21
4.440628735736674
 31
0.0
 12
9.26426839674718
 22
4.470628735736674
 32
0.0
 13
9.26426839674718
 23
4.470628735736674
 33
0.0
  0
SOLID
  5
38C8
330
26AA
100
AcDbEntity
  8
DIM
 62
     0
100
AcDbTrace
 10
11.74026839674717
 20
4.500628735736674
 30
0.0
 11
11.74026839674717
 21
4.440628735736674
 31
0.0
 12
11.92026839674718
 22
4.470628735736674
 32
0.0
 13
11.92026839674718
 23
4.470628735736674
 33
0.0
  0
MTEXT
  5
38C9
330
26AA
100
AcDbEntity
  8
DIM
 62
     0
100
AcDbMText
 10
10.59226839674717
 20
4.470628735736674
 30
0.0
 40
0.125
 41
0.0
 71
     5
 72
     1
  1
\A1;2.656
  7
TXT
 73
     1
 44
1.0
  0
POINT
  5
38CA
330
26AA
100
AcDbEntity
  8
Defpoints
 62
     0
100
AcDbPoint
 10
9.26426839674718
 20
4.633863202386406
 30
0.0
  0
POINT
  5
38CB
330
26AA
100
AcDbEntity
  8
Defpoints
 62
     0
100
AcDbPoint
 10
11.92026839674718
 20
4.633863202386404
 30
0.0
  0
POINT
  5
38CC
330
26AA
100
AcDbEntity
  8
Defpoints
 62
     0
100
AcDbPoint
 10
11.92026839674718
 20
4.470628735736674
 30
0.0
  0
ENDBLK
  5
26B6
330
26AA
100
AcDbEntity
  8
0
100
AcDbBlockEnd
  0
BLOCK
  5
26C3
330
26B8
100
AcDbEntity
  8
0
100
AcDbBlockBegin
  2
*D6
 70
     1
 10
0.0
 20
0.0
 30
0.0
  3
*D6
  1

  0
LINE
  5
38EB
330
26B8
100
AcDbEntity
  8
DIM
 62
     0
370
    -2
100
AcDbLine
 10
11.69621678384394
 20
4.792863202386408
 30
0.0
 11
11.26222832011997
 21
4.792863202386408
 31
0.0
  0
LINE
  5
38EC
330
26B8
100
AcDbEntity
  8
DIM
 62
     0
370
    -2
100
AcDbLine
 10
11.69621678384394
 20
3.242863202386409
 30
0.0
 11
11.26222832011997
 21
3.242863202386409
 31
0.0
  0
LINE
  5
38ED
330
26B8
100
AcDbEntity
  8
DIM
 62
     0
370
    -2
100
AcDbLine
 10
11.35522832011997
 20
4.612863202386408
 30
0.0
 11
11.35522832011997
 21
4.170363202386409
 31
0.0
  0
LINE
  5
38EE
330
26B8
100
AcDbEntity
  8
DIM
 62
     0
370
    -2
100
AcDbLine
 10
11.35522832011997
 20
3.422863202386409
 30
0.0
 11
11.35522832011997
 21
3.865363202386409
 31
0.0
  0
SOLID
  5
38EF
330
26B8
100
AcDbEntity
  8
DIM
 62
     0
100
AcDbTrace
 10
11.32522832011997
 20
4.612863202386408
 30
0.0
 11
11.38522832011997
 21
4.612863202386408
 31
0.0
 12
11.35522832011997
 22
4.792863202386408
 32
0.0
 13
11.35522832011997
 23
4.792863202386408
 33
0.0
  0
SOLID
  5
38F0
330
26B8
100
AcDbEntity
  8
DIM
 62
     0
100
AcDbTrace
 10
11.32522832011997
 20
3.422863202386409
 30
0.0
 11
11.38522832011997
 21
3.422863202386409
 31
0.0
 12
11.35522832011997
 22
3.242863202386409
 32
0.0
 13
11.35522832011997
 23
3.242863202386409
 33
0.0
  0
MTEXT
  5
38F1
330
26B8
100
AcDbEntity
  8
DIM
 62
     0
100
AcDbMText
 10
11.35522832011997
 20
4.01786320238641
 30
0.0
 40
0.125
 41
0.0
 71
     5
 72
     1
  1
\A1;1.550
  7
TXT
 73
     1
 44
1.0
  0
POINT
  5
38F2
330
26B8
100
AcDbEntity
  8
Defpoints
 62
     0
100
AcDbPoint
 10
11.75921678384395
 20
4.792863202386408
 30
0.0
  0
POINT
  5
38F3
330
26B8
100
AcDbEntity
  8
Defpoints
 62
     0
100
AcDbPoint
 10
11.75921678384395
 20
3.242863202386409
 30
0.0
  0
POINT
  5
38F4
330
26B8
100
AcDbEntity
  8
Defpoints
 62
     0
100
AcDbPoint
 10
11.35522832011997
 20
3.242863202386409
 30
0.0
  0
ENDBLK
  5
26C4
330
26B8
100
AcDbEntity
  8
0
100
AcDbBlockEnd
  0
BLOCK
  5
26D2
330
26C7
100
AcDbEntity
  8
0
100
AcDbBlockBegin
  2
*D7
 70
     1
 10
0.0
 20
0.0
 30
0.0
  3
*D7
  1

  0
LINE
  5
38D7
330
26C7
100
AcDbEntity
  8
DIM
 62
     0
370
    -2
100
AcDbLine
 10
9.425320009650405
 20
3.305863202386409
 30
0.0
 11
9.425320009650405
 21
3.598490808348703
 31
0.0
  0
LINE
  5
38D8
330
26C7
100
AcDbEntity
  8
DIM
 62
     0
370
    -2
100
AcDbLine
 10
11.75921678384395
 20
3.305863202386409
 30
0.0
 11
11.75921678384395
 21
3.598490808348703
 31
0.0
  0
LINE
  5
38D9
330
26C7
100
AcDbEntity
  8
DIM
 62
     0
370
    -2
100
AcDbLine
 10
9.605320009650405
 20
3.505490808348703
 30
0.0
 11
10.31476839674717
 21
3.505490808348703
 31
0.0
  0
LINE
  5
38DA
330
26C7
100
AcDbEntity
  8
DIM
 62
     0
370
    -2
100
AcDbLine
 10
11.57921678384395
 20
3.505490808348703
 30
0.0
 11
10.86976839674717
 21
3.505490808348703
 31
0.0
  0
SOLID
  5
38DB
330
26C7
100
AcDbEntity
  8
DIM
 62
     0
100
AcDbTrace
 10
9.605320009650405
 20
3.535490808348703
 30
0.0
 11
9.605320009650405
 21
3.475490808348703
 31
0.0
 12
9.425320009650405
 22
3.505490808348703
 32
0.0
 13
9.425320009650405
 23
3.505490808348703
 33
0.0
  0
SOLID
  5
38DC
330
26C7
100
AcDbEntity
  8
DIM
 62
     0
100
AcDbTrace
 10
11.57921678384395
 20
3.535490808348703
 30
0.0
 11
11.57921678384395
 21
3.475490808348703
 31
0.0
 12
11.75921678384395
 22
3.505490808348703
 32
0.0
 13
11.75921678384395
 23
3.505490808348703
 33
0.0
  0
MTEXT
  5
38DD
330
26C7
100
AcDbEntity
  8
DIM
 62
     0
100
AcDbMText
 10
10.59226839674717
 20
3.505490808348703
 30
0.0
 40
0.125
 41
0.0
 71
     5
 72
     1
  1
\A1;2.334
  7
TXT
 73
     1
 44
1.0
  0
POINT
  5
38DE
330
26C7
100
AcDbEntity
  8
Defpoints
 62
     0
100
AcDbPoint
 10
9.425320009650405
 20
3.242863202386409
 30
0.0
  0
POINT
  5
38DF
330
26C7
100
AcDbEntity
  8
Defpoints
 62
     0
100
AcDbPoint
 10
11.75921678384395
 20
3.242863202386409
 30
0.0
  0
POINT
  5
38E0
330
26C7
100
AcDbEntity
  8
Defpoints
 62
     0
100
AcDbPoint
 10
11.75921678384395
 20
3.505490808348703
 30
0.0
  0
ENDBLK
  5
26D3
330
26C7
100
AcDbEntity
  8
0
100
AcDbBlockEnd
  0
BLOCK
  5
275A
330
274E
100
AcDbEntity
  8
0
100
AcDbBlockBegin
  2
*D8
 70
     1
 10
0.0
 20
0.0
 30
0.0
  3
*D8
  1

  0
LINE
  5
3872
330
274E
100
AcDbEntity
  8
DIM
 62
     0
370
    -2
100
AcDbLine
 10
5.130983165585917
 20
2.521594956825578
 30
0.0
 11
5.477039627907274
 21
2.521594956825578
 31
0.0
  0
LINE
  5
3873
330
274E
100
AcDbEntity
  8
DIM
 62
     0
370
    -2
100
AcDbLine
 10
5.06898316558592
 20
2.583594956825578
 30
0.0
 11
5.477039627907274
 21
2.583594956825578
 31
0.0
  0
LINE
  5
3874
330
274E
100
AcDbEntity
  8
DIM
 62
     0
370
    -2
100
AcDbLine
 10
5.384039627907274
 20
2.341594956825578
 30
0.0
 11
5.384039627907274
 21
2.161594956825578
 31
0.0
  0
LINE
  5
3875
330
274E
100
AcDbEntity
  8
DIM
 62
     0
370
    -2
100
AcDbLine
 10
5.384039627907274
 20
2.763594956825578
 30
0.0
 11
5.384039627907274
 21
2.943594956825578
 31
0.0
  0
LINE
  5
3876
330
274E
100
AcDbEntity
  8
DIM
 62
     0
370
    -2
100
AcDbLine
 10
5.384039627907274
 20
2.943594956825578
 30
0.0
 11
5.564039627907273
 21
2.943594956825578
 31
0.0
  0
SOLID
  5
3877
330
274E
100
AcDbEntity
  8
DIM
 62
     0
100
AcDbTrace
 10
5.354039627907273
 20
2.341594956825578
 30
0.0
 11
5.414039627907274
 21
2.341594956825578
 31
0.0
 12
5.384039627907274
 22
2.521594956825578
 32
0.0
 13
5.384039627907274
 23
2.521594956825578
 33
0.0
  0
SOLID
  5
3878
330
274E
100
AcDbEntity
  8
DIM
 62
     0
100
AcDbTrace
 10
5.354039627907273
 20
2.763594956825578
 30
0.0
 11
5.414039627907274
 21
2.763594956825578
 31
0.0
 12
5.384039627907274
 22
2.583594956825578
 32
0.0
 13
5.384039627907274
 23
2.583594956825578
 33
0.0
  0
MTEXT
  5
3879
330
274E
100
AcDbEntity
  8
DIM
 62
     0
100
AcDbMText
 10
5.825914627907272
 20
2.943594956825579
 30
0.0
 40
0.125
 41
0.0
 71
     5
 72
     1
  1
\A1;0.062
  7
TXT
 73
     1
 44
1.0
  0
POINT
  5
387A
330
274E
100
AcDbEntity
  8
Defpoints
 62
     0
100
AcDbPoint
 10
5.067983165585918
 20
2.521594956825578
 30
0.0
  0
POINT
  5
387B
330
274E
100
AcDbEntity
  8
Defpoints
 62
     0
100
AcDbPoint
 10
5.00598316558592
 20
2.583594956825578
 30
0.0
  0
POINT
  5
387C
330
274E
100
AcDbEntity
  8
Defpoints
 62
     0
100
AcDbPoint
 10
5.384039627907274
 20
2.583594956825578
 30
0.0
  0
ENDBLK
  5
275B
330
274E
100
AcDbEntity
  8
0
100
AcDbBlockEnd
  0
BLOCK
  5
2A49
330
2A3A
100
AcDbEntity
  8
0
100
AcDbBlockBegin
  2
*D9
 70
     1
 10
0.0
 20
0.0
 30
0.0
  3
*D9
  1

  0
LINE
  5
383C
330
2A3A
100
AcDbEntity
  8
DIM
 62
     0
370
    -2
100
AcDbLine
 10
9.175268396747171
 20
2.192148392656048
 30
0.0
 11
9.175268396747121
 21
0.9058939937953343
 31
0.0
  0
LINE
  5
383D
330
2A3A
100
AcDbEntity
  8
DIM
 62
     0
370
    -2
100
AcDbLine
 10
9.192670399117712
 20
1.42729092475171
 30
0.0
 11
9.203339212643397
 21
0.906181314273147
 31
0.0
  0
ARC
  5
383E
330
2A3A
100
AcDbEntity
  8
DIM
 62
     0
370
    -2
100
AcDbCircle
 10
9.175268396747174
 20
2.277277725535704
 30
0.0
 40
1.27838373174037
100
AcDbArc
 50
253.8113938564912
 51
269.9999999999978
  0
LINE
  5
383F
330
2A3A
100
AcDbEntity
  8
DIM
 62
     0
370
    -2
100
AcDbLine
 10
8.818854838191679
 20
1.049582999288074
 30
0.0
 11
8.638854838191679
 21
1.049582999288074
 31
0.0
  0
ARC
  5
3840
330
2A3A
100
AcDbEntity
  8
DIM
 62
     0
370
    -2
100
AcDbCircle
 10
9.175268396747174
 20
2.277277725535704
 30
0.0
 40
1.27838373174037
100
AcDbArc
 50
253.8518303025104
 51
261.9259151512541
  0
ARC
  5
3841
330
2A3A
100
AcDbEntity
  8
DIM
 62
     0
370
    -2
100
AcDbCircle
 10
9.175268396747174
 20
2.277277725535704
 30
0.0
 40
1.27838373174037
100
AcDbArc
 50
279.2469524949867
 51
287.3210373437304
  0
SOLID
  5
3842
330
2A3A
100
AcDbEntity
  8
DIM
 62
     0
100
AcDbTrace
 10
8.997827064836608
 20
1.04149180746953
 30
0.0
 11
8.993602981045546
 21
0.9816406828675145
 31
0.0
 12
9.175268396747126
 22
0.9988939937953343
 32
0.0
 13
9.175268396747126
 23
0.9988939937953343
 33
0.0
  0
SOLID
  5
3843
330
2A3A
100
AcDbEntity
  8
DIM
 62
     0
100
AcDbTrace
 10
9.383416110479908
 20
0.9856306379518498
 30
0.0
 11
9.37796782065865
 21
1.045382760408073
 31
0.0
 12
9.201435598200609
 22
0.9991618297161858
 32
0.0
 13
9.201435598200609
 23
0.9991618297161858
 33
0.0
  0
MTEXT
  5
3844
330
2A3A
100
AcDbEntity
  8
DIM
 62
     0
100
AcDbMText
 10
8.29885483819168
 20
1.049582999288073
 30
0.0
 40
0.125
 41
0.0
 71
     5
 72
     1
  1
\A1;1° TYP.
  7
TXT
 73
     1
 44
1.0
  0
POINT
  5
3845
330
2A3A
100
AcDbEntity
  8
Defpoints
 62
     0
100
AcDbPoint
 10
9.19271387459692
 20
0.9990130342917392
 30
0.0
  0
POINT
  5
3846
330
2A3A
100
AcDbEntity
  8
Defpoints
 62
     0
100
AcDbPoint
 10
9.175268396747174
 20
2.277277725535704
 30
0.0
  0
POINT
  5
3847
330
2A3A
100
AcDbEntity
  8
Defpoints
 62
     0
100
AcDbPoint
 10
9.175268396747174
 20
2.277277725535704
 30
0.0
  0
POINT
  5
3848
330
2A3A
100
AcDbEntity
  8
Defpoints
 62
     0
100
AcDbPoint
 10
9.175268396747172
 20
2.255148392656048
 30
0.0
  0
POINT
  5
3849
330
2A3A
100
AcDbEntity
  8
Defpoints
 62
     0
100
AcDbPoint
 10
9.191380853850017
 20
1.490277725535704
 30
0.0
  0
ENDBLK
  5
2A4A
330
2A3A
100
AcDbEntity
  8
0
100
AcDbBlockEnd
  0
BLOCK
  5
32F3
330
32E8
100
AcDbEntity
  8
0
100
AcDbBlockBegin
  2
*D10
 70
     1
 10
0.0
 20
0.0
 30
0.0
  3
*D10
  1

  0
LINE
  5
3832
330
32E8
100
AcDbEntity
  8
DIM
 62
     0
370
    -2
100
AcDbLine
 10
9.174268396747178
 20
4.883863202386407
 30
0.0
 11
8.454677856874134
 21
4.883863202386407
 31
0.0
  0
LINE
  5
3833
330
32E8
100
AcDbEntity
  8
DIM
 62
     0
370
    -2
100
AcDbLine
 10
8.954268396747179
 20
4.017863202386408
 30
0.0
 11
8.454677856874134
 21
4.017863202386408
 31
0.0
  0
LINE
  5
3834
330
32E8
100
AcDbEntity
  8
DIM
 62
     0
370
    -2
100
AcDbLine
 10
8.547677856874134
 20
4.703863202386408
 30
0.0
 11
8.547677856874134
 21
4.603363202386407
 31
0.0
  0
LINE
  5
3835
330
32E8
100
AcDbEntity
  8
DIM
 62
     0
370
    -2
100
AcDbLine
 10
8.547677856874134
 20
4.197863202386407
 30
0.0
 11
8.547677856874134
 21
4.298363202386408
 31
0.0
  0
SOLID
  5
3836
330
32E8
100
AcDbEntity
  8
DIM
 62
     0
100
AcDbTrace
 10
8.517677856874135
 20
4.703863202386408
 30
0.0
 11
8.577677856874133
 21
4.703863202386408
 31
0.0
 12
8.547677856874134
 22
4.883863202386407
 32
0.0
 13
8.547677856874134
 23
4.883863202386407
 33
0.0
  0
SOLID
  5
3837
330
32E8
100
AcDbEntity
  8
DIM
 62
     0
100
AcDbTrace
 10
8.517677856874135
 20
4.197863202386407
 30
0.0
 11
8.577677856874133
 21
4.197863202386407
 31
0.0
 12
8.547677856874134
 22
4.017863202386408
 32
0.0
 13
8.547677856874134
 23
4.017863202386408
 33
0.0
  0
MTEXT
  5
3838
330
32E8
100
AcDbEntity
  8
DIM
 62
     0
100
AcDbMText
 10
8.547677856874132
 20
4.450863202386408
 30
0.0
 40
0.125
 41
0.0
 71
     5
 72
     1
  1
\A1;0.866
  7
TXT
 73
     1
 44
1.0
  0
POINT
  5
3839
330
32E8
100
AcDbEntity
  8
Defpoints
 62
     0
100
AcDbPoint
 10
9.237268396747179
 20
4.883863202386407
 30
0.0
  0
POINT
  5
383A
330
32E8
100
AcDbEntity
  8
Defpoints
 62
     0
100
AcDbPoint
 10
9.01726839674718
 20
4.017863202386408
 30
0.0
  0
POINT
  5
383B
330
32E8
100
AcDbEntity
  8
Defpoints
 62
     0
100
AcDbPoint
 10
8.547677856874134
 20
4.017863202386408
 30
0.0
  0
ENDBLK
  5
32F4
330
32E8
100
AcDbEntity
  8
0
100
AcDbBlockEnd
  0
BLOCK
  5
3301
330
32F6
100
AcDbEntity
  8
0
100
AcDbBlockBegin
  2
*D11
 70
     1
 10
0.0
 20
0.0
 30
0.0
  3
*D11
  1

  0
LINE
  5
38E1
330
32F6
100
AcDbEntity
  8
DIM
 62
     0
370
    -2
100
AcDbLine
 10
12.01026839674718
 20
4.883863202386407
 30
0.0
 11
13.29902009645662
 21
4.883863202386407
 31
0.0
  0
LINE
  5
38E2
330
32F6
100
AcDbEntity
  8
DIM
 62
     0
370
    -2
100
AcDbLine
 10
12.01026839674718
 20
3.151863202386409
 30
0.0
 11
13.29902009645662
 21
3.151863202386409
 31
0.0
  0
LINE
  5
38E3
330
32F6
100
AcDbEntity
  8
DIM
 62
     0
370
    -2
100
AcDbLine
 10
13.20602009645662
 20
4.703863202386408
 30
0.0
 11
13.20602009645662
 21
4.170363202386409
 31
0.0
  0
LINE
  5
38E4
330
32F6
100
AcDbEntity
  8
DIM
 62
     0
370
    -2
100
AcDbLine
 10
13.20602009645662
 20
3.331863202386409
 30
0.0
 11
13.20602009645662
 21
3.865363202386408
 31
0.0
  0
SOLID
  5
38E5
330
32F6
100
AcDbEntity
  8
DIM
 62
     0
100
AcDbTrace
 10
13.17602009645662
 20
4.703863202386408
 30
0.0
 11
13.23602009645662
 21
4.703863202386408
 31
0.0
 12
13.20602009645662
 22
4.883863202386407
 32
0.0
 13
13.20602009645662
 23
4.883863202386407
 33
0.0
  0
SOLID
  5
38E6
330
32F6
100
AcDbEntity
  8
DIM
 62
     0
100
AcDbTrace
 10
13.17602009645662
 20
3.331863202386409
 30
0.0
 11
13.23602009645662
 21
3.331863202386409
 31
0.0
 12
13.20602009645662
 22
3.151863202386409
 32
0.0
 13
13.20602009645662
 23
3.151863202386409
 33
0.0
  0
MTEXT
  5
38E7
330
32F6
100
AcDbEntity
  8
DIM
 62
     0
100
AcDbMText
 10
13.20602009645662
 20
4.01786320238641
 30
0.0
 40
0.125
 41
0.0
 71
     5
 72
     1
  1
\A1;1.732
  7
TXT
 73
     1
 44
1.0
  0
POINT
  5
38E8
330
32F6
100
AcDbEntity
  8
Defpoints
 62
     0
100
AcDbPoint
 10
11.94726839674718
 20
4.883863202386407
 30
0.0
  0
POINT
  5
38E9
330
32F6
100
AcDbEntity
  8
Defpoints
 62
     0
100
AcDbPoint
 10
11.94726839674718
 20
3.151863202386409
 30
0.0
  0
POINT
  5
38EA
330
32F6
100
AcDbEntity
  8
Defpoints
 62
     0
100
AcDbPoint
 10
13.20602009645662
 20
3.151863202386409
 30
0.0
  0
ENDBLK
  5
3302
330
32F6
100
AcDbEntity
  8
0
100
AcDbBlockEnd
  0
BLOCK
  5
330F
330
3304
100
AcDbEntity
  8
0
100
AcDbBlockBegin
  2
*D12
 70
     1
 10
0.0
 20
0.0
 30
0.0
  3
*D12
  1

  0
LINE
  5
38CD
330
3304
100
AcDbEntity
  8
DIM
 62
     0
370
    -2
100
AcDbLine
 10
9.175268396747178
 20
3.150863202386407
 30
0.0
 11
9.175268396747178
 21
2.79348386617228
 31
0.0
  0
LINE
  5
38CE
330
3304
100
AcDbEntity
  8
DIM
 62
     0
370
    -2
100
AcDbLine
 10
12.00926839674718
 20
3.150863202386407
 30
0.0
 11
12.00926839674718
 21
2.79348386617228
 31
0.0
  0
LINE
  5
38CF
330
3304
100
AcDbEntity
  8
DIM
 62
     0
370
    -2
100
AcDbLine
 10
9.355268396747177
 20
2.88648386617228
 30
0.0
 11
10.31476839674718
 21
2.88648386617228
 31
0.0
  0
LINE
  5
38D0
330
3304
100
AcDbEntity
  8
DIM
 62
     0
370
    -2
100
AcDbLine
 10
11.82926839674718
 20
2.88648386617228
 30
0.0
 11
10.86976839674717
 21
2.88648386617228
 31
0.0
  0
SOLID
  5
38D1
330
3304
100
AcDbEntity
  8
DIM
 62
     0
100
AcDbTrace
 10
9.355268396747177
 20
2.91648386617228
 30
0.0
 11
9.355268396747177
 21
2.85648386617228
 31
0.0
 12
9.175268396747178
 22
2.88648386617228
 32
0.0
 13
9.175268396747178
 23
2.88648386617228
 33
0.0
  0
SOLID
  5
38D2
330
3304
100
AcDbEntity
  8
DIM
 62
     0
100
AcDbTrace
 10
11.82926839674718
 20
2.91648386617228
 30
0.0
 11
11.82926839674718
 21
2.85648386617228
 31
0.0
 12
12.00926839674718
 22
2.88648386617228
 32
0.0
 13
12.00926839674718
 23
2.88648386617228
 33
0.0
  0
MTEXT
  5
38D3
330
3304
100
AcDbEntity
  8
DIM
 62
     0
100
AcDbMText
 10
10.59226839674717
 20
2.88648386617228
 30
0.0
 40
0.125
 41
0.0
 71
     5
 72
     1
  1
\A1;2.834
  7
TXT
 73
     1
 44
1.0
  0
POINT
  5
38D4
330
3304
100
AcDbEntity
  8
Defpoints
 62
     0
100
AcDbPoint
 10
9.175268396747178
 20
3.213863202386407
 30
0.0
  0
POINT
  5
38D5
330
3304
100
AcDbEntity
  8
Defpoints
 62
     0
100
AcDbPoint
 10
12.00926839674718
 20
3.213863202386407
 30
0.0
  0
POINT
  5
38D6
330
3304
100
AcDbEntity
  8
Defpoints
 62
     0
100
AcDbPoint
 10
12.00926839674718
 20
2.88648386617228
 30
0.0
  0
ENDBLK
  5
3310
330
3304
100
AcDbEntity
  8
0
100
AcDbBlockEnd
  0
BLOCK
  5
331D
330
3312
100
AcDbEntity
  8
0
100
AcDbBlockBegin
  2
*D13
 70
     1
 10
0.0
 20
0.0
 30
0.0
  3
*D13
  1

  0
LINE
  5
38A5
330
3312
100
AcDbEntity
  8
DIM
 62
     0
370
    -2
100
AcDbLine
 10
9.01726839674718
 20
4.080863202386407
 30
0.0
 11
9.01726839674718
 21
5.255030046925057
 31
0.0
  0
LINE
  5
38A6
330
3312
100
AcDbEntity
  8
DIM
 62
     0
370
    -2
100
AcDbLine
 10
12.16726839674717
 20
4.080863202386407
 30
0.0
 11
12.16726839674717
 21
5.255030046925057
 31
0.0
  0
LINE
  5
38A7
330
3312
100
AcDbEntity
  8
DIM
 62
     0
370
    -2
100
AcDbLine
 10
9.19726839674718
 20
5.162030046925057
 30
0.0
 11
10.33820589674718
 21
5.162030046925057
 31
0.0
  0
LINE
  5
38A8
330
3312
100
AcDbEntity
  8
DIM
 62
     0
370
    -2
100
AcDbLine
 10
11.98726839674717
 20
5.162030046925057
 30
0.0
 11
10.84633089674718
 21
5.162030046925057
 31
0.0
  0
SOLID
  5
38A9
330
3312
100
AcDbEntity
  8
DIM
 62
     0
100
AcDbTrace
 10
9.19726839674718
 20
5.192030046925057
 30
0.0
 11
9.19726839674718
 21
5.132030046925057
 31
0.0
 12
9.01726839674718
 22
5.162030046925057
 32
0.0
 13
9.01726839674718
 23
5.162030046925057
 33
0.0
  0
SOLID
  5
38AA
330
3312
100
AcDbEntity
  8
DIM
 62
     0
100
AcDbTrace
 10
11.98726839674717
 20
5.192030046925057
 30
0.0
 11
11.98726839674717
 21
5.132030046925057
 31
0.0
 12
12.16726839674717
 22
5.162030046925057
 32
0.0
 13
12.16726839674717
 23
5.162030046925057
 33
0.0
  0
MTEXT
  5
38AB
330
3312
100
AcDbEntity
  8
DIM
 62
     0
100
AcDbMText
 10
10.59226839674717
 20
5.162030046925057
 30
0.0
 40
0.125
 41
0.0
 71
     5
 72
     1
  1
\A1;3.150
  7
TXT
 73
     1
 44
1.0
  0
POINT
  5
38AC
330
3312
100
AcDbEntity
  8
Defpoints
 62
     0
100
AcDbPoint
 10
9.01726839674718
 20
4.017863202386408
 30
0.0
  0
POINT
  5
38AD
330
3312
100
AcDbEntity
  8
Defpoints
 62
     0
100
AcDbPoint
 10
12.16726839674717
 20
4.017863202386408
 30
0.0
  0
POINT
  5
38AE
330
3312
100
AcDbEntity
  8
Defpoints
 62
     0
100
AcDbPoint
 10
12.16726839674717
 20
5.162030046925057
 30
0.0
  0
ENDBLK
  5
331E
330
3312
100
AcDbEntity
  8
0
100
AcDbBlockEnd
  0
BLOCK
  5
333F
330
3334
100
AcDbEntity
  8
0
100
AcDbBlockBegin
  2
*D14
 70
     1
 10
0.0
 20
0.0
 30
0.0
  3
*D14
  1

  0
LINE
  5
389B
330
3334
100
AcDbEntity
  8
DIM
 62
     0
370
    -2
100
AcDbLine
 10
8.852268396747181
 20
4.080863202386407
 30
0.0
 11
8.852268396747181
 21
5.550837310967896
 31
0.0
  0
LINE
  5
389C
330
3334
100
AcDbEntity
  8
DIM
 62
     0
370
    -2
100
AcDbLine
 10
12.33226839674717
 20
4.080863202386407
 30
0.0
 11
12.33226839674717
 21
5.550837310967896
 31
0.0
  0
LINE
  5
389D
330
3334
100
AcDbEntity
  8
DIM
 62
     0
370
    -2
100
AcDbLine
 10
9.032268396747181
 20
5.457837310967896
 30
0.0
 11
10.32258089674717
 21
5.457837310967896
 31
0.0
  0
LINE
  5
389E
330
3334
100
AcDbEntity
  8
DIM
 62
     0
370
    -2
100
AcDbLine
 10
12.15226839674717
 20
5.457837310967896
 30
0.0
 11
10.86195589674717
 21
5.457837310967896
 31
0.0
  0
SOLID
  5
389F
330
3334
100
AcDbEntity
  8
DIM
 62
     0
100
AcDbTrace
 10
9.032268396747181
 20
5.487837310967896
 30
0.0
 11
9.032268396747181
 21
5.427837310967896
 31
0.0
 12
8.852268396747181
 22
5.457837310967896
 32
0.0
 13
8.852268396747181
 23
5.457837310967896
 33
0.0
  0
SOLID
  5
38A0
330
3334
100
AcDbEntity
  8
DIM
 62
     0
100
AcDbTrace
 10
12.15226839674717
 20
5.487837310967896
 30
0.0
 11
12.15226839674717
 21
5.427837310967896
 31
0.0
 12
12.33226839674717
 22
5.457837310967896
 32
0.0
 13
12.33226839674717
 23
5.457837310967896
 33
0.0
  0
MTEXT
  5
38A1
330
3334
100
AcDbEntity
  8
DIM
 62
     0
100
AcDbMText
 10
10.59226839674717
 20
5.457837310967896
 30
0.0
 40
0.125
 41
0.0
 71
     5
 72
     1
  1
\A1;3.480
  7
TXT
 73
     1
 44
1.0
  0
POINT
  5
38A2
330
3334
100
AcDbEntity
  8
Defpoints
 62
     0
100
AcDbPoint
 10
8.852268396747181
 20
4.017863202386408
 30
0.0
  0
POINT
  5
38A3
330
3334
100
AcDbEntity
  8
Defpoints
 62
     0
100
AcDbPoint
 10
12.33226839674717
 20
4.017863202386408
 30
0.0
  0
POINT
  5
38A4
330
3334
100
AcDbEntity
  8
Defpoints
 62
     0
100
AcDbPoint
 10
12.33226839674717
 20
5.457837310967896
 30
0.0
  0
ENDBLK
  5
3340
330
3334
100
AcDbEntity
  8
0
100
AcDbBlockEnd
  0
BLOCK
  5
3475
330
3469
100
AcDbEntity
  8
0
100
AcDbBlockBegin
  2
*D15
 70
     1
 10
0.0
 20
0.0
 30
0.0
  3
*D15
  1

  0
LINE
  5
3891
330
3469
100
AcDbEntity
  8
DIM
 62
     0
370
    -2
100
AcDbLine
 10
7.913154555446195
 20
3.621863202386412
 30
0.0
 11
8.276457797218718
 21
3.621863202386412
 31
0.0
  0
LINE
  5
3892
330
3469
100
AcDbEntity
  8
DIM
 62
     0
370
    -2
100
AcDbLine
 10
7.913154555446198
 20
3.401863202386412
 30
0.0
 11
8.276457797218718
 21
3.401863202386412
 31
0.0
  0
LINE
  5
3893
330
3469
100
AcDbEntity
  8
DIM
 62
     0
370
    -2
100
AcDbLine
 10
8.183457797218718
 20
3.801863202386412
 30
0.0
 11
8.183457797218718
 21
3.981863202386412
 31
0.0
  0
LINE
  5
3894
330
3469
100
AcDbEntity
  8
DIM
 62
     0
370
    -2
100
AcDbLine
 10
8.183457797218718
 20
3.221863202386411
 30
0.0
 11
8.183457797218718
 21
3.041863202386412
 31
0.0
  0
SOLID
  5
3895
330
3469
100
AcDbEntity
  8
DIM
 62
     0
100
AcDbTrace
 10
8.153457797218718
 20
3.801863202386412
 30
0.0
 11
8.213457797218717
 21
3.801863202386412
 31
0.0
 12
8.183457797218718
 22
3.621863202386412
 32
0.0
 13
8.183457797218718
 23
3.621863202386412
 33
0.0
  0
SOLID
  5
3896
330
3469
100
AcDbEntity
  8
DIM
 62
     0
100
AcDbTrace
 10
8.153457797218718
 20
3.221863202386411
 30
0.0
 11
8.213457797218717
 21
3.221863202386411
 31
0.0
 12
8.183457797218718
 22
3.401863202386412
 32
0.0
 13
8.183457797218718
 23
3.401863202386412
 33
0.0
  0
MTEXT
  5
3897
330
3469
100
AcDbEntity
  8
DIM
 62
     0
100
AcDbMText
 10
8.183457797218718
 20
3.511863202386413
 30
0.0
 40
0.125
 41
0.0
 71
     5
 72
     1
  1
\A1;0.220
  7
TXT
 73
     1
 44
1.0
  0
POINT
  5
3898
330
3469
100
AcDbEntity
  8
Defpoints
 62
     0
100
AcDbPoint
 10
7.850154555446195
 20
3.621863202386412
 30
0.0
  0
POINT
  5
3899
330
3469
100
AcDbEntity
  8
Defpoints
 62
     0
100
AcDbPoint
 10
7.850154555446199
 20
3.401863202386412
 30
0.0
  0
POINT
  5
389A
330
3469
100
AcDbEntity
  8
Defpoints
 62
     0
100
AcDbPoint
 10
8.183457797218718
 20
3.401863202386412
 30
0.0
  0
ENDBLK
  5
3476
330
3469
100
AcDbEntity
  8
0
100
AcDbBlockEnd
  0
BLOCK
  5
3483
330
3478
100
AcDbEntity
  8
0
100
AcDbBlockBegin
  2
*D16
 70
     1
 10
0.0
 20
0.0
 30
0.0
  3
*D16
  1

  0
LINE
  5
3887
330
3478
100
AcDbEntity
  8
DIM
 62
     0
370
    -2
100
AcDbLine
 10
7.850154555446199
 20
3.088863202386409
 30
0.0
 11
7.850154555446199
 21
2.77332606944293
 31
0.0
  0
LINE
  5
3888
330
3478
100
AcDbEntity
  8
DIM
 62
     0
370
    -2
100
AcDbLine
 10
7.710154555446198
 20
3.338863202386411
 30
0.0
 11
7.710154555446198
 21
2.77332606944293
 31
0.0
  0
LINE
  5
3889
330
3478
100
AcDbEntity
  8
DIM
 62
     0
370
    -2
100
AcDbLine
 10
8.030154555446198
 20
2.86632606944293
 30
0.0
 11
8.210154555446198
 21
2.86632606944293
 31
0.0
  0
LINE
  5
388A
330
3478
100
AcDbEntity
  8
DIM
 62
     0
370
    -2
100
AcDbLine
 10
7.530154555446198
 20
2.86632606944293
 30
0.0
 11
7.350154555446198
 21
2.86632606944293
 31
0.0
  0
SOLID
  5
388B
330
3478
100
AcDbEntity
  8
DIM
 62
     0
100
AcDbTrace
 10
8.030154555446198
 20
2.89632606944293
 30
0.0
 11
8.030154555446198
 21
2.83632606944293
 31
0.0
 12
7.850154555446199
 22
2.86632606944293
 32
0.0
 13
7.850154555446199
 23
2.86632606944293
 33
0.0
  0
SOLID
  5
388C
330
3478
100
AcDbEntity
  8
DIM
 62
     0
100
AcDbTrace
 10
7.530154555446198
 20
2.89632606944293
 30
0.0
 11
7.530154555446198
 21
2.83632606944293
 31
0.0
 12
7.710154555446198
 22
2.86632606944293
 32
0.0
 13
7.710154555446198
 23
2.86632606944293
 33
0.0
  0
MTEXT
  5
388D
330
3478
100
AcDbEntity
  8
DIM
 62
     0
100
AcDbMText
 10
7.103904555446198
 20
2.86632606944293
 30
0.0
 40
0.125
 41
0.0
 71
     5
 72
     1
  1
\A1;0.140
  7
TXT
 73
     1
 44
1.0
  0
POINT
  5
388E
330
3478
100
AcDbEntity
  8
Defpoints
 62
     0
100
AcDbPoint
 10
7.850154555446199
 20
3.151863202386409
 30
0.0
  0
POINT
  5
388F
330
3478
100
AcDbEntity
  8
Defpoints
 62
     0
100
AcDbPoint
 10
7.710154555446198
 20
3.401863202386412
 30
0.0
  0
POINT
  5
3890
330
3478
100
AcDbEntity
  8
Defpoints
 62
     0
100
AcDbPoint
 10
7.710154555446198
 20
2.86632606944293
 30
0.0
  0
ENDBLK
  5
3484
330
3478
100
AcDbEntity
  8
0
100
AcDbBlockEnd
  0
BLOCK
  5
34BF
330
34B4
100
AcDbEntity
  8
0
100
AcDbBlockBegin
  2
*D17
 70
     1
 10
0.0
 20
0.0
 30
0.0
  3
*D17
  1

  0
LINE
  5
3868
330
34B4
100
AcDbEntity
  8
DIM
 62
     0
370
    -2
100
AcDbLine
 10
1.909983165585919
 20
4.883863202386407
 30
0.0
 11
1.190392625712874
 21
4.883863202386407
 31
0.0
  0
LINE
  5
3869
330
34B4
100
AcDbEntity
  8
DIM
 62
     0
370
    -2
100
AcDbLine
 10
1.68998316558592
 20
4.017863202386408
 30
0.0
 11
1.190392625712874
 21
4.017863202386408
 31
0.0
  0
LINE
  5
386A
330
34B4
100
AcDbEntity
  8
DIM
 62
     0
370
    -2
100
AcDbLine
 10
1.283392625712874
 20
4.703863202386408
 30
0.0
 11
1.283392625712874
 21
4.603363202386407
 31
0.0
  0
LINE
  5
386B
330
34B4
100
AcDbEntity
  8
DIM
 62
     0
370
    -2
100
AcDbLine
 10
1.283392625712874
 20
4.197863202386407
 30
0.0
 11
1.283392625712874
 21
4.298363202386408
 31
0.0
  0
SOLID
  5
386C
330
34B4
100
AcDbEntity
  8
DIM
 62
     0
100
AcDbTrace
 10
1.253392625712874
 20
4.703863202386408
 30
0.0
 11
1.313392625712874
 21
4.703863202386408
 31
0.0
 12
1.283392625712874
 22
4.883863202386407
 32
0.0
 13
1.283392625712874
 23
4.883863202386407
 33
0.0
  0
SOLID
  5
386D
330
34B4
100
AcDbEntity
  8
DIM
 62
     0
100
AcDbTrace
 10
1.253392625712874
 20
4.197863202386407
 30
0.0
 11
1.313392625712874
 21
4.197863202386407
 31
0.0
 12
1.283392625712874
 22
4.017863202386408
 32
0.0
 13
1.283392625712874
 23
4.017863202386408
 33
0.0
  0
MTEXT
  5
386E
330
34B4
100
AcDbEntity
  8
DIM
 62
     0
100
AcDbMText
 10
1.283392625712873
 20
4.450863202386408
 30
0.0
 40
0.125
 41
0.0
 71
     5
 72
     1
  1
\A1;0.866
  7
TXT
 73
     1
 44
1.0
  0
POINT
  5
386F
330
34B4
100
AcDbEntity
  8
Defpoints
 62
     0
100
AcDbPoint
 10
1.972983165585919
 20
4.883863202386407
 30
0.0
  0
POINT
  5
3870
330
34B4
100
AcDbEntity
  8
Defpoints
 62
     0
100
AcDbPoint
 10
1.75298316558592
 20
4.017863202386408
 30
0.0
  0
POINT
  5
3871
330
34B4
100
AcDbEntity
  8
Defpoints
 62
     0
100
AcDbPoint
 10
1.283392625712874
 20
4.017863202386408
 30
0.0
  0
ENDBLK
  5
34C0
330
34B4
100
AcDbEntity
  8
0
100
AcDbBlockEnd
  0
BLOCK
  5
34CC
330
34C1
100
AcDbEntity
  8
0
100
AcDbBlockBegin
  2
*D18
 70
     1
 10
0.0
 20
0.0
 30
0.0
  3
*D18
  1

  0
LINE
  5
387D
330
34C1
100
AcDbEntity
  8
DIM
 62
     0
370
    -2
100
AcDbLine
 10
4.745983165585919
 20
4.883863202386407
 30
0.0
 11
5.480292076787257
 21
4.883863202386407
 31
0.0
  0
LINE
  5
387E
330
34C1
100
AcDbEntity
  8
DIM
 62
     0
370
    -2
100
AcDbLine
 10
4.745983165585919
 20
3.151863202386409
 30
0.0
 11
5.480292076787257
 21
3.151863202386409
 31
0.0
  0
LINE
  5
387F
330
34C1
100
AcDbEntity
  8
DIM
 62
     0
370
    -2
100
AcDbLine
 10
5.387292076787257
 20
4.703863202386408
 30
0.0
 11
5.387292076787257
 21
4.170363202386409
 31
0.0
  0
LINE
  5
3880
330
34C1
100
AcDbEntity
  8
DIM
 62
     0
370
    -2
100
AcDbLine
 10
5.387292076787257
 20
3.331863202386409
 30
0.0
 11
5.387292076787257
 21
3.865363202386408
 31
0.0
  0
SOLID
  5
3881
330
34C1
100
AcDbEntity
  8
DIM
 62
     0
100
AcDbTrace
 10
5.357292076787257
 20
4.703863202386408
 30
0.0
 11
5.417292076787258
 21
4.703863202386408
 31
0.0
 12
5.387292076787257
 22
4.883863202386407
 32
0.0
 13
5.387292076787257
 23
4.883863202386407
 33
0.0
  0
SOLID
  5
3882
330
34C1
100
AcDbEntity
  8
DIM
 62
     0
100
AcDbTrace
 10
5.357292076787257
 20
3.331863202386409
 30
0.0
 11
5.417292076787258
 21
3.331863202386409
 31
0.0
 12
5.387292076787257
 22
3.151863202386409
 32
0.0
 13
5.387292076787257
 23
3.151863202386409
 33
0.0
  0
MTEXT
  5
3883
330
34C1
100
AcDbEntity
  8
DIM
 62
     0
100
AcDbMText
 10
5.387292076787256
 20
4.01786320238641
 30
0.0
 40
0.125
 41
0.0
 71
     5
 72
     1
  1
\A1;1.732
  7
TXT
 73
     1
 44
1.0
  0
POINT
  5
3884
330
34C1
100
AcDbEntity
  8
Defpoints
 62
     0
100
AcDbPoint
 10
4.68298316558592
 20
4.883863202386407
 30
0.0
  0
POINT
  5
3885
330
34C1
100
AcDbEntity
  8
Defpoints
 62
     0
100
AcDbPoint
 10
4.68298316558592
 20
3.151863202386409
 30
0.0
  0
POINT
  5
3886
330
34C1
100
AcDbEntity
  8
Defpoints
 62
     0
100
AcDbPoint
 10
5.387292076787257
 20
3.151863202386409
 30
0.0
  0
ENDBLK
  5
34CD
330
34C1
100
AcDbEntity
  8
0
100
AcDbBlockEnd
  0
BLOCK
  5
34D9
330
34CE
100
AcDbEntity
  8
0
100
AcDbBlockBegin
  2
*D19
 70
     1
 10
0.0
 20
0.0
 30
0.0
  3
*D19
  1

  0
LINE
  5
385E
330
34CE
100
AcDbEntity
  8
DIM
 62
     0
370
    -2
100
AcDbLine
 10
1.910983165585918
 20
3.150863202386407
 30
0.0
 11
1.910983165585918
 21
2.79348386617228
 31
0.0
  0
LINE
  5
385F
330
34CE
100
AcDbEntity
  8
DIM
 62
     0
370
    -2
100
AcDbLine
 10
4.744983165585921
 20
3.150863202386407
 30
0.0
 11
4.744983165585921
 21
2.79348386617228
 31
0.0
  0
LINE
  5
3860
330
34CE
100
AcDbEntity
  8
DIM
 62
     0
370
    -2
100
AcDbLine
 10
2.090983165585918
 20
2.88648386617228
 30
0.0
 11
3.050483165585919
 21
2.88648386617228
 31
0.0
  0
LINE
  5
3861
330
34CE
100
AcDbEntity
  8
DIM
 62
     0
370
    -2
100
AcDbLine
 10
4.564983165585921
 20
2.88648386617228
 30
0.0
 11
3.605483165585919
 21
2.88648386617228
 31
0.0
  0
SOLID
  5
3862
330
34CE
100
AcDbEntity
  8
DIM
 62
     0
100
AcDbTrace
 10
2.090983165585918
 20
2.91648386617228
 30
0.0
 11
2.090983165585918
 21
2.85648386617228
 31
0.0
 12
1.910983165585918
 22
2.88648386617228
 32
0.0
 13
1.910983165585918
 23
2.88648386617228
 33
0.0
  0
SOLID
  5
3863
330
34CE
100
AcDbEntity
  8
DIM
 62
     0
100
AcDbTrace
 10
4.564983165585921
 20
2.91648386617228
 30
0.0
 11
4.564983165585921
 21
2.85648386617228
 31
0.0
 12
4.744983165585921
 22
2.88648386617228
 32
0.0
 13
4.744983165585921
 23
2.88648386617228
 33
0.0
  0
MTEXT
  5
3864
330
34CE
100
AcDbEntity
  8
DIM
 62
     0
100
AcDbMText
 10
3.327983165585919
 20
2.88648386617228
 30
0.0
 40
0.125
 41
0.0
 71
     5
 72
     1
  1
\A1;2.834
  7
TXT
 73
     1
 44
1.0
  0
POINT
  5
3865
330
34CE
100
AcDbEntity
  8
Defpoints
 62
     0
100
AcDbPoint
 10
1.910983165585918
 20
3.213863202386407
 30
0.0
  0
POINT
  5
3866
330
34CE
100
AcDbEntity
  8
Defpoints
 62
     0
100
AcDbPoint
 10
4.744983165585921
 20
3.213863202386407
 30
0.0
  0
POINT
  5
3867
330
34CE
100
AcDbEntity
  8
Defpoints
 62
     0
100
AcDbPoint
 10
4.744983165585921
 20
2.88648386617228
 30
0.0
  0
ENDBLK
  5
34DA
330
34CE
100
AcDbEntity
  8
0
100
AcDbBlockEnd
  0
BLOCK
  5
34E6
330
34DB
100
AcDbEntity
  8
0
100
AcDbBlockBegin
  2
*D20
 70
     1
 10
0.0
 20
0.0
 30
0.0
  3
*D20
  1

  0
LINE
  5
3854
330
34DB
100
AcDbEntity
  8
DIM
 62
     0
370
    -2
100
AcDbLine
 10
1.75298316558592
 20
4.080863202386407
 30
0.0
 11
1.75298316558592
 21
5.255030046925057
 31
0.0
  0
LINE
  5
3855
330
34DB
100
AcDbEntity
  8
DIM
 62
     0
370
    -2
100
AcDbLine
 10
4.902983165585919
 20
4.080863202386407
 30
0.0
 11
4.902983165585919
 21
5.255030046925057
 31
0.0
  0
LINE
  5
3856
330
34DB
100
AcDbEntity
  8
DIM
 62
     0
370
    -2
100
AcDbLine
 10
1.93298316558592
 20
5.162030046925057
 30
0.0
 11
3.073920665585919
 21
5.162030046925057
 31
0.0
  0
LINE
  5
3857
330
34DB
100
AcDbEntity
  8
DIM
 62
     0
370
    -2
100
AcDbLine
 10
4.722983165585919
 20
5.162030046925057
 30
0.0
 11
3.582045665585919
 21
5.162030046925057
 31
0.0
  0
SOLID
  5
3858
330
34DB
100
AcDbEntity
  8
DIM
 62
     0
100
AcDbTrace
 10
1.93298316558592
 20
5.192030046925057
 30
0.0
 11
1.93298316558592
 21
5.132030046925057
 31
0.0
 12
1.75298316558592
 22
5.162030046925057
 32
0.0
 13
1.75298316558592
 23
5.162030046925057
 33
0.0
  0
SOLID
  5
3859
330
34DB
100
AcDbEntity
  8
DIM
 62
     0
100
AcDbTrace
 10
4.722983165585919
 20
5.192030046925057
 30
0.0
 11
4.722983165585919
 21
5.132030046925057
 31
0.0
 12
4.902983165585919
 22
5.162030046925057
 32
0.0
 13
4.902983165585919
 23
5.162030046925057
 33
0.0
  0
MTEXT
  5
385A
330
34DB
100
AcDbEntity
  8
DIM
 62
     0
100
AcDbMText
 10
3.327983165585919
 20
5.162030046925057
 30
0.0
 40
0.125
 41
0.0
 71
     5
 72
     1
  1
\A1;3.150
  7
TXT
 73
     1
 44
1.0
  0
POINT
  5
385B
330
34DB
100
AcDbEntity
  8
Defpoints
 62
     0
100
AcDbPoint
 10
1.75298316558592
 20
4.017863202386408
 30
0.0
  0
POINT
  5
385C
330
34DB
100
AcDbEntity
  8
Defpoints
 62
     0
100
AcDbPoint
 10
4.902983165585919
 20
4.017863202386408
 30
0.0
  0
POINT
  5
385D
330
34DB
100
AcDbEntity
  8
Defpoints
 62
     0
100
AcDbPoint
 10
4.902983165585919
 20
5.162030046925057
 30
0.0
  0
ENDBLK
  5
34E7
330
34DB
100
AcDbEntity
  8
0
100
AcDbBlockEnd
  0
BLOCK
  5
34F3
330
34E8
100
AcDbEntity
  8
0
100
AcDbBlockBegin
  2
*D21
 70
     1
 10
0.0
 20
0.0
 30
0.0
  3
*D21
  1

  0
LINE
  5
384A
330
34E8
100
AcDbEntity
  8
DIM
 62
     0
370
    -2
100
AcDbLine
 10
1.587983165585921
 20
4.080863202386407
 30
0.0
 11
1.587983165585921
 21
5.550837310967896
 31
0.0
  0
LINE
  5
384B
330
34E8
100
AcDbEntity
  8
DIM
 62
     0
370
    -2
100
AcDbLine
 10
5.067983165585918
 20
4.080863202386407
 30
0.0
 11
5.067983165585918
 21
5.550837310967896
 31
0.0
  0
LINE
  5
384C
330
34E8
100
AcDbEntity
  8
DIM
 62
     0
370
    -2
100
AcDbLine
 10
1.767983165585921
 20
5.457837310967896
 30
0.0
 11
3.058295665585919
 21
5.457837310967896
 31
0.0
  0
LINE
  5
384D
330
34E8
100
AcDbEntity
  8
DIM
 62
     0
370
    -2
100
AcDbLine
 10
4.887983165585918
 20
5.457837310967896
 30
0.0
 11
3.597670665585919
 21
5.457837310967896
 31
0.0
  0
SOLID
  5
384E
330
34E8
100
AcDbEntity
  8
DIM
 62
     0
100
AcDbTrace
 10
1.767983165585921
 20
5.487837310967896
 30
0.0
 11
1.767983165585921
 21
5.427837310967896
 31
0.0
 12
1.587983165585921
 22
5.457837310967896
 32
0.0
 13
1.587983165585921
 23
5.457837310967896
 33
0.0
  0
SOLID
  5
384F
330
34E8
100
AcDbEntity
  8
DIM
 62
     0
100
AcDbTrace
 10
4.887983165585918
 20
5.487837310967896
 30
0.0
 11
4.887983165585918
 21
5.427837310967896
 31
0.0
 12
5.067983165585918
 22
5.457837310967896
 32
0.0
 13
5.067983165585918
 23
5.457837310967896
 33
0.0
  0
MTEXT
  5
3850
330
34E8
100
AcDbEntity
  8
DIM
 62
     0
100
AcDbMText
 10
3.327983165585919
 20
5.457837310967896
 30
0.0
 40
0.125
 41
0.0
 71
     5
 72
     1
  1
\A1;3.480
  7
TXT
 73
     1
 44
1.0
  0
POINT
  5
3851
330
34E8
100
AcDbEntity
  8
Defpoints
 62
     0
100
AcDbPoint
 10
1.587983165585921
 20
4.017863202386408
 30
0.0
  0
POINT
  5
3852
330
34E8
100
AcDbEntity
  8
Defpoints
 62
     0
100
AcDbPoint
 10
5.067983165585918
 20
4.017863202386408
 30
0.0
  0
POINT
  5
3853
330
34E8
100
AcDbEntity
  8
Defpoints
 62
     0
100
AcDbPoint
 10
5.067983165585918
 20
5.457837310967896
 30
0.0
  0
ENDBLK
  5
34F4
330
34E8
100
AcDbEntity
  8
0
100
AcDbBlockEnd
  0
BLOCK
  5
395B
330
3950
100
AcDbEntity
  8
0
100
AcDbBlockBegin
  2
*D22
 70
     1
 10
0.0
 20
0.0
 30
0.0
  3
*D22
  1

  0
LINE
  5
39A9
330
3950
100
AcDbEntity
  8
DIM
 62
     0
370
    -2
100
AcDbLine
 10
12.01026839674718
 20
8.972841501725698
 30
0.0
 11
12.74457730794851
 21
8.972841501725698
 31
0.0
  0
LINE
  5
39AA
330
3950
100
AcDbEntity
  8
DIM
 62
     0
370
    -2
100
AcDbLine
 10
12.01026839674718
 20
7.240841501725701
 30
0.0
 11
12.74457730794851
 21
7.240841501725701
 31
0.0
  0
LINE
  5
39AB
330
3950
100
AcDbEntity
  8
DIM
 62
     0
370
    -2
100
AcDbLine
 10
12.65157730794851
 20
8.792841501725698
 30
0.0
 11
12.65157730794851
 21
8.2593415017257
 31
0.0
  0
LINE
  5
39AC
330
3950
100
AcDbEntity
  8
DIM
 62
     0
370
    -2
100
AcDbLine
 10
12.65157730794851
 20
7.420841501725701
 30
0.0
 11
12.65157730794851
 21
7.954341501725701
 31
0.0
  0
SOLID
  5
39AD
330
3950
100
AcDbEntity
  8
DIM
 62
     0
100
AcDbTrace
 10
12.62157730794851
 20
8.792841501725698
 30
0.0
 11
12.68157730794851
 21
8.792841501725698
 31
0.0
 12
12.65157730794851
 22
8.972841501725698
 32
0.0
 13
12.65157730794851
 23
8.972841501725698
 33
0.0
  0
SOLID
  5
39AE
330
3950
100
AcDbEntity
  8
DIM
 62
     0
100
AcDbTrace
 10
12.62157730794851
 20
7.420841501725701
 30
0.0
 11
12.68157730794851
 21
7.420841501725701
 31
0.0
 12
12.65157730794851
 22
7.240841501725701
 32
0.0
 13
12.65157730794851
 23
7.240841501725701
 33
0.0
  0
MTEXT
  5
39AF
330
3950
100
AcDbEntity
  8
DIM
 62
     0
100
AcDbMText
 10
12.65157730794851
 20
8.106841501725703
 30
0.0
 40
0.125
 41
0.0
 71
     5
 72
     1
  1
\A1;1.732
  7
TXT
 73
     1
 44
1.0
  0
POINT
  5
39B0
330
3950
100
AcDbEntity
  8
Defpoints
 62
     0
100
AcDbPoint
 10
11.94726839674718
 20
8.972841501725699
 30
0.0
  0
POINT
  5
39B1
330
3950
100
AcDbEntity
  8
Defpoints
 62
     0
100
AcDbPoint
 10
11.94726839674718
 20
7.240841501725701
 30
0.0
  0
POINT
  5
39B2
330
3950
100
AcDbEntity
  8
Defpoints
 62
     0
100
AcDbPoint
 10
12.65157730794851
 20
7.240841501725701
 30
0.0
  0
ENDBLK
  5
395C
330
3950
100
AcDbEntity
  8
0
100
AcDbBlockEnd
  0
BLOCK
  5
3975
330
396A
100
AcDbEntity
  8
0
100
AcDbBlockBegin
  2
*D23
 70
     1
 10
0.0
 20
0.0
 30
0.0
  3
*D23
  1

  0
LINE
  5
39B3
330
396A
100
AcDbEntity
  8
DIM
 62
     0
370
    -2
100
AcDbLine
 10
9.175268396747178
 20
7.2398415017257
 30
0.0
 11
9.175268396747178
 21
6.882462165511572
 31
0.0
  0
LINE
  5
39B4
330
396A
100
AcDbEntity
  8
DIM
 62
     0
370
    -2
100
AcDbLine
 10
12.00926839674718
 20
7.2398415017257
 30
0.0
 11
12.00926839674718
 21
6.882462165511572
 31
0.0
  0
LINE
  5
39B5
330
396A
100
AcDbEntity
  8
DIM
 62
     0
370
    -2
100
AcDbLine
 10
9.355268396747177
 20
6.975462165511572
 30
0.0
 11
10.31476839674718
 21
6.975462165511572
 31
0.0
  0
LINE
  5
39B6
330
396A
100
AcDbEntity
  8
DIM
 62
     0
370
    -2
100
AcDbLine
 10
11.82926839674718
 20
6.975462165511572
 30
0.0
 11
10.86976839674717
 21
6.975462165511572
 31
0.0
  0
SOLID
  5
39B7
330
396A
100
AcDbEntity
  8
DIM
 62
     0
100
AcDbTrace
 10
9.355268396747177
 20
7.005462165511572
 30
0.0
 11
9.355268396747177
 21
6.945462165511572
 31
0.0
 12
9.175268396747178
 22
6.975462165511572
 32
0.0
 13
9.175268396747178
 23
6.975462165511572
 33
0.0
  0
SOLID
  5
39B8
330
396A
100
AcDbEntity
  8
DIM
 62
     0
100
AcDbTrace
 10
11.82926839674718
 20
7.005462165511572
 30
0.0
 11
11.82926839674718
 21
6.945462165511572
 31
0.0
 12
12.00926839674718
 22
6.975462165511572
 32
0.0
 13
12.00926839674718
 23
6.975462165511572
 33
0.0
  0
MTEXT
  5
39B9
330
396A
100
AcDbEntity
  8
DIM
 62
     0
100
AcDbMText
 10
10.59226839674717
 20
6.975462165511572
 30
0.0
 40
0.125
 41
0.0
 71
     5
 72
     1
  1
\A1;2.834
  7
TXT
 73
     1
 44
1.0
  0
POINT
  5
39BA
330
396A
100
AcDbEntity
  8
Defpoints
 62
     0
100
AcDbPoint
 10
9.175268396747178
 20
7.3028415017257
 30
0.0
  0
POINT
  5
39BB
330
396A
100
AcDbEntity
  8
Defpoints
 62
     0
100
AcDbPoint
 10
12.00926839674718
 20
7.3028415017257
 30
0.0
  0
POINT
  5
39BC
330
396A
100
AcDbEntity
  8
Defpoints
 62
     0
100
AcDbPoint
 10
12.00926839674718
 20
6.975462165511572
 30
0.0
  0
ENDBLK
  5
3976
330
396A
100
AcDbEntity
  8
0
100
AcDbBlockEnd
  0
BLOCK
  5
39E2
330
39D7
100
AcDbEntity
  8
0
100
AcDbBlockBegin
  2
*D24
 70
     1
 10
0.0
 20
0.0
 30
0.0
  3
*D24
  1

  0
LINE
  5
39F8
330
39D7
100
AcDbEntity
  8
DIM
 62
     0
370
    -2
100
AcDbLine
 10
12.33326839674718
 20
6.664366696294754
 30
0.0
 11
12.75283816936996
 21
6.664366696294754
 31
0.0
  0
LINE
  5
39F9
330
39D7
100
AcDbEntity
  8
DIM
 62
     0
370
    -2
100
AcDbLine
 10
12.05853126064867
 20
5.815366696294755
 30
0.0
 11
12.75283816936996
 21
5.815366696294755
 31
0.0
  0
LINE
  5
39FA
330
39D7
100
AcDbEntity
  8
DIM
 62
     0
370
    -2
100
AcDbLine
 10
12.65983816936996
 20
6.484366696294754
 30
0.0
 11
12.65983816936996
 21
6.392366696294755
 31
0.0
  0
LINE
  5
39FB
330
39D7
100
AcDbEntity
  8
DIM
 62
     0
370
    -2
100
AcDbLine
 10
12.65983816936996
 20
5.995366696294754
 30
0.0
 11
12.65983816936996
 21
6.087366696294755
 31
0.0
  0
SOLID
  5
39FC
330
39D7
100
AcDbEntity
  8
DIM
 62
     0
100
AcDbTrace
 10
12.62983816936996
 20
6.484366696294754
 30
0.0
 11
12.68983816936996
 21
6.484366696294754
 31
0.0
 12
12.65983816936996
 22
6.664366696294754
 32
0.0
 13
12.65983816936996
 23
6.664366696294754
 33
0.0
  0
SOLID
  5
39FD
330
39D7
100
AcDbEntity
  8
DIM
 62
     0
100
AcDbTrace
 10
12.62983816936996
 20
5.995366696294754
 30
0.0
 11
12.68983816936996
 21
5.995366696294754
 31
0.0
 12
12.65983816936996
 22
5.815366696294755
 32
0.0
 13
12.65983816936996
 23
5.815366696294755
 33
0.0
  0
MTEXT
  5
39FE
330
39D7
100
AcDbEntity
  8
DIM
 62
     0
100
AcDbMText
 10
12.65983816936996
 20
6.239866696294757
 30
0.0
 40
0.125
 41
0.0
 71
     5
 72
     1
  1
\A1;0.849
  7
TXT
 73
     1
 44
1.0
  0
POINT
  5
39FF
330
39D7
100
AcDbEntity
  8
Defpoints
 62
     0
100
AcDbPoint
 10
12.27026839674718
 20
6.664366696294754
 30
0.0
  0
POINT
  5
3A00
330
39D7
100
AcDbEntity
  8
Defpoints
 62
     0
100
AcDbPoint
 10
11.99553126064867
 20
5.815366696294755
 30
0.0
  0
POINT
  5
3A01
330
39D7
100
AcDbEntity
  8
Defpoints
 62
     0
100
AcDbPoint
 10
12.65983816936996
 20
5.815366696294755
 30
0.0
  0
ENDBLK
  5
39E3
330
39D7
100
AcDbEntity
  8
0
100
AcDbBlockEnd
  0
BLOCK
  5
3A28
330
3A1C
100
AcDbEntity
  8
0
100
AcDbBlockBegin
  2
*D25
 70
     1
 10
0.0
 20
0.0
 30
0.0
  3
*D25
  1

  0
LINE
  5
3A43
330
3A1C
100
AcDbEntity
  8
DIM
 62
     0
370
    -2
100
AcDbLine
 10
14.28306323730359
 20
3.537863202386409
 30
0.0
 11
14.03255462457196
 21
3.537863202386409
 31
0.0
  0
LINE
  5
3A44
330
3A1C
100
AcDbEntity
  8
DIM
 62
     0
370
    -2
100
AcDbLine
 10
14.28306323730359
 20
3.401863202386412
 30
0.0
 11
14.03255462457196
 21
3.401863202386412
 31
0.0
  0
LINE
  5
3A45
330
3A1C
100
AcDbEntity
  8
DIM
 62
     0
370
    -2
100
AcDbLine
 10
14.12555462457197
 20
3.717863202386409
 30
0.0
 11
14.12555462457197
 21
3.897863202386409
 31
0.0
  0
LINE
  5
3A46
330
3A1C
100
AcDbEntity
  8
DIM
 62
     0
370
    -2
100
AcDbLine
 10
14.12555462457197
 20
3.221863202386411
 30
0.0
 11
14.12555462457197
 21
3.041863202386412
 31
0.0
  0
LINE
  5
3A47
330
3A1C
100
AcDbEntity
  8
DIM
 62
     0
370
    -2
100
AcDbLine
 10
14.12555462457197
 20
3.041863202386412
 30
0.0
 11
13.94555462457196
 21
3.041863202386412
 31
0.0
  0
SOLID
  5
3A48
330
3A1C
100
AcDbEntity
  8
DIM
 62
     0
100
AcDbTrace
 10
14.09555462457197
 20
3.717863202386409
 30
0.0
 11
14.15555462457196
 21
3.717863202386409
 31
0.0
 12
14.12555462457197
 22
3.537863202386409
 32
0.0
 13
14.12555462457197
 23
3.537863202386409
 33
0.0
  0
SOLID
  5
3A49
330
3A1C
100
AcDbEntity
  8
DIM
 62
     0
100
AcDbTrace
 10
14.09555462457197
 20
3.221863202386411
 30
0.0
 11
14.15555462457196
 21
3.221863202386411
 31
0.0
 12
14.12555462457197
 22
3.401863202386412
 32
0.0
 13
14.12555462457197
 23
3.401863202386412
 33
0.0
  0
MTEXT
  5
3A4A
330
3A1C
100
AcDbEntity
  8
DIM
 62
     0
100
AcDbMText
 10
13.69149212457196
 20
3.041863202386414
 30
0.0
 40
0.125
 41
0.0
 71
     5
 72
     1
  1
\A1;0.136
  7
TXT
 73
     1
 44
1.0
  0
POINT
  5
3A4B
330
3A1C
100
AcDbEntity
  8
Defpoints
 62
     0
100
AcDbPoint
 10
14.3460632373036
 20
3.537863202386409
 30
0.0
  0
POINT
  5
3A4C
330
3A1C
100
AcDbEntity
  8
Defpoints
 62
     0
100
AcDbPoint
 10
14.3460632373036
 20
3.401863202386412
 30
0.0
  0
POINT
  5
3A4D
330
3A1C
100
AcDbEntity
  8
Defpoints
 62
     0
100
AcDbPoint
 10
14.12555462457197
 20
3.401863202386412
 30
0.0
  0
ENDBLK
  5
3A29
330
3A1C
100
AcDbEntity
  8
0
100
AcDbBlockEnd
  0
BLOCK
  5
3A36
330
3A2B
100
AcDbEntity
  8
0
100
AcDbBlockBegin
  2
*D26
 70
     1
 10
0.0
 20
0.0
 30
0.0
  3
*D26
  1

  0
LINE
  5
3A4E
330
3A2B
100
AcDbEntity
  8
DIM
 62
     0
370
    -2
100
AcDbLine
 10
14.3460632373036
 20
3.088863202386409
 30
0.0
 11
14.3460632373036
 21
2.693872163230427
 31
0.0
  0
LINE
  5
3A4F
330
3A2B
100
AcDbEntity
  8
DIM
 62
     0
370
    -2
100
AcDbLine
 10
14.4720632373036
 20
3.406863202386411
 30
0.0
 11
14.4720632373036
 21
2.693872163230427
 31
0.0
  0
LINE
  5
3A50
330
3A2B
100
AcDbEntity
  8
DIM
 62
     0
370
    -2
100
AcDbLine
 10
14.1660632373036
 20
2.786872163230427
 30
0.0
 11
13.9860632373036
 21
2.786872163230427
 31
0.0
  0
LINE
  5
3A51
330
3A2B
100
AcDbEntity
  8
DIM
 62
     0
370
    -2
100
AcDbLine
 10
14.6520632373036
 20
2.786872163230427
 30
0.0
 11
14.83206323730359
 21
2.786872163230427
 31
0.0
  0
SOLID
  5
3A52
330
3A2B
100
AcDbEntity
  8
DIM
 62
     0
100
AcDbTrace
 10
14.1660632373036
 20
2.816872163230426
 30
0.0
 11
14.1660632373036
 21
2.756872163230427
 31
0.0
 12
14.3460632373036
 22
2.786872163230427
 32
0.0
 13
14.3460632373036
 23
2.786872163230427
 33
0.0
  0
SOLID
  5
3A53
330
3A2B
100
AcDbEntity
  8
DIM
 62
     0
100
AcDbTrace
 10
14.6520632373036
 20
2.816872163230426
 30
0.0
 11
14.6520632373036
 21
2.756872163230427
 31
0.0
 12
14.4720632373036
 22
2.786872163230427
 32
0.0
 13
14.4720632373036
 23
2.786872163230427
 33
0.0
  0
MTEXT
  5
3A54
330
3A2B
100
AcDbEntity
  8
DIM
 62
     0
100
AcDbMText
 10
15.08612573730359
 20
2.786872163230427
 30
0.0
 40
0.125
 41
0.0
 71
     5
 72
     1
  1
\A1;0.126
  7
TXT
 73
     1
 44
1.0
  0
POINT
  5
3A55
330
3A2B
100
AcDbEntity
  8
Defpoints
 62
     0
100
AcDbPoint
 10
14.3460632373036
 20
3.151863202386409
 30
0.0
  0
POINT
  5
3A56
330
3A2B
100
AcDbEntity
  8
Defpoints
 62
     0
100
AcDbPoint
 10
14.4720632373036
 20
3.469863202386411
 30
0.0
  0
POINT
  5
3A57
330
3A2B
100
AcDbEntity
  8
Defpoints
 62
     0
100
AcDbPoint
 10
14.4720632373036
 20
2.786872163230427
 30
0.0
  0
ENDBLK
  5
3A37
330
3A2B
100
AcDbEntity
  8
0
100
AcDbBlockEnd
  0
ENDSEC
  0
SECTION
  2
ENTITIES
  0
INSERT
  5
81
330
1F
100
AcDbEntity
  8
TITLE
100
AcDbBlockReference
  2
Hbs
 10
0.0
 20
0.0
 30
0.0
  0
DIMENSION
  5
2640
330
1F
100
AcDbEntity
  8
DIM
100
AcDbDimension
  2
*D2
 10
12.65983816936996
 20
3.401863202386412
 30
0.0
 11
12.65983816936996
 21
4.01786320238641
 31
0.0
 70
    32
 71
     5
 42
1.231999999999992
  3
23NSTD
100
AcDbAlignedDimension
 13
12.16926839674718
 23
4.633863202386404
 33
0.0
 14
12.16926839674718
 24
3.401863202386412
 34
0.0
 50
90.0
100
AcDbRotatedDimension
  0
DIMENSION
  5
2678
330
1F
100
AcDbEntity
  8
DIM
100
AcDbDimension
  2
*D3
 10
12.65983816936996
 20
1.490277725535704
 30
0.0
 11
12.65983816936996
 21
1.883777725535706
 31
0.0
 70
    32
 71
     5
 42
0.7870000000000008
  3
23NSTD
100
AcDbAlignedDimension
 13
12.33226839674717
 23
2.277277725535705
 33
0.0
 14
11.99553126064867
 24
1.490277725535704
 34
0.0
 50
90.0
100
AcDbRotatedDimension
  0
DIMENSION
  5
2686
330
1F
100
AcDbEntity
  8
DIM
100
AcDbDimension
  2
*D4
 10
10.84182286478071
 20
2.277277725535705
 30
0.0
 11
10.84182286478071
 21
1.919309033901943
 31
0.0
 70
    32
 71
     5
 42
0.7159373832675258
  3
23NSTD
100
AcDbAlignedDimension
 13
10.90481528876361
 23
1.561340342268179
 33
0.0
 14
10.90482286478071
 24
2.277277725535705
 34
0.0
 50
90.0
100
AcDbRotatedDimension
  0
DIMENSION
  5
26A9
330
1F
100
AcDbEntity
  8
DIM
100
AcDbDimension
  2
*D5
 10
11.92026839674718
 20
4.470628735736674
 30
0.0
 11
10.59226839674717
 21
4.470628735736674
 31
0.0
 70
   160
 71
     5
 42
2.655999999999998
  3
23NSTD
100
AcDbAlignedDimension
 13
9.26426839674718
 23
4.633863202386406
 33
0.0
 14
11.92026839674718
 24
4.633863202386404
 34
0.0
100
AcDbRotatedDimension
  0
DIMENSION
  5
26B7
330
1F
100
AcDbEntity
  8
DIM
100
AcDbDimension
  2
*D6
 10
11.35522832011997
 20
3.242863202386409
 30
0.0
 11
11.35522832011997
 21
4.01786320238641
 31
0.0
 70
    32
 71
     5
 42
1.549999999999998
  3
23NSTD
100
AcDbAlignedDimension
 13
11.75921678384395
 23
4.792863202386408
 33
0.0
 14
11.75921678384395
 24
3.242863202386409
 34
0.0
 50
90.0
100
AcDbRotatedDimension
  0
DIMENSION
  5
26C6
330
1F
100
AcDbEntity
  8
DIM
100
AcDbDimension
  2
*D7
 10
11.75921678384395
 20
3.505490808348703
 30
0.0
 11
10.59226839674717
 21
3.505490808348703
 31
0.0
 70
   160
 71
     5
 42
2.333896774193544
  3
23NSTD
100
AcDbAlignedDimension
 13
9.425320009650405
 23
3.242863202386409
 33
0.0
 14
11.75921678384395
 24
3.242863202386409
 34
0.0
100
AcDbRotatedDimension
  0
DIMENSION
  5
274D
330
1F
100
AcDbEntity
  8
DIM
100
AcDbDimension
  2
*D8
 10
5.384039627907274
 20
2.583594956825578
 30
0.0
 11
5.825914627907272
 21
2.943594956825579
 31
0.0
 70
    32
 71
     5
 42
0.0620000000000003
  3
23NSTD
100
AcDbAlignedDimension
 13
5.067983165585918
 23
2.521594956825578
 33
0.0
 14
5.00598316558592
 24
2.583594956825578
 34
0.0
 50
90.0
100
AcDbRotatedDimension
  0
TEXT
  5
28FD
330
1F
100
AcDbEntity
  8
TEXT
100
AcDbText
 10
2.950500000000001
 20
9.310999999999999
 30
0.0
 40
0.156
  1
UTILIBOX (STYLE K)
 41
0.75
  7
TXT
 72
     4
 11
3.906000000000001
 21
9.388999999999999
 31
0.0
100
AcDbText
  0
TEXT
  5
28FE
330
1F
100
AcDbEntity
  8
TEXT
100
AcDbText
 10
10.535495566525
 20
9.310999999999999
 30
0.0
 40
0.156
  1
CU-1952
 41
0.75
  7
TXT
 72
     4
 11
10.905995566525
 21
9.388999999999999
 31
0.0
100
AcDbText
  0
DIMENSION
  5
2A39
330
1F
100
AcDbEntity
  8
DIM
100
AcDbDimension
  2
*D9
 10
9.191380853850017
 20
1.490277725535704
 30
0.0
 11
8.29885483819168
 21
1.049582999288073
 31
0.0
 70
    34
  1
<> TYP.
 71
     5
 42
0.0204704021170947
  3
23NSTD
100
AcDb2LineAngularDimension
 13
9.175268396747174
 23
2.277277725535704
 33
0.0
 14
9.175268396747174
 24
2.255148392656048
 34
0.0
 15
9.175268396747174
 25
2.277277725535704
 35
0.0
 16
9.19271387459692
 26
0.9990130342917392
 36
0.0
  0
TEXT
  5
2A8B
330
1F
100
AcDbEntity
  8
TEXT
100
AcDbText
 10
0.7473826756854223
 20
8.655448642401609
 30
0.0
 40
0.125
  1
MATERIAL: HIGH-IMPACT ABS
 41
0.75
  7
TXT
100
AcDbText
  0
TEXT
  5
2A8C
330
1F
100
AcDbEntity
  8
TEXT
100
AcDbText
 10
0.7473826756854223
 20
8.238781975734941
 30
0.0
 40
0.125
  1
FINISH: BLACK TEXTURED
 41
0.75
  7
TXT
100
AcDbText
  0
TEXT
  5
2A8D
330
1F
100
AcDbEntity
  8
TEXT
100
AcDbText
 10
0.7473826756854223
 20
8.238781975734941
 30
0.0
 40
0.125
  1
 
 41
0.75
  7
TXT
100
AcDbText
  0
TEXT
  5
2A8E
330
1F
100
AcDbEntity
  8
TEXT
100
AcDbText
 10
0.7473826756854223
 20
7.822115309068273
 30
0.0
 40
0.125
  1
ALL DIMENSIONS HAVE %%p0.015 TOLERANCE.
 41
0.75
  7
TXT
100
AcDbText
  0
TEXT
  5
2A90
330
1F
100
AcDbEntity
  8
TEXT
100
AcDbText
 10
0.7473826756854223
 20
8.655448642401609
 30
0.0
 40
0.125
  1
 
 41
0.75
  7
TXT
100
AcDbText
  0
TEXT
  5
2A91
330
1F
100
AcDbEntity
  8
TEXT
100
AcDbText
 10
1.577488541009245
 20
8.447115309068275
 30
0.0
 40
0.125
  1
(FLAMMABILITY RATING OF UL94-HB)
 41
0.75
  7
TXT
100
AcDbText
  0
TEXT
  5
2C6A
330
1F
100
AcDbEntity
  8
TEXT
100
AcDbText
 10
3.033533165585919
 20
0.1953455775071513
 30
0.0
 40
0.156
  1
%%uCOVER
 41
0.75
  7
TXT
 72
     4
 11
3.327983165585919
 21
0.2577455775071513
 31
0.0
100
AcDbText
  0
TEXT
  5
2C6C
330
1F
100
AcDbEntity
  8
TEXT
100
AcDbText
 10
10.37581839674718
 20
0.9272255477758061
 30
0.0
 40
0.156
  1
%%uBODY
 41
0.75
  7
TXT
 72
     4
 11
10.59226839674717
 21
0.9896255477758062
 31
0.0
100
AcDbText
  0
TEXT
  5
2EFB
330
1F
100
AcDbEntity
  8
TEXT
100
AcDbText
 10
0.7473826756854223
 20
7.822115309068273
 30
0.0
 40
0.125
  1
 
 41
0.75
  7
TXT
100
AcDbText
  0
TEXT
  5
2EFC
330
1F
100
AcDbEntity
  8
TEXT
100
AcDbText
 10
0.7473826756854223
 20
7.61378197573494
 30
0.0
 40
0.125
  1
 
 41
0.75
  7
TXT
100
AcDbText
  0
TEXT
  5
2EFD
330
1F
100
AcDbEntity
  8
TEXT
100
AcDbText
 10
0.7473826756854223
 20
7.405448642401607
 30
0.0
 40
0.125
  1
 
 41
0.75
  7
TXT
100
AcDbText
  0
TEXT
  5
2EFE
330
1F
100
AcDbEntity
  8
TEXT
100
AcDbText
 10
0.7473826756854223
 20
7.197115309068274
 30
0.0
 40
0.125
  1
BOX FEATURES PRESS-FIT COVER AND
 41
0.75
  7
TXT
100
AcDbText
  0
TEXT
  5
2EFF
330
1F
100
AcDbEntity
  8
TEXT
100
AcDbText
 10
0.7473826756854223
 20
6.988781975734941
 30
0.0
 40
0.125
  1
THREE MOLDED-IN PROTRUDING WIRE/CABLE ENTRY POINTS.
 41
0.75
  7
TXT
100
AcDbText
  0
LINE
  5
3227
330
1F
100
AcDbEntity
  8
OBJECT
100
AcDbLine
 10
11.92026839674718
 20
4.633863202386404
 30
0.0
 11
12.16926839674718
 21
4.633863202386404
 31
0.0
  0
LINE
  5
3228
330
1F
100
AcDbEntity
  8
OBJECT
100
AcDbLine
 10
11.92026839674718
 20
4.497863202386403
 30
0.0
 11
12.16926839674718
 21
4.497863202386403
 31
0.0
  0
ARC
  5
3229
330
1F
100
AcDbEntity
  8
OBJECT
100
AcDbCircle
 10
11.94726839674718
 20
3.213863202386409
 30
0.0
 40
0.0620000000000003
100
AcDbArc
 50
270.0000000000008
 51
0.0
  0
ARC
  5
322A
330
1F
100
AcDbEntity
  8
OBJECT
100
AcDbCircle
 10
11.94726839674718
 20
4.821863202386408
 30
0.0
 40
0.0620000000000003
100
AcDbArc
 50
0.0
 51
90.0
  0
LINE
  5
322B
330
1F
100
AcDbEntity
  8
OBJECT
100
AcDbLine
 10
11.92026839674718
 20
3.401863202386412
 30
0.0
 11
12.16926839674718
 21
3.401863202386412
 31
0.0
  0
LINE
  5
322C
330
1F
100
AcDbEntity
  8
OBJECT
100
AcDbLine
 10
11.92026839674718
 20
3.537863202386413
 30
0.0
 11
12.16926839674718
 21
3.537863202386413
 31
0.0
  0
LINE
  5
322D
330
1F
100
AcDbEntity
  8
OBJECT
100
AcDbLine
 10
9.189005532845687
 20
1.490277725535704
 30
0.0
 11
11.99553126064867
 21
1.490277725535704
 31
0.0
  0
LINE
  5
322E
330
1F
100
AcDbEntity
  8
OBJECT
100
AcDbLine
 10
12.33226839674717
 20
2.277277725535705
 30
0.0
 11
8.852268396747181
 21
2.277277725535704
 31
0.0
  0
LWPOLYLINE
  5
322F
330
1F
100
AcDbEntity
  8
OBJECT
100
AcDbPolyline
 90
       33
 70
     1
 43
0.0
 10
4.904983165585921
 20
1.972389020542436
 10
4.904983165585921
 20
1.708389020542437
 10
4.744983165585917
 20
1.708389020542437
 10
4.744983165585917
 20
1.51938902054244
 42
0.4142135623730951
 10
4.806983165585918
 20
1.457389020542439
 10
4.902983165585919
 20
1.457389020542439
 42
-0.9999999999999998
 10
4.902983165585919
 20
1.127389020542441
 10
4.806983165585918
 20
1.127389020542439
 42
0.4142135623730992
 10
4.744983165585917
 20
1.065389020542436
 10
4.744983165585921
 20
0.8763890205424438
 10
4.904983165585921
 20
0.8763890205424438
 10
4.904983165585921
 20
0.6123890205424445
 10
4.744983165585921
 20
0.6123890205424445
 10
4.744983165585921
 20
0.4883890205424404
 42
-0.4142135623730951
 10
4.68298316558592
 20
0.426389020542441
 10
1.972983165585919
 20
0.426389020542441
 42
-0.4142135623730866
 10
1.910983165585918
 20
0.4883890205424404
 10
1.910983165585919
 20
1.06538902054244
 42
0.4142135623730951
 10
1.84898316558592
 20
1.127389020542439
 10
1.75298316558592
 20
1.127389020542439
 42
-0.9999999999999998
 10
1.75298316558592
 20
1.457389020542441
 10
1.84898316558592
 20
1.457389020542439
 42
0.4142135623730909
 10
1.910983165585921
 20
1.51938902054244
 10
1.910983165585919
 20
1.532389020542437
 10
1.910983165585919
 20
1.648389020542436
 10
1.750983165585919
 20
1.648389020542436
 10
1.750983165585919
 20
1.948389020542437
 10
1.910983165585919
 20
1.948389020542437
 10
1.910983165585919
 20
2.096389020542439
 42
-0.4142135623730951
 10
1.972983165585919
 20
2.158389020542439
 10
4.68298316558592
 20
2.158389020542439
 42
-0.4142135623730909
 10
4.744983165585917
 20
2.096389020542439
 10
4.744983165585921
 20
1.972389020542436
  0
ARC
  5
3230
330
1F
100
AcDbEntity
  8
OBJECT
100
AcDbCircle
 10
4.68298316558592
 20
2.521594956825579
 30
0.0
 40
0.062
100
AcDbArc
 50
0.0
 51
90.0
  0
LINE
  5
3231
330
1F
100
AcDbEntity
  8
OBJECT
100
AcDbLine
 10
5.00598316558592
 20
2.583594956825578
 30
0.0
 11
1.649983165585918
 21
2.583594956825577
 31
0.0
  0
LINE
  5
3232
330
1F
100
AcDbEntity
  8
OBJECT
100
AcDbLine
 10
5.067983165585918
 20
2.521594956825578
 30
0.0
 11
1.587983165585919
 21
2.521594956825578
 31
0.0
  0
LWPOLYLINE
  5
3233
330
1F
100
AcDbEntity
  8
OBJECT
100
AcDbPolyline
 90
       33
 70
     1
 43
0.0
 10
4.904983165585921
 20
3.337863202386412
 10
4.904983165585921
 20
3.601863202386411
 10
4.744983165585917
 20
3.601863202386411
 10
4.744983165585917
 20
3.790863202386407
 42
-0.4142135623730951
 10
4.806983165585918
 20
3.852863202386409
 10
4.902983165585919
 20
3.852863202386409
 42
0.9999999999999998
 10
4.902983165585919
 20
4.182863202386407
 10
4.806983165585918
 20
4.182863202386409
 42
-0.4142135623730992
 10
4.744983165585917
 20
4.244863202386412
 10
4.744983165585921
 20
4.433863202386405
 10
4.904983165585921
 20
4.433863202386405
 10
4.904983165585921
 20
4.697863202386404
 10
4.744983165585921
 20
4.697863202386404
 10
4.744983165585921
 20
4.821863202386408
 42
0.4142135623730951
 10
4.68298316558592
 20
4.883863202386407
 10
1.972983165585919
 20
4.883863202386407
 42
0.4142135623730866
 10
1.910983165585918
 20
4.821863202386408
 10
1.910983165585919
 20
4.244863202386408
 42
-0.4142135623730951
 10
1.84898316558592
 20
4.182863202386409
 10
1.75298316558592
 20
4.182863202386409
 42
0.9999999999999998
 10
1.75298316558592
 20
3.852863202386407
 10
1.84898316558592
 20
3.852863202386409
 42
-0.4142135623730909
 10
1.910983165585921
 20
3.790863202386407
 10
1.910983165585919
 20
3.777863202386411
 10
1.910983165585919
 20
3.661863202386411
 10
1.750983165585919
 20
3.661863202386411
 10
1.750983165585919
 20
3.361863202386411
 10
1.910983165585919
 20
3.361863202386411
 10
1.910983165585919
 20
3.213863202386409
 42
0.4142135623730951
 10
1.972983165585919
 20
3.151863202386409
 10
4.68298316558592
 20
3.151863202386409
 42
0.4142135623730909
 10
4.744983165585917
 20
3.213863202386409
 10
4.744983165585921
 20
3.337863202386412
  0
CIRCLE
  5
3234
330
1F
100
AcDbEntity
  8
OBJECT
100
AcDbCircle
 10
1.75298316558592
 20
1.29238902054244
 30
0.0
 40
0.065
  0
LWPOLYLINE
  5
3235
330
1F
100
AcDbEntity
  8
OBJECT
100
AcDbPolyline
 90
        4
 70
     1
 43
0.0
 10
2.010983165585919
 20
1.528389020542441
 42
0.9999999999999998
 10
1.952983165585919
 20
1.528389020542441
 10
1.952983165585919
 20
1.056389020542439
 42
0.9999999999999998
 10
2.010983165585919
 20
1.056389020542439
  0
CIRCLE
  5
3236
330
1F
100
AcDbEntity
  8
OBJECT
100
AcDbCircle
 10
2.010983165585919
 20
0.5263890205424407
 30
0.0
 40
0.04
  0
CIRCLE
  5
3237
330
1F
100
AcDbEntity
  8
OBJECT
100
AcDbCircle
 10
2.010983165585919
 20
2.058389020542438
 30
0.0
 40
0.04
  0
LWPOLYLINE
  5
3238
330
1F
100
AcDbEntity
  8
OBJECT
100
AcDbPolyline
 90
        5
 70
     0
 43
0.0
 10
2.05098316558592
 20
2.521594956825579
 10
2.05098316558592
 20
2.374312924522824
 10
2.010983165585919
 20
2.363594956825578
 10
1.97098316558592
 20
2.374312924522824
 10
1.97098316558592
 20
2.521594956825579
  0
LINE
  5
3239
330
1F
100
AcDbEntity
  8
OBJECT
100
AcDbLine
 10
1.97098316558592
 20
2.374312924522824
 30
0.0
 11
2.05098316558592
 21
2.374312924522824
 31
0.0
  0
LWPOLYLINE
  5
323A
330
1F
100
AcDbEntity
  8
OBJECT
100
AcDbPolyline
 90
        3
 70
     0
 43
0.0
 10
1.78198316558592
 20
2.583594956825578
 42
0.4142135623730943
 10
1.750983165585919
 20
2.552594956825577
 10
1.750983165585919
 20
2.521594956825579
  0
ARC
  5
323B
330
1F
100
AcDbEntity
  8
OBJECT
100
AcDbCircle
 10
1.649983165585918
 20
2.521594956825577
 30
0.0
 40
0.062
100
AcDbArc
 50
90.0
 51
180.0
  0
LINE
  5
323C
330
1F
100
AcDbEntity
  8
OBJECT
100
AcDbLine
 10
1.587983165585919
 20
2.521594956825577
 30
0.0
 11
1.587983165585919
 21
2.521594956825578
 31
0.0
  0
ARC
  5
323D
330
1F
100
AcDbEntity
  8
OBJECT
100
AcDbCircle
 10
1.972983165585919
 20
2.521594956825578
 30
0.0
 40
0.062
100
AcDbArc
 50
90.0
 51
180.0
  0
LINE
  5
323E
330
1F
100
AcDbEntity
  8
OBJECT
100
AcDbLine
 10
1.910983165585919
 20
2.521594956825578
 30
0.0
 11
1.910983165585919
 21
2.521594956825579
 31
0.0
  0
LWPOLYLINE
  5
323F
330
1F
100
AcDbEntity
  8
OBJECT
100
AcDbPolyline
 90
        4
 70
     1
 43
0.0
 10
4.644983165585919
 20
1.528389020542441
 42
-0.9999999999999998
 10
4.702983165585919
 20
1.528389020542441
 10
4.702983165585919
 20
1.056389020542439
 42
-0.9999999999999998
 10
4.644983165585919
 20
1.056389020542439
  0
LINE
  5
3240
330
1F
100
AcDbEntity
  8
CENTER
100
AcDbLine
 10
3.327983165585919
 20
1.38238902054244
 30
0.0
 11
3.327983165585919
 21
1.20238902054244
 31
0.0
  0
LWPOLYLINE
  5
3241
330
1F
100
AcDbEntity
  8
OBJECT
100
AcDbPolyline
 90
        4
 70
     1
 43
0.0
 10
2.309983165585919
 20
0.4673890205424414
 42
-0.9999999999999998
 10
2.309983165585919
 20
0.5253890205424412
 10
4.34598316558592
 20
0.5253890205424412
 42
-0.9999999999999998
 10
4.34598316558592
 20
0.4673890205424414
  0
LINE
  5
3242
330
1F
100
AcDbEntity
  8
CENTER
100
AcDbLine
 10
3.237983165585919
 20
1.29238902054244
 30
0.0
 11
3.417983165585919
 21
1.29238902054244
 31
0.0
  0
CIRCLE
  5
3243
330
1F
100
AcDbEntity
  8
OBJECT
100
AcDbCircle
 10
4.644983165585919
 20
0.5263890205424407
 30
0.0
 40
0.04
  0
LWPOLYLINE
  5
3244
330
1F
100
AcDbEntity
  8
OBJECT
100
AcDbPolyline
 90
        4
 70
     1
 43
0.0
 10
2.309983165585919
 20
2.117389020542439
 42
0.9999999999999998
 10
2.309983165585919
 20
2.05938902054244
 10
4.34598316558592
 20
2.05938902054244
 42
0.9999999999999998
 10
4.34598316558592
 20
2.117389020542439
  0
LWPOLYLINE
  5
3245
330
1F
100
AcDbEntity
  8
OBJECT
100
AcDbPolyline
 90
        4
 70
     0
 43
0.0
 10
4.37498316558592
 20
2.521594956825578
 10
4.37498316558592
 20
2.501594956825578
 10
2.280983165585919
 20
2.501594956825577
 10
2.280983165585919
 20
2.521594956825577
  0
CIRCLE
  5
3246
330
1F
100
AcDbEntity
  8
OBJECT
100
AcDbCircle
 10
4.644983165585919
 20
2.058389020542438
 30
0.0
 40
0.04
  0
LWPOLYLINE
  5
3247
330
1F
100
AcDbEntity
  8
OBJECT
100
AcDbPolyline
 90
        5
 70
     0
 43
0.0
 10
4.60498316558592
 20
2.521594956825579
 10
4.60498316558592
 20
2.374312924522825
 10
4.644983165585919
 20
2.363594956825579
 10
4.684983165585922
 20
2.374312924522825
 10
4.684983165585922
 20
2.521594956825579
  0
LINE
  5
3248
330
1F
100
AcDbEntity
  8
OBJECT
100
AcDbLine
 10
4.684983165585922
 20
2.374312924522825
 30
0.0
 11
4.60498316558592
 21
2.374312924522825
 31
0.0
  0
LWPOLYLINE
  5
3249
330
1F
100
AcDbEntity
  8
HIDDEN
100
AcDbPolyline
 90
        4
 70
     1
 43
0.0
 10
2.010983165585919
 20
3.781863202386407
 42
-0.9999999999999998
 10
1.952983165585919
 20
3.781863202386407
 10
1.952983165585919
 20
4.253863202386408
 42
-0.9999999999999998
 10
2.010983165585919
 20
4.253863202386408
  0
CIRCLE
  5
324A
330
1F
100
AcDbEntity
  8
HIDDEN
100
AcDbCircle
 10
2.010983165585919
 20
3.25186320238641
 30
0.0
 40
0.04
  0
CIRCLE
  5
324B
330
1F
100
AcDbEntity
  8
OBJECT
100
AcDbCircle
 10
1.75298316558592
 20
4.017863202386408
 30
0.0
 40
0.065
  0
CIRCLE
  5
324C
330
1F
100
AcDbEntity
  8
HIDDEN
100
AcDbCircle
 10
2.010983165585919
 20
4.783863202386408
 30
0.0
 40
0.04
  0
LWPOLYLINE
  5
324D
330
1F
100
AcDbEntity
  8
HIDDEN
100
AcDbPolyline
 90
        4
 70
     1
 43
0.0
 10
2.309983165585919
 20
3.192863202386408
 42
-0.9999999999999998
 10
2.309983165585919
 20
3.250863202386408
 10
4.34598316558592
 20
3.250863202386408
 42
-0.9999999999999998
 10
4.34598316558592
 20
3.192863202386408
  0
LINE
  5
324E
330
1F
100
AcDbEntity
  8
CENTER
100
AcDbLine
 10
3.237983165585919
 20
4.017863202386408
 30
0.0
 11
3.417983165585919
 21
4.017863202386408
 31
0.0
  0
LINE
  5
324F
330
1F
100
AcDbEntity
  8
CENTER
100
AcDbLine
 10
3.327983165585919
 20
3.927863202386408
 30
0.0
 11
3.327983165585919
 21
4.107863202386408
 31
0.0
  0
LWPOLYLINE
  5
3250
330
1F
100
AcDbEntity
  8
HIDDEN
100
AcDbPolyline
 90
        4
 70
     1
 43
0.0
 10
4.644983165585919
 20
3.781863202386407
 42
0.9999999999999998
 10
4.702983165585919
 20
3.781863202386407
 10
4.702983165585919
 20
4.253863202386408
 42
0.9999999999999998
 10
4.644983165585919
 20
4.253863202386408
  0
CIRCLE
  5
3251
330
1F
100
AcDbEntity
  8
HIDDEN
100
AcDbCircle
 10
4.644983165585919
 20
3.25186320238641
 30
0.0
 40
0.04
  0
LWPOLYLINE
  5
3252
330
1F
100
AcDbEntity
  8
HIDDEN
100
AcDbPolyline
 90
        4
 70
     1
 43
0.0
 10
2.309983165585919
 20
4.842863202386407
 42
0.9999999999999998
 10
2.309983165585919
 20
4.784863202386407
 10
4.34598316558592
 20
4.784863202386407
 42
0.9999999999999998
 10
4.34598316558592
 20
4.842863202386407
  0
CIRCLE
  5
3253
330
1F
100
AcDbEntity
  8
HIDDEN
100
AcDbCircle
 10
4.644983165585919
 20
4.783863202386408
 30
0.0
 40
0.04
  0
LINE
  5
3254
330
1F
100
AcDbEntity
  8
HIDDEN
100
AcDbLine
 10
11.96926839674717
 20
2.237277725535703
 30
0.0
 11
9.215268396747177
 21
2.237277725535703
 31
0.0
  0
LINE
  5
3255
330
1F
100
AcDbEntity
  8
HIDDEN
100
AcDbLine
 10
9.276068020638653
 20
1.561277725535703
 30
0.0
 11
11.90847053934279
 21
1.561378927513142
 31
0.0
  0
CIRCLE
  5
3256
330
1F
100
AcDbEntity
  8
OBJECT
100
AcDbCircle
 10
4.902983165585919
 20
1.29238902054244
 30
0.0
 40
0.065
  0
ARC
  5
3257
330
1F
100
AcDbEntity
  8
OBJECT
100
AcDbCircle
 10
5.00598316558592
 20
2.521594956825578
 30
0.0
 40
0.062
100
AcDbArc
 50
0.0
 51
90.0
  0
LWPOLYLINE
  5
3258
330
1F
100
AcDbEntity
  8
OBJECT
100
AcDbPolyline
 90
        3
 70
     0
 43
0.0
 10
4.873983165585922
 20
2.583594956825579
 42
-0.4142135623730943
 10
4.904983165585921
 20
2.552594956825578
 10
4.904983165585921
 20
2.521594956825579
  0
LINE
  5
3259
330
1F
100
AcDbEntity
  8
OBJECT
100
AcDbLine
 10
4.744983165585921
 20
2.521594956825579
 30
0.0
 11
4.744983165585921
 21
2.521594956825579
 31
0.0
  0
LINE
  5
325A
330
1F
100
AcDbEntity
  8
OBJECT
100
AcDbLine
 10
5.067983165585918
 20
2.521594956825578
 30
0.0
 11
5.067983165585918
 21
2.521594956825579
 31
0.0
  0
LWPOLYLINE
  5
325B
330
1F
100
AcDbEntity
  8
HIDDEN
100
AcDbPolyline
 90
        4
 70
     0
 43
0.0
 10
9.315268396747178
 20
2.237277725535704
 10
9.315268396747178
 20
2.067277725535705
 10
9.23526839674718
 20
2.067277725535705
 10
9.23526839674718
 20
2.237277725535704
  0
LINE
  5
325C
330
1F
100
AcDbEntity
  8
HIDDEN
100
AcDbLine
 10
9.26426839674718
 20
2.237277725535704
 30
0.0
 11
9.276068020638653
 21
1.561277725535703
 31
0.0
  0
LINE
  5
325D
330
1F
100
AcDbEntity
  8
OBJECT
100
AcDbLine
 10
9.015268396747178
 20
2.128277725535704
 30
0.0
 11
9.015268396747178
 21
2.277277725535704
 31
0.0
  0
LINE
  5
325E
330
1F
100
AcDbEntity
  8
OBJECT
100
AcDbLine
 10
9.175268396747178
 20
2.277277725535704
 30
0.0
 11
9.189005532845687
 21
1.490277725535704
 31
0.0
  0
ARC
  5
325F
330
1F
100
AcDbEntity
  8
OBJECT
100
AcDbCircle
 10
9.04626839674718
 20
2.128277725535704
 30
0.0
 40
0.031
100
AcDbArc
 50
180.0
 51
269.9999999999997
  0
LINE
  5
3260
330
1F
100
AcDbEntity
  8
OBJECT
100
AcDbLine
 10
9.175268396747178
 20
2.097277725535704
 30
0.0
 11
9.04626839674718
 21
2.097277725535704
 31
0.0
  0
ARC
  5
3261
330
1F
100
AcDbEntity
  8
OBJECT
100
AcDbCircle
 10
8.914268396747178
 20
2.277277725535705
 30
0.0
 40
0.062
100
AcDbArc
 50
180.0
 51
270.0
  0
LINE
  5
3262
330
1F
100
AcDbEntity
  8
OBJECT
100
AcDbLine
 10
8.852268396747181
 20
2.277277725535705
 30
0.0
 11
8.852268396747181
 21
2.277277725535704
 31
0.0
  0
LINE
  5
3263
330
1F
100
AcDbEntity
  8
OBJECT
100
AcDbLine
 10
9.015268396747178
 20
2.215277725535704
 30
0.0
 11
8.914268396747178
 21
2.215277725535704
 31
0.0
  0
LINE
  5
3264
330
1F
100
AcDbEntity
  8
HIDDEN
100
AcDbLine
 10
9.215268396747177
 20
2.277277725535704
 30
0.0
 11
9.215268396747177
 21
2.237277725535703
 31
0.0
  0
LINE
  5
3265
330
1F
100
AcDbEntity
  8
HIDDEN
100
AcDbLine
 10
9.425320009650405
 20
2.237277725535704
 30
0.0
 11
9.425320009650405
 21
1.561277725535704
 31
0.0
  0
LWPOLYLINE
  5
3266
330
1F
100
AcDbEntity
  8
HIDDEN
100
AcDbPolyline
 90
        4
 70
     0
 43
0.0
 10
11.86926839674717
 20
2.237277725535704
 10
11.86926839674717
 20
2.067277725535705
 10
11.94926839674717
 20
2.067277725535705
 10
11.94926839674717
 20
2.237277725535704
  0
LINE
  5
3267
330
1F
100
AcDbEntity
  8
HIDDEN
100
AcDbLine
 10
11.75921678384395
 20
2.237277725535704
 30
0.0
 11
11.75921678384395
 21
1.561277725535704
 31
0.0
  0
LINE
  5
3268
330
1F
100
AcDbEntity
  8
HIDDEN
100
AcDbLine
 10
11.90847053934279
 20
1.561378927513142
 30
0.0
 11
11.92026839674718
 21
2.237277725535704
 31
0.0
  0
LINE
  5
3269
330
1F
100
AcDbEntity
  8
HIDDEN
100
AcDbLine
 10
11.96926839674717
 20
2.277277725535704
 30
0.0
 11
11.96926839674717
 21
2.237277725535703
 31
0.0
  0
LINE
  5
326A
330
1F
100
AcDbEntity
  8
OBJECT
100
AcDbLine
 10
9.237268396747179
 20
3.151863202386409
 30
0.0
 11
11.94726839674718
 21
3.151863202386409
 31
0.0
  0
LINE
  5
326B
330
1F
100
AcDbEntity
  8
OBJECT
100
AcDbLine
 10
11.94726839674718
 20
4.883863202386407
 30
0.0
 11
9.237268396747179
 21
4.883863202386407
 31
0.0
  0
LINE
  5
326C
330
1F
100
AcDbEntity
  8
OBJECT
100
AcDbLine
 10
9.425320009650405
 20
3.242863202386409
 30
0.0
 11
9.26426839674718
 21
3.401863202386412
 31
0.0
  0
LINE
  5
326D
330
1F
100
AcDbEntity
  8
OBJECT
100
AcDbLine
 10
9.425320009650405
 20
4.792863202386408
 30
0.0
 11
9.26426839674718
 21
4.633863202386406
 31
0.0
  0
LINE
  5
326E
330
1F
100
AcDbEntity
  8
OBJECT
100
AcDbLine
 10
9.21526839674718
 20
3.191863202386409
 30
0.0
 11
11.96926839674717
 21
3.191863202386409
 31
0.0
  0
LINE
  5
326F
330
1F
100
AcDbEntity
  8
OBJECT
100
AcDbLine
 10
11.96926839674717
 20
4.843863202386408
 30
0.0
 11
9.21526839674718
 21
4.843863202386408
 31
0.0
  0
LINE
  5
3270
330
1F
100
AcDbEntity
  8
OBJECT
100
AcDbLine
 10
5.968883804421551
 20
4.883863202386411
 30
0.0
 11
5.968883804421551
 21
3.15186320238641
 31
0.0
  0
LINE
  5
3271
330
1F
100
AcDbEntity
  8
OBJECT
100
AcDbLine
 10
5.90688380442155
 20
4.82186320238641
 30
0.0
 11
5.90688380442155
 21
3.213863202386407
 31
0.0
  0
LINE
  5
3272
330
1F
100
AcDbEntity
  8
OBJECT
100
AcDbLine
 10
7.850154555446199
 20
4.883863202386407
 30
0.0
 11
7.850154555446195
 21
3.537863202386409
 31
0.0
  0
LINE
  5
3273
330
1F
100
AcDbEntity
  8
HIDDEN
100
AcDbLine
 10
7.134255757423634
 20
3.254661059790796
 30
0.0
 11
7.134154555446198
 21
4.781063578494933
 31
0.0
  0
LINE
  5
3274
330
1F
100
AcDbEntity
  8
HIDDEN
100
AcDbLine
 10
7.810154555446196
 20
4.843863202386408
 30
0.0
 11
7.810154555446196
 21
3.611863202386413
 31
0.0
  0
LINE
  5
3275
330
1F
100
AcDbEntity
  8
OBJECT
100
AcDbLine
 10
7.063154555446196
 20
3.165600338484916
 30
0.0
 11
7.063154555446196
 21
4.8701260662879
 31
0.0
  0
LINE
  5
3276
330
1F
100
AcDbEntity
  8
OBJECT
100
AcDbLine
 10
9.175268396747178
 20
4.821863202386408
 30
0.0
 11
9.175268396747178
 21
4.244863202386408
 31
0.0
  0
LINE
  5
3277
330
1F
100
AcDbEntity
  8
OBJECT
100
AcDbLine
 10
9.26426839674718
 20
3.401863202386412
 30
0.0
 11
9.26426839674718
 21
4.633863202386406
 31
0.0
  0
LINE
  5
3278
330
1F
100
AcDbEntity
  8
OBJECT
100
AcDbLine
 10
9.21526839674718
 20
4.843863202386408
 30
0.0
 11
9.21526839674718
 21
3.621863202386412
 31
0.0
  0
LINE
  5
3279
330
1F
100
AcDbEntity
  8
HIDDEN
100
AcDbLine
 10
7.810154555446196
 20
3.242863202386409
 30
0.0
 11
7.134255757423634
 21
3.254661059790796
 31
0.0
  0
LINE
  5
327A
330
1F
100
AcDbEntity
  8
HIDDEN
100
AcDbLine
 10
7.134154555446198
 20
3.401863202386412
 30
0.0
 11
7.738154555446197
 21
3.401863202386412
 31
0.0
  0
LINE
  5
327B
330
1F
100
AcDbEntity
  8
OBJECT
100
AcDbLine
 10
7.850154555446199
 20
3.151863202386409
 30
0.0
 11
7.063154555446196
 21
3.165600338484916
 31
0.0
  0
LWPOLYLINE
  5
327C
330
1F
100
AcDbEntity
  8
OBJECT
100
AcDbPolyline
 90
        4
 70
     0
 43
0.0
 10
5.968883804421551
 20
4.282863202386408
 10
5.988883804421551
 20
4.282863202386408
 10
5.988883804421551
 20
3.752863202386407
 10
5.968883804421551
 20
3.752863202386407
  0
ARC
  5
327D
330
1F
100
AcDbEntity
  8
OBJECT
100
AcDbCircle
 10
5.968883804421551
 20
3.91486320238641
 30
0.0
 40
0.062
100
AcDbArc
 50
180.0
 51
270.0
  0
LWPOLYLINE
  5
327E
330
1F
100
AcDbEntity
  8
OBJECT
100
AcDbPolyline
 90
        5
 70
     0
 43
0.0
 10
5.968883804421547
 20
3.291863202386412
 10
6.116165836724306
 20
3.291863202386412
 10
6.126883804421549
 20
3.25186320238641
 10
6.116165836724306
 20
3.211863202386409
 10
5.968883804421547
 20
3.211863202386409
  0
LINE
  5
327F
330
1F
100
AcDbEntity
  8
OBJECT
100
AcDbLine
 10
5.968883804421551
 20
3.15186320238641
 30
0.0
 11
5.968883804421551
 21
3.15186320238641
 31
0.0
  0
ARC
  5
3280
330
1F
100
AcDbEntity
  8
OBJECT
100
AcDbCircle
 10
5.968883804421551
 20
3.213863202386408
 30
0.0
 40
0.062
100
AcDbArc
 50
180.0
 51
270.0
  0
LWPOLYLINE
  5
3281
330
1F
100
AcDbEntity
  8
OBJECT
100
AcDbPolyline
 90
        3
 70
     0
 43
0.0
 10
5.90688380442155
 20
3.368863202386412
 42
0.4142135623731035
 10
5.937883804421549
 20
3.337863202386412
 10
5.968883804421551
 20
3.337863202386412
  0
LWPOLYLINE
  5
3282
330
1F
100
AcDbEntity
  8
OBJECT
100
AcDbPolyline
 90
        3
 70
     0
 43
0.0
 10
5.968883804421551
 20
3.601863202386411
 10
5.937883804421549
 20
3.601863202386411
 42
0.4142135623730951
 10
5.90688380442155
 20
3.57086320238641
  0
LINE
  5
3283
330
1F
100
AcDbEntity
  8
OBJECT
100
AcDbLine
 10
6.116165836724306
 20
3.211863202386409
 30
0.0
 11
6.116165836724306
 21
3.291863202386412
 31
0.0
  0
CIRCLE
  5
3284
330
1F
100
AcDbEntity
  8
OBJECT
100
AcDbCircle
 10
4.902983165585919
 20
4.017863202386408
 30
0.0
 40
0.065
  0
ARC
  5
3285
330
1F
100
AcDbEntity
  8
OBJECT
100
AcDbCircle
 10
5.968883804421551
 20
4.120863202386409
 30
0.0
 40
0.062
100
AcDbArc
 50
90.0
 51
180.0
  0
LWPOLYLINE
  5
3286
330
1F
100
AcDbEntity
  8
OBJECT
100
AcDbPolyline
 90
        3
 70
     0
 43
0.0
 10
5.968883804421551
 20
4.433863202386405
 10
5.937883804421549
 20
4.433863202386405
 42
-0.4142135623730951
 10
5.90688380442155
 20
4.464863202386405
  0
ARC
  5
3287
330
1F
100
AcDbEntity
  8
OBJECT
100
AcDbCircle
 10
7.850154555446199
 20
3.91486320238641
 30
0.0
 40
0.062
100
AcDbArc
 50
180.0
 51
270.0
  0
LWPOLYLINE
  5
3288
330
1F
100
AcDbEntity
  8
OBJECT
100
AcDbPolyline
 90
        7
 70
     0
 43
0.0
 10
9.175268396747178
 20
4.244863202386408
 42
-0.4142135623730951
 10
9.11326839674718
 20
4.182863202386409
 10
9.01726839674718
 20
4.182863202386409
 42
0.9999999999999998
 10
9.01726839674718
 20
3.852863202386407
 10
9.11326839674718
 20
3.852863202386409
 42
-0.4142135623730909
 10
9.175268396747181
 20
3.790863202386407
 10
9.175268396747178
 20
3.777863202386411
  0
LWPOLYLINE
  5
3289
330
1F
100
AcDbEntity
  8
OBJECT
100
AcDbPolyline
 90
        4
 70
     0
 43
0.0
 10
7.850154555446199
 20
3.40186320238641
 10
7.710154555446198
 20
3.40186320238641
 10
7.710154555446198
 20
3.621863202386412
 10
7.850154555446199
 20
3.621863202386412
  0
LWPOLYLINE
  5
328A
330
1F
100
AcDbEntity
  8
OBJECT
100
AcDbPolyline
 90
        6
 70
     0
 43
0.0
 10
7.850154555446199
 20
3.361863202386411
 10
7.701154555446198
 20
3.361863202386412
 42
-0.4142135623730943
 10
7.670154555446199
 20
3.392863202386411
 10
7.670154555446199
 20
3.630863202386411
 42
-0.4142135623730943
 10
7.701154555446198
 20
3.661863202386411
 10
7.850154555446199
 20
3.661863202386411
  0
LWPOLYLINE
  5
328B
330
1F
100
AcDbEntity
  8
OBJECT
100
AcDbPolyline
 90
        4
 70
     0
 43
0.0
 10
7.850154555446195
 20
3.401863202386412
 10
7.792154555446199
 20
3.401863202386412
 42
-1.0
 10
7.792154555446195
 20
3.537863202386411
 10
7.850154555446195
 20
3.537863202386409
  0
LINE
  5
328C
330
1F
100
AcDbEntity
  8
OBJECT
100
AcDbLine
 10
7.850154555446199
 20
3.401863202386412
 30
0.0
 11
7.850154555446199
 21
3.151863202386409
 31
0.0
  0
LINE
  5
328D
330
1F
100
AcDbEntity
  8
HIDDEN
100
AcDbLine
 10
7.810154555446196
 20
3.401863202386412
 30
0.0
 11
7.810154555446196
 21
3.191863202386408
 31
0.0
  0
LINE
  5
328E
330
1F
100
AcDbEntity
  8
HIDDEN
100
AcDbLine
 10
7.850154555446199
 20
3.191863202386408
 30
0.0
 11
7.810154555446196
 21
3.191863202386408
 31
0.0
  0
LINE
  5
328F
330
1F
100
AcDbEntity
  8
OBJECT
100
AcDbLine
 10
9.015268396747178
 20
3.661863202386411
 30
0.0
 11
9.015268396747178
 21
3.361863202386411
 31
0.0
  0
LINE
  5
3290
330
1F
100
AcDbEntity
  8
OBJECT
100
AcDbLine
 10
9.26426839674718
 20
3.401863202386412
 30
0.0
 11
9.015268396747178
 21
3.401863202386412
 31
0.0
  0
LINE
  5
3291
330
1F
100
AcDbEntity
  8
OBJECT
100
AcDbLine
 10
9.175268396747178
 20
3.361863202386411
 30
0.0
 11
9.015268396747178
 21
3.361863202386411
 31
0.0
  0
LINE
  5
3292
330
1F
100
AcDbEntity
  8
OBJECT
100
AcDbLine
 10
9.175268396747178
 20
3.361863202386411
 30
0.0
 11
9.175268396747178
 21
3.213863202386409
 31
0.0
  0
LINE
  5
3293
330
1F
100
AcDbEntity
  8
OBJECT
100
AcDbLine
 10
9.21526839674718
 20
3.401863202386412
 30
0.0
 11
9.21526839674718
 21
3.191863202386409
 31
0.0
  0
ARC
  5
3294
330
1F
100
AcDbEntity
  8
OBJECT
100
AcDbCircle
 10
9.237268396747179
 20
3.213863202386409
 30
0.0
 40
0.0620000000000003
100
AcDbArc
 50
180.0
 51
270.0
  0
CIRCLE
  5
3295
330
1F
100
AcDbEntity
  8
OBJECT
100
AcDbCircle
 10
9.275268396747179
 20
3.25186320238641
 30
0.0
 40
0.04
  0
LINE
  5
3296
330
1F
100
AcDbEntity
  8
OBJECT
100
AcDbLine
 10
9.26426839674718
 20
3.621863202386412
 30
0.0
 11
9.015268396747178
 21
3.621863202386412
 31
0.0
  0
LINE
  5
3297
330
1F
100
AcDbEntity
  8
OBJECT
100
AcDbLine
 10
9.175268396747178
 20
3.661863202386411
 30
0.0
 11
9.015268396747178
 21
3.661863202386411
 31
0.0
  0
LINE
  5
3298
330
1F
100
AcDbEntity
  8
OBJECT
100
AcDbLine
 10
9.175268396747178
 20
3.777863202386411
 30
0.0
 11
9.175268396747178
 21
3.661863202386411
 31
0.0
  0
ARC
  5
3299
330
1F
100
AcDbEntity
  8
OBJECT
100
AcDbCircle
 10
7.850154555446199
 20
4.120863202386409
 30
0.0
 40
0.062
100
AcDbArc
 50
90.0
 51
180.0
  0
LINE
  5
329A
330
1F
100
AcDbEntity
  8
OBJECT
100
AcDbLine
 10
7.788154555446197
 20
3.91486320238641
 30
0.0
 11
7.788154555446197
 21
4.120863202386409
 31
0.0
  0
CIRCLE
  5
329B
330
1F
100
AcDbEntity
  8
OBJECT
100
AcDbCircle
 10
9.01726839674718
 20
4.017863202386408
 30
0.0
 40
0.065
  0
LINE
  5
329C
330
1F
100
AcDbEntity
  8
HIDDEN
100
AcDbLine
 10
7.134154555446198
 20
4.633863202386406
 30
0.0
 11
7.810154555446196
 21
4.633863202386406
 31
0.0
  0
LINE
  5
329D
330
1F
100
AcDbEntity
  8
HIDDEN
100
AcDbLine
 10
7.134154555446198
 20
4.781063578494933
 30
0.0
 11
7.810154555446196
 21
4.792863202386408
 31
0.0
  0
LINE
  5
329E
330
1F
100
AcDbEntity
  8
OBJECT
100
AcDbLine
 10
7.063154555446196
 20
4.8701260662879
 30
0.0
 11
7.850154555446199
 21
4.883863202386407
 31
0.0
  0
LWPOLYLINE
  5
329F
330
1F
100
AcDbEntity
  8
OBJECT
100
AcDbPolyline
 90
        5
 70
     0
 43
0.0
 10
5.968883804421551
 20
4.74386320238641
 10
6.116165836724306
 20
4.743863202386409
 10
6.126883804421549
 20
4.783863202386408
 10
6.116165836724306
 20
4.823863202386407
 10
5.968883804421551
 20
4.823863202386409
  0
LWPOLYLINE
  5
32A0
330
1F
100
AcDbEntity
  8
OBJECT
100
AcDbPolyline
 90
        3
 70
     0
 43
0.0
 10
5.90688380442155
 20
4.666863202386403
 42
-0.4142135623731035
 10
5.937883804421549
 20
4.697863202386404
 10
5.968883804421551
 20
4.697863202386404
  0
LINE
  5
32A1
330
1F
100
AcDbEntity
  8
OBJECT
100
AcDbLine
 10
5.968883804421551
 20
4.883863202386411
 30
0.0
 11
5.968883804421551
 21
4.883863202386411
 31
0.0
  0
ARC
  5
32A2
330
1F
100
AcDbEntity
  8
OBJECT
100
AcDbCircle
 10
5.968883804421551
 20
4.821863202386412
 30
0.0
 40
0.062
100
AcDbArc
 50
90.0
 51
180.0
  0
LINE
  5
32A3
330
1F
100
AcDbEntity
  8
OBJECT
100
AcDbLine
 10
6.116165836724306
 20
4.823863202386407
 30
0.0
 11
6.116165836724306
 21
4.743863202386409
 31
0.0
  0
LINE
  5
32A4
330
1F
100
AcDbEntity
  8
HIDDEN
100
AcDbLine
 10
7.850154555446199
 20
4.843863202386408
 30
0.0
 11
7.810154555446196
 21
4.843863202386408
 31
0.0
  0
CIRCLE
  5
32A5
330
1F
100
AcDbEntity
  8
OBJECT
100
AcDbCircle
 10
9.275268396747179
 20
4.783863202386408
 30
0.0
 40
0.04
  0
ARC
  5
32A6
330
1F
100
AcDbEntity
  8
OBJECT
100
AcDbCircle
 10
9.237268396747179
 20
4.821863202386406
 30
0.0
 40
0.0620000000000012
100
AcDbArc
 50
90.0
 51
179.9999999999983
  0
LINE
  5
32A7
330
1F
100
AcDbEntity
  8
OBJECT
100
AcDbLine
 10
11.92026839674718
 20
3.401863202386412
 30
0.0
 11
11.92026839674718
 21
4.633863202386406
 31
0.0
  0
LINE
  5
32A8
330
1F
100
AcDbEntity
  8
OBJECT
100
AcDbLine
 10
11.75921678384395
 20
3.242863202386409
 30
0.0
 11
9.425320009650405
 21
3.242863202386409
 31
0.0
  0
LINE
  5
32A9
330
1F
100
AcDbEntity
  8
CENTER
100
AcDbLine
 10
10.50226839674718
 20
4.017863202386408
 30
0.0
 11
10.68226839674718
 21
4.017863202386408
 31
0.0
  0
LINE
  5
32AA
330
1F
100
AcDbEntity
  8
CENTER
100
AcDbLine
 10
10.59226839674717
 20
3.927863202386408
 30
0.0
 11
10.59226839674717
 21
4.107863202386408
 31
0.0
  0
LINE
  5
32AB
330
1F
100
AcDbEntity
  8
OBJECT
100
AcDbLine
 10
11.96926839674717
 20
3.537863202386413
 30
0.0
 11
11.96926839674717
 21
4.497863202386403
 31
0.0
  0
LINE
  5
32AC
330
1F
100
AcDbEntity
  8
OBJECT
100
AcDbLine
 10
11.96926839674717
 20
3.191863202386409
 30
0.0
 11
11.96926839674717
 21
3.401863202386412
 31
0.0
  0
LINE
  5
32AD
330
1F
100
AcDbEntity
  8
OBJECT
100
AcDbLine
 10
11.75921678384395
 20
3.242863202386409
 30
0.0
 11
11.92026839674718
 21
3.401863202386412
 31
0.0
  0
CIRCLE
  5
32AE
330
1F
100
AcDbEntity
  8
OBJECT
100
AcDbCircle
 10
11.90926839674718
 20
3.25186320238641
 30
0.0
 40
0.04
  0
LINE
  5
32AF
330
1F
100
AcDbEntity
  8
OBJECT
100
AcDbLine
 10
11.75921678384395
 20
4.792863202386408
 30
0.0
 11
9.425320009650405
 21
4.792863202386408
 31
0.0
  0
LINE
  5
32B0
330
1F
100
AcDbEntity
  8
OBJECT
100
AcDbLine
 10
11.96926839674717
 20
4.843863202386406
 30
0.0
 11
11.96926839674717
 21
4.633863202386404
 31
0.0
  0
CIRCLE
  5
32B1
330
1F
100
AcDbEntity
  8
OBJECT
100
AcDbCircle
 10
11.90926839674718
 20
4.783863202386408
 30
0.0
 40
0.04
  0
LINE
  5
32B2
330
1F
100
AcDbEntity
  8
OBJECT
100
AcDbLine
 10
11.75921678384395
 20
4.792863202386408
 30
0.0
 11
11.92026839674718
 21
4.633863202386406
 31
0.0
  0
LINE
  5
32B3
330
1F
100
AcDbEntity
  8
OBJECT
100
AcDbLine
 10
12.16926839674718
 20
2.097277725535705
 30
0.0
 11
12.16926839674718
 21
2.277277725535704
 31
0.0
  0
LINE
  5
32B4
330
1F
100
AcDbEntity
  8
OBJECT
100
AcDbLine
 10
11.99553126064867
 20
1.490277725535704
 30
0.0
 11
12.00926839674717
 21
2.277277725535704
 31
0.0
  0
LINE
  5
32B5
330
1F
100
AcDbEntity
  8
OBJECT
100
AcDbLine
 10
12.00926839674717
 20
2.097277725535704
 30
0.0
 11
12.16926839674718
 21
2.097277725535705
 31
0.0
  0
ARC
  5
32B6
330
1F
100
AcDbEntity
  8
OBJECT
100
AcDbCircle
 10
12.27026839674717
 20
2.277277725535705
 30
0.0
 40
0.062
100
AcDbArc
 50
270.0
 51
0.0
  0
LINE
  5
32B7
330
1F
100
AcDbEntity
  8
OBJECT
100
AcDbLine
 10
12.16926839674718
 20
2.215277725535704
 30
0.0
 11
12.27026839674717
 21
2.215277725535704
 31
0.0
  0
LINE
  5
32B8
330
1F
100
AcDbEntity
  8
OBJECT
100
AcDbLine
 10
12.33226839674717
 20
2.277277725535705
 30
0.0
 11
12.33226839674717
 21
2.277277725535704
 31
0.0
  0
LWPOLYLINE
  5
32B9
330
1F
100
AcDbEntity
  8
OBJECT
100
AcDbPolyline
 90
        4
 70
     0
 43
0.0
 10
14.3460632373036
 20
4.697863202386404
 10
14.4040632373036
 20
4.697863202386404
 42
-1.000000000000013
 10
14.4040632373036
 20
4.433863202386405
 10
14.3460632373036
 20
4.433863202386406
  0
LWPOLYLINE
  5
32BA
330
1F
100
AcDbEntity
  8
OBJECT
100
AcDbPolyline
 90
        4
 70
     0
 43
0.0
 10
14.3460632373036
 20
4.633863202386404
 10
14.4040632373036
 20
4.633863202386404
 42
-1.0
 10
14.4040632373036
 20
4.497863202386405
 10
14.3460632373036
 20
4.497863202386406
  0
LINE
  5
32BB
330
1F
100
AcDbEntity
  8
OBJECT
100
AcDbLine
 10
12.16926839674718
 20
4.433863202386405
 30
0.0
 11
12.16926839674718
 21
4.697863202386404
 31
0.0
  0
LINE
  5
32BC
330
1F
100
AcDbEntity
  8
HIDDEN
100
AcDbLine
 10
14.38606323730359
 20
4.843863202386408
 30
0.0
 11
14.38606323730359
 21
3.611863202386413
 31
0.0
  0
LINE
  5
32BD
330
1F
100
AcDbEntity
  8
HIDDEN
100
AcDbLine
 10
15.06196203532616
 20
3.254661059790796
 30
0.0
 11
15.0620632373036
 21
4.781063578494933
 31
0.0
  0
LINE
  5
32BE
330
1F
100
AcDbEntity
  8
OBJECT
100
AcDbLine
 10
15.13306323730359
 20
3.165600338484916
 30
0.0
 11
15.13306323730359
 21
4.8701260662879
 31
0.0
  0
LINE
  5
32BF
330
1F
100
AcDbEntity
  8
OBJECT
100
AcDbLine
 10
14.3460632373036
 20
4.883863202386407
 30
0.0
 11
14.3460632373036
 21
3.537863202386409
 31
0.0
  0
LINE
  5
32C0
330
1F
100
AcDbEntity
  8
HIDDEN
100
AcDbLine
 10
15.0620632373036
 20
3.401863202386412
 30
0.0
 11
14.45806323730359
 21
3.401863202386412
 31
0.0
  0
LINE
  5
32C1
330
1F
100
AcDbEntity
  8
HIDDEN
100
AcDbLine
 10
14.38606323730359
 20
3.242863202386409
 30
0.0
 11
15.06196203532616
 21
3.254661059790796
 31
0.0
  0
LINE
  5
32C2
330
1F
100
AcDbEntity
  8
OBJECT
100
AcDbLine
 10
14.3460632373036
 20
3.151863202386409
 30
0.0
 11
15.13306323730359
 21
3.165600338484916
 31
0.0
  0
LWPOLYLINE
  5
32C3
330
1F
100
AcDbEntity
  8
OBJECT
100
AcDbPolyline
 90
        6
 70
     0
 43
0.0
 10
12.00926839674717
 20
3.790863202386407
 42
-0.4142135623730951
 10
12.07126839674717
 20
3.852863202386409
 10
12.16726839674717
 20
3.852863202386409
 42
0.9999999999999998
 10
12.16726839674717
 20
4.182863202386407
 10
12.07126839674717
 20
4.182863202386409
 42
-0.4142135623730992
 10
12.00926839674717
 20
4.244863202386408
  0
ARC
  5
32C4
330
1F
100
AcDbEntity
  8
OBJECT
100
AcDbCircle
 10
14.3460632373036
 20
3.91486320238641
 30
0.0
 40
0.062
100
AcDbArc
 50
270.0
 51
0.0
  0
LINE
  5
32C5
330
1F
100
AcDbEntity
  8
OBJECT
100
AcDbLine
 10
12.16926839674718
 20
3.601863202386411
 30
0.0
 11
12.16926839674718
 21
3.337863202386412
 31
0.0
  0
LINE
  5
32C6
330
1F
100
AcDbEntity
  8
OBJECT
100
AcDbLine
 10
12.00926839674717
 20
3.213863202386409
 30
0.0
 11
12.00926839674717
 21
3.337863202386412
 31
0.0
  0
LINE
  5
32C7
330
1F
100
AcDbEntity
  8
OBJECT
100
AcDbLine
 10
12.00926839674717
 20
3.337863202386412
 30
0.0
 11
12.16926839674718
 21
3.337863202386412
 31
0.0
  0
LINE
  5
32C8
330
1F
100
AcDbEntity
  8
OBJECT
100
AcDbLine
 10
12.00926839674717
 20
3.790863202386404
 30
0.0
 11
12.00926839674717
 21
3.601863202386411
 31
0.0
  0
LINE
  5
32C9
330
1F
100
AcDbEntity
  8
OBJECT
100
AcDbLine
 10
12.00926839674717
 20
3.601863202386411
 30
0.0
 11
12.16926839674718
 21
3.601863202386411
 31
0.0
  0
LWPOLYLINE
  5
32CA
330
1F
100
AcDbEntity
  8
OBJECT
100
AcDbPolyline
 90
        4
 70
     0
 43
0.0
 10
14.3460632373036
 20
3.401863202386412
 10
14.4040632373036
 20
3.401863202386412
 42
1.0
 10
14.4040632373036
 20
3.537863202386411
 10
14.3460632373036
 20
3.537863202386409
  0
LWPOLYLINE
  5
32CB
330
1F
100
AcDbEntity
  8
OBJECT
100
AcDbPolyline
 90
        4
 70
     0
 43
0.0
 10
14.3460632373036
 20
3.337863202386412
 10
14.4040632373036
 20
3.337863202386412
 42
1.000000000000013
 10
14.4040632373036
 20
3.601863202386411
 10
14.3460632373036
 20
3.601863202386409
  0
LINE
  5
32CC
330
1F
100
AcDbEntity
  8
HIDDEN
100
AcDbLine
 10
14.38606323730359
 20
3.401863202386412
 30
0.0
 11
14.38606323730359
 21
3.191863202386408
 31
0.0
  0
LINE
  5
32CD
330
1F
100
AcDbEntity
  8
OBJECT
100
AcDbLine
 10
14.3460632373036
 20
3.401863202386412
 30
0.0
 11
14.3460632373036
 21
3.151863202386409
 31
0.0
  0
LWPOLYLINE
  5
32CE
330
1F
100
AcDbEntity
  8
HIDDEN
100
AcDbPolyline
 90
        4
 70
     0
 43
0.0
 10
14.38606323730359
 20
3.211863202386408
 10
14.5560632373036
 20
3.211863202386408
 10
14.5560632373036
 20
3.29186320238641
 10
14.38606323730359
 20
3.29186320238641
  0
LINE
  5
32CF
330
1F
100
AcDbEntity
  8
HIDDEN
100
AcDbLine
 10
14.3460632373036
 20
3.191863202386408
 30
0.0
 11
14.38606323730359
 21
3.191863202386408
 31
0.0
  0
CIRCLE
  5
32D0
330
1F
100
AcDbEntity
  8
OBJECT
100
AcDbCircle
 10
12.16726839674717
 20
4.017863202386408
 30
0.0
 40
0.065
  0
LINE
  5
32D1
330
1F
100
AcDbEntity
  8
OBJECT
100
AcDbLine
 10
12.00926839674717
 20
4.244863202386412
 30
0.0
 11
12.00926839674717
 21
4.433863202386405
 31
0.0
  0
LINE
  5
32D2
330
1F
100
AcDbEntity
  8
OBJECT
100
AcDbLine
 10
12.00926839674717
 20
4.433863202386405
 30
0.0
 11
12.16926839674718
 21
4.433863202386405
 31
0.0
  0
LINE
  5
32D3
330
1F
100
AcDbEntity
  8
OBJECT
100
AcDbLine
 10
14.40806323730359
 20
3.91486320238641
 30
0.0
 11
14.40806323730359
 21
4.120863202386409
 31
0.0
  0
ARC
  5
32D4
330
1F
100
AcDbEntity
  8
OBJECT
100
AcDbCircle
 10
14.3460632373036
 20
4.120863202386409
 30
0.0
 40
0.062
100
AcDbArc
 50
0.0
 51
90.0
  0
LINE
  5
32D5
330
1F
100
AcDbEntity
  8
HIDDEN
100
AcDbLine
 10
15.0620632373036
 20
4.781063578494933
 30
0.0
 11
14.38606323730359
 21
4.792863202386408
 31
0.0
  0
LINE
  5
32D6
330
1F
100
AcDbEntity
  8
OBJECT
100
AcDbLine
 10
15.13306323730359
 20
4.8701260662879
 30
0.0
 11
14.3460632373036
 21
4.883863202386407
 31
0.0
  0
LINE
  5
32D7
330
1F
100
AcDbEntity
  8
HIDDEN
100
AcDbLine
 10
15.0620632373036
 20
4.633863202386406
 30
0.0
 11
14.45806323730359
 21
4.633863202386406
 31
0.0
  0
LINE
  5
32D8
330
1F
100
AcDbEntity
  8
OBJECT
100
AcDbLine
 10
12.00926839674717
 20
4.821863202386406
 30
0.0
 11
12.00926839674717
 21
4.697863202386404
 31
0.0
  0
LINE
  5
32D9
330
1F
100
AcDbEntity
  8
OBJECT
100
AcDbLine
 10
12.00926839674717
 20
4.697863202386404
 30
0.0
 11
12.16926839674718
 21
4.697863202386404
 31
0.0
  0
LWPOLYLINE
  5
32DA
330
1F
100
AcDbEntity
  8
HIDDEN
100
AcDbPolyline
 90
        4
 70
     0
 43
0.0
 10
14.38606323730359
 20
4.743863202386407
 10
14.5560632373036
 20
4.743863202386407
 10
14.5560632373036
 20
4.823863202386409
 10
14.38606323730359
 20
4.823863202386409
  0
LINE
  5
32DB
330
1F
100
AcDbEntity
  8
HIDDEN
100
AcDbLine
 10
14.3460632373036
 20
4.843863202386408
 30
0.0
 11
14.38606323730359
 21
4.843863202386408
 31
0.0
  0
DIMENSION
  5
32E7
330
1F
100
AcDbEntity
  8
DIM
100
AcDbDimension
  2
*D10
 10
8.547677856874134
 20
4.017863202386408
 30
0.0
 11
8.547677856874132
 21
4.450863202386408
 31
0.0
 70
    32
 71
     5
 42
0.8659999999999996
  3
23NSTD
100
AcDbAlignedDimension
 13
9.237268396747179
 23
4.883863202386407
 33
0.0
 14
9.01726839674718
 24
4.017863202386408
 34
0.0
 50
90.0
100
AcDbRotatedDimension
  0
DIMENSION
  5
32F5
330
1F
100
AcDbEntity
  8
DIM
100
AcDbDimension
  2
*D11
 10
13.20602009645662
 20
3.151863202386409
 30
0.0
 11
13.20602009645662
 21
4.01786320238641
 31
0.0
 70
    32
 71
     5
 42
1.731999999999998
  3
23NSTD
100
AcDbAlignedDimension
 13
11.94726839674718
 23
4.883863202386407
 33
0.0
 14
11.94726839674718
 24
3.151863202386409
 34
0.0
 50
90.0
100
AcDbRotatedDimension
  0
DIMENSION
  5
3303
330
1F
100
AcDbEntity
  8
DIM
100
AcDbDimension
  2
*D12
 10
12.00926839674718
 20
2.88648386617228
 30
0.0
 11
10.59226839674717
 21
2.88648386617228
 31
0.0
 70
    32
 71
     5
 42
2.834000000000003
  3
23NSTD
100
AcDbAlignedDimension
 13
9.175268396747178
 23
3.213863202386407
 33
0.0
 14
12.00926839674718
 24
3.213863202386407
 34
0.0
100
AcDbRotatedDimension
  0
DIMENSION
  5
3311
330
1F
100
AcDbEntity
  8
DIM
100
AcDbDimension
  2
*D13
 10
12.16726839674717
 20
5.162030046925057
 30
0.0
 11
10.59226839674717
 21
5.162030046925057
 31
0.0
 70
   160
 71
     5
 42
3.149999999999998
  3
23NSTD
100
AcDbAlignedDimension
 13
9.01726839674718
 23
4.017863202386408
 33
0.0
 14
12.16726839674717
 24
4.017863202386408
 34
0.0
100
AcDbRotatedDimension
  0
DIMENSION
  5
3333
330
1F
100
AcDbEntity
  8
DIM
100
AcDbDimension
  2
*D14
 10
12.33226839674717
 20
5.457837310967896
 30
0.0
 11
10.59226839674717
 21
5.457837310967896
 31
0.0
 70
    32
 71
     5
 42
3.479999999999996
  3
23NSTD
100
AcDbAlignedDimension
 13
8.852268396747181
 23
4.017863202386408
 33
0.0
 14
12.33226839674717
 24
4.017863202386408
 34
0.0
100
AcDbRotatedDimension
  0
DIMENSION
  5
3468
330
1F
100
AcDbEntity
  8
DIM
100
AcDbDimension
  2
*D15
 10
8.183457797218718
 20
3.401863202386412
 30
0.0
 11
8.183457797218718
 21
3.511863202386413
 31
0.0
 70
   160
 71
     5
 42
0.2200000000000006
  3
23NSTD
100
AcDbAlignedDimension
 13
7.850154555446195
 23
3.621863202386412
 33
0.0
 14
7.850154555446199
 24
3.401863202386412
 34
0.0
 50
90.0
100
AcDbRotatedDimension
  0
DIMENSION
  5
3477
330
1F
100
AcDbEntity
  8
DIM
100
AcDbDimension
  2
*D16
 10
7.710154555446198
 20
2.86632606944293
 30
0.0
 11
7.103904555446198
 21
2.86632606944293
 31
0.0
 70
   160
 71
     5
 42
0.1400000000000006
  3
23NSTD
100
AcDbAlignedDimension
 13
7.850154555446199
 23
3.151863202386409
 33
0.0
 14
7.710154555446198
 24
3.401863202386412
 34
0.0
100
AcDbRotatedDimension
  0
DIMENSION
  5
34AF
330
1F
100
AcDbEntity
  8
DIM
100
AcDbDimension
  2
*D21
 10
5.067983165585918
 20
5.457837310967896
 30
0.0
 11
3.327983165585919
 21
5.457837310967896
 31
0.0
 70
    32
 71
     5
 42
3.479999999999996
  3
23NSTD
100
AcDbAlignedDimension
 13
1.587983165585921
 23
4.017863202386408
 33
0.0
 14
5.067983165585918
 24
4.017863202386408
 34
0.0
100
AcDbRotatedDimension
  0
DIMENSION
  5
34B0
330
1F
100
AcDbEntity
  8
DIM
100
AcDbDimension
  2
*D20
 10
4.902983165585919
 20
5.162030046925057
 30
0.0
 11
3.327983165585919
 21
5.162030046925057
 31
0.0
 70
   160
 71
     5
 42
3.149999999999998
  3
23NSTD
100
AcDbAlignedDimension
 13
1.75298316558592
 23
4.017863202386408
 33
0.0
 14
4.902983165585919
 24
4.017863202386408
 34
0.0
100
AcDbRotatedDimension
  0
DIMENSION
  5
34B1
330
1F
100
AcDbEntity
  8
DIM
100
AcDbDimension
  2
*D18
 10
5.387292076787257
 20
3.151863202386409
 30
0.0
 11
5.387292076787256
 21
4.01786320238641
 31
0.0
 70
    32
 71
     5
 42
1.731999999999998
  3
23NSTD
100
AcDbAlignedDimension
 13
4.68298316558592
 23
4.883863202386407
 33
0.0
 14
4.68298316558592
 24
3.151863202386409
 34
0.0
 50
90.0
100
AcDbRotatedDimension
  0
DIMENSION
  5
34B2
330
1F
100
AcDbEntity
  8
DIM
100
AcDbDimension
  2
*D17
 10
1.283392625712874
 20
4.017863202386408
 30
0.0
 11
1.283392625712873
 21
4.450863202386408
 31
0.0
 70
    32
 71
     5
 42
0.8659999999999996
  3
23NSTD
100
AcDbAlignedDimension
 13
1.972983165585919
 23
4.883863202386407
 33
0.0
 14
1.75298316558592
 24
4.017863202386408
 34
0.0
 50
90.0
100
AcDbRotatedDimension
  0
DIMENSION
  5
34B3
330
1F
100
AcDbEntity
  8
DIM
100
AcDbDimension
  2
*D19
 10
4.744983165585921
 20
2.88648386617228
 30
0.0
 11
3.327983165585919
 21
2.88648386617228
 31
0.0
 70
    32
 71
     5
 42
2.834000000000003
  3
23NSTD
100
AcDbAlignedDimension
 13
1.910983165585918
 23
3.213863202386407
 33
0.0
 14
4.744983165585921
 24
3.213863202386407
 34
0.0
100
AcDbRotatedDimension
  0
LINE
  5
3900
330
1F
100
AcDbEntity
  8
OBJECT
100
AcDbLine
 10
13.23316903558281
 20
8.972841501725703
 30
0.0
 11
13.23316903558281
 21
7.240841501725702
 31
0.0
  0
DIMENSION
  5
3901
330
1F
100
AcDbEntity
  8
DIM
100
AcDbDimension
  2
*D22
 10
12.65157730794851
 20
7.240841501725701
 30
0.0
 11
12.65157730794851
 21
8.106841501725703
 31
0.0
 70
    32
 71
     5
 42
1.731999999999997
  3
23NSTD
100
AcDbAlignedDimension
 13
11.94726839674718
 23
8.972841501725699
 33
0.0
 14
11.94726839674718
 24
7.240841501725701
 34
0.0
 50
90.0
100
AcDbRotatedDimension
  0
LWPOLYLINE
  5
3903
330
1F
100
AcDbEntity
  8
HIDDEN
100
AcDbPolyline
 90
        4
 70
     1
 43
0.0
 10
9.574268396747179
 20
8.931841501725699
 42
0.9999999999999998
 10
9.574268396747179
 20
8.873841501725699
 10
11.61026839674718
 20
8.873841501725699
 42
0.9999999999999998
 10
11.61026839674718
 20
8.931841501725699
  0
LWPOLYLINE
  5
3906
330
1F
100
AcDbEntity
  8
OBJECT
100
AcDbPolyline
 90
       33
 70
     1
 43
0.0
 10
12.16926839674718
 20
7.426841501725704
 10
12.16926839674718
 20
7.690841501725703
 10
12.00926839674717
 20
7.690841501725703
 10
12.00926839674717
 20
7.879841501725699
 42
-0.4142135623730951
 10
12.07126839674717
 20
7.941841501725701
 10
12.16726839674717
 20
7.941841501725701
 42
0.9999999999999998
 10
12.16726839674717
 20
8.271841501725699
 10
12.07126839674717
 20
8.271841501725701
 42
-0.4142135623730992
 10
12.00926839674717
 20
8.333841501725704
 10
12.00926839674718
 20
8.522841501725697
 10
12.16926839674718
 20
8.522841501725697
 10
12.16926839674718
 20
8.786841501725696
 10
12.00926839674718
 20
8.786841501725696
 10
12.00926839674718
 20
8.9108415017257
 42
0.4142135623730951
 10
11.94726839674718
 20
8.972841501725699
 10
9.237268396747179
 20
8.972841501725699
 42
0.4142135623730866
 10
9.175268396747178
 20
8.9108415017257
 10
9.175268396747179
 20
8.3338415017257
 42
-0.4142135623730951
 10
9.11326839674718
 20
8.271841501725701
 10
9.01726839674718
 20
8.271841501725701
 42
0.9999999999999998
 10
9.01726839674718
 20
7.941841501725699
 10
9.11326839674718
 20
7.941841501725701
 42
-0.4142135623730909
 10
9.175268396747181
 20
7.879841501725699
 10
9.175268396747179
 20
7.866841501725703
 10
9.175268396747179
 20
7.750841501725703
 10
9.015268396747179
 20
7.750841501725703
 10
9.015268396747179
 20
7.450841501725703
 10
9.175268396747179
 20
7.450841501725703
 10
9.175268396747179
 20
7.302841501725701
 42
0.4142135623730951
 10
9.237268396747179
 20
7.240841501725701
 10
11.94726839674718
 20
7.240841501725701
 42
0.4142135623730909
 10
12.00926839674717
 20
7.302841501725701
 10
12.00926839674718
 20
7.426841501725704
  0
ARC
  5
3907
330
1F
100
AcDbEntity
  8
OBJECT
100
AcDbCircle
 10
13.23316903558281
 20
8.910841501725704
 30
0.0
 40
0.062
100
AcDbArc
 50
90.0
 51
180.0
  0
DIMENSION
  5
3908
330
1F
100
AcDbEntity
  8
DIM
100
AcDbDimension
  2
*D23
 10
12.00926839674718
 20
6.975462165511572
 30
0.0
 11
10.59226839674717
 21
6.975462165511572
 31
0.0
 70
    32
 71
     5
 42
2.834000000000003
  3
23NSTD
100
AcDbAlignedDimension
 13
9.175268396747178
 23
7.3028415017257
 33
0.0
 14
12.00926839674718
 24
7.3028415017257
 34
0.0
100
AcDbRotatedDimension
  0
LWPOLYLINE
  5
3909
330
1F
100
AcDbEntity
  8
HIDDEN
100
AcDbPolyline
 90
        4
 70
     1
 43
0.0
 10
9.574268396747179
 20
7.2818415017257
 42
-0.9999999999999998
 10
9.574268396747179
 20
7.3398415017257
 10
11.61026839674718
 20
7.3398415017257
 42
-0.9999999999999998
 10
11.61026839674718
 20
7.2818415017257
  0
MTEXT
  5
390A
102
{ACAD_REACTORS
330
390D
102
}
330
1F
100
AcDbEntity
  8
DIM
100
AcDbMText
 10
8.490544461425146
 20
7.075739371042942
 30
0.0
 40
0.125
 41
0.0
 71
     3
 72
     1
  1
0.130 DIA.\P(2) PLACES
  7
TXT
 73
     1
 44
1.0
  0
CIRCLE
  5
390B
330
1F
100
AcDbEntity
  8
HIDDEN
100
AcDbCircle
 10
9.275268396747179
 20
7.340841501725702
 30
0.0
 40
0.04
  0
CIRCLE
  5
390C
330
1F
100
AcDbEntity
  8
OBJECT
100
AcDbCircle
 10
9.01726839674718
 20
8.1068415017257
 30
0.0
 40
0.065
  0
LEADER
  5
390D
330
1F
100
AcDbEntity
  8
DIM
100
AcDbLeader
  3
23NSTD
 73
     0
 75
     1
 40
0.3333333333333334
 41
0.84375
 76
     3
 10
8.982846692184411
 20
8.051703980426736
 30
0.0
 10
8.760544461425146
 20
7.013239371042942
 30
0.0
 10
8.580544461425146
 20
7.013239371042942
 30
0.0
340
390A
213
0.0
223
-0.0625
233
0.0
1001
ACAD
1000
DSTYLE
1002
{
1070
   147
1040
0.09
1070
    77
1070
     0
1002
}
  0
LWPOLYLINE
  5
390E
330
1F
100
AcDbEntity
  8
HIDDEN
100
AcDbPolyline
 90
        4
 70
     1
 43
0.0
 10
9.275268396747179
 20
7.870841501725699
 42
-0.9999999999999998
 10
9.217268396747179
 20
7.870841501725699
 10
9.217268396747179
 20
8.3428415017257
 42
-0.9999999999999998
 10
9.275268396747179
 20
8.3428415017257
  0
CIRCLE
  5
390F
330
1F
100
AcDbEntity
  8
HIDDEN
100
AcDbCircle
 10
9.275268396747179
 20
8.8728415017257
 30
0.0
 40
0.04
  0
CIRCLE
  5
3910
330
1F
100
AcDbEntity
  8
HIDDEN
100
AcDbCircle
 10
11.90926839674718
 20
7.340841501725702
 30
0.0
 40
0.04
  0
LINE
  5
3911
330
1F
100
AcDbEntity
  8
CENTER
100
AcDbLine
 10
10.59226839674717
 20
8.0168415017257
 30
0.0
 11
10.59226839674717
 21
8.1968415017257
 31
0.0
  0
LINE
  5
3912
330
1F
100
AcDbEntity
  8
CENTER
100
AcDbLine
 10
10.50226839674718
 20
8.1068415017257
 30
0.0
 11
10.68226839674718
 21
8.1068415017257
 31
0.0
  0
CIRCLE
  5
3913
330
1F
100
AcDbEntity
  8
OBJECT
100
AcDbCircle
 10
12.16726839674717
 20
8.1068415017257
 30
0.0
 40
0.065
  0
LWPOLYLINE
  5
3914
330
1F
100
AcDbEntity
  8
HIDDEN
100
AcDbPolyline
 90
        4
 70
     1
 43
0.0
 10
11.90926839674718
 20
7.870841501725699
 42
0.9999999999999998
 10
11.96726839674717
 20
7.870841501725699
 10
11.96726839674717
 20
8.3428415017257
 42
0.9999999999999998
 10
11.90926839674718
 20
8.3428415017257
  0
CIRCLE
  5
3915
330
1F
100
AcDbEntity
  8
HIDDEN
100
AcDbCircle
 10
11.90926839674718
 20
8.8728415017257
 30
0.0
 40
0.04
  0
LINE
  5
3916
330
1F
100
AcDbEntity
  8
OBJECT
100
AcDbLine
 10
13.17116903558281
 20
8.910841501725702
 30
0.0
 11
13.17116903558281
 21
7.3028415017257
 31
0.0
  0
LWPOLYLINE
  5
3917
330
1F
100
AcDbEntity
  8
HIDDEN
100
AcDbPolyline
 90
        5
 70
     0
 43
0.0
 10
13.2331690355828
 20
7.380841501725704
 10
13.38045106788556
 20
7.380841501725704
 10
13.39116903558281
 20
7.340841501725702
 10
13.38045106788556
 20
7.300841501725701
 10
13.2331690355828
 20
7.300841501725701
  0
LINE
  5
3918
330
1F
100
AcDbEntity
  8
OBJECT
100
AcDbLine
 10
13.23316903558281
 20
7.240841501725702
 30
0.0
 11
13.23316903558281
 21
7.240841501725702
 31
0.0
  0
ARC
  5
3919
330
1F
100
AcDbEntity
  8
OBJECT
100
AcDbCircle
 10
13.23316903558281
 20
7.3028415017257
 30
0.0
 40
0.062
100
AcDbArc
 50
180.0
 51
270.0
  0
LINE
  5
391A
330
1F
100
AcDbEntity
  8
HIDDEN
100
AcDbLine
 10
13.38045106788556
 20
7.300841501725701
 30
0.0
 11
13.38045106788556
 21
7.380841501725704
 31
0.0
  0
LWPOLYLINE
  5
391C
330
1F
100
AcDbEntity
  8
OBJECT
100
AcDbPolyline
 90
        3
 70
     0
 43
0.0
 10
13.17116903558281
 20
7.457841501725704
 42
0.4142135623731035
 10
13.2021690355828
 20
7.426841501725704
 10
13.23316903558281
 20
7.426841501725704
  0
LWPOLYLINE
  5
391D
330
1F
100
AcDbEntity
  8
OBJECT
100
AcDbPolyline
 90
        3
 70
     0
 43
0.0
 10
13.23316903558281
 20
7.690841501725703
 10
13.2021690355828
 20
7.690841501725703
 42
0.4142135623730951
 10
13.17116903558281
 20
7.659841501725702
  0
ARC
  5
391E
330
1F
100
AcDbEntity
  8
OBJECT
100
AcDbCircle
 10
13.23316903558281
 20
8.003841501725702
 30
0.0
 40
0.062
100
AcDbArc
 50
180.0
 51
270.0
  0
LWPOLYLINE
  5
391F
330
1F
100
AcDbEntity
  8
OBJECT
100
AcDbPolyline
 90
        3
 70
     0
 43
0.0
 10
13.23316903558281
 20
8.522841501725697
 10
13.2021690355828
 20
8.522841501725697
 42
-0.4142135623730951
 10
13.17116903558281
 20
8.553841501725697
  0
ARC
  5
3920
330
1F
100
AcDbEntity
  8
OBJECT
100
AcDbCircle
 10
13.23316903558281
 20
8.209841501725701
 30
0.0
 40
0.062
100
AcDbArc
 50
90.0
 51
180.0
  0
LWPOLYLINE
  5
3921
330
1F
100
AcDbEntity
  8
HIDDEN
100
AcDbPolyline
 90
        5
 70
     0
 43
0.0
 10
13.23316903558281
 20
8.832841501725702
 10
13.38045106788556
 20
8.832841501725701
 10
13.39116903558281
 20
8.8728415017257
 10
13.38045106788556
 20
8.912841501725699
 10
13.23316903558281
 20
8.912841501725701
  0
LWPOLYLINE
  5
3922
330
1F
100
AcDbEntity
  8
OBJECT
100
AcDbPolyline
 90
        3
 70
     0
 43
0.0
 10
13.17116903558281
 20
8.755841501725695
 42
-0.4142135623731035
 10
13.2021690355828
 20
8.786841501725696
 10
13.23316903558281
 20
8.786841501725696
  0
LINE
  5
3923
330
1F
100
AcDbEntity
  8
HIDDEN
100
AcDbLine
 10
13.38045106788556
 20
8.912841501725699
 30
0.0
 11
13.38045106788556
 21
8.832841501725701
 31
0.0
  0
LINE
  5
3924
330
1F
100
AcDbEntity
  8
OBJECT
100
AcDbLine
 10
13.23316903558281
 20
8.972841501725703
 30
0.0
 11
13.23316903558281
 21
8.972841501725703
 31
0.0
  0
LINE
  5
3925
330
1F
100
AcDbEntity
  8
OBJECT
100
AcDbLine
 10
12.27026839674718
 20
6.664366696294754
 30
0.0
 11
8.914268396747178
 21
6.664366696294753
 31
0.0
  0
LWPOLYLINE
  5
3928
330
1F
100
AcDbEntity
  8
OBJECT
100
AcDbPolyline
 90
        3
 70
     0
 43
0.0
 10
9.04626839674718
 20
6.664366696294754
 42
0.4142135623730943
 10
9.015268396747179
 20
6.633366696294753
 10
9.015268396747179
 20
6.602366696294755
  0
ARC
  5
3929
330
1F
100
AcDbEntity
  8
OBJECT
100
AcDbCircle
 10
8.914268396747178
 20
6.602366696294753
 30
0.0
 40
0.062
100
AcDbArc
 50
90.0
 51
180.0
  0
LINE
  5
392A
330
1F
100
AcDbEntity
  8
OBJECT
100
AcDbLine
 10
8.852268396747179
 20
6.602366696294753
 30
0.0
 11
8.852268396747179
 21
6.602366696294754
 31
0.0
  0
ARC
  5
392B
330
1F
100
AcDbEntity
  8
OBJECT
100
AcDbCircle
 10
9.237268396747179
 20
6.602366696294754
 30
0.0
 40
0.062
100
AcDbArc
 50
90.0
 51
180.0
  0
LWPOLYLINE
  5
392C
330
1F
100
AcDbEntity
  8
HIDDEN
100
AcDbPolyline
 90
        5
 70
     0
 43
0.0
 10
9.31526839674718
 20
6.602366696294755
 10
9.31526839674718
 20
6.455084663992
 10
9.275268396747179
 20
6.444366696294754
 10
9.23526839674718
 20
6.455084663992
 10
9.23526839674718
 20
6.602366696294755
  0
LINE
  5
392D
330
1F
100
AcDbEntity
  8
HIDDEN
100
AcDbLine
 10
9.23526839674718
 20
6.455084663992
 30
0.0
 11
9.31526839674718
 21
6.455084663992
 31
0.0
  0
LINE
  5
392E
330
1F
100
AcDbEntity
  8
OBJECT
100
AcDbLine
 10
9.175268396747179
 20
6.602366696294754
 30
0.0
 11
9.175268396747179
 21
6.602366696294755
 31
0.0
  0
ARC
  5
392F
330
1F
100
AcDbEntity
  8
OBJECT
100
AcDbCircle
 10
12.27026839674718
 20
6.602366696294754
 30
0.0
 40
0.062
100
AcDbArc
 50
0.0
 51
90.0
  0
LWPOLYLINE
  5
3930
330
1F
100
AcDbEntity
  8
OBJECT
100
AcDbPolyline
 90
        3
 70
     0
 43
0.0
 10
12.13826839674718
 20
6.664366696294755
 42
-0.4142135623730943
 10
12.16926839674718
 20
6.633366696294754
 10
12.16926839674718
 20
6.602366696294756
  0
ARC
  5
3931
330
1F
100
AcDbEntity
  8
OBJECT
100
AcDbCircle
 10
11.94726839674718
 20
6.602366696294755
 30
0.0
 40
0.062
100
AcDbArc
 50
0.0
 51
90.0
  0
LWPOLYLINE
  5
3932
330
1F
100
AcDbEntity
  8
HIDDEN
100
AcDbPolyline
 90
        5
 70
     0
 43
0.0
 10
11.86926839674718
 20
6.602366696294756
 10
11.86926839674718
 20
6.455084663992001
 10
11.90926839674718
 20
6.444366696294755
 10
11.94926839674718
 20
6.455084663992001
 10
11.94926839674718
 20
6.602366696294756
  0
LINE
  5
3933
330
1F
100
AcDbEntity
  8
HIDDEN
100
AcDbLine
 10
11.94926839674718
 20
6.455084663992001
 30
0.0
 11
11.86926839674718
 21
6.455084663992001
 31
0.0
  0
LINE
  5
3934
330
1F
100
AcDbEntity
  8
OBJECT
100
AcDbLine
 10
12.00926839674718
 20
6.602366696294755
 30
0.0
 11
12.00926839674718
 21
6.602366696294756
 31
0.0
  0
LINE
  5
3935
330
1F
100
AcDbEntity
  8
OBJECT
100
AcDbLine
 10
12.33226839674717
 20
6.602366696294754
 30
0.0
 11
12.33226839674717
 21
6.602366696294755
 31
0.0
  0
LINE
  5
39BD
330
1F
100
AcDbEntity
  8
OBJECT
100
AcDbLine
 10
9.175268396747178
 20
6.602366696294755
 30
0.0
 11
9.189005532845687
 21
5.815366696294755
 31
0.0
  0
LINE
  5
39BE
330
1F
100
AcDbEntity
  8
HIDDEN
100
AcDbLine
 10
9.26426839674718
 20
6.562366696294755
 30
0.0
 11
9.276068020638653
 21
5.886366696294754
 31
0.0
  0
LINE
  5
39BF
330
1F
100
AcDbEntity
  8
HIDDEN
100
AcDbLine
 10
9.425320009650405
 20
6.562366696294755
 30
0.0
 11
9.425320009650405
 21
5.886366696294755
 31
0.0
  0
LINE
  5
39C0
330
1F
100
AcDbEntity
  8
HIDDEN
100
AcDbLine
 10
11.75921678384395
 20
6.562366696294755
 30
0.0
 11
11.75921678384395
 21
5.886366696294755
 31
0.0
  0
LINE
  5
39C1
330
1F
100
AcDbEntity
  8
OBJECT
100
AcDbLine
 10
11.99553126064867
 20
5.815366696294755
 30
0.0
 11
12.00926839674717
 21
6.602366696294755
 31
0.0
  0
LINE
  5
39C2
330
1F
100
AcDbEntity
  8
HIDDEN
100
AcDbLine
 10
11.90847053934279
 20
5.886467898272193
 30
0.0
 11
11.92026839674718
 21
6.562366696294755
 31
0.0
  0
LINE
  5
39C3
330
1F
100
AcDbEntity
  8
HIDDEN
100
AcDbLine
 10
9.276068020638653
 20
5.886366696294754
 30
0.0
 11
11.90847053934279
 21
5.886467898272193
 31
0.0
  0
LINE
  5
39C4
330
1F
100
AcDbEntity
  8
OBJECT
100
AcDbLine
 10
9.189005532845687
 20
5.815366696294755
 30
0.0
 11
11.99553126064867
 21
5.815366696294755
 31
0.0
  0
LINE
  5
39C5
330
1F
100
AcDbEntity
  8
OBJECT
100
AcDbLine
 10
12.33226839674717
 20
6.602366696294756
 30
0.0
 11
8.852268396747181
 21
6.602366696294755
 31
0.0
  0
LINE
  5
39C6
330
1F
100
AcDbEntity
  8
HIDDEN
100
AcDbLine
 10
11.96926839674717
 20
6.562366696294754
 30
0.0
 11
9.215268396747177
 21
6.562366696294754
 31
0.0
  0
LINE
  5
39C7
330
1F
100
AcDbEntity
  8
OBJECT
100
AcDbLine
 10
9.015268396747178
 20
6.540366696294755
 30
0.0
 11
8.914268396747178
 21
6.540366696294755
 31
0.0
  0
LINE
  5
39C8
330
1F
100
AcDbEntity
  8
OBJECT
100
AcDbLine
 10
8.852268396747181
 20
6.602366696294756
 30
0.0
 11
8.852268396747181
 21
6.602366696294755
 31
0.0
  0
ARC
  5
39C9
330
1F
100
AcDbEntity
  8
OBJECT
100
AcDbCircle
 10
8.914268396747178
 20
6.602366696294756
 30
0.0
 40
0.062
100
AcDbArc
 50
180.0
 51
270.0
  0
LWPOLYLINE
  5
39CA
330
1F
100
AcDbEntity
  8
HIDDEN
100
AcDbPolyline
 90
        4
 70
     0
 43
0.0
 10
9.315268396747178
 20
6.562366696294755
 10
9.315268396747178
 20
6.392366696294756
 10
9.23526839674718
 20
6.392366696294756
 10
9.23526839674718
 20
6.562366696294755
  0
LINE
  5
39CB
330
1F
100
AcDbEntity
  8
OBJECT
100
AcDbLine
 10
9.015268396747178
 20
6.453366696294755
 30
0.0
 11
9.015268396747178
 21
6.602366696294755
 31
0.0
  0
LINE
  5
39CC
330
1F
100
AcDbEntity
  8
OBJECT
100
AcDbLine
 10
9.175268396747178
 20
6.422366696294755
 30
0.0
 11
9.04626839674718
 21
6.422366696294755
 31
0.0
  0
ARC
  5
39CD
330
1F
100
AcDbEntity
  8
OBJECT
100
AcDbCircle
 10
9.04626839674718
 20
6.453366696294755
 30
0.0
 40
0.031
100
AcDbArc
 50
180.0
 51
269.9999999999997
  0
LINE
  5
39CE
330
1F
100
AcDbEntity
  8
HIDDEN
100
AcDbLine
 10
9.215268396747177
 20
6.602366696294755
 30
0.0
 11
9.215268396747177
 21
6.562366696294754
 31
0.0
  0
LINE
  5
39CF
330
1F
100
AcDbEntity
  8
OBJECT
100
AcDbLine
 10
12.16926839674718
 20
6.540366696294755
 30
0.0
 11
12.27026839674717
 21
6.540366696294755
 31
0.0
  0
LWPOLYLINE
  5
39D0
330
1F
100
AcDbEntity
  8
HIDDEN
100
AcDbPolyline
 90
        4
 70
     0
 43
0.0
 10
11.86926839674717
 20
6.562366696294755
 10
11.86926839674717
 20
6.392366696294756
 10
11.94926839674717
 20
6.392366696294756
 10
11.94926839674717
 20
6.562366696294755
  0
LINE
  5
39D1
330
1F
100
AcDbEntity
  8
OBJECT
100
AcDbLine
 10
12.16926839674718
 20
6.422366696294756
 30
0.0
 11
12.16926839674718
 21
6.602366696294755
 31
0.0
  0
LINE
  5
39D2
330
1F
100
AcDbEntity
  8
OBJECT
100
AcDbLine
 10
12.00926839674717
 20
6.422366696294755
 30
0.0
 11
12.16926839674718
 21
6.422366696294756
 31
0.0
  0
LINE
  5
39D3
330
1F
100
AcDbEntity
  8
HIDDEN
100
AcDbLine
 10
11.96926839674717
 20
6.602366696294755
 30
0.0
 11
11.96926839674717
 21
6.562366696294754
 31
0.0
  0
LINE
  5
39D4
330
1F
100
AcDbEntity
  8
OBJECT
100
AcDbLine
 10
12.33226839674717
 20
6.602366696294756
 30
0.0
 11
12.33226839674717
 21
6.602366696294755
 31
0.0
  0
ARC
  5
39D5
330
1F
100
AcDbEntity
  8
OBJECT
100
AcDbCircle
 10
12.27026839674717
 20
6.602366696294756
 30
0.0
 40
0.062
100
AcDbArc
 50
270.0
 51
0.0
  0
DIMENSION
  5
39D6
330
1F
100
AcDbEntity
  8
DIM
100
AcDbDimension
  2
*D24
 10
12.65983816936996
 20
5.815366696294755
 30
0.0
 11
12.65983816936996
 21
6.239866696294757
 31
0.0
 70
    32
 71
     5
 42
0.8489999999999993
  3
23NSTD
100
AcDbAlignedDimension
 13
12.27026839674718
 23
6.664366696294754
 33
0.0
 14
11.99553126064867
 24
5.815366696294755
 34
0.0
 50
90.0
100
AcDbRotatedDimension
  0
LINE
  5
3A03
330
1F
100
AcDbEntity
  8
HIDDEN
100
AcDbLine
 10
13.27316903558281
 20
8.9328415017257
 30
0.0
 11
13.27316903558281
 21
7.700841501725705
 31
0.0
  0
LINE
  5
3A04
330
1F
100
AcDbEntity
  8
OBJECT
100
AcDbLine
 10
14.02016903558281
 20
7.254578637824208
 30
0.0
 11
14.02016903558281
 21
8.959104365627192
 31
0.0
  0
LINE
  5
3A05
330
1F
100
AcDbEntity
  8
HIDDEN
100
AcDbLine
 10
13.94906783360537
 20
7.343639359130088
 30
0.0
 11
13.94916903558281
 21
8.870041877834225
 31
0.0
  0
LINE
  5
3A07
330
1F
100
AcDbEntity
  8
HIDDEN
100
AcDbLine
 10
13.27316903558281
 20
7.490841501725704
 30
0.0
 11
13.27316903558281
 21
7.2808415017257
 31
0.0
  0
LINE
  5
3A08
330
1F
100
AcDbEntity
  8
HIDDEN
100
AcDbLine
 10
13.27316903558281
 20
7.331841501725701
 30
0.0
 11
13.94906783360537
 21
7.343639359130088
 31
0.0
  0
LINE
  5
3A09
330
1F
100
AcDbEntity
  8
OBJECT
100
AcDbLine
 10
13.23316903558281
 20
7.240841501725701
 30
0.0
 11
14.02016903558281
 21
7.254578637824208
 31
0.0
  0
LWPOLYLINE
  5
3A0A
330
1F
100
AcDbEntity
  8
HIDDEN
100
AcDbPolyline
 90
        4
 70
     0
 43
0.0
 10
13.27316903558281
 20
7.3008415017257
 10
13.44316903558281
 20
7.3008415017257
 10
13.44316903558281
 20
7.380841501725702
 10
13.27316903558281
 20
7.380841501725702
  0
LINE
  5
3A0B
330
1F
100
AcDbEntity
  8
HIDDEN
100
AcDbLine
 10
13.23316903558281
 20
7.2808415017257
 30
0.0
 11
13.27316903558281
 21
7.2808415017257
 31
0.0
  0
LINE
  5
3A0C
330
1F
100
AcDbEntity
  8
HIDDEN
100
AcDbLine
 10
13.94916903558281
 20
8.870041877834225
 30
0.0
 11
13.27316903558281
 21
8.8818415017257
 31
0.0
  0
LINE
  5
3A0D
330
1F
100
AcDbEntity
  8
HIDDEN
100
AcDbLine
 10
13.94916903558281
 20
8.722841501725698
 30
0.0
 11
13.3451690355828
 21
8.722841501725698
 31
0.0
  0
LINE
  5
3A0E
330
1F
100
AcDbEntity
  8
HIDDEN
100
AcDbLine
 10
13.94916903558281
 20
7.490841501725704
 30
0.0
 11
13.3451690355828
 21
7.490841501725704
 31
0.0
  0
LINE
  5
3A0F
330
1F
100
AcDbEntity
  8
OBJECT
100
AcDbLine
 10
13.2951690355828
 20
8.003841501725702
 30
0.0
 11
13.2951690355828
 21
8.209841501725701
 31
0.0
  0
LWPOLYLINE
  5
3A10
330
1F
100
AcDbEntity
  8
OBJECT
100
AcDbPolyline
 90
        4
 70
     0
 43
0.0
 10
13.23316903558281
 20
7.426841501725705
 10
13.29116903558281
 20
7.426841501725704
 42
1.000000000000013
 10
13.29116903558281
 20
7.690841501725703
 10
13.23316903558281
 20
7.690841501725701
  0
LWPOLYLINE
  5
3A11
330
1F
100
AcDbEntity
  8
OBJECT
100
AcDbPolyline
 90
        4
 70
     0
 43
0.0
 10
13.23316903558281
 20
7.490841501725704
 10
13.29116903558281
 20
7.490841501725704
 42
1.0
 10
13.29116903558281
 20
7.626841501725703
 10
13.23316903558281
 20
7.626841501725701
  0
ARC
  5
3A12
330
1F
100
AcDbEntity
  8
OBJECT
100
AcDbCircle
 10
13.23316903558281
 20
8.003841501725702
 30
0.0
 40
0.062
100
AcDbArc
 50
270.0
 51
0.0
  0
LWPOLYLINE
  5
3A13
330
1F
100
AcDbEntity
  8
OBJECT
100
AcDbPolyline
 90
        4
 70
     0
 43
0.0
 10
13.23316903558281
 20
8.786841501725696
 10
13.29116903558281
 20
8.786841501725696
 42
-1.000000000000013
 10
13.29116903558281
 20
8.522841501725697
 10
13.23316903558281
 20
8.522841501725698
  0
ARC
  5
3A14
330
1F
100
AcDbEntity
  8
OBJECT
100
AcDbCircle
 10
13.23316903558281
 20
8.209841501725701
 30
0.0
 40
0.062
100
AcDbArc
 50
0.0
 51
90.0
  0
LWPOLYLINE
  5
3A15
330
1F
100
AcDbEntity
  8
OBJECT
100
AcDbPolyline
 90
        4
 70
     0
 43
0.0
 10
13.23316903558281
 20
8.722841501725696
 10
13.29116903558281
 20
8.722841501725696
 42
-1.0
 10
13.29116903558281
 20
8.586841501725697
 10
13.23316903558281
 20
8.586841501725698
  0
LWPOLYLINE
  5
3A16
330
1F
100
AcDbEntity
  8
HIDDEN
100
AcDbPolyline
 90
        4
 70
     0
 43
0.0
 10
13.27316903558281
 20
8.832841501725699
 10
13.44316903558281
 20
8.832841501725699
 10
13.44316903558281
 20
8.912841501725701
 10
13.27316903558281
 20
8.912841501725701
  0
LINE
  5
3A17
330
1F
100
AcDbEntity
  8
OBJECT
100
AcDbLine
 10
14.02016903558281
 20
8.959104365627192
 30
0.0
 11
13.23316903558281
 21
8.972841501725699
 31
0.0
  0
LINE
  5
3A18
330
1F
100
AcDbEntity
  8
HIDDEN
100
AcDbLine
 10
13.23316903558281
 20
8.9328415017257
 30
0.0
 11
13.27316903558281
 21
8.9328415017257
 31
0.0
  0
DIMENSION
  5
3A1B
330
1F
100
AcDbEntity
  8
DIM
100
AcDbDimension
  2
*D25
 10
14.12555462457197
 20
3.401863202386412
 30
0.0
 11
13.69149212457196
 21
3.041863202386414
 31
0.0
 70
    32
 71
     5
 42
0.1359999999999975
  3
23NSTD
100
AcDbAlignedDimension
 13
14.3460632373036
 23
3.537863202386409
 33
0.0
 14
14.3460632373036
 24
3.401863202386412
 34
0.0
 50
90.0
100
AcDbRotatedDimension
  0
DIMENSION
  5
3A2A
330
1F
100
AcDbEntity
  8
DIM
100
AcDbDimension
  2
*D26
 10
14.4720632373036
 20
2.786872163230427
 30
0.0
 11
15.08612573730359
 21
2.786872163230427
 31
0.0
 70
    32
 71
     5
 42
0.1259999999999994
  3
23NSTD
100
AcDbAlignedDimension
 13
14.3460632373036
 23
3.151863202386409
 33
0.0
 14
14.4720632373036
 24
3.469863202386411
 34
0.0
100
AcDbRotatedDimension
  0
LINE
  5
3A58
330
1F
100
AcDbEntity
  8
HIDDEN
100
AcDbLine
 10
11.75921678384395
 20
8.8818415017257
 30
0.0
 11
11.92026839674718
 21
8.722841501725698
 31
0.0
  0
LINE
  5
3A59
330
1F
100
AcDbEntity
  8
HIDDEN
100
AcDbLine
 10
11.92026839674718
 20
7.490841501725704
 30
0.0
 11
11.92026839674718
 21
8.722841501725698
 31
0.0
  0
LINE
  5
3A5A
330
1F
100
AcDbEntity
  8
HIDDEN
100
AcDbLine
 10
11.96926839674717
 20
7.626841501725705
 30
0.0
 11
11.96926839674717
 21
8.586841501725695
 31
0.0
  0
LINE
  5
3A5B
330
1F
100
AcDbEntity
  8
HIDDEN
100
AcDbLine
 10
11.92026839674718
 20
8.722841501725696
 30
0.0
 11
12.16926839674718
 21
8.722841501725696
 31
0.0
  0
LINE
  5
3A5C
330
1F
100
AcDbEntity
  8
HIDDEN
100
AcDbLine
 10
11.92026839674718
 20
8.586841501725695
 30
0.0
 11
12.16926839674718
 21
8.586841501725695
 31
0.0
  0
LINE
  5
3A5D
330
1F
100
AcDbEntity
  8
HIDDEN
100
AcDbLine
 10
11.75921678384395
 20
7.331841501725701
 30
0.0
 11
11.92026839674718
 21
7.490841501725704
 31
0.0
  0
LINE
  5
3A5E
330
1F
100
AcDbEntity
  8
HIDDEN
100
AcDbLine
 10
11.92026839674718
 20
7.490841501725704
 30
0.0
 11
12.16926839674718
 21
7.490841501725704
 31
0.0
  0
LINE
  5
3A5F
330
1F
100
AcDbEntity
  8
HIDDEN
100
AcDbLine
 10
11.92026839674718
 20
7.626841501725705
 30
0.0
 11
12.16926839674718
 21
7.626841501725705
 31
0.0
  0
LINE
  5
3A60
330
1F
100
AcDbEntity
  8
HIDDEN
100
AcDbLine
 10
11.75921678384395
 20
7.331841501725701
 30
0.0
 11
9.425320009650405
 21
7.331841501725701
 31
0.0
  0
LINE
  5
3A61
330
1F
100
AcDbEntity
  8
HIDDEN
100
AcDbLine
 10
9.21526839674718
 20
7.280841501725701
 30
0.0
 11
11.96926839674717
 21
7.280841501725701
 31
0.0
  0
LINE
  5
3A62
330
1F
100
AcDbEntity
  8
HIDDEN
100
AcDbLine
 10
11.96926839674717
 20
7.280841501725701
 30
0.0
 11
11.96926839674717
 21
7.490841501725704
 31
0.0
  0
LINE
  5
3A63
330
1F
100
AcDbEntity
  8
HIDDEN
100
AcDbLine
 10
11.96926839674717
 20
8.932841501725699
 30
0.0
 11
11.96926839674717
 21
8.722841501725696
 31
0.0
  0
LINE
  5
3A64
330
1F
100
AcDbEntity
  8
HIDDEN
100
AcDbLine
 10
11.96926839674717
 20
8.9328415017257
 30
0.0
 11
9.21526839674718
 21
8.9328415017257
 31
0.0
  0
LINE
  5
3A65
330
1F
100
AcDbEntity
  8
HIDDEN
100
AcDbLine
 10
11.75921678384395
 20
8.8818415017257
 30
0.0
 11
9.425320009650405
 21
8.8818415017257
 31
0.0
  0
LINE
  5
3A66
330
1F
100
AcDbEntity
  8
HIDDEN
100
AcDbLine
 10
9.425320009650405
 20
8.8818415017257
 30
0.0
 11
9.26426839674718
 21
8.722841501725698
 31
0.0
  0
LINE
  5
3A67
330
1F
100
AcDbEntity
  8
HIDDEN
100
AcDbLine
 10
9.21526839674718
 20
8.9328415017257
 30
0.0
 11
9.21526839674718
 21
7.710841501725704
 31
0.0
  0
LINE
  5
3A68
330
1F
100
AcDbEntity
  8
HIDDEN
100
AcDbLine
 10
9.26426839674718
 20
7.490841501725704
 30
0.0
 11
9.26426839674718
 21
8.722841501725698
 31
0.0
  0
LINE
  5
3A69
330
1F
100
AcDbEntity
  8
HIDDEN
100
AcDbLine
 10
9.21526839674718
 20
7.490841501725704
 30
0.0
 11
9.21526839674718
 21
7.280841501725701
 31
0.0
  0
LINE
  5
3A6A
330
1F
100
AcDbEntity
  8
HIDDEN
100
AcDbLine
 10
9.425320009650405
 20
7.331841501725701
 30
0.0
 11
9.26426839674718
 21
7.490841501725704
 31
0.0
  0
LINE
  5
3A6B
330
1F
100
AcDbEntity
  8
HIDDEN
100
AcDbLine
 10
9.26426839674718
 20
7.490841501725704
 30
0.0
 11
9.015268396747178
 21
7.490841501725704
 31
0.0
  0
LINE
  5
3A6C
330
1F
100
AcDbEntity
  8
HIDDEN
100
AcDbLine
 10
9.26426839674718
 20
7.710841501725704
 30
0.0
 11
9.015268396747178
 21
7.710841501725704
 31
0.0
  0
LWPOLYLINE
  5
3A74
330
1F
100
AcDbEntity
  8
HIDDEN
100
AcDbPolyline
 90
        4
 70
     0
 43
0.0
 10
7.810154555446199
 20
4.743863202386407
 10
7.640154555446198
 20
4.743863202386407
 10
7.640154555446198
 20
4.823863202386409
 10
7.810154555446199
 20
4.823863202386409
  0
LWPOLYLINE
  5
3A75
330
1F
100
AcDbEntity
  8
HIDDEN
100
AcDbPolyline
 90
        4
 70
     0
 43
0.0
 10
7.810154555446199
 20
3.211863202386408
 10
7.640154555446198
 20
3.211863202386408
 10
7.640154555446198
 20
3.29186320238641
 10
7.810154555446199
 20
3.29186320238641
  0
LINE
  5
3A76
330
1F
100
AcDbEntity
  8
OBJECT
100
AcDbLine
 10
7.16436775791155
 20
8.959104365627192
 30
0.0
 11
7.951367757911549
 21
8.972841501725699
 31
0.0
  0
LINE
  5
3A77
330
1F
100
AcDbEntity
  8
HIDDEN
100
AcDbLine
 10
7.235367757911548
 20
7.490841501725704
 30
0.0
 11
7.839367757911551
 21
7.490841501725704
 31
0.0
  0
LINE
  5
3A78
330
1F
100
AcDbEntity
  8
HIDDEN
100
AcDbLine
 10
7.235367757911548
 20
8.722841501725698
 30
0.0
 11
7.91136775791155
 21
8.722841501725699
 31
0.0
  0
LINE
  5
3A79
330
1F
100
AcDbEntity
  8
HIDDEN
100
AcDbLine
 10
7.235367757911548
 20
8.870041877834225
 30
0.0
 11
7.91136775791155
 21
8.8818415017257
 31
0.0
  0
LINE
  5
3A7A
330
1F
100
AcDbEntity
  8
OBJECT
100
AcDbLine
 10
7.951367757911549
 20
7.240841501725701
 30
0.0
 11
7.16436775791155
 21
7.254578637824208
 31
0.0
  0
LINE
  5
3A7B
330
1F
100
AcDbEntity
  8
HIDDEN
100
AcDbLine
 10
7.91136775791155
 20
7.331841501725701
 30
0.0
 11
7.235468959888985
 21
7.343639359130088
 31
0.0
  0
LINE
  5
3A7C
330
1F
100
AcDbEntity
  8
HIDDEN
100
AcDbLine
 10
7.91136775791155
 20
8.9328415017257
 30
0.0
 11
7.91136775791155
 21
7.700841501725705
 31
0.0
  0
LINE
  5
3A7D
330
1F
100
AcDbEntity
  8
OBJECT
100
AcDbLine
 10
8.013367757911549
 20
8.910841501725702
 30
0.0
 11
8.013367757911549
 21
7.3028415017257
 31
0.0
  0
LINE
  5
3A7E
330
1F
100
AcDbEntity
  8
OBJECT
100
AcDbLine
 10
7.951367757911548
 20
8.972841501725703
 30
0.0
 11
7.951367757911548
 21
7.240841501725702
 31
0.0
  0
LINE
  5
3A80
330
1F
100
AcDbEntity
  8
HIDDEN
100
AcDbLine
 10
7.91136775791155
 20
7.490841501725704
 30
0.0
 11
7.91136775791155
 21
7.2808415017257
 31
0.0
  0
ARC
  5
3A81
330
1F
100
AcDbEntity
  8
OBJECT
100
AcDbCircle
 10
7.951367757911548
 20
7.3028415017257
 30
0.0
 40
0.062
100
AcDbArc
 50
270.0
 51
359.9999999999999
  0
LINE
  5
3A82
330
1F
100
AcDbEntity
  8
HIDDEN
100
AcDbLine
 10
7.951367757911549
 20
7.2808415017257
 30
0.0
 11
7.91136775791155
 21
7.2808415017257
 31
0.0
  0
LINE
  5
3A83
330
1F
100
AcDbEntity
  8
OBJECT
100
AcDbLine
 10
7.951367757911548
 20
7.240841501725702
 30
0.0
 11
7.951367757911548
 21
7.240841501725702
 31
0.0
  0
LWPOLYLINE
  5
3A84
330
1F
100
AcDbEntity
  8
HIDDEN
100
AcDbPolyline
 90
        4
 70
     0
 43
0.0
 10
7.91136775791155
 20
7.3008415017257
 10
7.741367757911548
 20
7.3008415017257
 10
7.741367757911548
 20
7.380841501725702
 10
7.91136775791155
 20
7.380841501725702
  0
LWPOLYLINE
  5
3A85
330
1F
100
AcDbEntity
  8
HIDDEN
100
AcDbPolyline
 90
        5
 70
     0
 43
0.0
 10
7.951367757911551
 20
7.380841501725704
 10
7.804085725608793
 20
7.380841501725704
 10
7.79336775791155
 20
7.340841501725702
 10
7.804085725608793
 20
7.300841501725701
 10
7.951367757911551
 20
7.300841501725701
  0
LINE
  5
3A87
330
1F
100
AcDbEntity
  8
HIDDEN
100
AcDbLine
 10
7.804085725608793
 20
7.300841501725701
 30
0.0
 11
7.804085725608793
 21
7.380841501725704
 31
0.0
  0
ARC
  5
3A8C
330
1F
100
AcDbEntity
  8
OBJECT
100
AcDbCircle
 10
7.951367757911549
 20
8.209841501725701
 30
0.0
 40
0.062
100
AcDbArc
 50
90.0
 51
180.0
  0
ARC
  5
3A8D
330
1F
100
AcDbEntity
  8
OBJECT
100
AcDbCircle
 10
7.951367757911548
 20
8.209841501725701
 30
0.0
 40
0.062
100
AcDbArc
 50
0.000000000000007
 51
90.0
  0
ARC
  5
3A8E
330
1F
100
AcDbEntity
  8
OBJECT
100
AcDbCircle
 10
7.951367757911548
 20
8.003841501725702
 30
0.0
 40
0.062
100
AcDbArc
 50
270.0
 51
0.000000000000007
  0
LINE
  5
3A8F
330
1F
100
AcDbEntity
  8
OBJECT
100
AcDbLine
 10
7.889367757911552
 20
8.003841501725702
 30
0.0
 11
7.889367757911552
 21
8.209841501725701
 31
0.0
  0
ARC
  5
3A90
330
1F
100
AcDbEntity
  8
OBJECT
100
AcDbCircle
 10
7.951367757911549
 20
8.003841501725702
 30
0.0
 40
0.062
100
AcDbArc
 50
180.0
 51
270.0
  0
ARC
  5
3A92
330
1F
100
AcDbEntity
  8
OBJECT
100
AcDbCircle
 10
7.951367757911548
 20
8.910841501725704
 30
0.0
 40
0.062
100
AcDbArc
 50
359.9999999999999
 51
90.0
  0
LWPOLYLINE
  5
3A94
330
1F
100
AcDbEntity
  8
HIDDEN
100
AcDbPolyline
 90
        4
 70
     0
 43
0.0
 10
7.91136775791155
 20
8.832841501725699
 10
7.741367757911548
 20
8.832841501725699
 10
7.741367757911548
 20
8.912841501725701
 10
7.91136775791155
 20
8.912841501725701
  0
LWPOLYLINE
  5
3A95
330
1F
100
AcDbEntity
  8
HIDDEN
100
AcDbPolyline
 90
        5
 70
     0
 43
0.0
 10
7.951367757911548
 20
8.832841501725702
 10
7.804085725608793
 20
8.832841501725701
 10
7.79336775791155
 20
8.8728415017257
 10
7.804085725608793
 20
8.912841501725699
 10
7.951367757911548
 20
8.912841501725701
  0
LINE
  5
3A96
330
1F
100
AcDbEntity
  8
HIDDEN
100
AcDbLine
 10
7.951367757911549
 20
8.9328415017257
 30
0.0
 11
7.91136775791155
 21
8.9328415017257
 31
0.0
  0
LINE
  5
3A97
330
1F
100
AcDbEntity
  8
OBJECT
100
AcDbLine
 10
7.951367757911548
 20
8.972841501725703
 30
0.0
 11
7.951367757911548
 21
8.972841501725703
 31
0.0
  0
LINE
  5
3A98
330
1F
100
AcDbEntity
  8
HIDDEN
100
AcDbLine
 10
7.804085725608793
 20
8.912841501725699
 30
0.0
 11
7.804085725608793
 21
8.832841501725701
 31
0.0
  0
LINE
  5
3A99
330
1F
100
AcDbEntity
  8
HIDDEN
100
AcDbLine
 10
7.235468959888985
 20
7.343639359130088
 30
0.0
 11
7.235367757911548
 21
8.870041877834225
 31
0.0
  0
LINE
  5
3A9A
330
1F
100
AcDbEntity
  8
OBJECT
100
AcDbLine
 10
7.16436775791155
 20
7.254578637824208
 30
0.0
 11
7.16436775791155
 21
8.959104365627192
 31
0.0
  0
LWPOLYLINE
  5
3A9B
330
1F
100
AcDbEntity
  8
OBJECT
100
AcDbPolyline
 90
        4
 70
     0
 43
0.0
 10
7.951367757911544
 20
7.490841501725703
 10
7.893367757911548
 20
7.490841501725703
 42
-1.0
 10
7.893367757911544
 20
7.626841501725702
 10
7.951367757911544
 20
7.6268415017257
  0
LWPOLYLINE
  5
3A9C
330
1F
100
AcDbEntity
  8
OBJECT
100
AcDbPolyline
 90
        6
 70
     0
 43
0.0
 10
7.951367757911548
 20
7.450841501725702
 10
7.802367757911547
 20
7.450841501725703
 42
-0.4142135623730943
 10
7.771367757911548
 20
7.481841501725702
 10
7.771367757911548
 20
7.719841501725702
 42
-0.4142135623730943
 10
7.802367757911547
 20
7.750841501725703
 10
7.951367757911548
 20
7.750841501725703
  0
LWPOLYLINE
  5
3A9D
330
1F
100
AcDbEntity
  8
OBJECT
100
AcDbPolyline
 90
        4
 70
     0
 43
0.0
 10
7.951367757911548
 20
7.490841501725701
 10
7.811367757911547
 20
7.490841501725701
 10
7.811367757911547
 20
7.710841501725703
 10
7.951367757911548
 20
7.710841501725703
  0
LWPOLYLINE
  5
3A9F
330
1F
100
AcDbEntity
  8
OBJECT
100
AcDbPolyline
 90
        3
 70
     0
 43
0.0
 10
8.013367757911549
 20
7.481841501725702
 42
-0.4142135623731035
 10
7.98236775791155
 20
7.450841501725702
 10
7.951367757911548
 20
7.450841501725702
  0
LWPOLYLINE
  5
3AA0
330
1F
100
AcDbEntity
  8
OBJECT
100
AcDbPolyline
 90
        3
 70
     0
 43
0.0
 10
7.951367757911548
 20
7.750841501725703
 10
7.98236775791155
 20
7.750841501725703
 42
-0.4142135623730951
 10
8.013367757911549
 20
7.719841501725702
  0
ENDSEC
  0
SECTION
  2
OBJECTS
  0
DICTIONARY
  5
C
330
0
100
AcDbDictionary
281
     1
  3
ACAD_GROUP
350
D
  3
ACAD_LAYOUT
350
1A
  3
ACAD_MLINESTYLE
350
17
  3
ACAD_PLOTSETTINGS
350
19
  3
ACAD_PLOTSTYLENAME
350
E
  3
AcadDim
350
29E1
  3
ASE_INDEX_DICTIONARY
350
274A
  0
DICTIONARY
  5
D
102
{ACAD_REACTORS
330
C
102
}
330
C
100
AcDbDictionary
281
     1
  0
DICTIONARY
  5
1A
102
{ACAD_REACTORS
330
C
102
}
330
C
100
AcDbDictionary
281
     1
  3
Layout1
350
1E
  3
Layout2
350
26
  3
Model
350
22
  0
DICTIONARY
  5
17
102
{ACAD_REACTORS
330
C
102
}
330
C
100
AcDbDictionary
281
     1
  3
Standard
350
18
  0
DICTIONARY
  5
19
102
{ACAD_REACTORS
330
C
102
}
330
C
100
AcDbDictionary
281
     1
  0
ACDBDICTIONARYWDFLT
  5
E
102
{ACAD_REACTORS
330
C
102
}
330
C
100
AcDbDictionary
281
     1
  3
Normal
350
F
100
AcDbDictionaryWithDefault
340
F
  0
XRECORD
  5
29E1
102
{ACAD_REACTORS
330
C
102
}
330
C
100
AcDbXrecord
280
     1
 90
   990106
  3

 60
     0
 61
     0
 62
     1
 63
     1
 64
     0
 65
     0
 66
     0
 67
     3
 68
     1
 69
     0
 70
     0
 71
     0
 72
     0
 40
0.0
170
     2
340
0
  0
DICTIONARY
  5
274A
102
{ACAD_REACTORS
330
C
102
}
330
C
100
AcDbDictionary
281
     1
  3
ASEBlockHierarchyIndexRecord
350
274B
1001
DCO15
1040
1461492688.108999
  0
LAYOUT
  5
1E
102
{ACAD_REACTORS
330
1A
102
}
330
1A
100
AcDbPlotSettings
  1

  2

  4

  6

 40
0.0
 41
0.0
 42
0.0
 43
0.0
 44
0.0
 45
0.0
 46
0.0
 47
0.0
 48
0.0
 49
0.0
140
0.0
141
0.0
142
1.0
143
1.0
 70
   688
 72
     0
 73
     0
 74
     5
  7
monochrome.ctb
 75
    16
147
1.0
148
0.0
149
0.0
100
AcDbLayout
  1
Layout1
 70
     1
 71
     1
 10
0.0
 20
0.0
 11
12.0
 21
9.0
 12
0.0
 22
0.0
 32
0.0
 14
1.000000000000000E+20
 24
1.000000000000000E+20
 34
1.000000000000000E+20
 15
-1.000000000000000E+20
 25
-1.000000000000000E+20
 35
-1.000000000000000E+20
146
0.0
 13
0.0
 23
0.0
 33
0.0
 16
1.0
 26
0.0
 36
0.0
 17
0.0
 27
1.0
 37
0.0
 76
     0
330
1B
  0
LAYOUT
  5
26
102
{ACAD_REACTORS
330
1A
102
}
330
1A
100
AcDbPlotSettings
  1

  2

  4

  6

 40
0.0
 41
0.0
 42
0.0
 43
0.0
 44
0.0
 45
0.0
 46
0.0
 47
0.0
 48
0.0
 49
0.0
140
0.0
141
0.0
142
1.0
143
1.0
 70
   688
 72
     0
 73
     0
 74
     5
  7
monochrome.ctb
 75
    16
147
1.0
148
0.0
149
0.0
100
AcDbLayout
  1
Layout2
 70
     1
 71
     2
 10
0.0
 20
0.0
 11
12.0
 21
9.0
 12
0.0
 22
0.0
 32
0.0
 14
0.0
 24
0.0
 34
0.0
 15
0.0
 25
0.0
 35
0.0
146
0.0
 13
0.0
 23
0.0
 33
0.0
 16
1.0
 26
0.0
 36
0.0
 17
0.0
 27
1.0
 37
0.0
 76
     0
330
23
  0
LAYOUT
  5
22
102
{ACAD_REACTORS
330
1A
102
}
330
1A
100
AcDbPlotSettings
  1

  2
Acrobat PDFWriter
  4
User256
  6

 40
3.174999952316284
 41
3.174999952316284
 42
3.17498779296875
 43
3.17498779296875
 44
431.8000183105469
 45
279.3999938964843
 46
0.0
 47
12.7
 48
0.0
 49
0.0
140
0.0
141
0.0
142
1.0
143
0.991105193489062
 70
 11956
 72
     0
 73
     0
 74
     1
  7
monochrome.ctb
 75
     0
147
1.008974634145165
148
0.012866449948551
149
0.0074873437652244
100
AcDbLayout
  1
Model
 70
     1
 71
     0
 10
0.0
 20
0.0
 11
12.0
 21
9.0
 12
0.0
 22
0.0
 32
0.0
 14
0.0
 24
0.0
 34
0.0
 15
0.0
 25
0.0
 35
0.0
146
0.0
 13
0.0
 23
0.0
 33
0.0
 16
1.0
 26
0.0
 36
0.0
 17
0.0
 27
1.0
 37
0.0
 76
     0
330
1F
  0
MLINESTYLE
  5
18
102
{ACAD_REACTORS
330
17
102
}
330
17
100
AcDbMlineStyle
  2
STANDARD
 70
     0
  3

 62
   256
 51
90.0
 52
90.0
 71
     2
 49
0.5
 62
   256
  6
BYLAYER
 49
-0.5
 62
   256
  6
BYLAYER
  0
ACDBPLACEHOLDER
  5
F
102
{ACAD_REACTORS
330
E
102
}
330
E
  0
XRECORD
  5
274B
102
{ACAD_REACTORS
330
274A
102
}
330
274A
100
AcDbXrecord
280
     1
330
81
330
0
330
0
330
0
330
0
330
0
330
0
330
0
330
0
330
0
330
0
330
0
330
0
330
0
330
0
  0
ENDSEC
  0
EOF
