  0
SECTION
  2
HEADER
  9
$ACADVER
  1
AC1015
  9
$ACADMAINTVER
 70
     6
  9
$DWGCODEPAGE
  3
ANSI_1252
  9
$INSBASE
 10
0.0
 20
0.0
 30
0.0
  9
$EXTMIN
 10
0.0
 20
0.0
 30
0.0
  9
$EXTMAX
 10
20.75
 20
12.07499999999999
 30
0.0
  9
$LIMMIN
 10
0.0
 20
0.0
  9
$LIMMAX
 10
12.0
 20
9.0
  9
$ORTHOMODE
 70
     1
  9
$REGENMODE
 70
     1
  9
$FILLMODE
 70
     1
  9
$QTEXTMODE
 70
     0
  9
$MIRRTEXT
 70
     0
  9
$LTSCALE
 40
0.4379999999999999
  9
$ATTMODE
 70
     1
  9
$TEXTSIZE
 40
0.156
  9
$TRACEWID
 40
0.05
  9
$TEXTSTYLE
  7
TXT
  9
$CLAYER
  8
DIM
  9
$CELTYPE
  6
ByLayer
  9
$CECOLOR
 62
   256
  9
$CELTSCALE
 40
1.0
  9
$DISPSILH
 70
     0
  9
$DIMSCALE
 40
1.25
  9
$DIMASZ
 40
0.18
  9
$DIMEXO
 40
0.063
  9
$DIMDLI
 40
0.281
  9
$DIMRND
 40
0.0
  9
$DIMDLE
 40
0.0
  9
$DIMEXE
 40
0.093
  9
$DIMTP
 40
0.0
  9
$DIMTM
 40
0.0
  9
$DIMTXT
 40
0.125
  9
$DIMCEN
 40
0.09
  9
$DIMTSZ
 40
0.0
  9
$DIMTOL
 70
     0
  9
$DIMLIM
 70
     0
  9
$DIMTIH
 70
     1
  9
$DIMTOH
 70
     1
  9
$DIMSE1
 70
     0
  9
$DIMSE2
 70
     0
  9
$DIMTAD
 70
     0
  9
$DIMZIN
 70
     0
  9
$DIMBLK
  1

  9
$DIMASO
 70
     1
  9
$DIMSHO
 70
     1
  9
$DIMPOST
  1

  9
$DIMAPOST
  1

  9
$DIMALT
 70
     0
  9
$DIMALTD
 70
     2
  9
$DIMALTF
 40
25.4
  9
$DIMLFAC
 40
1.0
  9
$DIMTOFL
 70
     0
  9
$DIMTVP
 40
0.0
  9
$DIMTIX
 70
     0
  9
$DIMSOXD
 70
     0
  9
$DIMSAH
 70
     0
  9
$DIMBLK1
  1

  9
$DIMBLK2
  1

  9
$DIMSTYLE
  2
23NSTD
  9
$DIMCLRD
 70
     0
  9
$DIMCLRE
 70
     0
  9
$DIMCLRT
 70
     0
  9
$DIMTFAC
 40
1.0
  9
$DIMGAP
 40
0.09
  9
$DIMJUST
 70
     0
  9
$DIMSD1
 70
     0
  9
$DIMSD2
 70
     0
  9
$DIMTOLJ
 70
     1
  9
$DIMTZIN
 70
     0
  9
$DIMALTZ
 70
     0
  9
$DIMALTTZ
 70
     0
  9
$DIMUPT
 70
     0
  9
$DIMDEC
 70
     3
  9
$DIMTDEC
 70
     3
  9
$DIMALTU
 70
     2
  9
$DIMALTTD
 70
     2
  9
$DIMTXSTY
  7
TXT
  9
$DIMAUNIT
 70
     0
  9
$DIMADEC
 70
     0
  9
$DIMALTRND
 40
0.0
  9
$DIMAZIN
 70
     0
  9
$DIMDSEP
 70
    46
  9
$DIMATFIT
 70
     1
  9
$DIMFRAC
 70
     0
  9
$DIMLDRBLK
  1

  9
$DIMLUNIT
 70
     2
  9
$DIMLWD
 70
    -2
  9
$DIMLWE
 70
    -2
  9
$DIMTMOVE
 70
     0
  9
$LUNITS
 70
     2
  9
$LUPREC
 70
     3
  9
$SKETCHINC
 40
0.1
  9
$FILLETRAD
 40
0.093
  9
$AUNITS
 70
     0
  9
$AUPREC
 70
     0
  9
$MENU
  1
.
  9
$ELEVATION
 40
0.0
  9
$PELEVATION
 40
0.0
  9
$THICKNESS
 40
0.0
  9
$LIMCHECK
 70
     0
  9
$CHAMFERA
 40
0.5
  9
$CHAMFERB
 40
0.5
  9
$CHAMFERC
 40
1.0
  9
$CHAMFERD
 40
0.0
  9
$SKPOLY
 70
     0
  9
$TDCREATE
 40
2452720.450970590
  9
$TDUCREATE
 40
2452720.617637257
  9
$TDUPDATE
 40
2452901.314067199
  9
$TDUUPDATE
 40
2452901.480733866
  9
$TDINDWG
 40
0.5314496296
  9
$TDUSRTIMER
 40
0.5314496296
  9
$USRTIMER
 70
     1
  9
$ANGBASE
 50
0.0
  9
$ANGDIR
 70
     0
  9
$PDMODE
 70
     0
  9
$PDSIZE
 40
0.0
  9
$PLINEWID
 40
0.0
  9
$SPLFRAME
 70
     0
  9
$SPLINETYPE
 70
     6
  9
$SPLINESEGS
 70
     8
  9
$HANDSEED
  5
EAD
  9
$SURFTAB1
 70
     6
  9
$SURFTAB2
 70
     6
  9
$SURFTYPE
 70
     6
  9
$SURFU
 70
     6
  9
$SURFV
 70
     6
  9
$UCSBASE
  2

  9
$UCSNAME
  2

  9
$UCSORG
 10
0.0
 20
0.0
 30
0.0
  9
$UCSXDIR
 10
1.0
 20
0.0
 30
0.0
  9
$UCSYDIR
 10
0.0
 20
1.0
 30
0.0
  9
$UCSORTHOREF
  2

  9
$UCSORTHOVIEW
 70
     0
  9
$UCSORGTOP
 10
0.0
 20
0.0
 30
0.0
  9
$UCSORGBOTTOM
 10
0.0
 20
0.0
 30
0.0
  9
$UCSORGLEFT
 10
0.0
 20
0.0
 30
0.0
  9
$UCSORGRIGHT
 10
0.0
 20
0.0
 30
0.0
  9
$UCSORGFRONT
 10
0.0
 20
0.0
 30
0.0
  9
$UCSORGBACK
 10
0.0
 20
0.0
 30
0.0
  9
$PUCSBASE
  2

  9
$PUCSNAME
  2

  9
$PUCSORG
 10
0.0
 20
0.0
 30
0.0
  9
$PUCSXDIR
 10
1.0
 20
0.0
 30
0.0
  9
$PUCSYDIR
 10
0.0
 20
1.0
 30
0.0
  9
$PUCSORTHOREF
  2

  9
$PUCSORTHOVIEW
 70
     0
  9
$PUCSORGTOP
 10
0.0
 20
0.0
 30
0.0
  9
$PUCSORGBOTTOM
 10
0.0
 20
0.0
 30
0.0
  9
$PUCSORGLEFT
 10
0.0
 20
0.0
 30
0.0
  9
$PUCSORGRIGHT
 10
0.0
 20
0.0
 30
0.0
  9
$PUCSORGFRONT
 10
0.0
 20
0.0
 30
0.0
  9
$PUCSORGBACK
 10
0.0
 20
0.0
 30
0.0
  9
$USERI1
 70
     0
  9
$USERI2
 70
     0
  9
$USERI3
 70
     0
  9
$USERI4
 70
     0
  9
$USERI5
 70
     0
  9
$USERR1
 40
0.0
  9
$USERR2
 40
0.0
  9
$USERR3
 40
0.0
  9
$USERR4
 40
0.0
  9
$USERR5
 40
0.0
  9
$WORLDVIEW
 70
     1
  9
$SHADEDGE
 70
     3
  9
$SHADEDIF
 70
    70
  9
$TILEMODE
 70
     1
  9
$MAXACTVP
 70
    64
  9
$PINSBASE
 10
0.0
 20
0.0
 30
0.0
  9
$PLIMCHECK
 70
     0
  9
$PEXTMIN
 10
1.000000000000000E+20
 20
1.000000000000000E+20
 30
1.000000000000000E+20
  9
$PEXTMAX
 10
-1.000000000000000E+20
 20
-1.000000000000000E+20
 30
-1.000000000000000E+20
  9
$PLIMMIN
 10
0.0
 20
0.0
  9
$PLIMMAX
 10
12.0
 20
9.0
  9
$UNITMODE
 70
     0
  9
$VISRETAIN
 70
     1
  9
$PLINEGEN
 70
     0
  9
$PSLTSCALE
 70
     1
  9
$TREEDEPTH
 70
  3020
  9
$CMLSTYLE
  2
Standard
  9
$CMLJUST
 70
     0
  9
$CMLSCALE
 40
1.0
  9
$PROXYGRAPHICS
 70
     1
  9
$MEASUREMENT
 70
     0
  9
$CELWEIGHT
370
    -1
  9
$ENDCAPS
280
     0
  9
$JOINSTYLE
280
     0
  9
$LWDISPLAY
290
     0
  9
$INSUNITS
 70
     1
  9
$HYPERLINKBASE
  1

  9
$STYLESHEET
  1
monochrome.ctb
  9
$XEDIT
290
     1
  9
$CEPSNTYPE
380
     0
  9
$PSTYLEMODE
290
     1
  9
$FINGERPRINTGUID
  2
{FDEAD576-A652-11D2-9A35-0060089B3A3F}
  9
$VERSIONGUID
  2
{5C47D1C6-E9CB-11D7-8525-00C04F604D21}
  9
$EXTNAMES
290
     1
  9
$PSVPSCALE
 40
0.0
  9
$OLESTARTUP
290
     0
  0
ENDSEC
  0
SECTION
  2
CLASSES
  0
CLASS
  1
ACDBDICTIONARYWDFLT
  2
AcDbDictionaryWithDefault
  3
AutoCAD 2000
 90
        0
280
     0
281
     0
  0
CLASS
  1
ACDBPLACEHOLDER
  2
AcDbPlaceHolder
  3
AutoCAD 2000
 90
        0
280
     0
281
     0
  0
CLASS
  1
LAYOUT
  2
AcDbLayout
  3
AutoCAD 2000
 90
        0
280
     0
281
     0
  0
ENDSEC
  0
SECTION
  2
TABLES
  0
TABLE
  2
VPORT
  5
8
330
0
100
AcDbSymbolTable
 70
     2
  0
VPORT
  5
EAC
330
8
100
AcDbSymbolTableRecord
100
AcDbViewportTableRecord
  2
*Active
 70
     0
 10
0.0
 20
0.0
 11
1.0
 21
1.0
 12
10.3749927736772
 22
6.068660169447709
 13
0.0
 23
0.0
 14
0.5
 24
0.5
 15
0.5
 25
0.5
 16
0.0
 26
0.0
 36
1.0
 17
0.0
 27
0.0
 37
0.0
 40
12.27951551943814
 41
1.870841487279843
 42
50.0
 43
0.0
 44
0.0
 50
0.0
 51
0.0
 71
     0
 72
   100
 73
     1
 74
     2
 75
     0
 76
     0
 77
     0
 78
     0
281
     0
 65
     1
110
0.0
120
0.0
130
0.0
111
1.0
121
0.0
131
0.0
112
0.0
122
1.0
132
0.0
 79
     0
146
0.0
  0
ENDTAB
  0
TABLE
  2
LTYPE
  5
5
330
0
100
AcDbSymbolTable
 70
     7
  0
LTYPE
  5
14
330
5
100
AcDbSymbolTableRecord
100
AcDbLinetypeTableRecord
  2
ByBlock
 70
     0
  3

 72
    65
 73
     0
 40
0.0
  0
LTYPE
  5
15
330
5
100
AcDbSymbolTableRecord
100
AcDbLinetypeTableRecord
  2
ByLayer
 70
     0
  3

 72
    65
 73
     0
 40
0.0
  0
LTYPE
  5
16
330
5
100
AcDbSymbolTableRecord
100
AcDbLinetypeTableRecord
  2
Continuous
 70
     0
  3
Solid line
 72
    65
 73
     0
 40
0.0
  0
LTYPE
  5
48
330
5
100
AcDbSymbolTableRecord
100
AcDbLinetypeTableRecord
  2
HIDDEN
 70
     0
  3
_ _ _ _ _ _ _ _ _ _ _ _ _ _ _ _ _ _ _ _ _ _ _
 72
    65
 73
     2
 40
0.375
 49
0.25
 74
     0
 49
-0.125
 74
     0
  0
LTYPE
  5
49
330
5
100
AcDbSymbolTableRecord
100
AcDbLinetypeTableRecord
  2
PHANTOM
 70
     0
  3
_____ _ _ _____ _ _ _____ _ _ _____ _ _ ____
 72
    65
 73
     6
 40
2.5
 49
1.25
 74
     0
 49
-0.25
 74
     0
 49
0.25
 74
     0
 49
-0.25
 74
     0
 49
0.25
 74
     0
 49
-0.25
 74
     0
  0
LTYPE
  5
4A
330
5
100
AcDbSymbolTableRecord
100
AcDbLinetypeTableRecord
  2
CENTER
 70
     0
  3
____ _ ____ _ ____ _ ____ _ ____ _ ____ _ ____
 72
    65
 73
     4
 40
2.0
 49
1.25
 74
     0
 49
-0.25
 74
     0
 49
0.25
 74
     0
 49
-0.25
 74
     0
  0
LTYPE
  5
4B
330
5
100
AcDbSymbolTableRecord
100
AcDbLinetypeTableRecord
  2
HIDDEN2
 70
     0
  3
_ _ _ _ _ _ _ _ _ _ _ _ _ _ _ _ _ _ _ _ _ _ _ _
 72
    65
 73
     2
 40
0.1875
 49
0.125
 74
     0
 49
-0.0625
 74
     0
  0
LTYPE
  5
4C
330
5
100
AcDbSymbolTableRecord
100
AcDbLinetypeTableRecord
  2
PHANTOM2
 70
     0
  3
___ _ _ ___ _ _ ___ _ _ ___ _ _ ___ _ _ ___ _ _
 72
    65
 73
     6
 40
1.25
 49
0.625
 74
     0
 49
-0.125
 74
     0
 49
0.125
 74
     0
 49
-0.125
 74
     0
 49
0.125
 74
     0
 49
-0.125
 74
     0
  0
LTYPE
  5
26F
330
5
100
AcDbSymbolTableRecord
100
AcDbLinetypeTableRecord
  2
CENTER2
 70
     0
  3
Center (.5x) ___ _ ___ _ ___ _ ___ _ ___ _ ___
 72
    65
 73
     4
 40
1.125
 49
0.75
 74
     0
 49
-0.125
 74
     0
 49
0.125
 74
     0
 49
-0.125
 74
     0
  0
ENDTAB
  0
TABLE
  2
LAYER
  5
2
330
0
100
AcDbSymbolTable
 70
     9
  0
LAYER
  5
10
330
2
100
AcDbSymbolTableRecord
100
AcDbLayerTableRecord
  2
0
 70
     0
 62
     7
  6
Continuous
370
    -3
390
F
  0
LAYER
  5
4D
330
2
100
AcDbSymbolTableRecord
100
AcDbLayerTableRecord
  2
OBJECT
 70
     0
 62
     7
  6
Continuous
370
    -3
390
F
  0
LAYER
  5
4E
330
2
100
AcDbSymbolTableRecord
100
AcDbLayerTableRecord
  2
DIM
 70
     0
 62
     7
  6
Continuous
370
    -3
390
F
  0
LAYER
  5
4F
330
2
100
AcDbSymbolTableRecord
100
AcDbLayerTableRecord
  2
HIDDEN
 70
     0
 62
     7
  6
HIDDEN
370
    -3
390
F
  0
LAYER
  5
50
330
2
100
AcDbSymbolTableRecord
100
AcDbLayerTableRecord
  2
BEND
 70
     0
 62
     7
  6
PHANTOM
370
    -3
390
F
  0
LAYER
  5
51
330
2
100
AcDbSymbolTableRecord
100
AcDbLayerTableRecord
  2
TEXT
 70
     0
 62
     7
  6
Continuous
370
    -3
390
F
  0
LAYER
  5
52
330
2
100
AcDbSymbolTableRecord
100
AcDbLayerTableRecord
  2
TITLE
 70
     0
 62
     7
  6
Continuous
370
    -3
390
F
  0
LAYER
  5
53
330
2
100
AcDbSymbolTableRecord
100
AcDbLayerTableRecord
  2
CENTER
 70
     0
 62
     7
  6
CENTER
370
    -3
390
F
  0
LAYER
  5
7A
330
2
100
AcDbSymbolTableRecord
100
AcDbLayerTableRecord
  2
Defpoints
 70
     0
 62
     7
  6
Continuous
290
     0
370
    -3
390
F
  0
ENDTAB
  0
TABLE
  2
STYLE
  5
3
330
0
100
AcDbSymbolTable
 70
     2
  0
STYLE
  5
11
330
3
100
AcDbSymbolTableRecord
100
AcDbTextStyleTableRecord
  2
Standard
 70
     0
 40
0.0
 41
1.0
 50
0.0
 71
     0
 42
0.2
  3
txt
  4

  0
STYLE
  5
54
330
3
100
AcDbSymbolTableRecord
100
AcDbTextStyleTableRecord
  2
TXT
 70
     0
 40
0.0
 41
0.75
 50
0.0
 71
     0
 42
0.156
  3
TXT.shx
  4

  0
ENDTAB
  0
TABLE
  2
VIEW
  5
6
330
0
100
AcDbSymbolTable
 70
     0
  0
ENDTAB
  0
TABLE
  2
UCS
  5
7
330
0
100
AcDbSymbolTable
 70
     0
  0
ENDTAB
  0
TABLE
  2
APPID
  5
9
330
0
100
AcDbSymbolTable
 70
     1
  0
APPID
  5
12
330
9
100
AcDbSymbolTableRecord
100
AcDbRegAppTableRecord
  2
ACAD
 70
     0
  0
ENDTAB
  0
TABLE
  2
DIMSTYLE
  5
A
330
0
100
AcDbSymbolTable
 70
     2
100
AcDbDimStyleTable
 71
     2
340
55
340
56
  0
DIMSTYLE
105
55
102
{ACAD_REACTORS
330
352
330
38E
330
3B4
330
3B3
330
40E
330
41C
330
4C9
330
4D7
330
4FF
330
50D
330
52A
330
5B0
330
5C0
330
5CF
330
6B3
330
6C1
330
7EE
330
818
330
826
330
851
330
850
330
84E
330
A48
330
C72
330
C80
330
C8E
330
C9C
330
CE0
330
CEE
330
CFC
330
D5B
330
D7E
330
DBB
330
DC9
102
}
330
A
100
AcDbSymbolTableRecord
100
AcDbDimStyleTableRecord
  2
23NSTD
 70
     0
 40
1.25
 42
0.063
 43
0.281
 44
0.093
140
0.125
271
     3
272
     3
289
     1
340
54
  0
DIMSTYLE
105
56
102
{ACAD_REACTORS
330
4F0
330
51B
330
4BA
330
361
330
834
330
852
330
84F
330
A14
102
}
330
A
100
AcDbSymbolTableRecord
100
AcDbDimStyleTableRecord
  2
23NSTDI
 70
     0
 40
1.25
 42
0.063
 43
0.281
 44
0.093
140
0.125
174
     1
271
     3
272
     3
289
     0
340
54
  0
ENDTAB
  0
TABLE
  2
BLOCK_RECORD
  5
1
330
0
100
AcDbSymbolTable
 70
    44
  0
BLOCK_RECORD
  5
1F
330
1
100
AcDbSymbolTableRecord
100
AcDbBlockTableRecord
  2
*Model_Space
340
22
  0
BLOCK_RECORD
  5
1B
330
1
100
AcDbSymbolTableRecord
100
AcDbBlockTableRecord
  2
*Paper_Space
340
1E
  0
BLOCK_RECORD
  5
23
330
1
100
AcDbSymbolTableRecord
100
AcDbBlockTableRecord
  2
*Paper_Space0
340
26
  0
BLOCK_RECORD
  5
2E7
330
1
100
AcDbSymbolTableRecord
100
AcDbBlockTableRecord
  2
Hbs
340
0
102
{BLKREFS
331
319
102
}
  0
BLOCK_RECORD
  5
353
330
1
100
AcDbSymbolTableRecord
100
AcDbBlockTableRecord
  2
*D2
340
0
  0
BLOCK_RECORD
  5
362
330
1
100
AcDbSymbolTableRecord
100
AcDbBlockTableRecord
  2
*D3
340
0
  0
BLOCK_RECORD
  5
38F
330
1
100
AcDbSymbolTableRecord
100
AcDbBlockTableRecord
  2
*D4
340
0
  0
BLOCK_RECORD
  5
3B5
330
1
100
AcDbSymbolTableRecord
100
AcDbBlockTableRecord
  2
*D5
340
0
  0
BLOCK_RECORD
  5
3C2
330
1
100
AcDbSymbolTableRecord
100
AcDbBlockTableRecord
  2
*D6
340
0
  0
BLOCK_RECORD
  5
40F
330
1
100
AcDbSymbolTableRecord
100
AcDbBlockTableRecord
  2
*D7
340
0
  0
BLOCK_RECORD
  5
41D
330
1
100
AcDbSymbolTableRecord
100
AcDbBlockTableRecord
  2
*D8
340
0
  0
BLOCK_RECORD
  5
4BB
330
1
100
AcDbSymbolTableRecord
100
AcDbBlockTableRecord
  2
*D9
340
0
  0
BLOCK_RECORD
  5
4CA
330
1
100
AcDbSymbolTableRecord
100
AcDbBlockTableRecord
  2
*D10
340
0
  0
BLOCK_RECORD
  5
4D8
330
1
100
AcDbSymbolTableRecord
100
AcDbBlockTableRecord
  2
*D11
340
0
  0
BLOCK_RECORD
  5
4F1
330
1
100
AcDbSymbolTableRecord
100
AcDbBlockTableRecord
  2
*D12
340
0
  0
BLOCK_RECORD
  5
500
330
1
100
AcDbSymbolTableRecord
100
AcDbBlockTableRecord
  2
*D13
340
0
  0
BLOCK_RECORD
  5
50E
330
1
100
AcDbSymbolTableRecord
100
AcDbBlockTableRecord
  2
*D14
340
0
  0
BLOCK_RECORD
  5
51C
330
1
100
AcDbSymbolTableRecord
100
AcDbBlockTableRecord
  2
*D15
340
0
  0
BLOCK_RECORD
  5
52B
330
1
100
AcDbSymbolTableRecord
100
AcDbBlockTableRecord
  2
*D16
340
0
  0
BLOCK_RECORD
  5
5B1
330
1
100
AcDbSymbolTableRecord
100
AcDbBlockTableRecord
  2
*D17
340
0
  0
BLOCK_RECORD
  5
5C1
330
1
100
AcDbSymbolTableRecord
100
AcDbBlockTableRecord
  2
*D18
340
0
  0
BLOCK_RECORD
  5
5D0
330
1
100
AcDbSymbolTableRecord
100
AcDbBlockTableRecord
  2
*D19
340
0
  0
BLOCK_RECORD
  5
6B4
330
1
100
AcDbSymbolTableRecord
100
AcDbBlockTableRecord
  2
*D20
340
0
  0
BLOCK_RECORD
  5
6C2
330
1
100
AcDbSymbolTableRecord
100
AcDbBlockTableRecord
  2
*D21
340
0
  0
BLOCK_RECORD
  5
7EF
330
1
100
AcDbSymbolTableRecord
100
AcDbBlockTableRecord
  2
*D22
340
0
  0
BLOCK_RECORD
  5
819
330
1
100
AcDbSymbolTableRecord
100
AcDbBlockTableRecord
  2
*D23
340
0
  0
BLOCK_RECORD
  5
827
330
1
100
AcDbSymbolTableRecord
100
AcDbBlockTableRecord
  2
*D24
340
0
  0
BLOCK_RECORD
  5
835
330
1
100
AcDbSymbolTableRecord
100
AcDbBlockTableRecord
  2
*D25
340
0
  0
BLOCK_RECORD
  5
853
330
1
100
AcDbSymbolTableRecord
100
AcDbBlockTableRecord
  2
*D26
340
0
  0
BLOCK_RECORD
  5
860
330
1
100
AcDbSymbolTableRecord
100
AcDbBlockTableRecord
  2
*D27
340
0
  0
BLOCK_RECORD
  5
86D
330
1
100
AcDbSymbolTableRecord
100
AcDbBlockTableRecord
  2
*D28
340
0
  0
BLOCK_RECORD
  5
87A
330
1
100
AcDbSymbolTableRecord
100
AcDbBlockTableRecord
  2
*D29
340
0
  0
BLOCK_RECORD
  5
887
330
1
100
AcDbSymbolTableRecord
100
AcDbBlockTableRecord
  2
*D30
340
0
  0
BLOCK_RECORD
  5
A15
330
1
100
AcDbSymbolTableRecord
100
AcDbBlockTableRecord
  2
*D31
340
0
  0
BLOCK_RECORD
  5
A49
330
1
100
AcDbSymbolTableRecord
100
AcDbBlockTableRecord
  2
*D32
340
0
  0
BLOCK_RECORD
  5
C73
330
1
100
AcDbSymbolTableRecord
100
AcDbBlockTableRecord
  2
*D33
340
0
  0
BLOCK_RECORD
  5
C81
330
1
100
AcDbSymbolTableRecord
100
AcDbBlockTableRecord
  2
*D34
340
0
  0
BLOCK_RECORD
  5
C8F
330
1
100
AcDbSymbolTableRecord
100
AcDbBlockTableRecord
  2
*D35
340
0
  0
BLOCK_RECORD
  5
C9D
330
1
100
AcDbSymbolTableRecord
100
AcDbBlockTableRecord
  2
*D36
340
0
  0
BLOCK_RECORD
  5
CE1
330
1
100
AcDbSymbolTableRecord
100
AcDbBlockTableRecord
  2
*D37
340
0
  0
BLOCK_RECORD
  5
CEF
330
1
100
AcDbSymbolTableRecord
100
AcDbBlockTableRecord
  2
*D38
340
0
  0
BLOCK_RECORD
  5
CFD
330
1
100
AcDbSymbolTableRecord
100
AcDbBlockTableRecord
  2
*D39
340
0
  0
BLOCK_RECORD
  5
D5C
330
1
100
AcDbSymbolTableRecord
100
AcDbBlockTableRecord
  2
*D40
340
0
  0
BLOCK_RECORD
  5
D7F
330
1
100
AcDbSymbolTableRecord
100
AcDbBlockTableRecord
  2
*D41
340
0
  0
BLOCK_RECORD
  5
DBC
330
1
100
AcDbSymbolTableRecord
100
AcDbBlockTableRecord
  2
*D42
340
0
  0
BLOCK_RECORD
  5
DCA
330
1
100
AcDbSymbolTableRecord
100
AcDbBlockTableRecord
  2
*D43
340
0
  0
ENDTAB
  0
ENDSEC
  0
SECTION
  2
BLOCKS
  0
BLOCK
  5
20
330
1F
100
AcDbEntity
  8
0
100
AcDbBlockBegin
  2
*Model_Space
 70
     0
 10
0.0
 20
0.0
 30
0.0
  3
*Model_Space
  1

  0
ENDBLK
  5
21
330
1F
100
AcDbEntity
  8
0
100
AcDbBlockEnd
  0
BLOCK
  5
1C
330
1B
100
AcDbEntity
 67
     1
  8
0
100
AcDbBlockBegin
  2
*Paper_Space
 70
     0
 10
0.0
 20
0.0
 30
0.0
  3
*Paper_Space
  1

  0
ENDBLK
  5
1D
330
1B
100
AcDbEntity
 67
     1
  8
0
100
AcDbBlockEnd
  0
BLOCK
  5
24
330
23
100
AcDbEntity
  8
0
100
AcDbBlockBegin
  2
*Paper_Space0
 70
     0
 10
0.0
 20
0.0
 30
0.0
  3
*Paper_Space0
  1

  0
ENDBLK
  5
25
330
23
100
AcDbEntity
  8
0
100
AcDbBlockEnd
  0
BLOCK
  5
2FE
330
2E7
100
AcDbEntity
  8
0
100
AcDbBlockBegin
  2
Hbs
 70
     0
 10
0.0
 20
0.0
 30
0.0
  3
Hbs
  1

  0
LINE
  5
2E8
330
2E7
100
AcDbEntity
  8
TITLE
100
AcDbLine
 10
0.0619999999999976
 20
9.179999999999999
 30
0.0
 11
16.53799999999999
 21
9.180000000000003
 31
0.0
  0
TEXT
  5
2E9
330
2E7
100
AcDbEntity
  8
TEXT
100
AcDbText
 10
0.2078333333333345
 20
9.220079195640078
 30
0.0
 40
0.125
  1
NAME
  7
TXT
 72
     1
 11
0.4370000000000012
 21
9.220079195640078
 31
0.0
100
AcDbText
  0
TEXT
  5
2EA
330
2E7
100
AcDbEntity
  8
TEXT
100
AcDbText
 10
0.2078333333333345
 20
9.42841252897341
 30
0.0
 40
0.125
  1
PART
  7
TXT
 72
     1
 11
0.4370000000000012
 21
9.42841252897341
 31
0.0
100
AcDbText
  0
LINE
  5
2EB
330
2E7
100
AcDbEntity
  8
TITLE
100
AcDbLine
 10
0.8120000000000011
 20
9.179999999999999
 30
0.0
 11
0.8119999999999976
 21
9.597999999999998
 31
0.0
  0
TEXT
  5
2EC
330
2E7
100
AcDbEntity
  8
TEXT
100
AcDbText
 10
7.207833333333332
 20
9.42841252897341
 30
0.0
 40
0.125
  1
PART
  7
TXT
 72
     1
 11
7.436999999999999
 21
9.42841252897341
 31
0.0
100
AcDbText
  0
TEXT
  5
2ED
330
2E7
100
AcDbEntity
  8
TEXT
100
AcDbText
 10
7.311999999999999
 20
9.220079195640078
 30
0.0
 40
0.125
  1
No.
  7
TXT
 72
     1
 11
7.436999999999999
 21
9.220079195640078
 31
0.0
100
AcDbText
  0
LINE
  5
2EE
330
2E7
100
AcDbEntity
  8
TITLE
100
AcDbLine
 10
7.061999999999999
 20
9.597999999999998
 30
0.0
 11
7.061999999999999
 21
9.179999999999999
 31
0.0
  0
LINE
  5
2EF
330
2E7
100
AcDbEntity
  8
TITLE
100
AcDbLine
 10
7.000000000000001
 20
9.597999999999998
 30
0.0
 11
7.000000000000001
 21
9.179999999999999
 31
0.0
  0
LINE
  5
2F0
330
2E7
100
AcDbEntity
  8
TITLE
100
AcDbLine
 10
7.811999999999999
 20
9.597999999999998
 30
0.0
 11
7.811999999999999
 21
9.179999999999999
 31
0.0
  0
LINE
  5
2F1
330
2E7
100
AcDbEntity
  8
TITLE
100
AcDbLine
 10
16.6
 20
9.659999999999996
 30
0.0
 11
16.59999999999999
 21
0.0
 31
0.0
  0
LINE
  5
2F2
330
2E7
100
AcDbEntity
  8
TITLE
100
AcDbLine
 10
16.59999999999999
 20
0.0
 30
0.0
 11
0.0
 21
0.0
 31
0.0
  0
LINE
  5
2F3
330
2E7
100
AcDbEntity
  8
TITLE
100
AcDbLine
 10
0.0
 20
0.0
 30
0.0
 11
0.0
 21
9.659999999999996
 31
0.0
  0
LINE
  5
2F4
330
2E7
100
AcDbEntity
  8
TITLE
100
AcDbLine
 10
0.0
 20
9.659999999999996
 30
0.0
 11
16.6
 21
9.659999999999996
 31
0.0
  0
LINE
  5
2F5
330
2E7
100
AcDbEntity
  8
TITLE
100
AcDbLine
 10
16.53799999999999
 20
9.598000000000006
 30
0.0
 11
16.53799999999999
 21
0.0620000000000012
 31
0.0
  0
LINE
  5
2F6
330
2E7
100
AcDbEntity
  8
TITLE
100
AcDbLine
 10
16.53799999999999
 20
0.0620000000000012
 30
0.0
 11
0.0620000000000012
 21
0.0620000000000012
 31
0.0
  0
LINE
  5
2F7
330
2E7
100
AcDbEntity
  8
TITLE
100
AcDbLine
 10
0.0620000000000012
 20
0.0620000000000012
 30
0.0
 11
0.0620000000000012
 21
9.597999999999998
 31
0.0
  0
LINE
  5
2F8
330
2E7
100
AcDbEntity
  8
TITLE
100
AcDbLine
 10
0.0620000000000012
 20
9.597999999999998
 30
0.0
 11
16.53799999999999
 21
9.598000000000006
 31
0.0
  0
LINE
  5
2F9
330
2E7
100
AcDbEntity
  8
TITLE
100
AcDbLine
 10
13.99999113305
 20
9.597999999999998
 30
0.0
 11
13.99999113305
 21
9.179999999999999
 31
0.0
  0
LINE
  5
2FA
330
2E7
100
AcDbEntity
  8
TITLE
100
AcDbLine
 10
14.81199113305
 20
9.597999999999998
 30
0.0
 11
14.81199113305
 21
9.179999999999999
 31
0.0
  0
LINE
  5
2FB
330
2E7
100
AcDbEntity
  8
TITLE
100
AcDbLine
 10
14.06199113305
 20
9.597999999999998
 30
0.0
 11
14.06199113305
 21
9.179999999999999
 31
0.0
  0
TEXT
  5
2FC
330
2E7
100
AcDbEntity
  8
TEXT
100
AcDbText
 10
14.20782446638333
 20
9.220079195640078
 30
0.0
 40
0.125
  1
DATE
  7
TXT
 72
     1
 11
14.43699113305
 21
9.220079195640078
 31
0.0
100
AcDbText
  0
TEXT
  5
2FD
330
2E7
100
AcDbEntity
  8
TEXT
100
AcDbText
 10
14.22865779971667
 20
9.42841252897341
 30
0.0
 40
0.125
  1
REV.
  7
TXT
 72
     1
 11
14.43699113305
 21
9.42841252897341
 31
0.0
100
AcDbText
  0
ENDBLK
  5
2FF
330
2E7
100
AcDbEntity
  8
0
100
AcDbBlockEnd
  0
BLOCK
  5
35F
330
353
100
AcDbEntity
  8
0
100
AcDbBlockBegin
  2
*D2
 70
     1
 10
0.0
 20
0.0
 30
0.0
  3
*D2
  1

  0
LINE
  5
B0D
330
353
100
AcDbEntity
  8
DIM
 62
     0
370
    -2
100
AcDbLine
 10
7.94124908222629
 20
5.138474871431872
 30
0.0
 11
7.708749082226291
 21
5.138474871431872
 31
0.0
  0
LINE
  5
B0E
330
353
100
AcDbEntity
  8
DIM
 62
     0
370
    -2
100
AcDbLine
 10
7.94124908222629
 20
5.295474871431872
 30
0.0
 11
7.708749082226291
 21
5.295474871431872
 31
0.0
  0
LINE
  5
B0F
330
353
100
AcDbEntity
  8
DIM
 62
     0
370
    -2
100
AcDbLine
 10
7.824999082226291
 20
4.913474871431873
 30
0.0
 11
7.824999082226291
 21
4.688474871431872
 31
0.0
  0
LINE
  5
B10
330
353
100
AcDbEntity
  8
DIM
 62
     0
370
    -2
100
AcDbLine
 10
7.824999082226291
 20
5.520474871431872
 30
0.0
 11
7.824999082226291
 21
5.745474871431873
 31
0.0
  0
LINE
  5
B11
330
353
100
AcDbEntity
  8
DIM
 62
     0
370
    -2
100
AcDbLine
 10
7.824999082226291
 20
5.745474871431873
 30
0.0
 11
8.049999082226293
 21
5.745474871431873
 31
0.0
  0
SOLID
  5
B12
330
353
100
AcDbEntity
  8
DIM
 62
     0
100
AcDbTrace
 10
7.787499082226291
 20
4.913474871431873
 30
0.0
 11
7.862499082226291
 21
4.913474871431873
 31
0.0
 12
7.824999082226291
 22
5.138474871431872
 32
0.0
 13
7.824999082226291
 23
5.138474871431872
 33
0.0
  0
SOLID
  5
B13
330
353
100
AcDbEntity
  8
DIM
 62
     0
100
AcDbTrace
 10
7.787499082226291
 20
5.520474871431872
 30
0.0
 11
7.862499082226291
 21
5.520474871431872
 31
0.0
 12
7.824999082226291
 22
5.295474871431872
 32
0.0
 13
7.824999082226291
 23
5.295474871431872
 33
0.0
  0
MTEXT
  5
B14
330
353
100
AcDbEntity
  8
DIM
 62
     0
100
AcDbMText
 10
8.36757720722629
 20
5.745474871431873
 30
0.0
 40
0.15625
 41
0.0
 71
     5
 72
     1
  1
\A1;0.157
  7
TXT
 73
     1
 44
1.0
  0
POINT
  5
B15
330
353
100
AcDbEntity
  8
Defpoints
 62
     0
100
AcDbPoint
 10
8.019999082226291
 20
5.138474871431872
 30
0.0
  0
POINT
  5
B16
330
353
100
AcDbEntity
  8
Defpoints
 62
     0
100
AcDbPoint
 10
8.019999082226291
 20
5.295474871431872
 30
0.0
  0
POINT
  5
B17
330
353
100
AcDbEntity
  8
Defpoints
 62
     0
100
AcDbPoint
 10
7.824999082226291
 20
5.295474871431872
 30
0.0
  0
ENDBLK
  5
360
330
353
100
AcDbEntity
  8
0
100
AcDbBlockEnd
  0
BLOCK
  5
36E
330
362
100
AcDbEntity
  8
0
100
AcDbBlockBegin
  2
*D3
 70
     1
 10
0.0
 20
0.0
 30
0.0
  3
*D3
  1

  0
LINE
  5
B03
330
362
100
AcDbEntity
  8
DIM
 62
     0
370
    -2
100
AcDbLine
 10
8.28572350683744
 20
5.078474871431872
 30
0.0
 11
7.304304816968254
 21
5.078474871431872
 31
0.0
  0
LINE
  5
B04
330
362
100
AcDbEntity
  8
DIM
 62
     0
370
    -2
100
AcDbLine
 10
7.94124908222629
 20
5.295474871431872
 30
0.0
 11
7.304304816968254
 21
5.295474871431872
 31
0.0
  0
LINE
  5
B05
330
362
100
AcDbEntity
  8
DIM
 62
     0
370
    -2
100
AcDbLine
 10
7.420554816968254
 20
4.853474871431872
 30
0.0
 11
7.420554816968254
 21
4.628474871431872
 31
0.0
  0
LINE
  5
B06
330
362
100
AcDbEntity
  8
DIM
 62
     0
370
    -2
100
AcDbLine
 10
7.420554816968254
 20
5.520474871431872
 30
0.0
 11
7.420554816968254
 21
5.745474871431873
 31
0.0
  0
SOLID
  5
B07
330
362
100
AcDbEntity
  8
DIM
 62
     0
100
AcDbTrace
 10
7.383054816968255
 20
4.853474871431872
 30
0.0
 11
7.458054816968254
 21
4.853474871431872
 31
0.0
 12
7.420554816968254
 22
5.078474871431872
 32
0.0
 13
7.420554816968254
 23
5.078474871431872
 33
0.0
  0
SOLID
  5
B08
330
362
100
AcDbEntity
  8
DIM
 62
     0
100
AcDbTrace
 10
7.383054816968255
 20
5.520474871431872
 30
0.0
 11
7.458054816968254
 21
5.520474871431872
 31
0.0
 12
7.420554816968254
 22
5.295474871431872
 32
0.0
 13
7.420554816968254
 23
5.295474871431872
 33
0.0
  0
MTEXT
  5
B09
330
362
100
AcDbEntity
  8
DIM
 62
     0
100
AcDbMText
 10
7.420554816968254
 20
5.186974871431873
 30
0.0
 40
0.15625
 41
0.0
 71
     5
 72
     1
  1
\A1;0.217
  7
TXT
 73
     1
 44
1.0
  0
POINT
  5
B0A
330
362
100
AcDbEntity
  8
Defpoints
 62
     0
100
AcDbPoint
 10
8.364473506837439
 20
5.078474871431872
 30
0.0
  0
POINT
  5
B0B
330
362
100
AcDbEntity
  8
Defpoints
 62
     0
100
AcDbPoint
 10
8.019999082226291
 20
5.295474871431872
 30
0.0
  0
POINT
  5
B0C
330
362
100
AcDbEntity
  8
Defpoints
 62
     0
100
AcDbPoint
 10
7.420554816968254
 20
5.295474871431872
 30
0.0
  0
ENDBLK
  5
36F
330
362
100
AcDbEntity
  8
0
100
AcDbBlockEnd
  0
BLOCK
  5
39B
330
38F
100
AcDbEntity
  8
0
100
AcDbBlockBegin
  2
*D4
 70
     1
 10
0.0
 20
0.0
 30
0.0
  3
*D4
  1

  0
LINE
  5
B4A
330
38F
100
AcDbEntity
  8
DIM
 62
     0
370
    -2
100
AcDbLine
 10
11.97774908222629
 20
5.203474871431872
 30
0.0
 11
12.2951636378666
 21
5.203474871431872
 31
0.0
  0
LINE
  5
B4B
330
38F
100
AcDbEntity
  8
DIM
 62
     0
370
    -2
100
AcDbLine
 10
11.99874908222629
 20
5.295474871431872
 30
0.0
 11
12.2951636378666
 21
5.295474871431872
 31
0.0
  0
LINE
  5
B4C
330
38F
100
AcDbEntity
  8
DIM
 62
     0
370
    -2
100
AcDbLine
 10
12.1789136378666
 20
4.978474871431872
 30
0.0
 11
12.1789136378666
 21
4.753474871431872
 31
0.0
  0
LINE
  5
B4D
330
38F
100
AcDbEntity
  8
DIM
 62
     0
370
    -2
100
AcDbLine
 10
12.1789136378666
 20
5.520474871431872
 30
0.0
 11
12.1789136378666
 21
5.745474871431873
 31
0.0
  0
LINE
  5
B4E
330
38F
100
AcDbEntity
  8
DIM
 62
     0
370
    -2
100
AcDbLine
 10
12.1789136378666
 20
5.745474871431873
 30
0.0
 11
12.4039136378666
 21
5.745474871431873
 31
0.0
  0
SOLID
  5
B4F
330
38F
100
AcDbEntity
  8
DIM
 62
     0
100
AcDbTrace
 10
12.1414136378666
 20
4.978474871431872
 30
0.0
 11
12.2164136378666
 21
4.978474871431872
 31
0.0
 12
12.1789136378666
 22
5.203474871431872
 32
0.0
 13
12.1789136378666
 23
5.203474871431872
 33
0.0
  0
SOLID
  5
B50
330
38F
100
AcDbEntity
  8
DIM
 62
     0
100
AcDbTrace
 10
12.1414136378666
 20
5.520474871431872
 30
0.0
 11
12.2164136378666
 21
5.520474871431872
 31
0.0
 12
12.1789136378666
 22
5.295474871431872
 32
0.0
 13
12.1789136378666
 23
5.295474871431872
 33
0.0
  0
MTEXT
  5
B51
330
38F
100
AcDbEntity
  8
DIM
 62
     0
100
AcDbMText
 10
12.73125738786659
 20
5.745474871431874
 30
0.0
 40
0.15625
 41
0.0
 71
     5
 72
     1
  1
\A1;0.092
  7
TXT
 73
     1
 44
1.0
  0
POINT
  5
B52
330
38F
100
AcDbEntity
  8
Defpoints
 62
     0
100
AcDbPoint
 10
11.89899908222629
 20
5.203474871431872
 30
0.0
  0
POINT
  5
B53
330
38F
100
AcDbEntity
  8
Defpoints
 62
     0
100
AcDbPoint
 10
11.91999908222629
 20
5.295474871431872
 30
0.0
  0
POINT
  5
B54
330
38F
100
AcDbEntity
  8
Defpoints
 62
     0
100
AcDbPoint
 10
12.1789136378666
 20
5.295474871431872
 30
0.0
  0
ENDBLK
  5
39C
330
38F
100
AcDbEntity
  8
0
100
AcDbBlockEnd
  0
BLOCK
  5
3C0
330
3B5
100
AcDbEntity
  8
0
100
AcDbBlockBegin
  2
*D5
 70
     1
 10
0.0
 20
0.0
 30
0.0
  3
*D5
  1

  0
LINE
  5
B40
330
3B5
100
AcDbEntity
  8
DIM
 62
     0
370
    -2
100
AcDbLine
 10
10.54286504734216
 20
4.155474871431873
 30
0.0
 11
10.42661504734216
 21
4.155474871431873
 31
0.0
  0
LINE
  5
B41
330
3B5
100
AcDbEntity
  8
DIM
 62
     0
370
    -2
100
AcDbLine
 10
10.54286504734216
 20
5.295474871431872
 30
0.0
 11
10.42661504734216
 21
5.295474871431872
 31
0.0
  0
LINE
  5
B42
330
3B5
100
AcDbEntity
  8
DIM
 62
     0
370
    -2
100
AcDbLine
 10
10.54286504734216
 20
4.380474871431872
 30
0.0
 11
10.54286504734216
 21
4.534849871431873
 31
0.0
  0
LINE
  5
B43
330
3B5
100
AcDbEntity
  8
DIM
 62
     0
370
    -2
100
AcDbLine
 10
10.54286504734216
 20
5.070474871431873
 30
0.0
 11
10.54286504734216
 21
4.916099871431873
 31
0.0
  0
SOLID
  5
B44
330
3B5
100
AcDbEntity
  8
DIM
 62
     0
100
AcDbTrace
 10
10.50536504734217
 20
4.380474871431872
 30
0.0
 11
10.58036504734216
 21
4.380474871431872
 31
0.0
 12
10.54286504734216
 22
4.155474871431873
 32
0.0
 13
10.54286504734216
 23
4.155474871431873
 33
0.0
  0
SOLID
  5
B45
330
3B5
100
AcDbEntity
  8
DIM
 62
     0
100
AcDbTrace
 10
10.50536504734217
 20
5.070474871431873
 30
0.0
 11
10.58036504734216
 21
5.070474871431873
 31
0.0
 12
10.54286504734216
 22
5.295474871431872
 32
0.0
 13
10.54286504734216
 23
5.295474871431872
 33
0.0
  0
MTEXT
  5
B46
330
3B5
100
AcDbEntity
  8
DIM
 62
     0
100
AcDbMText
 10
10.54286504734216
 20
4.725474871431875
 30
0.0
 40
0.15625
 41
0.0
 71
     5
 72
     1
  1
\A1;1.140
  7
TXT
 73
     1
 44
1.0
  0
POINT
  5
B47
330
3B5
100
AcDbEntity
  8
Defpoints
 62
     0
100
AcDbPoint
 10
10.62161504734216
 20
4.155474871431873
 30
0.0
  0
POINT
  5
B48
330
3B5
100
AcDbEntity
  8
Defpoints
 62
     0
100
AcDbPoint
 10
10.62161504734216
 20
5.295474871431872
 30
0.0
  0
POINT
  5
B49
330
3B5
100
AcDbEntity
  8
Defpoints
 62
     0
100
AcDbPoint
 10
10.54286504734216
 20
5.295474871431872
 30
0.0
  0
ENDBLK
  5
3C1
330
3B5
100
AcDbEntity
  8
0
100
AcDbBlockEnd
  0
BLOCK
  5
3CD
330
3C2
100
AcDbEntity
  8
0
100
AcDbBlockBegin
  2
*D6
 70
     1
 10
0.0
 20
0.0
 30
0.0
  3
*D6
  1

  0
LINE
  5
B36
330
3C2
100
AcDbEntity
  8
DIM
 62
     0
370
    -2
100
AcDbLine
 10
11.99874908222629
 20
5.295474871431872
 30
0.0
 11
12.63878833219051
 21
5.295474871431872
 31
0.0
  0
LINE
  5
B37
330
3C2
100
AcDbEntity
  8
DIM
 62
     0
370
    -2
100
AcDbLine
 10
11.52058138099004
 20
4.055474871431872
 30
0.0
 11
12.63878833219051
 21
4.055474871431872
 31
0.0
  0
LINE
  5
B38
330
3C2
100
AcDbEntity
  8
DIM
 62
     0
370
    -2
100
AcDbLine
 10
12.5225383321905
 20
5.070474871431873
 30
0.0
 11
12.5225383321905
 21
4.866099871431873
 31
0.0
  0
LINE
  5
B39
330
3C2
100
AcDbEntity
  8
DIM
 62
     0
370
    -2
100
AcDbLine
 10
12.5225383321905
 20
4.280474871431872
 30
0.0
 11
12.5225383321905
 21
4.484849871431873
 31
0.0
  0
SOLID
  5
B3A
330
3C2
100
AcDbEntity
  8
DIM
 62
     0
100
AcDbTrace
 10
12.48503833219051
 20
5.070474871431873
 30
0.0
 11
12.5600383321905
 21
5.070474871431873
 31
0.0
 12
12.5225383321905
 22
5.295474871431872
 32
0.0
 13
12.5225383321905
 23
5.295474871431872
 33
0.0
  0
SOLID
  5
B3B
330
3C2
100
AcDbEntity
  8
DIM
 62
     0
100
AcDbTrace
 10
12.48503833219051
 20
4.280474871431872
 30
0.0
 11
12.5600383321905
 21
4.280474871431872
 31
0.0
 12
12.5225383321905
 22
4.055474871431872
 32
0.0
 13
12.5225383321905
 23
4.055474871431872
 33
0.0
  0
MTEXT
  5
B3C
330
3C2
100
AcDbEntity
  8
DIM
 62
     0
100
AcDbMText
 10
12.5225383321905
 20
4.675474871431875
 30
0.0
 40
0.15625
 41
0.0
 71
     5
 72
     1
  1
\A1;1.240
  7
TXT
 73
     1
 44
1.0
  0
POINT
  5
B3D
330
3C2
100
AcDbEntity
  8
Defpoints
 62
     0
100
AcDbPoint
 10
11.91999908222629
 20
5.295474871431872
 30
0.0
  0
POINT
  5
B3E
330
3C2
100
AcDbEntity
  8
Defpoints
 62
     0
100
AcDbPoint
 10
11.44183138099004
 20
4.055474871431872
 30
0.0
  0
POINT
  5
B3F
330
3C2
100
AcDbEntity
  8
Defpoints
 62
     0
100
AcDbPoint
 10
12.5225383321905
 20
4.055474871431872
 30
0.0
  0
ENDBLK
  5
3CE
330
3C2
100
AcDbEntity
  8
0
100
AcDbBlockEnd
  0
BLOCK
  5
41A
330
40F
100
AcDbEntity
  8
0
100
AcDbBlockBegin
  2
*D7
 70
     1
 10
0.0
 20
0.0
 30
0.0
  3
*D7
  1

  0
LINE
  5
D73
330
40F
100
AcDbEntity
  8
DIM
 62
     0
370
    -2
100
AcDbLine
 10
8.735999082226292
 20
2.922251962970706
 30
0.0
 11
8.735999082226292
 21
2.50044214031063
 31
0.0
  0
LINE
  5
D74
330
40F
100
AcDbEntity
  8
DIM
 62
     0
370
    -2
100
AcDbLine
 10
11.20399908222629
 20
2.922251962970705
 30
0.0
 11
11.20399908222629
 21
2.50044214031063
 31
0.0
  0
LINE
  5
D75
330
40F
100
AcDbEntity
  8
DIM
 62
     0
370
    -2
100
AcDbLine
 10
8.960999082226292
 20
2.61669214031063
 30
0.0
 11
9.623124082226292
 21
2.61669214031063
 31
0.0
  0
LINE
  5
D76
330
40F
100
AcDbEntity
  8
DIM
 62
     0
370
    -2
100
AcDbLine
 10
10.97899908222629
 20
2.61669214031063
 30
0.0
 11
10.31687408222629
 21
2.61669214031063
 31
0.0
  0
SOLID
  5
D77
330
40F
100
AcDbEntity
  8
DIM
 62
     0
100
AcDbTrace
 10
8.960999082226292
 20
2.65419214031063
 30
0.0
 11
8.960999082226292
 21
2.57919214031063
 31
0.0
 12
8.735999082226292
 22
2.61669214031063
 32
0.0
 13
8.735999082226292
 23
2.61669214031063
 33
0.0
  0
SOLID
  5
D78
330
40F
100
AcDbEntity
  8
DIM
 62
     0
100
AcDbTrace
 10
10.97899908222629
 20
2.65419214031063
 30
0.0
 11
10.97899908222629
 21
2.57919214031063
 31
0.0
 12
11.20399908222629
 22
2.61669214031063
 32
0.0
 13
11.20399908222629
 23
2.61669214031063
 33
0.0
  0
MTEXT
  5
D79
330
40F
100
AcDbEntity
  8
DIM
 62
     0
100
AcDbMText
 10
9.969999082226292
 20
2.61669214031063
 30
0.0
 40
0.15625
 41
0.0
 71
     5
 72
     1
  1
\A1;2.468
  7
TXT
 73
     1
 44
1.0
  0
POINT
  5
D7A
330
40F
100
AcDbEntity
  8
Defpoints
 62
     0
100
AcDbPoint
 10
8.735999082226292
 20
3.001001962970706
 30
0.0
  0
POINT
  5
D7B
330
40F
100
AcDbEntity
  8
Defpoints
 62
     0
100
AcDbPoint
 10
11.20399908222629
 20
3.001001962970705
 30
0.0
  0
POINT
  5
D7C
330
40F
100
AcDbEntity
  8
Defpoints
 62
     0
100
AcDbPoint
 10
11.20399908222629
 20
2.61669214031063
 30
0.0
  0
ENDBLK
  5
41B
330
40F
100
AcDbEntity
  8
0
100
AcDbBlockEnd
  0
BLOCK
  5
428
330
41D
100
AcDbEntity
  8
0
100
AcDbBlockBegin
  2
*D8
 70
     1
 10
0.0
 20
0.0
 30
0.0
  3
*D8
  1

  0
LINE
  5
D69
330
41D
100
AcDbEntity
  8
DIM
 62
     0
370
    -2
100
AcDbLine
 10
11.12524908222629
 20
3.001001962970705
 30
0.0
 11
10.60269186389587
 21
3.001001962970706
 31
0.0
  0
LINE
  5
D6A
330
41D
100
AcDbEntity
  8
DIM
 62
     0
370
    -2
100
AcDbLine
 10
11.12524908222629
 20
1.521001962970706
 30
0.0
 11
10.60269186389587
 21
1.521001962970706
 31
0.0
  0
LINE
  5
D6B
330
41D
100
AcDbEntity
  8
DIM
 62
     0
370
    -2
100
AcDbLine
 10
10.71894186389587
 20
2.776001962970706
 30
0.0
 11
10.71894186389587
 21
2.451626962970706
 31
0.0
  0
LINE
  5
D6C
330
41D
100
AcDbEntity
  8
DIM
 62
     0
370
    -2
100
AcDbLine
 10
10.71894186389587
 20
1.746001962970706
 30
0.0
 11
10.71894186389587
 21
2.070376962970706
 31
0.0
  0
SOLID
  5
D6D
330
41D
100
AcDbEntity
  8
DIM
 62
     0
100
AcDbTrace
 10
10.68144186389587
 20
2.776001962970706
 30
0.0
 11
10.75644186389587
 21
2.776001962970706
 31
0.0
 12
10.71894186389587
 22
3.001001962970706
 32
0.0
 13
10.71894186389587
 23
3.001001962970706
 33
0.0
  0
SOLID
  5
D6E
330
41D
100
AcDbEntity
  8
DIM
 62
     0
100
AcDbTrace
 10
10.68144186389587
 20
1.746001962970706
 30
0.0
 11
10.75644186389587
 21
1.746001962970706
 31
0.0
 12
10.71894186389587
 22
1.521001962970706
 32
0.0
 13
10.71894186389587
 23
1.521001962970706
 33
0.0
  0
MTEXT
  5
D6F
330
41D
100
AcDbEntity
  8
DIM
 62
     0
100
AcDbMText
 10
10.71894186389587
 20
2.261001962970708
 30
0.0
 40
0.15625
 41
0.0
 71
     5
 72
     1
  1
\A1;1.480
  7
TXT
 73
     1
 44
1.0
  0
POINT
  5
D70
330
41D
100
AcDbEntity
  8
Defpoints
 62
     0
100
AcDbPoint
 10
11.20399908222629
 20
3.001001962970705
 30
0.0
  0
POINT
  5
D71
330
41D
100
AcDbEntity
  8
Defpoints
 62
     0
100
AcDbPoint
 10
11.20399908222629
 20
1.521001962970706
 30
0.0
  0
POINT
  5
D72
330
41D
100
AcDbEntity
  8
Defpoints
 62
     0
100
AcDbPoint
 10
10.71894186389587
 20
1.521001962970706
 30
0.0
  0
ENDBLK
  5
429
330
41D
100
AcDbEntity
  8
0
100
AcDbBlockEnd
  0
BLOCK
  5
4C7
330
4BB
100
AcDbEntity
  8
0
100
AcDbBlockBegin
  2
*D9
 70
     1
 10
0.0
 20
0.0
 30
0.0
  3
*D9
  1

  0
LINE
  5
C35
330
4BB
100
AcDbEntity
  8
DIM
 62
     0
370
    -2
100
AcDbLine
 10
1.444596518593531
 20
2.337596678227336
 30
0.0
 11
0.670559822411129
 21
2.337596678227337
 31
0.0
  0
LINE
  5
C36
330
4BB
100
AcDbEntity
  8
DIM
 62
     0
370
    -2
100
AcDbLine
 10
1.807096518593531
 20
1.963596678227336
 30
0.0
 11
0.6705598224111289
 21
1.963596678227336
 31
0.0
  0
LINE
  5
C37
330
4BB
100
AcDbEntity
  8
DIM
 62
     0
370
    -2
100
AcDbLine
 10
0.786809822411129
 20
2.562596678227337
 30
0.0
 11
0.7868098224111292
 21
2.787596678227337
 31
0.0
  0
LINE
  5
C38
330
4BB
100
AcDbEntity
  8
DIM
 62
     0
370
    -2
100
AcDbLine
 10
0.7868098224111288
 20
1.738596678227336
 30
0.0
 11
0.7868098224111288
 21
1.513596678227336
 31
0.0
  0
SOLID
  5
C39
330
4BB
100
AcDbEntity
  8
DIM
 62
     0
100
AcDbTrace
 10
0.749309822411129
 20
2.562596678227337
 30
0.0
 11
0.8243098224111289
 21
2.562596678227337
 31
0.0
 12
0.786809822411129
 22
2.337596678227337
 32
0.0
 13
0.786809822411129
 23
2.337596678227337
 33
0.0
  0
SOLID
  5
C3A
330
4BB
100
AcDbEntity
  8
DIM
 62
     0
100
AcDbTrace
 10
0.7493098224111288
 20
1.738596678227336
 30
0.0
 11
0.8243098224111287
 21
1.738596678227336
 31
0.0
 12
0.7868098224111289
 22
1.963596678227336
 32
0.0
 13
0.7868098224111289
 23
1.963596678227336
 33
0.0
  0
MTEXT
  5
C3B
330
4BB
100
AcDbEntity
  8
DIM
 62
     0
100
AcDbMText
 10
0.7868098224111285
 20
2.150596678227337
 30
0.0
 40
0.15625
 41
0.0
 71
     5
 72
     1
  1
\A1;0.374
  7
TXT
 73
     1
 44
1.0
  0
POINT
  5
C3C
330
4BB
100
AcDbEntity
  8
Defpoints
 62
     0
100
AcDbPoint
 10
1.523346518593531
 20
2.337596678227336
 30
0.0
  0
POINT
  5
C3D
330
4BB
100
AcDbEntity
  8
Defpoints
 62
     0
100
AcDbPoint
 10
1.885846518593531
 20
1.963596678227336
 30
0.0
  0
POINT
  5
C3E
330
4BB
100
AcDbEntity
  8
Defpoints
 62
     0
100
AcDbPoint
 10
0.7868098224111289
 20
1.963596678227336
 30
0.0
  0
ENDBLK
  5
4C8
330
4BB
100
AcDbEntity
  8
0
100
AcDbBlockEnd
  0
BLOCK
  5
4D5
330
4CA
100
AcDbEntity
  8
0
100
AcDbBlockBegin
  2
*D10
 70
     1
 10
0.0
 20
0.0
 30
0.0
  3
*D10
  1

  0
LINE
  5
C49
330
4CA
100
AcDbEntity
  8
DIM
 62
     0
370
    -2
100
AcDbLine
 10
1.444596518593531
 20
2.337596678227336
 30
0.0
 11
0.670559822411129
 21
2.337596678227337
 31
0.0
  0
LINE
  5
C4A
330
4CA
100
AcDbEntity
  8
DIM
 62
     0
370
    -2
100
AcDbLine
 10
1.25409651859353
 20
3.754596678227337
 30
0.0
 11
0.6705598224111294
 21
3.754596678227338
 31
0.0
  0
LINE
  5
C4B
330
4CA
100
AcDbEntity
  8
DIM
 62
     0
370
    -2
100
AcDbLine
 10
0.786809822411129
 20
2.562596678227337
 30
0.0
 11
0.7868098224111292
 21
2.855471678227337
 31
0.0
  0
LINE
  5
C4C
330
4CA
100
AcDbEntity
  8
DIM
 62
     0
370
    -2
100
AcDbLine
 10
0.7868098224111292
 20
3.529596678227338
 30
0.0
 11
0.7868098224111292
 21
3.236721678227337
 31
0.0
  0
SOLID
  5
C4D
330
4CA
100
AcDbEntity
  8
DIM
 62
     0
100
AcDbTrace
 10
0.749309822411129
 20
2.562596678227337
 30
0.0
 11
0.8243098224111289
 21
2.562596678227337
 31
0.0
 12
0.786809822411129
 22
2.337596678227337
 32
0.0
 13
0.786809822411129
 23
2.337596678227337
 33
0.0
  0
SOLID
  5
C4E
330
4CA
100
AcDbEntity
  8
DIM
 62
     0
100
AcDbTrace
 10
0.7493098224111292
 20
3.529596678227338
 30
0.0
 11
0.8243098224111291
 21
3.529596678227338
 31
0.0
 12
0.7868098224111293
 22
3.754596678227338
 32
0.0
 13
0.7868098224111293
 23
3.754596678227338
 33
0.0
  0
MTEXT
  5
C4F
330
4CA
100
AcDbEntity
  8
DIM
 62
     0
100
AcDbMText
 10
0.7868098224111286
 20
3.046096678227337
 30
0.0
 40
0.15625
 41
0.0
 71
     5
 72
     1
  1
\A1;1.417
  7
TXT
 73
     1
 44
1.0
  0
POINT
  5
C50
330
4CA
100
AcDbEntity
  8
Defpoints
 62
     0
100
AcDbPoint
 10
1.523346518593531
 20
2.337596678227336
 30
0.0
  0
POINT
  5
C51
330
4CA
100
AcDbEntity
  8
Defpoints
 62
     0
100
AcDbPoint
 10
1.33284651859353
 20
3.754596678227337
 30
0.0
  0
POINT
  5
C52
330
4CA
100
AcDbEntity
  8
Defpoints
 62
     0
100
AcDbPoint
 10
0.7868098224111293
 20
3.754596678227338
 30
0.0
  0
ENDBLK
  5
4D6
330
4CA
100
AcDbEntity
  8
0
100
AcDbBlockEnd
  0
BLOCK
  5
4E3
330
4D8
100
AcDbEntity
  8
0
100
AcDbBlockBegin
  2
*D11
 70
     1
 10
0.0
 20
0.0
 30
0.0
  3
*D11
  1

  0
LINE
  5
C3F
330
4D8
100
AcDbEntity
  8
DIM
 62
     0
370
    -2
100
AcDbLine
 10
1.25409651859353
 20
3.754596678227337
 30
0.0
 11
0.6705598224111294
 21
3.754596678227338
 31
0.0
  0
LINE
  5
C40
330
4D8
100
AcDbEntity
  8
DIM
 62
     0
370
    -2
100
AcDbLine
 10
1.807096518593531
 20
4.207596678227337
 30
0.0
 11
0.6705598224111294
 21
4.207596678227337
 31
0.0
  0
LINE
  5
C41
330
4D8
100
AcDbEntity
  8
DIM
 62
     0
370
    -2
100
AcDbLine
 10
0.7868098224111292
 20
3.529596678227338
 30
0.0
 11
0.7868098224111292
 21
3.304596678227338
 31
0.0
  0
LINE
  5
C42
330
4D8
100
AcDbEntity
  8
DIM
 62
     0
370
    -2
100
AcDbLine
 10
0.7868098224111294
 20
4.432596678227337
 30
0.0
 11
0.7868098224111294
 21
4.657596678227338
 31
0.0
  0
SOLID
  5
C43
330
4D8
100
AcDbEntity
  8
DIM
 62
     0
100
AcDbTrace
 10
0.7493098224111292
 20
3.529596678227338
 30
0.0
 11
0.8243098224111291
 21
3.529596678227338
 31
0.0
 12
0.7868098224111293
 22
3.754596678227338
 32
0.0
 13
0.7868098224111293
 23
3.754596678227338
 33
0.0
  0
SOLID
  5
C44
330
4D8
100
AcDbEntity
  8
DIM
 62
     0
100
AcDbTrace
 10
0.7493098224111295
 20
4.432596678227337
 30
0.0
 11
0.8243098224111292
 21
4.432596678227337
 31
0.0
 12
0.7868098224111293
 22
4.207596678227337
 32
0.0
 13
0.7868098224111293
 23
4.207596678227337
 33
0.0
  0
MTEXT
  5
C45
330
4D8
100
AcDbEntity
  8
DIM
 62
     0
100
AcDbMText
 10
0.7868098224111286
 20
3.981096678227338
 30
0.0
 40
0.15625
 41
0.0
 71
     5
 72
     1
  1
\A1;0.453
  7
TXT
 73
     1
 44
1.0
  0
POINT
  5
C46
330
4D8
100
AcDbEntity
  8
Defpoints
 62
     0
100
AcDbPoint
 10
1.33284651859353
 20
3.754596678227337
 30
0.0
  0
POINT
  5
C47
330
4D8
100
AcDbEntity
  8
Defpoints
 62
     0
100
AcDbPoint
 10
1.885846518593531
 20
4.207596678227337
 30
0.0
  0
POINT
  5
C48
330
4D8
100
AcDbEntity
  8
Defpoints
 62
     0
100
AcDbPoint
 10
0.7868098224111293
 20
4.207596678227337
 30
0.0
  0
ENDBLK
  5
4E4
330
4D8
100
AcDbEntity
  8
0
100
AcDbBlockEnd
  0
BLOCK
  5
4FD
330
4F1
100
AcDbEntity
  8
0
100
AcDbBlockBegin
  2
*D12
 70
     1
 10
0.0
 20
0.0
 30
0.0
  3
*D12
  1

  0
LINE
  5
C0D
330
4F1
100
AcDbEntity
  8
DIM
 62
     0
370
    -2
100
AcDbLine
 10
5.258596518593532
 20
3.676596678227337
 30
0.0
 11
5.878149765662178
 21
3.676596678227337
 31
0.0
  0
LINE
  5
C0E
330
4F1
100
AcDbEntity
  8
DIM
 62
     0
370
    -2
100
AcDbLine
 10
5.258596518593532
 20
3.990596678227337
 30
0.0
 11
5.878149765662178
 21
3.990596678227337
 31
0.0
  0
LINE
  5
C0F
330
4F1
100
AcDbEntity
  8
DIM
 62
     0
370
    -2
100
AcDbLine
 10
5.761899765662178
 20
3.451596678227337
 30
0.0
 11
5.761899765662178
 21
3.226596678227337
 31
0.0
  0
LINE
  5
C10
330
4F1
100
AcDbEntity
  8
DIM
 62
     0
370
    -2
100
AcDbLine
 10
5.761899765662178
 20
4.215596678227337
 30
0.0
 11
5.761899765662178
 21
4.440596678227337
 31
0.0
  0
SOLID
  5
C11
330
4F1
100
AcDbEntity
  8
DIM
 62
     0
100
AcDbTrace
 10
5.724399765662179
 20
3.451596678227337
 30
0.0
 11
5.799399765662178
 21
3.451596678227337
 31
0.0
 12
5.761899765662178
 22
3.676596678227337
 32
0.0
 13
5.761899765662178
 23
3.676596678227337
 33
0.0
  0
SOLID
  5
C12
330
4F1
100
AcDbEntity
  8
DIM
 62
     0
100
AcDbTrace
 10
5.724399765662179
 20
4.215596678227337
 30
0.0
 11
5.799399765662178
 21
4.215596678227337
 31
0.0
 12
5.761899765662178
 22
3.990596678227337
 32
0.0
 13
5.761899765662178
 23
3.990596678227337
 33
0.0
  0
MTEXT
  5
C13
330
4F1
100
AcDbEntity
  8
DIM
 62
     0
100
AcDbMText
 10
5.761899765662177
 20
3.833596678227338
 30
0.0
 40
0.15625
 41
0.0
 71
     5
 72
     1
  1
\A1;0.314
  7
TXT
 73
     1
 44
1.0
  0
POINT
  5
C14
330
4F1
100
AcDbEntity
  8
Defpoints
 62
     0
100
AcDbPoint
 10
5.179846518593532
 20
3.676596678227337
 30
0.0
  0
POINT
  5
C15
330
4F1
100
AcDbEntity
  8
Defpoints
 62
     0
100
AcDbPoint
 10
5.179846518593532
 20
3.990596678227337
 30
0.0
  0
POINT
  5
C16
330
4F1
100
AcDbEntity
  8
Defpoints
 62
     0
100
AcDbPoint
 10
5.761899765662178
 20
3.990596678227337
 30
0.0
  0
ENDBLK
  5
4FE
330
4F1
100
AcDbEntity
  8
0
100
AcDbBlockEnd
  0
BLOCK
  5
50B
330
500
100
AcDbEntity
  8
0
100
AcDbBlockBegin
  2
*D13
 70
     1
 10
0.0
 20
0.0
 30
0.0
  3
*D13
  1

  0
LINE
  5
C03
330
500
100
AcDbEntity
  8
DIM
 62
     0
370
    -2
100
AcDbLine
 10
5.022846518593532
 20
4.193346678227338
 30
0.0
 11
5.022846518593532
 21
4.751414860654338
 31
0.0
  0
LINE
  5
C04
330
500
100
AcDbEntity
  8
DIM
 62
     0
370
    -2
100
AcDbLine
 10
5.179846518593532
 20
3.912346678227337
 30
0.0
 11
5.179846518593532
 21
4.751414860654338
 31
0.0
  0
LINE
  5
C05
330
500
100
AcDbEntity
  8
DIM
 62
     0
370
    -2
100
AcDbLine
 10
4.797846518593533
 20
4.635164860654338
 30
0.0
 11
4.572846518593532
 21
4.635164860654338
 31
0.0
  0
LINE
  5
C06
330
500
100
AcDbEntity
  8
DIM
 62
     0
370
    -2
100
AcDbLine
 10
5.404846518593531
 20
4.635164860654338
 30
0.0
 11
5.629846518593532
 21
4.635164860654338
 31
0.0
  0
SOLID
  5
C07
330
500
100
AcDbEntity
  8
DIM
 62
     0
100
AcDbTrace
 10
4.797846518593533
 20
4.672664860654338
 30
0.0
 11
4.797846518593533
 21
4.597664860654338
 31
0.0
 12
5.022846518593532
 22
4.635164860654338
 32
0.0
 13
5.022846518593532
 23
4.635164860654338
 33
0.0
  0
SOLID
  5
C08
330
500
100
AcDbEntity
  8
DIM
 62
     0
100
AcDbTrace
 10
5.404846518593531
 20
4.672664860654338
 30
0.0
 11
5.404846518593531
 21
4.597664860654338
 31
0.0
 12
5.179846518593532
 22
4.635164860654338
 32
0.0
 13
5.179846518593532
 23
4.635164860654338
 33
0.0
  0
MTEXT
  5
C09
330
500
100
AcDbEntity
  8
DIM
 62
     0
100
AcDbMText
 10
5.947424643593532
 20
4.635164860654338
 30
0.0
 40
0.15625
 41
0.0
 71
     5
 72
     1
  1
\A1;0.157
  7
TXT
 73
     1
 44
1.0
  0
POINT
  5
C0A
330
500
100
AcDbEntity
  8
Defpoints
 62
     0
100
AcDbPoint
 10
5.022846518593532
 20
4.114596678227337
 30
0.0
  0
POINT
  5
C0B
330
500
100
AcDbEntity
  8
Defpoints
 62
     0
100
AcDbPoint
 10
5.179846518593532
 20
3.833596678227337
 30
0.0
  0
POINT
  5
C0C
330
500
100
AcDbEntity
  8
Defpoints
 62
     0
100
AcDbPoint
 10
5.179846518593532
 20
4.635164860654338
 30
0.0
  0
ENDBLK
  5
50C
330
500
100
AcDbEntity
  8
0
100
AcDbBlockEnd
  0
BLOCK
  5
519
330
50E
100
AcDbEntity
  8
0
100
AcDbBlockBegin
  2
*D14
 70
     1
 10
0.0
 20
0.0
 30
0.0
  3
*D14
  1

  0
LINE
  5
BF9
330
50E
100
AcDbEntity
  8
DIM
 62
     0
370
    -2
100
AcDbLine
 10
5.022846518593532
 20
1.977846678227336
 30
0.0
 11
5.022846518593532
 21
1.55391927573908
 31
0.0
  0
LINE
  5
BFA
330
50E
100
AcDbEntity
  8
DIM
 62
     0
370
    -2
100
AcDbLine
 10
5.357846518593532
 20
2.180846678227335
 30
0.0
 11
5.357846518593532
 21
1.55391927573908
 31
0.0
  0
LINE
  5
BFB
330
50E
100
AcDbEntity
  8
DIM
 62
     0
370
    -2
100
AcDbLine
 10
4.797846518593532
 20
1.67016927573908
 30
0.0
 11
4.572846518593531
 21
1.67016927573908
 31
0.0
  0
LINE
  5
BFC
330
50E
100
AcDbEntity
  8
DIM
 62
     0
370
    -2
100
AcDbLine
 10
5.582846518593532
 20
1.67016927573908
 30
0.0
 11
5.807846518593533
 21
1.67016927573908
 31
0.0
  0
SOLID
  5
BFD
330
50E
100
AcDbEntity
  8
DIM
 62
     0
100
AcDbTrace
 10
4.797846518593532
 20
1.707669275739081
 30
0.0
 11
4.797846518593532
 21
1.63266927573908
 31
0.0
 12
5.022846518593532
 22
1.67016927573908
 32
0.0
 13
5.022846518593532
 23
1.67016927573908
 33
0.0
  0
SOLID
  5
BFE
330
50E
100
AcDbEntity
  8
DIM
 62
     0
100
AcDbTrace
 10
5.582846518593532
 20
1.707669275739081
 30
0.0
 11
5.582846518593532
 21
1.63266927573908
 31
0.0
 12
5.357846518593532
 22
1.67016927573908
 32
0.0
 13
5.357846518593532
 23
1.67016927573908
 33
0.0
  0
MTEXT
  5
BFF
330
50E
100
AcDbEntity
  8
DIM
 62
     0
100
AcDbMText
 10
6.144955893593532
 20
1.67016927573908
 30
0.0
 40
0.15625
 41
0.0
 71
     5
 72
     1
  1
\A1;0.335
  7
TXT
 73
     1
 44
1.0
  0
POINT
  5
C00
330
50E
100
AcDbEntity
  8
Defpoints
 62
     0
100
AcDbPoint
 10
5.022846518593532
 20
2.056596678227336
 30
0.0
  0
POINT
  5
C01
330
50E
100
AcDbEntity
  8
Defpoints
 62
     0
100
AcDbPoint
 10
5.357846518593532
 20
2.259596678227335
 30
0.0
  0
POINT
  5
C02
330
50E
100
AcDbEntity
  8
Defpoints
 62
     0
100
AcDbPoint
 10
5.357846518593532
 20
1.67016927573908
 30
0.0
  0
ENDBLK
  5
51A
330
50E
100
AcDbEntity
  8
0
100
AcDbBlockEnd
  0
BLOCK
  5
528
330
51C
100
AcDbEntity
  8
0
100
AcDbBlockBegin
  2
*D15
 70
     1
 10
0.0
 20
0.0
 30
0.0
  3
*D15
  1

  0
LINE
  5
BE5
330
51C
100
AcDbEntity
  8
DIM
 62
     0
370
    -2
100
AcDbLine
 10
5.436596518593533
 20
2.259596678227335
 30
0.0
 11
5.878149765662178
 21
2.259596678227335
 31
0.0
  0
LINE
  5
BE6
330
51C
100
AcDbEntity
  8
DIM
 62
     0
370
    -2
100
AcDbLine
 10
5.436596518593533
 20
2.573596678227336
 30
0.0
 11
5.878149765662178
 21
2.573596678227336
 31
0.0
  0
LINE
  5
BE7
330
51C
100
AcDbEntity
  8
DIM
 62
     0
370
    -2
100
AcDbLine
 10
5.761899765662178
 20
2.034596678227335
 30
0.0
 11
5.761899765662177
 21
1.809596678227335
 31
0.0
  0
LINE
  5
BE8
330
51C
100
AcDbEntity
  8
DIM
 62
     0
370
    -2
100
AcDbLine
 10
5.761899765662178
 20
2.798596678227336
 30
0.0
 11
5.761899765662178
 21
3.023596678227336
 31
0.0
  0
SOLID
  5
BE9
330
51C
100
AcDbEntity
  8
DIM
 62
     0
100
AcDbTrace
 10
5.724399765662179
 20
2.034596678227335
 30
0.0
 11
5.799399765662178
 21
2.034596678227335
 31
0.0
 12
5.761899765662178
 22
2.259596678227335
 32
0.0
 13
5.761899765662178
 23
2.259596678227335
 33
0.0
  0
SOLID
  5
BEA
330
51C
100
AcDbEntity
  8
DIM
 62
     0
100
AcDbTrace
 10
5.724399765662179
 20
2.798596678227336
 30
0.0
 11
5.799399765662178
 21
2.798596678227336
 31
0.0
 12
5.761899765662178
 22
2.573596678227336
 32
0.0
 13
5.761899765662178
 23
2.573596678227336
 33
0.0
  0
MTEXT
  5
BEB
330
51C
100
AcDbEntity
  8
DIM
 62
     0
100
AcDbMText
 10
5.761899765662177
 20
2.416596678227337
 30
0.0
 40
0.15625
 41
0.0
 71
     5
 72
     1
  1
\A1;0.314
  7
TXT
 73
     1
 44
1.0
  0
POINT
  5
BEC
330
51C
100
AcDbEntity
  8
Defpoints
 62
     0
100
AcDbPoint
 10
5.357846518593532
 20
2.259596678227335
 30
0.0
  0
POINT
  5
BED
330
51C
100
AcDbEntity
  8
Defpoints
 62
     0
100
AcDbPoint
 10
5.357846518593532
 20
2.573596678227336
 30
0.0
  0
POINT
  5
BEE
330
51C
100
AcDbEntity
  8
Defpoints
 62
     0
100
AcDbPoint
 10
5.761899765662178
 20
2.573596678227336
 30
0.0
  0
ENDBLK
  5
529
330
51C
100
AcDbEntity
  8
0
100
AcDbBlockEnd
  0
BLOCK
  5
536
330
52B
100
AcDbEntity
  8
0
100
AcDbBlockBegin
  2
*D16
 70
     1
 10
0.0
 20
0.0
 30
0.0
  3
*D16
  1

  0
LINE
  5
BEF
330
52B
100
AcDbEntity
  8
DIM
 62
     0
370
    -2
100
AcDbLine
 10
5.101596518593532
 20
2.204096678227337
 30
0.0
 11
6.561015823964331
 21
2.204096678227337
 31
0.0
  0
LINE
  5
BF0
330
52B
100
AcDbEntity
  8
DIM
 62
     0
370
    -2
100
AcDbLine
 10
5.101596518593532
 20
2.629096678227336
 30
0.0
 11
6.561015823964331
 21
2.629096678227336
 31
0.0
  0
LINE
  5
BF1
330
52B
100
AcDbEntity
  8
DIM
 62
     0
370
    -2
100
AcDbLine
 10
6.44476582396433
 20
1.979096678227337
 30
0.0
 11
6.44476582396433
 21
1.754096678227337
 31
0.0
  0
LINE
  5
BF2
330
52B
100
AcDbEntity
  8
DIM
 62
     0
370
    -2
100
AcDbLine
 10
6.444765823964331
 20
2.854096678227336
 30
0.0
 11
6.444765823964331
 21
3.079096678227335
 31
0.0
  0
SOLID
  5
BF3
330
52B
100
AcDbEntity
  8
DIM
 62
     0
100
AcDbTrace
 10
6.407265823964331
 20
1.979096678227337
 30
0.0
 11
6.48226582396433
 21
1.979096678227337
 31
0.0
 12
6.444765823964331
 22
2.204096678227337
 32
0.0
 13
6.444765823964331
 23
2.204096678227337
 33
0.0
  0
SOLID
  5
BF4
330
52B
100
AcDbEntity
  8
DIM
 62
     0
100
AcDbTrace
 10
6.407265823964332
 20
2.854096678227336
 30
0.0
 11
6.482265823964331
 21
2.854096678227336
 31
0.0
 12
6.444765823964331
 22
2.629096678227336
 32
0.0
 13
6.444765823964331
 23
2.629096678227336
 33
0.0
  0
MTEXT
  5
BF5
330
52B
100
AcDbEntity
  8
DIM
 62
     0
100
AcDbMText
 10
6.44476582396433
 20
2.416596678227337
 30
0.0
 40
0.15625
 41
0.0
 71
     5
 72
     1
  1
\A1;0.425
  7
TXT
 73
     1
 44
1.0
  0
POINT
  5
BF6
330
52B
100
AcDbEntity
  8
Defpoints
 62
     0
100
AcDbPoint
 10
5.022846518593532
 20
2.204096678227337
 30
0.0
  0
POINT
  5
BF7
330
52B
100
AcDbEntity
  8
Defpoints
 62
     0
100
AcDbPoint
 10
5.022846518593532
 20
2.629096678227336
 30
0.0
  0
POINT
  5
BF8
330
52B
100
AcDbEntity
  8
Defpoints
 62
     0
100
AcDbPoint
 10
6.444765823964331
 20
2.629096678227336
 30
0.0
  0
ENDBLK
  5
537
330
52B
100
AcDbEntity
  8
0
100
AcDbBlockEnd
  0
BLOCK
  5
5BD
330
5B1
100
AcDbEntity
  8
0
100
AcDbBlockBegin
  2
*D17
 70
     1
 10
0.0
 20
0.0
 30
0.0
  3
*D17
  1

  0
LINE
  5
BBA
330
5B1
100
AcDbEntity
  8
DIM
 62
     0
370
    -2
100
AcDbLine
 10
1.37909651859353
 20
5.756475040327194
 30
0.0
 11
1.14659651859353
 21
5.756475040327194
 31
0.0
  0
LINE
  5
BBB
330
5B1
100
AcDbEntity
  8
DIM
 62
     0
370
    -2
100
AcDbLine
 10
1.872596518593531
 20
5.618475040327194
 30
0.0
 11
1.14659651859353
 21
5.618475040327194
 31
0.0
  0
LINE
  5
BBC
330
5B1
100
AcDbEntity
  8
DIM
 62
     0
370
    -2
100
AcDbLine
 10
1.26284651859353
 20
5.981475040327193
 30
0.0
 11
1.26284651859353
 21
6.206475040327194
 31
0.0
  0
LINE
  5
BBD
330
5B1
100
AcDbEntity
  8
DIM
 62
     0
370
    -2
100
AcDbLine
 10
1.26284651859353
 20
5.393475040327194
 30
0.0
 11
1.26284651859353
 21
5.168475040327193
 31
0.0
  0
LINE
  5
BBE
330
5B1
100
AcDbEntity
  8
DIM
 62
     0
370
    -2
100
AcDbLine
 10
1.26284651859353
 20
5.168475040327193
 30
0.0
 11
1.03784651859353
 21
5.168475040327193
 31
0.0
  0
SOLID
  5
BBF
330
5B1
100
AcDbEntity
  8
DIM
 62
     0
100
AcDbTrace
 10
1.22534651859353
 20
5.981475040327193
 30
0.0
 11
1.300346518593531
 21
5.981475040327193
 31
0.0
 12
1.26284651859353
 22
5.756475040327194
 32
0.0
 13
1.26284651859353
 23
5.756475040327194
 33
0.0
  0
SOLID
  5
BC0
330
5B1
100
AcDbEntity
  8
DIM
 62
     0
100
AcDbTrace
 10
1.22534651859353
 20
5.393475040327194
 30
0.0
 11
1.30034651859353
 21
5.393475040327194
 31
0.0
 12
1.26284651859353
 22
5.618475040327194
 32
0.0
 13
1.26284651859353
 23
5.618475040327194
 33
0.0
  0
MTEXT
  5
BC1
330
5B1
100
AcDbEntity
  8
DIM
 62
     0
100
AcDbMText
 10
0.7202683935935301
 20
5.168475040327193
 30
0.0
 40
0.15625
 41
0.0
 71
     5
 72
     1
  1
\A1;0.138
  7
TXT
 73
     1
 44
1.0
  0
POINT
  5
BC2
330
5B1
100
AcDbEntity
  8
Defpoints
 62
     0
100
AcDbPoint
 10
1.45784651859353
 20
5.756475040327194
 30
0.0
  0
POINT
  5
BC3
330
5B1
100
AcDbEntity
  8
Defpoints
 62
     0
100
AcDbPoint
 10
1.951346518593531
 20
5.618475040327194
 30
0.0
  0
POINT
  5
BC4
330
5B1
100
AcDbEntity
  8
Defpoints
 62
     0
100
AcDbPoint
 10
1.26284651859353
 20
5.618475040327194
 30
0.0
  0
ENDBLK
  5
5BE
330
5B1
100
AcDbEntity
  8
0
100
AcDbBlockEnd
  0
BLOCK
  5
5CD
330
5C1
100
AcDbEntity
  8
0
100
AcDbBlockBegin
  2
*D18
 70
     1
 10
0.0
 20
0.0
 30
0.0
  3
*D18
  1

  0
LINE
  5
BCF
330
5C1
100
AcDbEntity
  8
DIM
 62
     0
370
    -2
100
AcDbLine
 10
2.657771945343486
 20
5.756475040327194
 30
0.0
 11
2.541521945343487
 21
5.756475040327194
 31
0.0
  0
LINE
  5
BD0
330
5C1
100
AcDbEntity
  8
DIM
 62
     0
370
    -2
100
AcDbLine
 10
2.657771945343486
 20
5.848475040327194
 30
0.0
 11
2.541521945343487
 21
5.848475040327194
 31
0.0
  0
LINE
  5
BD1
330
5C1
100
AcDbEntity
  8
DIM
 62
     0
370
    -2
100
AcDbLine
 10
2.657771945343487
 20
5.531475040327194
 30
0.0
 11
2.657771945343487
 21
5.306475040327193
 31
0.0
  0
LINE
  5
BD2
330
5C1
100
AcDbEntity
  8
DIM
 62
     0
370
    -2
100
AcDbLine
 10
2.657771945343487
 20
6.073475040327194
 30
0.0
 11
2.657771945343487
 21
6.298475040327194
 31
0.0
  0
LINE
  5
BD3
330
5C1
100
AcDbEntity
  8
DIM
 62
     0
370
    -2
100
AcDbLine
 10
2.657771945343487
 20
6.298475040327194
 30
0.0
 11
2.882771945343487
 21
6.298475040327194
 31
0.0
  0
SOLID
  5
BD4
330
5C1
100
AcDbEntity
  8
DIM
 62
     0
100
AcDbTrace
 10
2.620271945343487
 20
5.531475040327194
 30
0.0
 11
2.695271945343487
 21
5.531475040327194
 31
0.0
 12
2.657771945343487
 22
5.756475040327194
 32
0.0
 13
2.657771945343487
 23
5.756475040327194
 33
0.0
  0
SOLID
  5
BD5
330
5C1
100
AcDbEntity
  8
DIM
 62
     0
100
AcDbTrace
 10
2.620271945343487
 20
6.073475040327194
 30
0.0
 11
2.695271945343487
 21
6.073475040327194
 31
0.0
 12
2.657771945343487
 22
5.848475040327194
 32
0.0
 13
2.657771945343487
 23
5.848475040327194
 33
0.0
  0
MTEXT
  5
BD6
330
5C1
100
AcDbEntity
  8
DIM
 62
     0
100
AcDbMText
 10
3.210115695343486
 20
6.298475040327195
 30
0.0
 40
0.15625
 41
0.0
 71
     5
 72
     1
  1
\A1;0.092
  7
TXT
 73
     1
 44
1.0
  0
POINT
  5
BD7
330
5C1
100
AcDbEntity
  8
Defpoints
 62
     0
100
AcDbPoint
 10
2.736521945343486
 20
5.756475040327194
 30
0.0
  0
POINT
  5
BD8
330
5C1
100
AcDbEntity
  8
Defpoints
 62
     0
100
AcDbPoint
 10
2.736521945343486
 20
5.848475040327194
 30
0.0
  0
POINT
  5
BD9
330
5C1
100
AcDbEntity
  8
Defpoints
 62
     0
100
AcDbPoint
 10
2.657771945343487
 20
5.848475040327194
 30
0.0
  0
ENDBLK
  5
5CE
330
5C1
100
AcDbEntity
  8
0
100
AcDbBlockEnd
  0
BLOCK
  5
5DC
330
5D0
100
AcDbEntity
  8
0
100
AcDbBlockBegin
  2
*D19
 70
     1
 10
0.0
 20
0.0
 30
0.0
  3
*D19
  1

  0
LINE
  5
BDA
330
5D0
100
AcDbEntity
  8
DIM
 62
     0
370
    -2
100
AcDbLine
 10
4.235516840223001
 20
5.756475040327194
 30
0.0
 11
4.119266840223001
 21
5.756475040327194
 31
0.0
  0
LINE
  5
BDB
330
5D0
100
AcDbEntity
  8
DIM
 62
     0
370
    -2
100
AcDbLine
 10
4.235516840223001
 20
5.666475040327194
 30
0.0
 11
4.119266840223001
 21
5.666475040327194
 31
0.0
  0
LINE
  5
BDC
330
5D0
100
AcDbEntity
  8
DIM
 62
     0
370
    -2
100
AcDbLine
 10
4.235516840223001
 20
5.981475040327193
 30
0.0
 11
4.235516840223002
 21
6.206475040327194
 31
0.0
  0
LINE
  5
BDD
330
5D0
100
AcDbEntity
  8
DIM
 62
     0
370
    -2
100
AcDbLine
 10
4.235516840223001
 20
5.441475040327194
 30
0.0
 11
4.235516840223001
 21
5.216475040327194
 31
0.0
  0
LINE
  5
BDE
330
5D0
100
AcDbEntity
  8
DIM
 62
     0
370
    -2
100
AcDbLine
 10
4.235516840223001
 20
5.216475040327194
 30
0.0
 11
4.010516840223002
 21
5.216475040327194
 31
0.0
  0
SOLID
  5
BDF
330
5D0
100
AcDbEntity
  8
DIM
 62
     0
100
AcDbTrace
 10
4.198016840223002
 20
5.981475040327193
 30
0.0
 11
4.273016840223001
 21
5.981475040327193
 31
0.0
 12
4.235516840223001
 22
5.756475040327194
 32
0.0
 13
4.235516840223001
 23
5.756475040327194
 33
0.0
  0
SOLID
  5
BE0
330
5D0
100
AcDbEntity
  8
DIM
 62
     0
100
AcDbTrace
 10
4.198016840223002
 20
5.441475040327194
 30
0.0
 11
4.273016840223001
 21
5.441475040327194
 31
0.0
 12
4.235516840223001
 22
5.666475040327194
 32
0.0
 13
4.235516840223001
 23
5.666475040327194
 33
0.0
  0
MTEXT
  5
BE1
330
5D0
100
AcDbEntity
  8
DIM
 62
     0
100
AcDbMText
 10
3.692938715223001
 20
5.216475040327194
 30
0.0
 40
0.15625
 41
0.0
 71
     5
 72
     1
  1
\A1;0.090
  7
TXT
 73
     1
 44
1.0
  0
POINT
  5
BE2
330
5D0
100
AcDbEntity
  8
Defpoints
 62
     0
100
AcDbPoint
 10
4.314266840223002
 20
5.756475040327194
 30
0.0
  0
POINT
  5
BE3
330
5D0
100
AcDbEntity
  8
Defpoints
 62
     0
100
AcDbPoint
 10
4.314266840223002
 20
5.666475040327194
 30
0.0
  0
POINT
  5
BE4
330
5D0
100
AcDbEntity
  8
Defpoints
 62
     0
100
AcDbPoint
 10
4.235516840223001
 20
5.666475040327194
 30
0.0
  0
ENDBLK
  5
5DD
330
5D0
100
AcDbEntity
  8
0
100
AcDbBlockEnd
  0
BLOCK
  5
6BF
330
6B4
100
AcDbEntity
  8
0
100
AcDbBlockBegin
  2
*D20
 70
     1
 10
0.0
 20
0.0
 30
0.0
  3
*D20
  1

  0
LINE
  5
E15
330
6B4
100
AcDbEntity
  8
DIM
 62
     0
370
    -2
100
AcDbLine
 10
5.022846518593532
 20
8.818371731301898
 30
0.0
 11
5.022846518593532
 21
9.283371731301901
 31
0.0
  0
LINE
  5
E16
330
6B4
100
AcDbEntity
  8
DIM
 62
     0
370
    -2
100
AcDbLine
 10
1.792846518593531
 20
8.818371731301898
 30
0.0
 11
1.792846518593531
 21
9.283371731301901
 31
0.0
  0
LINE
  5
E17
330
6B4
100
AcDbEntity
  8
DIM
 62
     0
370
    -2
100
AcDbLine
 10
4.797846518593533
 20
9.1671217313019
 30
0.0
 11
3.744955893593532
 21
9.1671217313019
 31
0.0
  0
LINE
  5
E18
330
6B4
100
AcDbEntity
  8
DIM
 62
     0
370
    -2
100
AcDbLine
 10
2.017846518593531
 20
9.1671217313019
 30
0.0
 11
3.070737143593532
 21
9.1671217313019
 31
0.0
  0
SOLID
  5
E19
330
6B4
100
AcDbEntity
  8
DIM
 62
     0
100
AcDbTrace
 10
4.797846518593533
 20
9.2046217313019
 30
0.0
 11
4.797846518593533
 21
9.129621731301901
 31
0.0
 12
5.022846518593532
 22
9.1671217313019
 32
0.0
 13
5.022846518593532
 23
9.1671217313019
 33
0.0
  0
SOLID
  5
E1A
330
6B4
100
AcDbEntity
  8
DIM
 62
     0
100
AcDbTrace
 10
2.017846518593531
 20
9.2046217313019
 30
0.0
 11
2.017846518593531
 21
9.129621731301901
 31
0.0
 12
1.792846518593531
 22
9.1671217313019
 32
0.0
 13
1.792846518593531
 23
9.1671217313019
 33
0.0
  0
MTEXT
  5
E1B
330
6B4
100
AcDbEntity
  8
DIM
 62
     0
100
AcDbMText
 10
3.407846518593532
 20
9.1671217313019
 30
0.0
 40
0.15625
 41
0.0
 71
     5
 72
     1
  1
\A1;3.230
  7
TXT
 73
     1
 44
1.0
  0
POINT
  5
E1C
330
6B4
100
AcDbEntity
  8
Defpoints
 62
     0
100
AcDbPoint
 10
5.022846518593532
 20
8.739621731301898
 30
0.0
  0
POINT
  5
E1D
330
6B4
100
AcDbEntity
  8
Defpoints
 62
     0
100
AcDbPoint
 10
1.792846518593531
 20
8.739621731301898
 30
0.0
  0
POINT
  5
E1E
330
6B4
100
AcDbEntity
  8
Defpoints
 62
     0
100
AcDbPoint
 10
1.792846518593531
 20
9.1671217313019
 30
0.0
  0
ENDBLK
  5
6C0
330
6B4
100
AcDbEntity
  8
0
100
AcDbBlockEnd
  0
BLOCK
  5
6CD
330
6C2
100
AcDbEntity
  8
0
100
AcDbBlockBegin
  2
*D21
 70
     1
 10
0.0
 20
0.0
 30
0.0
  3
*D21
  1

  0
LINE
  5
AE5
330
6C2
100
AcDbEntity
  8
DIM
 62
     0
370
    -2
100
AcDbLine
 10
1.807096518593531
 20
8.832621731301898
 30
0.0
 11
0.9391488849232146
 21
8.832621731301898
 31
0.0
  0
LINE
  5
AE6
330
6C2
100
AcDbEntity
  8
DIM
 62
     0
370
    -2
100
AcDbLine
 10
1.807096518593531
 20
6.588621731301897
 30
0.0
 11
0.9391488849232139
 21
6.588621731301897
 31
0.0
  0
LINE
  5
AE7
330
6C2
100
AcDbEntity
  8
DIM
 62
     0
370
    -2
100
AcDbLine
 10
1.055398884923214
 20
8.607621731301899
 30
0.0
 11
1.055398884923214
 21
7.901246731301898
 31
0.0
  0
LINE
  5
AE8
330
6C2
100
AcDbEntity
  8
DIM
 62
     0
370
    -2
100
AcDbLine
 10
1.055398884923214
 20
6.813621731301897
 30
0.0
 11
1.055398884923214
 21
7.519996731301898
 31
0.0
  0
SOLID
  5
AE9
330
6C2
100
AcDbEntity
  8
DIM
 62
     0
100
AcDbTrace
 10
1.017898884923214
 20
8.607621731301899
 30
0.0
 11
1.092898884923214
 21
8.607621731301899
 31
0.0
 12
1.055398884923214
 22
8.832621731301898
 32
0.0
 13
1.055398884923214
 23
8.832621731301898
 33
0.0
  0
SOLID
  5
AEA
330
6C2
100
AcDbEntity
  8
DIM
 62
     0
100
AcDbTrace
 10
1.017898884923214
 20
6.813621731301897
 30
0.0
 11
1.092898884923214
 21
6.813621731301897
 31
0.0
 12
1.055398884923214
 22
6.588621731301897
 32
0.0
 13
1.055398884923214
 23
6.588621731301897
 33
0.0
  0
MTEXT
  5
AEB
330
6C2
100
AcDbEntity
  8
DIM
 62
     0
100
AcDbMText
 10
1.055398884923212
 20
7.710621731301898
 30
0.0
 40
0.15625
 41
0.0
 71
     5
 72
     1
  1
\A1;2.244
  7
TXT
 73
     1
 44
1.0
  0
POINT
  5
AEC
330
6C2
100
AcDbEntity
  8
Defpoints
 62
     0
100
AcDbPoint
 10
1.885846518593531
 20
8.832621731301898
 30
0.0
  0
POINT
  5
AED
330
6C2
100
AcDbEntity
  8
Defpoints
 62
     0
100
AcDbPoint
 10
1.885846518593531
 20
6.588621731301897
 30
0.0
  0
POINT
  5
AEE
330
6C2
100
AcDbEntity
  8
Defpoints
 62
     0
100
AcDbPoint
 10
1.055398884923214
 20
6.588621731301897
 30
0.0
  0
ENDBLK
  5
6CE
330
6C2
100
AcDbEntity
  8
0
100
AcDbBlockEnd
  0
BLOCK
  5
7FA
330
7EF
100
AcDbEntity
  8
0
100
AcDbBlockBegin
  2
*D22
 70
     1
 10
0.0
 20
0.0
 30
0.0
  3
*D22
  1

  0
LINE
  5
C2B
330
7EF
100
AcDbEntity
  8
DIM
 62
     0
370
    -2
100
AcDbLine
 10
1.82209651859353
 20
3.337596678227336
 30
0.0
 11
1.095846518593532
 21
3.337596678227336
 31
0.0
  0
LINE
  5
C2C
330
7EF
100
AcDbEntity
  8
DIM
 62
     0
370
    -2
100
AcDbLine
 10
1.444596518593531
 20
2.337596678227336
 30
0.0
 11
1.095846518593532
 21
2.337596678227336
 31
0.0
  0
LINE
  5
C2D
330
7EF
100
AcDbEntity
  8
DIM
 62
     0
370
    -2
100
AcDbLine
 10
1.212096518593532
 20
3.112596678227336
 30
0.0
 11
1.212096518593532
 21
3.028221678227337
 31
0.0
  0
LINE
  5
C2E
330
7EF
100
AcDbEntity
  8
DIM
 62
     0
370
    -2
100
AcDbLine
 10
1.212096518593532
 20
2.562596678227337
 30
0.0
 11
1.212096518593532
 21
2.646971678227337
 31
0.0
  0
SOLID
  5
C2F
330
7EF
100
AcDbEntity
  8
DIM
 62
     0
100
AcDbTrace
 10
1.174596518593532
 20
3.112596678227336
 30
0.0
 11
1.249596518593532
 21
3.112596678227336
 31
0.0
 12
1.212096518593532
 22
3.337596678227336
 32
0.0
 13
1.212096518593532
 23
3.337596678227336
 33
0.0
  0
SOLID
  5
C30
330
7EF
100
AcDbEntity
  8
DIM
 62
     0
100
AcDbTrace
 10
1.174596518593532
 20
2.562596678227337
 30
0.0
 11
1.249596518593532
 21
2.562596678227337
 31
0.0
 12
1.212096518593532
 22
2.337596678227336
 32
0.0
 13
1.212096518593532
 23
2.337596678227336
 33
0.0
  0
MTEXT
  5
C31
330
7EF
100
AcDbEntity
  8
DIM
 62
     0
100
AcDbMText
 10
1.212096518593531
 20
2.837596678227337
 30
0.0
 40
0.15625
 41
0.0
 71
     5
 72
     1
  1
\A1;1.000
  7
TXT
 73
     1
 44
1.0
  0
POINT
  5
C32
330
7EF
100
AcDbEntity
  8
Defpoints
 62
     0
100
AcDbPoint
 10
1.90084651859353
 20
3.337596678227336
 30
0.0
  0
POINT
  5
C33
330
7EF
100
AcDbEntity
  8
Defpoints
 62
     0
100
AcDbPoint
 10
1.523346518593531
 20
2.337596678227336
 30
0.0
  0
POINT
  5
C34
330
7EF
100
AcDbEntity
  8
Defpoints
 62
     0
100
AcDbPoint
 10
1.212096518593532
 20
2.337596678227336
 30
0.0
  0
ENDBLK
  5
7FB
330
7EF
100
AcDbEntity
  8
0
100
AcDbBlockEnd
  0
BLOCK
  5
824
330
819
100
AcDbEntity
  8
0
100
AcDbBlockBegin
  2
*D23
 70
     1
 10
0.0
 20
0.0
 30
0.0
  3
*D23
  1

  0
LINE
  5
C68
330
819
100
AcDbEntity
  8
DIM
 62
     0
370
    -2
100
AcDbLine
 10
8.006749082226292
 20
8.458621731301899
 30
0.0
 11
7.304304816968254
 21
8.458621731301899
 31
0.0
  0
LINE
  5
C69
330
819
100
AcDbEntity
  8
DIM
 62
     0
370
    -2
100
AcDbLine
 10
7.816249082226291
 20
7.041621731301898
 30
0.0
 11
7.304304816968254
 21
7.041621731301898
 31
0.0
  0
LINE
  5
C6A
330
819
100
AcDbEntity
  8
DIM
 62
     0
370
    -2
100
AcDbLine
 10
7.420554816968254
 20
8.2336217313019
 30
0.0
 11
7.420554816968254
 21
7.940746731301898
 31
0.0
  0
LINE
  5
C6B
330
819
100
AcDbEntity
  8
DIM
 62
     0
370
    -2
100
AcDbLine
 10
7.420554816968254
 20
7.266621731301897
 30
0.0
 11
7.420554816968254
 21
7.559496731301899
 31
0.0
  0
SOLID
  5
C6C
330
819
100
AcDbEntity
  8
DIM
 62
     0
100
AcDbTrace
 10
7.383054816968255
 20
8.2336217313019
 30
0.0
 11
7.458054816968254
 21
8.2336217313019
 31
0.0
 12
7.420554816968254
 22
8.458621731301899
 32
0.0
 13
7.420554816968254
 23
8.458621731301899
 33
0.0
  0
SOLID
  5
C6D
330
819
100
AcDbEntity
  8
DIM
 62
     0
100
AcDbTrace
 10
7.383054816968255
 20
7.266621731301897
 30
0.0
 11
7.458054816968254
 21
7.266621731301897
 31
0.0
 12
7.420554816968254
 22
7.041621731301898
 32
0.0
 13
7.420554816968254
 23
7.041621731301898
 33
0.0
  0
MTEXT
  5
C6E
330
819
100
AcDbEntity
  8
DIM
 62
     0
100
AcDbMText
 10
7.420554816968254
 20
7.750121731301899
 30
0.0
 40
0.15625
 41
0.0
 71
     5
 72
     1
  1
\A1;1.417
  7
TXT
 73
     1
 44
1.0
  0
POINT
  5
C6F
330
819
100
AcDbEntity
  8
Defpoints
 62
     0
100
AcDbPoint
 10
8.085499082226291
 20
8.458621731301899
 30
0.0
  0
POINT
  5
C70
330
819
100
AcDbEntity
  8
Defpoints
 62
     0
100
AcDbPoint
 10
7.894999082226291
 20
7.041621731301898
 30
0.0
  0
POINT
  5
C71
330
819
100
AcDbEntity
  8
Defpoints
 62
     0
100
AcDbPoint
 10
7.420554816968254
 20
7.041621731301898
 30
0.0
  0
ENDBLK
  5
825
330
819
100
AcDbEntity
  8
0
100
AcDbBlockEnd
  0
BLOCK
  5
832
330
827
100
AcDbEntity
  8
0
100
AcDbBlockBegin
  2
*D24
 70
     1
 10
0.0
 20
0.0
 30
0.0
  3
*D24
  1

  0
LINE
  5
C5E
330
827
100
AcDbEntity
  8
DIM
 62
     0
370
    -2
100
AcDbLine
 10
7.816249082226291
 20
7.041621731301898
 30
0.0
 11
7.304304816968254
 21
7.041621731301898
 31
0.0
  0
LINE
  5
C5F
330
827
100
AcDbEntity
  8
DIM
 62
     0
370
    -2
100
AcDbLine
 10
8.369249082226293
 20
6.588621731301898
 30
0.0
 11
7.304304816968254
 21
6.588621731301898
 31
0.0
  0
LINE
  5
C60
330
827
100
AcDbEntity
  8
DIM
 62
     0
370
    -2
100
AcDbLine
 10
7.420554816968254
 20
7.266621731301897
 30
0.0
 11
7.420554816968254
 21
7.491621731301898
 31
0.0
  0
LINE
  5
C61
330
827
100
AcDbEntity
  8
DIM
 62
     0
370
    -2
100
AcDbLine
 10
7.420554816968254
 20
6.363621731301899
 30
0.0
 11
7.420554816968254
 21
6.138621731301898
 31
0.0
  0
SOLID
  5
C62
330
827
100
AcDbEntity
  8
DIM
 62
     0
100
AcDbTrace
 10
7.383054816968255
 20
7.266621731301897
 30
0.0
 11
7.458054816968254
 21
7.266621731301897
 31
0.0
 12
7.420554816968254
 22
7.041621731301898
 32
0.0
 13
7.420554816968254
 23
7.041621731301898
 33
0.0
  0
SOLID
  5
C63
330
827
100
AcDbEntity
  8
DIM
 62
     0
100
AcDbTrace
 10
7.383054816968255
 20
6.363621731301899
 30
0.0
 11
7.458054816968254
 21
6.363621731301899
 31
0.0
 12
7.420554816968254
 22
6.588621731301898
 32
0.0
 13
7.420554816968254
 23
6.588621731301898
 33
0.0
  0
MTEXT
  5
C64
330
827
100
AcDbEntity
  8
DIM
 62
     0
100
AcDbMText
 10
7.420554816968253
 20
6.815121731301899
 30
0.0
 40
0.15625
 41
0.0
 71
     5
 72
     1
  1
\A1;0.453
  7
TXT
 73
     1
 44
1.0
  0
POINT
  5
C65
330
827
100
AcDbEntity
  8
Defpoints
 62
     0
100
AcDbPoint
 10
7.894999082226291
 20
7.041621731301898
 30
0.0
  0
POINT
  5
C66
330
827
100
AcDbEntity
  8
Defpoints
 62
     0
100
AcDbPoint
 10
8.447999082226292
 20
6.588621731301898
 30
0.0
  0
POINT
  5
C67
330
827
100
AcDbEntity
  8
Defpoints
 62
     0
100
AcDbPoint
 10
7.420554816968254
 20
6.588621731301898
 30
0.0
  0
ENDBLK
  5
833
330
827
100
AcDbEntity
  8
0
100
AcDbBlockEnd
  0
BLOCK
  5
841
330
835
100
AcDbEntity
  8
0
100
AcDbBlockBegin
  2
*D25
 70
     1
 10
0.0
 20
0.0
 30
0.0
  3
*D25
  1

  0
LINE
  5
C54
330
835
100
AcDbEntity
  8
DIM
 62
     0
370
    -2
100
AcDbLine
 10
8.006749082226292
 20
8.458621731301899
 30
0.0
 11
7.304304816968254
 21
8.458621731301899
 31
0.0
  0
LINE
  5
C55
330
835
100
AcDbEntity
  8
DIM
 62
     0
370
    -2
100
AcDbLine
 10
8.369249082226293
 20
8.832621731301898
 30
0.0
 11
7.304304816968254
 21
8.832621731301898
 31
0.0
  0
LINE
  5
C56
330
835
100
AcDbEntity
  8
DIM
 62
     0
370
    -2
100
AcDbLine
 10
7.420554816968254
 20
8.2336217313019
 30
0.0
 11
7.420554816968254
 21
8.0086217313019
 31
0.0
  0
LINE
  5
C57
330
835
100
AcDbEntity
  8
DIM
 62
     0
370
    -2
100
AcDbLine
 10
7.420554816968254
 20
9.057621731301898
 30
0.0
 11
7.420554816968254
 21
9.282621731301897
 31
0.0
  0
SOLID
  5
C58
330
835
100
AcDbEntity
  8
DIM
 62
     0
100
AcDbTrace
 10
7.383054816968255
 20
8.2336217313019
 30
0.0
 11
7.458054816968254
 21
8.2336217313019
 31
0.0
 12
7.420554816968254
 22
8.458621731301899
 32
0.0
 13
7.420554816968254
 23
8.458621731301899
 33
0.0
  0
SOLID
  5
C59
330
835
100
AcDbEntity
  8
DIM
 62
     0
100
AcDbTrace
 10
7.383054816968255
 20
9.057621731301898
 30
0.0
 11
7.458054816968254
 21
9.057621731301898
 31
0.0
 12
7.420554816968254
 22
8.832621731301898
 32
0.0
 13
7.420554816968254
 23
8.832621731301898
 33
0.0
  0
MTEXT
  5
C5A
330
835
100
AcDbEntity
  8
DIM
 62
     0
100
AcDbMText
 10
7.420554816968254
 20
8.645621731301901
 30
0.0
 40
0.15625
 41
0.0
 71
     5
 72
     1
  1
\A1;0.374
  7
TXT
 73
     1
 44
1.0
  0
POINT
  5
C5B
330
835
100
AcDbEntity
  8
Defpoints
 62
     0
100
AcDbPoint
 10
8.085499082226291
 20
8.458621731301899
 30
0.0
  0
POINT
  5
C5C
330
835
100
AcDbEntity
  8
Defpoints
 62
     0
100
AcDbPoint
 10
8.447999082226292
 20
8.832621731301898
 30
0.0
  0
POINT
  5
C5D
330
835
100
AcDbEntity
  8
Defpoints
 62
     0
100
AcDbPoint
 10
7.420554816968254
 20
8.832621731301898
 30
0.0
  0
ENDBLK
  5
842
330
835
100
AcDbEntity
  8
0
100
AcDbBlockEnd
  0
BLOCK
  5
85E
330
853
100
AcDbEntity
  8
0
100
AcDbBlockBegin
  2
*D26
 70
     1
 10
0.0
 20
0.0
 30
0.0
  3
*D26
  1

  0
LINE
  5
B73
330
853
100
AcDbEntity
  8
DIM
 62
     0
370
    -2
100
AcDbLine
 10
11.82074908222629
 20
7.119621731301897
 30
0.0
 11
12.44030232929493
 21
7.119621731301897
 31
0.0
  0
LINE
  5
B74
330
853
100
AcDbEntity
  8
DIM
 62
     0
370
    -2
100
AcDbLine
 10
11.82074908222629
 20
6.805621731301897
 30
0.0
 11
12.44030232929493
 21
6.805621731301897
 31
0.0
  0
LINE
  5
B75
330
853
100
AcDbEntity
  8
DIM
 62
     0
370
    -2
100
AcDbLine
 10
12.32405232929494
 20
7.344621731301897
 30
0.0
 11
12.32405232929494
 21
7.569621731301897
 31
0.0
  0
LINE
  5
B76
330
853
100
AcDbEntity
  8
DIM
 62
     0
370
    -2
100
AcDbLine
 10
12.32405232929494
 20
6.580621731301897
 30
0.0
 11
12.32405232929494
 21
6.355621731301897
 31
0.0
  0
SOLID
  5
B77
330
853
100
AcDbEntity
  8
DIM
 62
     0
100
AcDbTrace
 10
12.28655232929494
 20
7.344621731301897
 30
0.0
 11
12.36155232929494
 21
7.344621731301897
 31
0.0
 12
12.32405232929494
 22
7.119621731301897
 32
0.0
 13
12.32405232929494
 23
7.119621731301897
 33
0.0
  0
SOLID
  5
B78
330
853
100
AcDbEntity
  8
DIM
 62
     0
100
AcDbTrace
 10
12.28655232929494
 20
6.580621731301897
 30
0.0
 11
12.36155232929494
 21
6.580621731301897
 31
0.0
 12
12.32405232929494
 22
6.805621731301897
 32
0.0
 13
12.32405232929494
 23
6.805621731301897
 33
0.0
  0
MTEXT
  5
B79
330
853
100
AcDbEntity
  8
DIM
 62
     0
100
AcDbMText
 10
12.32405232929493
 20
6.962621731301899
 30
0.0
 40
0.15625
 41
0.0
 71
     5
 72
     1
  1
\A1;0.314
  7
TXT
 73
     1
 44
1.0
  0
POINT
  5
B7A
330
853
100
AcDbEntity
  8
Defpoints
 62
     0
100
AcDbPoint
 10
11.74199908222629
 20
7.119621731301897
 30
0.0
  0
POINT
  5
B7B
330
853
100
AcDbEntity
  8
Defpoints
 62
     0
100
AcDbPoint
 10
11.74199908222629
 20
6.805621731301897
 30
0.0
  0
POINT
  5
B7C
330
853
100
AcDbEntity
  8
Defpoints
 62
     0
100
AcDbPoint
 10
12.32405232929494
 20
6.805621731301897
 30
0.0
  0
ENDBLK
  5
85F
330
853
100
AcDbEntity
  8
0
100
AcDbBlockEnd
  0
BLOCK
  5
86B
330
860
100
AcDbEntity
  8
0
100
AcDbBlockBegin
  2
*D27
 70
     1
 10
0.0
 20
0.0
 30
0.0
  3
*D27
  1

  0
LINE
  5
B69
330
860
100
AcDbEntity
  8
DIM
 62
     0
370
    -2
100
AcDbLine
 10
11.58499908222629
 20
6.602871731301898
 30
0.0
 11
11.58499908222629
 21
6.044803548874896
 31
0.0
  0
LINE
  5
B6A
330
860
100
AcDbEntity
  8
DIM
 62
     0
370
    -2
100
AcDbLine
 10
11.74199908222629
 20
6.883871731301897
 30
0.0
 11
11.74199908222629
 21
6.044803548874896
 31
0.0
  0
LINE
  5
B6B
330
860
100
AcDbEntity
  8
DIM
 62
     0
370
    -2
100
AcDbLine
 10
11.35999908222629
 20
6.161053548874896
 30
0.0
 11
11.13499908222629
 21
6.161053548874896
 31
0.0
  0
LINE
  5
B6C
330
860
100
AcDbEntity
  8
DIM
 62
     0
370
    -2
100
AcDbLine
 10
11.96699908222629
 20
6.161053548874896
 30
0.0
 11
12.19199908222629
 21
6.161053548874896
 31
0.0
  0
SOLID
  5
B6D
330
860
100
AcDbEntity
  8
DIM
 62
     0
100
AcDbTrace
 10
11.35999908222629
 20
6.198553548874896
 30
0.0
 11
11.35999908222629
 21
6.123553548874896
 31
0.0
 12
11.58499908222629
 22
6.161053548874896
 32
0.0
 13
11.58499908222629
 23
6.161053548874896
 33
0.0
  0
SOLID
  5
B6E
330
860
100
AcDbEntity
  8
DIM
 62
     0
100
AcDbTrace
 10
11.96699908222629
 20
6.198553548874896
 30
0.0
 11
11.96699908222629
 21
6.123553548874896
 31
0.0
 12
11.74199908222629
 22
6.161053548874896
 32
0.0
 13
11.74199908222629
 23
6.161053548874896
 33
0.0
  0
MTEXT
  5
B6F
330
860
100
AcDbEntity
  8
DIM
 62
     0
100
AcDbMText
 10
12.50957720722629
 20
6.161053548874896
 30
0.0
 40
0.15625
 41
0.0
 71
     5
 72
     1
  1
\A1;0.157
  7
TXT
 73
     1
 44
1.0
  0
POINT
  5
B70
330
860
100
AcDbEntity
  8
Defpoints
 62
     0
100
AcDbPoint
 10
11.58499908222629
 20
6.681621731301898
 30
0.0
  0
POINT
  5
B71
330
860
100
AcDbEntity
  8
Defpoints
 62
     0
100
AcDbPoint
 10
11.74199908222629
 20
6.962621731301897
 30
0.0
  0
POINT
  5
B72
330
860
100
AcDbEntity
  8
Defpoints
 62
     0
100
AcDbPoint
 10
11.74199908222629
 20
6.161053548874896
 30
0.0
  0
ENDBLK
  5
86C
330
860
100
AcDbEntity
  8
0
100
AcDbBlockEnd
  0
BLOCK
  5
878
330
86D
100
AcDbEntity
  8
0
100
AcDbBlockBegin
  2
*D28
 70
     1
 10
0.0
 20
0.0
 30
0.0
  3
*D28
  1

  0
LINE
  5
B7D
330
86D
100
AcDbEntity
  8
DIM
 62
     0
370
    -2
100
AcDbLine
 10
11.58499908222629
 20
8.818371731301898
 30
0.0
 11
11.58499908222629
 21
9.242299133790154
 31
0.0
  0
LINE
  5
B7E
330
86D
100
AcDbEntity
  8
DIM
 62
     0
370
    -2
100
AcDbLine
 10
11.91999908222629
 20
8.615371731301898
 30
0.0
 11
11.91999908222629
 21
9.242299133790154
 31
0.0
  0
LINE
  5
B7F
330
86D
100
AcDbEntity
  8
DIM
 62
     0
370
    -2
100
AcDbLine
 10
11.35999908222629
 20
9.126049133790154
 30
0.0
 11
11.13499908222629
 21
9.126049133790154
 31
0.0
  0
LINE
  5
B80
330
86D
100
AcDbEntity
  8
DIM
 62
     0
370
    -2
100
AcDbLine
 10
12.14499908222629
 20
9.126049133790154
 30
0.0
 11
12.36999908222629
 21
9.126049133790154
 31
0.0
  0
SOLID
  5
B81
330
86D
100
AcDbEntity
  8
DIM
 62
     0
100
AcDbTrace
 10
11.35999908222629
 20
9.163549133790153
 30
0.0
 11
11.35999908222629
 21
9.088549133790154
 31
0.0
 12
11.58499908222629
 22
9.126049133790154
 32
0.0
 13
11.58499908222629
 23
9.126049133790154
 33
0.0
  0
SOLID
  5
B82
330
86D
100
AcDbEntity
  8
DIM
 62
     0
100
AcDbTrace
 10
12.14499908222629
 20
9.163549133790153
 30
0.0
 11
12.14499908222629
 21
9.088549133790154
 31
0.0
 12
11.91999908222629
 22
9.126049133790154
 32
0.0
 13
11.91999908222629
 23
9.126049133790154
 33
0.0
  0
MTEXT
  5
B83
330
86D
100
AcDbEntity
  8
DIM
 62
     0
100
AcDbMText
 10
12.70710845722629
 20
9.126049133790154
 30
0.0
 40
0.15625
 41
0.0
 71
     5
 72
     1
  1
\A1;0.335
  7
TXT
 73
     1
 44
1.0
  0
POINT
  5
B84
330
86D
100
AcDbEntity
  8
Defpoints
 62
     0
100
AcDbPoint
 10
11.58499908222629
 20
8.739621731301898
 30
0.0
  0
POINT
  5
B85
330
86D
100
AcDbEntity
  8
Defpoints
 62
     0
100
AcDbPoint
 10
11.91999908222629
 20
8.536621731301899
 30
0.0
  0
POINT
  5
B86
330
86D
100
AcDbEntity
  8
Defpoints
 62
     0
100
AcDbPoint
 10
11.91999908222629
 20
9.126049133790154
 30
0.0
  0
ENDBLK
  5
879
330
86D
100
AcDbEntity
  8
0
100
AcDbBlockEnd
  0
BLOCK
  5
885
330
87A
100
AcDbEntity
  8
0
100
AcDbBlockBegin
  2
*D29
 70
     1
 10
0.0
 20
0.0
 30
0.0
  3
*D29
  1

  0
LINE
  5
B5F
330
87A
100
AcDbEntity
  8
DIM
 62
     0
370
    -2
100
AcDbLine
 10
11.99874908222629
 20
8.536621731301899
 30
0.0
 11
12.44030232929493
 21
8.536621731301897
 31
0.0
  0
LINE
  5
B60
330
87A
100
AcDbEntity
  8
DIM
 62
     0
370
    -2
100
AcDbLine
 10
11.99874908222629
 20
8.222621731301899
 30
0.0
 11
12.44030232929493
 21
8.222621731301897
 31
0.0
  0
LINE
  5
B61
330
87A
100
AcDbEntity
  8
DIM
 62
     0
370
    -2
100
AcDbLine
 10
12.32405232929494
 20
8.761621731301897
 30
0.0
 11
12.32405232929494
 21
8.986621731301896
 31
0.0
  0
LINE
  5
B62
330
87A
100
AcDbEntity
  8
DIM
 62
     0
370
    -2
100
AcDbLine
 10
12.32405232929494
 20
7.997621731301898
 30
0.0
 11
12.32405232929494
 21
7.772621731301898
 31
0.0
  0
SOLID
  5
B63
330
87A
100
AcDbEntity
  8
DIM
 62
     0
100
AcDbTrace
 10
12.28655232929494
 20
8.761621731301897
 30
0.0
 11
12.36155232929494
 21
8.761621731301897
 31
0.0
 12
12.32405232929494
 22
8.536621731301897
 32
0.0
 13
12.32405232929494
 23
8.536621731301897
 33
0.0
  0
SOLID
  5
B64
330
87A
100
AcDbEntity
  8
DIM
 62
     0
100
AcDbTrace
 10
12.28655232929494
 20
7.997621731301898
 30
0.0
 11
12.36155232929494
 21
7.997621731301898
 31
0.0
 12
12.32405232929494
 22
8.222621731301897
 32
0.0
 13
12.32405232929494
 23
8.222621731301897
 33
0.0
  0
MTEXT
  5
B65
330
87A
100
AcDbEntity
  8
DIM
 62
     0
100
AcDbMText
 10
12.32405232929493
 20
8.379621731301901
 30
0.0
 40
0.15625
 41
0.0
 71
     5
 72
     1
  1
\A1;0.314
  7
TXT
 73
     1
 44
1.0
  0
POINT
  5
B66
330
87A
100
AcDbEntity
  8
Defpoints
 62
     0
100
AcDbPoint
 10
11.91999908222629
 20
8.536621731301899
 30
0.0
  0
POINT
  5
B67
330
87A
100
AcDbEntity
  8
Defpoints
 62
     0
100
AcDbPoint
 10
11.91999908222629
 20
8.222621731301899
 30
0.0
  0
POINT
  5
B68
330
87A
100
AcDbEntity
  8
Defpoints
 62
     0
100
AcDbPoint
 10
12.32405232929494
 20
8.222621731301897
 30
0.0
  0
ENDBLK
  5
886
330
87A
100
AcDbEntity
  8
0
100
AcDbBlockEnd
  0
BLOCK
  5
892
330
887
100
AcDbEntity
  8
0
100
AcDbBlockBegin
  2
*D30
 70
     1
 10
0.0
 20
0.0
 30
0.0
  3
*D30
  1

  0
LINE
  5
B55
330
887
100
AcDbEntity
  8
DIM
 62
     0
370
    -2
100
AcDbLine
 10
11.66374908222629
 20
8.592121731301897
 30
0.0
 11
13.11769861586032
 21
8.592121731301896
 31
0.0
  0
LINE
  5
B56
330
887
100
AcDbEntity
  8
DIM
 62
     0
370
    -2
100
AcDbLine
 10
11.66374908222629
 20
8.1671217313019
 30
0.0
 11
13.11769861586032
 21
8.167121731301898
 31
0.0
  0
LINE
  5
B57
330
887
100
AcDbEntity
  8
DIM
 62
     0
370
    -2
100
AcDbLine
 10
13.00144861586032
 20
8.817121731301895
 30
0.0
 11
13.00144861586032
 21
9.042121731301895
 31
0.0
  0
LINE
  5
B58
330
887
100
AcDbEntity
  8
DIM
 62
     0
370
    -2
100
AcDbLine
 10
13.00144861586032
 20
7.9421217313019
 30
0.0
 11
13.00144861586032
 21
7.717121731301899
 31
0.0
  0
SOLID
  5
B59
330
887
100
AcDbEntity
  8
DIM
 62
     0
100
AcDbTrace
 10
12.96394861586032
 20
8.817121731301895
 30
0.0
 11
13.03894861586032
 21
8.817121731301895
 31
0.0
 12
13.00144861586032
 22
8.592121731301896
 32
0.0
 13
13.00144861586032
 23
8.592121731301896
 33
0.0
  0
SOLID
  5
B5A
330
887
100
AcDbEntity
  8
DIM
 62
     0
100
AcDbTrace
 10
12.96394861586032
 20
7.9421217313019
 30
0.0
 11
13.03894861586032
 21
7.9421217313019
 31
0.0
 12
13.00144861586032
 22
8.167121731301898
 32
0.0
 13
13.00144861586032
 23
8.167121731301898
 33
0.0
  0
MTEXT
  5
B5B
330
887
100
AcDbEntity
  8
DIM
 62
     0
100
AcDbMText
 10
13.00144861586032
 20
8.379621731301901
 30
0.0
 40
0.15625
 41
0.0
 71
     5
 72
     1
  1
\A1;0.425
  7
TXT
 73
     1
 44
1.0
  0
POINT
  5
B5C
330
887
100
AcDbEntity
  8
Defpoints
 62
     0
100
AcDbPoint
 10
11.58499908222629
 20
8.592121731301897
 30
0.0
  0
POINT
  5
B5D
330
887
100
AcDbEntity
  8
Defpoints
 62
     0
100
AcDbPoint
 10
11.58499908222629
 20
8.1671217313019
 30
0.0
  0
POINT
  5
B5E
330
887
100
AcDbEntity
  8
Defpoints
 62
     0
100
AcDbPoint
 10
13.00144861586032
 20
8.167121731301898
 30
0.0
  0
ENDBLK
  5
893
330
887
100
AcDbEntity
  8
0
100
AcDbBlockEnd
  0
BLOCK
  5
A21
330
A15
100
AcDbEntity
  8
0
100
AcDbBlockBegin
  2
*D31
 70
     1
 10
0.0
 20
0.0
 30
0.0
  3
*D31
  1

  0
LINE
  5
CBF
330
A15
100
AcDbEntity
  8
DIM
 62
     0
370
    -2
100
AcDbLine
 10
14.04722379360262
 20
8.483621731301898
 30
0.0
 11
13.52793630505916
 21
8.483621731301898
 31
0.0
  0
LINE
  5
CC0
330
A15
100
AcDbEntity
  8
DIM
 62
     0
370
    -2
100
AcDbLine
 10
14.04722379360262
 20
8.2756217313019
 30
0.0
 11
13.52793630505916
 21
8.2756217313019
 31
0.0
  0
LINE
  5
CC1
330
A15
100
AcDbEntity
  8
DIM
 62
     0
370
    -2
100
AcDbLine
 10
13.64418630505916
 20
8.708621731301898
 30
0.0
 11
13.64418630505916
 21
8.933621731301897
 31
0.0
  0
LINE
  5
CC2
330
A15
100
AcDbEntity
  8
DIM
 62
     0
370
    -2
100
AcDbLine
 10
13.64418630505916
 20
8.0506217313019
 30
0.0
 11
13.64418630505916
 21
7.8256217313019
 31
0.0
  0
SOLID
  5
CC3
330
A15
100
AcDbEntity
  8
DIM
 62
     0
100
AcDbTrace
 10
13.60668630505916
 20
8.708621731301898
 30
0.0
 11
13.68168630505916
 21
8.708621731301898
 31
0.0
 12
13.64418630505916
 22
8.483621731301898
 32
0.0
 13
13.64418630505916
 23
8.483621731301898
 33
0.0
  0
SOLID
  5
CC4
330
A15
100
AcDbEntity
  8
DIM
 62
     0
100
AcDbTrace
 10
13.60668630505916
 20
8.0506217313019
 30
0.0
 11
13.68168630505916
 21
8.0506217313019
 31
0.0
 12
13.64418630505916
 22
8.2756217313019
 32
0.0
 13
13.64418630505916
 23
8.2756217313019
 33
0.0
  0
MTEXT
  5
CC5
330
A15
100
AcDbEntity
  8
DIM
 62
     0
100
AcDbMText
 10
13.64418630505916
 20
8.379621731301902
 30
0.0
 40
0.15625
 41
0.0
 71
     5
 72
     1
  1
\A1;0.208
  7
TXT
 73
     1
 44
1.0
  0
POINT
  5
CC6
330
A15
100
AcDbEntity
  8
Defpoints
 62
     0
100
AcDbPoint
 10
14.12597379360263
 20
8.483621731301898
 30
0.0
  0
POINT
  5
CC7
330
A15
100
AcDbEntity
  8
Defpoints
 62
     0
100
AcDbPoint
 10
14.12597379360263
 20
8.2756217313019
 30
0.0
  0
POINT
  5
CC8
330
A15
100
AcDbEntity
  8
Defpoints
 62
     0
100
AcDbPoint
 10
13.64418630505916
 20
8.2756217313019
 30
0.0
  0
ENDBLK
  5
A22
330
A15
100
AcDbEntity
  8
0
100
AcDbBlockEnd
  0
BLOCK
  5
A54
330
A49
100
AcDbEntity
  8
0
100
AcDbBlockBegin
  2
*D32
 70
     1
 10
0.0
 20
0.0
 30
0.0
  3
*D32
  1

  0
LINE
  5
B92
330
A49
100
AcDbEntity
  8
DIM
 62
     0
370
    -2
100
AcDbLine
 10
14.12597379360263
 20
8.911371731301898
 30
0.0
 11
14.12597379360263
 21
9.252930014401258
 31
0.0
  0
LINE
  5
B93
330
A49
100
AcDbEntity
  8
DIM
 62
     0
370
    -2
100
AcDbLine
 10
14.22597379360262
 20
8.836371731301898
 30
0.0
 11
14.22597379360262
 21
9.252930014401258
 31
0.0
  0
LINE
  5
B94
330
A49
100
AcDbEntity
  8
DIM
 62
     0
370
    -2
100
AcDbLine
 10
13.90097379360263
 20
9.136680014401257
 30
0.0
 11
13.67597379360263
 21
9.136680014401257
 31
0.0
  0
LINE
  5
B95
330
A49
100
AcDbEntity
  8
DIM
 62
     0
370
    -2
100
AcDbLine
 10
14.45097379360262
 20
9.136680014401257
 30
0.0
 11
14.67597379360262
 21
9.136680014401257
 31
0.0
  0
SOLID
  5
B96
330
A49
100
AcDbEntity
  8
DIM
 62
     0
100
AcDbTrace
 10
13.90097379360263
 20
9.174180014401256
 30
0.0
 11
13.90097379360263
 21
9.099180014401257
 31
0.0
 12
14.12597379360263
 22
9.136680014401257
 32
0.0
 13
14.12597379360263
 23
9.136680014401257
 33
0.0
  0
SOLID
  5
B97
330
A49
100
AcDbEntity
  8
DIM
 62
     0
100
AcDbTrace
 10
14.45097379360262
 20
9.174180014401256
 30
0.0
 11
14.45097379360262
 21
9.099180014401257
 31
0.0
 12
14.22597379360262
 22
9.136680014401257
 32
0.0
 13
14.22597379360262
 23
9.136680014401257
 33
0.0
  0
MTEXT
  5
B98
330
A49
100
AcDbEntity
  8
DIM
 62
     0
100
AcDbMText
 10
14.97402066860262
 20
9.136680014401257
 30
0.0
 40
0.15625
 41
0.0
 71
     5
 72
     1
  1
\A1;0.100
  7
TXT
 73
     1
 44
1.0
  0
POINT
  5
B99
330
A49
100
AcDbEntity
  8
Defpoints
 62
     0
100
AcDbPoint
 10
14.12597379360263
 20
8.832621731301898
 30
0.0
  0
POINT
  5
B9A
330
A49
100
AcDbEntity
  8
Defpoints
 62
     0
100
AcDbPoint
 10
14.22597379360262
 20
8.757621731301899
 30
0.0
  0
POINT
  5
B9B
330
A49
100
AcDbEntity
  8
Defpoints
 62
     0
100
AcDbPoint
 10
14.22597379360262
 20
9.136680014401257
 30
0.0
  0
ENDBLK
  5
A55
330
A49
100
AcDbEntity
  8
0
100
AcDbBlockEnd
  0
BLOCK
  5
C7E
330
C73
100
AcDbEntity
  8
0
100
AcDbBlockBegin
  2
*D33
 70
     1
 10
0.0
 20
0.0
 30
0.0
  3
*D33
  1

  0
LINE
  5
E70
330
C73
100
AcDbEntity
  8
DIM
 62
     0
370
    -2
100
AcDbLine
 10
15.18538269292175
 20
3.504919142269856
 30
0.0
 11
15.18538269292175
 21
5.776050111113789
 31
0.0
  0
LINE
  5
E71
330
C73
100
AcDbEntity
  8
DIM
 62
     0
370
    -2
100
AcDbLine
 10
16.54338269292175
 20
4.460919142269856
 30
0.0
 11
16.54338269292175
 21
5.776050111113789
 31
0.0
  0
LINE
  5
E72
330
C73
100
AcDbEntity
  8
DIM
 62
     0
370
    -2
100
AcDbLine
 10
15.41038269292175
 20
5.659800111113789
 30
0.0
 11
15.53703894292175
 21
5.659800111113789
 31
0.0
  0
LINE
  5
E73
330
C73
100
AcDbEntity
  8
DIM
 62
     0
370
    -2
100
AcDbLine
 10
16.31838269292175
 20
5.659800111113789
 30
0.0
 11
16.19172644292175
 21
5.659800111113789
 31
0.0
  0
SOLID
  5
E74
330
C73
100
AcDbEntity
  8
DIM
 62
     0
100
AcDbTrace
 10
15.41038269292175
 20
5.697300111113789
 30
0.0
 11
15.41038269292175
 21
5.62230011111379
 31
0.0
 12
15.18538269292175
 22
5.659800111113789
 32
0.0
 13
15.18538269292175
 23
5.659800111113789
 33
0.0
  0
SOLID
  5
E75
330
C73
100
AcDbEntity
  8
DIM
 62
     0
100
AcDbTrace
 10
16.31838269292175
 20
5.697300111113789
 30
0.0
 11
16.31838269292175
 21
5.62230011111379
 31
0.0
 12
16.54338269292175
 22
5.659800111113789
 32
0.0
 13
16.54338269292175
 23
5.659800111113789
 33
0.0
  0
MTEXT
  5
E76
330
C73
100
AcDbEntity
  8
DIM
 62
     0
100
AcDbMText
 10
15.86438269292175
 20
5.659800111113789
 30
0.0
 40
0.15625
 41
0.0
 71
     5
 72
     1
  1
\A1;1.358
  7
TXT
 73
     1
 44
1.0
  0
POINT
  5
E77
330
C73
100
AcDbEntity
  8
Defpoints
 62
     0
100
AcDbPoint
 10
15.18538269292175
 20
3.426169142269856
 30
0.0
  0
POINT
  5
E78
330
C73
100
AcDbEntity
  8
Defpoints
 62
     0
100
AcDbPoint
 10
16.54338269292175
 20
4.382169142269856
 30
0.0
  0
POINT
  5
E79
330
C73
100
AcDbEntity
  8
Defpoints
 62
     0
100
AcDbPoint
 10
16.54338269292175
 20
5.659800111113789
 30
0.0
  0
ENDBLK
  5
C7F
330
C73
100
AcDbEntity
  8
0
100
AcDbBlockEnd
  0
BLOCK
  5
C8C
330
C81
100
AcDbEntity
  8
0
100
AcDbBlockBegin
  2
*D34
 70
     1
 10
0.0
 20
0.0
 30
0.0
  3
*D34
  1

  0
LINE
  5
E48
330
C81
100
AcDbEntity
  8
DIM
 62
     0
370
    -2
100
AcDbLine
 10
15.18538269292175
 20
3.504919142269856
 30
0.0
 11
15.18538269292175
 21
6.039696558356261
 31
0.0
  0
LINE
  5
E49
330
C81
100
AcDbEntity
  8
DIM
 62
     0
370
    -2
100
AcDbLine
 10
17.90138269292175
 20
5.236919142269856
 30
0.0
 11
17.90138269292175
 21
6.039696558356261
 31
0.0
  0
LINE
  5
E4A
330
C81
100
AcDbEntity
  8
DIM
 62
     0
370
    -2
100
AcDbLine
 10
15.41038269292175
 20
5.923446558356261
 30
0.0
 11
16.21603894292175
 21
5.923446558356261
 31
0.0
  0
LINE
  5
E4B
330
C81
100
AcDbEntity
  8
DIM
 62
     0
370
    -2
100
AcDbLine
 10
17.67638269292175
 20
5.923446558356261
 30
0.0
 11
16.87072644292175
 21
5.923446558356261
 31
0.0
  0
SOLID
  5
E4C
330
C81
100
AcDbEntity
  8
DIM
 62
     0
100
AcDbTrace
 10
15.41038269292175
 20
5.960946558356261
 30
0.0
 11
15.41038269292175
 21
5.885946558356262
 31
0.0
 12
15.18538269292175
 22
5.923446558356261
 32
0.0
 13
15.18538269292175
 23
5.923446558356261
 33
0.0
  0
SOLID
  5
E4D
330
C81
100
AcDbEntity
  8
DIM
 62
     0
100
AcDbTrace
 10
17.67638269292175
 20
5.960946558356261
 30
0.0
 11
17.67638269292175
 21
5.885946558356262
 31
0.0
 12
17.90138269292175
 22
5.923446558356261
 32
0.0
 13
17.90138269292175
 23
5.923446558356261
 33
0.0
  0
MTEXT
  5
E4E
330
C81
100
AcDbEntity
  8
DIM
 62
     0
100
AcDbMText
 10
16.54338269292175
 20
5.923446558356261
 30
0.0
 40
0.15625
 41
0.0
 71
     5
 72
     1
  1
\A1;2.716
  7
TXT
 73
     1
 44
1.0
  0
POINT
  5
E4F
330
C81
100
AcDbEntity
  8
Defpoints
 62
     0
100
AcDbPoint
 10
15.18538269292175
 20
3.426169142269856
 30
0.0
  0
POINT
  5
E50
330
C81
100
AcDbEntity
  8
Defpoints
 62
     0
100
AcDbPoint
 10
17.90138269292175
 20
5.158169142269856
 30
0.0
  0
POINT
  5
E51
330
C81
100
AcDbEntity
  8
Defpoints
 62
     0
100
AcDbPoint
 10
17.90138269292175
 20
5.923446558356261
 30
0.0
  0
ENDBLK
  5
C8D
330
C81
100
AcDbEntity
  8
0
100
AcDbBlockEnd
  0
BLOCK
  5
C9A
330
C8F
100
AcDbEntity
  8
0
100
AcDbBlockBegin
  2
*D35
 70
     1
 10
0.0
 20
0.0
 30
0.0
  3
*D35
  1

  0
LINE
  5
E66
330
C8F
100
AcDbEntity
  8
DIM
 62
     0
370
    -2
100
AcDbLine
 10
15.26413269292175
 20
3.426169142269856
 30
0.0
 11
16.15367975073677
 21
3.426169142269856
 31
0.0
  0
LINE
  5
E67
330
C8F
100
AcDbEntity
  8
DIM
 62
     0
370
    -2
100
AcDbLine
 10
16.37463269292175
 20
4.292169142269856
 30
0.0
 11
15.92117975073677
 21
4.292169142269856
 31
0.0
  0
LINE
  5
E68
330
C8F
100
AcDbEntity
  8
DIM
 62
     0
370
    -2
100
AcDbLine
 10
16.03742975073677
 20
3.201169142269856
 30
0.0
 11
16.03742975073677
 21
2.976169142269855
 31
0.0
  0
LINE
  5
E69
330
C8F
100
AcDbEntity
  8
DIM
 62
     0
370
    -2
100
AcDbLine
 10
16.03742975073677
 20
4.517169142269856
 30
0.0
 11
16.03742975073677
 21
4.742169142269856
 31
0.0
  0
SOLID
  5
E6A
330
C8F
100
AcDbEntity
  8
DIM
 62
     0
100
AcDbTrace
 10
15.99992975073677
 20
3.201169142269856
 30
0.0
 11
16.07492975073677
 21
3.201169142269856
 31
0.0
 12
16.03742975073677
 22
3.426169142269856
 32
0.0
 13
16.03742975073677
 23
3.426169142269856
 33
0.0
  0
SOLID
  5
E6B
330
C8F
100
AcDbEntity
  8
DIM
 62
     0
100
AcDbTrace
 10
15.99992975073678
 20
4.517169142269856
 30
0.0
 11
16.07492975073677
 21
4.517169142269856
 31
0.0
 12
16.03742975073677
 22
4.292169142269856
 32
0.0
 13
16.03742975073677
 23
4.292169142269856
 33
0.0
  0
MTEXT
  5
E6C
330
C8F
100
AcDbEntity
  8
DIM
 62
     0
100
AcDbMText
 10
16.03742975073677
 20
3.859169142269859
 30
0.0
 40
0.15625
 41
0.0
 71
     5
 72
     1
  1
\A1;0.866
  7
TXT
 73
     1
 44
1.0
  0
POINT
  5
E6D
330
C8F
100
AcDbEntity
  8
Defpoints
 62
     0
100
AcDbPoint
 10
15.18538269292175
 20
3.426169142269856
 30
0.0
  0
POINT
  5
E6E
330
C8F
100
AcDbEntity
  8
Defpoints
 62
     0
100
AcDbPoint
 10
16.45338269292175
 20
4.292169142269856
 30
0.0
  0
POINT
  5
E6F
330
C8F
100
AcDbEntity
  8
Defpoints
 62
     0
100
AcDbPoint
 10
16.03742975073677
 20
4.292169142269856
 30
0.0
  0
ENDBLK
  5
C9B
330
C8F
100
AcDbEntity
  8
0
100
AcDbBlockEnd
  0
BLOCK
  5
CA8
330
C9D
100
AcDbEntity
  8
0
100
AcDbBlockBegin
  2
*D36
 70
     1
 10
0.0
 20
0.0
 30
0.0
  3
*D36
  1

  0
LINE
  5
E7A
330
C9D
100
AcDbEntity
  8
DIM
 62
     0
370
    -2
100
AcDbLine
 10
15.26413269292175
 20
3.426169142269856
 30
0.0
 11
17.29082830328039
 21
3.426169142269855
 31
0.0
  0
LINE
  5
E7B
330
C9D
100
AcDbEntity
  8
DIM
 62
     0
370
    -2
100
AcDbLine
 10
17.82263269292175
 20
5.158169142269856
 30
0.0
 11
17.05832830328039
 21
5.158169142269856
 31
0.0
  0
LINE
  5
E7C
330
C9D
100
AcDbEntity
  8
DIM
 62
     0
370
    -2
100
AcDbLine
 10
17.17457830328039
 20
3.651169142269855
 30
0.0
 11
17.17457830328039
 21
4.101544142269856
 31
0.0
  0
LINE
  5
E7D
330
C9D
100
AcDbEntity
  8
DIM
 62
     0
370
    -2
100
AcDbLine
 10
17.17457830328039
 20
4.933169142269856
 30
0.0
 11
17.17457830328039
 21
4.482794142269856
 31
0.0
  0
SOLID
  5
E7E
330
C9D
100
AcDbEntity
  8
DIM
 62
     0
100
AcDbTrace
 10
17.13707830328039
 20
3.651169142269855
 30
0.0
 11
17.21207830328039
 21
3.651169142269855
 31
0.0
 12
17.17457830328039
 22
3.426169142269855
 32
0.0
 13
17.17457830328039
 23
3.426169142269855
 33
0.0
  0
SOLID
  5
E7F
330
C9D
100
AcDbEntity
  8
DIM
 62
     0
100
AcDbTrace
 10
17.13707830328039
 20
4.933169142269856
 30
0.0
 11
17.21207830328039
 21
4.933169142269856
 31
0.0
 12
17.17457830328039
 22
5.158169142269856
 32
0.0
 13
17.17457830328039
 23
5.158169142269856
 33
0.0
  0
MTEXT
  5
E80
330
C9D
100
AcDbEntity
  8
DIM
 62
     0
100
AcDbMText
 10
17.17457830328039
 20
4.292169142269859
 30
0.0
 40
0.15625
 41
0.0
 71
     5
 72
     1
  1
\A1;1.732
  7
TXT
 73
     1
 44
1.0
  0
POINT
  5
E81
330
C9D
100
AcDbEntity
  8
Defpoints
 62
     0
100
AcDbPoint
 10
15.18538269292175
 20
3.426169142269856
 30
0.0
  0
POINT
  5
E82
330
C9D
100
AcDbEntity
  8
Defpoints
 62
     0
100
AcDbPoint
 10
17.90138269292175
 20
5.158169142269856
 30
0.0
  0
POINT
  5
E83
330
C9D
100
AcDbEntity
  8
Defpoints
 62
     0
100
AcDbPoint
 10
17.17457830328039
 20
5.158169142269856
 30
0.0
  0
ENDBLK
  5
CA9
330
C9D
100
AcDbEntity
  8
0
100
AcDbBlockEnd
  0
BLOCK
  5
CEC
330
CE1
100
AcDbEntity
  8
0
100
AcDbBlockBegin
  2
*D37
 70
     1
 10
0.0
 20
0.0
 30
0.0
  3
*D37
  1

  0
LINE
  5
E5C
330
CE1
100
AcDbEntity
  8
DIM
 62
     0
370
    -2
100
AcDbLine
 10
16.54338269292175
 20
4.123419142269856
 30
0.0
 11
16.54338269292175
 21
2.735142360007264
 31
0.0
  0
LINE
  5
E5D
330
CE1
100
AcDbEntity
  8
DIM
 62
     0
370
    -2
100
AcDbLine
 10
14.92838269292175
 20
3.184419142269856
 30
0.0
 11
14.92838269292175
 21
2.735142360007264
 31
0.0
  0
LINE
  5
E5E
330
CE1
100
AcDbEntity
  8
DIM
 62
     0
370
    -2
100
AcDbLine
 10
16.31838269292175
 20
2.851392360007264
 30
0.0
 11
16.04369519292175
 21
2.851392360007264
 31
0.0
  0
LINE
  5
E5F
330
CE1
100
AcDbEntity
  8
DIM
 62
     0
370
    -2
100
AcDbLine
 10
15.15338269292175
 20
2.851392360007264
 30
0.0
 11
15.42807019292175
 21
2.851392360007264
 31
0.0
  0
SOLID
  5
E60
330
CE1
100
AcDbEntity
  8
DIM
 62
     0
100
AcDbTrace
 10
16.31838269292175
 20
2.888892360007264
 30
0.0
 11
16.31838269292175
 21
2.813892360007264
 31
0.0
 12
16.54338269292175
 22
2.851392360007264
 32
0.0
 13
16.54338269292175
 23
2.851392360007264
 33
0.0
  0
SOLID
  5
E61
330
CE1
100
AcDbEntity
  8
DIM
 62
     0
100
AcDbTrace
 10
15.15338269292175
 20
2.888892360007264
 30
0.0
 11
15.15338269292175
 21
2.813892360007264
 31
0.0
 12
14.92838269292175
 22
2.851392360007264
 32
0.0
 13
14.92838269292175
 23
2.851392360007264
 33
0.0
  0
MTEXT
  5
E62
330
CE1
100
AcDbEntity
  8
DIM
 62
     0
100
AcDbMText
 10
15.73588269292175
 20
2.851392360007264
 30
0.0
 40
0.15625
 41
0.0
 71
     5
 72
     1
  1
\A1;1.615
  7
TXT
 73
     1
 44
1.0
  0
POINT
  5
E63
330
CE1
100
AcDbEntity
  8
Defpoints
 62
     0
100
AcDbPoint
 10
16.54338269292175
 20
4.202169142269856
 30
0.0
  0
POINT
  5
E64
330
CE1
100
AcDbEntity
  8
Defpoints
 62
     0
100
AcDbPoint
 10
14.92838269292175
 20
3.263169142269856
 30
0.0
  0
POINT
  5
E65
330
CE1
100
AcDbEntity
  8
Defpoints
 62
     0
100
AcDbPoint
 10
14.92838269292175
 20
2.851392360007264
 30
0.0
  0
ENDBLK
  5
CED
330
CE1
100
AcDbEntity
  8
0
100
AcDbBlockEnd
  0
BLOCK
  5
CFA
330
CEF
100
AcDbEntity
  8
0
100
AcDbBlockBegin
  2
*D38
 70
     1
 10
0.0
 20
0.0
 30
0.0
  3
*D38
  1

  0
LINE
  5
E84
330
CEF
100
AcDbEntity
  8
DIM
 62
     0
370
    -2
100
AcDbLine
 10
14.92838269292175
 20
3.184419142269856
 30
0.0
 11
14.92838269292175
 21
2.471495912764792
 31
0.0
  0
LINE
  5
E85
330
CEF
100
AcDbEntity
  8
DIM
 62
     0
370
    -2
100
AcDbLine
 10
18.15838269292175
 20
3.184419142269856
 30
0.0
 11
18.15838269292175
 21
2.471495912764792
 31
0.0
  0
LINE
  5
E86
330
CEF
100
AcDbEntity
  8
DIM
 62
     0
370
    -2
100
AcDbLine
 10
15.15338269292175
 20
2.587745912764792
 30
0.0
 11
16.20627331792175
 21
2.587745912764792
 31
0.0
  0
LINE
  5
E87
330
CEF
100
AcDbEntity
  8
DIM
 62
     0
370
    -2
100
AcDbLine
 10
17.93338269292175
 20
2.587745912764792
 30
0.0
 11
16.88049206792175
 21
2.587745912764792
 31
0.0
  0
SOLID
  5
E88
330
CEF
100
AcDbEntity
  8
DIM
 62
     0
100
AcDbTrace
 10
15.15338269292175
 20
2.625245912764792
 30
0.0
 11
15.15338269292175
 21
2.550245912764792
 31
0.0
 12
14.92838269292175
 22
2.587745912764792
 32
0.0
 13
14.92838269292175
 23
2.587745912764792
 33
0.0
  0
SOLID
  5
E89
330
CEF
100
AcDbEntity
  8
DIM
 62
     0
100
AcDbTrace
 10
17.93338269292175
 20
2.625245912764792
 30
0.0
 11
17.93338269292175
 21
2.550245912764792
 31
0.0
 12
18.15838269292175
 22
2.587745912764792
 32
0.0
 13
18.15838269292175
 23
2.587745912764792
 33
0.0
  0
MTEXT
  5
E8A
330
CEF
100
AcDbEntity
  8
DIM
 62
     0
100
AcDbMText
 10
16.54338269292175
 20
2.587745912764792
 30
0.0
 40
0.15625
 41
0.0
 71
     5
 72
     1
  1
\A1;3.230
  7
TXT
 73
     1
 44
1.0
  0
POINT
  5
E8B
330
CEF
100
AcDbEntity
  8
Defpoints
 62
     0
100
AcDbPoint
 10
14.92838269292175
 20
3.263169142269856
 30
0.0
  0
POINT
  5
E8C
330
CEF
100
AcDbEntity
  8
Defpoints
 62
     0
100
AcDbPoint
 10
18.15838269292175
 20
3.263169142269856
 30
0.0
  0
POINT
  5
E8D
330
CEF
100
AcDbEntity
  8
Defpoints
 62
     0
100
AcDbPoint
 10
18.15838269292175
 20
2.587745912764792
 30
0.0
  0
ENDBLK
  5
CFB
330
CEF
100
AcDbEntity
  8
0
100
AcDbBlockEnd
  0
BLOCK
  5
D08
330
CFD
100
AcDbEntity
  8
0
100
AcDbBlockBegin
  2
*D39
 70
     1
 10
0.0
 20
0.0
 30
0.0
  3
*D39
  1

  0
LINE
  5
E52
330
CFD
100
AcDbEntity
  8
DIM
 62
     0
370
    -2
100
AcDbLine
 10
16.37463269292175
 20
4.292169142269856
 30
0.0
 11
14.18780645123431
 21
4.292169142269856
 31
0.0
  0
LINE
  5
E53
330
CFD
100
AcDbEntity
  8
DIM
 62
     0
370
    -2
100
AcDbLine
 10
14.94263269292175
 20
5.414169142269856
 30
0.0
 11
14.18780645123431
 21
5.414169142269856
 31
0.0
  0
LINE
  5
E54
330
CFD
100
AcDbEntity
  8
DIM
 62
     0
370
    -2
100
AcDbLine
 10
14.30405645123431
 20
4.517169142269856
 30
0.0
 11
14.30405645123431
 21
4.662544142269856
 31
0.0
  0
LINE
  5
E55
330
CFD
100
AcDbEntity
  8
DIM
 62
     0
370
    -2
100
AcDbLine
 10
14.30405645123431
 20
5.189169142269856
 30
0.0
 11
14.30405645123431
 21
5.043794142269856
 31
0.0
  0
SOLID
  5
E56
330
CFD
100
AcDbEntity
  8
DIM
 62
     0
100
AcDbTrace
 10
14.26655645123432
 20
4.517169142269856
 30
0.0
 11
14.34155645123431
 21
4.517169142269856
 31
0.0
 12
14.30405645123431
 22
4.292169142269856
 32
0.0
 13
14.30405645123431
 23
4.292169142269856
 33
0.0
  0
SOLID
  5
E57
330
CFD
100
AcDbEntity
  8
DIM
 62
     0
100
AcDbTrace
 10
14.26655645123432
 20
5.189169142269856
 30
0.0
 11
14.34155645123431
 21
5.189169142269856
 31
0.0
 12
14.30405645123431
 22
5.414169142269856
 32
0.0
 13
14.30405645123431
 23
5.414169142269856
 33
0.0
  0
MTEXT
  5
E58
330
CFD
100
AcDbEntity
  8
DIM
 62
     0
100
AcDbMText
 10
14.30405645123431
 20
4.853169142269859
 30
0.0
 40
0.15625
 41
0.0
 71
     5
 72
     1
  1
\A1;1.122
  7
TXT
 73
     1
 44
1.0
  0
POINT
  5
E59
330
CFD
100
AcDbEntity
  8
Defpoints
 62
     0
100
AcDbPoint
 10
16.45338269292175
 20
4.292169142269856
 30
0.0
  0
POINT
  5
E5A
330
CFD
100
AcDbEntity
  8
Defpoints
 62
     0
100
AcDbPoint
 10
15.02138269292175
 20
5.414169142269856
 30
0.0
  0
POINT
  5
E5B
330
CFD
100
AcDbEntity
  8
Defpoints
 62
     0
100
AcDbPoint
 10
14.30405645123431
 20
5.414169142269856
 30
0.0
  0
ENDBLK
  5
D09
330
CFD
100
AcDbEntity
  8
0
100
AcDbBlockEnd
  0
BLOCK
  5
D67
330
D5C
100
AcDbEntity
  8
0
100
AcDbBlockBegin
  2
*D40
 70
     1
 10
0.0
 20
0.0
 30
0.0
  3
*D40
  1

  0
LINE
  5
E8E
330
D5C
100
AcDbEntity
  8
DIM
 62
     0
370
    -2
100
AcDbLine
 10
14.94263269292175
 20
5.414169142269856
 30
0.0
 11
13.71823993363865
 21
5.414169142269857
 31
0.0
  0
LINE
  5
E8F
330
D5C
100
AcDbEntity
  8
DIM
 62
     0
370
    -2
100
AcDbLine
 10
14.94263269292175
 20
3.170169142269857
 30
0.0
 11
13.71823993363865
 21
3.170169142269857
 31
0.0
  0
LINE
  5
E90
330
D5C
100
AcDbEntity
  8
DIM
 62
     0
370
    -2
100
AcDbLine
 10
13.83448993363865
 20
5.189169142269857
 30
0.0
 11
13.83448993363865
 21
4.482794142269857
 31
0.0
  0
LINE
  5
E91
330
D5C
100
AcDbEntity
  8
DIM
 62
     0
370
    -2
100
AcDbLine
 10
13.83448993363865
 20
3.395169142269857
 30
0.0
 11
13.83448993363865
 21
4.101544142269857
 31
0.0
  0
SOLID
  5
E92
330
D5C
100
AcDbEntity
  8
DIM
 62
     0
100
AcDbTrace
 10
13.79698993363865
 20
5.189169142269857
 30
0.0
 11
13.87198993363865
 21
5.189169142269857
 31
0.0
 12
13.83448993363865
 22
5.414169142269857
 32
0.0
 13
13.83448993363865
 23
5.414169142269857
 33
0.0
  0
SOLID
  5
E93
330
D5C
100
AcDbEntity
  8
DIM
 62
     0
100
AcDbTrace
 10
13.79698993363865
 20
3.395169142269857
 30
0.0
 11
13.87198993363865
 21
3.395169142269857
 31
0.0
 12
13.83448993363865
 22
3.170169142269857
 32
0.0
 13
13.83448993363865
 23
3.170169142269857
 33
0.0
  0
MTEXT
  5
E94
330
D5C
100
AcDbEntity
  8
DIM
 62
     0
100
AcDbMText
 10
13.83448993363865
 20
4.292169142269859
 30
0.0
 40
0.15625
 41
0.0
 71
     5
 72
     1
  1
\A1;2.244
  7
TXT
 73
     1
 44
1.0
  0
POINT
  5
E95
330
D5C
100
AcDbEntity
  8
Defpoints
 62
     0
100
AcDbPoint
 10
15.02138269292175
 20
5.414169142269856
 30
0.0
  0
POINT
  5
E96
330
D5C
100
AcDbEntity
  8
Defpoints
 62
     0
100
AcDbPoint
 10
15.02138269292175
 20
3.170169142269856
 30
0.0
  0
POINT
  5
E97
330
D5C
100
AcDbEntity
  8
Defpoints
 62
     0
100
AcDbPoint
 10
13.83448993363865
 20
3.170169142269857
 30
0.0
  0
ENDBLK
  5
D68
330
D5C
100
AcDbEntity
  8
0
100
AcDbBlockEnd
  0
BLOCK
  5
D8E
330
D7F
100
AcDbEntity
  8
0
100
AcDbBlockBegin
  2
*D41
 70
     1
 10
0.0
 20
0.0
 30
0.0
  3
*D41
  1

  0
LINE
  5
D9F
330
D7F
100
AcDbEntity
  8
DIM
 62
     0
370
    -2
100
AcDbLine
 10
8.354999082226294
 20
5.124724871431872
 30
0.0
 11
8.35499908222629
 21
3.652630590082094
 31
0.0
  0
LINE
  5
DA0
330
D7F
100
AcDbEntity
  8
DIM
 62
     0
370
    -2
100
AcDbLine
 10
8.40869032561045
 20
4.065743220957325
 30
0.0
 11
8.426658943315413
 21
3.654194213813451
 31
0.0
  0
ARC
  5
DA1
330
D7F
100
AcDbEntity
  8
DIM
 62
     0
370
    -2
100
AcDbCircle
 10
8.354999082226292
 20
5.295474871431873
 30
0.0
 40
1.526594281349778
100
AcDbArc
 50
253.0489522647563
 51
269.9999999999999
  0
LINE
  5
DA2
330
D7F
100
AcDbEntity
  8
DIM
 62
     0
370
    -2
100
AcDbLine
 10
7.90991357016758
 20
3.835204695469465
 30
0.0
 11
7.68491357016758
 21
3.835204695469465
 31
0.0
  0
ARC
  5
DA3
330
D7F
100
AcDbEntity
  8
DIM
 62
     0
370
    -2
100
AcDbCircle
 10
8.354999082226292
 20
5.295474871431874
 30
0.0
 40
1.526594281349778
100
AcDbArc
 50
253.0953809191903
 51
261.5476904595951
  0
ARC
  5
DA4
330
D7F
100
AcDbEntity
  8
DIM
 62
     0
370
    -2
100
AcDbCircle
 10
8.354999082226292
 20
5.295474871431874
 30
0.0
 40
1.526594281349778
100
AcDbArc
 50
280.9523095404045
 51
289.4046190808094
  0
SOLID
  5
DA5
330
D7F
100
AcDbEntity
  8
DIM
 62
     0
100
AcDbTrace
 10
8.133374374883201
 20
3.822859651717976
 30
0.0
 11
8.127847366100921
 21
3.748063581139899
 31
0.0
 12
8.35499908222629
 22
3.768880590082094
 32
0.0
 13
8.35499908222629
 23
3.768880590082094
 33
0.0
  0
SOLID
  5
DA6
330
D7F
100
AcDbEntity
  8
DIM
 62
     0
100
AcDbTrace
 10
8.649431732735347
 20
3.759444592506361
 30
0.0
 11
8.640647425664791
 21
3.833928389061654
 31
0.0
 12
8.42158818953419
 22
3.770333569572343
 32
0.0
 13
8.42158818953419
 23
3.770333569572343
 33
0.0
  0
MTEXT
  5
DA7
330
D7F
100
AcDbEntity
  8
DIM
 62
     0
100
AcDbMText
 10
7.240382320167579
 20
3.835204695469466
 30
0.0
 40
0.15625
 41
0.0
 71
     5
 72
     1
  1
\A1;2° TYP.
  7
TXT
 73
     1
 44
1.0
  0
POINT
  5
DA8
330
D7F
100
AcDbEntity
  8
Defpoints
 62
     0
100
AcDbPoint
 10
8.39939964753419
 20
3.769526415667333
 30
0.0
  0
POINT
  5
DA9
330
D7F
100
AcDbEntity
  8
Defpoints
 62
     0
100
AcDbPoint
 10
8.354999082226292
 20
5.295474871431873
 30
0.0
  0
POINT
  5
DAA
330
D7F
100
AcDbEntity
  8
Defpoints
 62
     0
100
AcDbPoint
 10
8.354999082226292
 20
5.295474871431873
 30
0.0
  0
POINT
  5
DAB
330
D7F
100
AcDbEntity
  8
Defpoints
 62
     0
100
AcDbPoint
 10
8.354999082226292
 20
5.203474871431873
 30
0.0
  0
POINT
  5
DAC
330
D7F
100
AcDbEntity
  8
Defpoints
 62
     0
100
AcDbPoint
 10
8.405255298855431
 20
4.144418268406897
 30
0.0
  0
ENDBLK
  5
D8F
330
D7F
100
AcDbEntity
  8
0
100
AcDbBlockEnd
  0
BLOCK
  5
DC7
330
DBC
100
AcDbEntity
  8
0
100
AcDbBlockBegin
  2
*D42
 70
     1
 10
0.0
 20
0.0
 30
0.0
  3
*D42
  1

  0
LINE
  5
DD8
330
DBC
100
AcDbEntity
  8
DIM
 62
     0
370
    -2
100
AcDbLine
 10
11.44513986564588
 20
8.4828717313019
 30
0.0
 11
11.44513986564588
 21
8.142733669919905
 31
0.0
  0
LINE
  5
DD9
330
DBC
100
AcDbEntity
  8
DIM
 62
     0
370
    -2
100
AcDbLine
 10
8.494858298806693
 20
8.4828717313019
 30
0.0
 11
8.494858298806693
 21
8.142733669919905
 31
0.0
  0
LINE
  5
DDA
330
DBC
100
AcDbEntity
  8
DIM
 62
     0
370
    -2
100
AcDbLine
 10
11.22013986564588
 20
8.258983669919906
 30
0.0
 11
10.42429595722629
 21
8.258983669919906
 31
0.0
  0
LINE
  5
DDB
330
DBC
100
AcDbEntity
  8
DIM
 62
     0
370
    -2
100
AcDbLine
 10
8.719858298806693
 20
8.258983669919906
 30
0.0
 11
9.51570220722629
 21
8.258983669919906
 31
0.0
  0
SOLID
  5
DDC
330
DBC
100
AcDbEntity
  8
DIM
 62
     0
100
AcDbTrace
 10
11.22013986564588
 20
8.296483669919906
 30
0.0
 11
11.22013986564588
 21
8.221483669919907
 31
0.0
 12
11.44513986564588
 22
8.258983669919906
 32
0.0
 13
11.44513986564588
 23
8.258983669919906
 33
0.0
  0
SOLID
  5
DDD
330
DBC
100
AcDbEntity
  8
DIM
 62
     0
100
AcDbTrace
 10
8.719858298806693
 20
8.296483669919906
 30
0.0
 11
8.719858298806693
 21
8.221483669919907
 31
0.0
 12
8.494858298806693
 22
8.258983669919906
 32
0.0
 13
8.494858298806693
 23
8.258983669919906
 33
0.0
  0
MTEXT
  5
DDE
330
DBC
100
AcDbEntity
  8
DIM
 62
     0
100
AcDbMText
 10
9.969999082226291
 20
8.258983669919906
 30
0.0
 40
0.15625
 41
0.0
 71
     5
 72
     1
  1
\A1;* 2.950
  7
TXT
 73
     1
 44
1.0
  0
POINT
  5
DDF
330
DBC
100
AcDbEntity
  8
Defpoints
 62
     0
100
AcDbPoint
 10
11.44513986564588
 20
8.561621731301899
 30
0.0
  0
POINT
  5
DE0
330
DBC
100
AcDbEntity
  8
Defpoints
 62
     0
100
AcDbPoint
 10
8.494858298806693
 20
8.561621731301899
 30
0.0
  0
POINT
  5
DE1
330
DBC
100
AcDbEntity
  8
Defpoints
 62
     0
100
AcDbPoint
 10
8.494858298806693
 20
8.258983669919906
 30
0.0
  0
ENDBLK
  5
DC8
330
DBC
100
AcDbEntity
  8
0
100
AcDbBlockEnd
  0
BLOCK
  5
DD5
330
DCA
100
AcDbEntity
  8
0
100
AcDbBlockBegin
  2
*D43
 70
     1
 10
0.0
 20
0.0
 30
0.0
  3
*D43
  1

  0
LINE
  5
DEC
330
DCA
100
AcDbEntity
  8
DIM
 62
     0
370
    -2
100
AcDbLine
 10
8.573608298806693
 20
6.728480947882301
 30
0.0
 11
9.330011517236526
 21
6.728480947882301
 31
0.0
  0
LINE
  5
DED
330
DCA
100
AcDbEntity
  8
DIM
 62
     0
370
    -2
100
AcDbLine
 10
8.573608298806693
 20
8.692762514721495
 30
0.0
 11
9.330011517236526
 21
8.692762514721495
 31
0.0
  0
LINE
  5
DEE
330
DCA
100
AcDbEntity
  8
DIM
 62
     0
370
    -2
100
AcDbLine
 10
9.213761517236525
 20
6.953480947882301
 30
0.0
 11
9.213761517236525
 21
7.519996731301898
 31
0.0
  0
LINE
  5
DEF
330
DCA
100
AcDbEntity
  8
DIM
 62
     0
370
    -2
100
AcDbLine
 10
9.213761517236525
 20
8.467762514721496
 30
0.0
 11
9.213761517236525
 21
7.901246731301898
 31
0.0
  0
SOLID
  5
DF0
330
DCA
100
AcDbEntity
  8
DIM
 62
     0
100
AcDbTrace
 10
9.176261517236525
 20
6.953480947882301
 30
0.0
 11
9.251261517236525
 21
6.953480947882301
 31
0.0
 12
9.213761517236525
 22
6.728480947882301
 32
0.0
 13
9.213761517236525
 23
6.728480947882301
 33
0.0
  0
SOLID
  5
DF1
330
DCA
100
AcDbEntity
  8
DIM
 62
     0
100
AcDbTrace
 10
9.176261517236525
 20
8.467762514721496
 30
0.0
 11
9.251261517236525
 21
8.467762514721496
 31
0.0
 12
9.213761517236525
 22
8.692762514721495
 32
0.0
 13
9.213761517236525
 23
8.692762514721495
 33
0.0
  0
MTEXT
  5
DF2
330
DCA
100
AcDbEntity
  8
DIM
 62
     0
100
AcDbMText
 10
9.213761517236523
 20
7.710621731301899
 30
0.0
 40
0.15625
 41
0.0
 71
     5
 72
     1
  1
\A1;* 1.964
  7
TXT
 73
     1
 44
1.0
  0
POINT
  5
DF3
330
DCA
100
AcDbEntity
  8
Defpoints
 62
     0
100
AcDbPoint
 10
8.494858298806693
 20
6.728480947882301
 30
0.0
  0
POINT
  5
DF4
330
DCA
100
AcDbEntity
  8
Defpoints
 62
     0
100
AcDbPoint
 10
8.494858298806693
 20
8.692762514721495
 30
0.0
  0
POINT
  5
DF5
330
DCA
100
AcDbEntity
  8
Defpoints
 62
     0
100
AcDbPoint
 10
9.213761517236525
 20
8.692762514721495
 30
0.0
  0
ENDBLK
  5
DD6
330
DCA
100
AcDbEntity
  8
0
100
AcDbBlockEnd
  0
ENDSEC
  0
SECTION
  2
ENTITIES
  0
LINE
  5
6C
330
1F
100
AcDbEntity
  8
OBJECT
100
AcDbLine
 10
11.53474286559715
 20
4.144418268406896
 30
0.0
 11
11.58499908222629
 21
5.295474871431872
 31
0.0
  0
LINE
  5
6D
330
1F
100
AcDbEntity
  8
OBJECT
100
AcDbLine
 10
11.58499908222629
 20
5.295474871431872
 30
0.0
 11
8.354999082226292
 21
5.295474871431872
 31
0.0
  0
LINE
  5
6E
330
1F
100
AcDbEntity
  8
OBJECT
100
AcDbLine
 10
8.354999082226292
 20
5.295474871431872
 30
0.0
 11
8.405255298855429
 21
4.144418268406896
 31
0.0
  0
LINE
  5
6F
330
1F
100
AcDbEntity
  8
OBJECT
100
AcDbLine
 10
15.36597379360263
 20
6.731789432538151
 30
0.0
 11
15.36597379360263
 21
8.689454030065647
 31
0.0
  0
LINE
  5
70
330
1F
100
AcDbEntity
  8
OBJECT
100
AcDbLine
 10
15.2770303966276
 20
8.782365514672761
 30
0.0
 11
14.12597379360263
 21
8.832621731301898
 31
0.0
  0
LINE
  5
71
330
1F
100
AcDbEntity
  8
OBJECT
100
AcDbLine
 10
14.12597379360263
 20
8.832621731301898
 30
0.0
 11
14.12597379360263
 21
6.588621731301898
 31
0.0
  0
LINE
  5
72
330
1F
100
AcDbEntity
  8
OBJECT
100
AcDbLine
 10
14.12597379360263
 20
6.588621731301898
 30
0.0
 11
15.2770303966276
 21
6.638877947931038
 31
0.0
  0
LINE
  5
A1
330
1F
100
AcDbEntity
  8
CENTER
100
AcDbLine
 10
9.879999082226293
 20
7.710621731301898
 30
0.0
 11
10.05999908222629
 21
7.710621731301898
 31
0.0
  0
LINE
  5
A2
330
1F
100
AcDbEntity
  8
CENTER
100
AcDbLine
 10
9.969999082226292
 20
7.620621731301898
 30
0.0
 11
9.969999082226292
 21
7.800621731301898
 31
0.0
  0
CIRCLE
  5
AF
330
1F
100
AcDbEntity
  8
OBJECT
100
AcDbCircle
 10
8.611999082226292
 20
6.844621731301898
 30
0.0
 40
0.0395
  0
CIRCLE
  5
B0
330
1F
100
AcDbEntity
  8
OBJECT
100
AcDbCircle
 10
11.32799908222629
 20
8.576621731301898
 30
0.0
 40
0.0395
  0
CIRCLE
  5
B1
330
1F
100
AcDbEntity
  8
OBJECT
100
AcDbCircle
 10
8.611999082226292
 20
6.844621731301898
 30
0.0
 40
0.0985
  0
CIRCLE
  5
B2
330
1F
100
AcDbEntity
  8
OBJECT
100
AcDbCircle
 10
11.32799908222629
 20
8.576621731301898
 30
0.0
 40
0.0985
  0
LINE
  5
B8
330
1F
100
AcDbEntity
  8
CENTER
  6
CENTER2
100
AcDbLine
 10
11.45999908222629
 20
8.379621731301899
 30
0.0
 11
12.04499908222629
 21
8.379621731301899
 31
0.0
  0
CIRCLE
  5
BA
330
1F
100
AcDbEntity
  8
OBJECT
100
AcDbCircle
 10
11.74199908222629
 20
6.962621731301899
 30
0.0
 40
0.073
  0
ARC
  5
BB
330
1F
100
AcDbEntity
  8
OBJECT
100
AcDbCircle
 10
11.74199908222629
 20
6.962621731301899
 30
0.0
 40
0.157
100
AcDbArc
 50
270.0
 51
90.0
  0
LINE
  5
BC
330
1F
100
AcDbEntity
  8
OBJECT
100
AcDbLine
 10
11.74199908222629
 20
7.119621731301899
 30
0.0
 11
11.58499908222629
 21
7.119621731301899
 31
0.0
  0
LINE
  5
BD
330
1F
100
AcDbEntity
  8
OBJECT
100
AcDbLine
 10
11.74199908222629
 20
6.805621731301899
 30
0.0
 11
11.58499908222629
 21
6.805621731301899
 31
0.0
  0
LINE
  5
BE
330
1F
100
AcDbEntity
  8
OBJECT
100
AcDbLine
 10
11.50999908222628
 20
8.483621731301898
 30
0.0
 11
11.91999908222629
 21
8.483621731301898
 31
0.0
  0
LINE
  5
BF
330
1F
100
AcDbEntity
  8
OBJECT
100
AcDbLine
 10
11.50999908222628
 20
8.2756217313019
 30
0.0
 11
11.91999908222629
 21
8.2756217313019
 31
0.0
  0
LINE
  5
C1
330
1F
100
AcDbEntity
  8
OBJECT
100
AcDbLine
 10
11.58499908222629
 20
8.592121731301899
 30
0.0
 11
11.91999908222629
 21
8.536621731301899
 31
0.0
  0
LINE
  5
C2
330
1F
100
AcDbEntity
  8
OBJECT
100
AcDbLine
 10
11.58499908222629
 20
8.167121731301898
 30
0.0
 11
11.91999908222629
 21
8.222621731301899
 31
0.0
  0
LINE
  5
C6
330
1F
100
AcDbEntity
  8
OBJECT
100
AcDbLine
 10
11.91999908222629
 20
8.222621731301899
 30
0.0
 11
11.91999908222629
 21
8.536621731301899
 31
0.0
  0
ARC
  5
C9
330
1F
100
AcDbEntity
  8
OBJECT
100
AcDbCircle
 10
8.197999082226292
 20
8.458621731301899
 30
0.0
 40
0.157
100
AcDbArc
 50
90.00000000000003
 51
270.0
  0
CIRCLE
  5
CA
330
1F
100
AcDbEntity
  8
OBJECT
100
AcDbCircle
 10
8.197999082226292
 20
8.458621731301899
 30
0.0
 40
0.073
  0
LINE
  5
CB
330
1F
100
AcDbEntity
  8
OBJECT
100
AcDbLine
 10
8.197999082226292
 20
8.615621731301899
 30
0.0
 11
8.354999082226292
 21
8.615621731301899
 31
0.0
  0
LINE
  5
CC
330
1F
100
AcDbEntity
  8
OBJECT
100
AcDbLine
 10
8.197999082226292
 20
8.301621731301899
 30
0.0
 11
8.354999082226292
 21
8.301621731301899
 31
0.0
  0
LINE
  5
CD
330
1F
100
AcDbEntity
  8
OBJECT
100
AcDbLine
 10
8.019999082226291
 20
7.198621731301898
 30
0.0
 11
8.019999082226291
 21
6.884621731301898
 31
0.0
  0
LINE
  5
CE
330
1F
100
AcDbEntity
  8
OBJECT
100
AcDbLine
 10
8.354999082226292
 20
7.254121731301898
 30
0.0
 11
8.019999082226291
 21
7.198621731301898
 31
0.0
  0
LINE
  5
CF
330
1F
100
AcDbEntity
  8
OBJECT
100
AcDbLine
 10
8.429999082226292
 20
7.145621731301899
 30
0.0
 11
8.019999082226291
 21
7.145621731301899
 31
0.0
  0
LINE
  5
D0
330
1F
100
AcDbEntity
  8
OBJECT
100
AcDbLine
 10
8.354999082226292
 20
6.829121731301897
 30
0.0
 11
8.019999082226291
 21
6.884621731301898
 31
0.0
  0
LINE
  5
D1
330
1F
100
AcDbEntity
  8
OBJECT
100
AcDbLine
 10
8.429999082226292
 20
6.937621731301898
 30
0.0
 11
8.019999082226291
 21
6.937621731301899
 31
0.0
  0
LINE
  5
D2
330
1F
100
AcDbEntity
  8
CENTER
  6
CENTER2
100
AcDbLine
 10
8.479999082226292
 20
7.041621731301898
 30
0.0
 11
7.894999082226291
 21
7.041621731301898
 31
0.0
  0
LINE
  5
D3
330
1F
100
AcDbEntity
  8
OBJECT
100
AcDbLine
 10
11.89899908222629
 20
5.295474871431872
 30
0.0
 11
11.89899908222629
 21
5.203474871431872
 31
0.0
  0
LINE
  5
D4
330
1F
100
AcDbEntity
  8
OBJECT
100
AcDbLine
 10
11.58499908222629
 20
5.295474871431872
 30
0.0
 11
11.91999908222629
 21
5.295474871431872
 31
0.0
  0
LINE
  5
D5
330
1F
100
AcDbEntity
  8
OBJECT
100
AcDbLine
 10
11.58098227547871
 20
5.203474871431872
 30
0.0
 11
11.89899908222629
 21
5.203474871431872
 31
0.0
  0
LINE
  5
D7
330
1F
100
AcDbEntity
  8
OBJECT
100
AcDbLine
 10
11.79999908222629
 20
8.2756217313019
 30
0.0
 11
11.79999908222629
 21
8.4836217313019
 31
0.0
  0
LINE
  5
D8
330
1F
100
AcDbEntity
  8
OBJECT
100
AcDbLine
 10
8.139999082226292
 20
7.145621731301899
 30
0.0
 11
8.139999082226292
 21
6.937621731301899
 31
0.0
  0
LINE
  5
DA
330
1F
100
AcDbEntity
  8
OBJECT
100
AcDbLine
 10
8.231999082226293
 20
7.145621731301899
 30
0.0
 11
8.231999082226293
 21
6.937621731301899
 31
0.0
  0
LINE
  5
DB
330
1F
100
AcDbEntity
  8
OBJECT
100
AcDbLine
 10
11.70799908222629
 20
8.2756217313019
 30
0.0
 11
11.70799908222629
 21
8.4836217313019
 31
0.0
  0
LINE
  5
DC
330
1F
100
AcDbEntity
  8
OBJECT
100
AcDbLine
 10
8.447999082226292
 20
6.588621731301898
 30
0.0
 11
11.49199908222629
 21
6.588621731301898
 31
0.0
  0
LINE
  5
DD
330
1F
100
AcDbEntity
  8
OBJECT
100
AcDbLine
 10
11.58499908222629
 20
6.681621731301898
 30
0.0
 11
11.58499908222629
 21
6.805621731301899
 31
0.0
  0
LINE
  5
DE
330
1F
100
AcDbEntity
  8
OBJECT
100
AcDbLine
 10
11.49199908222629
 20
8.832621731301898
 30
0.0
 11
8.447999082226292
 21
8.832621731301898
 31
0.0
  0
LINE
  5
DF
330
1F
100
AcDbEntity
  8
OBJECT
100
AcDbLine
 10
8.354999082226292
 20
8.739621731301898
 30
0.0
 11
8.354999082226292
 21
8.615621731301899
 31
0.0
  0
ARC
  5
E0
330
1F
100
AcDbEntity
  8
OBJECT
100
AcDbCircle
 10
8.447999082226292
 20
8.739621731301898
 30
0.0
 40
0.093
100
AcDbArc
 50
90.0
 51
180.0
  0
ARC
  5
E1
330
1F
100
AcDbEntity
  8
OBJECT
100
AcDbCircle
 10
8.447999082226292
 20
6.681621731301898
 30
0.0
 40
0.093
100
AcDbArc
 50
180.0
 51
270.0
  0
ARC
  5
E2
330
1F
100
AcDbEntity
  8
OBJECT
100
AcDbCircle
 10
11.49199908222629
 20
6.681621731301898
 30
0.0
 40
0.093
100
AcDbArc
 50
270.0
 51
0.0
  0
ARC
  5
E3
330
1F
100
AcDbEntity
  8
OBJECT
100
AcDbCircle
 10
11.49199908222629
 20
8.739621731301898
 30
0.0
 40
0.093
100
AcDbArc
 50
0.0
 51
89.99999999999998
  0
LINE
  5
E4
330
1F
100
AcDbEntity
  8
OBJECT
100
AcDbLine
 10
11.91999908222629
 20
5.138474871431872
 30
0.0
 11
11.91999908222629
 21
5.295474871431872
 31
0.0
  0
LINE
  5
E5
330
1F
100
AcDbEntity
  8
OBJECT
100
AcDbLine
 10
11.57552465761514
 20
5.078474871431872
 30
0.0
 11
11.91999908222629
 21
5.138474871431872
 31
0.0
  0
LINE
  5
E8
330
1F
100
AcDbEntity
  8
OBJECT
100
AcDbLine
 10
14.21797379360263
 20
7.119621731301899
 30
0.0
 11
14.12597379360263
 21
7.119621731301899
 31
0.0
  0
LINE
  5
E9
330
1F
100
AcDbEntity
  8
OBJECT
100
AcDbLine
 10
14.21797379360263
 20
6.805621731301899
 30
0.0
 11
14.12597379360263
 21
6.805621731301899
 31
0.0
  0
LINE
  5
EA
330
1F
100
AcDbEntity
  8
OBJECT
100
AcDbLine
 10
14.12597379360263
 20
7.119621731301899
 30
0.0
 11
14.12597379360263
 21
7.454621731301899
 31
0.0
  0
LINE
  5
EC
330
1F
100
AcDbEntity
  8
OBJECT
100
AcDbLine
 10
14.21797379360263
 20
6.805621731301899
 30
0.0
 11
14.21797379360263
 21
7.119621731301899
 31
0.0
  0
LWPOLYLINE
  5
103
330
1F
100
AcDbEntity
  8
HIDDEN
100
AcDbPolyline
 90
        4
 70
     1
 43
0.0
 10
8.735999082226292
 20
6.970621731301898
 10
8.735999082226292
 20
8.450621731301898
 10
11.20399908222629
 20
8.450621731301897
 10
11.20399908222629
 20
6.970621731301898
  0
LINE
  5
106
330
1F
100
AcDbEntity
  8
OBJECT
100
AcDbLine
 10
4.929846518593532
 20
8.832621731301898
 30
0.0
 11
1.885846518593531
 21
8.832621731301898
 31
0.0
  0
LINE
  5
107
330
1F
100
AcDbEntity
  8
OBJECT
100
AcDbLine
 10
1.885846518593531
 20
6.588621731301898
 30
0.0
 11
4.929846518593532
 21
6.588621731301898
 31
0.0
  0
LINE
  5
10A
330
1F
100
AcDbEntity
  8
OBJECT
100
AcDbLine
 10
1.792846518593531
 20
8.739621731301898
 30
0.0
 11
1.792846518593531
 21
8.615621731301899
 31
0.0
  0
LINE
  5
10C
330
1F
100
AcDbEntity
  8
CENTER
100
AcDbLine
 10
3.407846518593531
 20
7.620621731301898
 30
0.0
 11
3.407846518593531
 21
7.800621731301898
 31
0.0
  0
LINE
  5
10F
330
1F
100
AcDbEntity
  8
OBJECT
100
AcDbLine
 10
1.45784651859353
 20
7.198621731301898
 30
0.0
 11
1.45784651859353
 21
6.884621731301898
 31
0.0
  0
LINE
  5
110
330
1F
100
AcDbEntity
  8
OBJECT
100
AcDbLine
 10
1.884846518593532
 20
6.813879940257122
 30
0.0
 11
1.45784651859353
 21
6.884621731301898
 31
0.0
  0
ARC
  5
113
330
1F
100
AcDbEntity
  8
OBJECT
100
AcDbCircle
 10
1.885846518593531
 20
6.681621731301898
 30
0.0
 40
0.093
100
AcDbArc
 50
180.0
 51
270.0
  0
LINE
  5
114
330
1F
100
AcDbEntity
  8
OBJECT
100
AcDbLine
 10
1.884846518593532
 20
7.269363522346674
 30
0.0
 11
1.45784651859353
 21
7.198621731301898
 31
0.0
  0
CIRCLE
  5
117
330
1F
100
AcDbEntity
  8
OBJECT
100
AcDbCircle
 10
2.049846518593531
 20
6.844621731301898
 30
0.0
 40
0.0395
  0
LINE
  5
118
330
1F
100
AcDbEntity
  8
CENTER
100
AcDbLine
 10
3.317846518593531
 20
7.710621731301898
 30
0.0
 11
3.497846518593531
 21
7.710621731301898
 31
0.0
  0
ARC
  5
119
330
1F
100
AcDbEntity
  8
OBJECT
100
AcDbCircle
 10
1.635846518593531
 20
8.458621731301899
 30
0.0
 40
0.157
100
AcDbArc
 50
90.00000000000003
 51
270.0
  0
CIRCLE
  5
11A
330
1F
100
AcDbEntity
  8
OBJECT
100
AcDbCircle
 10
1.635846518593531
 20
8.458621731301899
 30
0.0
 40
0.073
  0
LINE
  5
11B
330
1F
100
AcDbEntity
  8
OBJECT
100
AcDbLine
 10
1.635846518593531
 20
8.301621731301899
 30
0.0
 11
1.884846518593532
 21
8.301621731301898
 31
0.0
  0
ARC
  5
11C
330
1F
100
AcDbEntity
  8
OBJECT
100
AcDbCircle
 10
1.885846518593531
 20
8.739621731301898
 30
0.0
 40
0.093
100
AcDbArc
 50
90.0
 51
180.0
  0
LINE
  5
11D
330
1F
100
AcDbEntity
  8
OBJECT
100
AcDbLine
 10
1.635846518593531
 20
8.615621731301899
 30
0.0
 11
1.884846518593532
 21
8.615621731301899
 31
0.0
  0
LINE
  5
11E
330
1F
100
AcDbEntity
  8
OBJECT
100
AcDbLine
 10
5.022846518593532
 20
6.681621731301898
 30
0.0
 11
5.022846518593532
 21
6.805621731301899
 31
0.0
  0
ARC
  5
120
330
1F
100
AcDbEntity
  8
OBJECT
100
AcDbCircle
 10
5.179846518593532
 20
6.962621731301899
 30
0.0
 40
0.157
100
AcDbArc
 50
270.0
 51
90.0
  0
CIRCLE
  5
121
330
1F
100
AcDbEntity
  8
OBJECT
100
AcDbCircle
 10
5.179846518593532
 20
6.962621731301899
 30
0.0
 40
0.073
  0
ARC
  5
122
330
1F
100
AcDbEntity
  8
OBJECT
100
AcDbCircle
 10
4.929846518593532
 20
6.681621731301898
 30
0.0
 40
0.093
100
AcDbArc
 50
270.0
 51
0.0
  0
LINE
  5
123
330
1F
100
AcDbEntity
  8
OBJECT
100
AcDbLine
 10
5.179846518593532
 20
6.805621731301899
 30
0.0
 11
4.930846518593531
 21
6.805621731301899
 31
0.0
  0
LINE
  5
124
330
1F
100
AcDbEntity
  8
OBJECT
100
AcDbLine
 10
5.179846518593532
 20
7.119621731301899
 30
0.0
 11
4.930846518593531
 21
7.119621731301898
 31
0.0
  0
CIRCLE
  5
126
330
1F
100
AcDbEntity
  8
OBJECT
100
AcDbCircle
 10
4.765846518593532
 20
8.576621731301898
 30
0.0
 40
0.0395
  0
LINE
  5
129
330
1F
100
AcDbEntity
  8
OBJECT
100
AcDbLine
 10
5.357846518593532
 20
8.222621731301899
 30
0.0
 11
5.357846518593532
 21
8.536621731301899
 31
0.0
  0
LINE
  5
12A
330
1F
100
AcDbEntity
  8
OBJECT
100
AcDbLine
 10
4.930846518593531
 20
8.151879940257122
 30
0.0
 11
5.357846518593532
 21
8.222621731301899
 31
0.0
  0
LINE
  5
12D
330
1F
100
AcDbEntity
  8
OBJECT
100
AcDbLine
 10
4.930846518593531
 20
8.607363522346675
 30
0.0
 11
5.357846518593532
 21
8.536621731301899
 31
0.0
  0
ARC
  5
12F
330
1F
100
AcDbEntity
  8
OBJECT
100
AcDbCircle
 10
4.929846518593532
 20
8.739621731301898
 30
0.0
 40
0.093
100
AcDbArc
 50
0.0
 51
89.99999999999998
  0
CIRCLE
  5
131
330
1F
100
AcDbEntity
  8
OBJECT
100
AcDbCircle
 10
2.049846518593531
 20
6.844621731301898
 30
0.0
 40
0.116
  0
CIRCLE
  5
132
330
1F
100
AcDbEntity
  8
OBJECT
100
AcDbCircle
 10
4.765846518593532
 20
8.576621731301898
 30
0.0
 40
0.116
  0
LINE
  5
134
330
1F
100
AcDbEntity
  8
OBJECT
100
AcDbLine
 10
5.022846518593532
 20
7.119621731301898
 30
0.0
 11
5.022846518593532
 21
8.1671217313019
 31
0.0
  0
LINE
  5
135
330
1F
100
AcDbEntity
  8
OBJECT
100
AcDbLine
 10
5.022846518593532
 20
8.592121731301899
 30
0.0
 11
5.022846518593532
 21
8.739621731301898
 31
0.0
  0
LINE
  5
136
330
1F
100
AcDbEntity
  8
OBJECT
100
AcDbLine
 10
1.792846518593531
 20
8.301621731301899
 30
0.0
 11
1.792846518593531
 21
7.254121731301898
 31
0.0
  0
LINE
  5
137
330
1F
100
AcDbEntity
  8
OBJECT
100
AcDbLine
 10
1.792846518593531
 20
6.829121731301897
 30
0.0
 11
1.792846518593531
 21
6.681621731301898
 31
0.0
  0
LINE
  5
138
330
1F
100
AcDbEntity
  8
OBJECT
100
AcDbLine
 10
5.357846518593532
 20
5.848475040327194
 30
0.0
 11
1.45784651859353
 21
5.848475040327194
 31
0.0
  0
LINE
  5
139
330
1F
100
AcDbEntity
  8
OBJECT
100
AcDbLine
 10
1.45784651859353
 20
5.848475040327194
 30
0.0
 11
1.45784651859353
 21
5.756475040327194
 31
0.0
  0
LINE
  5
13A
330
1F
100
AcDbEntity
  8
OBJECT
100
AcDbLine
 10
5.357846518593532
 20
5.848475040327194
 30
0.0
 11
5.357846518593532
 21
5.756475040327194
 31
0.0
  0
LINE
  5
13B
330
1F
100
AcDbEntity
  8
OBJECT
100
AcDbLine
 10
1.45784651859353
 20
5.756475040327194
 30
0.0
 11
5.357846518593532
 21
5.756475040327194
 31
0.0
  0
LINE
  5
13C
330
1F
100
AcDbEntity
  8
OBJECT
100
AcDbLine
 10
5.336846518593532
 20
5.848475040327194
 30
0.0
 11
5.336846518593532
 21
5.756475040327194
 31
0.0
  0
ARC
  5
140
330
1F
100
AcDbEntity
  8
OBJECT
100
AcDbCircle
 10
4.930846518593531
 20
5.756475040327194
 30
0.0
 40
0.092
100
AcDbArc
 50
0.0
 51
90.0
  0
ARC
  5
142
330
1F
100
AcDbEntity
  8
OBJECT
100
AcDbCircle
 10
1.884846518593532
 20
5.756475040327194
 30
0.0
 40
0.092
100
AcDbArc
 50
90.0
 51
180.0
  0
LWPOLYLINE
  5
15D
330
1F
100
AcDbEntity
  8
HIDDEN
100
AcDbPolyline
 90
        7
 70
     1
 43
0.0
 10
1.900846518593532
 20
8.754621731301899
 10
4.73084651859353
 20
8.754621731301899
 42
-0.9999999999999998
 10
4.73084651859353
 20
8.694621731301898
 10
1.930846518593531
 20
8.6946217313019
 10
1.93084651859353
 20
7.488621731301899
 42
-0.9999999999999998
 10
1.870846518593531
 20
7.488621731301899
 10
1.870846518593531
 20
8.724621731301898
 42
-0.4142135623730948
  0
LWPOLYLINE
  5
15E
330
1F
100
AcDbEntity
  8
HIDDEN
100
AcDbPolyline
 90
        7
 70
     1
 43
0.0
 10
4.914846518593531
 20
6.666621731301898
 10
2.084846518593533
 20
6.666621731301898
 42
-0.9999999999999998
 10
2.084846518593533
 20
6.726621731301898
 10
4.884846518593532
 20
6.726621731301897
 10
4.884846518593533
 20
7.932621731301898
 42
-0.9999999999999998
 10
4.944846518593532
 20
7.932621731301898
 10
4.944846518593532
 20
6.696621731301898
 42
-0.4142135623730948
  0
LWPOLYLINE
  5
15F
330
1F
100
AcDbEntity
  8
OBJECT
100
AcDbPolyline
 90
        7
 70
     1
 43
0.0
 10
4.914846518593531
 20
4.129596678227337
 10
2.084846518593533
 20
4.129596678227337
 42
0.9999999999999998
 10
2.084846518593533
 20
4.069596678227337
 10
4.884846518593532
 20
4.069596678227338
 10
4.884846518593533
 20
2.863596678227337
 42
0.9999999999999998
 10
4.944846518593532
 20
2.863596678227337
 10
4.944846518593532
 20
4.099596678227337
 42
0.4142135623730948
  0
LWPOLYLINE
  5
160
330
1F
100
AcDbEntity
  8
OBJECT
100
AcDbPolyline
 90
        7
 70
     1
 43
0.0
 10
1.900846518593532
 20
2.041596678227336
 10
4.73084651859353
 20
2.041596678227336
 42
0.9999999999999998
 10
4.73084651859353
 20
2.101596678227337
 10
1.930846518593531
 20
2.101596678227336
 10
1.93084651859353
 20
3.307596678227336
 42
0.9999999999999998
 10
1.870846518593531
 20
3.307596678227336
 10
1.870846518593531
 20
2.071596678227336
 42
0.4142135623730948
  0
LINE
  5
161
330
1F
100
AcDbEntity
  8
OBJECT
100
AcDbLine
 10
1.792846518593531
 20
2.494596678227336
 30
0.0
 11
1.792846518593531
 21
3.542096678227337
 31
0.0
  0
LINE
  5
162
330
1F
100
AcDbEntity
  8
OBJECT
100
AcDbLine
 10
5.022846518593532
 20
3.676596678227337
 30
0.0
 11
5.022846518593532
 21
2.629096678227336
 31
0.0
  0
LINE
  5
163
330
1F
100
AcDbEntity
  8
CENTER
100
AcDbLine
 10
3.407846518593531
 20
3.175596678227337
 30
0.0
 11
3.407846518593531
 21
2.995596678227337
 31
0.0
  0
LINE
  5
164
330
1F
100
AcDbEntity
  8
OBJECT
100
AcDbLine
 10
1.885846518593531
 20
4.207596678227337
 30
0.0
 11
4.929846518593532
 21
4.207596678227337
 31
0.0
  0
CIRCLE
  5
165
330
1F
100
AcDbEntity
  8
OBJECT
100
AcDbCircle
 10
2.049846518593531
 20
3.951596678227337
 30
0.0
 40
0.0985
  0
CIRCLE
  5
166
330
1F
100
AcDbEntity
  8
OBJECT
100
AcDbCircle
 10
2.049846518593531
 20
3.951596678227337
 30
0.0
 40
0.0395
  0
LINE
  5
168
330
1F
100
AcDbEntity
  8
OBJECT
100
AcDbLine
 10
1.45784651859353
 20
3.597596678227337
 30
0.0
 11
1.45784651859353
 21
3.911596678227337
 31
0.0
  0
LINE
  5
169
330
1F
100
AcDbEntity
  8
OBJECT
100
AcDbLine
 10
1.792846518593531
 20
3.967096678227337
 30
0.0
 11
1.45784651859353
 21
3.911596678227337
 31
0.0
  0
LINE
  5
16A
330
1F
100
AcDbEntity
  8
CENTER
  6
CENTER2
100
AcDbLine
 10
1.917846518593531
 20
3.754596678227337
 30
0.0
 11
1.33284651859353
 21
3.754596678227337
 31
0.0
  0
ARC
  5
16B
330
1F
100
AcDbEntity
  8
OBJECT
100
AcDbCircle
 10
1.885846518593531
 20
4.114596678227337
 30
0.0
 40
0.093
100
AcDbArc
 50
90.00000000000003
 51
180.0
  0
LINE
  5
16C
330
1F
100
AcDbEntity
  8
OBJECT
100
AcDbLine
 10
1.792846518593531
 20
3.967096678227337
 30
0.0
 11
1.792846518593531
 21
4.114596678227337
 31
0.0
  0
LINE
  5
16D
330
1F
100
AcDbEntity
  8
OBJECT
100
AcDbLine
 10
1.792846518593531
 20
3.542096678227337
 30
0.0
 11
1.45784651859353
 21
3.597596678227337
 31
0.0
  0
LINE
  5
16E
330
1F
100
AcDbEntity
  8
CENTER
100
AcDbLine
 10
3.317846518593531
 20
3.085596678227337
 30
0.0
 11
3.497846518593531
 21
3.085596678227337
 31
0.0
  0
CIRCLE
  5
16F
330
1F
100
AcDbEntity
  8
OBJECT
100
AcDbCircle
 10
5.179846518593532
 20
3.833596678227337
 30
0.0
 40
0.073
  0
ARC
  5
170
330
1F
100
AcDbEntity
  8
OBJECT
100
AcDbCircle
 10
5.179846518593532
 20
3.833596678227337
 30
0.0
 40
0.157
100
AcDbArc
 50
270.0
 51
90.00000000000003
  0
ARC
  5
171
330
1F
100
AcDbEntity
  8
OBJECT
100
AcDbCircle
 10
4.929846518593532
 20
4.114596678227337
 30
0.0
 40
0.093
100
AcDbArc
 50
0.0
 51
90.00000000000003
  0
LINE
  5
172
330
1F
100
AcDbEntity
  8
OBJECT
100
AcDbLine
 10
5.179846518593532
 20
3.990596678227337
 30
0.0
 11
5.022846518593532
 21
3.990596678227337
 31
0.0
  0
LINE
  5
173
330
1F
100
AcDbEntity
  8
OBJECT
100
AcDbLine
 10
5.022846518593532
 20
4.114596678227337
 30
0.0
 11
5.022846518593532
 21
3.990596678227336
 31
0.0
  0
LINE
  5
174
330
1F
100
AcDbEntity
  8
OBJECT
100
AcDbLine
 10
5.179846518593532
 20
3.676596678227337
 30
0.0
 11
5.022846518593532
 21
3.676596678227337
 31
0.0
  0
CIRCLE
  5
175
330
1F
100
AcDbEntity
  8
OBJECT
100
AcDbCircle
 10
4.765846518593532
 20
2.219596678227338
 30
0.0
 40
0.0985
  0
LINE
  5
177
330
1F
100
AcDbEntity
  8
OBJECT
100
AcDbLine
 10
4.929846518593532
 20
1.963596678227336
 30
0.0
 11
1.885846518593531
 21
1.963596678227336
 31
0.0
  0
CIRCLE
  5
178
330
1F
100
AcDbEntity
  8
OBJECT
100
AcDbCircle
 10
1.635846518593531
 20
2.337596678227336
 30
0.0
 40
0.073
  0
ARC
  5
179
330
1F
100
AcDbEntity
  8
OBJECT
100
AcDbCircle
 10
1.635846518593531
 20
2.337596678227336
 30
0.0
 40
0.157
100
AcDbArc
 50
90.00000000000003
 51
270.0
  0
LINE
  5
17A
330
1F
100
AcDbEntity
  8
OBJECT
100
AcDbLine
 10
1.635846518593531
 20
2.494596678227336
 30
0.0
 11
1.792846518593531
 21
2.494596678227336
 31
0.0
  0
ARC
  5
17B
330
1F
100
AcDbEntity
  8
OBJECT
100
AcDbCircle
 10
1.885846518593531
 20
2.056596678227336
 30
0.0
 40
0.093
100
AcDbArc
 50
180.0
 51
270.0
  0
LINE
  5
17C
330
1F
100
AcDbEntity
  8
OBJECT
100
AcDbLine
 10
1.635846518593531
 20
2.180596678227336
 30
0.0
 11
1.792846518593531
 21
2.180596678227336
 31
0.0
  0
LINE
  5
17D
330
1F
100
AcDbEntity
  8
OBJECT
100
AcDbLine
 10
1.792846518593531
 20
2.056596678227336
 30
0.0
 11
1.792846518593531
 21
2.180596678227335
 31
0.0
  0
CIRCLE
  5
17E
330
1F
100
AcDbEntity
  8
OBJECT
100
AcDbCircle
 10
4.765846518593532
 20
2.219596678227338
 30
0.0
 40
0.0395
  0
LINE
  5
17F
330
1F
100
AcDbEntity
  8
OBJECT
100
AcDbLine
 10
5.357846518593532
 20
2.573596678227335
 30
0.0
 11
5.357846518593532
 21
2.259596678227335
 31
0.0
  0
LINE
  5
180
330
1F
100
AcDbEntity
  8
OBJECT
100
AcDbLine
 10
5.022846518593532
 20
2.629096678227337
 30
0.0
 11
5.357846518593532
 21
2.573596678227335
 31
0.0
  0
LINE
  5
181
330
1F
100
AcDbEntity
  8
OBJECT
100
AcDbLine
 10
5.022846518593532
 20
2.204096678227337
 30
0.0
 11
5.357846518593532
 21
2.259596678227335
 31
0.0
  0
LINE
  5
182
330
1F
100
AcDbEntity
  8
CENTER
  6
CENTER2
100
AcDbLine
 10
4.897846518593532
 20
2.416596678227335
 30
0.0
 11
5.482846518593532
 21
2.416596678227335
 31
0.0
  0
ARC
  5
183
330
1F
100
AcDbEntity
  8
OBJECT
100
AcDbCircle
 10
4.929846518593532
 20
2.056596678227336
 30
0.0
 40
0.093
100
AcDbArc
 50
270.0
 51
0.0
  0
LINE
  5
184
330
1F
100
AcDbEntity
  8
OBJECT
100
AcDbLine
 10
5.022846518593532
 20
2.204096678227337
 30
0.0
 11
5.022846518593532
 21
2.056596678227336
 31
0.0
  0
LINE
  5
186
330
1F
100
AcDbEntity
  8
OBJECT
100
AcDbLine
 10
4.944846518593532
 20
5.666475040327194
 30
0.0
 11
4.944846518593532
 21
5.756475040327194
 31
0.0
  0
LINE
  5
187
330
1F
100
AcDbEntity
  8
OBJECT
100
AcDbLine
 10
1.870846518593531
 20
5.666475040327194
 30
0.0
 11
1.951346518593531
 21
5.666475040327194
 31
0.0
  0
LINE
  5
188
330
1F
100
AcDbEntity
  8
OBJECT
100
AcDbLine
 10
1.870846518593531
 20
5.666475040327194
 30
0.0
 11
1.870846518593531
 21
5.756475040327194
 31
0.0
  0
LINE
  5
189
330
1F
100
AcDbEntity
  8
OBJECT
100
AcDbLine
 10
1.930846518593529
 20
5.666475040327194
 30
0.0
 11
1.930846518593529
 21
5.756475040327194
 31
0.0
  0
LINE
  5
18A
330
1F
100
AcDbEntity
  8
OBJECT
100
AcDbLine
 10
2.054846518593532
 20
5.666475040327194
 30
0.0
 11
2.054846518593532
 21
5.756475040327194
 31
0.0
  0
LINE
  5
1BE
330
1F
100
AcDbEntity
  8
OBJECT
100
AcDbLine
 10
1.622846518593531
 20
3.660596678227337
 30
0.0
 11
1.622846518593531
 21
3.848596678227337
 31
0.0
  0
LINE
  5
1BF
330
1F
100
AcDbEntity
  8
OBJECT
100
AcDbLine
 10
5.192846518593533
 20
2.510596678227337
 30
0.0
 11
5.192846518593533
 21
2.322596678227336
 31
0.0
  0
LWPOLYLINE
  5
1C8
330
1F
100
AcDbEntity
  8
OBJECT
100
AcDbPolyline
 90
        3
 70
     0
 43
0.0
 10
1.597846518593531
 20
5.756475040327194
 10
1.622846518593531
 20
5.733475040327194
 10
1.647846518593531
 20
5.756475040327194
  0
LWPOLYLINE
  5
1C9
330
1F
100
AcDbEntity
  8
OBJECT
100
AcDbPolyline
 90
        3
 70
     0
 43
0.0
 10
5.217846518593531
 20
5.756475040327194
 10
5.192846518593532
 20
5.733475040327194
 10
5.167846518593532
 20
5.756475040327194
  0
LINE
  5
1CB
330
1F
100
AcDbEntity
  8
OBJECT
100
AcDbLine
 10
8.429999082226292
 20
8.727621731301898
 30
0.0
 11
8.429999082226292
 21
6.693621731301899
 31
0.0
  0
LINE
  5
1CC
330
1F
100
AcDbEntity
  8
OBJECT
100
AcDbLine
 10
11.50999908222629
 20
6.693621731301899
 30
0.0
 11
11.50999908222629
 21
8.727621731301898
 31
0.0
  0
LINE
  5
1CD
330
1F
100
AcDbEntity
  8
OBJECT
100
AcDbLine
 10
11.47999908222629
 20
8.757621731301899
 30
0.0
 11
8.459999082226293
 21
8.757621731301899
 31
0.0
  0
LINE
  5
1CE
330
1F
100
AcDbEntity
  8
OBJECT
100
AcDbLine
 10
8.459999082226293
 20
6.663621731301899
 30
0.0
 11
11.47999908222629
 21
6.663621731301899
 31
0.0
  0
ARC
  5
1CF
330
1F
100
AcDbEntity
  8
OBJECT
100
AcDbCircle
 10
8.459999082226293
 20
8.727621731301898
 30
0.0
 40
0.03
100
AcDbArc
 50
90.0
 51
179.9999999999999
  0
ARC
  5
1D0
330
1F
100
AcDbEntity
  8
OBJECT
100
AcDbCircle
 10
8.459999082226293
 20
6.693621731301899
 30
0.0
 40
0.03
100
AcDbArc
 50
179.9999999999999
 51
270.0
  0
ARC
  5
1D1
330
1F
100
AcDbEntity
  8
OBJECT
100
AcDbCircle
 10
11.47999908222629
 20
6.693621731301899
 30
0.0
 40
0.03
100
AcDbArc
 50
270.0
 51
0.0
  0
ARC
  5
1D2
330
1F
100
AcDbEntity
  8
OBJECT
100
AcDbCircle
 10
11.47999908222629
 20
8.727621731301898
 30
0.0
 40
0.03
100
AcDbArc
 50
0.0
 51
90.0
  0
LINE
  5
1D8
330
1F
100
AcDbEntity
  8
OBJECT
100
AcDbLine
 10
8.354999082226292
 20
8.301621731301899
 30
0.0
 11
8.354999082226292
 21
7.254121731301898
 31
0.0
  0
LINE
  5
1D9
330
1F
100
AcDbEntity
  8
OBJECT
100
AcDbLine
 10
11.58499908222629
 20
7.119621731301898
 30
0.0
 11
11.58499908222629
 21
8.1671217313019
 31
0.0
  0
LINE
  5
1DB
330
1F
100
AcDbEntity
  8
OBJECT
100
AcDbLine
 10
11.58499908222629
 20
8.592121731301901
 30
0.0
 11
11.58499908222629
 21
8.739621731301898
 31
0.0
  0
LINE
  5
1DD
330
1F
100
AcDbEntity
  8
OBJECT
100
AcDbLine
 10
8.354999082226292
 20
6.829121731301898
 30
0.0
 11
8.354999082226292
 21
6.681621731301898
 31
0.0
  0
LINE
  5
1E2
330
1F
100
AcDbEntity
  8
HIDDEN
100
AcDbLine
 10
11.50999908222629
 20
5.195474871431873
 30
0.0
 11
8.429999082226292
 21
5.195474871431873
 31
0.0
  0
LINE
  5
1E3
330
1F
100
AcDbEntity
  8
HIDDEN
  6
HIDDEN2
100
AcDbLine
 10
8.429999082226292
 20
5.295474871431872
 30
0.0
 11
8.429999082226292
 21
5.195474871431873
 31
0.0
  0
LINE
  5
1E5
330
1F
100
AcDbEntity
  8
HIDDEN
  6
HIDDEN2
100
AcDbLine
 10
11.50999908222629
 20
5.295474871431872
 30
0.0
 11
11.50999908222629
 21
5.195474871431873
 31
0.0
  0
LINE
  5
1E6
330
1F
100
AcDbEntity
  8
HIDDEN
100
AcDbLine
 10
14.22597379360262
 20
8.757621731301899
 30
0.0
 11
14.22597379360262
 21
6.663621731301899
 31
0.0
  0
LINE
  5
1E7
330
1F
100
AcDbEntity
  8
HIDDEN
  6
HIDDEN2
100
AcDbLine
 10
14.12597379360263
 20
8.757621731301899
 30
0.0
 11
14.22597379360262
 21
8.757621731301899
 31
0.0
  0
LINE
  5
1E9
330
1F
100
AcDbEntity
  8
HIDDEN
  6
HIDDEN2
100
AcDbLine
 10
14.12597379360263
 20
6.663621731301899
 30
0.0
 11
14.22597379360262
 21
6.663621731301899
 31
0.0
  0
LINE
  5
1EB
330
1F
100
AcDbEntity
  8
HIDDEN
100
AcDbLine
 10
11.47999908222629
 20
1.214001962970705
 30
0.0
 11
8.459999082226293
 21
1.214001962970705
 31
0.0
  0
LINE
  5
1EC
330
1F
100
AcDbEntity
  8
HIDDEN
100
AcDbLine
 10
8.459999082226293
 20
3.308001962970705
 30
0.0
 11
11.47999908222629
 21
3.308001962970705
 31
0.0
  0
LWPOLYLINE
  5
1ED
330
1F
100
AcDbEntity
  8
OBJECT
100
AcDbPolyline
 90
        4
 70
     1
 43
0.0
 10
8.735999082226292
 20
3.001001962970706
 10
8.735999082226292
 20
1.521001962970705
 10
11.20399908222629
 20
1.521001962970706
 10
11.20399908222629
 20
3.001001962970705
  0
LINE
  5
1EE
330
1F
100
AcDbEntity
  8
OBJECT
100
AcDbLine
 10
11.49199908222629
 20
1.139001962970706
 30
0.0
 11
8.447999082226292
 21
1.139001962970706
 31
0.0
  0
LINE
  5
1EF
330
1F
100
AcDbEntity
  8
OBJECT
100
AcDbLine
 10
8.447999082226292
 20
3.383001962970705
 30
0.0
 11
11.49199908222629
 21
3.383001962970705
 31
0.0
  0
LINE
  5
1F1
330
1F
100
AcDbEntity
  8
HIDDEN
100
AcDbLine
 10
8.429999082226292
 20
1.244001962970706
 30
0.0
 11
8.429999082226292
 21
3.278001962970705
 31
0.0
  0
LINE
  5
1F2
330
1F
100
AcDbEntity
  8
CENTER
100
AcDbLine
 10
9.969999082226292
 20
2.351001962970705
 30
0.0
 11
9.969999082226292
 21
2.171001962970706
 31
0.0
  0
LINE
  5
1F3
330
1F
100
AcDbEntity
  8
HIDDEN
100
AcDbLine
 10
8.231999082226293
 20
2.826001962970706
 30
0.0
 11
8.231999082226293
 21
3.034001962970706
 31
0.0
  0
LINE
  5
1F4
330
1F
100
AcDbEntity
  8
HIDDEN
100
AcDbLine
 10
8.139999082226292
 20
2.826001962970706
 30
0.0
 11
8.139999082226292
 21
3.034001962970706
 31
0.0
  0
LINE
  5
1F5
330
1F
100
AcDbEntity
  8
OBJECT
100
AcDbLine
 10
8.019999082226291
 20
2.773001962970706
 30
0.0
 11
8.019999082226291
 21
3.087001962970706
 31
0.0
  0
LINE
  5
1F6
330
1F
100
AcDbEntity
  8
HIDDEN
100
AcDbLine
 10
8.429999082226292
 20
3.034001962970706
 30
0.0
 11
8.019999082226291
 21
3.034001962970706
 31
0.0
  0
LINE
  5
1F7
330
1F
100
AcDbEntity
  8
OBJECT
100
AcDbLine
 10
8.354999082226292
 20
3.142501962970706
 30
0.0
 11
8.019999082226291
 21
3.087001962970706
 31
0.0
  0
ARC
  5
1F9
330
1F
100
AcDbEntity
  8
HIDDEN
100
AcDbCircle
 10
8.459999082226293
 20
3.278001962970705
 30
0.0
 40
0.03
100
AcDbArc
 50
90.00000000000003
 51
180.0
  0
ARC
  5
1FA
330
1F
100
AcDbEntity
  8
OBJECT
100
AcDbCircle
 10
8.447999082226292
 20
3.290001962970706
 30
0.0
 40
0.093
100
AcDbArc
 50
90.00000000000003
 51
180.0
  0
LINE
  5
1FC
330
1F
100
AcDbEntity
  8
HIDDEN
100
AcDbLine
 10
8.429999082226292
 20
2.826001962970706
 30
0.0
 11
8.019999082226291
 21
2.826001962970706
 31
0.0
  0
LINE
  5
1FD
330
1F
100
AcDbEntity
  8
OBJECT
100
AcDbLine
 10
8.354999082226292
 20
2.717501962970706
 30
0.0
 11
8.019999082226291
 21
2.773001962970706
 31
0.0
  0
CIRCLE
  5
1FE
330
1F
100
AcDbEntity
  8
HIDDEN
100
AcDbCircle
 10
8.611999082226292
 20
3.127001962970706
 30
0.0
 40
0.0985
  0
CIRCLE
  5
1FF
330
1F
100
AcDbEntity
  8
HIDDEN
100
AcDbCircle
 10
8.611999082226292
 20
3.127001962970706
 30
0.0
 40
0.0395
  0
LINE
  5
200
330
1F
100
AcDbEntity
  8
CENTER
100
AcDbLine
 10
9.879999082226293
 20
2.261001962970706
 30
0.0
 11
10.05999908222629
 21
2.261001962970706
 31
0.0
  0
ARC
  5
201
330
1F
100
AcDbEntity
  8
OBJECT
100
AcDbCircle
 10
8.197999082226292
 20
1.513001962970704
 30
0.0
 40
0.157
100
AcDbArc
 50
90.00000000000003
 51
270.0
  0
CIRCLE
  5
202
330
1F
100
AcDbEntity
  8
OBJECT
100
AcDbCircle
 10
8.197999082226292
 20
1.513001962970704
 30
0.0
 40
0.073
  0
LINE
  5
203
330
1F
100
AcDbEntity
  8
OBJECT
100
AcDbLine
 10
8.197999082226292
 20
1.670001962970705
 30
0.0
 11
8.354999082226292
 21
1.670001962970705
 31
0.0
  0
ARC
  5
204
330
1F
100
AcDbEntity
  8
OBJECT
100
AcDbCircle
 10
8.447999082226292
 20
1.232001962970706
 30
0.0
 40
0.093
100
AcDbArc
 50
180.0
 51
270.0
  0
LINE
  5
205
330
1F
100
AcDbEntity
  8
OBJECT
100
AcDbLine
 10
8.197999082226292
 20
1.356001962970704
 30
0.0
 11
8.354999082226292
 21
1.356001962970704
 31
0.0
  0
LINE
  5
206
330
1F
100
AcDbEntity
  8
OBJECT
100
AcDbLine
 10
8.354999082226292
 20
1.232001962970706
 30
0.0
 11
8.354999082226292
 21
3.290001962970706
 31
0.0
  0
ARC
  5
207
330
1F
100
AcDbEntity
  8
HIDDEN
100
AcDbCircle
 10
8.459999082226293
 20
1.244001962970706
 30
0.0
 40
0.03
100
AcDbArc
 50
180.0
 51
270.0
  0
LINE
  5
208
330
1F
100
AcDbEntity
  8
OBJECT
100
AcDbLine
 10
11.58499908222629
 20
3.290001962970706
 30
0.0
 11
11.58499908222629
 21
1.232001962970706
 31
0.0
  0
LINE
  5
209
330
1F
100
AcDbEntity
  8
HIDDEN
100
AcDbLine
 10
11.50999908222629
 20
3.278001962970705
 30
0.0
 11
11.50999908222629
 21
1.244001962970706
 31
0.0
  0
ARC
  5
20A
330
1F
100
AcDbEntity
  8
OBJECT
100
AcDbCircle
 10
11.74199908222629
 20
3.009001962970706
 30
0.0
 40
0.157
100
AcDbArc
 50
270.0
 51
90.00000000000003
  0
CIRCLE
  5
20B
330
1F
100
AcDbEntity
  8
OBJECT
100
AcDbCircle
 10
11.74199908222629
 20
3.009001962970706
 30
0.0
 40
0.073
  0
ARC
  5
20C
330
1F
100
AcDbEntity
  8
HIDDEN
100
AcDbCircle
 10
11.47999908222629
 20
3.278001962970705
 30
0.0
 40
0.03
100
AcDbArc
 50
0.0
 51
90.00000000000003
  0
ARC
  5
20D
330
1F
100
AcDbEntity
  8
OBJECT
100
AcDbCircle
 10
11.49199908222629
 20
3.290001962970706
 30
0.0
 40
0.093
100
AcDbArc
 50
0.0
 51
90.00000000000003
  0
LINE
  5
20F
330
1F
100
AcDbEntity
  8
OBJECT
100
AcDbLine
 10
11.74199908222629
 20
3.166001962970706
 30
0.0
 11
11.58499908222629
 21
3.166001962970706
 31
0.0
  0
LINE
  5
210
330
1F
100
AcDbEntity
  8
OBJECT
100
AcDbLine
 10
11.74199908222629
 20
2.852001962970706
 30
0.0
 11
11.58499908222629
 21
2.852001962970706
 31
0.0
  0
CIRCLE
  5
211
330
1F
100
AcDbEntity
  8
HIDDEN
100
AcDbCircle
 10
11.32799908222629
 20
1.395001962970706
 30
0.0
 40
0.0985
  0
CIRCLE
  5
212
330
1F
100
AcDbEntity
  8
HIDDEN
100
AcDbCircle
 10
11.32799908222629
 20
1.395001962970706
 30
0.0
 40
0.0395
  0
LINE
  5
213
330
1F
100
AcDbEntity
  8
HIDDEN
100
AcDbLine
 10
11.70799908222629
 20
1.696001962970704
 30
0.0
 11
11.70799908222629
 21
1.488001962970704
 31
0.0
  0
LINE
  5
214
330
1F
100
AcDbEntity
  8
HIDDEN
100
AcDbLine
 10
11.79999908222629
 20
1.696001962970704
 30
0.0
 11
11.79999908222629
 21
1.488001962970704
 31
0.0
  0
LINE
  5
215
330
1F
100
AcDbEntity
  8
OBJECT
100
AcDbLine
 10
11.91999908222629
 20
1.749001962970705
 30
0.0
 11
11.91999908222629
 21
1.435001962970705
 31
0.0
  0
LINE
  5
216
330
1F
100
AcDbEntity
  8
HIDDEN
100
AcDbLine
 10
11.50999908222628
 20
1.696001962970704
 30
0.0
 11
11.91999908222629
 21
1.696001962970704
 31
0.0
  0
LINE
  5
217
330
1F
100
AcDbEntity
  8
OBJECT
100
AcDbLine
 10
11.58499908222629
 20
1.804501962970705
 30
0.0
 11
11.91999908222629
 21
1.749001962970705
 31
0.0
  0
LINE
  5
218
330
1F
100
AcDbEntity
  8
HIDDEN
100
AcDbLine
 10
11.50999908222628
 20
1.488001962970706
 30
0.0
 11
11.91999908222629
 21
1.488001962970706
 31
0.0
  0
LINE
  5
21A
330
1F
100
AcDbEntity
  8
OBJECT
100
AcDbLine
 10
11.58499908222629
 20
1.379501962970705
 30
0.0
 11
11.91999908222629
 21
1.435001962970705
 31
0.0
  0
ARC
  5
21B
330
1F
100
AcDbEntity
  8
OBJECT
100
AcDbCircle
 10
11.49199908222629
 20
1.232001962970706
 30
0.0
 40
0.093
100
AcDbArc
 50
270.0
 51
0.0
  0
ARC
  5
21C
330
1F
100
AcDbEntity
  8
HIDDEN
100
AcDbCircle
 10
11.47999908222629
 20
1.244001962970706
 30
0.0
 40
0.03
100
AcDbArc
 50
270.0
 51
0.0
  0
LINE
  5
223
330
1F
100
AcDbEntity
  8
HIDDEN
100
AcDbLine
 10
11.44513986564589
 20
4.155474871431873
 30
0.0
 11
11.49054724627074
 21
5.195474871431873
 31
0.0
  0
LINE
  5
224
330
1F
100
AcDbEntity
  8
HIDDEN
100
AcDbLine
 10
8.449450918181842
 20
5.195474871431873
 30
0.0
 11
8.494858298806693
 21
4.155474871431873
 31
0.0
  0
LINE
  5
225
330
1F
100
AcDbEntity
  8
OBJECT
100
AcDbLine
 10
8.364473506837439
 20
5.078474871431872
 30
0.0
 11
8.019999082226291
 21
5.138474871431872
 31
0.0
  0
LINE
  5
226
330
1F
100
AcDbEntity
  8
HIDDEN
100
AcDbLine
 10
8.359015888973875
 20
5.203474871431872
 30
0.0
 11
8.040999082226292
 21
5.203474871431872
 31
0.0
  0
LINE
  5
227
330
1F
100
AcDbEntity
  8
OBJECT
100
AcDbLine
 10
8.354999082226292
 20
5.295474871431872
 30
0.0
 11
8.019999082226291
 21
5.295474871431872
 31
0.0
  0
LINE
  5
228
330
1F
100
AcDbEntity
  8
OBJECT
100
AcDbLine
 10
8.019999082226291
 20
5.138474871431872
 30
0.0
 11
8.019999082226291
 21
5.295474871431872
 31
0.0
  0
LINE
  5
229
330
1F
100
AcDbEntity
  8
HIDDEN
  6
HIDDEN2
100
AcDbLine
 10
8.040999082226292
 20
5.295474871431872
 30
0.0
 11
8.040999082226292
 21
5.203474871431872
 31
0.0
  0
LINE
  5
22D
330
1F
100
AcDbEntity
  8
HIDDEN
100
AcDbLine
 10
11.44513986564589
 20
4.155474871431873
 30
0.0
 11
8.494858298806693
 21
4.155474871431873
 31
0.0
  0
LINE
  5
230
330
1F
100
AcDbEntity
  8
OBJECT
100
AcDbLine
 10
8.514647913769
 20
6.859621731301897
 30
0.0
 11
8.449450918181842
 21
6.859621731301897
 31
0.0
  0
LINE
  5
231
330
1F
100
AcDbEntity
  8
OBJECT
100
AcDbLine
 10
8.514647913769
 20
6.829621731301897
 30
0.0
 11
8.449450918181842
 21
6.829621731301898
 31
0.0
  0
LINE
  5
232
330
1F
100
AcDbEntity
  8
HIDDEN
100
AcDbLine
 10
15.26597379360262
 20
6.728480947882301
 30
0.0
 11
15.26597379360262
 21
8.692762514721497
 31
0.0
  0
LINE
  5
234
330
1F
100
AcDbEntity
  8
HIDDEN
100
AcDbLine
 10
15.26597379360262
 20
8.692762514721497
 30
0.0
 11
14.22597379360262
 21
8.738169895346349
 31
0.0
  0
LINE
  5
235
330
1F
100
AcDbEntity
  8
HIDDEN
100
AcDbLine
 10
14.22597379360262
 20
6.683073567257448
 30
0.0
 11
15.26597379360262
 21
6.728480947882301
 31
0.0
  0
LINE
  5
23D
330
1F
100
AcDbEntity
  8
OBJECT
100
AcDbLine
 10
11.42535025068358
 20
8.561621731301899
 30
0.0
 11
11.49054724627074
 21
8.561621731301899
 31
0.0
  0
LINE
  5
23E
330
1F
100
AcDbEntity
  8
OBJECT
100
AcDbLine
 10
11.42535025068358
 20
8.591621731301898
 30
0.0
 11
11.49054724627074
 21
8.591621731301898
 31
0.0
  0
LINE
  5
240
330
1F
100
AcDbEntity
  8
OBJECT
100
AcDbLine
 10
8.449450918181842
 20
6.683073567257448
 30
0.0
 11
8.449450918181842
 21
8.738169895346349
 31
0.0
  0
LINE
  5
242
330
1F
100
AcDbEntity
  8
OBJECT
100
AcDbLine
 10
11.49054724627074
 20
6.683073567257448
 30
0.0
 11
11.49054724627074
 21
8.738169895346349
 31
0.0
  0
LINE
  5
244
330
1F
100
AcDbEntity
  8
OBJECT
100
AcDbLine
 10
11.49054724627074
 20
8.738169895346349
 30
0.0
 11
8.449450918181842
 21
8.738169895346349
 31
0.0
  0
LINE
  5
246
330
1F
100
AcDbEntity
  8
OBJECT
100
AcDbLine
 10
11.49054724627074
 20
6.683073567257448
 30
0.0
 11
8.449450918181842
 21
6.683073567257448
 31
0.0
  0
LINE
  5
248
330
1F
100
AcDbEntity
  8
OBJECT
100
AcDbLine
 10
11.44513986564588
 20
8.692762514721495
 30
0.0
 11
8.494858298806693
 21
8.692762514721495
 31
0.0
  0
LINE
  5
24A
330
1F
100
AcDbEntity
  8
OBJECT
100
AcDbLine
 10
11.44513986564589
 20
6.728480947882301
 30
0.0
 11
8.494858298806693
 21
6.728480947882301
 31
0.0
  0
LINE
  5
24C
330
1F
100
AcDbEntity
  8
OBJECT
100
AcDbLine
 10
8.494858298806693
 20
6.728480947882301
 30
0.0
 11
8.494858298806693
 21
6.829621731301897
 31
0.0
  0
LINE
  5
24E
330
1F
100
AcDbEntity
  8
OBJECT
100
AcDbLine
 10
11.44513986564589
 20
6.728480947882301
 30
0.0
 11
11.44513986564588
 21
8.561621731301899
 31
0.0
  0
LINE
  5
24F
330
1F
100
AcDbEntity
  8
OBJECT
100
AcDbLine
 10
8.494858298806693
 20
6.859621731301898
 30
0.0
 11
8.494858298806693
 21
8.692762514721495
 31
0.0
  0
LINE
  5
250
330
1F
100
AcDbEntity
  8
OBJECT
100
AcDbLine
 10
11.44513986564588
 20
8.591621731301898
 30
0.0
 11
11.44513986564588
 21
8.692762514721495
 31
0.0
  0
LWPOLYLINE
  5
259
330
1F
100
AcDbEntity
  8
HIDDEN
100
AcDbPolyline
 90
        4
 70
     0
 43
0.0
 10
14.26597379360263
 20
8.537121731301898
 10
15.19597379360263
 20
8.537121731301898
 10
15.19597379360263
 20
8.616121731301898
 10
14.26597379360263
 20
8.616121731301898
  0
LWPOLYLINE
  5
25A
330
1F
100
AcDbEntity
  8
HIDDEN
100
AcDbPolyline
 90
        4
 70
     0
 43
0.0
 10
15.26597379360262
 20
8.4781217313019
 10
14.26597379360263
 20
8.4781217313019
 10
14.26597379360263
 20
8.675121731301899
 10
15.26597379360262
 20
8.675121731301899
  0
LWPOLYLINE
  5
25B
330
1F
100
AcDbEntity
  8
HIDDEN
100
AcDbPolyline
 90
        4
 70
     0
 43
0.0
 10
15.26597379360262
 20
6.943121731301896
 10
14.26597379360263
 20
6.943121731301897
 10
14.26597379360263
 20
6.746121731301897
 10
15.26597379360262
 20
6.746121731301897
  0
LWPOLYLINE
  5
25C
330
1F
100
AcDbEntity
  8
HIDDEN
100
AcDbPolyline
 90
        4
 70
     0
 43
0.0
 10
14.26597379360263
 20
6.8841217313019
 10
15.19597379360263
 20
6.8841217313019
 10
15.19597379360263
 20
6.805121731301899
 10
14.26597379360263
 20
6.805121731301899
  0
LWPOLYLINE
  5
25D
330
1F
100
AcDbEntity
  8
HIDDEN
100
AcDbPolyline
 90
        4
 70
     0
 43
0.0
 10
8.651499082226294
 20
5.155474871431871
 10
8.651499082226294
 20
4.225474871431871
 10
8.572499082226293
 20
4.225474871431869
 10
8.572499082226293
 20
5.155474871431871
  0
LWPOLYLINE
  5
25E
330
1F
100
AcDbEntity
  8
HIDDEN
100
AcDbPolyline
 90
        4
 70
     0
 43
0.0
 10
8.710499082226291
 20
4.155474871431873
 10
8.710499082226291
 20
5.155474871431871
 10
8.513499082226292
 20
5.155474871431871
 10
8.513499082226292
 20
4.155474871431873
  0
LWPOLYLINE
  5
25F
330
1F
100
AcDbEntity
  8
HIDDEN
100
AcDbPolyline
 90
        4
 70
     0
 43
0.0
 10
11.28849908222629
 20
5.155474871431871
 10
11.28849908222629
 20
4.225474871431871
 10
11.36749908222629
 20
4.225474871431869
 10
11.36749908222629
 20
5.155474871431871
  0
LWPOLYLINE
  5
260
330
1F
100
AcDbEntity
  8
HIDDEN
100
AcDbPolyline
 90
        4
 70
     0
 43
0.0
 10
11.22949908222629
 20
4.155474871431873
 10
11.22949908222629
 20
5.155474871431871
 10
11.42649908222629
 20
5.155474871431871
 10
11.42649908222629
 20
4.155474871431873
  0
LWPOLYLINE
  5
269
330
1F
100
AcDbEntity
  8
HIDDEN
100
AcDbPolyline
 90
        4
 70
     0
 43
0.0
 10
8.735999082226292
 20
4.055474871431872
 10
8.735999082226292
 20
4.085474871431872
 10
11.20399908222629
 20
4.085474871431872
 10
11.20399908222629
 20
4.055474871431872
  0
LWPOLYLINE
  5
26A
330
1F
100
AcDbEntity
  8
HIDDEN
100
AcDbPolyline
 90
        4
 70
     0
 43
0.0
 10
15.36597379360262
 20
6.970621731301898
 10
15.33597379360262
 20
6.970621731301898
 10
15.33597379360263
 20
8.450621731301897
 10
15.36597379360262
 20
8.450621731301897
  0
LINE
  5
276
330
1F
100
AcDbEntity
  8
OBJECT
100
AcDbLine
 10
1.792846518593531
 20
6.829121731301898
 30
0.0
 11
1.792846518593531
 21
6.681621731301898
 31
0.0
  0
LINE
  5
27C
330
1F
100
AcDbEntity
  8
OBJECT
100
AcDbLine
 10
5.75218809504817
 20
8.740621731301899
 30
0.0
 11
5.75218809504817
 21
6.680621731301897
 31
0.0
  0
LINE
  5
27D
330
1F
100
AcDbEntity
  8
OBJECT
100
AcDbLine
 10
5.844188095048171
 20
6.588621731301897
 30
0.0
 11
5.844188095048171
 21
8.832621731301898
 31
0.0
  0
LINE
  5
27E
330
1F
100
AcDbEntity
  8
OBJECT
100
AcDbLine
 10
5.93418809504817
 20
6.666621731301898
 30
0.0
 11
5.93418809504817
 21
8.478121731301897
 31
0.0
  0
LINE
  5
282
330
1F
100
AcDbEntity
  8
OBJECT
100
AcDbLine
 10
5.93418809504817
 20
6.666621731301898
 30
0.0
 11
5.844188095048171
 21
6.666621731301898
 31
0.0
  0
LINE
  5
283
330
1F
100
AcDbEntity
  8
HIDDEN
  6
HIDDEN2
100
AcDbLine
 10
5.93418809504817
 20
6.726621731301897
 30
0.0
 11
5.844188095048171
 21
6.726621731301897
 31
0.0
  0
ARC
  5
293
330
1F
100
AcDbEntity
  8
OBJECT
100
AcDbCircle
 10
5.844188095048171
 20
8.740621731301899
 30
0.0
 40
0.092
100
AcDbArc
 50
90.0
 51
180.0
  0
LINE
  5
297
330
1F
100
AcDbEntity
  8
OBJECT
100
AcDbLine
 10
5.93418809504817
 20
8.754621731301899
 30
0.0
 11
5.844188095048171
 21
8.754621731301899
 31
0.0
  0
LINE
  5
29F
330
1F
100
AcDbEntity
  8
OBJECT
100
AcDbLine
 10
5.844188095048171
 20
7.962621731301897
 30
0.0
 11
5.93418809504817
 21
7.962621731301897
 31
0.0
  0
LWPOLYLINE
  5
2A0
330
1F
100
AcDbEntity
  8
OBJECT
100
AcDbPolyline
 90
        4
 70
     0
 43
0.0
 10
5.844188095048171
 20
8.478121731301897
 10
5.98218809504817
 20
8.478121731301897
 10
5.98218809504817
 20
8.675121731301896
 10
5.844188095048171
 20
8.675121731301898
  0
LWPOLYLINE
  5
2A1
330
1F
100
AcDbEntity
  8
HIDDEN
  6
HIDDEN2
100
AcDbPolyline
 90
        4
 70
     0
 43
0.0
 10
5.98218809504817
 20
8.616121731301898
 10
5.855191278200578
 20
8.616121731301898
 10
5.767188095048171
 20
8.692621731301898
 10
5.75218809504817
 20
8.692621731301898
  0
LWPOLYLINE
  5
2A2
330
1F
100
AcDbEntity
  8
HIDDEN
  6
HIDDEN2
100
AcDbPolyline
 90
        4
 70
     0
 43
0.0
 10
5.98218809504817
 20
8.537121731301898
 10
5.855191278200578
 20
8.537121731301898
 10
5.767188095048171
 20
8.460621731301896
 10
5.75218809504817
 20
8.460621731301898
  0
LINE
  5
2A3
330
1F
100
AcDbEntity
  8
OBJECT
100
AcDbLine
 10
5.844188095048171
 20
8.694621731301898
 30
0.0
 11
5.93418809504817
 21
8.694621731301898
 31
0.0
  0
LINE
  5
2A4
330
1F
100
AcDbEntity
  8
OBJECT
100
AcDbLine
 10
5.93418809504817
 20
8.675121731301896
 30
0.0
 11
5.93418809504817
 21
8.754621731301899
 31
0.0
  0
LINE
  5
2A5
330
1F
100
AcDbEntity
  8
OBJECT
100
AcDbLine
 10
5.783188095048171
 20
8.536621731301899
 30
0.0
 11
5.844188095048171
 21
8.536621731301899
 31
0.0
  0
LINE
  5
2A7
330
1F
100
AcDbEntity
  8
OBJECT
100
AcDbLine
 10
5.783188095048171
 20
8.222621731301899
 30
0.0
 11
5.844188095048171
 21
8.222621731301899
 31
0.0
  0
LINE
  5
2A8
330
1F
100
AcDbEntity
  8
OBJECT
100
AcDbLine
 10
5.783188095048171
 20
8.592121731301901
 30
0.0
 11
5.844188095048171
 21
8.592121731301899
 31
0.0
  0
LINE
  5
2AA
330
1F
100
AcDbEntity
  8
OBJECT
100
AcDbLine
 10
5.783188095048171
 20
8.167121731301898
 30
0.0
 11
5.844188095048171
 21
8.167121731301898
 31
0.0
  0
LINE
  5
2AC
330
1F
100
AcDbEntity
  8
OBJECT
100
AcDbLine
 10
5.844188095048171
 20
7.119621731301899
 30
0.0
 11
5.75218809504817
 21
7.119621731301898
 31
0.0
  0
LINE
  5
2AD
330
1F
100
AcDbEntity
  8
OBJECT
100
AcDbLine
 10
5.844188095048171
 20
6.805621731301899
 30
0.0
 11
5.75218809504817
 21
6.805621731301899
 31
0.0
  0
ARC
  5
2AE
330
1F
100
AcDbEntity
  8
OBJECT
100
AcDbCircle
 10
5.844188095048171
 20
6.680621731301897
 30
0.0
 40
0.092
100
AcDbArc
 50
180.0
 51
270.0
  0
LWPOLYLINE
  5
2AF
330
1F
100
AcDbEntity
  8
HIDDEN
  6
HIDDEN2
100
AcDbPolyline
 90
        4
 70
     0
 43
0.0
 10
5.98218809504817
 20
6.8841217313019
 10
5.855191278200578
 20
6.8841217313019
 10
5.767188095048171
 20
6.9606217313019
 10
5.75218809504817
 20
6.960621731301899
  0
LWPOLYLINE
  5
2B0
330
1F
100
AcDbEntity
  8
HIDDEN
  6
HIDDEN2
100
AcDbPolyline
 90
        4
 70
     0
 43
0.0
 10
5.98218809504817
 20
6.805121731301899
 10
5.855191278200578
 20
6.805121731301899
 10
5.767188095048171
 20
6.728621731301899
 10
5.75218809504817
 20
6.7286217313019
  0
LWPOLYLINE
  5
2B1
330
1F
100
AcDbEntity
  8
OBJECT
100
AcDbPolyline
 90
        4
 70
     0
 43
0.0
 10
5.93418809504817
 20
6.943121731301899
 10
5.98218809504817
 20
6.943121731301899
 10
5.98218809504817
 20
6.7461217313019
 10
5.93418809504817
 20
6.746121731301899
  0
LINE
  5
2B2
330
1F
100
AcDbEntity
  8
HIDDEN
  6
HIDDEN2
100
AcDbLine
 10
5.75218809504817
 20
6.889621731301899
 30
0.0
 11
5.844188095048171
 21
6.889621731301899
 31
0.0
  0
LINE
  5
2B4
330
1F
100
AcDbEntity
  8
HIDDEN
  6
HIDDEN2
100
AcDbLine
 10
5.75218809504817
 20
7.035621731301899
 30
0.0
 11
5.844188095048171
 21
7.035621731301899
 31
0.0
  0
LWPOLYLINE
  5
2B8
330
1F
100
AcDbEntity
  8
OBJECT
100
AcDbPolyline
 90
        4
 70
     0
 43
0.0
 10
5.844188095048171
 20
8.473621731301898
 10
5.86718809504817
 20
8.473621731301898
 10
5.86718809504817
 20
8.285621731301899
 10
5.844188095048171
 20
8.285621731301899
  0
LWPOLYLINE
  5
2B9
330
1F
100
AcDbEntity
  8
HIDDEN
  6
HIDDEN2
100
AcDbPolyline
 90
        4
 70
     0
 43
0.0
 10
2.01034651859353
 20
5.618475040327194
 10
2.01034651859353
 20
5.745471857174786
 10
1.93384651859353
 20
5.833475040327193
 10
1.933846518593531
 20
5.848475040327194
  0
LWPOLYLINE
  5
2BB
330
1F
100
AcDbEntity
  8
HIDDEN
  6
HIDDEN2
100
AcDbPolyline
 90
        4
 70
     0
 43
0.0
 10
2.089346518593531
 20
5.618475040327194
 10
2.089346518593531
 20
5.745471857174786
 10
2.165846518593531
 20
5.833475040327193
 10
2.16584651859353
 20
5.848475040327194
  0
LINE
  5
2BC
330
1F
100
AcDbEntity
  8
OBJECT
100
AcDbLine
 10
2.054846518593532
 20
5.666475040327194
 30
0.0
 11
4.944846518593532
 21
5.666475040327194
 31
0.0
  0
LWPOLYLINE
  5
2BD
330
1F
100
AcDbEntity
  8
OBJECT
100
AcDbPolyline
 90
        4
 70
     0
 43
0.0
 10
2.14834651859353
 20
5.666475040327194
 10
2.14834651859353
 20
5.618475040327194
 10
1.951346518593531
 20
5.618475040327194
 10
1.951346518593531
 20
5.756475040327194
  0
LWPOLYLINE
  5
2BE
330
1F
100
AcDbEntity
  8
HIDDEN
  6
HIDDEN2
100
AcDbPolyline
 90
        4
 70
     0
 43
0.0
 10
4.805346518593532
 20
5.618475040327194
 10
4.805346518593532
 20
5.745471857174786
 10
4.881846518593533
 20
5.833475040327193
 10
4.881846518593532
 20
5.848475040327194
  0
LWPOLYLINE
  5
2BF
330
1F
100
AcDbEntity
  8
HIDDEN
  6
HIDDEN2
100
AcDbPolyline
 90
        4
 70
     0
 43
0.0
 10
4.726346518593532
 20
5.618475040327194
 10
4.726346518593532
 20
5.745471857174786
 10
4.64984651859353
 20
5.833475040327193
 10
4.649846518593532
 20
5.848475040327194
  0
LWPOLYLINE
  5
2C0
330
1F
100
AcDbEntity
  8
OBJECT
100
AcDbPolyline
 90
        4
 70
     0
 43
0.0
 10
4.667346518593532
 20
5.666475040327194
 10
4.667346518593532
 20
5.618475040327194
 10
4.864346518593531
 20
5.618475040327194
 10
4.864346518593531
 20
5.666475040327194
  0
LWPOLYLINE
  5
2C1
330
1F
100
AcDbEntity
  8
OBJECT
100
AcDbPolyline
 90
        6
 70
     0
 43
0.0
 10
14.12597379360263
 20
8.592121731301901
 10
14.31197379360263
 20
8.592121731301897
 42
-0.4142135623730939
 10
14.34297379360263
 20
8.561121731301899
 10
14.34297379360262
 20
8.198121731301899
 42
-0.4142135623730927
 10
14.31197379360262
 20
8.167121731301898
 10
14.12597379360263
 20
8.167121731301897
  0
LWPOLYLINE
  5
2C2
330
1F
100
AcDbEntity
  8
OBJECT
100
AcDbPolyline
 90
        6
 70
     0
 43
0.0
 10
14.12597379360263
 20
8.222621731301899
 10
14.25197379360263
 20
8.222621731301899
 42
0.4142135623730951
 10
14.28297379360262
 20
8.253621731301898
 10
14.28297379360262
 20
8.5056217313019
 42
0.4142135623730951
 10
14.25197379360263
 20
8.536621731301899
 10
14.12597379360263
 20
8.536621731301899
  0
LWPOLYLINE
  5
2C3
330
1F
100
AcDbEntity
  8
OBJECT
100
AcDbPolyline
 90
        4
 70
     0
 43
0.0
 10
14.12597379360263
 20
8.483621731301898
 10
14.22597379360262
 20
8.483621731301898
 10
14.22597379360262
 20
8.2756217313019
 10
14.12597379360263
 20
8.2756217313019
  0
ARC
  5
2C5
330
1F
100
AcDbEntity
  8
OBJECT
100
AcDbCircle
 10
5.783188095048171
 20
8.505621731301898
 30
0.0
 40
0.031
100
AcDbArc
 50
90.0
 51
180.0
  0
ARC
  5
2C6
330
1F
100
AcDbEntity
  8
OBJECT
100
AcDbCircle
 10
5.783188095048171
 20
8.253621731301898
 30
0.0
 40
0.031
100
AcDbArc
 50
180.0
 51
270.0
  0
ARC
  5
2CA
330
1F
100
AcDbEntity
  8
OBJECT
100
AcDbCircle
 10
5.783188095048171
 20
8.561121731301899
 30
0.0
 40
0.031
100
AcDbArc
 50
90.0
 51
180.0
  0
ARC
  5
2CB
330
1F
100
AcDbEntity
  8
OBJECT
100
AcDbCircle
 10
5.783188095048171
 20
8.198121731301899
 30
0.0
 40
0.031
100
AcDbArc
 50
180.0
 51
270.0
  0
LWPOLYLINE
  5
2CF
330
1F
100
AcDbEntity
  8
OBJECT
100
AcDbPolyline
 90
        4
 70
     1
 43
0.0
 10
5.217846518593531
 20
2.510596678227337
 10
5.167846518593532
 20
2.510596678227337
 10
5.167846518593532
 20
2.322596678227336
 10
5.217846518593531
 20
2.322596678227336
  0
LWPOLYLINE
  5
2D0
330
1F
100
AcDbEntity
  8
OBJECT
100
AcDbPolyline
 90
        4
 70
     1
 43
0.0
 10
1.597846518593531
 20
3.660596678227337
 10
1.647846518593531
 20
3.660596678227337
 10
1.647846518593531
 20
3.848596678227337
 10
1.597846518593531
 20
3.848596678227337
  0
CIRCLE
  5
2D1
330
1F
100
AcDbEntity
  8
OBJECT
100
AcDbCircle
 10
9.969999082226292
 20
2.261001962970706
 30
0.0
 40
0.125
  0
CIRCLE
  5
2D3
330
1F
100
AcDbEntity
  8
OBJECT
100
AcDbCircle
 10
9.969999082226292
 20
2.261001962970706
 30
0.0
 40
0.078
  0
LINE
  5
2D4
330
1F
100
AcDbEntity
  8
HIDDEN
  6
HIDDEN2
100
AcDbLine
 10
5.252846518593532
 20
5.848475040327194
 30
0.0
 11
5.252846518593532
 21
5.756475040327194
 31
0.0
  0
LINE
  5
2D6
330
1F
100
AcDbEntity
  8
HIDDEN
  6
HIDDEN2
100
AcDbLine
 10
5.106846518593531
 20
5.848475040327194
 30
0.0
 11
5.106846518593531
 21
5.756475040327194
 31
0.0
  0
LINE
  5
2D8
330
1F
100
AcDbEntity
  8
HIDDEN
  6
HIDDEN2
100
AcDbLine
 10
1.708846518593531
 20
5.848475040327194
 30
0.0
 11
1.708846518593531
 21
5.756475040327194
 31
0.0
  0
LINE
  5
2D9
330
1F
100
AcDbEntity
  8
HIDDEN
  6
HIDDEN2
100
AcDbLine
 10
1.562846518593531
 20
5.848475040327194
 30
0.0
 11
1.562846518593531
 21
5.756475040327194
 31
0.0
  0
LINE
  5
2DA
330
1F
100
AcDbEntity
  8
HIDDEN
  6
HIDDEN2
100
AcDbLine
 10
14.12597379360263
 20
6.889621731301899
 30
0.0
 11
14.21797379360263
 21
6.889621731301899
 31
0.0
  0
LINE
  5
2DB
330
1F
100
AcDbEntity
  8
HIDDEN
  6
HIDDEN2
100
AcDbLine
 10
14.12597379360263
 20
7.035621731301899
 30
0.0
 11
14.21797379360263
 21
7.035621731301899
 31
0.0
  0
LINE
  5
2DC
330
1F
100
AcDbEntity
  8
HIDDEN
  6
HIDDEN2
100
AcDbLine
 10
8.124999082226294
 20
5.295474871431872
 30
0.0
 11
8.124999082226294
 21
5.203474871431872
 31
0.0
  0
LINE
  5
2DD
330
1F
100
AcDbEntity
  8
HIDDEN
  6
HIDDEN2
100
AcDbLine
 10
8.270999082226293
 20
5.295474871431872
 30
0.0
 11
8.270999082226293
 21
5.203474871431872
 31
0.0
  0
LINE
  5
2DE
330
1F
100
AcDbEntity
  8
HIDDEN
  6
HIDDEN2
100
AcDbLine
 10
11.66899908222629
 20
5.295474871431872
 30
0.0
 11
11.66899908222629
 21
5.203474871431872
 31
0.0
  0
LINE
  5
2DF
330
1F
100
AcDbEntity
  8
HIDDEN
  6
HIDDEN2
100
AcDbLine
 10
11.81499908222629
 20
5.295474871431872
 30
0.0
 11
11.81499908222629
 21
5.203474871431872
 31
0.0
  0
TEXT
  5
308
330
1F
100
AcDbEntity
  8
TEXT
100
AcDbText
 10
3.688125000000001
 20
11.63874999999999
 30
0.0
 40
0.195
  1
UTILIBOX (STYLE K)
 41
0.75
  7
TXT
 72
     4
 11
4.882500000000002
 21
11.73624999999999
 31
0.0
100
AcDbText
  0
TEXT
  5
309
330
1F
100
AcDbEntity
  8
TEXT
100
AcDbText
 10
13.16936945815625
 20
11.63874999999999
 30
0.0
 40
0.195
  1
CU-1954
 41
0.75
  7
TXT
 72
     4
 11
13.63249445815625
 21
11.73624999999999
 31
0.0
100
AcDbText
  0
LWPOLYLINE
  5
30B
330
1F
100
AcDbEntity
  8
HIDDEN
  6
HIDDEN2
100
AcDbPolyline
 90
        4
 70
     0
 43
0.0
 10
9.844999082226292
 20
4.085474871431872
 10
9.891999082226293
 20
4.116474871431872
 10
10.04799908222629
 20
4.116474871431872
 10
10.09499908222629
 20
4.085474871431872
  0
LWPOLYLINE
  5
310
330
1F
100
AcDbEntity
  8
HIDDEN
  6
HIDDEN2
100
AcDbPolyline
 90
        4
 70
     0
 43
0.0
 10
15.33597379360263
 20
7.585621731301897
 10
15.30497379360262
 20
7.632621731301898
 10
15.30497379360262
 20
7.788621731301897
 10
15.33597379360263
 20
7.835621731301897
  0
ARC
  5
315
330
1F
100
AcDbEntity
  8
OBJECT
100
AcDbCircle
 10
15.27297379360263
 20
6.731789432538151
 30
0.0
 40
0.093
100
AcDbArc
 50
272.5
 51
0.0
  0
ARC
  5
316
330
1F
100
AcDbEntity
  8
OBJECT
100
AcDbCircle
 10
15.27297379360263
 20
8.689454030065647
 30
0.0
 40
0.093
100
AcDbArc
 50
0.0000000000000509
 51
87.5
  0
INSERT
  5
319
330
1F
100
AcDbEntity
  8
DIM
100
AcDbBlockReference
  2
Hbs
 10
0.0
 20
0.0
 30
0.0
 41
1.25
 42
1.25
 43
1.25
  0
LINE
  5
32B
330
1F
100
AcDbEntity
  8
OBJECT
100
AcDbLine
 10
11.44183138099004
 20
4.055474871431872
 30
0.0
 11
8.498166783462542
 21
4.055474871431872
 31
0.0
  0
ARC
  5
32C
330
1F
100
AcDbEntity
  8
OBJECT
100
AcDbCircle
 10
8.498166783462542
 20
4.148474871431872
 30
0.0
 40
0.093
100
AcDbArc
 50
182.5
 51
270.0
  0
ARC
  5
32D
330
1F
100
AcDbEntity
  8
OBJECT
100
AcDbCircle
 10
11.44183138099004
 20
4.148474871431872
 30
0.0
 40
0.093
100
AcDbArc
 50
270.0
 51
357.5
  0
DIMENSION
  5
352
330
1F
100
AcDbEntity
  8
DIM
100
AcDbDimension
  2
*D2
 10
7.824999082226291
 20
5.295474871431872
 30
0.0
 11
8.36757720722629
 21
5.745474871431873
 31
0.0
 70
    32
 71
     5
 42
0.157
  3
23NSTD
100
AcDbAlignedDimension
 13
8.019999082226291
 23
5.138474871431872
 33
0.0
 14
8.019999082226291
 24
5.295474871431872
 34
0.0
 50
90.0
100
AcDbRotatedDimension
  0
DIMENSION
  5
361
330
1F
100
AcDbEntity
  8
DIM
100
AcDbDimension
  2
*D3
 10
7.420554816968254
 20
5.295474871431872
 30
0.0
 11
7.420554816968254
 21
5.186974871431873
 31
0.0
 70
   160
 71
     5
 42
0.2170000000000005
  3
23NSTDI
100
AcDbAlignedDimension
 13
8.364473506837439
 23
5.078474871431872
 33
0.0
 14
8.019999082226291
 24
5.295474871431872
 34
0.0
 50
90.0
100
AcDbRotatedDimension
  0
DIMENSION
  5
38E
330
1F
100
AcDbEntity
  8
DIM
100
AcDbDimension
  2
*D4
 10
12.1789136378666
 20
5.295474871431872
 30
0.0
 11
12.73125738786659
 21
5.745474871431874
 31
0.0
 70
    32
 71
     5
 42
0.0920000000000005
  3
23NSTD
100
AcDbAlignedDimension
 13
11.89899908222629
 23
5.203474871431872
 33
0.0
 14
11.91999908222629
 24
5.295474871431872
 34
0.0
 50
90.0
100
AcDbRotatedDimension
  0
DIMENSION
  5
3B3
330
1F
100
AcDbEntity
  8
DIM
100
AcDbDimension
  2
*D6
 10
12.5225383321905
 20
4.055474871431872
 30
0.0
 11
12.5225383321905
 21
4.675474871431875
 31
0.0
 70
   160
 71
     5
 42
1.24
  3
23NSTD
100
AcDbAlignedDimension
 13
11.91999908222629
 23
5.295474871431872
 33
0.0
 14
11.44183138099004
 24
4.055474871431872
 34
0.0
 50
90.0
100
AcDbRotatedDimension
  0
DIMENSION
  5
3B4
330
1F
100
AcDbEntity
  8
DIM
100
AcDbDimension
  2
*D5
 10
10.54286504734216
 20
5.295474871431872
 30
0.0
 11
10.54286504734216
 21
4.725474871431875
 31
0.0
 70
    32
 71
     5
 42
1.139999999999999
  3
23NSTD
100
AcDbAlignedDimension
 13
10.62161504734216
 23
4.155474871431873
 33
0.0
 14
10.62161504734216
 24
5.295474871431872
 34
0.0
 50
90.0
100
AcDbRotatedDimension
  0
DIMENSION
  5
40E
330
1F
100
AcDbEntity
  8
DIM
100
AcDbDimension
  2
*D7
 10
11.20399908222629
 20
2.61669214031063
 30
0.0
 11
9.969999082226292
 21
2.61669214031063
 31
0.0
 70
   160
 71
     5
 42
2.467999999999999
  3
23NSTD
100
AcDbAlignedDimension
 13
8.735999082226292
 23
3.001001962970706
 33
0.0
 14
11.20399908222629
 24
3.001001962970705
 34
0.0
100
AcDbRotatedDimension
  0
DIMENSION
  5
41C
330
1F
100
AcDbEntity
  8
DIM
100
AcDbDimension
  2
*D8
 10
10.71894186389587
 20
1.521001962970706
 30
0.0
 11
10.71894186389587
 21
2.261001962970708
 31
0.0
 70
   160
 71
     5
 42
1.479999999999999
  3
23NSTD
100
AcDbAlignedDimension
 13
11.20399908222629
 23
3.001001962970705
 33
0.0
 14
11.20399908222629
 24
1.521001962970706
 34
0.0
 50
90.0
100
AcDbRotatedDimension
  0
LINE
  5
4B8
330
1F
100
AcDbEntity
  8
CENTER
100
AcDbLine
 10
1.52334651859353
 20
2.337596678227336
 30
0.0
 11
1.748346518593532
 21
2.337596678227336
 31
0.0
  0
LINE
  5
4B9
330
1F
100
AcDbEntity
  8
CENTER
100
AcDbLine
 10
1.635846518593531
 20
2.225096678227338
 30
0.0
 11
1.635846518593531
 21
2.450096678227335
 31
0.0
  0
DIMENSION
  5
4BA
330
1F
100
AcDbEntity
  8
DIM
100
AcDbDimension
  2
*D9
 10
0.7868098224111289
 20
1.963596678227336
 30
0.0
 11
0.7868098224111285
 21
2.150596678227337
 31
0.0
 70
    32
 71
     5
 42
0.3740000000000005
  3
23NSTDI
100
AcDbAlignedDimension
 13
1.523346518593531
 23
2.337596678227336
 33
0.0
 14
1.885846518593531
 24
1.963596678227336
 34
0.0
 50
90.0
100
AcDbRotatedDimension
  0
DIMENSION
  5
4C9
330
1F
100
AcDbEntity
  8
DIM
100
AcDbDimension
  2
*D10
 10
0.7868098224111293
 20
3.754596678227338
 30
0.0
 11
0.7868098224111286
 21
3.046096678227337
 31
0.0
 70
    32
 71
     5
 42
1.417
  3
23NSTD
100
AcDbAlignedDimension
 13
1.523346518593531
 23
2.337596678227336
 33
0.0
 14
1.33284651859353
 24
3.754596678227337
 34
0.0
 50
90.0
100
AcDbRotatedDimension
  0
DIMENSION
  5
4D7
330
1F
100
AcDbEntity
  8
DIM
100
AcDbDimension
  2
*D11
 10
0.7868098224111293
 20
4.207596678227337
 30
0.0
 11
0.7868098224111286
 21
3.981096678227338
 31
0.0
 70
    32
 71
     5
 42
0.4529999999999999
  3
23NSTD
100
AcDbAlignedDimension
 13
1.33284651859353
 23
3.754596678227337
 33
0.0
 14
1.885846518593531
 24
4.207596678227337
 34
0.0
 50
90.0
100
AcDbRotatedDimension
1001
ACAD
1000
DSTYLE
1002
{
1070
   279
1070
     1
1002
}
  0
DIMENSION
  5
4F0
330
1F
100
AcDbEntity
  8
DIM
100
AcDbDimension
  2
*D12
 10
5.761899765662178
 20
3.990596678227337
 30
0.0
 11
5.761899765662177
 21
3.833596678227338
 31
0.0
 70
    32
 71
     5
 42
0.3140000000000001
  3
23NSTDI
100
AcDbAlignedDimension
 13
5.179846518593532
 23
3.676596678227337
 33
0.0
 14
5.179846518593532
 24
3.990596678227337
 34
0.0
 50
90.0
100
AcDbRotatedDimension
  0
DIMENSION
  5
4FF
330
1F
100
AcDbEntity
  8
DIM
100
AcDbDimension
  2
*D13
 10
5.179846518593532
 20
4.635164860654338
 30
0.0
 11
5.947424643593532
 21
4.635164860654338
 31
0.0
 70
    32
 71
     5
 42
0.1569999999999991
  3
23NSTD
100
AcDbAlignedDimension
 13
5.022846518593532
 23
4.114596678227337
 33
0.0
 14
5.179846518593532
 24
3.833596678227337
 34
0.0
100
AcDbRotatedDimension
  0
DIMENSION
  5
50D
330
1F
100
AcDbEntity
  8
DIM
100
AcDbDimension
  2
*D14
 10
5.357846518593532
 20
1.67016927573908
 30
0.0
 11
6.144955893593532
 21
1.67016927573908
 31
0.0
 70
    32
 71
     5
 42
0.3350000000000008
  3
23NSTD
100
AcDbAlignedDimension
 13
5.022846518593532
 23
2.056596678227336
 33
0.0
 14
5.357846518593532
 24
2.259596678227335
 34
0.0
100
AcDbRotatedDimension
  0
DIMENSION
  5
51B
330
1F
100
AcDbEntity
  8
DIM
100
AcDbDimension
  2
*D15
 10
5.761899765662178
 20
2.573596678227336
 30
0.0
 11
5.761899765662177
 21
2.416596678227337
 31
0.0
 70
    32
 71
     5
 42
0.3140000000000009
  3
23NSTDI
100
AcDbAlignedDimension
 13
5.357846518593532
 23
2.259596678227335
 33
0.0
 14
5.357846518593532
 24
2.573596678227336
 34
0.0
 50
90.0
100
AcDbRotatedDimension
  0
DIMENSION
  5
52A
330
1F
100
AcDbEntity
  8
DIM
100
AcDbDimension
  2
*D16
 10
6.444765823964331
 20
2.629096678227336
 30
0.0
 11
6.44476582396433
 21
2.416596678227337
 31
0.0
 70
    32
 71
     5
 42
0.424999999999999
  3
23NSTD
100
AcDbAlignedDimension
 13
5.022846518593532
 23
2.204096678227337
 33
0.0
 14
5.022846518593532
 24
2.629096678227336
 34
0.0
 50
90.0
100
AcDbRotatedDimension
  0
DIMENSION
  5
5B0
330
1F
100
AcDbEntity
  8
DIM
100
AcDbDimension
  2
*D17
 10
1.26284651859353
 20
5.618475040327194
 30
0.0
 11
0.7202683935935301
 21
5.168475040327193
 31
0.0
 70
    32
 71
     5
 42
0.1379999999999999
  3
23NSTD
100
AcDbAlignedDimension
 13
1.45784651859353
 23
5.756475040327194
 33
0.0
 14
1.951346518593531
 24
5.618475040327194
 34
0.0
 50
90.0
100
AcDbRotatedDimension
  0
DIMENSION
  5
5C0
330
1F
100
AcDbEntity
  8
DIM
100
AcDbDimension
  2
*D18
 10
2.657771945343487
 20
5.848475040327194
 30
0.0
 11
3.210115695343486
 21
6.298475040327195
 31
0.0
 70
    32
 71
     5
 42
0.0920000000000005
  3
23NSTD
100
AcDbAlignedDimension
 13
2.736521945343486
 23
5.756475040327194
 33
0.0
 14
2.736521945343486
 24
5.848475040327194
 34
0.0
 50
90.0
100
AcDbRotatedDimension
  0
DIMENSION
  5
5CF
330
1F
100
AcDbEntity
  8
DIM
100
AcDbDimension
  2
*D19
 10
4.235516840223001
 20
5.666475040327194
 30
0.0
 11
3.692938715223001
 21
5.216475040327194
 31
0.0
 70
    32
 71
     5
 42
0.0899999999999999
  3
23NSTD
100
AcDbAlignedDimension
 13
4.314266840223002
 23
5.756475040327194
 33
0.0
 14
4.314266840223002
 24
5.666475040327194
 34
0.0
 50
90.0
100
AcDbRotatedDimension
  0
LEADER
  5
69C
330
1F
100
AcDbEntity
  8
DIM
100
AcDbLeader
  3
23NSTD
 73
     0
 74
     0
 75
     1
 40
0.4160000000000001
 41
2.300999999999999
 76
     3
 10
9.163217449306522
 20
1.900051397546576
 30
0.0
 10
8.492052197682353
 20
0.8276962378952745
 30
0.0
 10
8.717052197682352
 20
0.8276962378952745
 30
0.0
340
69D
213
0.0
223
-0.078125
233
0.0
1001
ACAD
1000
DSTYLE
1002
{
1070
   147
1040
0.09
1070
    77
1070
     0
1002
}
  0
MTEXT
  5
69D
102
{ACAD_REACTORS
330
69C
102
}
330
1F
100
AcDbEntity
  8
DIM
100
AcDbMText
 10
8.829552197682353
 20
0.9058212378952745
 30
0.0
 40
0.156
 41
0.0
 71
     1
 72
     1
  1
SMOOTH RECESSED AREA\P0.030 DEEP
  7
TXT
 73
     1
 44
1.0
  0
DIMENSION
  5
6B3
330
1F
100
AcDbEntity
  8
DIM
100
AcDbDimension
  2
*D20
 10
1.792846518593531
 20
9.1671217313019
 30
0.0
 11
3.407846518593532
 21
9.1671217313019
 31
0.0
 70
    32
 71
     5
 42
3.230000000000001
  3
23NSTD
100
AcDbAlignedDimension
 13
5.022846518593532
 23
8.739621731301898
 33
0.0
 14
1.792846518593531
 24
8.739621731301898
 34
0.0
100
AcDbRotatedDimension
  0
DIMENSION
  5
6C1
330
1F
100
AcDbEntity
  8
DIM
100
AcDbDimension
  2
*D21
 10
1.055398884923214
 20
6.588621731301897
 30
0.0
 11
1.055398884923212
 21
7.710621731301898
 31
0.0
 70
    32
 71
     5
 42
2.244
  3
23NSTD
100
AcDbAlignedDimension
 13
1.885846518593531
 23
8.832621731301898
 33
0.0
 14
1.885846518593531
 24
6.588621731301897
 34
0.0
 50
90.0
100
AcDbRotatedDimension
  0
LINE
  5
6E4
330
1F
100
AcDbEntity
  8
OBJECT
100
AcDbLine
 10
18.49338269292175
 20
1.969022282399831
 30
0.0
 11
14.59338269292175
 21
1.969022282399831
 31
0.0
  0
LINE
  5
6E5
330
1F
100
AcDbEntity
  8
OBJECT
100
AcDbLine
 10
14.59338269292175
 20
1.87702228239983
 30
0.0
 11
18.49338269292175
 21
1.87702228239983
 31
0.0
  0
LINE
  5
6E6
330
1F
100
AcDbEntity
  8
HIDDEN
100
AcDbLine
 10
15.19038269292175
 20
1.78702228239983
 30
0.0
 11
18.08038269292175
 21
1.78702228239983
 31
0.0
  0
LINE
  5
6E7
330
1F
100
AcDbEntity
  8
OBJECT
100
AcDbLine
 10
18.06538269292175
 20
5.414169142269856
 30
0.0
 11
15.02138269292175
 21
5.414169142269856
 31
0.0
  0
LINE
  5
6E8
330
1F
100
AcDbEntity
  8
OBJECT
100
AcDbLine
 10
15.02138269292175
 20
3.170169142269856
 30
0.0
 11
18.06538269292175
 21
3.170169142269856
 31
0.0
  0
LWPOLYLINE
  5
6E9
330
1F
100
AcDbEntity
  8
HIDDEN
100
AcDbPolyline
 90
        7
 70
     1
 43
0.0
 10
18.05038269292175
 20
3.248169142269856
 10
15.22038269292175
 20
3.248169142269856
 42
-0.9999999999999998
 10
15.22038269292175
 20
3.308169142269856
 10
18.02038269292175
 20
3.308169142269855
 10
18.02038269292175
 20
4.514169142269856
 42
-0.9999999999999998
 10
18.08038269292175
 20
4.514169142269856
 10
18.08038269292175
 20
3.278169142269856
 42
-0.4142135623730948
  0
LWPOLYLINE
  5
6EA
330
1F
100
AcDbEntity
  8
HIDDEN
100
AcDbPolyline
 90
        7
 70
     1
 43
0.0
 10
15.03638269292175
 20
5.336169142269857
 10
17.86638269292175
 20
5.336169142269857
 42
-0.9999999999999998
 10
17.86638269292175
 20
5.276169142269856
 10
15.06638269292175
 20
5.276169142269858
 10
15.06638269292175
 20
4.070169142269857
 42
-0.9999999999999998
 10
15.00638269292175
 20
4.070169142269857
 10
15.00638269292175
 20
5.306169142269856
 42
-0.4142135623730948
  0
LINE
  5
6EB
330
1F
100
AcDbEntity
  8
HIDDEN
  6
HIDDEN2
100
AcDbLine
 10
14.75838269292175
 20
3.717169142269856
 30
0.0
 11
14.75838269292175
 21
3.529169142269856
 31
0.0
  0
LINE
  5
6EC
330
1F
100
AcDbEntity
  8
OBJECT
100
AcDbLine
 10
14.59338269292175
 20
3.780169142269856
 30
0.0
 11
14.59338269292175
 21
3.466169142269856
 31
0.0
  0
LWPOLYLINE
  5
6ED
330
1F
100
AcDbEntity
  8
HIDDEN
  6
HIDDEN2
100
AcDbPolyline
 90
        4
 70
     1
 43
0.0
 10
14.73338269292175
 20
3.717169142269856
 10
14.78338269292175
 20
3.717169142269856
 10
14.78338269292175
 20
3.529169142269856
 10
14.73338269292175
 20
3.529169142269856
  0
LWPOLYLINE
  5
6EE
330
1F
100
AcDbEntity
  8
HIDDEN
  6
HIDDEN2
100
AcDbPolyline
 90
        3
 70
     0
 43
0.0
 10
14.73338269292175
 20
1.87702228239983
 10
14.75838269292175
 20
1.854022282399831
 10
14.78338269292175
 20
1.87702228239983
  0
LINE
  5
6EF
330
1F
100
AcDbEntity
  8
OBJECT
100
AcDbLine
 10
14.59338269292175
 20
1.969022282399831
 30
0.0
 11
14.59338269292175
 21
1.87702228239983
 31
0.0
  0
LINE
  5
6F0
330
1F
100
AcDbEntity
  8
HIDDEN
  6
HIDDEN2
100
AcDbLine
 10
14.69838269292175
 20
1.969022282399831
 30
0.0
 11
14.69838269292175
 21
1.87702228239983
 31
0.0
  0
LWPOLYLINE
  5
6F1
330
1F
100
AcDbEntity
  8
HIDDEN
  6
HIDDEN2
100
AcDbPolyline
 90
        4
 70
     0
 43
0.0
 10
15.14588269292175
 20
1.73902228239983
 10
15.14588269292175
 20
1.866019099247423
 10
15.06938269292175
 20
1.95402228239983
 10
15.06938269292175
 20
1.969022282399831
  0
LINE
  5
6F2
330
1F
100
AcDbEntity
  8
HIDDEN
  6
HIDDEN2
100
AcDbLine
 10
15.00638269292175
 20
1.78702228239983
 30
0.0
 11
15.08688269292175
 21
1.78702228239983
 31
0.0
  0
LINE
  5
6F3
330
1F
100
AcDbEntity
  8
HIDDEN
  6
HIDDEN2
100
AcDbLine
 10
15.06638269292175
 20
1.78702228239983
 30
0.0
 11
15.06638269292175
 21
1.87702228239983
 31
0.0
  0
LINE
  5
6F4
330
1F
100
AcDbEntity
  8
HIDDEN
  6
HIDDEN2
100
AcDbLine
 10
15.00638269292175
 20
1.78702228239983
 30
0.0
 11
15.00638269292175
 21
1.87702228239983
 31
0.0
  0
ARC
  5
6F5
330
1F
100
AcDbEntity
  8
OBJECT
100
AcDbCircle
 10
15.02038269292175
 20
1.87702228239983
 30
0.0
 40
0.092
100
AcDbArc
 50
90.0
 51
180.0
  0
LINE
  5
6F6
330
1F
100
AcDbEntity
  8
HIDDEN
  6
HIDDEN2
100
AcDbLine
 10
14.84438269292175
 20
1.969022282399831
 30
0.0
 11
14.84438269292175
 21
1.87702228239983
 31
0.0
  0
LWPOLYLINE
  5
6F7
330
1F
100
AcDbEntity
  8
HIDDEN
  6
HIDDEN2
100
AcDbPolyline
 90
        4
 70
     0
 43
0.0
 10
15.22488269292175
 20
1.73902228239983
 10
15.22488269292175
 20
1.866019099247423
 10
15.30138269292175
 20
1.95402228239983
 10
15.30138269292175
 20
1.969022282399831
  0
LWPOLYLINE
  5
6F8
330
1F
100
AcDbEntity
  8
HIDDEN
  6
HIDDEN2
100
AcDbPolyline
 90
        4
 70
     0
 43
0.0
 10
15.28388269292175
 20
1.87702228239983
 10
15.28388269292175
 20
1.73902228239983
 10
15.08688269292175
 20
1.73902228239983
 10
15.08688269292175
 20
1.87702228239983
  0
LINE
  5
6F9
330
1F
100
AcDbEntity
  8
HIDDEN
  6
HIDDEN2
100
AcDbLine
 10
15.19038269292175
 20
1.78702228239983
 30
0.0
 11
15.19038269292175
 21
1.87702228239983
 31
0.0
  0
LINE
  5
6FA
330
1F
100
AcDbEntity
  8
OBJECT
100
AcDbLine
 10
15.02038269292175
 20
3.39542735122508
 30
0.0
 11
14.59338269292175
 21
3.466169142269856
 31
0.0
  0
LINE
  5
6FB
330
1F
100
AcDbEntity
  8
OBJECT
100
AcDbLine
 10
14.92838269292175
 20
3.410669142269855
 30
0.0
 11
14.92838269292175
 21
3.263169142269856
 31
0.0
  0
LINE
  5
6FC
330
1F
100
AcDbEntity
  8
OBJECT
100
AcDbLine
 10
14.92838269292175
 20
3.410669142269856
 30
0.0
 11
14.92838269292175
 21
3.263169142269856
 31
0.0
  0
ARC
  5
6FD
330
1F
100
AcDbEntity
  8
OBJECT
100
AcDbCircle
 10
15.02138269292175
 20
3.263169142269856
 30
0.0
 40
0.093
100
AcDbArc
 50
180.0
 51
270.0
  0
CIRCLE
  5
6FE
330
1F
100
AcDbEntity
  8
OBJECT
100
AcDbCircle
 10
15.18538269292175
 20
3.426169142269856
 30
0.0
 40
0.116
  0
CIRCLE
  5
6FF
330
1F
100
AcDbEntity
  8
HIDDEN
100
AcDbCircle
 10
15.18538269292175
 20
3.426169142269856
 30
0.0
 40
0.0985
  0
CIRCLE
  5
700
330
1F
100
AcDbEntity
  8
OBJECT
100
AcDbCircle
 10
15.18538269292175
 20
3.426169142269856
 30
0.0
 40
0.0395
  0
LINE
  5
701
330
1F
100
AcDbEntity
  8
OBJECT
100
AcDbLine
 10
14.92838269292175
 20
5.321169142269856
 30
0.0
 11
14.92838269292175
 21
5.197169142269857
 31
0.0
  0
CIRCLE
  5
702
330
1F
100
AcDbEntity
  8
OBJECT
100
AcDbCircle
 10
14.77138269292175
 20
5.040169142269857
 30
0.0
 40
0.073
  0
LINE
  5
703
330
1F
100
AcDbEntity
  8
OBJECT
100
AcDbLine
 10
14.77138269292175
 20
4.883169142269857
 30
0.0
 11
15.02038269292175
 21
4.883169142269855
 31
0.0
  0
LINE
  5
704
330
1F
100
AcDbEntity
  8
OBJECT
100
AcDbLine
 10
14.77138269292175
 20
5.197169142269857
 30
0.0
 11
15.02038269292175
 21
5.197169142269857
 31
0.0
  0
LINE
  5
705
330
1F
100
AcDbEntity
  8
OBJECT
100
AcDbLine
 10
15.02038269292175
 20
3.850910933314632
 30
0.0
 11
14.59338269292175
 21
3.780169142269856
 31
0.0
  0
ARC
  5
706
330
1F
100
AcDbEntity
  8
OBJECT
100
AcDbCircle
 10
14.77138269292175
 20
5.040169142269857
 30
0.0
 40
0.157
100
AcDbArc
 50
90.00000000000003
 51
270.0
  0
LINE
  5
707
330
1F
100
AcDbEntity
  8
OBJECT
100
AcDbLine
 10
14.92838269292175
 20
4.883169142269857
 30
0.0
 11
14.92838269292175
 21
3.835669142269856
 31
0.0
  0
ARC
  5
708
330
1F
100
AcDbEntity
  8
OBJECT
100
AcDbCircle
 10
15.02138269292175
 20
5.321169142269856
 30
0.0
 40
0.093
100
AcDbArc
 50
90.0
 51
180.0
  0
ARC
  5
709
330
1F
100
AcDbEntity
  8
OBJECT
100
AcDbCircle
 10
18.31538269292175
 20
3.544169142269857
 30
0.0
 40
0.157
100
AcDbArc
 50
270.0
 51
90.0
  0
LINE
  5
70A
330
1F
100
AcDbEntity
  8
OBJECT
100
AcDbLine
 10
18.90689176060933
 20
3.170169142269855
 30
0.0
 11
18.90689176060933
 21
5.414169142269856
 31
0.0
  0
LINE
  5
70B
330
1F
100
AcDbEntity
  8
HIDDEN
100
AcDbLine
 10
18.99689176060933
 20
3.248169142269856
 30
0.0
 11
18.99689176060933
 21
5.059669142269854
 31
0.0
  0
LINE
  5
70C
330
1F
100
AcDbEntity
  8
OBJECT
100
AcDbLine
 10
18.81489176060933
 20
5.322169142269857
 30
0.0
 11
18.81489176060933
 21
3.262169142269855
 31
0.0
  0
ARC
  5
70D
330
1F
100
AcDbEntity
  8
OBJECT
100
AcDbCircle
 10
18.06638269292175
 20
1.87702228239983
 30
0.0
 40
0.092
100
AcDbArc
 50
0.0
 51
90.0
  0
LINE
  5
70E
330
1F
100
AcDbEntity
  8
OBJECT
100
AcDbLine
 10
18.31538269292175
 20
3.387169142269857
 30
0.0
 11
18.06638269292175
 21
3.387169142269857
 31
0.0
  0
ARC
  5
70F
330
1F
100
AcDbEntity
  8
OBJECT
100
AcDbCircle
 10
18.06538269292175
 20
3.263169142269856
 30
0.0
 40
0.093
100
AcDbArc
 50
270.0
 51
0.0
  0
LWPOLYLINE
  5
711
330
1F
100
AcDbEntity
  8
HIDDEN
  6
HIDDEN2
100
AcDbPolyline
 90
        4
 70
     0
 43
0.0
 10
17.80288269292175
 20
1.87702228239983
 10
17.80288269292175
 20
1.73902228239983
 10
17.99988269292175
 20
1.73902228239983
 10
17.99988269292175
 20
1.87702228239983
  0
LWPOLYLINE
  5
712
330
1F
100
AcDbEntity
  8
HIDDEN
  6
HIDDEN2
100
AcDbPolyline
 90
        4
 70
     0
 43
0.0
 10
17.86188269292175
 20
1.73902228239983
 10
17.86188269292175
 20
1.866019099247423
 10
17.78538269292175
 20
1.95402228239983
 10
17.78538269292175
 20
1.969022282399831
  0
LWPOLYLINE
  5
713
330
1F
100
AcDbEntity
  8
HIDDEN
  6
HIDDEN2
100
AcDbPolyline
 90
        4
 70
     0
 43
0.0
 10
17.94088269292175
 20
1.73902228239983
 10
17.94088269292175
 20
1.866019099247423
 10
18.01738269292175
 20
1.95402228239983
 10
18.01738269292175
 20
1.969022282399831
  0
LINE
  5
714
330
1F
100
AcDbEntity
  8
HIDDEN
  6
HIDDEN2
100
AcDbLine
 10
18.08038269292175
 20
1.78702228239983
 30
0.0
 11
18.08038269292175
 21
1.87702228239983
 31
0.0
  0
LWPOLYLINE
  5
715
330
1F
100
AcDbEntity
  8
HIDDEN
  6
HIDDEN2
100
AcDbPolyline
 90
        3
 70
     0
 43
0.0
 10
18.35338269292175
 20
1.87702228239983
 10
18.32838269292175
 20
1.854022282399831
 10
18.30338269292175
 20
1.87702228239983
  0
LINE
  5
716
330
1F
100
AcDbEntity
  8
HIDDEN
  6
HIDDEN2
100
AcDbLine
 10
18.24238269292175
 20
1.969022282399831
 30
0.0
 11
18.24238269292175
 21
1.87702228239983
 31
0.0
  0
LINE
  5
717
330
1F
100
AcDbEntity
  8
HIDDEN
  6
HIDDEN2
100
AcDbLine
 10
18.38838269292175
 20
1.969022282399831
 30
0.0
 11
18.38838269292175
 21
1.87702228239983
 31
0.0
  0
LINE
  5
718
330
1F
100
AcDbEntity
  8
OBJECT
100
AcDbLine
 10
18.49338269292175
 20
1.969022282399831
 30
0.0
 11
18.49338269292175
 21
1.87702228239983
 31
0.0
  0
LINE
  5
719
330
1F
100
AcDbEntity
  8
OBJECT
100
AcDbLine
 10
18.47238269292175
 20
1.969022282399831
 30
0.0
 11
18.47238269292175
 21
1.87702228239983
 31
0.0
  0
LINE
  5
71A
330
1F
100
AcDbEntity
  8
OBJECT
100
AcDbLine
 10
18.15838269292175
 20
3.263169142269856
 30
0.0
 11
18.15838269292175
 21
3.387169142269857
 31
0.0
  0
CIRCLE
  5
71B
330
1F
100
AcDbEntity
  8
OBJECT
100
AcDbCircle
 10
18.31538269292175
 20
3.544169142269857
 30
0.0
 40
0.073
  0
LINE
  5
71C
330
1F
100
AcDbEntity
  8
HIDDEN
  6
HIDDEN2
100
AcDbLine
 10
18.99689176060933
 20
3.248169142269856
 30
0.0
 11
18.90689176060933
 21
3.248169142269856
 31
0.0
  0
ARC
  5
71D
330
1F
100
AcDbEntity
  8
OBJECT
100
AcDbCircle
 10
18.90689176060933
 20
3.262169142269855
 30
0.0
 40
0.092
100
AcDbArc
 50
180.0
 51
270.0
  0
LINE
  5
71E
330
1F
100
AcDbEntity
  8
HIDDEN
  6
HIDDEN2
100
AcDbLine
 10
18.99689176060933
 20
3.308169142269855
 30
0.0
 11
18.90689176060933
 21
3.308169142269855
 31
0.0
  0
LWPOLYLINE
  5
71F
330
1F
100
AcDbEntity
  8
HIDDEN
  6
HIDDEN2
100
AcDbPolyline
 90
        4
 70
     0
 43
0.0
 10
19.04489176060933
 20
3.386669142269857
 10
18.91789494376174
 20
3.386669142269857
 10
18.82989176060933
 20
3.310169142269857
 10
18.81489176060933
 20
3.310169142269858
  0
LWPOLYLINE
  5
720
330
1F
100
AcDbEntity
  8
HIDDEN
  6
HIDDEN2
100
AcDbPolyline
 90
        4
 70
     0
 43
0.0
 10
19.04489176060933
 20
3.465669142269858
 10
18.91789494376174
 20
3.465669142269858
 10
18.82989176060933
 20
3.542169142269858
 10
18.81489176060933
 20
3.542169142269857
  0
LINE
  5
721
330
1F
100
AcDbEntity
  8
OBJECT
100
AcDbLine
 10
18.90689176060933
 20
3.387169142269857
 30
0.0
 11
18.81489176060933
 21
3.387169142269857
 31
0.0
  0
LINE
  5
722
330
1F
100
AcDbEntity
  8
HIDDEN
  6
HIDDEN2
100
AcDbLine
 10
18.81489176060933
 20
3.617169142269857
 30
0.0
 11
18.90689176060933
 21
3.617169142269857
 31
0.0
  0
LINE
  5
723
330
1F
100
AcDbEntity
  8
HIDDEN
  6
HIDDEN2
100
AcDbLine
 10
18.81489176060933
 20
3.471169142269856
 30
0.0
 11
18.90689176060933
 21
3.471169142269856
 31
0.0
  0
LWPOLYLINE
  5
724
330
1F
100
AcDbEntity
  8
HIDDEN
  6
HIDDEN2
100
AcDbPolyline
 90
        4
 70
     0
 43
0.0
 10
18.90689176060933
 20
3.524669142269857
 10
19.04489176060933
 20
3.524669142269857
 10
19.04489176060933
 20
3.327669142269858
 10
18.90689176060933
 20
3.327669142269857
  0
LINE
  5
725
330
1F
100
AcDbEntity
  8
OBJECT
100
AcDbLine
 10
18.06638269292175
 20
4.73342735122508
 30
0.0
 11
18.49338269292175
 21
4.804169142269857
 31
0.0
  0
ARC
  5
726
330
1F
100
AcDbEntity
  8
OBJECT
100
AcDbCircle
 10
18.06538269292175
 20
5.321169142269856
 30
0.0
 40
0.093
100
AcDbArc
 50
0.0
 51
89.99999999999998
  0
LINE
  5
727
330
1F
100
AcDbEntity
  8
OBJECT
100
AcDbLine
 10
18.06638269292175
 20
5.188910933314633
 30
0.0
 11
18.49338269292175
 21
5.118169142269857
 31
0.0
  0
LINE
  5
728
330
1F
100
AcDbEntity
  8
OBJECT
100
AcDbLine
 10
18.31538269292175
 20
3.701169142269857
 30
0.0
 11
18.06638269292175
 21
3.701169142269856
 31
0.0
  0
CIRCLE
  5
729
330
1F
100
AcDbEntity
  8
OBJECT
100
AcDbCircle
 10
17.90138269292175
 20
5.158169142269856
 30
0.0
 40
0.116
  0
LINE
  5
72A
330
1F
100
AcDbEntity
  8
CENTER
100
AcDbLine
 10
16.45338269292175
 20
4.292169142269856
 30
0.0
 11
16.63338269292175
 21
4.292169142269856
 31
0.0
  0
LINE
  5
72B
330
1F
100
AcDbEntity
  8
CENTER
100
AcDbLine
 10
16.54338269292175
 20
4.202169142269856
 30
0.0
 11
16.54338269292175
 21
4.382169142269856
 31
0.0
  0
CIRCLE
  5
72C
330
1F
100
AcDbEntity
  8
OBJECT
100
AcDbCircle
 10
17.90138269292175
 20
5.158169142269856
 30
0.0
 40
0.0395
  0
CIRCLE
  5
72D
330
1F
100
AcDbEntity
  8
HIDDEN
100
AcDbCircle
 10
17.90138269292175
 20
5.158169142269856
 30
0.0
 40
0.0985
  0
LINE
  5
72E
330
1F
100
AcDbEntity
  8
HIDDEN
  6
HIDDEN2
100
AcDbLine
 10
18.99689176060933
 20
5.256669142269854
 30
0.0
 11
18.99689176060933
 21
5.336169142269857
 31
0.0
  0
LINE
  5
72F
330
1F
100
AcDbEntity
  8
OBJECT
100
AcDbLine
 10
18.15838269292175
 20
5.173669142269857
 30
0.0
 11
18.15838269292175
 21
5.321169142269856
 31
0.0
  0
LWPOLYLINE
  5
730
330
1F
100
AcDbEntity
  8
HIDDEN
  6
HIDDEN2
100
AcDbPolyline
 90
        4
 70
     0
 43
0.0
 10
19.04489176060933
 20
5.197669142269856
 10
18.91789494376174
 20
5.197669142269856
 10
18.82989176060933
 20
5.274169142269856
 10
18.81489176060933
 20
5.274169142269856
  0
LINE
  5
731
330
1F
100
AcDbEntity
  8
OBJECT
100
AcDbLine
 10
18.15838269292175
 20
3.701169142269856
 30
0.0
 11
18.15838269292175
 21
4.748669142269858
 31
0.0
  0
LINE
  5
732
330
1F
100
AcDbEntity
  8
OBJECT
100
AcDbLine
 10
18.90689176060933
 20
3.701169142269857
 30
0.0
 11
18.81489176060933
 21
3.701169142269856
 31
0.0
  0
LWPOLYLINE
  5
733
330
1F
100
AcDbEntity
  8
HIDDEN
  6
HIDDEN2
100
AcDbPolyline
 90
        4
 70
     1
 43
0.0
 10
18.30338269292175
 20
4.867169142269857
 10
18.35338269292175
 20
4.867169142269857
 10
18.35338269292175
 20
5.055169142269856
 10
18.30338269292175
 20
5.055169142269856
  0
LINE
  5
734
330
1F
100
AcDbEntity
  8
HIDDEN
  6
HIDDEN2
100
AcDbLine
 10
18.32838269292175
 20
4.867169142269857
 30
0.0
 11
18.32838269292175
 21
5.055169142269856
 31
0.0
  0
LINE
  5
735
330
1F
100
AcDbEntity
  8
OBJECT
100
AcDbLine
 10
18.49338269292175
 20
4.804169142269857
 30
0.0
 11
18.49338269292175
 21
5.118169142269857
 31
0.0
  0
LWPOLYLINE
  5
736
330
1F
100
AcDbEntity
  8
OBJECT
100
AcDbPolyline
 90
        4
 70
     0
 43
0.0
 10
18.90689176060933
 20
5.055169142269856
 10
18.92989176060933
 20
5.055169142269856
 10
18.92989176060933
 20
4.867169142269857
 10
18.90689176060933
 20
4.867169142269857
  0
LINE
  5
737
330
1F
100
AcDbEntity
  8
HIDDEN
  6
HIDDEN2
100
AcDbLine
 10
18.90689176060933
 20
4.544169142269855
 30
0.0
 11
18.99689176060933
 21
4.544169142269855
 31
0.0
  0
ARC
  5
738
330
1F
100
AcDbEntity
  8
OBJECT
100
AcDbCircle
 10
18.84589176060933
 20
4.779669142269857
 30
0.0
 40
0.031
100
AcDbArc
 50
180.0
 51
270.0
  0
ARC
  5
739
330
1F
100
AcDbEntity
  8
OBJECT
100
AcDbCircle
 10
18.84589176060933
 20
4.835169142269855
 30
0.0
 40
0.031
100
AcDbArc
 50
180.0
 51
270.0
  0
LINE
  5
73A
330
1F
100
AcDbEntity
  8
OBJECT
100
AcDbLine
 10
18.84589176060933
 20
4.748669142269856
 30
0.0
 11
18.90689176060933
 21
4.748669142269856
 31
0.0
  0
LINE
  5
73B
330
1F
100
AcDbEntity
  8
OBJECT
100
AcDbLine
 10
18.84589176060933
 20
4.804169142269857
 30
0.0
 11
18.90689176060933
 21
4.804169142269857
 31
0.0
  0
LWPOLYLINE
  5
73C
330
1F
100
AcDbEntity
  8
HIDDEN
  6
HIDDEN2
100
AcDbPolyline
 90
        4
 70
     0
 43
0.0
 10
19.04489176060933
 20
5.118669142269856
 10
18.91789494376174
 20
5.118669142269856
 10
18.82989176060933
 20
5.042169142269854
 10
18.81489176060933
 20
5.042169142269856
  0
LWPOLYLINE
  5
73D
330
1F
100
AcDbEntity
  8
HIDDEN
  6
HIDDEN2
100
AcDbPolyline
 90
        4
 70
     0
 43
0.0
 10
18.90689176060933
 20
5.059669142269854
 10
19.04489176060933
 20
5.059669142269854
 10
19.04489176060933
 20
5.256669142269854
 10
18.90689176060933
 20
5.256669142269855
  0
ARC
  5
73E
330
1F
100
AcDbEntity
  8
OBJECT
100
AcDbCircle
 10
18.84589176060933
 20
5.142669142269856
 30
0.0
 40
0.031
100
AcDbArc
 50
90.0
 51
180.0
  0
ARC
  5
73F
330
1F
100
AcDbEntity
  8
OBJECT
100
AcDbCircle
 10
18.84589176060933
 20
5.087169142269856
 30
0.0
 40
0.031
100
AcDbArc
 50
90.0
 51
180.0
  0
LINE
  5
740
330
1F
100
AcDbEntity
  8
OBJECT
100
AcDbLine
 10
18.84589176060933
 20
5.173669142269859
 30
0.0
 11
18.90689176060933
 21
5.173669142269857
 31
0.0
  0
LINE
  5
741
330
1F
100
AcDbEntity
  8
OBJECT
100
AcDbLine
 10
18.84589176060933
 20
5.118169142269857
 30
0.0
 11
18.90689176060933
 21
5.118169142269857
 31
0.0
  0
LINE
  5
742
330
1F
100
AcDbEntity
  8
HIDDEN
  6
HIDDEN2
100
AcDbLine
 10
18.99689176060933
 20
5.336169142269857
 30
0.0
 11
18.90689176060933
 21
5.336169142269857
 31
0.0
  0
LINE
  5
743
330
1F
100
AcDbEntity
  8
HIDDEN
  6
HIDDEN2
100
AcDbLine
 10
18.90689176060933
 20
5.276169142269856
 30
0.0
 11
18.99689176060933
 21
5.276169142269856
 31
0.0
  0
ARC
  5
744
330
1F
100
AcDbEntity
  8
OBJECT
100
AcDbCircle
 10
18.90689176060933
 20
5.322169142269857
 30
0.0
 40
0.092
100
AcDbArc
 50
90.0
 51
180.0
  0
LINE
  5
778
330
1F
100
AcDbEntity
  8
OBJECT
100
AcDbLine
 10
18.99889176060933
 20
3.387169142269857
 30
0.0
 11
18.99889176060933
 21
3.701169142269857
 31
0.0
  0
LINE
  5
779
330
1F
100
AcDbEntity
  8
HIDDEN
100
AcDbLine
 10
20.04689176060933
 20
3.310028358850259
 30
0.0
 11
20.04689176060933
 21
5.274309925689455
 31
0.0
  0
LWPOLYLINE
  5
77A
330
1F
100
AcDbEntity
  8
HIDDEN
100
AcDbPolyline
 90
        4
 70
     0
 43
0.0
 10
20.14689176060933
 20
3.552169142269856
 10
20.11689176060933
 20
3.552169142269856
 10
20.11689176060933
 20
5.032169142269855
 10
20.14689176060933
 20
5.032169142269855
  0
LINE
  5
77B
330
1F
100
AcDbEntity
  8
HIDDEN
100
AcDbLine
 10
19.00689176060933
 20
5.339169142269857
 30
0.0
 11
19.00689176060933
 21
3.245169142269856
 31
0.0
  0
LINE
  5
77C
330
1F
100
AcDbEntity
  8
OBJECT
100
AcDbLine
 10
20.14689176060934
 20
3.313336843506109
 30
0.0
 11
20.14689176060934
 21
5.271001441033605
 31
0.0
  0
LINE
  5
77D
330
1F
100
AcDbEntity
  8
HIDDEN
100
AcDbLine
 10
19.00689176060933
 20
3.264620978225406
 30
0.0
 11
20.04689176060933
 21
3.310028358850259
 31
0.0
  0
LINE
  5
77E
330
1F
100
AcDbEntity
  8
OBJECT
100
AcDbLine
 10
18.90689176060933
 20
3.170169142269856
 30
0.0
 11
20.05794836363431
 21
3.220425358898996
 31
0.0
  0
LWPOLYLINE
  5
77F
330
1F
100
AcDbEntity
  8
HIDDEN
100
AcDbPolyline
 90
        4
 70
     0
 43
0.0
 10
20.04689176060933
 20
3.524669142269854
 10
19.04689176060933
 20
3.524669142269855
 10
19.04689176060933
 20
3.327669142269855
 10
20.04689176060933
 20
3.327669142269855
  0
LWPOLYLINE
  5
780
330
1F
100
AcDbEntity
  8
HIDDEN
100
AcDbPolyline
 90
        4
 70
     0
 43
0.0
 10
19.04689176060933
 20
3.465669142269858
 10
19.97689176060933
 20
3.465669142269858
 10
19.97689176060934
 20
3.386669142269857
 10
19.04689176060933
 20
3.386669142269857
  0
LINE
  5
781
330
1F
100
AcDbEntity
  8
HIDDEN
  6
HIDDEN2
100
AcDbLine
 10
18.90689176060933
 20
3.245169142269856
 30
0.0
 11
19.00689176060933
 21
3.245169142269856
 31
0.0
  0
LINE
  5
782
330
1F
100
AcDbEntity
  8
OBJECT
100
AcDbLine
 10
18.99889176060933
 20
3.387169142269857
 30
0.0
 11
18.90689176060933
 21
3.387169142269857
 31
0.0
  0
LINE
  5
783
330
1F
100
AcDbEntity
  8
HIDDEN
  6
HIDDEN2
100
AcDbLine
 10
18.90689176060933
 20
3.617169142269857
 30
0.0
 11
18.99889176060933
 21
3.617169142269857
 31
0.0
  0
LINE
  5
784
330
1F
100
AcDbEntity
  8
HIDDEN
  6
HIDDEN2
100
AcDbLine
 10
18.90689176060933
 20
3.471169142269856
 30
0.0
 11
18.99889176060933
 21
3.471169142269856
 31
0.0
  0
ARC
  5
785
330
1F
100
AcDbEntity
  8
OBJECT
100
AcDbCircle
 10
20.05389176060933
 20
3.313336843506109
 30
0.0
 40
0.093
100
AcDbArc
 50
272.5
 51
0.0
  0
LINE
  5
786
330
1F
100
AcDbEntity
  8
HIDDEN
100
AcDbLine
 10
20.04689176060933
 20
5.274309925689455
 30
0.0
 11
19.00689176060933
 21
5.319717306314307
 31
0.0
  0
LWPOLYLINE
  5
787
330
1F
100
AcDbEntity
  8
HIDDEN
100
AcDbPolyline
 90
        4
 70
     0
 43
0.0
 10
19.04689176060933
 20
5.118669142269856
 10
19.97689176060933
 20
5.118669142269856
 10
19.97689176060934
 20
5.197669142269856
 10
19.04689176060933
 20
5.197669142269856
  0
LWPOLYLINE
  5
788
330
1F
100
AcDbEntity
  8
HIDDEN
100
AcDbPolyline
 90
        4
 70
     0
 43
0.0
 10
20.04689176060933
 20
5.059669142269858
 10
19.04689176060933
 20
5.059669142269858
 10
19.04689176060933
 20
5.256669142269857
 10
20.04689176060933
 20
5.256669142269857
  0
LINE
  5
789
330
1F
100
AcDbEntity
  8
OBJECT
100
AcDbLine
 10
20.05794836363431
 20
5.363912925640719
 30
0.0
 11
18.90689176060934
 21
5.414169142269856
 31
0.0
  0
LINE
  5
78A
330
1F
100
AcDbEntity
  8
OBJECT
100
AcDbLine
 10
18.99889176060933
 20
3.701169142269857
 30
0.0
 11
18.90689176060933
 21
3.701169142269857
 31
0.0
  0
LWPOLYLINE
  5
78B
330
1F
100
AcDbEntity
  8
OBJECT
100
AcDbPolyline
 90
        6
 70
     0
 43
0.0
 10
18.90689176060933
 20
5.173669142269859
 10
19.09289176060934
 20
5.173669142269855
 42
-0.4142135623730939
 10
19.12389176060933
 20
5.142669142269856
 10
19.12389176060933
 20
4.779669142269857
 42
-0.4142135623730927
 10
19.09289176060933
 20
4.748669142269856
 10
18.90689176060933
 20
4.748669142269855
  0
LWPOLYLINE
  5
78C
330
1F
100
AcDbEntity
  8
OBJECT
100
AcDbPolyline
 90
        6
 70
     0
 43
0.0
 10
18.90689176060933
 20
4.804169142269857
 10
19.03289176060933
 20
4.804169142269857
 42
0.4142135623730951
 10
19.06389176060933
 20
4.835169142269855
 10
19.06389176060933
 20
5.087169142269858
 42
0.4142135623730951
 10
19.03289176060933
 20
5.118169142269857
 10
18.90689176060933
 20
5.118169142269857
  0
LWPOLYLINE
  5
78D
330
1F
100
AcDbEntity
  8
OBJECT
100
AcDbPolyline
 90
        4
 70
     0
 43
0.0
 10
18.90689176060933
 20
5.065169142269856
 10
19.00689176060933
 20
5.065169142269856
 10
19.00689176060933
 20
4.857169142269857
 10
18.90689176060933
 20
4.857169142269857
  0
LINE
  5
78E
330
1F
100
AcDbEntity
  8
HIDDEN
  6
HIDDEN2
100
AcDbLine
 10
18.90689176060933
 20
5.339169142269857
 30
0.0
 11
19.00689176060933
 21
5.339169142269857
 31
0.0
  0
LWPOLYLINE
  5
78F
330
1F
100
AcDbEntity
  8
HIDDEN
  6
HIDDEN2
100
AcDbPolyline
 90
        4
 70
     0
 43
0.0
 10
20.11689176060933
 20
4.167169142269855
 10
20.08589176060933
 20
4.214169142269856
 10
20.08589176060933
 20
4.370169142269855
 10
20.11689176060933
 20
4.417169142269855
  0
ARC
  5
790
330
1F
100
AcDbEntity
  8
OBJECT
100
AcDbCircle
 10
20.05389176060933
 20
5.271001441033605
 30
0.0
 40
0.093
100
AcDbArc
 50
0.0000000000000509
 51
87.5
  0
LINE
  5
791
330
1F
100
AcDbEntity
  8
HIDDEN
100
AcDbLine
 10
18.01852347634135
 20
0.7370222823998312
 30
0.0
 11
15.06824190950215
 21
0.7370222823998312
 31
0.0
  0
LWPOLYLINE
  5
792
330
1F
100
AcDbEntity
  8
HIDDEN
100
AcDbPolyline
 90
        4
 70
     0
 43
0.0
 10
15.30938269292175
 20
0.6370222823998306
 10
15.30938269292175
 20
0.6670222823998309
 10
17.77738269292175
 20
0.6670222823998309
 10
17.77738269292175
 20
0.6370222823998306
  0
LINE
  5
793
330
1F
100
AcDbEntity
  8
OBJECT
100
AcDbLine
 10
18.0152149916855
 20
0.6370222823998306
 30
0.0
 11
15.071550394158
 21
0.6370222823998306
 31
0.0
  0
ARC
  5
794
330
1F
100
AcDbEntity
  8
OBJECT
100
AcDbCircle
 10
15.071550394158
 20
0.7300222823998306
 30
0.0
 40
0.093
100
AcDbArc
 50
182.5
 51
270.0
  0
LWPOLYLINE
  5
795
330
1F
100
AcDbEntity
  8
HIDDEN
  6
HIDDEN2
100
AcDbPolyline
 90
        4
 70
     0
 43
0.0
 10
16.41838269292175
 20
0.6670222823998309
 10
16.46538269292175
 20
0.6980222823998306
 10
16.62138269292175
 20
0.6980222823998306
 10
16.66838269292175
 20
0.6670222823998309
  0
ARC
  5
796
330
1F
100
AcDbEntity
  8
OBJECT
100
AcDbCircle
 10
18.0152149916855
 20
0.7300222823998306
 30
0.0
 40
0.093
100
AcDbArc
 50
270.0
 51
357.5
  0
LWPOLYLINE
  5
797
330
1F
100
AcDbEntity
  8
HIDDEN
100
AcDbPolyline
 90
        4
 70
     0
 43
0.0
 10
17.86188269292175
 20
1.737022282399829
 10
17.86188269292175
 20
0.8070222823998296
 10
17.94088269292175
 20
0.8070222823998278
 10
17.94088269292175
 20
1.737022282399829
  0
LWPOLYLINE
  5
798
330
1F
100
AcDbEntity
  8
HIDDEN
100
AcDbPolyline
 90
        4
 70
     0
 43
0.0
 10
17.80288269292175
 20
0.7370222823998312
 10
17.80288269292175
 20
1.737022282399829
 10
17.99988269292175
 20
1.737022282399829
 10
17.99988269292175
 20
0.7370222823998312
  0
LINE
  5
799
330
1F
100
AcDbEntity
  8
HIDDEN
100
AcDbLine
 10
18.01852347634135
 20
0.7370222823998312
 30
0.0
 11
18.0639308569662
 21
1.777022282399831
 31
0.0
  0
LINE
  5
79A
330
1F
100
AcDbEntity
  8
OBJECT
100
AcDbLine
 10
18.10812647629261
 20
0.7259656793748546
 30
0.0
 11
18.15838269292175
 21
1.87702228239983
 31
0.0
  0
LINE
  5
79B
330
1F
100
AcDbEntity
  8
HIDDEN
100
AcDbLine
 10
15.0228345288773
 20
1.777022282399831
 30
0.0
 11
15.06824190950215
 21
0.7370222823998312
 31
0.0
  0
LWPOLYLINE
  5
79C
330
1F
100
AcDbEntity
  8
HIDDEN
100
AcDbPolyline
 90
        4
 70
     0
 43
0.0
 10
15.28388269292175
 20
0.7370222823998312
 10
15.28388269292175
 20
1.737022282399829
 10
15.08688269292175
 20
1.737022282399829
 10
15.08688269292175
 20
0.7370222823998312
  0
LWPOLYLINE
  5
79D
330
1F
100
AcDbEntity
  8
HIDDEN
100
AcDbPolyline
 90
        4
 70
     0
 43
0.0
 10
15.22488269292175
 20
1.737022282399829
 10
15.22488269292175
 20
0.8070222823998296
 10
15.14588269292175
 20
0.8070222823998278
 10
15.14588269292175
 20
1.737022282399829
  0
LINE
  5
79E
330
1F
100
AcDbEntity
  8
OBJECT
100
AcDbLine
 10
14.92838269292175
 20
1.87702228239983
 30
0.0
 11
14.97863890955089
 21
0.7259656793748546
 31
0.0
  0
LINE
  5
79F
330
1F
100
AcDbEntity
  8
HIDDEN
100
AcDbLine
 10
18.08338269292175
 20
1.777022282399831
 30
0.0
 11
15.00338269292175
 21
1.777022282399831
 31
0.0
  0
LINE
  5
7A0
330
1F
100
AcDbEntity
  8
OBJECT
100
AcDbLine
 10
14.9378571175329
 20
1.66002228239983
 30
0.0
 11
14.59338269292175
 21
1.72002228239983
 31
0.0
  0
LINE
  5
7A1
330
1F
100
AcDbEntity
  8
HIDDEN
100
AcDbLine
 10
14.93239949966933
 20
1.78502228239983
 30
0.0
 11
14.61438269292175
 21
1.78502228239983
 31
0.0
  0
LINE
  5
7A2
330
1F
100
AcDbEntity
  8
HIDDEN
  6
HIDDEN2
100
AcDbLine
 10
14.61438269292175
 20
1.87702228239983
 30
0.0
 11
14.61438269292175
 21
1.78502228239983
 31
0.0
  0
LINE
  5
7A3
330
1F
100
AcDbEntity
  8
OBJECT
100
AcDbLine
 10
14.59338269292175
 20
1.72002228239983
 30
0.0
 11
14.59338269292175
 21
1.87702228239983
 31
0.0
  0
LINE
  5
7A4
330
1F
100
AcDbEntity
  8
HIDDEN
  6
HIDDEN2
100
AcDbLine
 10
14.69838269292175
 20
1.87702228239983
 30
0.0
 11
14.69838269292175
 21
1.78502228239983
 31
0.0
  0
LINE
  5
7A5
330
1F
100
AcDbEntity
  8
HIDDEN
  6
HIDDEN2
100
AcDbLine
 10
14.84438269292175
 20
1.87702228239983
 30
0.0
 11
14.84438269292175
 21
1.78502228239983
 31
0.0
  0
LINE
  5
7A6
330
1F
100
AcDbEntity
  8
OBJECT
100
AcDbLine
 10
18.15436588617417
 20
1.78502228239983
 30
0.0
 11
18.47238269292175
 21
1.78502228239983
 31
0.0
  0
LINE
  5
7A7
330
1F
100
AcDbEntity
  8
OBJECT
100
AcDbLine
 10
18.1489082683106
 20
1.66002228239983
 30
0.0
 11
18.49338269292175
 21
1.72002228239983
 31
0.0
  0
LINE
  5
7A8
330
1F
100
AcDbEntity
  8
HIDDEN
  6
HIDDEN2
100
AcDbLine
 10
18.24238269292175
 20
1.87702228239983
 30
0.0
 11
18.24238269292175
 21
1.78502228239983
 31
0.0
  0
LINE
  5
7A9
330
1F
100
AcDbEntity
  8
HIDDEN
  6
HIDDEN2
100
AcDbLine
 10
18.38838269292175
 20
1.87702228239983
 30
0.0
 11
18.38838269292175
 21
1.78502228239983
 31
0.0
  0
LINE
  5
7AA
330
1F
100
AcDbEntity
  8
OBJECT
100
AcDbLine
 10
18.49338269292175
 20
1.72002228239983
 30
0.0
 11
18.49338269292175
 21
1.87702228239983
 31
0.0
  0
LINE
  5
7AB
330
1F
100
AcDbEntity
  8
OBJECT
100
AcDbLine
 10
18.47238269292175
 20
1.87702228239983
 30
0.0
 11
18.47238269292175
 21
1.78502228239983
 31
0.0
  0
LINE
  5
7AC
330
1F
100
AcDbEntity
  8
HIDDEN
  6
HIDDEN2
100
AcDbLine
 10
14.61438269292175
 20
1.87702228239983
 30
0.0
 11
14.61438269292175
 21
1.969022282399831
 31
0.0
  0
LWPOLYLINE
  5
7AE
330
1F
100
AcDbEntity
  8
HIDDEN
  6
HIDDEN2
100
AcDbPolyline
 90
        4
 70
     1
 43
0.0
 10
1.597846518593534
 20
7.135621731301898
 10
1.647846518593535
 20
7.135621731301898
 10
1.647846518593535
 20
6.947621731301898
 10
1.597846518593534
 20
6.947621731301898
  0
LINE
  5
7AF
330
1F
100
AcDbEntity
  8
HIDDEN
  6
HIDDEN2
100
AcDbLine
 10
1.622846518593533
 20
7.135621731301898
 30
0.0
 11
1.622846518593533
 21
6.947621731301898
 31
0.0
  0
LWPOLYLINE
  5
7B0
330
1F
100
AcDbEntity
  8
HIDDEN
  6
HIDDEN2
100
AcDbPolyline
 90
        4
 70
     1
 43
0.0
 10
5.167846518593536
 20
8.285621731301899
 10
5.217846518593533
 20
8.285621731301899
 10
5.217846518593533
 20
8.473621731301898
 10
5.167846518593536
 20
8.473621731301898
  0
LINE
  5
7B1
330
1F
100
AcDbEntity
  8
HIDDEN
  6
HIDDEN2
100
AcDbLine
 10
5.192846518593534
 20
8.285621731301899
 30
0.0
 11
5.192846518593534
 21
8.473621731301898
 31
0.0
  0
LEADER
  5
7B5
330
1F
100
AcDbEntity
  8
DIM
100
AcDbLeader
  3
23NSTD
 73
     0
 75
     1
 40
0.4166666666666667
 41
1.46484375
 76
     3
 10
4.69254832380359
 20
2.153796794940696
 30
0.0
 10
4.309800350633151
 20
1.623538711442449
 30
0.0
 10
4.084800350633152
 20
1.623538711442449
 30
0.0
340
7B6
213
0.0
223
-0.078125
233
0.0
1001
ACAD
1000
DSTYLE
1002
{
1070
   147
1040
0.09
1070
    77
1070
     0
1002
}
  0
MTEXT
  5
7B6
102
{ACAD_REACTORS
330
7B5
102
}
330
1F
100
AcDbEntity
  8
DIM
100
AcDbMText
 10
3.972300350633152
 20
1.701663711442449
 30
0.0
 40
0.15625
 41
0.0
 71
     3
 72
     1
  1
\A1;0.197 DIA. BOSS\P(2) PLACES
  7
TXT
 73
     1
 44
1.0
  0
LEADER
  5
7B7
330
1F
100
AcDbEntity
  8
DIM
100
AcDbLeader
  3
23NSTD
 73
     0
 74
     0
 75
     1
 40
0.4166666666666667
 41
1.484375
 76
     3
 10
2.079109394591041
 20
3.9781284344518
 30
0.0
 10
2.439261340088309
 20
4.683454909514441
 30
0.0
 10
2.664261340088309
 20
4.683454909514441
 30
0.0
340
7B8
213
0.0
223
-0.078125
233
0.0
1001
ACAD
1000
DSTYLE
1002
{
1070
   147
1040
0.09
1070
    77
1070
     0
1002
}
  0
MTEXT
  5
7B8
102
{ACAD_REACTORS
330
7B7
102
}
330
1F
100
AcDbEntity
  8
DIM
100
AcDbMText
 10
2.776761340088309
 20
4.761579909514441
 30
0.0
 40
0.15625
 41
0.0
 71
     1
 72
     1
  1
\A1;0.079 DIA. HOLE\P(2) PLACES
  7
TXT
 73
     1
 44
1.0
  0
LINE
  5
7B9
330
1F
100
AcDbEntity
  8
HIDDEN
100
AcDbLine
 10
14.80538269292175
 20
3.727169142269857
 30
0.0
 11
14.80538269292175
 21
3.519169142269856
 31
0.0
  0
LINE
  5
7BA
330
1F
100
AcDbEntity
  8
HIDDEN
100
AcDbLine
 10
14.71338269292175
 20
3.727169142269857
 30
0.0
 11
14.71338269292175
 21
3.519169142269856
 31
0.0
  0
LINE
  5
7BB
330
1F
100
AcDbEntity
  8
HIDDEN
100
AcDbLine
 10
15.00338269292175
 20
3.519169142269856
 30
0.0
 11
14.59338269292175
 21
3.519169142269856
 31
0.0
  0
LINE
  5
7BC
330
1F
100
AcDbEntity
  8
HIDDEN
100
AcDbLine
 10
15.00338269292175
 20
3.727169142269857
 30
0.0
 11
14.59338269292175
 21
3.727169142269857
 31
0.0
  0
LINE
  5
7BD
330
1F
100
AcDbEntity
  8
HIDDEN
100
AcDbLine
 10
18.08338269292175
 20
4.857169142269857
 30
0.0
 11
18.49338269292175
 21
4.857169142269857
 31
0.0
  0
LINE
  5
7BE
330
1F
100
AcDbEntity
  8
HIDDEN
100
AcDbLine
 10
18.08338269292175
 20
5.065169142269856
 30
0.0
 11
18.49338269292175
 21
5.065169142269856
 31
0.0
  0
LINE
  5
7BF
330
1F
100
AcDbEntity
  8
HIDDEN
100
AcDbLine
 10
18.28138269292175
 20
4.857169142269857
 30
0.0
 11
18.28138269292175
 21
5.065169142269858
 31
0.0
  0
LINE
  5
7C0
330
1F
100
AcDbEntity
  8
HIDDEN
100
AcDbLine
 10
18.37338269292175
 20
4.857169142269857
 30
0.0
 11
18.37338269292175
 21
5.065169142269858
 31
0.0
  0
LINE
  5
7C2
330
1F
100
AcDbEntity
  8
HIDDEN
100
AcDbLine
 10
18.05338269292175
 20
5.339169142269857
 30
0.0
 11
15.03338269292175
 21
5.339169142269857
 31
0.0
  0
LINE
  5
7C3
330
1F
100
AcDbEntity
  8
HIDDEN
100
AcDbLine
 10
15.00338269292175
 20
5.309169142269856
 30
0.0
 11
15.00338269292175
 21
3.275169142269857
 31
0.0
  0
ARC
  5
7C4
330
1F
100
AcDbEntity
  8
HIDDEN
100
AcDbCircle
 10
15.03338269292175
 20
5.309169142269856
 30
0.0
 40
0.03
100
AcDbArc
 50
90.0
 51
179.9999999999999
  0
ARC
  5
7C5
330
1F
100
AcDbEntity
  8
HIDDEN
100
AcDbCircle
 10
18.05338269292175
 20
5.309169142269856
 30
0.0
 40
0.03
100
AcDbArc
 50
0.0
 51
90.0
  0
LINE
  5
7C6
330
1F
100
AcDbEntity
  8
HIDDEN
100
AcDbLine
 10
18.08338269292175
 20
3.275169142269857
 30
0.0
 11
18.08338269292175
 21
5.309169142269856
 31
0.0
  0
ARC
  5
7C7
330
1F
100
AcDbEntity
  8
HIDDEN
100
AcDbCircle
 10
18.05338269292175
 20
3.275169142269857
 30
0.0
 40
0.03
100
AcDbArc
 50
270.0
 51
0.0
  0
ARC
  5
7C8
330
1F
100
AcDbEntity
  8
HIDDEN
100
AcDbCircle
 10
15.03338269292175
 20
3.275169142269857
 30
0.0
 40
0.03
100
AcDbArc
 50
179.9999999999999
 51
270.0
  0
LINE
  5
7C9
330
1F
100
AcDbEntity
  8
HIDDEN
100
AcDbLine
 10
15.03338269292175
 20
3.245169142269856
 30
0.0
 11
18.05338269292175
 21
3.245169142269856
 31
0.0
  0
DIMENSION
  5
7EE
330
1F
100
AcDbEntity
  8
DIM
100
AcDbDimension
  2
*D22
 10
1.212096518593532
 20
2.337596678227336
 30
0.0
 11
1.212096518593531
 21
2.837596678227337
 31
0.0
 70
   160
 71
     5
 42
0.9999999999999996
  3
23NSTD
100
AcDbAlignedDimension
 13
1.90084651859353
 23
3.337596678227336
 33
0.0
 14
1.523346518593531
 24
2.337596678227336
 34
0.0
 50
90.0
100
AcDbRotatedDimension
  0
LEADER
  5
811
330
1F
100
AcDbEntity
  8
DIM
100
AcDbLeader
  3
23NSTD
 73
     0
 74
     0
 75
     1
 40
0.4166666666666667
 41
1.484375
 76
     3
 10
8.633763469573869
 20
6.811658699836564
 30
0.0
 10
9.010899497101599
 20
6.312899813378876
 30
0.0
 10
9.235899497101598
 20
6.312899813378876
 30
0.0
340
812
213
0.0
223
-0.078125
233
0.0
1001
ACAD
1000
DSTYLE
1002
{
1070
   147
1040
0.09
1070
    77
1070
     0
1002
}
  0
MTEXT
  5
812
102
{ACAD_REACTORS
330
811
102
}
330
1F
100
AcDbEntity
  8
DIM
100
AcDbMText
 10
9.348399497101599
 20
6.391024813378876
 30
0.0
 40
0.15625
 41
0.0
 71
     1
 72
     1
  1
0.079 DIA. HOLE\Px 0.930 DEEP\P(2) PLACES
  7
TXT
 73
     1
 44
1.0
  0
MTEXT
  5
813
102
{ACAD_REACTORS
330
814
102
}
330
1F
100
AcDbEntity
  8
DIM
100
AcDbMText
 10
10.51149907353035
 20
9.453854026130905
 30
0.0
 40
0.15625
 41
0.0
 71
     3
 72
     1
  1
\A1;0.197 DIA. BOSS\P(2) PLACES
  7
TXT
 73
     1
 44
1.0
  0
LEADER
  5
814
330
1F
100
AcDbEntity
  8
DIM
100
AcDbLeader
  3
23NSTD
 73
     0
 75
     1
 40
0.4166666666666667
 41
1.46484375
 76
     3
 10
11.23971666445159
 20
8.620307709737243
 30
0.0
 10
10.84899907353035
 20
9.375729026130905
 30
0.0
 10
10.62399907353035
 20
9.375729026130905
 30
0.0
340
813
213
0.0
223
-0.078125
233
0.0
1001
ACAD
1000
DSTYLE
1002
{
1070
   147
1040
0.09
1070
    77
1070
     0
1002
}
  0
LINE
  5
816
330
1F
100
AcDbEntity
  8
CENTER
100
AcDbLine
 10
8.085499082226291
 20
8.458621731301899
 30
0.0
 11
8.310499082226293
 21
8.458621731301899
 31
0.0
  0
LINE
  5
817
330
1F
100
AcDbEntity
  8
CENTER
100
AcDbLine
 10
8.197999082226292
 20
8.346121731301899
 30
0.0
 11
8.197999082226292
 21
8.5711217313019
 31
0.0
  0
DIMENSION
  5
818
330
1F
100
AcDbEntity
  8
DIM
100
AcDbDimension
  2
*D23
 10
7.420554816968254
 20
7.041621731301898
 30
0.0
 11
7.420554816968254
 21
7.750121731301899
 31
0.0
 70
    32
 71
     5
 42
1.417000000000001
  3
23NSTD
100
AcDbAlignedDimension
 13
8.085499082226291
 23
8.458621731301899
 33
0.0
 14
7.894999082226291
 24
7.041621731301898
 34
0.0
 50
90.0
100
AcDbRotatedDimension
  0
DIMENSION
  5
826
330
1F
100
AcDbEntity
  8
DIM
100
AcDbDimension
  2
*D24
 10
7.420554816968254
 20
6.588621731301898
 30
0.0
 11
7.420554816968253
 21
6.815121731301899
 31
0.0
 70
    32
 71
     5
 42
0.4529999999999994
  3
23NSTD
100
AcDbAlignedDimension
 13
7.894999082226291
 23
7.041621731301898
 33
0.0
 14
8.447999082226292
 24
6.588621731301898
 34
0.0
 50
90.0
100
AcDbRotatedDimension
1001
ACAD
1000
DSTYLE
1002
{
1070
   279
1070
     1
1002
}
  0
DIMENSION
  5
834
330
1F
100
AcDbEntity
  8
DIM
100
AcDbDimension
  2
*D25
 10
7.420554816968254
 20
8.832621731301898
 30
0.0
 11
7.420554816968254
 21
8.645621731301901
 31
0.0
 70
    32
 71
     5
 42
0.3739999999999988
  3
23NSTDI
100
AcDbAlignedDimension
 13
8.085499082226291
 23
8.458621731301899
 33
0.0
 14
8.447999082226292
 24
8.832621731301898
 34
0.0
 50
90.0
100
AcDbRotatedDimension
  0
DIMENSION
  5
84E
330
1F
100
AcDbEntity
  8
DIM
100
AcDbDimension
  2
*D30
 10
13.00144861586032
 20
8.167121731301898
 30
0.0
 11
13.00144861586032
 21
8.379621731301901
 31
0.0
 70
    32
 71
     5
 42
0.4249999999999972
  3
23NSTD
100
AcDbAlignedDimension
 13
11.58499908222629
 23
8.592121731301897
 33
0.0
 14
11.58499908222629
 24
8.1671217313019
 34
0.0
 50
270.0
100
AcDbRotatedDimension
  0
DIMENSION
  5
84F
330
1F
100
AcDbEntity
  8
DIM
100
AcDbDimension
  2
*D29
 10
12.32405232929494
 20
8.222621731301897
 30
0.0
 11
12.32405232929493
 21
8.379621731301901
 31
0.0
 70
    32
 71
     5
 42
0.3140000000000001
  3
23NSTDI
100
AcDbAlignedDimension
 13
11.91999908222629
 23
8.536621731301899
 33
0.0
 14
11.91999908222629
 24
8.222621731301899
 34
0.0
 50
270.0
100
AcDbRotatedDimension
  0
DIMENSION
  5
850
330
1F
100
AcDbEntity
  8
DIM
100
AcDbDimension
  2
*D28
 10
11.91999908222629
 20
9.126049133790154
 30
0.0
 11
12.70710845722629
 21
9.126049133790154
 31
0.0
 70
    32
 71
     5
 42
0.3350000000000008
  3
23NSTD
100
AcDbAlignedDimension
 13
11.58499908222629
 23
8.739621731301898
 33
0.0
 14
11.91999908222629
 24
8.536621731301899
 34
0.0
100
AcDbRotatedDimension
  0
DIMENSION
  5
851
330
1F
100
AcDbEntity
  8
DIM
100
AcDbDimension
  2
*D27
 10
11.74199908222629
 20
6.161053548874896
 30
0.0
 11
12.50957720722629
 21
6.161053548874896
 31
0.0
 70
    32
 71
     5
 42
0.157
  3
23NSTD
100
AcDbAlignedDimension
 13
11.58499908222629
 23
6.681621731301898
 33
0.0
 14
11.74199908222629
 24
6.962621731301897
 34
0.0
100
AcDbRotatedDimension
  0
DIMENSION
  5
852
330
1F
100
AcDbEntity
  8
DIM
100
AcDbDimension
  2
*D26
 10
12.32405232929494
 20
6.805621731301897
 30
0.0
 11
12.32405232929493
 21
6.962621731301899
 31
0.0
 70
    32
 71
     5
 42
0.3140000000000001
  3
23NSTDI
100
AcDbAlignedDimension
 13
11.74199908222629
 23
7.119621731301897
 33
0.0
 14
11.74199908222629
 24
6.805621731301897
 34
0.0
 50
270.0
100
AcDbRotatedDimension
  0
DIMENSION
  5
A14
330
1F
100
AcDbEntity
  8
DIM
100
AcDbDimension
  2
*D31
 10
13.64418630505916
 20
8.2756217313019
 30
0.0
 11
13.64418630505916
 21
8.379621731301902
 31
0.0
 70
    32
 71
     5
 42
0.2079999999999984
  3
23NSTDI
100
AcDbAlignedDimension
 13
14.12597379360263
 23
8.483621731301898
 33
0.0
 14
14.12597379360263
 24
8.2756217313019
 34
0.0
 50
90.0
100
AcDbRotatedDimension
  0
DIMENSION
  5
A48
330
1F
100
AcDbEntity
  8
DIM
100
AcDbDimension
  2
*D32
 10
14.22597379360262
 20
9.136680014401257
 30
0.0
 11
14.97402066860262
 21
9.136680014401257
 31
0.0
 70
    32
 71
     5
 42
0.0999999999999943
  3
23NSTD
100
AcDbAlignedDimension
 13
14.12597379360263
 23
8.832621731301898
 33
0.0
 14
14.22597379360262
 24
8.757621731301899
 34
0.0
100
AcDbRotatedDimension
  0
DIMENSION
  5
C72
330
1F
100
AcDbEntity
  8
DIM
100
AcDbDimension
  2
*D33
 10
16.54338269292175
 20
5.659800111113789
 30
0.0
 11
15.86438269292175
 21
5.659800111113789
 31
0.0
 70
    32
 71
     5
 42
1.357999999999996
  3
23NSTD
100
AcDbAlignedDimension
 13
15.18538269292175
 23
3.426169142269856
 33
0.0
 14
16.54338269292175
 24
4.382169142269856
 34
0.0
100
AcDbRotatedDimension
  0
DIMENSION
  5
C80
330
1F
100
AcDbEntity
  8
DIM
100
AcDbDimension
  2
*D34
 10
17.90138269292175
 20
5.923446558356261
 30
0.0
 11
16.54338269292175
 21
5.923446558356261
 31
0.0
 70
   160
 71
     5
 42
2.716000000000001
  3
23NSTD
100
AcDbAlignedDimension
 13
15.18538269292175
 23
3.426169142269856
 33
0.0
 14
17.90138269292175
 24
5.158169142269856
 34
0.0
100
AcDbRotatedDimension
  0
DIMENSION
  5
C8E
330
1F
100
AcDbEntity
  8
DIM
100
AcDbDimension
  2
*D35
 10
16.03742975073677
 20
4.292169142269856
 30
0.0
 11
16.03742975073677
 21
3.859169142269859
 31
0.0
 70
    32
 71
     5
 42
0.8660000000000005
  3
23NSTD
100
AcDbAlignedDimension
 13
15.18538269292175
 23
3.426169142269856
 33
0.0
 14
16.45338269292175
 24
4.292169142269856
 34
0.0
 50
90.0
100
AcDbRotatedDimension
  0
DIMENSION
  5
C9C
330
1F
100
AcDbEntity
  8
DIM
100
AcDbDimension
  2
*D36
 10
17.17457830328039
 20
5.158169142269856
 30
0.0
 11
17.17457830328039
 21
4.292169142269859
 31
0.0
 70
    32
 71
     5
 42
1.732
  3
23NSTD
100
AcDbAlignedDimension
 13
15.18538269292175
 23
3.426169142269856
 33
0.0
 14
17.90138269292175
 24
5.158169142269856
 34
0.0
 50
90.0
100
AcDbRotatedDimension
  0
LEADER
  5
CCA
330
1F
100
AcDbEntity
  8
DIM
100
AcDbLeader
  3
23NSTD
 73
     0
 74
     0
 75
     1
 40
0.4166666666666667
 41
1.46484375
 76
     3
 10
18.36758637895982
 20
3.493141942032741
 30
0.0
 10
18.70658708189548
 20
2.807656044609317
 30
0.0
 10
18.93158708189549
 20
2.807656044609317
 30
0.0
340
CCB
213
0.0
223
-0.078125
233
0.0
1001
ACAD
1000
DSTYLE
1002
{
1070
   147
1040
0.09
1070
    77
1070
     0
1002
}
  0
MTEXT
  5
CCB
102
{ACAD_REACTORS
330
CCA
102
}
330
1F
100
AcDbEntity
  8
DIM
100
AcDbMText
 10
19.04408708189549
 20
2.885781044609317
 30
0.0
 40
0.15625
 41
0.0
 71
     1
 72
     1
  1
\A1;0.146 DIA. HOLE\P(2) PLACES
  7
TXT
 73
     1
 44
1.0
  0
DIMENSION
  5
CE0
330
1F
100
AcDbEntity
  8
DIM
100
AcDbDimension
  2
*D37
 10
14.92838269292175
 20
2.851392360007264
 30
0.0
 11
15.73588269292175
 21
2.851392360007264
 31
0.0
 70
    32
 71
     5
 42
1.615000000000001
  3
23NSTD
100
AcDbAlignedDimension
 13
16.54338269292175
 23
4.202169142269856
 33
0.0
 14
14.92838269292175
 24
3.263169142269856
 34
0.0
100
AcDbRotatedDimension
  0
DIMENSION
  5
CEE
330
1F
100
AcDbEntity
  8
DIM
100
AcDbDimension
  2
*D38
 10
18.15838269292175
 20
2.587745912764792
 30
0.0
 11
16.54338269292175
 21
2.587745912764792
 31
0.0
 70
    32
 71
     5
 42
3.230000000000003
  3
23NSTD
100
AcDbAlignedDimension
 13
14.92838269292175
 23
3.263169142269856
 33
0.0
 14
18.15838269292175
 24
3.263169142269856
 34
0.0
100
AcDbRotatedDimension
  0
DIMENSION
  5
CFC
330
1F
100
AcDbEntity
  8
DIM
100
AcDbDimension
  2
*D39
 10
14.30405645123431
 20
5.414169142269856
 30
0.0
 11
14.30405645123431
 21
4.853169142269859
 31
0.0
 70
    32
 71
     5
 42
1.121999999999999
  3
23NSTD
100
AcDbAlignedDimension
 13
16.45338269292175
 23
4.292169142269856
 33
0.0
 14
15.02138269292175
 24
5.414169142269856
 34
0.0
 50
90.0
100
AcDbRotatedDimension
  0
DIMENSION
  5
D5B
330
1F
100
AcDbEntity
  8
DIM
100
AcDbDimension
  2
*D40
 10
13.83448993363865
 20
3.170169142269857
 30
0.0
 11
13.83448993363865
 21
4.292169142269859
 31
0.0
 70
    32
 71
     5
 42
2.243999999999999
  3
23NSTD
100
AcDbAlignedDimension
 13
15.02138269292175
 23
5.414169142269856
 33
0.0
 14
15.02138269292175
 24
3.170169142269856
 34
0.0
 50
90.0
100
AcDbRotatedDimension
  0
DIMENSION
  5
D7E
330
1F
100
AcDbEntity
  8
DIM
100
AcDbDimension
  2
*D41
 10
8.405255298855429
 20
4.144418268406896
 30
0.0
 11
7.240382320167579
 21
3.835204695469466
 31
0.0
 70
    34
  1
<> TYP.
 71
     5
 42
0.0436332312998564
  3
23NSTD
100
AcDb2LineAngularDimension
 13
8.354999082226292
 23
5.295474871431872
 33
0.0
 14
8.354999082226292
 24
5.203474871431872
 34
0.0
 15
8.354999082226292
 25
5.295474871431872
 35
0.0
 16
8.39939964753419
 26
3.769526415667333
 36
0.0
  0
DIMENSION
  5
DBB
330
1F
100
AcDbEntity
  8
DIM
100
AcDbDimension
  2
*D42
 10
8.494858298806693
 20
8.258983669919906
 30
0.0
 11
9.969999082226291
 21
8.258983669919906
 31
0.0
 70
    32
  1
* <>
 71
     5
 42
2.950281566839194
  3
23NSTD
100
AcDbAlignedDimension
 13
11.44513986564588
 23
8.561621731301899
 33
0.0
 14
8.494858298806693
 24
8.561621731301899
 34
0.0
100
AcDbRotatedDimension
  0
DIMENSION
  5
DC9
330
1F
100
AcDbEntity
  8
DIM
100
AcDbDimension
  2
*D43
 10
9.213761517236525
 20
8.692762514721495
 30
0.0
 11
9.213761517236523
 21
7.710621731301899
 31
0.0
 70
    32
  1
* <>
 71
     5
 42
1.964281566839193
  3
23NSTD
100
AcDbAlignedDimension
 13
8.494858298806693
 23
6.728480947882301
 33
0.0
 14
8.494858298806693
 24
8.692762514721495
 34
0.0
 50
90.0
100
AcDbRotatedDimension
  0
TEXT
  5
E2B
330
1F
100
AcDbEntity
  8
TEXT
100
AcDbText
 10
7.90477672657596
 20
10.91324483544458
 30
0.0
 40
0.15625
  1
SUPPLIED FOR ASSEMBLING COVER TO BODY.
 41
0.75
  7
TXT
100
AcDbText
  0
TEXT
  5
E2C
330
1F
100
AcDbEntity
  8
TEXT
100
AcDbText
 10
7.7127894194304
 20
11.17366150211125
 30
0.0
 40
0.15625
  1
TWO (2) M2.2 x 0.8 x 10mm LG. SCREWS
 41
0.75
  7
TXT
100
AcDbText
  0
TEXT
  5
E2D
330
1F
100
AcDbEntity
  8
TEXT
100
AcDbText
 10
1.7850150073402
 20
10.91324483544458
 30
0.0
 40
0.15625
  1
(FLAMMABILITY RATING OF UL94-HB)
 41
0.75
  7
TXT
100
AcDbText
  0
TEXT
  5
E2E
330
1F
100
AcDbEntity
  8
TEXT
100
AcDbText
 10
0.7473826756854223
 20
10.13199483544458
 30
0.0
 40
0.15625
  1
ALL DIMENSIONS HAVE %%p0.015 TOLERANCE.
 41
0.75
  7
TXT
100
AcDbText
  0
TEXT
  5
E2F
330
1F
100
AcDbEntity
  8
TEXT
100
AcDbText
 10
0.7473826756854223
 20
10.65282816877791
 30
0.0
 40
0.15625
  1
FINISH: BLACK TEXTURED WITH SMOOTH INSERT AREA IN BODY
 41
0.75
  7
TXT
100
AcDbText
  0
TEXT
  5
E30
330
1F
100
AcDbEntity
  8
TEXT
100
AcDbText
 10
0.7473826756854223
 20
11.17366150211125
 30
0.0
 40
0.15625
  1
MATERIAL: HIGH-IMPACT ABS
 41
0.75
  7
TXT
100
AcDbText
  0
TEXT
  5
E31
330
1F
100
AcDbEntity
  8
TEXT
100
AcDbText
 10
3.039784018593532
 20
0.7645618061963932
 30
0.0
 40
0.195
  1
%%uCOVER
 41
0.75
  7
TXT
 72
     4
 11
3.407846518593531
 21
0.842561806196393
 31
0.0
100
AcDbText
  0
TEXT
  5
E32
330
1F
100
AcDbEntity
  8
TEXT
100
AcDbText
 10
9.699436582226292
 20
0.1829022735597541
 30
0.0
 40
0.195
  1
%%uBODY
 41
0.75
  7
TXT
 72
     4
 11
9.969999082226292
 21
0.2609022735597541
 31
0.0
100
AcDbText
  0
TEXT
  5
E9B
330
1F
100
AcDbEntity
  8
TEXT
100
AcDbText
 10
7.7127894194304
 20
10.39282816877791
 30
0.0
 40
0.15625
  1
TWO MOLDED-IN PROTRUDING WIRE/CABLE ENTRY POINTS.
 41
0.75
  7
TXT
100
AcDbText
  0
TEXT
  5
E9D
330
1F
100
AcDbEntity
  8
DIM
100
AcDbText
 10
7.7127894194304
 20
10.65282816877791
 30
0.0
 40
0.156
  1
 
 41
0.75
  7
TXT
100
AcDbText
  0
TEXT
  5
E9E
330
1F
100
AcDbEntity
  8
DIM
100
AcDbText
 10
7.7127894194304
 20
10.39282816877791
 30
0.0
 40
0.156
  1
 
 41
0.75
  7
TXT
100
AcDbText
  0
TEXT
  5
E9F
330
1F
100
AcDbEntity
  8
TEXT
100
AcDbText
 10
7.7127894194304
 20
9.872828168777919
 30
0.0
 40
0.15625
  1
* - THESE DIMENSIONS ARE AT THE BOTTOM OF THE BODY.
 41
0.75
  7
TXT
100
AcDbText
  0
TEXT
  5
EA1
330
1F
100
AcDbEntity
  8
TEXT
100
AcDbText
 10
15.61469519292175
 20
0.2932061556016195
 30
0.0
 40
0.195
  1
%%uASSEMBLED BOX
 41
0.75
  7
TXT
 72
     4
 11
16.54338269292175
 21
0.3712061556016195
 31
0.0
100
AcDbText
  0
ENDSEC
  0
SECTION
  2
OBJECTS
  0
DICTIONARY
  5
C
330
0
100
AcDbDictionary
281
     1
  3
ACAD_GROUP
350
D
  3
ACAD_LAYOUT
350
1A
  3
ACAD_MLINESTYLE
350
17
  3
ACAD_PLOTSETTINGS
350
19
  3
ACAD_PLOTSTYLENAME
350
E
  3
AcadDim
350
7B3
  0
DICTIONARY
  5
D
102
{ACAD_REACTORS
330
C
102
}
330
C
100
AcDbDictionary
281
     1
  0
DICTIONARY
  5
1A
102
{ACAD_REACTORS
330
C
102
}
330
C
100
AcDbDictionary
281
     1
  3
Layout1
350
1E
  3
Layout2
350
26
  3
Model
350
22
  0
DICTIONARY
  5
17
102
{ACAD_REACTORS
330
C
102
}
330
C
100
AcDbDictionary
281
     1
  3
Standard
350
18
  0
DICTIONARY
  5
19
102
{ACAD_REACTORS
330
C
102
}
330
C
100
AcDbDictionary
281
     1
  0
ACDBDICTIONARYWDFLT
  5
E
102
{ACAD_REACTORS
330
C
102
}
330
C
100
AcDbDictionary
281
     1
  3
Normal
350
F
100
AcDbDictionaryWithDefault
340
F
  0
XRECORD
  5
7B3
102
{ACAD_REACTORS
330
C
102
}
330
C
100
AcDbXrecord
280
     1
 90
   990106
  3

 60
     0
 61
     0
 62
     1
 63
     1
 64
     0
 65
     0
 66
     0
 67
     3
 68
     1
 69
     0
 70
     0
 71
     0
 72
     0
 40
0.0
170
     2
340
CCB
  0
LAYOUT
  5
1E
102
{ACAD_REACTORS
330
1A
102
}
330
1A
100
AcDbPlotSettings
  1

  2

  4

  6

 40
0.0
 41
0.0
 42
0.0
 43
0.0
 44
0.0
 45
0.0
 46
0.0
 47
0.0
 48
0.0
 49
0.0
140
0.0
141
0.0
142
1.0
143
1.0
 70
   688
 72
     0
 73
     0
 74
     5
  7
monochrome.ctb
 75
    16
147
1.0
148
0.0
149
0.0
100
AcDbLayout
  1
Layout1
 70
     1
 71
     1
 10
0.0
 20
0.0
 11
12.0
 21
9.0
 12
0.0
 22
0.0
 32
0.0
 14
1.000000000000000E+20
 24
1.000000000000000E+20
 34
1.000000000000000E+20
 15
-1.000000000000000E+20
 25
-1.000000000000000E+20
 35
-1.000000000000000E+20
146
0.0
 13
0.0
 23
0.0
 33
0.0
 16
1.0
 26
0.0
 36
0.0
 17
0.0
 27
1.0
 37
0.0
 76
     0
330
1B
  0
LAYOUT
  5
26
102
{ACAD_REACTORS
330
1A
102
}
330
1A
100
AcDbPlotSettings
  1

  2

  4

  6

 40
0.0
 41
0.0
 42
0.0
 43
0.0
 44
0.0
 45
0.0
 46
0.0
 47
0.0
 48
0.0
 49
0.0
140
0.0
141
0.0
142
1.0
143
1.0
 70
   688
 72
     0
 73
     0
 74
     5
  7
monochrome.ctb
 75
    16
147
1.0
148
0.0
149
0.0
100
AcDbLayout
  1
Layout2
 70
     1
 71
     2
 10
0.0
 20
0.0
 11
12.0
 21
9.0
 12
0.0
 22
0.0
 32
0.0
 14
0.0
 24
0.0
 34
0.0
 15
0.0
 25
0.0
 35
0.0
146
0.0
 13
0.0
 23
0.0
 33
0.0
 16
1.0
 26
0.0
 36
0.0
 17
0.0
 27
1.0
 37
0.0
 76
     0
330
23
  0
LAYOUT
  5
22
102
{ACAD_REACTORS
330
1A
102
}
330
1A
100
AcDbPlotSettings
  1

  2
Acrobat PDFWriter
  4
Tabloid
  6

 40
3.174999952316284
 41
3.174999952316284
 42
3.17498779296875
 43
3.17498779296875
 44
431.8000183105469
 45
279.3999938964843
 46
0.0
 47
12.7
 48
0.0
 49
0.0
140
0.0
141
0.0
142
1.0
143
1.238881491861327
 70
 11956
 72
     0
 73
     0
 74
     1
  7
monochrome.ctb
 75
     0
147
0.8071797073161327
148
0.0160830624354631
149
0.0093591797064853
100
AcDbLayout
  1
Model
 70
     1
 71
     0
 10
0.0
 20
0.0
 11
12.0
 21
9.0
 12
0.0
 22
0.0
 32
0.0
 14
0.0
 24
0.0
 34
0.0
 15
0.0
 25
0.0
 35
0.0
146
0.0
 13
0.0
 23
0.0
 33
0.0
 16
1.0
 26
0.0
 36
0.0
 17
0.0
 27
1.0
 37
0.0
 76
     0
330
1F
  0
MLINESTYLE
  5
18
102
{ACAD_REACTORS
330
17
102
}
330
17
100
AcDbMlineStyle
  2
STANDARD
 70
     0
  3

 62
   256
 51
90.0
 52
90.0
 71
     2
 49
0.5
 62
   256
  6
BYLAYER
 49
-0.5
 62
   256
  6
BYLAYER
  0
ACDBPLACEHOLDER
  5
F
102
{ACAD_REACTORS
330
E
102
}
330
E
  0
ENDSEC
  0
EOF
