  0
SECTION
  2
HEADER
  9
$ACADVER
  1
AC1015
  9
$ACADMAINTVER
 70
     6
  9
$DWGCODEPAGE
  3
ANSI_1252
  9
$INSBASE
 10
0.0
 20
0.0
 30
0.0
  9
$EXTMIN
 10
0.0
 20
0.0
 30
0.0
  9
$EXTMAX
 10
16.6
 20
9.659999999999996
 30
0.0
  9
$LIMMIN
 10
0.0
 20
0.0
  9
$LIMMAX
 10
16.6
 20
9.659999999999996
  9
$ORTHOMODE
 70
     1
  9
$REGENMODE
 70
     1
  9
$FILLMODE
 70
     1
  9
$QTEXTMODE
 70
     0
  9
$MIRRTEXT
 70
     0
  9
$LTSCALE
 40
0.5
  9
$ATTMODE
 70
     1
  9
$TEXTSIZE
 40
0.125
  9
$TRACEWID
 40
0.05
  9
$TEXTSTYLE
  7
TXT
  9
$CLAYER
  8
DIM
  9
$CELTYPE
  6
ByLayer
  9
$CECOLOR
 62
   256
  9
$CELTSCALE
 40
1.0
  9
$DISPSILH
 70
     0
  9
$DIMSCALE
 40
1.0
  9
$DIMASZ
 40
0.18
  9
$DIMEXO
 40
0.063
  9
$DIMDLI
 40
0.281
  9
$DIMRND
 40
0.0
  9
$DIMDLE
 40
0.0
  9
$DIMEXE
 40
0.093
  9
$DIMTP
 40
0.0
  9
$DIMTM
 40
0.0
  9
$DIMTXT
 40
0.125
  9
$DIMCEN
 40
0.09
  9
$DIMTSZ
 40
0.0
  9
$DIMTOL
 70
     0
  9
$DIMLIM
 70
     0
  9
$DIMTIH
 70
     1
  9
$DIMTOH
 70
     1
  9
$DIMSE1
 70
     0
  9
$DIMSE2
 70
     0
  9
$DIMTAD
 70
     0
  9
$DIMZIN
 70
     0
  9
$DIMBLK
  1

  9
$DIMASO
 70
     1
  9
$DIMSHO
 70
     1
  9
$DIMPOST
  1

  9
$DIMAPOST
  1

  9
$DIMALT
 70
     0
  9
$DIMALTD
 70
     2
  9
$DIMALTF
 40
25.4
  9
$DIMLFAC
 40
1.0
  9
$DIMTOFL
 70
     0
  9
$DIMTVP
 40
0.0
  9
$DIMTIX
 70
     0
  9
$DIMSOXD
 70
     0
  9
$DIMSAH
 70
     0
  9
$DIMBLK1
  1

  9
$DIMBLK2
  1

  9
$DIMSTYLE
  2
23NSTD
  9
$DIMCLRD
 70
     0
  9
$DIMCLRE
 70
     0
  9
$DIMCLRT
 70
     0
  9
$DIMTFAC
 40
1.0
  9
$DIMGAP
 40
0.09
  9
$DIMJUST
 70
     0
  9
$DIMSD1
 70
     0
  9
$DIMSD2
 70
     0
  9
$DIMTOLJ
 70
     1
  9
$DIMTZIN
 70
     0
  9
$DIMALTZ
 70
     0
  9
$DIMALTTZ
 70
     0
  9
$DIMUPT
 70
     0
  9
$DIMDEC
 70
     3
  9
$DIMTDEC
 70
     3
  9
$DIMALTU
 70
     2
  9
$DIMALTTD
 70
     2
  9
$DIMTXSTY
  7
TXT
  9
$DIMAUNIT
 70
     0
  9
$DIMADEC
 70
     0
  9
$DIMALTRND
 40
0.0
  9
$DIMAZIN
 70
     0
  9
$DIMDSEP
 70
    46
  9
$DIMATFIT
 70
     1
  9
$DIMFRAC
 70
     0
  9
$DIMLDRBLK
  1

  9
$DIMLUNIT
 70
     2
  9
$DIMLWD
 70
    -2
  9
$DIMLWE
 70
    -2
  9
$DIMTMOVE
 70
     0
  9
$LUNITS
 70
     2
  9
$LUPREC
 70
     3
  9
$SKETCHINC
 40
0.1
  9
$FILLETRAD
 40
0.0
  9
$AUNITS
 70
     0
  9
$AUPREC
 70
     0
  9
$MENU
  1
.
  9
$ELEVATION
 40
0.0
  9
$PELEVATION
 40
0.0
  9
$THICKNESS
 40
0.0
  9
$LIMCHECK
 70
     0
  9
$CHAMFERA
 40
0.5
  9
$CHAMFERB
 40
0.5
  9
$CHAMFERC
 40
1.0
  9
$CHAMFERD
 40
0.0
  9
$SKPOLY
 70
     0
  9
$TDCREATE
 40
2452723.661022674
  9
$TDUCREATE
 40
2452723.827689340
  9
$TDUPDATE
 40
2452901.319173171
  9
$TDUUPDATE
 40
2452901.485839838
  9
$TDINDWG
 40
0.2499631134
  9
$TDUSRTIMER
 40
0.2499631134
  9
$USRTIMER
 70
     1
  9
$ANGBASE
 50
0.0
  9
$ANGDIR
 70
     0
  9
$PDMODE
 70
     0
  9
$PDSIZE
 40
0.0
  9
$PLINEWID
 40
0.0
  9
$SPLFRAME
 70
     0
  9
$SPLINETYPE
 70
     6
  9
$SPLINESEGS
 70
     8
  9
$HANDSEED
  5
90F
  9
$SURFTAB1
 70
     6
  9
$SURFTAB2
 70
     6
  9
$SURFTYPE
 70
     6
  9
$SURFU
 70
     6
  9
$SURFV
 70
     6
  9
$UCSBASE
  2

  9
$UCSNAME
  2

  9
$UCSORG
 10
0.0
 20
0.0
 30
0.0
  9
$UCSXDIR
 10
1.0
 20
0.0
 30
0.0
  9
$UCSYDIR
 10
0.0
 20
1.0
 30
0.0
  9
$UCSORTHOREF
  2

  9
$UCSORTHOVIEW
 70
     0
  9
$UCSORGTOP
 10
0.0
 20
0.0
 30
0.0
  9
$UCSORGBOTTOM
 10
0.0
 20
0.0
 30
0.0
  9
$UCSORGLEFT
 10
0.0
 20
0.0
 30
0.0
  9
$UCSORGRIGHT
 10
0.0
 20
0.0
 30
0.0
  9
$UCSORGFRONT
 10
0.0
 20
0.0
 30
0.0
  9
$UCSORGBACK
 10
0.0
 20
0.0
 30
0.0
  9
$PUCSBASE
  2

  9
$PUCSNAME
  2

  9
$PUCSORG
 10
0.0
 20
0.0
 30
0.0
  9
$PUCSXDIR
 10
1.0
 20
0.0
 30
0.0
  9
$PUCSYDIR
 10
0.0
 20
1.0
 30
0.0
  9
$PUCSORTHOREF
  2

  9
$PUCSORTHOVIEW
 70
     0
  9
$PUCSORGTOP
 10
0.0
 20
0.0
 30
0.0
  9
$PUCSORGBOTTOM
 10
0.0
 20
0.0
 30
0.0
  9
$PUCSORGLEFT
 10
0.0
 20
0.0
 30
0.0
  9
$PUCSORGRIGHT
 10
0.0
 20
0.0
 30
0.0
  9
$PUCSORGFRONT
 10
0.0
 20
0.0
 30
0.0
  9
$PUCSORGBACK
 10
0.0
 20
0.0
 30
0.0
  9
$USERI1
 70
     0
  9
$USERI2
 70
     0
  9
$USERI3
 70
     0
  9
$USERI4
 70
     0
  9
$USERI5
 70
     0
  9
$USERR1
 40
0.0
  9
$USERR2
 40
0.0
  9
$USERR3
 40
0.0
  9
$USERR4
 40
0.0
  9
$USERR5
 40
0.0
  9
$WORLDVIEW
 70
     1
  9
$SHADEDGE
 70
     3
  9
$SHADEDIF
 70
    70
  9
$TILEMODE
 70
     1
  9
$MAXACTVP
 70
    64
  9
$PINSBASE
 10
0.0
 20
0.0
 30
0.0
  9
$PLIMCHECK
 70
     0
  9
$PEXTMIN
 10
1.000000000000000E+20
 20
1.000000000000000E+20
 30
1.000000000000000E+20
  9
$PEXTMAX
 10
-1.000000000000000E+20
 20
-1.000000000000000E+20
 30
-1.000000000000000E+20
  9
$PLIMMIN
 10
0.0
 20
0.0
  9
$PLIMMAX
 10
12.0
 20
9.0
  9
$UNITMODE
 70
     0
  9
$VISRETAIN
 70
     1
  9
$PLINEGEN
 70
     0
  9
$PSLTSCALE
 70
     1
  9
$TREEDEPTH
 70
  3020
  9
$CMLSTYLE
  2
Standard
  9
$CMLJUST
 70
     0
  9
$CMLSCALE
 40
1.0
  9
$PROXYGRAPHICS
 70
     1
  9
$MEASUREMENT
 70
     0
  9
$CELWEIGHT
370
    -1
  9
$ENDCAPS
280
     0
  9
$JOINSTYLE
280
     0
  9
$LWDISPLAY
290
     0
  9
$INSUNITS
 70
     1
  9
$HYPERLINKBASE
  1

  9
$STYLESHEET
  1
monochrome.ctb
  9
$XEDIT
290
     1
  9
$CEPSNTYPE
380
     0
  9
$PSTYLEMODE
290
     1
  9
$FINGERPRINTGUID
  2
{FDEAD576-A652-11D2-9A35-0060089B3A3F}
  9
$VERSIONGUID
  2
{C3DF1E35-E9CB-11D7-8525-00C04F604D21}
  9
$EXTNAMES
290
     1
  9
$PSVPSCALE
 40
0.0
  9
$OLESTARTUP
290
     0
  0
ENDSEC
  0
SECTION
  2
CLASSES
  0
CLASS
  1
ACDBDICTIONARYWDFLT
  2
AcDbDictionaryWithDefault
  3
AutoCAD 2000
 90
        0
280
     0
281
     0
  0
CLASS
  1
ACDBPLACEHOLDER
  2
AcDbPlaceHolder
  3
AutoCAD 2000
 90
        0
280
     0
281
     0
  0
CLASS
  1
LAYOUT
  2
AcDbLayout
  3
AutoCAD 2000
 90
        0
280
     0
281
     0
  0
ENDSEC
  0
SECTION
  2
TABLES
  0
TABLE
  2
VPORT
  5
8
330
0
100
AcDbSymbolTable
 70
     3
  0
VPORT
  5
90E
330
8
100
AcDbSymbolTableRecord
100
AcDbViewportTableRecord
  2
*Active
 70
     0
 10
0.0
 20
0.0
 11
1.0
 21
1.0
 12
8.30026248178941
 22
4.854880989829491
 13
0.0
 23
0.0
 14
0.5
 24
0.5
 15
0.5
 25
0.5
 16
0.0
 26
0.0
 36
1.0
 17
0.0
 27
0.0
 37
0.0
 40
9.823740792123279
 41
1.870841487279843
 42
50.0
 43
0.0
 44
0.0
 50
0.0
 51
0.0
 71
     0
 72
   100
 73
     1
 74
     2
 75
     0
 76
     0
 77
     0
 78
     0
281
     0
 65
     1
110
0.0
120
0.0
130
0.0
111
1.0
121
0.0
131
0.0
112
0.0
122
1.0
132
0.0
 79
     0
146
0.0
  0
ENDTAB
  0
TABLE
  2
LTYPE
  5
5
330
0
100
AcDbSymbolTable
 70
     6
  0
LTYPE
  5
14
330
5
100
AcDbSymbolTableRecord
100
AcDbLinetypeTableRecord
  2
ByBlock
 70
     0
  3

 72
    65
 73
     0
 40
0.0
  0
LTYPE
  5
15
330
5
100
AcDbSymbolTableRecord
100
AcDbLinetypeTableRecord
  2
ByLayer
 70
     0
  3

 72
    65
 73
     0
 40
0.0
  0
LTYPE
  5
16
330
5
100
AcDbSymbolTableRecord
100
AcDbLinetypeTableRecord
  2
Continuous
 70
     0
  3
Solid line
 72
    65
 73
     0
 40
0.0
  0
LTYPE
  5
48
330
5
100
AcDbSymbolTableRecord
100
AcDbLinetypeTableRecord
  2
HIDDEN
 70
     0
  3
_ _ _ _ _ _ _ _ _ _ _ _ _ _ _ _ _ _ _ _ _ _ _
 72
    65
 73
     2
 40
0.375
 49
0.25
 74
     0
 49
-0.125
 74
     0
  0
LTYPE
  5
49
330
5
100
AcDbSymbolTableRecord
100
AcDbLinetypeTableRecord
  2
PHANTOM
 70
     0
  3
_____ _ _ _____ _ _ _____ _ _ _____ _ _ ____
 72
    65
 73
     6
 40
2.5
 49
1.25
 74
     0
 49
-0.25
 74
     0
 49
0.25
 74
     0
 49
-0.25
 74
     0
 49
0.25
 74
     0
 49
-0.25
 74
     0
  0
LTYPE
  5
4A
330
5
100
AcDbSymbolTableRecord
100
AcDbLinetypeTableRecord
  2
CENTER
 70
     0
  3
____ _ ____ _ ____ _ ____ _ ____ _ ____ _ ____
 72
    65
 73
     4
 40
2.0
 49
1.25
 74
     0
 49
-0.25
 74
     0
 49
0.25
 74
     0
 49
-0.25
 74
     0
  0
LTYPE
  5
4B
330
5
100
AcDbSymbolTableRecord
100
AcDbLinetypeTableRecord
  2
HIDDEN2
 70
     0
  3
_ _ _ _ _ _ _ _ _ _ _ _ _ _ _ _ _ _ _ _ _ _ _ _
 72
    65
 73
     2
 40
0.1875
 49
0.125
 74
     0
 49
-0.0625
 74
     0
  0
LTYPE
  5
4C
330
5
100
AcDbSymbolTableRecord
100
AcDbLinetypeTableRecord
  2
PHANTOM2
 70
     0
  3
___ _ _ ___ _ _ ___ _ _ ___ _ _ ___ _ _ ___ _ _
 72
    65
 73
     6
 40
1.25
 49
0.625
 74
     0
 49
-0.125
 74
     0
 49
0.125
 74
     0
 49
-0.125
 74
     0
 49
0.125
 74
     0
 49
-0.125
 74
     0
  0
ENDTAB
  0
TABLE
  2
LAYER
  5
2
330
0
100
AcDbSymbolTable
 70
     9
  0
LAYER
  5
10
330
2
100
AcDbSymbolTableRecord
100
AcDbLayerTableRecord
  2
0
 70
     0
 62
     7
  6
Continuous
370
    -3
390
F
  0
LAYER
  5
4D
330
2
100
AcDbSymbolTableRecord
100
AcDbLayerTableRecord
  2
OBJECT
 70
     0
 62
     7
  6
Continuous
370
    -3
390
F
  0
LAYER
  5
4E
330
2
100
AcDbSymbolTableRecord
100
AcDbLayerTableRecord
  2
DIM
 70
     0
 62
     7
  6
Continuous
370
    -3
390
F
  0
LAYER
  5
4F
330
2
100
AcDbSymbolTableRecord
100
AcDbLayerTableRecord
  2
HIDDEN
 70
     0
 62
     7
  6
HIDDEN
370
    -3
390
F
  0
LAYER
  5
50
330
2
100
AcDbSymbolTableRecord
100
AcDbLayerTableRecord
  2
BEND
 70
     0
 62
     7
  6
PHANTOM
370
    -3
390
F
  0
LAYER
  5
51
330
2
100
AcDbSymbolTableRecord
100
AcDbLayerTableRecord
  2
TEXT
 70
     0
 62
     7
  6
Continuous
370
    -3
390
F
  0
LAYER
  5
52
330
2
100
AcDbSymbolTableRecord
100
AcDbLayerTableRecord
  2
TITLE
 70
     0
 62
     7
  6
Continuous
370
    -3
390
F
  0
LAYER
  5
53
330
2
100
AcDbSymbolTableRecord
100
AcDbLayerTableRecord
  2
CENTER
 70
     0
 62
     7
  6
CENTER
370
    -3
390
F
  0
LAYER
  5
E2
330
2
100
AcDbSymbolTableRecord
100
AcDbLayerTableRecord
  2
Defpoints
 70
     0
 62
     7
  6
Continuous
290
     0
370
    -3
390
F
  0
ENDTAB
  0
TABLE
  2
STYLE
  5
3
330
0
100
AcDbSymbolTable
 70
     2
  0
STYLE
  5
11
330
3
100
AcDbSymbolTableRecord
100
AcDbTextStyleTableRecord
  2
Standard
 70
     0
 40
0.0
 41
1.0
 50
0.0
 71
     0
 42
0.2
  3
txt
  4

  0
STYLE
  5
54
330
3
100
AcDbSymbolTableRecord
100
AcDbTextStyleTableRecord
  2
TXT
 70
     0
 40
0.0
 41
0.75
 50
0.0
 71
     0
 42
0.125
  3
TXT.shx
  4

  0
ENDTAB
  0
TABLE
  2
VIEW
  5
6
330
0
100
AcDbSymbolTable
 70
     0
  0
ENDTAB
  0
TABLE
  2
UCS
  5
7
330
0
100
AcDbSymbolTable
 70
     0
  0
ENDTAB
  0
TABLE
  2
APPID
  5
9
330
0
100
AcDbSymbolTable
 70
     1
  0
APPID
  5
12
330
9
100
AcDbSymbolTableRecord
100
AcDbRegAppTableRecord
  2
ACAD
 70
     0
  0
ENDTAB
  0
TABLE
  2
DIMSTYLE
  5
A
330
0
100
AcDbSymbolTable
 70
     2
100
AcDbDimStyleTable
 71
     2
340
55
340
56
  0
DIMSTYLE
105
55
102
{ACAD_REACTORS
330
2D1
330
2E9
330
2F7
330
31A
330
328
330
336
330
350
330
35E
330
38A
330
39B
330
3AA
330
42B
330
439
330
447
330
455
330
4AC
330
5C4
330
5D2
330
5E1
330
604
330
61C
330
634
330
64D
330
795
102
}
330
A
100
AcDbSymbolTableRecord
100
AcDbDimStyleTableRecord
  2
23NSTD
 70
     0
 42
0.063
 43
0.281
 44
0.093
140
0.125
271
     3
272
     3
289
     1
340
54
  0
DIMSTYLE
105
56
330
A
100
AcDbSymbolTableRecord
100
AcDbDimStyleTableRecord
  2
23NSTDI
 70
     0
 42
0.063
 43
0.281
 44
0.093
140
0.125
174
     1
271
     3
272
     3
289
     0
340
54
  0
ENDTAB
  0
TABLE
  2
BLOCK_RECORD
  5
1
330
0
100
AcDbSymbolTable
 70
    27
  0
BLOCK_RECORD
  5
1F
330
1
100
AcDbSymbolTableRecord
100
AcDbBlockTableRecord
  2
*Model_Space
340
22
  0
BLOCK_RECORD
  5
1B
330
1
100
AcDbSymbolTableRecord
100
AcDbBlockTableRecord
  2
*Paper_Space
340
1E
  0
BLOCK_RECORD
  5
23
330
1
100
AcDbSymbolTableRecord
100
AcDbBlockTableRecord
  2
*Paper_Space0
340
26
  0
BLOCK_RECORD
  5
28B
330
1
100
AcDbSymbolTableRecord
100
AcDbBlockTableRecord
  2
Hbs
340
0
102
{BLKREFS
331
2A4
102
}
  0
BLOCK_RECORD
  5
2D2
330
1
100
AcDbSymbolTableRecord
100
AcDbBlockTableRecord
  2
*D2
340
0
  0
BLOCK_RECORD
  5
2EA
330
1
100
AcDbSymbolTableRecord
100
AcDbBlockTableRecord
  2
*D3
340
0
  0
BLOCK_RECORD
  5
2F8
330
1
100
AcDbSymbolTableRecord
100
AcDbBlockTableRecord
  2
*D4
340
0
  0
BLOCK_RECORD
  5
31B
330
1
100
AcDbSymbolTableRecord
100
AcDbBlockTableRecord
  2
*D5
340
0
  0
BLOCK_RECORD
  5
329
330
1
100
AcDbSymbolTableRecord
100
AcDbBlockTableRecord
  2
*D6
340
0
  0
BLOCK_RECORD
  5
337
330
1
100
AcDbSymbolTableRecord
100
AcDbBlockTableRecord
  2
*D7
340
0
  0
BLOCK_RECORD
  5
351
330
1
100
AcDbSymbolTableRecord
100
AcDbBlockTableRecord
  2
*D8
340
0
  0
BLOCK_RECORD
  5
35F
330
1
100
AcDbSymbolTableRecord
100
AcDbBlockTableRecord
  2
*D9
340
0
  0
BLOCK_RECORD
  5
38B
330
1
100
AcDbSymbolTableRecord
100
AcDbBlockTableRecord
  2
*D10
340
0
  0
BLOCK_RECORD
  5
39C
330
1
100
AcDbSymbolTableRecord
100
AcDbBlockTableRecord
  2
*D11
340
0
  0
BLOCK_RECORD
  5
3AB
330
1
100
AcDbSymbolTableRecord
100
AcDbBlockTableRecord
  2
*D12
340
0
  0
BLOCK_RECORD
  5
42C
330
1
100
AcDbSymbolTableRecord
100
AcDbBlockTableRecord
  2
*D13
340
0
  0
BLOCK_RECORD
  5
43A
330
1
100
AcDbSymbolTableRecord
100
AcDbBlockTableRecord
  2
*D14
340
0
  0
BLOCK_RECORD
  5
448
330
1
100
AcDbSymbolTableRecord
100
AcDbBlockTableRecord
  2
*D15
340
0
  0
BLOCK_RECORD
  5
456
330
1
100
AcDbSymbolTableRecord
100
AcDbBlockTableRecord
  2
*D16
340
0
  0
BLOCK_RECORD
  5
4AD
330
1
100
AcDbSymbolTableRecord
100
AcDbBlockTableRecord
  2
*D17
340
0
  0
BLOCK_RECORD
  5
4BC
330
1
100
AcDbSymbolTableRecord
100
AcDbBlockTableRecord
  2
*D18
340
0
  0
BLOCK_RECORD
  5
5C5
330
1
100
AcDbSymbolTableRecord
100
AcDbBlockTableRecord
  2
*D19
340
0
  0
BLOCK_RECORD
  5
5D3
330
1
100
AcDbSymbolTableRecord
100
AcDbBlockTableRecord
  2
*D20
340
0
  0
BLOCK_RECORD
  5
5E2
330
1
100
AcDbSymbolTableRecord
100
AcDbBlockTableRecord
  2
*D21
340
0
  0
BLOCK_RECORD
  5
605
330
1
100
AcDbSymbolTableRecord
100
AcDbBlockTableRecord
  2
*D22
340
0
  0
BLOCK_RECORD
  5
61D
330
1
100
AcDbSymbolTableRecord
100
AcDbBlockTableRecord
  2
*D23
340
0
  0
BLOCK_RECORD
  5
635
330
1
100
AcDbSymbolTableRecord
100
AcDbBlockTableRecord
  2
*D24
340
0
  0
BLOCK_RECORD
  5
64E
330
1
100
AcDbSymbolTableRecord
100
AcDbBlockTableRecord
  2
*D25
340
0
  0
BLOCK_RECORD
  5
796
330
1
100
AcDbSymbolTableRecord
100
AcDbBlockTableRecord
  2
*D26
340
0
  0
ENDTAB
  0
ENDSEC
  0
SECTION
  2
BLOCKS
  0
BLOCK
  5
20
330
1F
100
AcDbEntity
  8
0
100
AcDbBlockBegin
  2
*Model_Space
 70
     0
 10
0.0
 20
0.0
 30
0.0
  3
*Model_Space
  1

  0
ENDBLK
  5
21
330
1F
100
AcDbEntity
  8
0
100
AcDbBlockEnd
  0
BLOCK
  5
1C
330
1B
100
AcDbEntity
 67
     1
  8
0
100
AcDbBlockBegin
  2
*Paper_Space
 70
     0
 10
0.0
 20
0.0
 30
0.0
  3
*Paper_Space
  1

  0
ENDBLK
  5
1D
330
1B
100
AcDbEntity
 67
     1
  8
0
100
AcDbBlockEnd
  0
BLOCK
  5
24
330
23
100
AcDbEntity
  8
0
100
AcDbBlockBegin
  2
*Paper_Space0
 70
     0
 10
0.0
 20
0.0
 30
0.0
  3
*Paper_Space0
  1

  0
ENDBLK
  5
25
330
23
100
AcDbEntity
  8
0
100
AcDbBlockEnd
  0
BLOCK
  5
2A2
330
28B
100
AcDbEntity
  8
0
100
AcDbBlockBegin
  2
Hbs
 70
     0
 10
0.0
 20
0.0
 30
0.0
  3
Hbs
  1

  0
LINE
  5
28C
330
28B
100
AcDbEntity
  8
TITLE
100
AcDbLine
 10
0.0619999999999976
 20
9.179999999999999
 30
0.0
 11
16.53799999999999
 21
9.180000000000003
 31
0.0
  0
TEXT
  5
28D
330
28B
100
AcDbEntity
  8
TEXT
100
AcDbText
 10
0.2078333333333345
 20
9.220079195640078
 30
0.0
 40
0.125
  1
NAME
  7
TXT
 72
     1
 11
0.4370000000000012
 21
9.220079195640078
 31
0.0
100
AcDbText
  0
TEXT
  5
28E
330
28B
100
AcDbEntity
  8
TEXT
100
AcDbText
 10
0.2078333333333345
 20
9.42841252897341
 30
0.0
 40
0.125
  1
PART
  7
TXT
 72
     1
 11
0.4370000000000012
 21
9.42841252897341
 31
0.0
100
AcDbText
  0
LINE
  5
28F
330
28B
100
AcDbEntity
  8
TITLE
100
AcDbLine
 10
0.8120000000000011
 20
9.179999999999999
 30
0.0
 11
0.8119999999999976
 21
9.597999999999998
 31
0.0
  0
TEXT
  5
290
330
28B
100
AcDbEntity
  8
TEXT
100
AcDbText
 10
7.207833333333332
 20
9.42841252897341
 30
0.0
 40
0.125
  1
PART
  7
TXT
 72
     1
 11
7.436999999999999
 21
9.42841252897341
 31
0.0
100
AcDbText
  0
TEXT
  5
291
330
28B
100
AcDbEntity
  8
TEXT
100
AcDbText
 10
7.311999999999999
 20
9.220079195640078
 30
0.0
 40
0.125
  1
No.
  7
TXT
 72
     1
 11
7.436999999999999
 21
9.220079195640078
 31
0.0
100
AcDbText
  0
LINE
  5
292
330
28B
100
AcDbEntity
  8
TITLE
100
AcDbLine
 10
7.061999999999999
 20
9.597999999999998
 30
0.0
 11
7.061999999999999
 21
9.179999999999999
 31
0.0
  0
LINE
  5
293
330
28B
100
AcDbEntity
  8
TITLE
100
AcDbLine
 10
7.000000000000001
 20
9.597999999999998
 30
0.0
 11
7.000000000000001
 21
9.179999999999999
 31
0.0
  0
LINE
  5
294
330
28B
100
AcDbEntity
  8
TITLE
100
AcDbLine
 10
7.811999999999999
 20
9.597999999999998
 30
0.0
 11
7.811999999999999
 21
9.179999999999999
 31
0.0
  0
LINE
  5
295
330
28B
100
AcDbEntity
  8
TITLE
100
AcDbLine
 10
16.6
 20
9.659999999999996
 30
0.0
 11
16.59999999999999
 21
0.0
 31
0.0
  0
LINE
  5
296
330
28B
100
AcDbEntity
  8
TITLE
100
AcDbLine
 10
16.59999999999999
 20
0.0
 30
0.0
 11
0.0
 21
0.0
 31
0.0
  0
LINE
  5
297
330
28B
100
AcDbEntity
  8
TITLE
100
AcDbLine
 10
0.0
 20
0.0
 30
0.0
 11
0.0
 21
9.659999999999996
 31
0.0
  0
LINE
  5
298
330
28B
100
AcDbEntity
  8
TITLE
100
AcDbLine
 10
0.0
 20
9.659999999999996
 30
0.0
 11
16.6
 21
9.659999999999996
 31
0.0
  0
LINE
  5
299
330
28B
100
AcDbEntity
  8
TITLE
100
AcDbLine
 10
16.53799999999999
 20
9.598000000000006
 30
0.0
 11
16.53799999999999
 21
0.0620000000000012
 31
0.0
  0
LINE
  5
29A
330
28B
100
AcDbEntity
  8
TITLE
100
AcDbLine
 10
16.53799999999999
 20
0.0620000000000012
 30
0.0
 11
0.0620000000000012
 21
0.0620000000000012
 31
0.0
  0
LINE
  5
29B
330
28B
100
AcDbEntity
  8
TITLE
100
AcDbLine
 10
0.0620000000000012
 20
0.0620000000000012
 30
0.0
 11
0.0620000000000012
 21
9.597999999999998
 31
0.0
  0
LINE
  5
29C
330
28B
100
AcDbEntity
  8
TITLE
100
AcDbLine
 10
0.0620000000000012
 20
9.597999999999998
 30
0.0
 11
16.53799999999999
 21
9.598000000000006
 31
0.0
  0
LINE
  5
29D
330
28B
100
AcDbEntity
  8
TITLE
100
AcDbLine
 10
13.99999113305
 20
9.597999999999998
 30
0.0
 11
13.99999113305
 21
9.179999999999999
 31
0.0
  0
LINE
  5
29E
330
28B
100
AcDbEntity
  8
TITLE
100
AcDbLine
 10
14.81199113305
 20
9.597999999999998
 30
0.0
 11
14.81199113305
 21
9.179999999999999
 31
0.0
  0
LINE
  5
29F
330
28B
100
AcDbEntity
  8
TITLE
100
AcDbLine
 10
14.06199113305
 20
9.597999999999998
 30
0.0
 11
14.06199113305
 21
9.179999999999999
 31
0.0
  0
TEXT
  5
2A0
330
28B
100
AcDbEntity
  8
TEXT
100
AcDbText
 10
14.20782446638333
 20
9.220079195640078
 30
0.0
 40
0.125
  1
DATE
  7
TXT
 72
     1
 11
14.43699113305
 21
9.220079195640078
 31
0.0
100
AcDbText
  0
TEXT
  5
2A1
330
28B
100
AcDbEntity
  8
TEXT
100
AcDbText
 10
14.22865779971667
 20
9.42841252897341
 30
0.0
 40
0.125
  1
REV.
  7
TXT
 72
     1
 11
14.43699113305
 21
9.42841252897341
 31
0.0
100
AcDbText
  0
ENDBLK
  5
2A3
330
28B
100
AcDbEntity
  8
0
100
AcDbBlockEnd
  0
BLOCK
  5
2DD
330
2D2
100
AcDbEntity
  8
0
100
AcDbBlockBegin
  2
*D2
 70
     1
 10
0.0
 20
0.0
 30
0.0
  3
*D2
  1

  0
LINE
  5
8BD
330
2D2
100
AcDbEntity
  8
DIM
 62
     0
370
    -2
100
AcDbLine
 10
8.49352065833931
 20
6.196361066451925
 30
0.0
 11
8.49352065833931
 21
6.566750628330208
 31
0.0
  0
LINE
  5
8BE
330
2D2
100
AcDbEntity
  8
DIM
 62
     0
370
    -2
100
AcDbLine
 10
11.77152065833931
 20
6.170361066451925
 30
0.0
 11
11.77152065833931
 21
6.566750628330208
 31
0.0
  0
LINE
  5
8BF
330
2D2
100
AcDbEntity
  8
DIM
 62
     0
370
    -2
100
AcDbLine
 10
8.67352065833931
 20
6.473750628330208
 30
0.0
 11
9.855020658339309
 21
6.473750628330208
 31
0.0
  0
LINE
  5
8C0
330
2D2
100
AcDbEntity
  8
DIM
 62
     0
370
    -2
100
AcDbLine
 10
11.59152065833931
 20
6.473750628330208
 30
0.0
 11
10.4100206583393
 21
6.473750628330208
 31
0.0
  0
SOLID
  5
8C1
330
2D2
100
AcDbEntity
  8
DIM
 62
     0
100
AcDbTrace
 10
8.67352065833931
 20
6.503750628330208
 30
0.0
 11
8.67352065833931
 21
6.443750628330207
 31
0.0
 12
8.49352065833931
 22
6.473750628330208
 32
0.0
 13
8.49352065833931
 23
6.473750628330208
 33
0.0
  0
SOLID
  5
8C2
330
2D2
100
AcDbEntity
  8
DIM
 62
     0
100
AcDbTrace
 10
11.59152065833931
 20
6.503750628330208
 30
0.0
 11
11.59152065833931
 21
6.443750628330207
 31
0.0
 12
11.77152065833931
 22
6.473750628330208
 32
0.0
 13
11.77152065833931
 23
6.473750628330208
 33
0.0
  0
MTEXT
  5
8C3
330
2D2
100
AcDbEntity
  8
DIM
 62
     0
100
AcDbMText
 10
10.13252065833931
 20
6.473750628330208
 30
0.0
 40
0.125
 41
0.0
 71
     5
 72
     1
  1
\A1;3.278
  7
TXT
 73
     1
 44
1.0
  0
POINT
  5
8C4
330
2D2
100
AcDbEntity
  8
Defpoints
 62
     0
100
AcDbPoint
 10
8.49352065833931
 20
6.133361066451925
 30
0.0
  0
POINT
  5
8C5
330
2D2
100
AcDbEntity
  8
Defpoints
 62
     0
100
AcDbPoint
 10
11.77152065833931
 20
6.107361066451925
 30
0.0
  0
POINT
  5
8C6
330
2D2
100
AcDbEntity
  8
Defpoints
 62
     0
100
AcDbPoint
 10
11.77152065833931
 20
6.473750628330208
 30
0.0
  0
ENDBLK
  5
2DE
330
2D2
100
AcDbEntity
  8
0
100
AcDbBlockEnd
  0
BLOCK
  5
2F5
330
2EA
100
AcDbEntity
  8
0
100
AcDbBlockBegin
  2
*D3
 70
     1
 10
0.0
 20
0.0
 30
0.0
  3
*D3
  1

  0
LINE
  5
8C7
330
2EA
100
AcDbEntity
  8
DIM
 62
     0
370
    -2
100
AcDbLine
 10
8.39452065833931
 20
6.202361066451924
 30
0.0
 11
8.39452065833931
 21
6.868836086887949
 31
0.0
  0
LINE
  5
8C8
330
2EA
100
AcDbEntity
  8
DIM
 62
     0
370
    -2
100
AcDbLine
 10
11.87052065833931
 20
6.202361066451925
 30
0.0
 11
11.87052065833931
 21
6.868836086887949
 31
0.0
  0
LINE
  5
8C9
330
2EA
100
AcDbEntity
  8
DIM
 62
     0
370
    -2
100
AcDbLine
 10
8.574520658339309
 20
6.775836086887949
 30
0.0
 11
9.855020658339309
 21
6.775836086887949
 31
0.0
  0
LINE
  5
8CA
330
2EA
100
AcDbEntity
  8
DIM
 62
     0
370
    -2
100
AcDbLine
 10
11.69052065833931
 20
6.775836086887949
 30
0.0
 11
10.4100206583393
 21
6.775836086887949
 31
0.0
  0
SOLID
  5
8CB
330
2EA
100
AcDbEntity
  8
DIM
 62
     0
100
AcDbTrace
 10
8.574520658339309
 20
6.805836086887949
 30
0.0
 11
8.574520658339309
 21
6.745836086887949
 31
0.0
 12
8.39452065833931
 22
6.775836086887949
 32
0.0
 13
8.39452065833931
 23
6.775836086887949
 33
0.0
  0
SOLID
  5
8CC
330
2EA
100
AcDbEntity
  8
DIM
 62
     0
100
AcDbTrace
 10
11.69052065833931
 20
6.805836086887949
 30
0.0
 11
11.69052065833931
 21
6.745836086887949
 31
0.0
 12
11.87052065833931
 22
6.775836086887949
 32
0.0
 13
11.87052065833931
 23
6.775836086887949
 33
0.0
  0
MTEXT
  5
8CD
330
2EA
100
AcDbEntity
  8
DIM
 62
     0
100
AcDbMText
 10
10.13252065833931
 20
6.775836086887949
 30
0.0
 40
0.125
 41
0.0
 71
     5
 72
     1
  1
\A1;3.476
  7
TXT
 73
     1
 44
1.0
  0
POINT
  5
8CE
330
2EA
100
AcDbEntity
  8
Defpoints
 62
     0
100
AcDbPoint
 10
8.39452065833931
 20
6.139361066451924
 30
0.0
  0
POINT
  5
8CF
330
2EA
100
AcDbEntity
  8
Defpoints
 62
     0
100
AcDbPoint
 10
11.87052065833931
 20
6.139361066451925
 30
0.0
  0
POINT
  5
8D0
330
2EA
100
AcDbEntity
  8
Defpoints
 62
     0
100
AcDbPoint
 10
11.87052065833931
 20
6.775836086887949
 30
0.0
  0
ENDBLK
  5
2F6
330
2EA
100
AcDbEntity
  8
0
100
AcDbBlockEnd
  0
BLOCK
  5
303
330
2F8
100
AcDbEntity
  8
0
100
AcDbBlockBegin
  2
*D4
 70
     1
 10
0.0
 20
0.0
 30
0.0
  3
*D4
  1

  0
LINE
  5
8B3
330
2F8
100
AcDbEntity
  8
DIM
 62
     0
370
    -2
100
AcDbLine
 10
8.270520658339311
 20
4.951361066451926
 30
0.0
 11
8.270520658339311
 21
7.172252722607055
 31
0.0
  0
LINE
  5
8B4
330
2F8
100
AcDbEntity
  8
DIM
 62
     0
370
    -2
100
AcDbLine
 10
11.99452065833931
 20
4.951361066451926
 30
0.0
 11
11.99452065833931
 21
7.172252722607055
 31
0.0
  0
LINE
  5
8B5
330
2F8
100
AcDbEntity
  8
DIM
 62
     0
370
    -2
100
AcDbLine
 10
8.450520658339311
 20
7.079252722607055
 30
0.0
 11
9.855020658339311
 21
7.079252722607055
 31
0.0
  0
LINE
  5
8B6
330
2F8
100
AcDbEntity
  8
DIM
 62
     0
370
    -2
100
AcDbLine
 10
11.81452065833931
 20
7.079252722607055
 30
0.0
 11
10.41002065833931
 21
7.079252722607055
 31
0.0
  0
SOLID
  5
8B7
330
2F8
100
AcDbEntity
  8
DIM
 62
     0
100
AcDbTrace
 10
8.450520658339311
 20
7.109252722607055
 30
0.0
 11
8.450520658339311
 21
7.049252722607055
 31
0.0
 12
8.270520658339311
 22
7.079252722607055
 32
0.0
 13
8.270520658339311
 23
7.079252722607055
 33
0.0
  0
SOLID
  5
8B8
330
2F8
100
AcDbEntity
  8
DIM
 62
     0
100
AcDbTrace
 10
11.81452065833931
 20
7.109252722607055
 30
0.0
 11
11.81452065833931
 21
7.049252722607055
 31
0.0
 12
11.99452065833931
 22
7.079252722607055
 32
0.0
 13
11.99452065833931
 23
7.079252722607055
 33
0.0
  0
MTEXT
  5
8B9
330
2F8
100
AcDbEntity
  8
DIM
 62
     0
100
AcDbMText
 10
10.13252065833931
 20
7.079252722607055
 30
0.0
 40
0.125
 41
0.0
 71
     5
 72
     1
  1
\A1;3.724
  7
TXT
 73
     1
 44
1.0
  0
POINT
  5
8BA
330
2F8
100
AcDbEntity
  8
Defpoints
 62
     0
100
AcDbPoint
 10
8.270520658339311
 20
4.888361066451926
 30
0.0
  0
POINT
  5
8BB
330
2F8
100
AcDbEntity
  8
Defpoints
 62
     0
100
AcDbPoint
 10
11.99452065833931
 20
4.888361066451926
 30
0.0
  0
POINT
  5
8BC
330
2F8
100
AcDbEntity
  8
Defpoints
 62
     0
100
AcDbPoint
 10
11.99452065833931
 20
7.079252722607055
 30
0.0
  0
ENDBLK
  5
304
330
2F8
100
AcDbEntity
  8
0
100
AcDbBlockEnd
  0
BLOCK
  5
326
330
31B
100
AcDbEntity
  8
0
100
AcDbBlockBegin
  2
*D5
 70
     1
 10
0.0
 20
0.0
 30
0.0
  3
*D5
  1

  0
LINE
  5
8D1
330
31B
100
AcDbEntity
  8
DIM
 62
     0
370
    -2
100
AcDbLine
 10
8.032520658339311
 20
5.209361066451925
 30
0.0
 11
8.032520658339311
 21
7.473007004003434
 31
0.0
  0
LINE
  5
8D2
330
31B
100
AcDbEntity
  8
DIM
 62
     0
370
    -2
100
AcDbLine
 10
12.23252065833931
 20
5.209361066451925
 30
0.0
 11
12.23252065833931
 21
7.473007004003434
 31
0.0
  0
LINE
  5
8D3
330
31B
100
AcDbEntity
  8
DIM
 62
     0
370
    -2
100
AcDbLine
 10
8.212520658339311
 20
7.380007004003434
 30
0.0
 11
9.870645658339311
 21
7.380007004003434
 31
0.0
  0
LINE
  5
8D4
330
31B
100
AcDbEntity
  8
DIM
 62
     0
370
    -2
100
AcDbLine
 10
12.05252065833931
 20
7.380007004003434
 30
0.0
 11
10.39439565833931
 21
7.380007004003434
 31
0.0
  0
SOLID
  5
8D5
330
31B
100
AcDbEntity
  8
DIM
 62
     0
100
AcDbTrace
 10
8.212520658339311
 20
7.410007004003435
 30
0.0
 11
8.212520658339311
 21
7.350007004003434
 31
0.0
 12
8.032520658339311
 22
7.380007004003434
 32
0.0
 13
8.032520658339311
 23
7.380007004003434
 33
0.0
  0
SOLID
  5
8D6
330
31B
100
AcDbEntity
  8
DIM
 62
     0
100
AcDbTrace
 10
12.05252065833931
 20
7.410007004003435
 30
0.0
 11
12.05252065833931
 21
7.350007004003434
 31
0.0
 12
12.23252065833931
 22
7.380007004003434
 32
0.0
 13
12.23252065833931
 23
7.380007004003434
 33
0.0
  0
MTEXT
  5
8D7
330
31B
100
AcDbEntity
  8
DIM
 62
     0
100
AcDbMText
 10
10.13252065833931
 20
7.380007004003434
 30
0.0
 40
0.125
 41
0.0
 71
     5
 72
     1
  1
\A1;4.200
  7
TXT
 73
     1
 44
1.0
  0
POINT
  5
8D8
330
31B
100
AcDbEntity
  8
Defpoints
 62
     0
100
AcDbPoint
 10
8.032520658339311
 20
5.146361066451925
 30
0.0
  0
POINT
  5
8D9
330
31B
100
AcDbEntity
  8
Defpoints
 62
     0
100
AcDbPoint
 10
12.23252065833931
 20
5.146361066451925
 30
0.0
  0
POINT
  5
8DA
330
31B
100
AcDbEntity
  8
Defpoints
 62
     0
100
AcDbPoint
 10
12.23252065833931
 20
7.380007004003434
 30
0.0
  0
ENDBLK
  5
327
330
31B
100
AcDbEntity
  8
0
100
AcDbBlockEnd
  0
BLOCK
  5
334
330
329
100
AcDbEntity
  8
0
100
AcDbBlockBegin
  2
*D6
 70
     1
 10
0.0
 20
0.0
 30
0.0
  3
*D6
  1

  0
LINE
  5
868
330
329
100
AcDbEntity
  8
DIM
 62
     0
370
    -2
100
AcDbLine
 10
8.430520658339309
 20
6.133361066451925
 30
0.0
 11
7.543386445761481
 21
6.133361066451925
 31
0.0
  0
LINE
  5
869
330
329
100
AcDbEntity
  8
DIM
 62
     0
370
    -2
100
AcDbLine
 10
8.456520658339309
 20
3.643361066451927
 30
0.0
 11
7.54338644576148
 21
3.643361066451927
 31
0.0
  0
LINE
  5
86A
330
329
100
AcDbEntity
  8
DIM
 62
     0
370
    -2
100
AcDbLine
 10
7.63638644576148
 20
5.953361066451925
 30
0.0
 11
7.63638644576148
 21
5.040861066451926
 31
0.0
  0
LINE
  5
86B
330
329
100
AcDbEntity
  8
DIM
 62
     0
370
    -2
100
AcDbLine
 10
7.63638644576148
 20
3.823361066451927
 30
0.0
 11
7.63638644576148
 21
4.735861066451926
 31
0.0
  0
SOLID
  5
86C
330
329
100
AcDbEntity
  8
DIM
 62
     0
100
AcDbTrace
 10
7.60638644576148
 20
5.953361066451925
 30
0.0
 11
7.666386445761481
 21
5.953361066451925
 31
0.0
 12
7.636386445761481
 22
6.133361066451925
 32
0.0
 13
7.636386445761481
 23
6.133361066451925
 33
0.0
  0
SOLID
  5
86D
330
329
100
AcDbEntity
  8
DIM
 62
     0
100
AcDbTrace
 10
7.60638644576148
 20
3.823361066451927
 30
0.0
 11
7.666386445761481
 21
3.823361066451927
 31
0.0
 12
7.63638644576148
 22
3.643361066451927
 32
0.0
 13
7.63638644576148
 23
3.643361066451927
 33
0.0
  0
MTEXT
  5
86E
330
329
100
AcDbEntity
  8
DIM
 62
     0
100
AcDbMText
 10
7.63638644576148
 20
4.888361066451927
 30
0.0
 40
0.125
 41
0.0
 71
     5
 72
     1
  1
\A1;2.490
  7
TXT
 73
     1
 44
1.0
  0
POINT
  5
86F
330
329
100
AcDbEntity
  8
Defpoints
 62
     0
100
AcDbPoint
 10
8.49352065833931
 20
6.133361066451925
 30
0.0
  0
POINT
  5
870
330
329
100
AcDbEntity
  8
Defpoints
 62
     0
100
AcDbPoint
 10
8.51952065833931
 20
3.643361066451927
 30
0.0
  0
POINT
  5
871
330
329
100
AcDbEntity
  8
Defpoints
 62
     0
100
AcDbPoint
 10
7.63638644576148
 20
3.643361066451927
 30
0.0
  0
ENDBLK
  5
335
330
329
100
AcDbEntity
  8
0
100
AcDbBlockEnd
  0
BLOCK
  5
342
330
337
100
AcDbEntity
  8
0
100
AcDbBlockBegin
  2
*D7
 70
     1
 10
0.0
 20
0.0
 30
0.0
  3
*D7
  1

  0
LINE
  5
85E
330
337
100
AcDbEntity
  8
DIM
 62
     0
370
    -2
100
AcDbLine
 10
8.424520658339309
 20
3.544361066451926
 30
0.0
 11
7.042423437890302
 21
3.544361066451926
 31
0.0
  0
LINE
  5
85F
330
337
100
AcDbEntity
  8
DIM
 62
     0
370
    -2
100
AcDbLine
 10
8.424520658339309
 20
6.232361066451924
 30
0.0
 11
7.042423437890303
 21
6.232361066451924
 31
0.0
  0
LINE
  5
860
330
337
100
AcDbEntity
  8
DIM
 62
     0
370
    -2
100
AcDbLine
 10
7.135423437890302
 20
3.724361066451926
 30
0.0
 11
7.135423437890302
 21
4.735861066451925
 31
0.0
  0
LINE
  5
861
330
337
100
AcDbEntity
  8
DIM
 62
     0
370
    -2
100
AcDbLine
 10
7.135423437890302
 20
6.052361066451925
 30
0.0
 11
7.135423437890302
 21
5.040861066451925
 31
0.0
  0
SOLID
  5
862
330
337
100
AcDbEntity
  8
DIM
 62
     0
100
AcDbTrace
 10
7.105423437890301
 20
3.724361066451926
 30
0.0
 11
7.165423437890302
 21
3.724361066451926
 31
0.0
 12
7.135423437890302
 22
3.544361066451926
 32
0.0
 13
7.135423437890302
 23
3.544361066451926
 33
0.0
  0
SOLID
  5
863
330
337
100
AcDbEntity
  8
DIM
 62
     0
100
AcDbTrace
 10
7.105423437890302
 20
6.052361066451925
 30
0.0
 11
7.165423437890303
 21
6.052361066451925
 31
0.0
 12
7.135423437890302
 22
6.232361066451924
 32
0.0
 13
7.135423437890302
 23
6.232361066451924
 33
0.0
  0
MTEXT
  5
864
330
337
100
AcDbEntity
  8
DIM
 62
     0
100
AcDbMText
 10
7.135423437890301
 20
4.888361066451927
 30
0.0
 40
0.125
 41
0.0
 71
     5
 72
     1
  1
\A1;2.688
  7
TXT
 73
     1
 44
1.0
  0
POINT
  5
865
330
337
100
AcDbEntity
  8
Defpoints
 62
     0
100
AcDbPoint
 10
8.48752065833931
 20
3.544361066451926
 30
0.0
  0
POINT
  5
866
330
337
100
AcDbEntity
  8
Defpoints
 62
     0
100
AcDbPoint
 10
8.48752065833931
 20
6.232361066451924
 30
0.0
  0
POINT
  5
867
330
337
100
AcDbEntity
  8
Defpoints
 62
     0
100
AcDbPoint
 10
7.135423437890302
 20
6.232361066451924
 30
0.0
  0
ENDBLK
  5
343
330
337
100
AcDbEntity
  8
0
100
AcDbBlockEnd
  0
BLOCK
  5
35C
330
351
100
AcDbEntity
  8
0
100
AcDbBlockBegin
  2
*D8
 70
     1
 10
0.0
 20
0.0
 30
0.0
  3
*D8
  1

  0
LINE
  5
88A
330
351
100
AcDbEntity
  8
DIM
 62
     0
370
    -2
100
AcDbLine
 10
7.969520658339311
 20
2.635431058140157
 30
0.0
 11
7.621401427477582
 21
2.635431058140157
 31
0.0
  0
LINE
  5
88B
330
351
100
AcDbEntity
  8
DIM
 62
     0
370
    -2
100
AcDbLine
 10
8.40421107138299
 20
1.348431058140157
 30
0.0
 11
7.621401427477581
 21
1.348431058140157
 31
0.0
  0
LINE
  5
88C
330
351
100
AcDbEntity
  8
DIM
 62
     0
370
    -2
100
AcDbLine
 10
7.714401427477582
 20
2.455431058140157
 30
0.0
 11
7.714401427477582
 21
2.144431058140157
 31
0.0
  0
LINE
  5
88D
330
351
100
AcDbEntity
  8
DIM
 62
     0
370
    -2
100
AcDbLine
 10
7.714401427477581
 20
1.528431058140157
 30
0.0
 11
7.714401427477581
 21
1.839431058140157
 31
0.0
  0
SOLID
  5
88E
330
351
100
AcDbEntity
  8
DIM
 62
     0
100
AcDbTrace
 10
7.684401427477582
 20
2.455431058140157
 30
0.0
 11
7.744401427477582
 21
2.455431058140157
 31
0.0
 12
7.714401427477582
 22
2.635431058140157
 32
0.0
 13
7.714401427477582
 23
2.635431058140157
 33
0.0
  0
SOLID
  5
88F
330
351
100
AcDbEntity
  8
DIM
 62
     0
100
AcDbTrace
 10
7.684401427477581
 20
1.528431058140157
 30
0.0
 11
7.744401427477582
 21
1.528431058140157
 31
0.0
 12
7.714401427477581
 22
1.348431058140157
 32
0.0
 13
7.714401427477581
 23
1.348431058140157
 33
0.0
  0
MTEXT
  5
890
330
351
100
AcDbEntity
  8
DIM
 62
     0
100
AcDbMText
 10
7.714401427477581
 20
1.991931058140158
 30
0.0
 40
0.125
 41
0.0
 71
     5
 72
     1
  1
\A1;1.287
  7
TXT
 73
     1
 44
1.0
  0
POINT
  5
891
330
351
100
AcDbEntity
  8
Defpoints
 62
     0
100
AcDbPoint
 10
8.03252065833931
 20
2.635431058140157
 30
0.0
  0
POINT
  5
892
330
351
100
AcDbEntity
  8
Defpoints
 62
     0
100
AcDbPoint
 10
8.46721107138299
 20
1.348431058140157
 30
0.0
  0
POINT
  5
893
330
351
100
AcDbEntity
  8
Defpoints
 62
     0
100
AcDbPoint
 10
7.714401427477581
 20
1.348431058140157
 30
0.0
  0
ENDBLK
  5
35D
330
351
100
AcDbEntity
  8
0
100
AcDbBlockEnd
  0
BLOCK
  5
36A
330
35F
100
AcDbEntity
  8
0
100
AcDbBlockBegin
  2
*D9
 70
     1
 10
0.0
 20
0.0
 30
0.0
  3
*D9
  1

  0
LINE
  5
894
330
35F
100
AcDbEntity
  8
DIM
 62
     0
370
    -2
100
AcDbLine
 10
8.911208291306261
 20
1.473431058140157
 30
0.0
 11
9.004208291306261
 21
1.473431058140157
 31
0.0
  0
LINE
  5
895
330
35F
100
AcDbEntity
  8
DIM
 62
     0
370
    -2
100
AcDbLine
 10
8.911208291306261
 20
2.635431058140157
 30
0.0
 11
9.004208291306261
 21
2.635431058140156
 31
0.0
  0
LINE
  5
896
330
35F
100
AcDbEntity
  8
DIM
 62
     0
370
    -2
100
AcDbLine
 10
8.911208291306261
 20
1.653431058140157
 30
0.0
 11
8.911208291306261
 21
1.901931058140156
 31
0.0
  0
LINE
  5
897
330
35F
100
AcDbEntity
  8
DIM
 62
     0
370
    -2
100
AcDbLine
 10
8.911208291306261
 20
2.455431058140157
 30
0.0
 11
8.911208291306261
 21
2.206931058140157
 31
0.0
  0
SOLID
  5
898
330
35F
100
AcDbEntity
  8
DIM
 62
     0
100
AcDbTrace
 10
8.881208291306261
 20
1.653431058140157
 30
0.0
 11
8.94120829130626
 21
1.653431058140157
 31
0.0
 12
8.911208291306261
 22
1.473431058140157
 32
0.0
 13
8.911208291306261
 23
1.473431058140157
 33
0.0
  0
SOLID
  5
899
330
35F
100
AcDbEntity
  8
DIM
 62
     0
100
AcDbTrace
 10
8.881208291306261
 20
2.455431058140157
 30
0.0
 11
8.94120829130626
 21
2.455431058140157
 31
0.0
 12
8.911208291306261
 22
2.635431058140157
 32
0.0
 13
8.911208291306261
 23
2.635431058140157
 33
0.0
  0
MTEXT
  5
89A
330
35F
100
AcDbEntity
  8
DIM
 62
     0
100
AcDbMText
 10
8.911208291306261
 20
2.054431058140158
 30
0.0
 40
0.125
 41
0.0
 71
     5
 72
     1
  1
\A1;1.162
  7
TXT
 73
     1
 44
1.0
  0
POINT
  5
89B
330
35F
100
AcDbEntity
  8
Defpoints
 62
     0
100
AcDbPoint
 10
8.84820829130626
 20
1.473431058140157
 30
0.0
  0
POINT
  5
89C
330
35F
100
AcDbEntity
  8
Defpoints
 62
     0
100
AcDbPoint
 10
8.84820829130626
 20
2.635431058140157
 30
0.0
  0
POINT
  5
89D
330
35F
100
AcDbEntity
  8
Defpoints
 62
     0
100
AcDbPoint
 10
8.911208291306261
 20
2.635431058140157
 30
0.0
  0
ENDBLK
  5
36B
330
35F
100
AcDbEntity
  8
0
100
AcDbBlockEnd
  0
BLOCK
  5
396
330
38B
100
AcDbEntity
  8
0
100
AcDbBlockBegin
  2
*D10
 70
     1
 10
0.0
 20
0.0
 30
0.0
  3
*D10
  1

  0
LINE
  5
89E
330
38B
100
AcDbEntity
  8
DIM
 62
     0
370
    -2
100
AcDbLine
 10
10.1955206583393
 20
2.017431058140156
 30
0.0
 11
10.6448546127262
 21
2.017431058140156
 31
0.0
  0
LINE
  5
89F
330
38B
100
AcDbEntity
  8
DIM
 62
     0
370
    -2
100
AcDbLine
 10
10.1955206583393
 20
1.348431058140157
 30
0.0
 11
10.6448546127262
 21
1.348431058140157
 31
0.0
  0
LINE
  5
8A0
330
38B
100
AcDbEntity
  8
DIM
 62
     0
370
    -2
100
AcDbLine
 10
10.5518546127262
 20
2.197431058140157
 30
0.0
 11
10.5518546127262
 21
2.377431058140156
 31
0.0
  0
LINE
  5
8A1
330
38B
100
AcDbEntity
  8
DIM
 62
     0
370
    -2
100
AcDbLine
 10
10.5518546127262
 20
1.168431058140157
 30
0.0
 11
10.5518546127262
 21
0.9884310581401571
 31
0.0
  0
SOLID
  5
8A2
330
38B
100
AcDbEntity
  8
DIM
 62
     0
100
AcDbTrace
 10
10.5218546127262
 20
2.197431058140157
 30
0.0
 11
10.5818546127262
 21
2.197431058140157
 31
0.0
 12
10.5518546127262
 22
2.017431058140156
 32
0.0
 13
10.5518546127262
 23
2.017431058140156
 33
0.0
  0
SOLID
  5
8A3
330
38B
100
AcDbEntity
  8
DIM
 62
     0
100
AcDbTrace
 10
10.5218546127262
 20
1.168431058140157
 30
0.0
 11
10.5818546127262
 21
1.168431058140157
 31
0.0
 12
10.5518546127262
 22
1.348431058140157
 32
0.0
 13
10.5518546127262
 23
1.348431058140157
 33
0.0
  0
MTEXT
  5
8A4
330
38B
100
AcDbEntity
  8
DIM
 62
     0
100
AcDbMText
 10
10.5518546127262
 20
1.682931058140158
 30
0.0
 40
0.125
 41
0.0
 71
     5
 72
     1
  1
\A1;0.669
  7
TXT
 73
     1
 44
1.0
  0
POINT
  5
8A5
330
38B
100
AcDbEntity
  8
Defpoints
 62
     0
100
AcDbPoint
 10
10.13252065833931
 20
2.017431058140156
 30
0.0
  0
POINT
  5
8A6
330
38B
100
AcDbEntity
  8
Defpoints
 62
     0
100
AcDbPoint
 10
10.13252065833931
 20
1.348431058140157
 30
0.0
  0
POINT
  5
8A7
330
38B
100
AcDbEntity
  8
Defpoints
 62
     0
100
AcDbPoint
 10
10.5518546127262
 20
1.348431058140157
 30
0.0
  0
ENDBLK
  5
397
330
38B
100
AcDbEntity
  8
0
100
AcDbBlockEnd
  0
BLOCK
  5
3A8
330
39C
100
AcDbEntity
  8
0
100
AcDbBlockBegin
  2
*D11
 70
     1
 10
0.0
 20
0.0
 30
0.0
  3
*D11
  1

  0
LINE
  5
8A8
330
39C
100
AcDbEntity
  8
DIM
 62
     0
370
    -2
100
AcDbLine
 10
12.29552065833931
 20
2.535431058140156
 30
0.0
 11
12.54853874349993
 21
2.535431058140156
 31
0.0
  0
LINE
  5
8A9
330
39C
100
AcDbEntity
  8
DIM
 62
     0
370
    -2
100
AcDbLine
 10
12.29552065833931
 20
2.635431058140157
 30
0.0
 11
12.54853874349993
 21
2.635431058140157
 31
0.0
  0
LINE
  5
8AA
330
39C
100
AcDbEntity
  8
DIM
 62
     0
370
    -2
100
AcDbLine
 10
12.45553874349993
 20
2.355431058140156
 30
0.0
 11
12.45553874349993
 21
2.175431058140156
 31
0.0
  0
LINE
  5
8AB
330
39C
100
AcDbEntity
  8
DIM
 62
     0
370
    -2
100
AcDbLine
 10
12.45553874349993
 20
2.815431058140157
 30
0.0
 11
12.45553874349993
 21
2.995431058140157
 31
0.0
  0
LINE
  5
8AC
330
39C
100
AcDbEntity
  8
DIM
 62
     0
370
    -2
100
AcDbLine
 10
12.45553874349993
 20
2.995431058140157
 30
0.0
 11
12.63553874349993
 21
2.995431058140157
 31
0.0
  0
SOLID
  5
8AD
330
39C
100
AcDbEntity
  8
DIM
 62
     0
100
AcDbTrace
 10
12.42553874349993
 20
2.355431058140156
 30
0.0
 11
12.48553874349993
 21
2.355431058140156
 31
0.0
 12
12.45553874349993
 22
2.535431058140156
 32
0.0
 13
12.45553874349993
 23
2.535431058140156
 33
0.0
  0
SOLID
  5
8AE
330
39C
100
AcDbEntity
  8
DIM
 62
     0
100
AcDbTrace
 10
12.42553874349993
 20
2.815431058140157
 30
0.0
 11
12.48553874349993
 21
2.815431058140157
 31
0.0
 12
12.45553874349993
 22
2.635431058140157
 32
0.0
 13
12.45553874349993
 23
2.635431058140157
 33
0.0
  0
MTEXT
  5
8AF
330
39C
100
AcDbEntity
  8
DIM
 62
     0
100
AcDbMText
 10
12.87397624349993
 20
2.995431058140158
 30
0.0
 40
0.125
 41
0.0
 71
     5
 72
     1
  1
\A1;0.100
  7
TXT
 73
     1
 44
1.0
  0
POINT
  5
8B0
330
39C
100
AcDbEntity
  8
Defpoints
 62
     0
100
AcDbPoint
 10
12.23252065833931
 20
2.535431058140156
 30
0.0
  0
POINT
  5
8B1
330
39C
100
AcDbEntity
  8
Defpoints
 62
     0
100
AcDbPoint
 10
12.23252065833931
 20
2.635431058140157
 30
0.0
  0
POINT
  5
8B2
330
39C
100
AcDbEntity
  8
Defpoints
 62
     0
100
AcDbPoint
 10
12.45553874349993
 20
2.635431058140157
 30
0.0
  0
ENDBLK
  5
3A9
330
39C
100
AcDbEntity
  8
0
100
AcDbBlockEnd
  0
BLOCK
  5
3B6
330
3AB
100
AcDbEntity
  8
0
100
AcDbBlockBegin
  2
*D12
 70
     1
 10
0.0
 20
0.0
 30
0.0
  3
*D12
  1

  0
LINE
  5
8E5
330
3AB
100
AcDbEntity
  8
DIM
 62
     0
370
    -2
100
AcDbLine
 10
12.23352065833931
 20
4.568361066451926
 30
0.0
 11
12.70062940560324
 21
4.568361066451926
 31
0.0
  0
LINE
  5
8E6
330
3AB
100
AcDbEntity
  8
DIM
 62
     0
370
    -2
100
AcDbLine
 10
12.23352065833931
 20
5.208361066451926
 30
0.0
 11
12.70062940560324
 21
5.208361066451926
 31
0.0
  0
LINE
  5
8E7
330
3AB
100
AcDbEntity
  8
DIM
 62
     0
370
    -2
100
AcDbLine
 10
12.60762940560324
 20
4.388361066451926
 30
0.0
 11
12.60762940560324
 21
4.208361066451925
 31
0.0
  0
LINE
  5
8E8
330
3AB
100
AcDbEntity
  8
DIM
 62
     0
370
    -2
100
AcDbLine
 10
12.60762940560324
 20
5.388361066451926
 30
0.0
 11
12.60762940560324
 21
5.568361066451926
 31
0.0
  0
SOLID
  5
8E9
330
3AB
100
AcDbEntity
  8
DIM
 62
     0
100
AcDbTrace
 10
12.57762940560324
 20
4.388361066451926
 30
0.0
 11
12.63762940560324
 21
4.388361066451926
 31
0.0
 12
12.60762940560324
 22
4.568361066451926
 32
0.0
 13
12.60762940560324
 23
4.568361066451926
 33
0.0
  0
SOLID
  5
8EA
330
3AB
100
AcDbEntity
  8
DIM
 62
     0
100
AcDbTrace
 10
12.57762940560324
 20
5.388361066451926
 30
0.0
 11
12.63762940560324
 21
5.388361066451926
 31
0.0
 12
12.60762940560324
 22
5.208361066451926
 32
0.0
 13
12.60762940560324
 23
5.208361066451926
 33
0.0
  0
MTEXT
  5
8EB
330
3AB
100
AcDbEntity
  8
DIM
 62
     0
100
AcDbMText
 10
12.60762940560324
 20
4.888361066451928
 30
0.0
 40
0.125
 41
0.0
 71
     5
 72
     1
  1
\A1;0.640
  7
TXT
 73
     1
 44
1.0
  0
POINT
  5
8EC
330
3AB
100
AcDbEntity
  8
Defpoints
 62
     0
100
AcDbPoint
 10
12.1705206583393
 20
4.568361066451926
 30
0.0
  0
POINT
  5
8ED
330
3AB
100
AcDbEntity
  8
Defpoints
 62
     0
100
AcDbPoint
 10
12.1705206583393
 20
5.208361066451926
 30
0.0
  0
POINT
  5
8EE
330
3AB
100
AcDbEntity
  8
Defpoints
 62
     0
100
AcDbPoint
 10
12.60762940560324
 20
5.208361066451926
 30
0.0
  0
ENDBLK
  5
3B7
330
3AB
100
AcDbEntity
  8
0
100
AcDbBlockEnd
  0
BLOCK
  5
437
330
42C
100
AcDbEntity
  8
0
100
AcDbBlockBegin
  2
*D13
 70
     1
 10
0.0
 20
0.0
 30
0.0
  3
*D13
  1

  0
LINE
  5
872
330
42C
100
AcDbEntity
  8
DIM
 62
     0
370
    -2
100
AcDbLine
 10
8.528919494949956
 20
1.410431058140157
 30
0.0
 11
8.528919494949956
 21
0.7073710054927922
 31
0.0
  0
LINE
  5
873
330
42C
100
AcDbEntity
  8
DIM
 62
     0
370
    -2
100
AcDbLine
 10
11.73612182172866
 20
1.410431058140157
 30
0.0
 11
11.73612182172866
 21
0.7073710054927922
 31
0.0
  0
LINE
  5
874
330
42C
100
AcDbEntity
  8
DIM
 62
     0
370
    -2
100
AcDbLine
 10
8.708919494949956
 20
0.8003710054927921
 30
0.0
 11
9.862833158339309
 21
0.8003710054927921
 31
0.0
  0
LINE
  5
875
330
42C
100
AcDbEntity
  8
DIM
 62
     0
370
    -2
100
AcDbLine
 10
11.55612182172866
 20
0.8003710054927921
 30
0.0
 11
10.40220815833931
 21
0.8003710054927921
 31
0.0
  0
SOLID
  5
876
330
42C
100
AcDbEntity
  8
DIM
 62
     0
100
AcDbTrace
 10
8.708919494949956
 20
0.8303710054927922
 30
0.0
 11
8.708919494949956
 21
0.7703710054927921
 31
0.0
 12
8.528919494949956
 22
0.8003710054927921
 32
0.0
 13
8.528919494949956
 23
0.8003710054927921
 33
0.0
  0
SOLID
  5
877
330
42C
100
AcDbEntity
  8
DIM
 62
     0
100
AcDbTrace
 10
11.55612182172866
 20
0.8303710054927922
 30
0.0
 11
11.55612182172866
 21
0.7703710054927921
 31
0.0
 12
11.73612182172866
 22
0.8003710054927921
 32
0.0
 13
11.73612182172866
 23
0.8003710054927921
 33
0.0
  0
MTEXT
  5
878
330
42C
100
AcDbEntity
  8
DIM
 62
     0
100
AcDbMText
 10
10.13252065833931
 20
0.8003710054927921
 30
0.0
 40
0.125
 41
0.0
 71
     5
 72
     1
  1
\A1;3.207
  7
TXT
 73
     1
 44
1.0
  0
POINT
  5
879
330
42C
100
AcDbEntity
  8
Defpoints
 62
     0
100
AcDbPoint
 10
8.528919494949956
 20
1.473431058140157
 30
0.0
  0
POINT
  5
87A
330
42C
100
AcDbEntity
  8
Defpoints
 62
     0
100
AcDbPoint
 10
11.73612182172866
 20
1.473431058140157
 30
0.0
  0
POINT
  5
87B
330
42C
100
AcDbEntity
  8
Defpoints
 62
     0
100
AcDbPoint
 10
11.73612182172866
 20
0.8003710054927921
 30
0.0
  0
ENDBLK
  5
438
330
42C
100
AcDbEntity
  8
0
100
AcDbBlockEnd
  0
BLOCK
  5
445
330
43A
100
AcDbEntity
  8
0
100
AcDbBlockBegin
  2
*D14
 70
     1
 10
0.0
 20
0.0
 30
0.0
  3
*D14
  1

  0
LINE
  5
854
330
43A
100
AcDbEntity
  8
DIM
 62
     0
370
    -2
100
AcDbLine
 10
14.78225051470598
 20
6.097962229841277
 30
0.0
 11
15.33313351651536
 21
6.097962229841277
 31
0.0
  0
LINE
  5
855
330
43A
100
AcDbEntity
  8
DIM
 62
     0
370
    -2
100
AcDbLine
 10
14.78225051470598
 20
3.678759903062571
 30
0.0
 11
15.33313351651535
 21
3.678759903062571
 31
0.0
  0
LINE
  5
856
330
43A
100
AcDbEntity
  8
DIM
 62
     0
370
    -2
100
AcDbLine
 10
15.24013351651535
 20
5.917962229841277
 30
0.0
 11
15.24013351651535
 21
5.040861066451924
 31
0.0
  0
LINE
  5
857
330
43A
100
AcDbEntity
  8
DIM
 62
     0
370
    -2
100
AcDbLine
 10
15.24013351651535
 20
3.858759903062571
 30
0.0
 11
15.24013351651535
 21
4.735861066451924
 31
0.0
  0
SOLID
  5
858
330
43A
100
AcDbEntity
  8
DIM
 62
     0
100
AcDbTrace
 10
15.21013351651536
 20
5.917962229841277
 30
0.0
 11
15.27013351651535
 21
5.917962229841277
 31
0.0
 12
15.24013351651535
 22
6.097962229841277
 32
0.0
 13
15.24013351651535
 23
6.097962229841277
 33
0.0
  0
SOLID
  5
859
330
43A
100
AcDbEntity
  8
DIM
 62
     0
100
AcDbTrace
 10
15.21013351651535
 20
3.858759903062571
 30
0.0
 11
15.27013351651535
 21
3.858759903062571
 31
0.0
 12
15.24013351651535
 22
3.678759903062571
 32
0.0
 13
15.24013351651535
 23
3.678759903062571
 33
0.0
  0
MTEXT
  5
85A
330
43A
100
AcDbEntity
  8
DIM
 62
     0
100
AcDbMText
 10
15.24013351651535
 20
4.888361066451927
 30
0.0
 40
0.125
 41
0.0
 71
     5
 72
     1
  1
\A1;2.419
  7
TXT
 73
     1
 44
1.0
  0
POINT
  5
85B
330
43A
100
AcDbEntity
  8
Defpoints
 62
     0
100
AcDbPoint
 10
14.71925051470598
 20
6.097962229841277
 30
0.0
  0
POINT
  5
85C
330
43A
100
AcDbEntity
  8
Defpoints
 62
     0
100
AcDbPoint
 10
14.71925051470598
 20
3.678759903062571
 30
0.0
  0
POINT
  5
85D
330
43A
100
AcDbEntity
  8
Defpoints
 62
     0
100
AcDbPoint
 10
15.24013351651535
 20
3.678759903062571
 30
0.0
  0
ENDBLK
  5
446
330
43A
100
AcDbEntity
  8
0
100
AcDbBlockEnd
  0
BLOCK
  5
453
330
448
100
AcDbEntity
  8
0
100
AcDbBlockBegin
  2
*D15
 70
     1
 10
0.0
 20
0.0
 30
0.0
  3
*D15
  1

  0
LINE
  5
836
330
448
100
AcDbEntity
  8
DIM
 62
     0
370
    -2
100
AcDbLine
 10
1.68515621523221
 20
6.196361066451925
 30
0.0
 11
1.68515621523221
 21
6.64171955817514
 31
0.0
  0
LINE
  5
837
330
448
100
AcDbEntity
  8
DIM
 62
     0
370
    -2
100
AcDbLine
 10
4.967156215232209
 20
6.196361066451925
 30
0.0
 11
4.967156215232209
 21
6.64171955817514
 31
0.0
  0
LINE
  5
838
330
448
100
AcDbEntity
  8
DIM
 62
     0
370
    -2
100
AcDbLine
 10
1.86515621523221
 20
6.54871955817514
 30
0.0
 11
3.04865621523221
 21
6.54871955817514
 31
0.0
  0
LINE
  5
839
330
448
100
AcDbEntity
  8
DIM
 62
     0
370
    -2
100
AcDbLine
 10
4.78715621523221
 20
6.54871955817514
 30
0.0
 11
3.60365621523221
 21
6.54871955817514
 31
0.0
  0
SOLID
  5
83A
330
448
100
AcDbEntity
  8
DIM
 62
     0
100
AcDbTrace
 10
1.86515621523221
 20
6.57871955817514
 30
0.0
 11
1.86515621523221
 21
6.518719558175139
 31
0.0
 12
1.68515621523221
 22
6.54871955817514
 32
0.0
 13
1.68515621523221
 23
6.54871955817514
 33
0.0
  0
SOLID
  5
83B
330
448
100
AcDbEntity
  8
DIM
 62
     0
100
AcDbTrace
 10
4.78715621523221
 20
6.57871955817514
 30
0.0
 11
4.78715621523221
 21
6.518719558175139
 31
0.0
 12
4.967156215232209
 22
6.54871955817514
 32
0.0
 13
4.967156215232209
 23
6.54871955817514
 33
0.0
  0
MTEXT
  5
83C
330
448
100
AcDbEntity
  8
DIM
 62
     0
100
AcDbMText
 10
3.32615621523221
 20
6.54871955817514
 30
0.0
 40
0.125
 41
0.0
 71
     5
 72
     1
  1
\A1;3.282
  7
TXT
 73
     1
 44
1.0
  0
POINT
  5
83D
330
448
100
AcDbEntity
  8
Defpoints
 62
     0
100
AcDbPoint
 10
1.68515621523221
 20
6.133361066451925
 30
0.0
  0
POINT
  5
83E
330
448
100
AcDbEntity
  8
Defpoints
 62
     0
100
AcDbPoint
 10
4.967156215232209
 20
6.133361066451925
 30
0.0
  0
POINT
  5
83F
330
448
100
AcDbEntity
  8
Defpoints
 62
     0
100
AcDbPoint
 10
4.967156215232209
 20
6.54871955817514
 30
0.0
  0
ENDBLK
  5
454
330
448
100
AcDbEntity
  8
0
100
AcDbBlockEnd
  0
BLOCK
  5
461
330
456
100
AcDbEntity
  8
0
100
AcDbBlockBegin
  2
*D16
 70
     1
 10
0.0
 20
0.0
 30
0.0
  3
*D16
  1

  0
LINE
  5
7ED
330
456
100
AcDbEntity
  8
DIM
 62
     0
370
    -2
100
AcDbLine
 10
5.030156215232209
 20
6.133361066451925
 30
0.0
 11
5.423142083732682
 21
6.133361066451925
 31
0.0
  0
LINE
  5
7EE
330
456
100
AcDbEntity
  8
DIM
 62
     0
370
    -2
100
AcDbLine
 10
5.030156215232209
 20
3.643361066451926
 30
0.0
 11
5.423142083732681
 21
3.643361066451926
 31
0.0
  0
LINE
  5
7EF
330
456
100
AcDbEntity
  8
DIM
 62
     0
370
    -2
100
AcDbLine
 10
5.330142083732681
 20
5.953361066451925
 30
0.0
 11
5.330142083732681
 21
5.040861066451926
 31
0.0
  0
LINE
  5
7F0
330
456
100
AcDbEntity
  8
DIM
 62
     0
370
    -2
100
AcDbLine
 10
5.330142083732681
 20
3.823361066451926
 30
0.0
 11
5.330142083732681
 21
4.735861066451926
 31
0.0
  0
SOLID
  5
7F1
330
456
100
AcDbEntity
  8
DIM
 62
     0
100
AcDbTrace
 10
5.300142083732681
 20
5.953361066451925
 30
0.0
 11
5.360142083732681
 21
5.953361066451925
 31
0.0
 12
5.330142083732682
 22
6.133361066451925
 32
0.0
 13
5.330142083732682
 23
6.133361066451925
 33
0.0
  0
SOLID
  5
7F2
330
456
100
AcDbEntity
  8
DIM
 62
     0
100
AcDbTrace
 10
5.300142083732681
 20
3.823361066451926
 30
0.0
 11
5.360142083732681
 21
3.823361066451926
 31
0.0
 12
5.330142083732681
 22
3.643361066451926
 32
0.0
 13
5.330142083732681
 23
3.643361066451926
 33
0.0
  0
MTEXT
  5
7F3
330
456
100
AcDbEntity
  8
DIM
 62
     0
100
AcDbMText
 10
5.33014208373268
 20
4.888361066451927
 30
0.0
 40
0.125
 41
0.0
 71
     5
 72
     1
  1
\A1;2.490
  7
TXT
 73
     1
 44
1.0
  0
POINT
  5
7F4
330
456
100
AcDbEntity
  8
Defpoints
 62
     0
100
AcDbPoint
 10
4.967156215232209
 20
6.133361066451925
 30
0.0
  0
POINT
  5
7F5
330
456
100
AcDbEntity
  8
Defpoints
 62
     0
100
AcDbPoint
 10
4.967156215232209
 20
3.643361066451927
 30
0.0
  0
POINT
  5
7F6
330
456
100
AcDbEntity
  8
Defpoints
 62
     0
100
AcDbPoint
 10
5.330142083732681
 20
3.643361066451926
 30
0.0
  0
ENDBLK
  5
462
330
456
100
AcDbEntity
  8
0
100
AcDbBlockEnd
  0
BLOCK
  5
4B9
330
4AD
100
AcDbEntity
  8
0
100
AcDbBlockBegin
  2
*D17
 70
     1
 10
0.0
 20
0.0
 30
0.0
  3
*D17
  1

  0
LINE
  5
80C
330
4AD
100
AcDbEntity
  8
DIM
 62
     0
370
    -2
100
AcDbLine
 10
2.16215621523221
 20
2.550431058140157
 30
0.0
 11
1.858693374771025
 21
2.550431058140157
 31
0.0
  0
LINE
  5
80D
330
4AD
100
AcDbEntity
  8
DIM
 62
     0
370
    -2
100
AcDbLine
 10
2.170156215232209
 20
2.394431058140157
 30
0.0
 11
1.858693374771025
 21
2.394431058140157
 31
0.0
  0
LINE
  5
80E
330
4AD
100
AcDbEntity
  8
DIM
 62
     0
370
    -2
100
AcDbLine
 10
1.951693374771025
 20
2.730431058140157
 30
0.0
 11
1.951693374771025
 21
2.910431058140157
 31
0.0
  0
LINE
  5
80F
330
4AD
100
AcDbEntity
  8
DIM
 62
     0
370
    -2
100
AcDbLine
 10
1.951693374771025
 20
2.214431058140157
 30
0.0
 11
1.951693374771025
 21
2.034431058140157
 31
0.0
  0
LINE
  5
810
330
4AD
100
AcDbEntity
  8
DIM
 62
     0
370
    -2
100
AcDbLine
 10
1.951693374771025
 20
2.034431058140157
 30
0.0
 11
1.771693374771025
 21
2.034431058140157
 31
0.0
  0
SOLID
  5
811
330
4AD
100
AcDbEntity
  8
DIM
 62
     0
100
AcDbTrace
 10
1.921693374771025
 20
2.730431058140157
 30
0.0
 11
1.981693374771025
 21
2.730431058140157
 31
0.0
 12
1.951693374771025
 22
2.550431058140157
 32
0.0
 13
1.951693374771025
 23
2.550431058140157
 33
0.0
  0
SOLID
  5
812
330
4AD
100
AcDbEntity
  8
DIM
 62
     0
100
AcDbTrace
 10
1.921693374771025
 20
2.214431058140157
 30
0.0
 11
1.981693374771025
 21
2.214431058140157
 31
0.0
 12
1.951693374771025
 22
2.394431058140157
 32
0.0
 13
1.951693374771025
 23
2.394431058140157
 33
0.0
  0
MTEXT
  5
813
330
4AD
100
AcDbEntity
  8
DIM
 62
     0
100
AcDbMText
 10
1.517630874771025
 20
2.034431058140158
 30
0.0
 40
0.125
 41
0.0
 71
     5
 72
     1
  1
\A1;0.156
  7
TXT
 73
     1
 44
1.0
  0
POINT
  5
814
330
4AD
100
AcDbEntity
  8
Defpoints
 62
     0
100
AcDbPoint
 10
2.22515621523221
 20
2.550431058140157
 30
0.0
  0
POINT
  5
815
330
4AD
100
AcDbEntity
  8
Defpoints
 62
     0
100
AcDbPoint
 10
2.233156215232209
 20
2.394431058140157
 30
0.0
  0
POINT
  5
816
330
4AD
100
AcDbEntity
  8
Defpoints
 62
     0
100
AcDbPoint
 10
1.951693374771025
 20
2.394431058140157
 30
0.0
  0
ENDBLK
  5
4BA
330
4AD
100
AcDbEntity
  8
0
100
AcDbBlockEnd
  0
BLOCK
  5
4C8
330
4BC
100
AcDbEntity
  8
0
100
AcDbBlockBegin
  2
*D18
 70
     1
 10
0.0
 20
0.0
 30
0.0
  3
*D18
  1

  0
LINE
  5
821
330
4BC
100
AcDbEntity
  8
DIM
 62
     0
370
    -2
100
AcDbLine
 10
3.59532958890866
 20
2.294431058140157
 30
0.0
 11
3.976198068712794
 21
2.294431058140157
 31
0.0
  0
LINE
  5
822
330
4BC
100
AcDbEntity
  8
DIM
 62
     0
370
    -2
100
AcDbLine
 10
3.608663546610509
 20
2.550431058140157
 30
0.0
 11
3.976198068712794
 21
2.550431058140157
 31
0.0
  0
LINE
  5
823
330
4BC
100
AcDbEntity
  8
DIM
 62
     0
370
    -2
100
AcDbLine
 10
3.883198068712794
 20
2.114431058140156
 30
0.0
 11
3.883198068712794
 21
1.934431058140157
 31
0.0
  0
LINE
  5
824
330
4BC
100
AcDbEntity
  8
DIM
 62
     0
370
    -2
100
AcDbLine
 10
3.883198068712794
 20
2.730431058140157
 30
0.0
 11
3.883198068712794
 21
2.910431058140157
 31
0.0
  0
SOLID
  5
825
330
4BC
100
AcDbEntity
  8
DIM
 62
     0
100
AcDbTrace
 10
3.853198068712794
 20
2.114431058140156
 30
0.0
 11
3.913198068712794
 21
2.114431058140156
 31
0.0
 12
3.883198068712794
 22
2.294431058140157
 32
0.0
 13
3.883198068712794
 23
2.294431058140157
 33
0.0
  0
SOLID
  5
826
330
4BC
100
AcDbEntity
  8
DIM
 62
     0
100
AcDbTrace
 10
3.853198068712794
 20
2.730431058140157
 30
0.0
 11
3.913198068712794
 21
2.730431058140157
 31
0.0
 12
3.883198068712794
 22
2.550431058140157
 32
0.0
 13
3.883198068712794
 23
2.550431058140157
 33
0.0
  0
MTEXT
  5
827
330
4BC
100
AcDbEntity
  8
DIM
 62
     0
100
AcDbMText
 10
3.883198068712793
 20
2.422431058140157
 30
0.0
 40
0.125
 41
0.0
 71
     5
 72
     1
  1
\A1;0.256
  7
TXT
 73
     1
 44
1.0
  0
POINT
  5
828
330
4BC
100
AcDbEntity
  8
Defpoints
 62
     0
100
AcDbPoint
 10
3.53232958890866
 20
2.294431058140157
 30
0.0
  0
POINT
  5
829
330
4BC
100
AcDbEntity
  8
Defpoints
 62
     0
100
AcDbPoint
 10
3.545663546610509
 20
2.550431058140157
 30
0.0
  0
POINT
  5
82A
330
4BC
100
AcDbEntity
  8
Defpoints
 62
     0
100
AcDbPoint
 10
3.883198068712794
 20
2.550431058140157
 30
0.0
  0
ENDBLK
  5
4C9
330
4BC
100
AcDbEntity
  8
0
100
AcDbBlockEnd
  0
BLOCK
  5
5D0
330
5C5
100
AcDbEntity
  8
0
100
AcDbBlockBegin
  2
*D19
 70
     1
 10
0.0
 20
0.0
 30
0.0
  3
*D19
  1

  0
LINE
  5
802
330
5C5
100
AcDbEntity
  8
DIM
 62
     0
370
    -2
100
AcDbLine
 10
1.68515621523221
 20
3.580361066451926
 30
0.0
 11
1.68515621523221
 21
3.037273696034031
 31
0.0
  0
LINE
  5
803
330
5C5
100
AcDbEntity
  8
DIM
 62
     0
370
    -2
100
AcDbLine
 10
3.104156215232211
 20
3.481361066451926
 30
0.0
 11
3.104156215232211
 21
3.037273696034031
 31
0.0
  0
LINE
  5
804
330
5C5
100
AcDbEntity
  8
DIM
 62
     0
370
    -2
100
AcDbLine
 10
1.86515621523221
 20
3.130273696034031
 30
0.0
 11
2.148406215232211
 21
3.130273696034031
 31
0.0
  0
LINE
  5
805
330
5C5
100
AcDbEntity
  8
DIM
 62
     0
370
    -2
100
AcDbLine
 10
2.924156215232211
 20
3.130273696034031
 30
0.0
 11
2.64090621523221
 21
3.130273696034031
 31
0.0
  0
SOLID
  5
806
330
5C5
100
AcDbEntity
  8
DIM
 62
     0
100
AcDbTrace
 10
1.86515621523221
 20
3.16027369603403
 30
0.0
 11
1.86515621523221
 21
3.100273696034031
 31
0.0
 12
1.68515621523221
 22
3.130273696034031
 32
0.0
 13
1.68515621523221
 23
3.130273696034031
 33
0.0
  0
SOLID
  5
807
330
5C5
100
AcDbEntity
  8
DIM
 62
     0
100
AcDbTrace
 10
2.924156215232211
 20
3.16027369603403
 30
0.0
 11
2.924156215232211
 21
3.100273696034031
 31
0.0
 12
3.104156215232211
 22
3.130273696034031
 32
0.0
 13
3.104156215232211
 23
3.130273696034031
 33
0.0
  0
MTEXT
  5
808
330
5C5
100
AcDbEntity
  8
DIM
 62
     0
100
AcDbMText
 10
2.394656215232211
 20
3.130273696034031
 30
0.0
 40
0.125
 41
0.0
 71
     5
 72
     1
  1
\A1;1.419
  7
TXT
 73
     1
 44
1.0
  0
POINT
  5
809
330
5C5
100
AcDbEntity
  8
Defpoints
 62
     0
100
AcDbPoint
 10
1.68515621523221
 20
3.643361066451927
 30
0.0
  0
POINT
  5
80A
330
5C5
100
AcDbEntity
  8
Defpoints
 62
     0
100
AcDbPoint
 10
3.104156215232211
 20
3.544361066451926
 30
0.0
  0
POINT
  5
80B
330
5C5
100
AcDbEntity
  8
Defpoints
 62
     0
100
AcDbPoint
 10
3.104156215232211
 20
3.130273696034031
 30
0.0
  0
ENDBLK
  5
5D1
330
5C5
100
AcDbEntity
  8
0
100
AcDbBlockEnd
  0
BLOCK
  5
5DE
330
5D3
100
AcDbEntity
  8
0
100
AcDbBlockBegin
  2
*D20
 70
     1
 10
0.0
 20
0.0
 30
0.0
  3
*D20
  1

  0
LINE
  5
817
330
5D3
100
AcDbEntity
  8
DIM
 62
     0
370
    -2
100
AcDbLine
 10
3.104156215232211
 20
3.481361066451926
 30
0.0
 11
3.104156215232211
 21
3.037273696034031
 31
0.0
  0
LINE
  5
818
330
5D3
100
AcDbEntity
  8
DIM
 62
     0
370
    -2
100
AcDbLine
 10
3.548156215232209
 20
3.481361066451926
 30
0.0
 11
3.548156215232209
 21
3.037273696034031
 31
0.0
  0
LINE
  5
819
330
5D3
100
AcDbEntity
  8
DIM
 62
     0
370
    -2
100
AcDbLine
 10
2.924156215232211
 20
3.130273696034031
 30
0.0
 11
2.744156215232211
 21
3.130273696034031
 31
0.0
  0
LINE
  5
81A
330
5D3
100
AcDbEntity
  8
DIM
 62
     0
370
    -2
100
AcDbLine
 10
3.72815621523221
 20
3.130273696034031
 30
0.0
 11
3.908156215232209
 21
3.130273696034031
 31
0.0
  0
SOLID
  5
81B
330
5D3
100
AcDbEntity
  8
DIM
 62
     0
100
AcDbTrace
 10
2.924156215232211
 20
3.16027369603403
 30
0.0
 11
2.924156215232211
 21
3.100273696034031
 31
0.0
 12
3.104156215232211
 22
3.130273696034031
 32
0.0
 13
3.104156215232211
 23
3.130273696034031
 33
0.0
  0
SOLID
  5
81C
330
5D3
100
AcDbEntity
  8
DIM
 62
     0
100
AcDbTrace
 10
3.72815621523221
 20
3.16027369603403
 30
0.0
 11
3.72815621523221
 21
3.100273696034031
 31
0.0
 12
3.548156215232209
 22
3.130273696034031
 32
0.0
 13
3.548156215232209
 23
3.130273696034031
 33
0.0
  0
MTEXT
  5
81D
330
5D3
100
AcDbEntity
  8
DIM
 62
     0
100
AcDbMText
 10
4.177843715232209
 20
3.130273696034031
 30
0.0
 40
0.125
 41
0.0
 71
     5
 72
     1
  1
\A1;0.444
  7
TXT
 73
     1
 44
1.0
  0
POINT
  5
81E
330
5D3
100
AcDbEntity
  8
Defpoints
 62
     0
100
AcDbPoint
 10
3.104156215232211
 20
3.544361066451926
 30
0.0
  0
POINT
  5
81F
330
5D3
100
AcDbEntity
  8
Defpoints
 62
     0
100
AcDbPoint
 10
3.548156215232209
 20
3.544361066451926
 30
0.0
  0
POINT
  5
820
330
5D3
100
AcDbEntity
  8
Defpoints
 62
     0
100
AcDbPoint
 10
3.548156215232209
 20
3.130273696034031
 30
0.0
  0
ENDBLK
  5
5DF
330
5D3
100
AcDbEntity
  8
0
100
AcDbBlockEnd
  0
BLOCK
  5
5EE
330
5E2
100
AcDbEntity
  8
0
100
AcDbBlockBegin
  2
*D21
 70
     1
 10
0.0
 20
0.0
 30
0.0
  3
*D21
  1

  0
LINE
  5
7F7
330
5E2
100
AcDbEntity
  8
DIM
 62
     0
370
    -2
100
AcDbLine
 10
3.61115621523221
 20
3.544361066451926
 30
0.0
 11
3.891640348166166
 21
3.544361066451926
 31
0.0
  0
LINE
  5
7F8
330
5E2
100
AcDbEntity
  8
DIM
 62
     0
370
    -2
100
AcDbLine
 10
3.61115621523221
 20
3.643361066451927
 30
0.0
 11
3.891640348166166
 21
3.643361066451927
 31
0.0
  0
LINE
  5
7F9
330
5E2
100
AcDbEntity
  8
DIM
 62
     0
370
    -2
100
AcDbLine
 10
3.798640348166166
 20
3.364361066451926
 30
0.0
 11
3.798640348166166
 21
3.184361066451927
 31
0.0
  0
LINE
  5
7FA
330
5E2
100
AcDbEntity
  8
DIM
 62
     0
370
    -2
100
AcDbLine
 10
3.798640348166166
 20
3.823361066451927
 30
0.0
 11
3.798640348166166
 21
4.003361066451927
 31
0.0
  0
LINE
  5
7FB
330
5E2
100
AcDbEntity
  8
DIM
 62
     0
370
    -2
100
AcDbLine
 10
3.798640348166166
 20
4.003361066451927
 30
0.0
 11
3.978640348166166
 21
4.003361066451927
 31
0.0
  0
SOLID
  5
7FC
330
5E2
100
AcDbEntity
  8
DIM
 62
     0
100
AcDbTrace
 10
3.768640348166166
 20
3.364361066451926
 30
0.0
 11
3.828640348166166
 21
3.364361066451926
 31
0.0
 12
3.798640348166166
 22
3.544361066451926
 32
0.0
 13
3.798640348166166
 23
3.544361066451926
 33
0.0
  0
SOLID
  5
7FD
330
5E2
100
AcDbEntity
  8
DIM
 62
     0
100
AcDbTrace
 10
3.768640348166166
 20
3.823361066451927
 30
0.0
 11
3.828640348166166
 21
3.823361066451927
 31
0.0
 12
3.798640348166166
 22
3.643361066451927
 32
0.0
 13
3.798640348166166
 23
3.643361066451927
 33
0.0
  0
MTEXT
  5
7FE
330
5E2
100
AcDbEntity
  8
DIM
 62
     0
100
AcDbMText
 10
4.240515348166165
 20
4.003361066451928
 30
0.0
 40
0.125
 41
0.0
 71
     5
 72
     1
  1
\A1;0.099
  7
TXT
 73
     1
 44
1.0
  0
POINT
  5
7FF
330
5E2
100
AcDbEntity
  8
Defpoints
 62
     0
100
AcDbPoint
 10
3.548156215232209
 20
3.544361066451926
 30
0.0
  0
POINT
  5
800
330
5E2
100
AcDbEntity
  8
Defpoints
 62
     0
100
AcDbPoint
 10
3.548156215232209
 20
3.643361066451927
 30
0.0
  0
POINT
  5
801
330
5E2
100
AcDbEntity
  8
Defpoints
 62
     0
100
AcDbPoint
 10
3.798640348166166
 20
3.643361066451927
 30
0.0
  0
ENDBLK
  5
5EF
330
5E2
100
AcDbEntity
  8
0
100
AcDbBlockEnd
  0
BLOCK
  5
610
330
605
100
AcDbEntity
  8
0
100
AcDbBlockBegin
  2
*D22
 70
     1
 10
0.0
 20
0.0
 30
0.0
  3
*D22
  1

  0
LINE
  5
840
330
605
100
AcDbEntity
  8
DIM
 62
     0
370
    -2
100
AcDbLine
 10
2.342156215232209
 20
6.194361066451926
 30
0.0
 11
2.342156215232209
 21
6.420296102433166
 31
0.0
  0
LINE
  5
841
330
605
100
AcDbEntity
  8
DIM
 62
     0
370
    -2
100
AcDbLine
 10
1.68515621523221
 20
6.194361066451926
 30
0.0
 11
1.68515621523221
 21
6.420296102433166
 31
0.0
  0
LINE
  5
842
330
605
100
AcDbEntity
  8
DIM
 62
     0
370
    -2
100
AcDbLine
 10
2.52215621523221
 20
6.327296102433166
 30
0.0
 11
2.702156215232209
 21
6.327296102433166
 31
0.0
  0
LINE
  5
843
330
605
100
AcDbEntity
  8
DIM
 62
     0
370
    -2
100
AcDbLine
 10
1.50515621523221
 20
6.327296102433166
 30
0.0
 11
1.32515621523221
 21
6.327296102433166
 31
0.0
  0
SOLID
  5
844
330
605
100
AcDbEntity
  8
DIM
 62
     0
100
AcDbTrace
 10
2.52215621523221
 20
6.357296102433166
 30
0.0
 11
2.52215621523221
 21
6.297296102433166
 31
0.0
 12
2.342156215232209
 22
6.327296102433166
 32
0.0
 13
2.342156215232209
 23
6.327296102433166
 33
0.0
  0
SOLID
  5
845
330
605
100
AcDbEntity
  8
DIM
 62
     0
100
AcDbTrace
 10
1.50515621523221
 20
6.357296102433166
 30
0.0
 11
1.50515621523221
 21
6.297296102433166
 31
0.0
 12
1.68515621523221
 22
6.327296102433166
 32
0.0
 13
1.68515621523221
 23
6.327296102433166
 33
0.0
  0
MTEXT
  5
846
330
605
100
AcDbEntity
  8
DIM
 62
     0
100
AcDbMText
 10
2.013656215232209
 20
6.327296102433166
 30
0.0
 40
0.125
 41
0.0
 71
     5
 72
     1
  1
\A1;0.657
  7
TXT
 73
     1
 44
1.0
  0
POINT
  5
847
330
605
100
AcDbEntity
  8
Defpoints
 62
     0
100
AcDbPoint
 10
2.342156215232209
 20
6.131361066451926
 30
0.0
  0
POINT
  5
848
330
605
100
AcDbEntity
  8
Defpoints
 62
     0
100
AcDbPoint
 10
1.68515621523221
 20
6.131361066451926
 30
0.0
  0
POINT
  5
849
330
605
100
AcDbEntity
  8
Defpoints
 62
     0
100
AcDbPoint
 10
1.68515621523221
 20
6.327296102433166
 30
0.0
  0
ENDBLK
  5
611
330
605
100
AcDbEntity
  8
0
100
AcDbBlockEnd
  0
BLOCK
  5
628
330
61D
100
AcDbEntity
  8
0
100
AcDbBlockBegin
  2
*D23
 70
     1
 10
0.0
 20
0.0
 30
0.0
  3
*D23
  1

  0
LINE
  5
84A
330
61D
100
AcDbEntity
  8
DIM
 62
     0
370
    -2
100
AcDbLine
 10
4.310156215232209
 20
6.194361066451926
 30
0.0
 11
4.310156215232209
 21
6.420296102433166
 31
0.0
  0
LINE
  5
84B
330
61D
100
AcDbEntity
  8
DIM
 62
     0
370
    -2
100
AcDbLine
 10
4.967156215232209
 20
6.194361066451926
 30
0.0
 11
4.967156215232209
 21
6.420296102433166
 31
0.0
  0
LINE
  5
84C
330
61D
100
AcDbEntity
  8
DIM
 62
     0
370
    -2
100
AcDbLine
 10
4.13015621523221
 20
6.327296102433166
 30
0.0
 11
3.95015621523221
 21
6.327296102433166
 31
0.0
  0
LINE
  5
84D
330
61D
100
AcDbEntity
  8
DIM
 62
     0
370
    -2
100
AcDbLine
 10
5.147156215232209
 20
6.327296102433166
 30
0.0
 11
5.32715621523221
 21
6.327296102433166
 31
0.0
  0
SOLID
  5
84E
330
61D
100
AcDbEntity
  8
DIM
 62
     0
100
AcDbTrace
 10
4.13015621523221
 20
6.357296102433166
 30
0.0
 11
4.13015621523221
 21
6.297296102433166
 31
0.0
 12
4.310156215232209
 22
6.327296102433166
 32
0.0
 13
4.310156215232209
 23
6.327296102433166
 33
0.0
  0
SOLID
  5
84F
330
61D
100
AcDbEntity
  8
DIM
 62
     0
100
AcDbTrace
 10
5.147156215232209
 20
6.357296102433166
 30
0.0
 11
5.147156215232209
 21
6.297296102433166
 31
0.0
 12
4.967156215232209
 22
6.327296102433166
 32
0.0
 13
4.967156215232209
 23
6.327296102433166
 33
0.0
  0
MTEXT
  5
850
330
61D
100
AcDbEntity
  8
DIM
 62
     0
100
AcDbMText
 10
4.638656215232209
 20
6.327296102433166
 30
0.0
 40
0.125
 41
0.0
 71
     5
 72
     1
  1
\A1;0.657
  7
TXT
 73
     1
 44
1.0
  0
POINT
  5
851
330
61D
100
AcDbEntity
  8
Defpoints
 62
     0
100
AcDbPoint
 10
4.310156215232209
 20
6.131361066451926
 30
0.0
  0
POINT
  5
852
330
61D
100
AcDbEntity
  8
Defpoints
 62
     0
100
AcDbPoint
 10
4.967156215232209
 20
6.131361066451926
 30
0.0
  0
POINT
  5
853
330
61D
100
AcDbEntity
  8
Defpoints
 62
     0
100
AcDbPoint
 10
4.967156215232209
 20
6.327296102433166
 30
0.0
  0
ENDBLK
  5
629
330
61D
100
AcDbEntity
  8
0
100
AcDbBlockEnd
  0
BLOCK
  5
641
330
635
100
AcDbEntity
  8
0
100
AcDbBlockBegin
  2
*D24
 70
     1
 10
0.0
 20
0.0
 30
0.0
  3
*D24
  1

  0
LINE
  5
82B
330
635
100
AcDbEntity
  8
DIM
 62
     0
370
    -2
100
AcDbLine
 10
5.030156215232209
 20
2.550431058140156
 30
0.0
 11
5.313798690407391
 21
2.550431058140156
 31
0.0
  0
LINE
  5
82C
330
635
100
AcDbEntity
  8
DIM
 62
     0
370
    -2
100
AcDbLine
 10
5.030156215232209
 20
2.635431058140156
 30
0.0
 11
5.313798690407391
 21
2.635431058140156
 31
0.0
  0
LINE
  5
82D
330
635
100
AcDbEntity
  8
DIM
 62
     0
370
    -2
100
AcDbLine
 10
5.220798690407391
 20
2.370431058140156
 30
0.0
 11
5.220798690407391
 21
2.190431058140156
 31
0.0
  0
LINE
  5
82E
330
635
100
AcDbEntity
  8
DIM
 62
     0
370
    -2
100
AcDbLine
 10
5.220798690407391
 20
2.815431058140156
 30
0.0
 11
5.220798690407391
 21
2.995431058140156
 31
0.0
  0
LINE
  5
82F
330
635
100
AcDbEntity
  8
DIM
 62
     0
370
    -2
100
AcDbLine
 10
5.220798690407391
 20
2.995431058140156
 30
0.0
 11
5.400798690407391
 21
2.995431058140156
 31
0.0
  0
SOLID
  5
830
330
635
100
AcDbEntity
  8
DIM
 62
     0
100
AcDbTrace
 10
5.190798690407391
 20
2.370431058140156
 30
0.0
 11
5.250798690407392
 21
2.370431058140156
 31
0.0
 12
5.220798690407391
 22
2.550431058140156
 32
0.0
 13
5.220798690407391
 23
2.550431058140156
 33
0.0
  0
SOLID
  5
831
330
635
100
AcDbEntity
  8
DIM
 62
     0
100
AcDbTrace
 10
5.190798690407391
 20
2.815431058140156
 30
0.0
 11
5.250798690407392
 21
2.815431058140156
 31
0.0
 12
5.220798690407391
 22
2.635431058140156
 32
0.0
 13
5.220798690407391
 23
2.635431058140156
 33
0.0
  0
MTEXT
  5
832
330
635
100
AcDbEntity
  8
DIM
 62
     0
100
AcDbMText
 10
5.66267369040739
 20
2.995431058140157
 30
0.0
 40
0.125
 41
0.0
 71
     5
 72
     1
  1
\A1;0.085
  7
TXT
 73
     1
 44
1.0
  0
POINT
  5
833
330
635
100
AcDbEntity
  8
Defpoints
 62
     0
100
AcDbPoint
 10
4.967156215232209
 20
2.550431058140157
 30
0.0
  0
POINT
  5
834
330
635
100
AcDbEntity
  8
Defpoints
 62
     0
100
AcDbPoint
 10
4.967156215232209
 20
2.635431058140157
 30
0.0
  0
POINT
  5
835
330
635
100
AcDbEntity
  8
Defpoints
 62
     0
100
AcDbPoint
 10
5.220798690407391
 20
2.635431058140156
 30
0.0
  0
ENDBLK
  5
642
330
635
100
AcDbEntity
  8
0
100
AcDbBlockEnd
  0
BLOCK
  5
659
330
64E
100
AcDbEntity
  8
0
100
AcDbBlockBegin
  2
*D25
 70
     1
 10
0.0
 20
0.0
 30
0.0
  3
*D25
  1

  0
LINE
  5
8DB
330
64E
100
AcDbEntity
  8
DIM
 62
     0
370
    -2
100
AcDbLine
 10
8.270520658339311
 20
4.951361066451926
 30
0.0
 11
8.270520658339311
 21
7.172252722607055
 31
0.0
  0
LINE
  5
8DC
330
64E
100
AcDbEntity
  8
DIM
 62
     0
370
    -2
100
AcDbLine
 10
8.032520658339311
 20
5.209361066451925
 30
0.0
 11
8.032520658339311
 21
7.172252722607055
 31
0.0
  0
LINE
  5
8DD
330
64E
100
AcDbEntity
  8
DIM
 62
     0
370
    -2
100
AcDbLine
 10
8.450520658339311
 20
7.079252722607055
 30
0.0
 11
8.63052065833931
 21
7.079252722607055
 31
0.0
  0
LINE
  5
8DE
330
64E
100
AcDbEntity
  8
DIM
 62
     0
370
    -2
100
AcDbLine
 10
7.852520658339312
 20
7.079252722607055
 30
0.0
 11
7.672520658339311
 21
7.079252722607055
 31
0.0
  0
SOLID
  5
8DF
330
64E
100
AcDbEntity
  8
DIM
 62
     0
100
AcDbTrace
 10
8.450520658339311
 20
7.109252722607055
 30
0.0
 11
8.450520658339311
 21
7.049252722607055
 31
0.0
 12
8.270520658339311
 22
7.079252722607055
 32
0.0
 13
8.270520658339311
 23
7.079252722607055
 33
0.0
  0
SOLID
  5
8E0
330
64E
100
AcDbEntity
  8
DIM
 62
     0
100
AcDbTrace
 10
7.852520658339312
 20
7.109252722607055
 30
0.0
 11
7.852520658339312
 21
7.049252722607055
 31
0.0
 12
8.032520658339311
 22
7.079252722607055
 32
0.0
 13
8.032520658339311
 23
7.079252722607055
 33
0.0
  0
MTEXT
  5
8E1
330
64E
100
AcDbEntity
  8
DIM
 62
     0
100
AcDbMText
 10
7.402833158339311
 20
7.079252722607055
 30
0.0
 40
0.125
 41
0.0
 71
     5
 72
     1
  1
\A1;0.238
  7
TXT
 73
     1
 44
1.0
  0
POINT
  5
8E2
330
64E
100
AcDbEntity
  8
Defpoints
 62
     0
100
AcDbPoint
 10
8.270520658339311
 20
4.888361066451926
 30
0.0
  0
POINT
  5
8E3
330
64E
100
AcDbEntity
  8
Defpoints
 62
     0
100
AcDbPoint
 10
8.032520658339311
 20
5.146361066451925
 30
0.0
  0
POINT
  5
8E4
330
64E
100
AcDbEntity
  8
Defpoints
 62
     0
100
AcDbPoint
 10
8.032520658339311
 20
7.079252722607055
 30
0.0
  0
ENDBLK
  5
65A
330
64E
100
AcDbEntity
  8
0
100
AcDbBlockEnd
  0
BLOCK
  5
7A5
330
796
100
AcDbEntity
  8
0
100
AcDbBlockBegin
  2
*D26
 70
     1
 10
0.0
 20
0.0
 30
0.0
  3
*D26
  1

  0
LINE
  5
87C
330
796
100
AcDbEntity
  8
DIM
 62
     0
370
    -2
100
AcDbLine
 10
8.394520658339311
 20
2.287132909596425
 30
0.0
 11
8.39452065833931
 21
0.413519162193791
 31
0.0
  0
LINE
  5
87D
330
796
100
AcDbEntity
  8
DIM
 62
     0
370
    -2
100
AcDbLine
 10
8.405760843119386
 20
1.347433456987114
 30
0.0
 11
8.413910251373547
 21
0.41360376579047
 31
0.0
  0
ARC
  5
87E
330
796
100
AcDbEntity
  8
DIM
 62
     0
370
    -2
100
AcDbCircle
 10
8.39452065833931
 20
2.635431058140157
 30
0.0
 40
2.128911895946366
100
AcDbArc
 50
260.2996757990307
 51
270.0
  0
LINE
  5
87F
330
796
100
AcDbEntity
  8
DIM
 62
     0
370
    -2
100
AcDbLine
 10
8.035809739886621
 20
0.5369572466083623
 30
0.0
 11
7.855809739886622
 21
0.5369572466083623
 31
0.0
  0
ARC
  5
880
330
796
100
AcDbEntity
  8
DIM
 62
     0
370
    -2
100
AcDbCircle
 10
8.39452065833931
 20
2.635431058140158
 30
0.0
 40
2.128911895946366
100
AcDbArc
 50
260.3083685606278
 51
265.1541842803139
  0
ARC
  5
881
330
796
100
AcDbEntity
  8
DIM
 62
     0
370
    -2
100
AcDbCircle
 10
8.39452065833931
 20
2.635431058140158
 30
0.0
 40
2.128911895946366
100
AcDbArc
 50
275.345815719686
 51
280.1916314393721
  0
SOLID
  5
882
330
796
100
AcDbEntity
  8
DIM
 62
     0
100
AcDbTrace
 10
8.215949830485007
 20
0.5441018635260303
 30
0.0
 11
8.213413323450462
 21
0.4841555030688375
 31
0.0
 12
8.394520658339313
 22
0.506519162193791
 32
0.0
 13
8.394520658339313
 23
0.506519162193791
 33
0.0
  0
SOLID
  5
883
330
796
100
AcDbEntity
  8
DIM
 62
     0
100
AcDbTrace
 10
8.59439427971391
 20
0.4858178566370214
 30
0.0
 11
8.591334745219249
 21
0.545739799601815
 31
0.0
 12
8.413098683572199
 22
0.5066002246354381
 32
0.0
 13
8.413098683572199
 23
0.5066002246354381
 33
0.0
  0
MTEXT
  5
884
330
796
100
AcDbEntity
  8
DIM
 62
     0
100
AcDbMText
 10
7.515809739886622
 20
0.5369572466083623
 30
0.0
 40
0.125
 41
0.0
 71
     5
 72
     1
  1
\A1;1° TYP.
  7
TXT
 73
     1
 44
1.0
  0
POINT
  5
885
330
796
100
AcDbEntity
  8
Defpoints
 62
     0
100
AcDbPoint
 10
8.406906095828377
 20
0.5065551900726569
 30
0.0
  0
POINT
  5
886
330
796
100
AcDbEntity
  8
Defpoints
 62
     0
100
AcDbPoint
 10
8.39452065833931
 20
2.635431058140157
 30
0.0
  0
POINT
  5
887
330
796
100
AcDbEntity
  8
Defpoints
 62
     0
100
AcDbPoint
 10
8.39452065833931
 20
2.635431058140157
 30
0.0
  0
POINT
  5
888
330
796
100
AcDbEntity
  8
Defpoints
 62
     0
100
AcDbPoint
 10
8.394520658339311
 20
2.350132909596425
 30
0.0
  0
POINT
  5
889
330
796
100
AcDbEntity
  8
Defpoints
 62
     0
100
AcDbPoint
 10
8.405211071382991
 20
1.410431058140157
 30
0.0
  0
ENDBLK
  5
7A6
330
796
100
AcDbEntity
  8
0
100
AcDbBlockEnd
  0
ENDSEC
  0
SECTION
  2
ENTITIES
  0
LINE
  5
78
330
1F
100
AcDbEntity
  8
CENTER
100
AcDbLine
 10
10.04252065833931
 20
4.888361066451926
 30
0.0
 11
10.2225206583393
 21
4.888361066451926
 31
0.0
  0
LINE
  5
79
330
1F
100
AcDbEntity
  8
CENTER
100
AcDbLine
 10
10.13252065833931
 20
4.798361066451926
 30
0.0
 11
10.13252065833931
 21
4.978361066451926
 31
0.0
  0
CIRCLE
  5
7E
330
1F
100
AcDbEntity
  8
OBJECT
100
AcDbCircle
 10
8.270520658339311
 20
4.888361066451926
 30
0.0
 40
0.0975
  0
LINE
  5
8A
330
1F
100
AcDbEntity
  8
HIDDEN
  6
HIDDEN2
100
AcDbLine
 10
8.094520658339311
 20
5.118361066451925
 30
0.0
 11
8.39452065833931
 21
5.118361066451926
 31
0.0
  0
LINE
  5
8B
330
1F
100
AcDbEntity
  8
HIDDEN
  6
HIDDEN2
100
AcDbLine
 10
8.094520658339311
 20
4.658361066451925
 30
0.0
 11
8.39452065833931
 21
4.658361066451925
 31
0.0
  0
LINE
  5
8C
330
1F
100
AcDbEntity
  8
HIDDEN
100
AcDbLine
 10
8.39452065833931
 20
5.193361066451926
 30
0.0
 11
8.39452065833931
 21
4.583361066451925
 31
0.0
  0
LINE
  5
8F
330
1F
100
AcDbEntity
  8
HIDDEN
  6
HIDDEN2
100
AcDbLine
 10
8.094520658339311
 20
5.118361066451925
 30
0.0
 11
8.094520658339309
 21
5.208361066451925
 31
0.0
  0
LINE
  5
90
330
1F
100
AcDbEntity
  8
HIDDEN
  6
HIDDEN2
100
AcDbLine
 10
8.094520658339311
 20
4.658361066451925
 30
0.0
 11
8.094520658339311
 21
4.568361066451926
 31
0.0
  0
LINE
  5
91
330
1F
100
AcDbEntity
  8
HIDDEN
100
AcDbLine
 10
11.87052065833931
 20
5.193361066451926
 30
0.0
 11
11.87052065833931
 21
4.583361066451925
 31
0.0
  0
CIRCLE
  5
93
330
1F
100
AcDbEntity
  8
OBJECT
100
AcDbCircle
 10
11.99452065833931
 20
4.888361066451926
 30
0.0
 40
0.0975
  0
LINE
  5
94
330
1F
100
AcDbEntity
  8
HIDDEN
  6
HIDDEN2
100
AcDbLine
 10
12.1705206583393
 20
4.658361066451925
 30
0.0
 11
11.87052065833931
 21
4.658361066451925
 31
0.0
  0
LINE
  5
96
330
1F
100
AcDbEntity
  8
HIDDEN
  6
HIDDEN2
100
AcDbLine
 10
12.1705206583393
 20
4.658361066451925
 30
0.0
 11
12.1705206583393
 21
4.568361066451926
 31
0.0
  0
LINE
  5
98
330
1F
100
AcDbEntity
  8
HIDDEN
  6
HIDDEN2
100
AcDbLine
 10
12.1705206583393
 20
5.118361066451925
 30
0.0
 11
11.87052065833931
 21
5.118361066451926
 31
0.0
  0
LINE
  5
9B
330
1F
100
AcDbEntity
  8
HIDDEN
  6
HIDDEN2
100
AcDbLine
 10
12.1705206583393
 20
5.118361066451925
 30
0.0
 11
12.1705206583393
 21
5.208361066451925
 31
0.0
  0
LWPOLYLINE
  5
9C
330
1F
100
AcDbEntity
  8
OBJECT
100
AcDbPolyline
 90
       20
 70
     1
 43
0.0
 10
11.87052065833931
 20
4.568361066451926
 10
12.1705206583393
 20
4.568361066451926
 42
0.4142135623730948
 10
12.23252065833931
 20
4.630361066451926
 10
12.23252065833931
 20
5.146361066451925
 42
0.4142135623730946
 10
12.1705206583393
 20
5.208361066451925
 10
11.87052065833931
 20
5.208361066451925
 10
11.87052065833931
 20
6.139361066451925
 42
0.4142135623730951
 10
11.77752065833931
 20
6.232361066451925
 10
8.48752065833931
 20
6.232361066451924
 42
0.4142135623730951
 10
8.39452065833931
 20
6.139361066451924
 10
8.39452065833931
 20
5.208361066451926
 10
8.094520658339309
 20
5.208361066451925
 42
0.4142135623730946
 10
8.032520658339311
 20
5.146361066451925
 10
8.032520658339311
 20
4.630361066451926
 42
0.4142135623730948
 10
8.094520658339311
 20
4.568361066451926
 10
8.39452065833931
 20
4.568361066451926
 10
8.39452065833931
 20
3.637361066451926
 42
0.4142135623730951
 10
8.48752065833931
 20
3.544361066451926
 10
11.7775206583393
 20
3.544361066451926
 42
0.4142135623730951
 10
11.8705206583393
 20
3.637361066451926
  0
LINE
  5
AA
330
1F
100
AcDbEntity
  8
OBJECT
100
AcDbLine
 10
8.03252065833931
 20
2.635431058140157
 30
0.0
 11
8.032520658339311
 21
2.535431058140156
 31
0.0
  0
LINE
  5
AC
330
1F
100
AcDbEntity
  8
OBJECT
100
AcDbLine
 10
8.094520658339311
 20
2.535431058140156
 30
0.0
 11
8.396527837931184
 21
2.405431058140157
 31
0.0
  0
LINE
  5
AE
330
1F
100
AcDbEntity
  8
HIDDEN
100
AcDbLine
 10
8.395393345118385
 20
2.535431058140156
 30
0.0
 11
8.132882529202117
 21
2.535431058140156
 31
0.0
  0
LINE
  5
B1
330
1F
100
AcDbEntity
  8
OBJECT
100
AcDbLine
 10
8.094520658339311
 20
2.535431058140156
 30
0.0
 11
8.032520658339311
 21
2.535431058140156
 31
0.0
  0
LINE
  5
B6
330
1F
100
AcDbEntity
  8
HIDDEN
100
AcDbLine
 10
11.86964797156023
 20
2.535431058140156
 30
0.0
 11
12.1321587874765
 21
2.535431058140156
 31
0.0
  0
LINE
  5
B7
330
1F
100
AcDbEntity
  8
OBJECT
100
AcDbLine
 10
12.1705206583393
 20
2.535431058140156
 30
0.0
 11
11.86851347874743
 21
2.405431058140157
 31
0.0
  0
LINE
  5
B9
330
1F
100
AcDbEntity
  8
OBJECT
100
AcDbLine
 10
12.1705206583393
 20
2.535431058140156
 30
0.0
 11
12.23252065833931
 21
2.535431058140156
 31
0.0
  0
LINE
  5
BA
330
1F
100
AcDbEntity
  8
OBJECT
100
AcDbLine
 10
12.23252065833931
 20
2.635431058140157
 30
0.0
 11
12.23252065833931
 21
2.535431058140156
 31
0.0
  0
LINE
  5
C5
330
1F
100
AcDbEntity
  8
OBJECT
100
AcDbLine
 10
8.467211071382989
 20
1.348431058140157
 30
0.0
 11
8.405211071382989
 21
1.410431058140156
 31
0.0
  0
LINE
  5
C8
330
1F
100
AcDbEntity
  8
OBJECT
100
AcDbLine
 10
8.405211071382989
 20
1.410431058140156
 30
0.0
 11
11.85983024529563
 21
1.410431058140156
 31
0.0
  0
LINE
  5
CD
330
1F
100
AcDbEntity
  8
OBJECT
100
AcDbLine
 10
11.79783024529563
 20
1.348431058140157
 30
0.0
 11
11.85983024529563
 21
1.410431058140156
 31
0.0
  0
LWPOLYLINE
  5
CE
330
1F
100
AcDbEntity
  8
OBJECT
100
AcDbPolyline
 90
        2
 70
     0
 43
0.0
 10
8.46721107138299
 20
1.348431058140157
 10
11.79783024529563
 20
1.348431058140157
  0
LINE
  5
D2
330
1F
100
AcDbEntity
  8
HIDDEN
100
AcDbLine
 10
11.7715206583393
 20
2.550431058140157
 30
0.0
 11
8.49352065833931
 21
2.550431058140157
 31
0.0
  0
LWPOLYLINE
  5
DD
330
1F
100
AcDbEntity
  8
OBJECT
100
AcDbPolyline
 90
       24
 70
     1
 43
0.0
 10
3.104156215232211
 20
3.544361066451926
 10
3.548156215232209
 20
3.544361066451926
 10
3.548156215232209
 20
3.643361066451927
 10
4.193156215232209
 20
3.643361066451927
 10
4.193156215232209
 20
3.703361066451926
 10
4.427156215232209
 20
3.703361066451926
 10
4.427156215232209
 20
3.643361066451927
 10
4.967156215232209
 20
3.643361066451927
 10
4.967156215232209
 20
6.133361066451925
 10
4.427156215232209
 20
6.133361066451925
 10
4.427156215232209
 20
6.073361066451926
 10
4.193156215232209
 20
6.073361066451926
 10
4.193156215232209
 20
6.133361066451925
 10
2.45915621523221
 20
6.133361066451925
 10
2.45915621523221
 20
6.073361066451926
 10
2.22515621523221
 20
6.073361066451926
 10
2.22515621523221
 20
6.133361066451925
 10
1.68515621523221
 20
6.133361066451925
 10
1.68515621523221
 20
3.643361066451927
 10
2.22515621523221
 20
3.643361066451927
 10
2.22515621523221
 20
3.703361066451926
 10
2.45915621523221
 20
3.703361066451926
 10
2.45915621523221
 20
3.643361066451927
 10
3.104156215232209
 20
3.643361066451927
  0
LWPOLYLINE
  5
120
330
1F
100
AcDbEntity
  8
OBJECT
100
AcDbPolyline
 90
        6
 70
     0
 43
0.0
 10
10.36452065833931
 20
3.643361066451927
 10
11.77152065833931
 20
3.643361066451927
 10
11.77152065833931
 20
6.133361066451925
 10
8.49352065833931
 20
6.133361066451925
 10
8.49352065833931
 20
3.643361066451927
 10
9.900520658339308
 20
3.643361066451927
  0
LINE
  5
12B
330
1F
100
AcDbEntity
  8
HIDDEN
  6
HIDDEN2
100
AcDbLine
 10
2.233156215232209
 20
3.703361066451926
 30
0.0
 11
2.233156215232209
 21
3.645361066451926
 31
0.0
  0
LINE
  5
12C
330
1F
100
AcDbEntity
  8
HIDDEN
  6
HIDDEN2
100
AcDbLine
 10
2.451156215232209
 20
3.703361066451926
 30
0.0
 11
2.451156215232209
 21
3.645361066451926
 31
0.0
  0
LINE
  5
134
330
1F
100
AcDbEntity
  8
OBJECT
100
AcDbLine
 10
2.22515621523221
 20
2.635431058140157
 30
0.0
 11
2.22515621523221
 21
2.550431058140157
 31
0.0
  0
LINE
  5
135
330
1F
100
AcDbEntity
  8
OBJECT
100
AcDbLine
 10
2.233156215232209
 20
2.394431058140157
 30
0.0
 11
2.451156215232209
 21
2.394431058140157
 31
0.0
  0
LINE
  5
137
330
1F
100
AcDbEntity
  8
OBJECT
100
AcDbLine
 10
2.45915621523221
 20
2.635431058140157
 30
0.0
 11
2.45915621523221
 21
2.550431058140157
 31
0.0
  0
LINE
  5
138
330
1F
100
AcDbEntity
  8
OBJECT
100
AcDbLine
 10
2.22515621523221
 20
2.550431058140157
 30
0.0
 11
2.233156215232209
 21
2.394431058140157
 31
0.0
  0
LINE
  5
13A
330
1F
100
AcDbEntity
  8
OBJECT
100
AcDbLine
 10
2.459156215232209
 20
2.550431058140157
 30
0.0
 11
2.451156215232209
 21
2.394431058140157
 31
0.0
  0
LINE
  5
13B
330
1F
100
AcDbEntity
  8
OBJECT
100
AcDbLine
 10
1.685156215232209
 20
2.550431058140157
 30
0.0
 11
2.22515621523221
 21
2.550431058140157
 31
0.0
  0
LINE
  5
151
330
1F
100
AcDbEntity
  8
OBJECT
100
AcDbLine
 10
1.685156215232209
 20
2.635431058140157
 30
0.0
 11
4.967156215232209
 21
2.635431058140157
 31
0.0
  0
LINE
  5
154
330
1F
100
AcDbEntity
  8
OBJECT
100
AcDbLine
 10
2.229207497283493
 20
2.471431058140157
 30
0.0
 11
2.455104933180928
 21
2.471431058140157
 31
0.0
  0
LINE
  5
159
330
1F
100
AcDbEntity
  8
OBJECT
100
AcDbLine
 10
5.653941181228125
 20
3.643361066451927
 30
0.0
 11
5.738941181228126
 21
3.643361066451927
 31
0.0
  0
LINE
  5
16D
330
1F
100
AcDbEntity
  8
OBJECT
100
AcDbLine
 10
5.653941181228125
 20
3.544361066451926
 30
0.0
 11
5.653941181228125
 21
6.133361066451925
 31
0.0
  0
LINE
  5
16F
330
1F
100
AcDbEntity
  8
OBJECT
100
AcDbLine
 10
5.738941181228126
 20
3.544361066451926
 30
0.0
 11
5.738941181228124
 21
6.133361066451925
 31
0.0
  0
LINE
  5
171
330
1F
100
AcDbEntity
  8
HIDDEN
  6
HIDDEN2
100
AcDbLine
 10
5.738941181228126
 20
3.701361066451927
 30
0.0
 11
5.653941181228127
 21
3.701361066451926
 31
0.0
  0
LWPOLYLINE
  5
172
330
1F
100
AcDbEntity
  8
OBJECT
100
AcDbPolyline
 90
        4
 70
     0
 43
0.0
 10
2.229207497283492
 20
3.703361066451926
 10
2.229207497283492
 20
3.645361066451926
 10
2.455104933180928
 20
3.645361066451926
 10
2.455104933180928
 20
3.703361066451926
  0
LWPOLYLINE
  5
174
330
1F
100
AcDbEntity
  8
HIDDEN
  6
HIDDEN2
100
AcDbPolyline
 90
        4
 70
     0
 43
0.0
 10
2.22515621523221
 20
3.710361066451927
 10
2.22515621523221
 20
3.735361066451926
 10
2.45915621523221
 20
3.735361066451926
 10
2.45915621523221
 20
3.710361066451926
  0
LWPOLYLINE
  5
175
330
1F
100
AcDbEntity
  8
OBJECT
100
AcDbPolyline
 90
        6
 70
     0
 43
0.0
 10
5.738941181228126
 20
3.733361066451928
 10
5.894941181228125
 20
3.733361066451927
 10
5.894941181228125
 20
3.717361066451927
 10
5.817941181228124
 20
3.643361066451928
 10
5.817941181228124
 20
3.701361066451927
 10
5.738941181228126
 20
3.701361066451927
  0
LINE
  5
176
330
1F
100
AcDbEntity
  8
OBJECT
100
AcDbLine
 10
5.653941181228125
 20
6.133361066451925
 30
0.0
 11
5.738941181228124
 21
6.133361066451925
 31
0.0
  0
LINE
  5
177
330
1F
100
AcDbEntity
  8
OBJECT
100
AcDbLine
 10
1.685156215232209
 20
2.635431058140157
 30
0.0
 11
1.685156215232209
 21
2.550431058140157
 31
0.0
  0
LINE
  5
179
330
1F
100
AcDbEntity
  8
OBJECT
100
AcDbLine
 10
4.967156215232209
 20
2.635431058140157
 30
0.0
 11
4.967156215232209
 21
2.550431058140157
 31
0.0
  0
LINE
  5
17A
330
1F
100
AcDbEntity
  8
OBJECT
100
AcDbLine
 10
4.19315621523221
 20
2.550431058140157
 30
0.0
 11
4.201156215232209
 21
2.394431058140157
 31
0.0
  0
LINE
  5
17B
330
1F
100
AcDbEntity
  8
OBJECT
100
AcDbLine
 10
4.427156215232209
 20
2.550431058140157
 30
0.0
 11
4.419156215232209
 21
2.394431058140157
 31
0.0
  0
LINE
  5
17C
330
1F
100
AcDbEntity
  8
OBJECT
100
AcDbLine
 10
4.419156215232209
 20
2.394431058140157
 30
0.0
 11
4.201156215232209
 21
2.394431058140157
 31
0.0
  0
LWPOLYLINE
  5
17D
330
1F
100
AcDbEntity
  8
HIDDEN
  6
HIDDEN2
100
AcDbPolyline
 90
        4
 70
     0
 43
0.0
 10
4.427156215232209
 20
3.710361066451927
 10
4.427156215232209
 20
3.735361066451926
 10
4.193156215232209
 20
3.735361066451926
 10
4.193156215232209
 20
3.710361066451926
  0
LWPOLYLINE
  5
17F
330
1F
100
AcDbEntity
  8
OBJECT
100
AcDbPolyline
 90
        4
 70
     0
 43
0.0
 10
4.423104933180927
 20
3.703361066451926
 10
4.423104933180927
 20
3.645361066451926
 10
4.197207497283491
 20
3.645361066451926
 10
4.197207497283491
 20
3.703361066451926
  0
LINE
  5
180
330
1F
100
AcDbEntity
  8
OBJECT
100
AcDbLine
 10
4.423104933180926
 20
2.471431058140157
 30
0.0
 11
4.197207497283491
 21
2.471431058140157
 31
0.0
  0
LINE
  5
181
330
1F
100
AcDbEntity
  8
OBJECT
100
AcDbLine
 10
4.427156215232209
 20
2.635431058140157
 30
0.0
 11
4.427156215232209
 21
2.550431058140157
 31
0.0
  0
LINE
  5
182
330
1F
100
AcDbEntity
  8
HIDDEN
  6
HIDDEN2
100
AcDbLine
 10
4.419156215232209
 20
3.703361066451926
 30
0.0
 11
4.419156215232209
 21
3.645361066451926
 31
0.0
  0
LINE
  5
184
330
1F
100
AcDbEntity
  8
OBJECT
100
AcDbLine
 10
4.193156215232209
 20
2.635431058140157
 30
0.0
 11
4.193156215232209
 21
2.550431058140157
 31
0.0
  0
LINE
  5
185
330
1F
100
AcDbEntity
  8
HIDDEN
  6
HIDDEN2
100
AcDbLine
 10
4.201156215232209
 20
3.703361066451926
 30
0.0
 11
4.201156215232209
 21
3.645361066451926
 31
0.0
  0
LINE
  5
186
330
1F
100
AcDbEntity
  8
OBJECT
100
AcDbLine
 10
4.427156215232209
 20
2.550431058140157
 30
0.0
 11
4.967156215232209
 21
2.550431058140157
 31
0.0
  0
LINE
  5
187
330
1F
100
AcDbEntity
  8
HIDDEN
  6
HIDDEN2
100
AcDbLine
 10
2.452156215232211
 20
2.550431058140157
 30
0.0
 11
2.23215621523221
 21
2.550431058140157
 31
0.0
  0
LINE
  5
189
330
1F
100
AcDbEntity
  8
OBJECT
100
AcDbLine
 10
2.45915621523221
 20
2.550431058140157
 30
0.0
 11
3.10664888385391
 21
2.550431058140157
 31
0.0
  0
LINE
  5
18B
330
1F
100
AcDbEntity
  8
HIDDEN
  6
HIDDEN2
100
AcDbLine
 10
4.420156215232209
 20
2.550431058140157
 30
0.0
 11
4.200156215232208
 21
2.550431058140157
 31
0.0
  0
LWPOLYLINE
  5
18C
330
1F
100
AcDbEntity
  8
HIDDEN
  6
HIDDEN2
100
AcDbPolyline
 90
        4
 70
     0
 43
0.0
 10
2.22515621523221
 20
6.066361066451925
 10
2.22515621523221
 20
6.041361066451926
 10
2.45915621523221
 20
6.041361066451926
 10
2.45915621523221
 20
6.066361066451925
  0
LWPOLYLINE
  5
18E
330
1F
100
AcDbEntity
  8
OBJECT
100
AcDbPolyline
 90
        4
 70
     0
 43
0.0
 10
2.229207497283492
 20
6.073361066451926
 10
2.229207497283492
 20
6.131361066451926
 10
2.455104933180928
 20
6.131361066451926
 10
2.455104933180928
 20
6.073361066451926
  0
LINE
  5
18F
330
1F
100
AcDbEntity
  8
HIDDEN
  6
HIDDEN2
100
AcDbLine
 10
2.233156215232209
 20
6.073361066451926
 30
0.0
 11
2.233156215232209
 21
6.131361066451926
 31
0.0
  0
LINE
  5
190
330
1F
100
AcDbEntity
  8
HIDDEN
  6
HIDDEN2
100
AcDbLine
 10
2.451156215232209
 20
6.073361066451926
 30
0.0
 11
2.451156215232209
 21
6.131361066451926
 31
0.0
  0
LWPOLYLINE
  5
191
330
1F
100
AcDbEntity
  8
OBJECT
100
AcDbPolyline
 90
        4
 70
     0
 43
0.0
 10
4.423104933180927
 20
6.073361066451926
 10
4.423104933180927
 20
6.131361066451926
 10
4.197207497283491
 20
6.131361066451926
 10
4.197207497283491
 20
6.073361066451926
  0
LWPOLYLINE
  5
193
330
1F
100
AcDbEntity
  8
HIDDEN
  6
HIDDEN2
100
AcDbPolyline
 90
        4
 70
     0
 43
0.0
 10
4.427156215232209
 20
6.066361066451925
 10
4.427156215232209
 20
6.041361066451926
 10
4.193156215232209
 20
6.041361066451926
 10
4.193156215232209
 20
6.066361066451925
  0
LINE
  5
194
330
1F
100
AcDbEntity
  8
HIDDEN
  6
HIDDEN2
100
AcDbLine
 10
4.201156215232209
 20
6.073361066451926
 30
0.0
 11
4.201156215232209
 21
6.131361066451926
 31
0.0
  0
LINE
  5
195
330
1F
100
AcDbEntity
  8
HIDDEN
  6
HIDDEN2
100
AcDbLine
 10
4.419156215232209
 20
6.073361066451926
 30
0.0
 11
4.419156215232209
 21
6.131361066451926
 31
0.0
  0
LINE
  5
196
330
1F
100
AcDbEntity
  8
HIDDEN
  6
HIDDEN2
100
AcDbLine
 10
5.738941181228126
 20
6.075361066451925
 30
0.0
 11
5.653941181228127
 21
6.075361066451925
 31
0.0
  0
LWPOLYLINE
  5
197
330
1F
100
AcDbEntity
  8
OBJECT
100
AcDbPolyline
 90
        6
 70
     0
 43
0.0
 10
5.738941181228126
 20
6.043361066451923
 10
5.894941181228125
 20
6.043361066451925
 10
5.894941181228125
 20
6.059361066451923
 10
5.817941181228124
 20
6.133361066451923
 10
5.817941181228124
 20
6.075361066451925
 10
5.738941181228126
 20
6.075361066451925
  0
LWPOLYLINE
  5
1E7
330
1F
100
AcDbEntity
  8
OBJECT
100
AcDbPolyline
 90
       10
 70
     0
 43
0.0
 10
3.548156215232209
 20
2.635431058140157
 10
3.53832701061434
 20
2.300255180670782
 42
-0.4056526161242113
 10
3.53232958890866
 20
2.294431058140157
 10
3.530821796119667
 20
2.294431058140157
 42
-0.3019557350519946
 10
3.525290293933518
 20
2.298106733815833
 42
0.6644986392449822
 10
3.1270221365309
 20
2.298106733815834
 42
-0.3019557350519947
 10
3.121490634344752
 20
2.294431058140157
 10
3.119982841555759
 20
2.294431058140157
 42
-0.4056526161242113
 10
3.113985419850079
 20
2.300255180670782
 10
3.104156215232209
 20
2.635431058140157
  0
LINE
  5
1E9
330
1F
100
AcDbEntity
  8
HIDDEN
  6
HIDDEN2
100
AcDbLine
 10
3.121655332360735
 20
2.550431058140157
 30
0.0
 11
3.530657098103684
 21
2.550431058140157
 31
0.0
  0
LINE
  5
1EA
330
1F
100
AcDbEntity
  8
OBJECT
100
AcDbLine
 10
3.545663546610509
 20
2.550431058140157
 30
0.0
 11
4.19315621523221
 21
2.550431058140157
 31
0.0
  0
LWPOLYLINE
  5
1F8
330
1F
100
AcDbEntity
  8
HIDDEN
  6
HIDDEN2
100
AcDbPolyline
 90
        4
 70
     0
 43
0.0
 10
3.104156215232211
 20
3.650361066451926
 10
3.104156215232211
 20
3.666361066451926
 10
3.548156215232211
 20
3.666361066451926
 10
3.548156215232211
 20
3.650361066451926
  0
LINE
  5
1F9
330
1F
100
AcDbEntity
  8
OBJECT
100
AcDbLine
 10
5.653941181228125
 20
3.544361066451926
 30
0.0
 11
5.994941181228126
 21
3.544361066451926
 31
0.0
  0
LINE
  5
1FB
330
1F
100
AcDbEntity
  8
OBJECT
100
AcDbLine
 10
5.994941181228126
 20
3.544361066451926
 30
0.0
 11
5.994941181228126
 21
3.666361066451928
 31
0.0
  0
LINE
  5
1FC
330
1F
100
AcDbEntity
  8
OBJECT
100
AcDbLine
 10
5.738941181228126
 20
3.666361066451928
 30
0.0
 11
5.994941181228126
 21
3.666361066451928
 31
0.0
  0
LINE
  5
1FF
330
1F
100
AcDbEntity
  8
OBJECT
100
AcDbLine
 10
13.78725051470598
 20
5.208361066451925
 30
0.0
 11
13.55725051470598
 21
5.208361066451926
 31
0.0
  0
LINE
  5
200
330
1F
100
AcDbEntity
  8
OBJECT
100
AcDbLine
 10
13.78725051470598
 20
5.118361066451925
 30
0.0
 11
13.65725051470598
 21
5.118361066451926
 31
0.0
  0
LINE
  5
201
330
1F
100
AcDbEntity
  8
OBJECT
100
AcDbLine
 10
13.78725051470598
 20
4.658361066451925
 30
0.0
 11
13.65725051470598
 21
4.658361066451925
 31
0.0
  0
LINE
  5
202
330
1F
100
AcDbEntity
  8
OBJECT
100
AcDbLine
 10
13.78725051470598
 20
4.568361066451926
 30
0.0
 11
13.55725051470598
 21
4.568361066451926
 31
0.0
  0
LINE
  5
205
330
1F
100
AcDbEntity
  8
OBJECT
100
AcDbLine
 10
13.65725051470598
 20
5.208361066451926
 30
0.0
 11
13.65725051470598
 21
4.568361066451926
 31
0.0
  0
LINE
  5
206
330
1F
100
AcDbEntity
  8
OBJECT
100
AcDbLine
 10
13.78725051470598
 20
4.658361066451925
 30
0.0
 11
13.78725051470598
 21
4.568361066451926
 31
0.0
  0
LINE
  5
207
330
1F
100
AcDbEntity
  8
OBJECT
100
AcDbLine
 10
13.78725051470598
 20
5.208361066451925
 30
0.0
 11
13.78725051470598
 21
5.118361066451925
 31
0.0
  0
LINE
  5
208
330
1F
100
AcDbEntity
  8
HIDDEN
  6
HIDDEN2
100
AcDbLine
 10
13.55725051470598
 20
4.790861066451926
 30
0.0
 11
13.65725051470598
 21
4.790861066451926
 31
0.0
  0
LINE
  5
209
330
1F
100
AcDbEntity
  8
HIDDEN
  6
HIDDEN2
100
AcDbLine
 10
13.55725051470598
 20
4.985861066451926
 30
0.0
 11
13.65725051470598
 21
4.985861066451926
 31
0.0
  0
LWPOLYLINE
  5
20B
330
1F
100
AcDbEntity
  8
OBJECT
100
AcDbPolyline
 90
        4
 70
     1
 43
0.0
 10
8.51952065833931
 20
3.669361066451926
 10
11.74552065833931
 20
3.669361066451926
 10
11.74552065833931
 20
6.107361066451925
 10
8.51952065833931
 20
6.107361066451925
  0
LINE
  5
20C
330
1F
100
AcDbEntity
  8
OBJECT
100
AcDbLine
 10
9.90052065833931
 20
3.544361066451926
 30
0.0
 11
9.90052065833931
 21
3.669361066451926
 31
0.0
  0
LINE
  5
20D
330
1F
100
AcDbEntity
  8
OBJECT
100
AcDbLine
 10
10.36452065833931
 20
3.544361066451926
 30
0.0
 11
10.36452065833931
 21
3.669361066451926
 31
0.0
  0
LINE
  5
20E
330
1F
100
AcDbEntity
  8
HIDDEN
100
AcDbLine
 10
8.49352065833931
 20
2.635431058140157
 30
0.0
 11
8.49352065833931
 21
2.550431058140157
 31
0.0
  0
LINE
  5
213
330
1F
100
AcDbEntity
  8
HIDDEN
100
AcDbLine
 10
11.7715206583393
 20
2.635431058140157
 30
0.0
 11
11.7715206583393
 21
2.550431058140157
 31
0.0
  0
LWPOLYLINE
  5
21C
330
1F
100
AcDbEntity
  8
HIDDEN
  6
HIDDEN2
100
AcDbPolyline
 90
        4
 70
     1
 43
0.0
 10
9.305520658339309
 20
2.473431058140157
 10
9.305520658339309
 20
2.381431058140157
 10
8.99352065833931
 20
2.381431058140157
 10
8.99352065833931
 20
2.473431058140157
  0
LINE
  5
21D
330
1F
100
AcDbEntity
  8
HIDDEN
  6
HIDDEN2
100
AcDbLine
 10
11.89702065833931
 20
2.635431058140157
 30
0.0
 11
11.89702065833931
 21
2.535431058140157
 31
0.0
  0
LINE
  5
21E
330
1F
100
AcDbEntity
  8
HIDDEN
  6
HIDDEN2
100
AcDbLine
 10
12.09202065833931
 20
2.635431058140157
 30
0.0
 11
12.09202065833931
 21
2.535431058140157
 31
0.0
  0
LINE
  5
220
330
1F
100
AcDbEntity
  8
OBJECT
100
AcDbLine
 10
11.85983024529563
 20
1.410431058140156
 30
0.0
 11
11.87052065833931
 21
2.635431058140157
 31
0.0
  0
LINE
  5
221
330
1F
100
AcDbEntity
  8
OBJECT
100
AcDbLine
 10
12.23252065833931
 20
2.635431058140157
 30
0.0
 11
8.03252065833931
 21
2.635431058140157
 31
0.0
  0
LINE
  5
222
330
1F
100
AcDbEntity
  8
OBJECT
100
AcDbLine
 10
8.39452065833931
 20
2.635431058140157
 30
0.0
 11
8.405211071382989
 21
1.410431058140157
 31
0.0
  0
LINE
  5
223
330
1F
100
AcDbEntity
  8
HIDDEN
100
AcDbLine
 10
8.51952065833931
 20
2.550431058140157
 30
0.0
 11
8.528919494949956
 21
1.473431058140157
 31
0.0
  0
LINE
  5
224
330
1F
100
AcDbEntity
  8
HIDDEN
100
AcDbLine
 10
8.528919494949956
 20
1.473431058140157
 30
0.0
 11
11.73612182172866
 21
1.473431058140157
 31
0.0
  0
LINE
  5
225
330
1F
100
AcDbEntity
  8
HIDDEN
100
AcDbLine
 10
11.73612182172866
 20
1.473431058140157
 30
0.0
 11
11.74552065833931
 21
2.550431058140157
 31
0.0
  0
LINE
  5
226
330
1F
100
AcDbEntity
  8
HIDDEN
  6
HIDDEN2
100
AcDbLine
 10
8.368020658339311
 20
2.635431058140157
 30
0.0
 11
8.368020658339311
 21
2.535431058140157
 31
0.0
  0
LINE
  5
227
330
1F
100
AcDbEntity
  8
HIDDEN
  6
HIDDEN2
100
AcDbLine
 10
8.173020658339311
 20
2.635431058140157
 30
0.0
 11
8.173020658339311
 21
2.535431058140157
 31
0.0
  0
LWPOLYLINE
  5
228
330
1F
100
AcDbEntity
  8
HIDDEN
  6
HIDDEN2
100
AcDbPolyline
 90
        4
 70
     1
 43
0.0
 10
10.95952065833931
 20
2.473431058140157
 10
10.95952065833931
 20
2.381431058140157
 10
11.27152065833931
 20
2.381431058140157
 10
11.27152065833931
 20
2.473431058140157
  0
LINE
  5
23E
330
1F
100
AcDbEntity
  8
OBJECT
100
AcDbLine
 10
13.55725051470598
 20
6.232361066451925
 30
0.0
 11
13.55725051470598
 21
3.544361066451926
 31
0.0
  0
LINE
  5
23F
330
1F
100
AcDbEntity
  8
HIDDEN
100
AcDbLine
 10
14.71925051470598
 20
3.678759903062571
 30
0.0
 11
14.71925051470598
 21
6.097962229841277
 31
0.0
  0
LINE
  5
240
330
1F
100
AcDbEntity
  8
HIDDEN
100
AcDbLine
 10
13.64225051470598
 20
6.133361066451923
 30
0.0
 11
13.64225051470598
 21
3.643361066451927
 31
0.0
  0
LWPOLYLINE
  5
241
330
1F
100
AcDbEntity
  8
OBJECT
100
AcDbPolyline
 90
        2
 70
     0
 43
0.0
 10
14.84425051470598
 20
3.617051479495605
 10
14.84425051470598
 20
6.159670653408246
  0
LINE
  5
242
330
1F
100
AcDbEntity
  8
OBJECT
100
AcDbLine
 10
14.78225051470598
 20
3.555051479495605
 30
0.0
 11
14.78225051470598
 21
6.221670653408246
 31
0.0
  0
LINE
  5
243
330
1F
100
AcDbEntity
  8
HIDDEN
100
AcDbLine
 10
13.64225051470598
 20
3.669361066451926
 30
0.0
 11
14.71925051470598
 21
3.678759903062571
 31
0.0
  0
LINE
  5
244
330
1F
100
AcDbEntity
  8
OBJECT
100
AcDbLine
 10
13.55725051470598
 20
3.544361066451926
 30
0.0
 11
14.78225051470598
 21
3.555051479495605
 31
0.0
  0
LINE
  5
245
330
1F
100
AcDbEntity
  8
OBJECT
100
AcDbLine
 10
14.84425051470598
 20
3.617051479495605
 30
0.0
 11
14.78225051470598
 21
3.555051479495605
 31
0.0
  0
LINE
  5
24C
330
1F
100
AcDbEntity
  8
HIDDEN
100
AcDbLine
 10
13.55725051470598
 20
3.643361066451927
 30
0.0
 11
13.64225051470598
 21
3.643361066451927
 31
0.0
  0
LINE
  5
24D
330
1F
100
AcDbEntity
  8
HIDDEN
100
AcDbLine
 10
14.71925051470598
 20
6.097962229841277
 30
0.0
 11
13.64225051470598
 21
6.107361066451925
 31
0.0
  0
LINE
  5
24E
330
1F
100
AcDbEntity
  8
OBJECT
100
AcDbLine
 10
14.78225051470598
 20
6.221670653408246
 30
0.0
 11
13.55725051470598
 21
6.232361066451925
 31
0.0
  0
LINE
  5
250
330
1F
100
AcDbEntity
  8
OBJECT
100
AcDbLine
 10
14.84425051470598
 20
6.159670653408246
 30
0.0
 11
14.78225051470598
 21
6.221670653408246
 31
0.0
  0
LWPOLYLINE
  5
251
330
1F
100
AcDbEntity
  8
HIDDEN
  6
HIDDEN2
100
AcDbPolyline
 90
        4
 70
     0
 43
0.0
 10
13.81125051470598
 20
3.670835907108564
 10
13.81125051470598
 20
3.643361066451927
 10
13.71925051470598
 20
3.643361066451927
 10
13.71925051470598
 20
3.670033035271814
  0
LINE
  5
257
330
1F
100
AcDbEntity
  8
HIDDEN
100
AcDbLine
 10
13.55725051470598
 20
6.133361066451923
 30
0.0
 11
13.64225051470598
 21
6.133361066451923
 31
0.0
  0
LWPOLYLINE
  5
25C
330
1F
100
AcDbEntity
  8
HIDDEN
  6
HIDDEN2
100
AcDbPolyline
 90
        4
 70
     0
 43
0.0
 10
13.81125051470598
 20
6.105886225795288
 10
13.81125051470598
 20
6.133361066451925
 10
13.71925051470598
 20
6.133361066451925
 10
13.71925051470598
 20
6.106689097632038
  0
ARC
  5
27A
330
1F
100
AcDbEntity
  8
OBJECT
100
AcDbCircle
 10
10.13252065833931
 20
2.233431058140157
 30
0.0
 40
0.216
100
AcDbArc
 50
182.255396189882
 51
357.7446038101178
  0
LINE
  5
27B
330
1F
100
AcDbEntity
  8
OBJECT
100
AcDbLine
 10
9.90052065833931
 20
2.635431058140157
 30
0.0
 11
9.916687986137125
 21
2.224930610501085
 31
0.0
  0
LINE
  5
27C
330
1F
100
AcDbEntity
  8
OBJECT
100
AcDbLine
 10
10.36452065833931
 20
2.635431058140157
 30
0.0
 11
10.34835333054149
 21
2.224930610501084
 31
0.0
  0
INSERT
  5
2A4
330
1F
100
AcDbEntity
  8
TITLE
100
AcDbBlockReference
  2
Hbs
 10
0.0
 20
0.0
 30
0.0
  0
LINE
  5
2A7
330
1F
100
AcDbEntity
  8
CENTER
100
AcDbLine
 10
3.326156215232209
 20
4.798361066451926
 30
0.0
 11
3.326156215232209
 21
4.978361066451926
 31
0.0
  0
LINE
  5
2A8
330
1F
100
AcDbEntity
  8
CENTER
100
AcDbLine
 10
3.23615621523221
 20
4.888361066451926
 30
0.0
 11
3.416156215232209
 21
4.888361066451926
 31
0.0
  0
TEXT
  5
2B0
330
1F
100
AcDbEntity
  8
TEXT
100
AcDbText
 10
2.950500000000001
 20
9.310999999999999
 30
0.0
 40
0.156
  1
UTILIBOX (STYLE K)
 41
0.75
  7
TXT
 72
     4
 11
3.906000000000001
 21
9.388999999999999
 31
0.0
100
AcDbText
  0
TEXT
  5
2B1
330
1F
100
AcDbEntity
  8
TEXT
100
AcDbText
 10
10.535495566525
 20
9.310999999999999
 30
0.0
 40
0.156
  1
CU-1955
 41
0.75
  7
TXT
 72
     4
 11
10.905995566525
 21
9.388999999999999
 31
0.0
100
AcDbText
  0
DIMENSION
  5
2D1
330
1F
100
AcDbEntity
  8
DIM
100
AcDbDimension
  2
*D2
 10
11.77152065833931
 20
6.473750628330208
 30
0.0
 11
10.13252065833931
 21
6.473750628330208
 31
0.0
 70
   160
 71
     5
 42
3.278
  3
23NSTD
100
AcDbAlignedDimension
 13
8.49352065833931
 23
6.133361066451925
 33
0.0
 14
11.77152065833931
 24
6.107361066451925
 34
0.0
100
AcDbRotatedDimension
  0
DIMENSION
  5
2E9
330
1F
100
AcDbEntity
  8
DIM
100
AcDbDimension
  2
*D3
 10
11.87052065833931
 20
6.775836086887949
 30
0.0
 11
10.13252065833931
 21
6.775836086887949
 31
0.0
 70
   160
 71
     5
 42
3.476
  3
23NSTD
100
AcDbAlignedDimension
 13
8.39452065833931
 23
6.139361066451924
 33
0.0
 14
11.87052065833931
 24
6.139361066451925
 34
0.0
100
AcDbRotatedDimension
  0
DIMENSION
  5
2F7
330
1F
100
AcDbEntity
  8
DIM
100
AcDbDimension
  2
*D4
 10
11.99452065833931
 20
7.079252722607055
 30
0.0
 11
10.13252065833931
 21
7.079252722607055
 31
0.0
 70
    32
 71
     5
 42
3.724
  3
23NSTD
100
AcDbAlignedDimension
 13
8.270520658339311
 23
4.888361066451926
 33
0.0
 14
11.99452065833931
 24
4.888361066451926
 34
0.0
100
AcDbRotatedDimension
  0
DIMENSION
  5
31A
330
1F
100
AcDbEntity
  8
DIM
100
AcDbDimension
  2
*D5
 10
12.23252065833931
 20
7.380007004003434
 30
0.0
 11
10.13252065833931
 21
7.380007004003434
 31
0.0
 70
    32
 71
     5
 42
4.199999999999999
  3
23NSTD
100
AcDbAlignedDimension
 13
8.032520658339311
 23
5.146361066451925
 33
0.0
 14
12.23252065833931
 24
5.146361066451925
 34
0.0
100
AcDbRotatedDimension
  0
DIMENSION
  5
328
330
1F
100
AcDbEntity
  8
DIM
100
AcDbDimension
  2
*D6
 10
7.63638644576148
 20
3.643361066451927
 30
0.0
 11
7.63638644576148
 21
4.888361066451927
 31
0.0
 70
    32
 71
     5
 42
2.489999999999998
  3
23NSTD
100
AcDbAlignedDimension
 13
8.49352065833931
 23
6.133361066451925
 33
0.0
 14
8.51952065833931
 24
3.643361066451927
 34
0.0
 50
90.0
100
AcDbRotatedDimension
  0
DIMENSION
  5
336
330
1F
100
AcDbEntity
  8
DIM
100
AcDbDimension
  2
*D7
 10
7.135423437890302
 20
6.232361066451924
 30
0.0
 11
7.135423437890301
 21
4.888361066451927
 31
0.0
 70
    32
 71
     5
 42
2.687999999999998
  3
23NSTD
100
AcDbAlignedDimension
 13
8.48752065833931
 23
3.544361066451926
 33
0.0
 14
8.48752065833931
 24
6.232361066451924
 34
0.0
 50
90.0
100
AcDbRotatedDimension
  0
LINE
  5
34E
330
1F
100
AcDbEntity
  8
CENTER
100
AcDbLine
 10
10.04252065833931
 20
2.233431058140157
 30
0.0
 11
10.2225206583393
 21
2.233431058140157
 31
0.0
  0
LINE
  5
34F
330
1F
100
AcDbEntity
  8
CENTER
100
AcDbLine
 10
10.13252065833931
 20
2.143431058140157
 30
0.0
 11
10.13252065833931
 21
2.323431058140156
 31
0.0
  0
DIMENSION
  5
350
330
1F
100
AcDbEntity
  8
DIM
100
AcDbDimension
  2
*D8
 10
7.714401427477581
 20
1.348431058140157
 30
0.0
 11
7.714401427477581
 21
1.991931058140158
 31
0.0
 70
    32
 71
     5
 42
1.286999999999999
  3
23NSTD
100
AcDbAlignedDimension
 13
8.03252065833931
 23
2.635431058140157
 33
0.0
 14
8.46721107138299
 24
1.348431058140157
 34
0.0
 50
90.0
100
AcDbRotatedDimension
  0
DIMENSION
  5
35E
330
1F
100
AcDbEntity
  8
DIM
100
AcDbDimension
  2
*D9
 10
8.911208291306261
 20
2.635431058140157
 30
0.0
 11
8.911208291306261
 21
2.054431058140158
 31
0.0
 70
    32
 71
     5
 42
1.161999999999999
  3
23NSTD
100
AcDbAlignedDimension
 13
8.84820829130626
 23
1.473431058140157
 33
0.0
 14
8.84820829130626
 24
2.635431058140157
 34
0.0
 50
90.0
100
AcDbRotatedDimension
  0
DIMENSION
  5
38A
330
1F
100
AcDbEntity
  8
DIM
100
AcDbDimension
  2
*D10
 10
10.5518546127262
 20
1.348431058140157
 30
0.0
 11
10.5518546127262
 21
1.682931058140158
 31
0.0
 70
    32
 71
     5
 42
0.6689999999999996
  3
23NSTD
100
AcDbAlignedDimension
 13
10.13252065833931
 23
2.017431058140156
 33
0.0
 14
10.13252065833931
 24
1.348431058140157
 34
0.0
 50
90.0
100
AcDbRotatedDimension
  0
LEADER
  5
398
330
1F
100
AcDbEntity
  8
DIM
100
AcDbLeader
  3
23NSTD
 73
     0
 75
     1
 40
0.125
 41
0.953125
 76
     3
 10
10.03432709179946
 20
2.041040768649795
 30
0.0
 10
9.917360426603625
 20
1.154695162468019
 30
0.0
 10
9.737360426603625
 20
1.154695162468019
 30
0.0
340
399
213
0.0
223
-0.0625
233
0.0
1001
ACAD
1000
DSTYLE
1002
{
1070
   147
1040
0.09
1070
    77
1070
     0
1002
}
  0
MTEXT
  5
399
102
{ACAD_REACTORS
330
398
102
}
330
1F
100
AcDbEntity
  8
DIM
100
AcDbMText
 10
9.647360426603626
 20
1.217195162468019
 30
0.0
 40
0.125
 41
0.0
 71
     3
 72
     1
  1
\A1;0.216 RADIUS
  7
TXT
 73
     1
 44
1.0
  0
DIMENSION
  5
39B
330
1F
100
AcDbEntity
  8
DIM
100
AcDbDimension
  2
*D11
 10
12.45553874349993
 20
2.635431058140157
 30
0.0
 11
12.87397624349993
 21
2.995431058140158
 31
0.0
 70
    32
 71
     5
 42
0.1000000000000005
  3
23NSTD
100
AcDbAlignedDimension
 13
12.23252065833931
 23
2.535431058140156
 33
0.0
 14
12.23252065833931
 24
2.635431058140157
 34
0.0
 50
90.0
100
AcDbRotatedDimension
  0
DIMENSION
  5
3AA
330
1F
100
AcDbEntity
  8
DIM
100
AcDbDimension
  2
*D12
 10
12.60762940560324
 20
5.208361066451926
 30
0.0
 11
12.60762940560324
 21
4.888361066451928
 31
0.0
 70
    32
 71
     5
 42
0.6400000000000006
  3
23NSTD
100
AcDbAlignedDimension
 13
12.1705206583393
 23
4.568361066451926
 33
0.0
 14
12.1705206583393
 24
5.208361066451926
 34
0.0
 50
90.0
100
AcDbRotatedDimension
  0
LEADER
  5
3BA
330
1F
100
AcDbEntity
  8
DIM
100
AcDbLeader
  3
23NSTD
 73
     0
 74
     0
 75
     1
 40
0.3333333333333334
 41
0.75
 76
     3
 10
12.02229750468447
 20
4.794901466585901
 30
0.0
 10
12.26921646589312
 20
3.926679383931851
 30
0.0
 10
12.44921646589312
 20
3.926679383931851
 30
0.0
340
3BB
213
0.0
223
-0.0625
233
0.0
1001
ACAD
1000
DSTYLE
1002
{
1070
   147
1040
0.09
1070
    77
1070
     0
1002
}
  0
MTEXT
  5
3BB
102
{ACAD_REACTORS
330
3BA
102
}
330
1F
100
AcDbEntity
  8
DIM
100
AcDbMText
 10
12.53921646589312
 20
3.989179383931851
 30
0.0
 40
0.125
 41
0.0
 71
     1
 72
     1
  1
\A1;0.195 DIA.\P(2) HOLES
  7
TXT
 73
     1
 44
1.0
  0
DIMENSION
  5
42B
330
1F
100
AcDbEntity
  8
DIM
100
AcDbDimension
  2
*D13
 10
11.73612182172866
 20
0.8003710054927921
 30
0.0
 11
10.13252065833931
 21
0.8003710054927921
 31
0.0
 70
    32
 71
     5
 42
3.207202326778705
  3
23NSTD
100
AcDbAlignedDimension
 13
8.528919494949956
 23
1.473431058140157
 33
0.0
 14
11.73612182172866
 24
1.473431058140157
 34
0.0
100
AcDbRotatedDimension
  0
DIMENSION
  5
439
330
1F
100
AcDbEntity
  8
DIM
100
AcDbDimension
  2
*D14
 10
15.24013351651535
 20
3.678759903062571
 30
0.0
 11
15.24013351651535
 21
4.888361066451927
 31
0.0
 70
    32
 71
     5
 42
2.419202326778706
  3
23NSTD
100
AcDbAlignedDimension
 13
14.71925051470598
 23
6.097962229841277
 33
0.0
 14
14.71925051470598
 24
3.678759903062571
 34
0.0
 50
90.0
100
AcDbRotatedDimension
  0
DIMENSION
  5
447
330
1F
100
AcDbEntity
  8
DIM
100
AcDbDimension
  2
*D15
 10
4.967156215232209
 20
6.54871955817514
 30
0.0
 11
3.32615621523221
 21
6.54871955817514
 31
0.0
 70
    32
 71
     5
 42
3.281999999999999
  3
23NSTD
100
AcDbAlignedDimension
 13
1.68515621523221
 23
6.133361066451925
 33
0.0
 14
4.967156215232209
 24
6.133361066451925
 34
0.0
100
AcDbRotatedDimension
  0
DIMENSION
  5
455
330
1F
100
AcDbEntity
  8
DIM
100
AcDbDimension
  2
*D16
 10
5.330142083732681
 20
3.643361066451926
 30
0.0
 11
5.33014208373268
 21
4.888361066451927
 31
0.0
 70
    32
 71
     5
 42
2.489999999999998
  3
23NSTD
100
AcDbAlignedDimension
 13
4.967156215232209
 23
6.133361066451925
 33
0.0
 14
4.967156215232209
 24
3.643361066451927
 34
0.0
 50
90.0
100
AcDbRotatedDimension
  0
DIMENSION
  5
4AC
330
1F
100
AcDbEntity
  8
DIM
100
AcDbDimension
  2
*D17
 10
1.951693374771025
 20
2.394431058140157
 30
0.0
 11
1.517630874771025
 21
2.034431058140158
 31
0.0
 70
    32
 71
     5
 42
0.1559999999999997
  3
23NSTD
100
AcDbAlignedDimension
 13
2.22515621523221
 23
2.550431058140157
 33
0.0
 14
2.233156215232209
 24
2.394431058140157
 34
0.0
 50
90.0
100
AcDbRotatedDimension
  0
DIMENSION
  5
4BB
330
1F
100
AcDbEntity
  8
DIM
100
AcDbDimension
  2
*D18
 10
3.883198068712794
 20
2.550431058140157
 30
0.0
 11
3.883198068712793
 21
2.422431058140157
 31
0.0
 70
   160
 71
     5
 42
0.2560000000000002
  3
23NSTDI
100
AcDbAlignedDimension
 13
3.53232958890866
 23
2.294431058140157
 33
0.0
 14
3.545663546610509
 24
2.550431058140157
 34
0.0
 50
90.0
100
AcDbRotatedDimension
  0
DIMENSION
  5
5C4
330
1F
100
AcDbEntity
  8
DIM
100
AcDbDimension
  2
*D19
 10
3.104156215232211
 20
3.130273696034031
 30
0.0
 11
2.394656215232211
 21
3.130273696034031
 31
0.0
 70
    32
 71
     5
 42
1.419000000000001
  3
23NSTD
100
AcDbAlignedDimension
 13
1.68515621523221
 23
3.643361066451927
 33
0.0
 14
3.104156215232211
 24
3.544361066451926
 34
0.0
100
AcDbRotatedDimension
  0
DIMENSION
  5
5D2
330
1F
100
AcDbEntity
  8
DIM
100
AcDbDimension
  2
*D20
 10
3.548156215232209
 20
3.130273696034031
 30
0.0
 11
4.177843715232209
 21
3.130273696034031
 31
0.0
 70
    32
 71
     5
 42
0.4439999999999982
  3
23NSTD
100
AcDbAlignedDimension
 13
3.104156215232211
 23
3.544361066451926
 33
0.0
 14
3.548156215232209
 24
3.544361066451926
 34
0.0
100
AcDbRotatedDimension
  0
DIMENSION
  5
5E1
330
1F
100
AcDbEntity
  8
DIM
100
AcDbDimension
  2
*D21
 10
3.798640348166166
 20
3.643361066451927
 30
0.0
 11
4.240515348166165
 21
4.003361066451928
 31
0.0
 70
    32
 71
     5
 42
0.0990000000000002
  3
23NSTD
100
AcDbAlignedDimension
 13
3.548156215232209
 23
3.544361066451926
 33
0.0
 14
3.548156215232209
 24
3.643361066451927
 34
0.0
 50
90.0
100
AcDbRotatedDimension
  0
DIMENSION
  5
604
330
1F
100
AcDbEntity
  8
DIM
100
AcDbDimension
  2
*D22
 10
1.68515621523221
 20
6.327296102433166
 30
0.0
 11
2.013656215232209
 21
6.327296102433166
 31
0.0
 70
    32
 71
     5
 42
0.6569999999999996
  3
23NSTD
100
AcDbAlignedDimension
 13
2.342156215232209
 23
6.131361066451926
 33
0.0
 14
1.68515621523221
 24
6.131361066451926
 34
0.0
100
AcDbRotatedDimension
  0
DIMENSION
  5
61C
330
1F
100
AcDbEntity
  8
DIM
100
AcDbDimension
  2
*D23
 10
4.967156215232209
 20
6.327296102433166
 30
0.0
 11
4.638656215232209
 21
6.327296102433166
 31
0.0
 70
    32
 71
     5
 42
0.6570000000000001
  3
23NSTD
100
AcDbAlignedDimension
 13
4.310156215232209
 23
6.131361066451926
 33
0.0
 14
4.967156215232209
 24
6.131361066451926
 34
0.0
 50
180.0
100
AcDbRotatedDimension
  0
DIMENSION
  5
634
330
1F
100
AcDbEntity
  8
DIM
100
AcDbDimension
  2
*D24
 10
5.220798690407391
 20
2.635431058140156
 30
0.0
 11
5.66267369040739
 21
2.995431058140157
 31
0.0
 70
    32
 71
     5
 42
0.085
  3
23NSTD
100
AcDbAlignedDimension
 13
4.967156215232209
 23
2.550431058140157
 33
0.0
 14
4.967156215232209
 24
2.635431058140157
 34
0.0
 50
90.0
100
AcDbRotatedDimension
  0
DIMENSION
  5
64D
330
1F
100
AcDbEntity
  8
DIM
100
AcDbDimension
  2
*D25
 10
8.032520658339311
 20
7.079252722607055
 30
0.0
 11
7.402833158339311
 21
7.079252722607055
 31
0.0
 70
    32
 71
     5
 42
0.2379999999999995
  3
23NSTD
100
AcDbAlignedDimension
 13
8.270520658339311
 23
4.888361066451926
 33
0.0
 14
8.032520658339311
 24
5.146361066451925
 34
0.0
100
AcDbRotatedDimension
  0
TEXT
  5
6B5
330
1F
100
AcDbEntity
  8
TEXT
100
AcDbText
 10
3.03170621523221
 20
1.668975607445887
 30
0.0
 40
0.156
  1
%%uCOVER
 41
0.75
  7
TXT
 72
     4
 11
3.326156215232209
 21
1.731375607445887
 31
0.0
100
AcDbText
  0
TEXT
  5
6BB
330
1F
100
AcDbEntity
  8
TEXT
100
AcDbText
 10
9.916070658339309
 20
0.2913671206849175
 30
0.0
 40
0.156
  1
%%uBODY
 41
0.75
  7
TXT
 72
     4
 11
10.13252065833931
 21
0.3537671206849176
 31
0.0
100
AcDbText
  0
DIMENSION
  5
795
330
1F
100
AcDbEntity
  8
DIM
100
AcDbDimension
  2
*D26
 10
8.405211071382989
 20
1.410431058140157
 30
0.0
 11
7.515809739886622
 21
0.5369572466083623
 31
0.0
 70
    34
  1
<> TYP.
 71
     5
 42
0.008726646259972
  3
23NSTD
100
AcDb2LineAngularDimension
 13
8.39452065833931
 23
2.635431058140157
 33
0.0
 14
8.39452065833931
 24
2.350132909596425
 34
0.0
 15
8.39452065833931
 25
2.635431058140157
 35
0.0
 16
8.406906095828377
 26
0.5065551900726569
 36
0.0
  0
TEXT
  5
8F9
330
1F
100
AcDbEntity
  8
TEXT
100
AcDbText
 10
0.7473826756854223
 20
6.988781975734941
 30
0.0
 40
0.125
  1
ONE MOLDED-IN WIRE/CABLE ENTRY POINT.
 41
0.75
  7
TXT
100
AcDbText
  0
TEXT
  5
8FA
330
1F
100
AcDbEntity
  8
TEXT
100
AcDbText
 10
0.7473826756854223
 20
7.197115309068274
 30
0.0
 40
0.125
  1
BOX FEATURES SNAP-FIT COVER AND
 41
0.75
  7
TXT
100
AcDbText
  0
TEXT
  5
8FB
330
1F
100
AcDbEntity
  8
TEXT
100
AcDbText
 10
1.577488541009245
 20
8.447115309068275
 30
0.0
 40
0.125
  1
(FLAMMABILITY RATING OF UL94-HB)
 41
0.75
  7
TXT
100
AcDbText
  0
TEXT
  5
8FC
330
1F
100
AcDbEntity
  8
TEXT
100
AcDbText
 10
0.7473826756854223
 20
7.61378197573494
 30
0.0
 40
0.125
  1
ALL DIMENSIONS HAVE %%p0.015 TOLERANCE.
 41
0.75
  7
TXT
100
AcDbText
  0
TEXT
  5
8FD
330
1F
100
AcDbEntity
  8
TEXT
100
AcDbText
 10
0.7473826756854223
 20
8.238781975734941
 30
0.0
 40
0.125
  1
FINISH: COVER - SMOOTH BLACK
 41
0.75
  7
TXT
100
AcDbText
  0
TEXT
  5
8FE
330
1F
100
AcDbEntity
  8
TEXT
100
AcDbText
 10
0.7473826756854223
 20
8.655448642401609
 30
0.0
 40
0.125
  1
MATERIAL: HIGH-IMPACT ABS
 41
0.75
  7
TXT
100
AcDbText
  0
TEXT
  5
900
330
1F
100
AcDbEntity
  8
DIM
100
AcDbText
 10
0.7473826756854223
 20
8.238781975734941
 30
0.0
 40
0.125
  1
 
 41
0.75
  7
TXT
100
AcDbText
  0
TEXT
  5
901
330
1F
100
AcDbEntity
  8
TEXT
100
AcDbText
 10
1.374013655540956
 20
8.030448642401607
 30
0.0
 40
0.125
  1
BODY - SMOOTH BLACK WITH TEXTURED TOP
 41
0.75
  7
TXT
100
AcDbText
  0
ENDSEC
  0
SECTION
  2
OBJECTS
  0
DICTIONARY
  5
C
330
0
100
AcDbDictionary
281
     1
  3
ACAD_GROUP
350
D
  3
ACAD_LAYOUT
350
1A
  3
ACAD_MLINESTYLE
350
17
  3
ACAD_PLOTSETTINGS
350
19
  3
ACAD_PLOTSTYLENAME
350
E
  3
AcadDim
350
3B9
  0
DICTIONARY
  5
D
102
{ACAD_REACTORS
330
C
102
}
330
C
100
AcDbDictionary
281
     1
  0
DICTIONARY
  5
1A
102
{ACAD_REACTORS
330
C
102
}
330
C
100
AcDbDictionary
281
     1
  3
Layout1
350
1E
  3
Layout2
350
26
  3
Model
350
22
  0
DICTIONARY
  5
17
102
{ACAD_REACTORS
330
C
102
}
330
C
100
AcDbDictionary
281
     1
  3
Standard
350
18
  0
DICTIONARY
  5
19
102
{ACAD_REACTORS
330
C
102
}
330
C
100
AcDbDictionary
281
     1
  0
ACDBDICTIONARYWDFLT
  5
E
102
{ACAD_REACTORS
330
C
102
}
330
C
100
AcDbDictionary
281
     1
  3
Normal
350
F
100
AcDbDictionaryWithDefault
340
F
  0
XRECORD
  5
3B9
102
{ACAD_REACTORS
330
C
102
}
330
C
100
AcDbXrecord
280
     1
 90
   990106
  3

 60
     0
 61
     0
 62
     1
 63
     1
 64
     0
 65
     0
 66
     0
 67
     3
 68
     1
 69
     0
 70
     0
 71
     0
 72
     0
 40
0.0
170
     2
340
3BB
  0
LAYOUT
  5
1E
102
{ACAD_REACTORS
330
1A
102
}
330
1A
100
AcDbPlotSettings
  1

  2

  4

  6

 40
0.0
 41
0.0
 42
0.0
 43
0.0
 44
0.0
 45
0.0
 46
0.0
 47
0.0
 48
0.0
 49
0.0
140
0.0
141
0.0
142
1.0
143
1.0
 70
   688
 72
     0
 73
     0
 74
     5
  7
monochrome.ctb
 75
    16
147
1.0
148
0.0
149
0.0
100
AcDbLayout
  1
Layout1
 70
     1
 71
     1
 10
0.0
 20
0.0
 11
12.0
 21
9.0
 12
0.0
 22
0.0
 32
0.0
 14
1.000000000000000E+20
 24
1.000000000000000E+20
 34
1.000000000000000E+20
 15
-1.000000000000000E+20
 25
-1.000000000000000E+20
 35
-1.000000000000000E+20
146
0.0
 13
0.0
 23
0.0
 33
0.0
 16
1.0
 26
0.0
 36
0.0
 17
0.0
 27
1.0
 37
0.0
 76
     0
330
1B
  0
LAYOUT
  5
26
102
{ACAD_REACTORS
330
1A
102
}
330
1A
100
AcDbPlotSettings
  1

  2

  4

  6

 40
0.0
 41
0.0
 42
0.0
 43
0.0
 44
0.0
 45
0.0
 46
0.0
 47
0.0
 48
0.0
 49
0.0
140
0.0
141
0.0
142
1.0
143
1.0
 70
   688
 72
     0
 73
     0
 74
     5
  7
monochrome.ctb
 75
    16
147
1.0
148
0.0
149
0.0
100
AcDbLayout
  1
Layout2
 70
     1
 71
     2
 10
0.0
 20
0.0
 11
12.0
 21
9.0
 12
0.0
 22
0.0
 32
0.0
 14
0.0
 24
0.0
 34
0.0
 15
0.0
 25
0.0
 35
0.0
146
0.0
 13
0.0
 23
0.0
 33
0.0
 16
1.0
 26
0.0
 36
0.0
 17
0.0
 27
1.0
 37
0.0
 76
     0
330
23
  0
LAYOUT
  5
22
102
{ACAD_REACTORS
330
1A
102
}
330
1A
100
AcDbPlotSettings
  1

  2
Acrobat PDFWriter
  4
Tabloid
  6

 40
3.174999952316284
 41
3.174999952316284
 42
3.17498779296875
 43
3.17498779296875
 44
431.8000183105469
 45
279.3999938964843
 46
0.0
 47
12.7
 48
0.9332762476020093
 49
5.832232665878773
140
6.399210326724936
141
8.928313214150158
142
1.0
143
0.991105193489062
 70
 11956
 72
     0
 73
     0
 74
     1
  7
monochrome.ctb
 75
     0
147
1.008974634145165
148
0.012866449948551
149
0.0074873437652244
100
AcDbLayout
  1
Model
 70
     1
 71
     0
 10
0.0
 20
0.0
 11
12.0
 21
9.0
 12
0.0
 22
0.0
 32
0.0
 14
0.0
 24
0.0
 34
0.0
 15
0.0
 25
0.0
 35
0.0
146
0.0
 13
0.0
 23
0.0
 33
0.0
 16
1.0
 26
0.0
 36
0.0
 17
0.0
 27
1.0
 37
0.0
 76
     0
330
1F
  0
MLINESTYLE
  5
18
102
{ACAD_REACTORS
330
17
102
}
330
17
100
AcDbMlineStyle
  2
STANDARD
 70
     0
  3

 62
   256
 51
90.0
 52
90.0
 71
     2
 49
0.5
 62
   256
  6
BYLAYER
 49
-0.5
 62
   256
  6
BYLAYER
  0
ACDBPLACEHOLDER
  5
F
102
{ACAD_REACTORS
330
E
102
}
330
E
  0
ENDSEC
  0
EOF
