  0
SECTION
  2
HEADER
  9
$ACADVER
  1
AC1009
  9
$INSBASE
 10
0.0
 20
0.0
 30
0.0
  9
$EXTMIN
 10
-0.001235257314093
 20
-0.0018919454909536
 30
-0.0015258207003583
  9
$EXTMAX
 10
40.481235445813759
 20
62.00189223420093
 30
0.0000000349246037
  9
$LIMMIN
 10
0.0
 20
0.0
  9
$LIMMAX
 10
40.479999999999997
 20
62.0
  9
$ORTHOMODE
 70
     1
  9
$REGENMODE
 70
     1
  9
$FILLMODE
 70
     1
  9
$QTEXTMODE
 70
     0
  9
$MIRRTEXT
 70
     0
  9
$DRAGMODE
 70
     2
  9
$LTSCALE
 40
1.0
  9
$OSMODE
 70
    37
  9
$ATTMODE
 70
     1
  9
$TEXTSIZE
 40
0.5
  9
$TRACEWID
 40
0.05
  9
$TEXTSTYLE
  7
TXT
  9
$CLAYER
  8
TEXT
  9
$CELTYPE
  6
BYLAYER
  9
$CECOLOR
 62
   256
  9
$DIMSCALE
 40
4.0
  9
$DIMASZ
 40
0.18
  9
$DIMEXO
 40
0.063
  9
$DIMDLI
 40
0.25
  9
$DIMRND
 40
0.0
  9
$DIMDLE
 40
0.0
  9
$DIMEXE
 40
0.093
  9
$DIMTP
 40
0.0
  9
$DIMTM
 40
0.0
  9
$DIMTXT
 40
0.125
  9
$DIMCEN
 40
0.09
  9
$DIMTSZ
 40
0.0
  9
$DIMTOL
 70
     0
  9
$DIMLIM
 70
     0
  9
$DIMTIH
 70
     1
  9
$DIMTOH
 70
     1
  9
$DIMSE1
 70
     0
  9
$DIMSE2
 70
     0
  9
$DIMTAD
 70
     0
  9
$DIMZIN
 70
     0
  9
$DIMBLK
  1

  9
$DIMASO
 70
     1
  9
$DIMSHO
 70
     1
  9
$DIMPOST
  1

  9
$DIMAPOST
  1

  9
$DIMALT
 70
     0
  9
$DIMALTD
 70
     2
  9
$DIMALTF
 40
25.399999999999999
  9
$DIMLFAC
 40
1.0
  9
$DIMTOFL
 70
     0
  9
$DIMTVP
 40
0.0
  9
$DIMTIX
 70
     0
  9
$DIMSOXD
 70
     0
  9
$DIMSAH
 70
     0
  9
$DIMBLK1
  1

  9
$DIMBLK2
  1

  9
$DIMSTYLE
  2
23NSTD
  9
$DIMCLRD
 70
     0
  9
$DIMCLRE
 70
     0
  9
$DIMCLRT
 70
     0
  9
$DIMTFAC
 40
1.0
  9
$DIMGAP
 40
0.09
  9
$LUNITS
 70
     2
  9
$LUPREC
 70
     3
  9
$SKETCHINC
 40
0.1
  9
$FILLETRAD
 40
0.0
  9
$AUNITS
 70
     0
  9
$AUPREC
 70
     0
  9
$MENU
  1
acad
  9
$ELEVATION
 40
0.0
  9
$PELEVATION
 40
0.0
  9
$THICKNESS
 40
0.0
  9
$LIMCHECK
 70
     0
  9
$BLIPMODE
 70
     0
  9
$CHAMFERA
 40
0.0
  9
$CHAMFERB
 40
0.0
  9
$SKPOLY
 70
     0
  9
$TDCREATE
 40
2450422.6453783559
  9
$TDUPDATE
 40
2451802.3698234842
  9
$TDINDWG
 40
0.2023248611
  9
$TDUSRTIMER
 40
0.2023248611
  9
$USRTIMER
 70
     1
  9
$ANGBASE
 50
0.0
  9
$ANGDIR
 70
     0
  9
$PDMODE
 70
     0
  9
$PDSIZE
 40
0.0
  9
$PLINEWID
 40
0.0
  9
$COORDS
 70
     0
  9
$SPLFRAME
 70
     0
  9
$SPLINETYPE
 70
     6
  9
$SPLINESEGS
 70
     8
  9
$ATTDIA
 70
     0
  9
$ATTREQ
 70
     1
  9
$HANDLING
 70
  4097
  9
$HANDSEED
  5
D7F
  9
$SURFTAB1
 70
     6
  9
$SURFTAB2
 70
     6
  9
$SURFTYPE
 70
     6
  9
$SURFU
 70
     6
  9
$SURFV
 70
     6
  9
$UCSNAME
  2

  9
$UCSORG
 10
0.0
 20
0.0
 30
0.0
  9
$UCSXDIR
 10
1.0
 20
0.0
 30
0.0
  9
$UCSYDIR
 10
0.0
 20
1.0
 30
0.0
  9
$PUCSNAME
  2

  9
$PUCSORG
 10
0.0
 20
0.0
 30
0.0
  9
$PUCSXDIR
 10
1.0
 20
0.0
 30
0.0
  9
$PUCSYDIR
 10
0.0
 20
1.0
 30
0.0
  9
$USERI1
 70
     0
  9
$USERI2
 70
     0
  9
$USERI3
 70
     0
  9
$USERI4
 70
     0
  9
$USERI5
 70
     0
  9
$USERR1
 40
0.0
  9
$USERR2
 40
0.0
  9
$USERR3
 40
0.0
  9
$USERR4
 40
0.0
  9
$USERR5
 40
0.0
  9
$WORLDVIEW
 70
     1
  9
$SHADEDGE
 70
     3
  9
$SHADEDIF
 70
    70
  9
$TILEMODE
 70
     1
  9
$MAXACTVP
 70
    16
  9
$PLIMCHECK
 70
     0
  9
$PEXTMIN
 10
1.0000000000000000E+020
 20
1.0000000000000000E+020
 30
1.0000000000000000E+020
  9
$PEXTMAX
 10
-1.0000000000000000E+020
 20
-1.0000000000000000E+020
 30
-1.0000000000000000E+020
  9
$PLIMMIN
 10
0.0
 20
0.0
  9
$PLIMMAX
 10
12.0
 20
9.0
  9
$UNITMODE
 70
     0
  9
$VISRETAIN
 70
     0
  9
$PLINEGEN
 70
     0
  9
$PSLTSCALE
 70
     1
  0
ENDSEC
  0
SECTION
  2
TABLES
  0
TABLE
  2
VPORT
 70
     2
  0
VPORT
  2
*ACTIVE
 70
     0
 10
0.0
 20
0.0
 11
1.0
 21
1.0
 12
20.240000094249829
 22
31.000000144354988
 13
0.0
 23
0.0
 14
0.5
 24
0.5
 15
0.5
 25
0.5
 16
0.0
 26
0.0
 36
1.0
 17
0.0
 27
0.0
 37
0.0
 40
62.701762988468907
 41
1.8139097744360899
 42
50.0
 43
0.0
 44
0.0
 50
0.0
 51
0.0
 71
     0
 72
   500
 73
     1
 74
     0
 75
     0
 76
     0
 77
     0
 78
     1
  0
ENDTAB
  0
TABLE
  2
LTYPE
 70
     7
  0
LTYPE
  2
CONTINUOUS
 70
     0
  3
Solid line
 72
    65
 73
     0
 40
0.0
  0
LTYPE
  2
HIDDEN
 70
     0
  3
_ _ _ _ _ _ _ _ _ _ _ _ _ _ _ _ _ _ _ _ _ _ _
 72
    65
 73
     2
 40
0.375
 49
0.25
 49
-0.125
  0
LTYPE
  2
PHANTOM
 70
     0
  3
_____ _ _ _____ _ _ _____ _ _ _____ _ _ ____
 72
    65
 73
     6
 40
2.5
 49
1.25
 49
-0.25
 49
0.25
 49
-0.25
 49
0.25
 49
-0.25
  0
LTYPE
  2
CENTER
 70
     0
  3
____ _ ____ _ ____ _ ____ _ ____ _ ____ _ ____
 72
    65
 73
     4
 40
2.0
 49
1.25
 49
-0.25
 49
0.25
 49
-0.25
  0
LTYPE
  2
HIDDEN2
 70
     0
  3
_ _ _ _ _ _ _ _ _ _ _ _ _ _ _ _ _ _ _ _ _ _ _ _
 72
    65
 73
     2
 40
0.1875
 49
0.125
 49
-0.0625
  0
LTYPE
  2
PHANTOM2
 70
     0
  3
___ _ _ ___ _ _ ___ _ _ ___ _ _ ___ _ _ ___ _ _
 72
    65
 73
     6
 40
1.25
 49
0.625
 49
-0.125
 49
0.125
 49
-0.125
 49
0.125
 49
-0.125
  0
LTYPE
  2
CENTER2
 70
     0
  3
___ _ ___ _ ___ _ ___ _ ___ _ ___ _ ___ _ ___ _
 72
    65
 73
     4
 40
1.125
 49
0.75
 49
-0.125
 49
0.125
 49
-0.125
  0
ENDTAB
  0
TABLE
  2
LAYER
 70
     9
  0
LAYER
  2
0
 70
     0
 62
     7
  6
CONTINUOUS
  0
LAYER
  2
TEXT
 70
     0
 62
     7
  6
CONTINUOUS
  0
LAYER
  2
OBJECT
 70
     0
 62
     7
  6
CONTINUOUS
  0
LAYER
  2
DIM
 70
     0
 62
     7
  6
CONTINUOUS
  0
LAYER
  2
HIDDEN
 70
     0
 62
     7
  6
HIDDEN
  0
LAYER
  2
TITLE
 70
     0
 62
     7
  6
CONTINUOUS
  0
LAYER
  2
CENTER
 70
     0
 62
     7
  6
CENTER
  0
LAYER
  2
DEFPOINTS
 70
     0
 62
    -7
  6
CONTINUOUS
  0
ENDTAB
  0
TABLE
  2
STYLE
 70
     2
  0
STYLE
  2
STANDARD
 70
     0
 40
0.0
 41
1.0
 50
0.0
 71
     0
 42
0.2
  3
txt
  4

  0
STYLE
  2
TXT
 70
     0
 40
0.0
 41
0.75
 50
0.0
 71
     0
 42
0.5
  3
TXT.shx
  4

  0
ENDTAB
  0
TABLE
  2
VIEW
 70
     0
  0
ENDTAB
  0
TABLE
  2
UCS
 70
     0
  0
ENDTAB
  0
TABLE
  2
APPID
 70
     1
  0
APPID
  2
ACAD
 70
     0
  0
ENDTAB
  0
TABLE
  2
DIMSTYLE
 70
     2
  0
DIMSTYLE
  2
23NSTD
 70
     0
  3

  4

  5

  6

  7

 40
4.0
 41
0.18
 42
0.063
 43
0.25
 44
0.093
 45
0.0
 46
0.0
 47
0.0
 48
0.0
140
0.125
141
0.09
142
0.0
143
25.399999999999999
144
1.0
145
0.0
146
1.0
147
0.09
 71
     0
 72
     0
 73
     1
 74
     1
 75
     0
 76
     0
 77
     0
 78
     0
170
     0
171
     2
172
     0
173
     0
174
     0
175
     0
176
     0
177
     0
178
     0
  0
DIMSTYLE
  2
23NSTDI
 70
     0
  3

  4
ction
  5

  6

  7

 40
4.0
 41
0.18
 42
0.063
 43
0.25
 44
0.093
 45
0.0
 46
0.0
 47
0.0
 48
0.0
140
0.125
141
0.09
142
0.0
143
25.399999999999999
144
1.0
145
0.0
146
1.0
147
0.09
 71
     0
 72
     0
 73
     1
 74
     1
 75
     0
 76
     0
 77
     0
 78
     0
170
     0
171
     2
172
     0
173
     0
174
     1
175
     0
176
     0
177
     0
178
     0
  0
ENDTAB
  0
ENDSEC
  0
SECTION
  2
BLOCKS
  0
BLOCK
  8
0
  2
$MODEL_SPACE
 70
     0
 10
0.0
 20
0.0
 30
0.0
  3
$MODEL_SPACE
  1

  0
ENDBLK
  5
20
  8
0
  0
BLOCK
 67
     1
  8
0
  2
$PAPER_SPACE
 70
     0
 10
0.0
 20
0.0
 30
0.0
  3
$PAPER_SPACE
  1

  0
ENDBLK
  5
1C
 67
     1
  8
0
  0
BLOCK
  8
0
  2
*D48
 70
     1
 10
0.0
 20
0.0
 30
0.0
  3
*D48
  1

  0
LINE
  5
A3B
  8
DIM
 62
     0
 10
14.195083999999991
 20
54.250849000000002
 30
0.0
 11
14.195083999999991
 21
56.810848999999997
 31
0.0
  0
LINE
  5
A3C
  8
DIM
 62
     0
 10
14.02308399999999
 20
54.250849000000002
 30
0.0
 11
14.02308399999999
 21
56.810848999999997
 31
0.0
  0
LINE
  5
A3D
  8
DIM
 62
     0
 10
14.915084
 20
56.43884899999999
 30
0.0
 11
15.63508399999999
 21
56.43884899999999
 31
0.0
  0
LINE
  5
A3E
  8
DIM
 62
     0
 10
13.303083999999989
 20
56.43884899999999
 30
0.0
 11
12.583083999999991
 21
56.43884899999999
 31
0.0
  0
SOLID
  5
A3F
  8
DIM
 62
     0
 10
14.915084
 20
56.558849000000002
 30
0.0
 11
14.915084
 21
56.318849
 31
0.0
 12
14.195083999999991
 22
56.43884899999999
 32
0.0
 13
14.195083999999991
 23
56.43884899999999
 33
0.0
  0
SOLID
  5
A40
  8
DIM
 62
     0
 10
13.303083999999989
 20
56.558849000000002
 30
0.0
 11
13.303083999999989
 21
56.318849
 31
0.0
 12
14.02308399999999
 22
56.43884899999999
 32
0.0
 13
14.02308399999999
 23
56.43884899999999
 33
0.0
  0
TEXT
  5
A41
  8
TEXT
 62
     0
 10
10.910584
 20
56.188848999999998
 30
0.0
 40
0.5
  1
0.172
 41
0.75
  7
TXT
  0
POINT
  5
A42
  8
DEFPOINTS
 62
     0
 10
14.195083999999991
 20
53.998848999999993
 30
0.0
  0
POINT
  5
A43
  8
DEFPOINTS
 62
     0
 10
14.02308399999999
 20
53.998848999999993
 30
0.0
  0
POINT
  5
A44
  8
DEFPOINTS
 62
     0
 10
14.02308399999999
 20
56.43884899999999
 30
0.0
  0
ENDBLK
  5
2D2
  8
0
  0
BLOCK
  8
0
  2
*D49
 70
     1
 10
0.0
 20
0.0
 30
0.0
  3
*D49
  1

  0
LINE
  5
A45
  8
DIM
 62
     0
 10
15.00708399999999
 20
54.250849000000002
 30
0.0
 11
15.00708399999999
 21
55.810848999999997
 31
0.0
  0
LINE
  5
A46
  8
DIM
 62
     0
 10
15.179084
 20
54.250849000000002
 30
0.0
 11
15.179084
 21
55.810848999999997
 31
0.0
  0
LINE
  5
A47
  8
DIM
 62
     0
 10
14.287083999999989
 20
55.438848999999998
 30
0.0
 11
13.567083999999999
 21
55.438848999999998
 31
0.0
  0
LINE
  5
A48
  8
DIM
 62
     0
 10
15.899084
 20
55.438848999999998
 30
0.0
 11
16.619084000000001
 21
55.438848999999998
 31
0.0
  0
SOLID
  5
A49
  8
DIM
 62
     0
 10
14.287083999999989
 20
55.558848999999988
 30
0.0
 11
14.287083999999989
 21
55.318849
 31
0.0
 12
15.00708399999999
 22
55.438848999999998
 32
0.0
 13
15.00708399999999
 23
55.438848999999998
 33
0.0
  0
SOLID
  5
A4A
  8
DIM
 62
     0
 10
15.899084
 20
55.558848999999988
 30
0.0
 11
15.899084
 21
55.318849
 31
0.0
 12
15.179084
 22
55.438848999999998
 32
0.0
 13
15.179084
 23
55.438848999999998
 33
0.0
  0
TEXT
  5
A4B
  8
TEXT
 62
     0
 10
16.979084
 20
55.18884899999999
 30
0.0
 40
0.5
  1
0.172
 41
0.75
  7
TXT
  0
POINT
  5
A4C
  8
DEFPOINTS
 62
     0
 10
15.00708399999999
 20
53.998848999999993
 30
0.0
  0
POINT
  5
A4D
  8
DEFPOINTS
 62
     0
 10
15.179084
 20
53.998848999999993
 30
0.0
  0
POINT
  5
A4E
  8
DEFPOINTS
 62
     0
 10
15.179084
 20
55.438848999999998
 30
0.0
  0
ENDBLK
  5
2E0
  8
0
  0
BLOCK
  8
0
  2
*D50
 70
     1
 10
0.0
 20
0.0
 30
0.0
  3
*D50
  1

  0
LINE
  5
A4F
  8
DIM
 62
     0
 10
14.88214
 20
49.996848999999997
 30
0.0
 11
14.88214
 21
48.964849000000001
 31
0.0
  0
LINE
  5
A50
  8
DIM
 62
     0
 10
14.320028000000001
 20
49.996848999999997
 30
0.0
 11
14.320028000000001
 21
48.964849000000001
 31
0.0
  0
LINE
  5
A51
  8
DIM
 62
     0
 10
15.60214
 20
49.336849000000001
 30
0.0
 11
16.322140000000001
 21
49.336849000000001
 31
0.0
  0
LINE
  5
A52
  8
DIM
 62
     0
 10
13.600028
 20
49.336849000000001
 30
0.0
 11
12.880027999999999
 21
49.336849000000001
 31
0.0
  0
SOLID
  5
A53
  8
DIM
 62
     0
 10
15.60214
 20
49.456848999999991
 30
0.0
 11
15.60214
 21
49.216849000000003
 31
0.0
 12
14.88214
 22
49.336849000000001
 32
0.0
 13
14.88214
 23
49.336849000000001
 33
0.0
  0
SOLID
  5
A54
  8
DIM
 62
     0
 10
13.600028
 20
49.456848999999991
 30
0.0
 11
13.600028
 21
49.216849000000003
 31
0.0
 12
14.320028000000001
 22
49.336849000000001
 32
0.0
 13
14.320028000000001
 23
49.336849000000001
 33
0.0
  0
TEXT
  5
A55
  8
TEXT
 62
     0
 10
11.082528
 20
49.086849000000001
 30
0.0
 40
0.5
  1
0.562
 41
0.75
  7
TXT
  0
POINT
  5
A56
  8
DEFPOINTS
 62
     0
 10
14.88214
 20
50.248848999999993
 30
0.0
  0
POINT
  5
A57
  8
DEFPOINTS
 62
     0
 10
14.320028000000001
 20
50.248848999999993
 30
0.0
  0
POINT
  5
A58
  8
DEFPOINTS
 62
     0
 10
14.320028000000001
 20
49.336849000000001
 30
0.0
  0
ENDBLK
  5
2EE
  8
0
  0
BLOCK
  8
0
  2
*D51
 70
     1
 10
0.0
 20
0.0
 30
0.0
  3
*D51
  1

  0
LINE
  5
A59
  8
DIM
 62
     0
 10
14.02308399999999
 20
54.250849000000002
 30
0.0
 11
14.02308399999999
 21
57.81084899999999
 31
0.0
  0
LINE
  5
A5A
  8
DIM
 62
     0
 10
15.179084
 20
54.250849000000002
 30
0.0
 11
15.179084
 21
57.81084899999999
 31
0.0
  0
LINE
  5
A5B
  8
DIM
 62
     0
 10
13.303083999999989
 20
57.438848999999998
 30
0.0
 11
12.583083999999991
 21
57.438848999999998
 31
0.0
  0
LINE
  5
A5C
  8
DIM
 62
     0
 10
15.899084
 20
57.438848999999998
 30
0.0
 11
16.619084000000001
 21
57.438848999999998
 31
0.0
  0
SOLID
  5
A5D
  8
DIM
 62
     0
 10
13.303083999999989
 20
57.558848999999988
 30
0.0
 11
13.303083999999989
 21
57.318849
 31
0.0
 12
14.02308399999999
 22
57.438848999999998
 32
0.0
 13
14.02308399999999
 23
57.438848999999998
 33
0.0
  0
SOLID
  5
A5E
  8
DIM
 62
     0
 10
15.899084
 20
57.558848999999988
 30
0.0
 11
15.899084
 21
57.318849
 31
0.0
 12
15.179084
 22
57.438848999999998
 32
0.0
 13
15.179084
 23
57.438848999999998
 33
0.0
  0
TEXT
  5
A5F
  8
TEXT
 62
     0
 10
16.979084
 20
57.18884899999999
 30
0.0
 40
0.5
  1
1.156
 41
0.75
  7
TXT
  0
POINT
  5
A60
  8
DEFPOINTS
 62
     0
 10
14.02308399999999
 20
53.998848999999993
 30
0.0
  0
POINT
  5
A61
  8
DEFPOINTS
 62
     0
 10
15.179084
 20
53.998848999999993
 30
0.0
  0
POINT
  5
A62
  8
DEFPOINTS
 62
     0
 10
15.179084
 20
57.438848999999998
 30
0.0
  0
ENDBLK
  5
2FC
  8
0
  0
BLOCK
  8
0
  2
*D52
 70
     1
 10
0.0
 20
0.0
 30
0.0
  3
*D52
  1

  0
LINE
  5
A63
  8
DIM
 62
     0
 10
15.13414
 20
50.248848999999993
 30
0.0
 11
16.463083999999991
 21
50.248848999999993
 31
0.0
  0
LINE
  5
A64
  8
DIM
 62
     0
 10
15.431084
 20
53.998848999999993
 30
0.0
 11
16.463083999999991
 21
53.998848999999993
 31
0.0
  0
LINE
  5
A65
  8
DIM
 62
     0
 10
16.091083999999999
 20
50.968848999999992
 30
0.0
 11
16.091083999999999
 21
51.513849
 31
0.0
  0
LINE
  5
A66
  8
DIM
 62
     0
 10
16.091083999999999
 20
53.278848999999987
 30
0.0
 11
16.091083999999999
 21
52.733848999999992
 31
0.0
  0
SOLID
  5
A67
  8
DIM
 62
     0
 10
15.971083999999991
 20
50.968848999999999
 30
0.0
 11
16.211083999999989
 21
50.968848999999992
 31
0.0
 12
16.091083999999999
 22
50.248848999999993
 32
0.0
 13
16.091083999999999
 23
50.248848999999993
 33
0.0
  0
SOLID
  5
A68
  8
DIM
 62
     0
 10
15.971083999999999
 20
53.278849000000001
 30
0.0
 11
16.211083999999989
 21
53.278848999999987
 31
0.0
 12
16.091083999999999
 22
53.998848999999993
 32
0.0
 13
16.091083999999999
 23
53.998848999999993
 33
0.0
  0
TEXT
  5
A69
  8
TEXT
 62
     0
 10
15.37233399999999
 20
51.873849
 30
0.0
 40
0.5
  1
3.750
 41
0.75
  7
TXT
  0
POINT
  5
A6A
  8
DEFPOINTS
 62
     0
 10
14.88214
 20
50.248848999999993
 30
0.0
  0
POINT
  5
A6B
  8
DEFPOINTS
 62
     0
 10
15.179084
 20
53.998848999999993
 30
0.0
  0
POINT
  5
A6C
  8
DEFPOINTS
 62
     0
 10
16.091083999999999
 20
53.998848999999993
 30
0.0
  0
ENDBLK
  5
30A
  8
0
  0
BLOCK
  8
0
  2
*D53
 70
     1
 10
0.0
 20
0.0
 30
0.0
  3
*D53
  1

  0
LINE
  5
BA1
  8
DIM
 62
     0
 10
17.571995000000001
 20
30.124386999999999
 30
0.0
 11
17.571995000000001
 21
34.356790999999987
 31
0.0
  0
LINE
  5
BA2
  8
DIM
 62
     0
 10
16.071995000000001
 20
30.89338699999999
 30
0.0
 11
16.071995000000001
 21
34.356790999999987
 31
0.0
  0
LINE
  5
BA3
  8
DIM
 62
     0
 10
18.291995
 20
33.984790999999987
 30
0.0
 11
19.011994999999999
 21
33.984790999999987
 31
0.0
  0
LINE
  5
BA4
  8
DIM
 62
     0
 10
15.351995000000001
 20
33.984790999999987
 30
0.0
 11
14.631995
 21
33.984790999999987
 31
0.0
  0
SOLID
  5
BA5
  8
DIM
 62
     0
 10
18.291995
 20
34.104790999999992
 30
0.0
 11
18.291995
 21
33.86479099999999
 31
0.0
 12
17.571995000000001
 22
33.984790999999987
 32
0.0
 13
17.571995000000001
 23
33.984790999999987
 33
0.0
  0
SOLID
  5
BA6
  8
DIM
 62
     0
 10
15.351995000000001
 20
34.104790999999992
 30
0.0
 11
15.351995000000001
 21
33.86479099999999
 31
0.0
 12
16.071995000000001
 22
33.984790999999987
 32
0.0
 13
16.071995000000001
 23
33.984790999999987
 33
0.0
  0
TEXT
  5
BA7
  8
TEXT
 62
     0
 10
16.196995000000001
 20
33.734790999999987
 30
0.0
 40
0.5
  1
1.500
 41
0.75
  7
TXT
  0
POINT
  5
BA8
  8
DEFPOINTS
 62
     0
 10
17.571995000000001
 20
29.872387
 30
0.0
  0
POINT
  5
BA9
  8
DEFPOINTS
 62
     0
 10
16.071995000000001
 20
30.641386999999991
 30
0.0
  0
POINT
  5
BAA
  8
DEFPOINTS
 62
     0
 10
16.071995000000001
 20
33.984790999999987
 30
0.0
  0
ENDBLK
  5
3CC
  8
0
  0
BLOCK
  8
0
  2
*D54
 70
     1
 10
0.0
 20
0.0
 30
0.0
  3
*D54
  1

  0
LINE
  5
A6D
  8
DIM
 62
     0
 10
16.399995000000001
 20
30.749386999999999
 30
0.0
 11
16.399995000000001
 21
33.356790999999987
 31
0.0
  0
LINE
  5
A6E
  8
DIM
 62
     0
 10
16.071995000000001
 20
30.89338699999999
 30
0.0
 11
16.071995000000001
 21
33.356790999999987
 31
0.0
  0
LINE
  5
A6F
  8
DIM
 62
     0
 10
17.119994999999999
 20
32.984790999999987
 30
0.0
 11
17.839994999999998
 21
32.984790999999987
 31
0.0
  0
LINE
  5
A70
  8
DIM
 62
     0
 10
15.351995000000001
 20
32.984790999999987
 30
0.0
 11
14.631994999999989
 21
32.984790999999987
 31
0.0
  0
SOLID
  5
A71
  8
DIM
 62
     0
 10
17.119994999999999
 20
33.104790999999992
 30
0.0
 11
17.119994999999999
 21
32.86479099999999
 31
0.0
 12
16.399995000000001
 22
32.984790999999987
 32
0.0
 13
16.399995000000001
 23
32.984790999999987
 33
0.0
  0
SOLID
  5
A72
  8
DIM
 62
     0
 10
15.351995000000001
 20
33.104790999999992
 30
0.0
 11
15.351995000000001
 21
32.86479099999999
 31
0.0
 12
16.071995000000001
 22
32.984790999999987
 32
0.0
 13
16.071995000000001
 23
32.984790999999987
 33
0.0
  0
TEXT
  5
A73
  8
TEXT
 62
     0
 10
12.834495
 20
32.734790999999987
 30
0.0
 40
0.5
  1
0.328
 41
0.75
  7
TXT
  0
POINT
  5
A74
  8
DEFPOINTS
 62
     0
 10
16.399995000000001
 20
30.497387
 30
0.0
  0
POINT
  5
A75
  8
DEFPOINTS
 62
     0
 10
16.071995000000001
 20
30.641386999999991
 30
0.0
  0
POINT
  5
A76
  8
DEFPOINTS
 62
     0
 10
16.071995000000001
 20
32.984790999999987
 30
0.0
  0
ENDBLK
  5
3DA
  8
0
  0
BLOCK
  8
0
  2
*D55
 70
     1
 10
0.0
 20
0.0
 30
0.0
  3
*D55
  1

  0
LINE
  5
BAB
  8
DIM
 62
     0
 10
15.819995
 20
30.641386999999991
 30
0.0
 11
13.58207
 21
30.641386999999991
 31
0.0
  0
LINE
  5
BAC
  8
DIM
 62
     0
 10
17.229994999999999
 20
29.782387
 30
0.0
 11
13.58207
 21
29.782387
 31
0.0
  0
LINE
  5
BAD
  8
DIM
 62
     0
 10
13.95407
 20
31.361387000000001
 30
0.0
 11
13.95407
 21
32.081386999999999
 31
0.0
  0
LINE
  5
BAE
  8
DIM
 62
     0
 10
13.95407
 20
29.062387000000001
 30
0.0
 11
13.95407
 21
28.342386999999999
 31
0.0
  0
SOLID
  5
BAF
  8
DIM
 62
     0
 10
13.834070000000001
 20
31.361387000000001
 30
0.0
 11
14.074070000000001
 21
31.361387000000001
 31
0.0
 12
13.95407
 22
30.641386999999991
 32
0.0
 13
13.95407
 23
30.641386999999991
 33
0.0
  0
SOLID
  5
BB0
  8
DIM
 62
     0
 10
13.834070000000001
 20
29.062387000000001
 30
0.0
 11
14.074070000000001
 21
29.062387000000001
 31
0.0
 12
13.95407
 22
29.782387
 32
0.0
 13
13.95407
 23
29.782387
 33
0.0
  0
TEXT
  5
BB1
  8
TEXT
 62
     0
 10
13.235319999999991
 20
29.961887000000001
 30
0.0
 40
0.5
  1
0.859
 41
0.75
  7
TXT
  0
POINT
  5
BB2
  8
DEFPOINTS
 62
     0
 10
16.071995000000001
 20
30.641386999999991
 30
0.0
  0
POINT
  5
BB3
  8
DEFPOINTS
 62
     0
 10
17.481995000000001
 20
29.782387
 30
0.0
  0
POINT
  5
BB4
  8
DEFPOINTS
 62
     0
 10
13.95407
 20
29.782387
 30
0.0
  0
ENDBLK
  5
3E8
  8
0
  0
BLOCK
  8
0
  2
*D56
 70
     1
 10
0.0
 20
0.0
 30
0.0
  3
*D56
  1

  0
LINE
  5
BB5
  8
DIM
 62
     0
 10
16.071995000000001
 20
30.89338699999999
 30
0.0
 11
16.071995000000001
 21
35.356790999999987
 31
0.0
  0
LINE
  5
BB6
  8
DIM
 62
     0
 10
35.071995000000001
 20
30.89338699999999
 30
0.0
 11
35.071995000000001
 21
35.356790999999987
 31
0.0
  0
LINE
  5
BB7
  8
DIM
 62
     0
 10
16.791995
 20
34.984790999999987
 30
0.0
 11
24.430745000000002
 21
34.984790999999987
 31
0.0
  0
LINE
  5
BB8
  8
DIM
 62
     0
 10
34.351995000000002
 20
34.984790999999987
 30
0.0
 11
26.713245000000001
 21
34.984790999999987
 31
0.0
  0
SOLID
  5
BB9
  8
DIM
 62
     0
 10
16.791995
 20
35.104790999999992
 30
0.0
 11
16.791995
 21
34.86479099999999
 31
0.0
 12
16.071995000000001
 22
34.984790999999987
 32
0.0
 13
16.071995000000001
 23
34.984790999999987
 33
0.0
  0
SOLID
  5
BBA
  8
DIM
 62
     0
 10
34.351995000000002
 20
35.104790999999992
 30
0.0
 11
34.351995000000002
 21
34.86479099999999
 31
0.0
 12
35.071995000000001
 22
34.984790999999987
 32
0.0
 13
35.071995000000001
 23
34.984790999999987
 33
0.0
  0
TEXT
  5
BBB
  8
TEXT
 62
     0
 10
24.790745000000001
 20
34.734790999999987
 30
0.0
 40
0.5
  1
19.000
 41
0.75
  7
TXT
  0
POINT
  5
BBC
  8
DEFPOINTS
 62
     0
 10
16.071995000000001
 20
30.641386999999991
 30
0.0
  0
POINT
  5
BBD
  8
DEFPOINTS
 62
     0
 10
35.071995000000001
 20
30.641386999999991
 30
0.0
  0
POINT
  5
BBE
  8
DEFPOINTS
 62
     0
 10
35.071995000000001
 20
34.984790999999987
 30
0.0
  0
ENDBLK
  5
3F6
  8
0
  0
BLOCK
  8
0
  2
*D57
 70
     1
 10
0.0
 20
0.0
 30
0.0
  3
*D57
  1

  0
LINE
  5
A77
  8
DIM
 62
     0
 10
19.324494999999999
 20
4.4588609999999989
 30
0.0
 11
12.688701999999999
 21
4.4588610000000006
 31
0.0
  0
LINE
  5
A78
  8
DIM
 62
     0
 10
15.819995
 20
3.8498610000000002
 30
0.0
 11
12.688701999999999
 21
3.8498610000000002
 31
0.0
  0
LINE
  5
A79
  8
DIM
 62
     0
 10
13.060701999999999
 20
5.1788610000000013
 30
0.0
 11
13.060701999999999
 21
5.898861000000001
 31
0.0
  0
LINE
  5
A7A
  8
DIM
 62
     0
 10
13.060701999999999
 20
3.129861
 30
0.0
 11
13.060701999999999
 21
2.4098609999999998
 31
0.0
  0
LINE
  5
A7B
  8
DIM
 62
     0
 10
13.060701999999999
 20
2.4098609999999998
 30
0.0
 11
12.340702
 21
2.4098610000000011
 31
0.0
  0
SOLID
  5
A7C
  8
DIM
 62
     0
 10
12.940702
 20
5.1788610000000013
 30
0.0
 11
13.180702
 21
5.1788610000000013
 31
0.0
 12
13.060701999999999
 22
4.4588610000000006
 32
0.0
 13
13.060701999999999
 23
4.4588610000000006
 33
0.0
  0
SOLID
  5
A7D
  8
DIM
 62
     0
 10
12.940702
 20
3.129861
 30
0.0
 11
13.180702
 21
3.129861
 31
0.0
 12
13.060701999999999
 22
3.8498610000000002
 32
0.0
 13
13.060701999999999
 23
3.8498610000000002
 33
0.0
  0
TEXT
  5
A7E
  8
TEXT
 62
     0
 10
10.605702000000001
 20
2.159861000000002
 30
0.0
 40
0.5
  1
0.609
 41
0.75
  7
TXT
  0
POINT
  5
A7F
  8
DEFPOINTS
 62
     0
 10
19.576495000000001
 20
4.4588609999999989
 30
0.0
  0
POINT
  5
A80
  8
DEFPOINTS
 62
     0
 10
16.071995000000001
 20
3.8498610000000002
 30
0.0
  0
POINT
  5
A81
  8
DEFPOINTS
 62
     0
 10
13.060701999999999
 20
3.8498610000000002
 30
0.0
  0
ENDBLK
  5
467
  8
0
  0
BLOCK
  8
0
  2
*D58
 70
     1
 10
0.0
 20
0.0
 30
0.0
  3
*D58
  1

  0
LINE
  5
A82
  8
DIM
 62
     0
 10
35.085994999999997
 20
7.0838609999999989
 30
0.0
 11
37.573073999999998
 21
7.0838609999999989
 31
0.0
  0
LINE
  5
A83
  8
DIM
 62
     0
 10
35.323994999999996
 20
7.3178609999999988
 30
0.0
 11
37.573073999999998
 21
7.3178609999999988
 31
0.0
  0
LINE
  5
A84
  8
DIM
 62
     0
 10
37.201073999999991
 20
6.3638609999999991
 30
0.0
 11
37.201073999999991
 21
5.6438610000000002
 31
0.0
  0
LINE
  5
A85
  8
DIM
 62
     0
 10
37.201073999999991
 20
8.0378609999999995
 30
0.0
 11
37.201073999999991
 21
8.7578609999999983
 31
0.0
  0
LINE
  5
A86
  8
DIM
 62
     0
 10
37.201073999999991
 20
8.7578609999999983
 30
0.0
 11
37.92107399999999
 21
8.7578609999999983
 31
0.0
  0
SOLID
  5
A87
  8
DIM
 62
     0
 10
37.081074000000001
 20
6.3638609999999991
 30
0.0
 11
37.321073999999989
 21
6.3638609999999991
 31
0.0
 12
37.201073999999991
 22
7.0838609999999989
 32
0.0
 13
37.201073999999991
 23
7.0838609999999989
 33
0.0
  0
SOLID
  5
A88
  8
DIM
 62
     0
 10
37.081074000000001
 20
8.0378609999999995
 30
0.0
 11
37.321073999999989
 21
8.0378609999999995
 31
0.0
 12
37.201073999999991
 22
7.3178609999999988
 32
0.0
 13
37.201073999999991
 23
7.3178609999999988
 33
0.0
  0
TEXT
  5
A89
  8
TEXT
 62
     0
 10
38.281073999999997
 20
8.5078610000000054
 30
0.0
 40
0.5
  1
0.234
 41
0.75
  7
TXT
  0
POINT
  5
A8A
  8
DEFPOINTS
 62
     0
 10
34.833995000000002
 20
7.0838609999999989
 30
0.0
  0
POINT
  5
A8B
  8
DEFPOINTS
 62
     0
 10
35.071995000000001
 20
7.3178609999999988
 30
0.0
  0
POINT
  5
A8C
  8
DEFPOINTS
 62
     0
 10
37.201073999999991
 20
7.3178609999999988
 30
0.0
  0
ENDBLK
  5
477
  8
0
  0
BLOCK
  8
0
  2
*D59
 70
     1
 10
0.0
 20
0.0
 30
0.0
  3
*D59
  1

  0
LINE
  5
A8D
  8
DIM
 62
     0
 10
16.715994999999999
 20
4.2228609999999991
 30
0.0
 11
18.086960999999992
 21
4.2228609999999991
 31
0.0
  0
LINE
  5
A8E
  8
DIM
 62
     0
 10
16.715994999999999
 20
3.9448609999999991
 30
0.0
 11
18.086960999999992
 21
3.9448609999999991
 31
0.0
  0
LINE
  5
A8F
  8
DIM
 62
     0
 10
17.714960999999999
 20
4.9428609999999988
 30
0.0
 11
17.714960999999999
 21
5.6628609999999986
 31
0.0
  0
LINE
  5
A90
  8
DIM
 62
     0
 10
17.714960999999999
 20
3.2248609999999989
 30
0.0
 11
17.714960999999999
 21
2.5048609999999991
 31
0.0
  0
LINE
  5
A91
  8
DIM
 62
     0
 10
17.714960999999999
 20
2.5048609999999991
 30
0.0
 11
16.994961
 21
2.504861
 31
0.0
  0
SOLID
  5
A92
  8
DIM
 62
     0
 10
17.594960999999991
 20
4.9428609999999988
 30
0.0
 11
17.834960999999989
 21
4.9428609999999988
 31
0.0
 12
17.714960999999999
 22
4.2228609999999991
 32
0.0
 13
17.714960999999999
 23
4.2228609999999991
 33
0.0
  0
SOLID
  5
A93
  8
DIM
 62
     0
 10
17.594960999999991
 20
3.2248609999999989
 30
0.0
 11
17.834960999999989
 21
3.2248609999999989
 31
0.0
 12
17.714960999999999
 22
3.9448609999999991
 32
0.0
 13
17.714960999999999
 23
3.9448609999999991
 33
0.0
  0
TEXT
  5
A94
  8
TEXT
 62
     0
 10
13.572461000000001
 20
2.2548610000000018
 30
0.0
 40
0.5
  1
0.278 REF.
 41
0.75
  7
TXT
  0
POINT
  5
A95
  8
DEFPOINTS
 62
     0
 10
16.463995000000001
 20
4.2228609999999991
 30
0.0
  0
POINT
  5
A96
  8
DEFPOINTS
 62
     0
 10
16.463995000000001
 20
3.9448609999999991
 30
0.0
  0
POINT
  5
A97
  8
DEFPOINTS
 62
     0
 10
17.714960999999999
 20
3.9448609999999991
 30
0.0
  0
ENDBLK
  5
485
  8
0
  0
BLOCK
  8
0
  2
*D60
 70
     1
 10
0.0
 20
0.0
 30
0.0
  3
*D60
  1

  0
LINE
  5
BBF
  8
DIM
 62
     0
 10
19.324494999999999
 20
4.4588609999999989
 30
0.0
 11
11.316701999999999
 21
4.4588610000000024
 31
0.0
  0
LINE
  5
BC0
  8
DIM
 62
     0
 10
19.324494999999999
 20
6.7088609999999989
 30
0.0
 11
11.316701999999999
 21
6.7088610000000024
 31
0.0
  0
LINE
  5
BC1
  8
DIM
 62
     0
 10
11.68870199999999
 20
3.7388610000000022
 30
0.0
 11
11.68870199999999
 21
3.018861000000002
 31
0.0
  0
LINE
  5
BC2
  8
DIM
 62
     0
 10
11.688701999999999
 20
7.4288610000000022
 30
0.0
 11
11.688701999999999
 21
8.1488610000000037
 31
0.0
  0
SOLID
  5
BC3
  8
DIM
 62
     0
 10
11.568701999999989
 20
3.7388610000000022
 30
0.0
 11
11.80870199999999
 21
3.7388610000000022
 31
0.0
 12
11.688701999999999
 22
4.4588610000000024
 32
0.0
 13
11.688701999999999
 23
4.4588610000000024
 33
0.0
  0
SOLID
  5
BC4
  8
DIM
 62
     0
 10
11.568702
 20
7.4288610000000022
 30
0.0
 11
11.80870199999999
 21
7.4288610000000022
 31
0.0
 12
11.688701999999999
 22
6.7088610000000024
 32
0.0
 13
11.688701999999999
 23
6.7088610000000024
 33
0.0
  0
TEXT
  5
BC5
  8
TEXT
 62
     0
 10
10.969951999999999
 20
5.3338610000000042
 30
0.0
 40
0.5
  1
2.250
 41
0.75
  7
TXT
  0
POINT
  5
BC6
  8
DEFPOINTS
 62
     0
 10
19.576495000000001
 20
4.4588609999999989
 30
0.0
  0
POINT
  5
BC7
  8
DEFPOINTS
 62
     0
 10
19.576495000000001
 20
6.7088609999999989
 30
0.0
  0
POINT
  5
BC8
  8
DEFPOINTS
 62
     0
 10
11.688701999999999
 20
6.7088610000000024
 30
0.0
  0
ENDBLK
  5
545
  8
0
  0
BLOCK
  8
0
  2
*D61
 70
     1
 10
0.0
 20
0.0
 30
0.0
  3
*D61
  1

  0
LINE
  5
BC9
  8
DIM
 62
     0
 10
15.819995
 20
3.8498610000000002
 30
0.0
 11
9.9447019999999995
 21
3.849861000000002
 31
0.0
  0
LINE
  5
BCA
  8
DIM
 62
     0
 10
16.824995000000001
 20
5.052861
 30
0.0
 11
9.9447020000000013
 21
5.0528610000000009
 31
0.0
  0
LINE
  5
BCB
  8
DIM
 62
     0
 10
10.31670199999999
 20
3.1298610000000018
 30
0.0
 11
10.31670199999999
 21
2.409861000000002
 31
0.0
  0
LINE
  5
BCC
  8
DIM
 62
     0
 10
10.316701999999999
 20
5.7728609999999998
 30
0.0
 11
10.316701999999999
 21
6.4928610000000004
 31
0.0
  0
SOLID
  5
BCD
  8
DIM
 62
     0
 10
10.196701999999989
 20
3.1298610000000018
 30
0.0
 11
10.43670199999999
 21
3.1298610000000018
 31
0.0
 12
10.31670199999999
 22
3.849861000000002
 32
0.0
 13
10.31670199999999
 23
3.849861000000002
 33
0.0
  0
SOLID
  5
BCE
  8
DIM
 62
     0
 10
10.196702
 20
5.7728609999999998
 30
0.0
 11
10.43670199999999
 21
5.7728609999999998
 31
0.0
 12
10.316701999999999
 22
5.052861
 32
0.0
 13
10.316701999999999
 23
5.052861
 33
0.0
  0
TEXT
  5
BCF
  8
TEXT
 62
     0
 10
9.6604519999999994
 20
4.201361000000003
 30
0.0
 40
0.5
  1
1.203
 41
0.75
  7
TXT
  0
POINT
  5
BD0
  8
DEFPOINTS
 62
     0
 10
16.071995000000001
 20
3.8498610000000002
 30
0.0
  0
POINT
  5
BD1
  8
DEFPOINTS
 62
     0
 10
17.076995
 20
5.052861
 30
0.0
  0
POINT
  5
BD2
  8
DEFPOINTS
 62
     0
 10
10.316701999999999
 20
5.052861
 30
0.0
  0
ENDBLK
  5
553
  8
0
  0
BLOCK
  8
0
  2
*D62
 70
     1
 10
0.0
 20
0.0
 30
0.0
  3
*D62
  1

  0
LINE
  5
BD3
  8
DIM
 62
     0
 10
16.824995000000001
 20
5.052861
 30
0.0
 11
14.060701999999999
 21
5.052861
 31
0.0
  0
LINE
  5
BD4
  8
DIM
 62
     0
 10
16.824995000000001
 20
6.1148610000000003
 30
0.0
 11
14.060701999999999
 21
6.1148610000000003
 31
0.0
  0
LINE
  5
BD5
  8
DIM
 62
     0
 10
14.43270199999999
 20
4.3328610000000003
 30
0.0
 11
14.43270199999999
 21
3.6128610000000001
 31
0.0
  0
LINE
  5
BD6
  8
DIM
 62
     0
 10
14.43270199999999
 20
6.8348610000000001
 30
0.0
 11
14.43270199999999
 21
7.5548609999999998
 31
0.0
  0
SOLID
  5
BD7
  8
DIM
 62
     0
 10
14.312702
 20
4.3328610000000003
 30
0.0
 11
14.552702
 21
4.3328610000000003
 31
0.0
 12
14.43270199999999
 22
5.052861
 32
0.0
 13
14.43270199999999
 23
5.052861
 33
0.0
  0
SOLID
  5
BD8
  8
DIM
 62
     0
 10
14.312702
 20
6.8348610000000001
 30
0.0
 11
14.552702
 21
6.8348610000000001
 31
0.0
 12
14.43270199999999
 22
6.1148610000000003
 32
0.0
 13
14.43270199999999
 23
6.1148610000000003
 33
0.0
  0
TEXT
  5
BD9
  8
TEXT
 62
     0
 10
13.77645199999999
 20
5.3338610000000033
 30
0.0
 40
0.5
  1
1.062
 41
0.75
  7
TXT
  0
POINT
  5
BDA
  8
DEFPOINTS
 62
     0
 10
17.076995
 20
5.052861
 30
0.0
  0
POINT
  5
BDB
  8
DEFPOINTS
 62
     0
 10
17.076995
 20
6.1148610000000003
 30
0.0
  0
POINT
  5
BDC
  8
DEFPOINTS
 62
     0
 10
14.43270199999999
 20
6.1148610000000003
 30
0.0
  0
ENDBLK
  5
561
  8
0
  0
BLOCK
  8
0
  2
*D63
 70
     1
 10
0.0
 20
0.0
 30
0.0
  3
*D63
  1

  0
LINE
  5
A98
  8
DIM
 62
     0
 10
17.166995
 20
6.4568609999999991
 30
0.0
 11
17.166995
 21
11.129861
 31
0.0
  0
LINE
  5
A99
  8
DIM
 62
     0
 10
16.071995000000001
 20
7.5698609999999986
 30
0.0
 11
16.071995000000001
 21
11.129861
 31
0.0
  0
LINE
  5
A9A
  8
DIM
 62
     0
 10
17.886994999999992
 20
10.757860999999989
 30
0.0
 11
18.606995000000001
 21
10.757860999999989
 31
0.0
  0
LINE
  5
A9B
  8
DIM
 62
     0
 10
15.351995000000001
 20
10.757860999999989
 30
0.0
 11
14.631994999999989
 21
10.757860999999989
 31
0.0
  0
SOLID
  5
A9C
  8
DIM
 62
     0
 10
17.886994999999992
 20
10.87786099999999
 30
0.0
 11
17.886994999999992
 21
10.637860999999999
 31
0.0
 12
17.166995
 22
10.757860999999989
 32
0.0
 13
17.166995
 23
10.757860999999989
 33
0.0
  0
SOLID
  5
A9D
  8
DIM
 62
     0
 10
15.351995000000001
 20
10.87786099999999
 30
0.0
 11
15.351995000000001
 21
10.637860999999999
 31
0.0
 12
16.071995000000001
 22
10.757860999999989
 32
0.0
 13
16.071995000000001
 23
10.757860999999989
 33
0.0
  0
TEXT
  5
A9E
  8
TEXT
 62
     0
 10
12.959495
 20
10.507861
 30
0.0
 40
0.5
  1
1.095
 41
0.75
  7
TXT
  0
POINT
  5
A9F
  8
DEFPOINTS
 62
     0
 10
17.166995
 20
6.2048610000000002
 30
0.0
  0
POINT
  5
AA0
  8
DEFPOINTS
 62
     0
 10
16.071995000000001
 20
7.3178609999999988
 30
0.0
  0
POINT
  5
AA1
  8
DEFPOINTS
 62
     0
 10
16.071995000000001
 20
10.757860999999989
 30
0.0
  0
ENDBLK
  5
56F
  8
0
  0
BLOCK
  8
0
  2
*D64
 70
     1
 10
0.0
 20
0.0
 30
0.0
  3
*D64
  1

  0
LINE
  5
BDD
  8
DIM
 62
     0
 10
35.085994999999997
 20
7.0838609999999989
 30
0.0
 11
36.573073999999998
 21
7.0838609999999989
 31
0.0
  0
LINE
  5
BDE
  8
DIM
 62
     0
 10
35.085994999999997
 20
4.0838609999999989
 30
0.0
 11
36.573073999999998
 21
4.0838609999999989
 31
0.0
  0
LINE
  5
BDF
  8
DIM
 62
     0
 10
36.201073999999998
 20
7.8038609999999986
 30
0.0
 11
36.201073999999998
 21
8.5238609999999984
 31
0.0
  0
LINE
  5
BE0
  8
DIM
 62
     0
 10
36.201073999999998
 20
3.3638609999999991
 30
0.0
 11
36.201073999999998
 21
2.6438609999999989
 31
0.0
  0
SOLID
  5
BE1
  8
DIM
 62
     0
 10
36.081074000000001
 20
7.8038609999999986
 30
0.0
 11
36.321073999999989
 21
7.8038609999999986
 31
0.0
 12
36.201073999999998
 22
7.0838609999999989
 32
0.0
 13
36.201073999999998
 23
7.0838609999999989
 33
0.0
  0
SOLID
  5
BE2
  8
DIM
 62
     0
 10
36.081074000000001
 20
3.3638609999999991
 30
0.0
 11
36.321073999999989
 21
3.3638609999999991
 31
0.0
 12
36.201073999999998
 22
4.0838609999999989
 32
0.0
 13
36.201073999999998
 23
4.0838609999999989
 33
0.0
  0
TEXT
  5
BE3
  8
TEXT
 62
     0
 10
35.544823999999991
 20
5.3338610000000051
 30
0.0
 40
0.5
  1
3.000
 41
0.75
  7
TXT
  0
POINT
  5
BE4
  8
DEFPOINTS
 62
     0
 10
34.833995000000002
 20
7.0838609999999989
 30
0.0
  0
POINT
  5
BE5
  8
DEFPOINTS
 62
     0
 10
34.833995000000002
 20
4.0838609999999989
 30
0.0
  0
POINT
  5
BE6
  8
DEFPOINTS
 62
     0
 10
36.201073999999998
 20
4.0838609999999989
 30
0.0
  0
ENDBLK
  5
5DF
  8
0
  0
BLOCK
  8
0
  2
*D65
 70
     1
 10
0.0
 20
0.0
 30
0.0
  3
*D65
  1

  0
LINE
  5
AA2
  8
DIM
 62
     0
 10
16.399995000000001
 20
7.4258610000000003
 30
0.0
 11
16.399995000000001
 21
9.129861
 31
0.0
  0
LINE
  5
AA3
  8
DIM
 62
     0
 10
16.071995000000001
 20
7.5698609999999986
 30
0.0
 11
16.071995000000001
 21
9.129861
 31
0.0
  0
LINE
  5
AA4
  8
DIM
 62
     0
 10
17.119994999999999
 20
8.7578610000000001
 30
0.0
 11
17.839994999999998
 21
8.7578610000000001
 31
0.0
  0
LINE
  5
AA5
  8
DIM
 62
     0
 10
15.351995000000001
 20
8.7578610000000001
 30
0.0
 11
14.631994999999989
 21
8.7578610000000001
 31
0.0
  0
SOLID
  5
AA6
  8
DIM
 62
     0
 10
17.119994999999999
 20
8.8778609999999993
 30
0.0
 11
17.119994999999999
 21
8.6378609999999991
 31
0.0
 12
16.399995000000001
 22
8.7578610000000001
 32
0.0
 13
16.399995000000001
 23
8.7578610000000001
 33
0.0
  0
SOLID
  5
AA7
  8
DIM
 62
     0
 10
15.351995000000001
 20
8.8778609999999993
 30
0.0
 11
15.351995000000001
 21
8.6378609999999991
 31
0.0
 12
16.071995000000001
 22
8.7578610000000001
 32
0.0
 13
16.071995000000001
 23
8.7578610000000001
 33
0.0
  0
TEXT
  5
AA8
  8
TEXT
 62
     0
 10
12.834495
 20
8.5078610000000001
 30
0.0
 40
0.5
  1
0.328
 41
0.75
  7
TXT
  0
POINT
  5
AA9
  8
DEFPOINTS
 62
     0
 10
16.399995000000001
 20
7.1738609999999996
 30
0.0
  0
POINT
  5
AAA
  8
DEFPOINTS
 62
     0
 10
16.071995000000001
 20
7.3178609999999988
 30
0.0
  0
POINT
  5
AAB
  8
DEFPOINTS
 62
     0
 10
16.071995000000001
 20
8.7578610000000001
 30
0.0
  0
ENDBLK
  5
5ED
  8
0
  0
BLOCK
  8
0
  2
*D66
 70
     1
 10
0.0
 20
0.0
 30
0.0
  3
*D66
  1

  0
LINE
  5
BE7
  8
DIM
 62
     0
 10
16.071995000000001
 20
7.5698609999999986
 30
0.0
 11
16.071995000000001
 21
12.129861
 31
0.0
  0
LINE
  5
BE8
  8
DIM
 62
     0
 10
35.071995000000001
 20
7.5698609999999986
 30
0.0
 11
35.071995000000001
 21
12.129861
 31
0.0
  0
LINE
  5
BE9
  8
DIM
 62
     0
 10
16.791995
 20
11.757861
 30
0.0
 11
24.430745000000002
 21
11.757861
 31
0.0
  0
LINE
  5
BEA
  8
DIM
 62
     0
 10
34.351995000000002
 20
11.757861
 30
0.0
 11
26.713245000000001
 21
11.757861
 31
0.0
  0
SOLID
  5
BEB
  8
DIM
 62
     0
 10
16.791995
 20
11.877860999999999
 30
0.0
 11
16.791995
 21
11.637860999999999
 31
0.0
 12
16.071995000000001
 22
11.757861
 32
0.0
 13
16.071995000000001
 23
11.757861
 33
0.0
  0
SOLID
  5
BEC
  8
DIM
 62
     0
 10
34.351995000000002
 20
11.877860999999999
 30
0.0
 11
34.351995000000002
 21
11.637860999999999
 31
0.0
 12
35.071995000000001
 22
11.757861
 32
0.0
 13
35.071995000000001
 23
11.757861
 33
0.0
  0
TEXT
  5
BED
  8
TEXT
 62
     0
 10
24.790745000000001
 20
11.507861
 30
0.0
 40
0.5
  1
19.000
 41
0.75
  7
TXT
  0
POINT
  5
BEE
  8
DEFPOINTS
 62
     0
 10
16.071995000000001
 20
7.3178609999999988
 30
0.0
  0
POINT
  5
BEF
  8
DEFPOINTS
 62
     0
 10
35.071995000000001
 20
7.3178609999999988
 30
0.0
  0
POINT
  5
BF0
  8
DEFPOINTS
 62
     0
 10
35.071995000000001
 20
11.757861
 30
0.0
  0
ENDBLK
  5
5FB
  8
0
  0
BLOCK
  8
0
  2
*D67
 70
     1
 10
0.0
 20
0.0
 30
0.0
  3
*D67
  1

  0
LINE
  5
AAC
  8
DIM
 62
     0
 10
17.571995000000001
 20
30.124386999999999
 30
0.0
 11
17.571995000000001
 21
34.356790999999987
 31
0.0
  0
LINE
  5
AAD
  8
DIM
 62
     0
 10
33.571995000000001
 20
30.124386999999999
 30
0.0
 11
33.571995000000001
 21
34.356790999999987
 31
0.0
  0
LINE
  5
AAE
  8
DIM
 62
     0
 10
18.291995
 20
33.984790999999987
 30
0.0
 11
20.836995000000002
 21
33.984790999999987
 31
0.0
  0
LINE
  5
AAF
  8
DIM
 62
     0
 10
32.851995000000002
 20
33.984790999999987
 30
0.0
 11
30.306995000000001
 21
33.984790999999987
 31
0.0
  0
SOLID
  5
AB0
  8
DIM
 62
     0
 10
18.291995
 20
34.104790999999992
 30
0.0
 11
18.291995
 21
33.86479099999999
 31
0.0
 12
17.571995000000001
 22
33.984790999999987
 32
0.0
 13
17.571995000000001
 23
33.984790999999987
 33
0.0
  0
SOLID
  5
AB1
  8
DIM
 62
     0
 10
32.851995000000002
 20
34.104790999999992
 30
0.0
 11
32.851995000000002
 21
33.86479099999999
 31
0.0
 12
33.571995000000001
 22
33.984790999999987
 32
0.0
 13
33.571995000000001
 23
33.984790999999987
 33
0.0
  0
TEXT
  5
AB2
  8
TEXT
 62
     0
 10
21.196995000000001
 20
33.734790999999987
 30
0.0
 40
0.5
  1
(8) SPACES @ 2.000 = 16.000
 41
0.75
  7
TXT
  0
POINT
  5
AB3
  8
DEFPOINTS
 62
     0
 10
17.571995000000001
 20
29.872387
 30
0.0
  0
POINT
  5
AB4
  8
DEFPOINTS
 62
     0
 10
33.571995000000001
 20
29.872387
 30
0.0
  0
POINT
  5
AB5
  8
DEFPOINTS
 62
     0
 10
33.571995000000001
 20
33.984790999999987
 30
0.0
  0
ENDBLK
  5
689
  8
0
  0
BLOCK
  8
0
  2
*D68
 70
     1
 10
0.0
 20
0.0
 30
0.0
  3
*D68
  1

  0
LINE
  5
BF1
  8
DIM
 62
     0
 10
35.085994999999997
 20
29.157387
 30
0.0
 11
36.573073999999998
 21
29.157387
 31
0.0
  0
LINE
  5
BF2
  8
DIM
 62
     0
 10
35.085994999999997
 20
30.407387
 30
0.0
 11
36.573073999999998
 21
30.407387
 31
0.0
  0
LINE
  5
BF3
  8
DIM
 62
     0
 10
36.201073999999998
 20
28.437387000000001
 30
0.0
 11
36.201073999999998
 21
27.717386999999999
 31
0.0
  0
LINE
  5
BF4
  8
DIM
 62
     0
 10
36.201073999999998
 20
31.127386999999992
 30
0.0
 11
36.201073999999998
 21
31.847387000000001
 31
0.0
  0
SOLID
  5
BF5
  8
DIM
 62
     0
 10
36.081074000000001
 20
28.437387000000001
 30
0.0
 11
36.321073999999989
 21
28.437387000000001
 31
0.0
 12
36.201073999999998
 22
29.157387
 32
0.0
 13
36.201073999999998
 23
29.157387
 33
0.0
  0
SOLID
  5
BF6
  8
DIM
 62
     0
 10
36.081074000000001
 20
31.127386999999992
 30
0.0
 11
36.321073999999989
 21
31.127386999999992
 31
0.0
 12
36.201073999999998
 22
30.407387
 32
0.0
 13
36.201073999999998
 23
30.407387
 33
0.0
  0
TEXT
  5
BF7
  8
TEXT
 62
     0
 10
35.544823999999991
 20
29.532387
 30
0.0
 40
0.5
  1
1.250
 41
0.75
  7
TXT
  0
POINT
  5
BF8
  8
DEFPOINTS
 62
     0
 10
34.833995000000002
 20
29.157387
 30
0.0
  0
POINT
  5
BF9
  8
DEFPOINTS
 62
     0
 10
34.833995000000002
 20
30.407387
 30
0.0
  0
POINT
  5
BFA
  8
DEFPOINTS
 62
     0
 10
36.201073999999998
 20
30.407387
 30
0.0
  0
ENDBLK
  5
697
  8
0
  0
BLOCK
  8
0
  2
*D69
 70
     1
 10
0.0
 20
0.0
 30
0.0
  3
*D69
  1

  0
LINE
  5
AB6
  8
DIM
 62
     0
 10
35.085994999999997
 20
30.407387
 30
0.0
 11
37.573073999999998
 21
30.407387
 31
0.0
  0
LINE
  5
AB7
  8
DIM
 62
     0
 10
35.323994999999996
 20
30.641386999999991
 30
0.0
 11
37.573073999999998
 21
30.641386999999991
 31
0.0
  0
LINE
  5
AB8
  8
DIM
 62
     0
 10
37.201073999999991
 20
29.687387000000001
 30
0.0
 11
37.201073999999991
 21
28.967386999999999
 31
0.0
  0
LINE
  5
AB9
  8
DIM
 62
     0
 10
37.201073999999991
 20
31.361387000000001
 30
0.0
 11
37.201073999999991
 21
32.081386999999999
 31
0.0
  0
LINE
  5
ABA
  8
DIM
 62
     0
 10
37.201073999999991
 20
32.081386999999999
 30
0.0
 11
37.92107399999999
 21
32.081386999999999
 31
0.0
  0
SOLID
  5
ABB
  8
DIM
 62
     0
 10
37.081074000000001
 20
29.687387000000001
 30
0.0
 11
37.321073999999989
 21
29.687387000000001
 31
0.0
 12
37.201073999999991
 22
30.407387
 32
0.0
 13
37.201073999999991
 23
30.407387
 33
0.0
  0
SOLID
  5
ABC
  8
DIM
 62
     0
 10
37.081074000000001
 20
31.361387000000001
 30
0.0
 11
37.321073999999989
 21
31.361387000000001
 31
0.0
 12
37.201073999999991
 22
30.641386999999991
 32
0.0
 13
37.201073999999991
 23
30.641386999999991
 33
0.0
  0
TEXT
  5
ABD
  8
TEXT
 62
     0
 10
38.281073999999983
 20
31.831386999999999
 30
0.0
 40
0.5
  1
0.234
 41
0.75
  7
TXT
  0
POINT
  5
ABE
  8
DEFPOINTS
 62
     0
 10
34.833995000000002
 20
30.407387
 30
0.0
  0
POINT
  5
ABF
  8
DEFPOINTS
 62
     0
 10
35.071995000000001
 20
30.641386999999991
 30
0.0
  0
POINT
  5
AC0
  8
DEFPOINTS
 62
     0
 10
37.201073999999991
 20
30.641386999999991
 30
0.0
  0
ENDBLK
  5
6A5
  8
0
  0
BLOCK
  8
0
  2
*D70
 70
     1
 10
0.0
 20
0.0
 30
0.0
  3
*D70
  1

  0
LINE
  5
AC1
  8
DIM
 62
     0
 10
16.083995000000002
 20
29.296386999999989
 30
0.0
 11
14.95407
 21
29.296386999999989
 31
0.0
  0
LINE
  5
AC2
  8
DIM
 62
     0
 10
16.083995000000002
 20
29.018387000000001
 30
0.0
 11
14.95407
 21
29.018387000000001
 31
0.0
  0
LINE
  5
AC3
  8
DIM
 62
     0
 10
15.32607
 20
30.016386999999991
 30
0.0
 11
15.32607
 21
30.736387000000001
 31
0.0
  0
LINE
  5
AC4
  8
DIM
 62
     0
 10
15.32607
 20
28.298387000000002
 30
0.0
 11
15.32607
 21
27.578386999999999
 31
0.0
  0
LINE
  5
AC5
  8
DIM
 62
     0
 10
15.32607
 20
27.578386999999999
 30
0.0
 11
14.60606999999999
 21
27.578386999999999
 31
0.0
  0
SOLID
  5
AC6
  8
DIM
 62
     0
 10
15.20607
 20
30.016386999999991
 30
0.0
 11
15.446070000000001
 21
30.016386999999991
 31
0.0
 12
15.32607
 22
29.296386999999989
 32
0.0
 13
15.32607
 23
29.296386999999989
 33
0.0
  0
SOLID
  5
AC7
  8
DIM
 62
     0
 10
15.20607
 20
28.298387000000002
 30
0.0
 11
15.446070000000001
 21
28.298387000000002
 31
0.0
 12
15.32607
 22
29.018387000000001
 32
0.0
 13
15.32607
 23
29.018387000000001
 33
0.0
  0
TEXT
  5
AC8
  8
TEXT
 62
     0
 10
11.183569999999991
 20
27.328386999999999
 30
0.0
 40
0.5
  1
0.278 REF.
 41
0.75
  7
TXT
  0
POINT
  5
AC9
  8
DEFPOINTS
 62
     0
 10
16.335995
 20
29.296386999999989
 30
0.0
  0
POINT
  5
ACA
  8
DEFPOINTS
 62
     0
 10
16.335995
 20
29.018387000000001
 30
0.0
  0
POINT
  5
ACB
  8
DEFPOINTS
 62
     0
 10
15.32607
 20
29.018387000000001
 30
0.0
  0
ENDBLK
  5
6B3
  8
0
  0
BLOCK
  8
0
  2
*D71
 70
     1
 10
0.0
 20
0.0
 30
0.0
  3
*D71
  1

  0
LINE
  5
ACC
  8
DIM
 62
     0
 10
34.743994999999998
 20
30.749386999999999
 30
0.0
 11
34.743994999999998
 21
33.356790999999987
 31
0.0
  0
LINE
  5
ACD
  8
DIM
 62
     0
 10
35.071995000000001
 20
30.89338699999999
 30
0.0
 11
35.071995000000001
 21
33.356790999999987
 31
0.0
  0
LINE
  5
ACE
  8
DIM
 62
     0
 10
34.023994999999999
 20
32.984790999999987
 30
0.0
 11
33.303995
 21
32.984790999999987
 31
0.0
  0
LINE
  5
ACF
  8
DIM
 62
     0
 10
35.791995
 20
32.984790999999987
 30
0.0
 11
36.511994999999999
 21
32.984790999999987
 31
0.0
  0
SOLID
  5
AD0
  8
DIM
 62
     0
 10
34.023994999999999
 20
33.104790999999992
 30
0.0
 11
34.023994999999999
 21
32.86479099999999
 31
0.0
 12
34.743994999999998
 22
32.984790999999987
 32
0.0
 13
34.743994999999998
 23
32.984790999999987
 33
0.0
  0
SOLID
  5
AD1
  8
DIM
 62
     0
 10
35.791995
 20
33.104790999999992
 30
0.0
 11
35.791995
 21
32.86479099999999
 31
0.0
 12
35.071995000000001
 22
32.984790999999987
 32
0.0
 13
35.071995000000001
 23
32.984790999999987
 33
0.0
  0
TEXT
  5
AD2
  8
TEXT
 62
     0
 10
36.871994999999998
 20
32.734790999999987
 30
0.0
 40
0.5
  1
0.328
 41
0.75
  7
TXT
  0
POINT
  5
AD3
  8
DEFPOINTS
 62
     0
 10
34.743994999999998
 20
30.497387
 30
0.0
  0
POINT
  5
AD4
  8
DEFPOINTS
 62
     0
 10
35.071995000000001
 20
30.641386999999991
 30
0.0
  0
POINT
  5
AD5
  8
DEFPOINTS
 62
     0
 10
35.071995000000001
 20
32.984790999999987
 30
0.0
  0
ENDBLK
  5
6C1
  8
0
  0
BLOCK
  8
0
  2
*D72
 70
     1
 10
0.0
 20
0.0
 30
0.0
  3
*D72
  1

  0
LINE
  5
AD6
  8
DIM
 62
     0
 10
32.914994999999998
 20
6.4568609999999991
 30
0.0
 11
32.914994999999998
 21
11.129861
 31
0.0
  0
LINE
  5
AD7
  8
DIM
 62
     0
 10
17.166995
 20
6.4568609999999991
 30
0.0
 11
17.166995
 21
11.129861
 31
0.0
  0
LINE
  5
AD8
  8
DIM
 62
     0
 10
32.194994999999999
 20
10.757860999999989
 30
0.0
 11
29.963495000000002
 21
10.757860999999989
 31
0.0
  0
LINE
  5
AD9
  8
DIM
 62
     0
 10
17.886994999999992
 20
10.757860999999989
 30
0.0
 11
20.118494999999999
 21
10.757860999999989
 31
0.0
  0
SOLID
  5
ADA
  8
DIM
 62
     0
 10
32.194994999999999
 20
10.87786099999999
 30
0.0
 11
32.194994999999999
 21
10.637860999999999
 31
0.0
 12
32.914994999999998
 22
10.757860999999989
 32
0.0
 13
32.914994999999998
 23
10.757860999999989
 33
0.0
  0
SOLID
  5
ADB
  8
DIM
 62
     0
 10
17.886994999999992
 20
10.87786099999999
 30
0.0
 11
17.886994999999992
 21
10.637860999999999
 31
0.0
 12
17.166995
 22
10.757860999999989
 32
0.0
 13
17.166995
 23
10.757860999999989
 33
0.0
  0
TEXT
  5
ADC
  8
TEXT
 62
     0
 10
20.478494999999999
 20
10.507861
 30
0.0
 40
0.5
  1
(4) SPACES @ 3.937 = 15.748
 41
0.75
  7
TXT
  0
POINT
  5
ADD
  8
DEFPOINTS
 62
     0
 10
32.914994999999998
 20
6.2048610000000002
 30
0.0
  0
POINT
  5
ADE
  8
DEFPOINTS
 62
     0
 10
17.166995
 20
6.2048610000000002
 30
0.0
  0
POINT
  5
ADF
  8
DEFPOINTS
 62
     0
 10
17.166995
 20
10.757860999999989
 30
0.0
  0
ENDBLK
  5
6CF
  8
0
  0
BLOCK
  8
0
  2
*D73
 70
     1
 10
0.0
 20
0.0
 30
0.0
  3
*D73
  1

  0
LINE
  5
AE0
  8
DIM
 62
     0
 10
31.477495000000001
 20
7.0508610000000003
 30
0.0
 11
31.477495000000001
 21
10.129861
 31
0.0
  0
LINE
  5
AE1
  8
DIM
 62
     0
 10
19.666495000000001
 20
7.0508610000000003
 30
0.0
 11
19.666495000000001
 21
10.129861
 31
0.0
  0
LINE
  5
AE2
  8
DIM
 62
     0
 10
30.757494999999999
 20
9.7578610000000001
 30
0.0
 11
30.306995000000001
 21
9.7578610000000001
 31
0.0
  0
LINE
  5
AE3
  8
DIM
 62
     0
 10
20.386495
 20
9.7578610000000001
 30
0.0
 11
20.836995000000002
 21
9.7578610000000001
 31
0.0
  0
SOLID
  5
AE4
  8
DIM
 62
     0
 10
30.757494999999999
 20
9.8778609999999993
 30
0.0
 11
30.757494999999999
 21
9.6378609999999991
 31
0.0
 12
31.477495000000001
 22
9.7578610000000001
 32
0.0
 13
31.477495000000001
 23
9.7578610000000001
 33
0.0
  0
SOLID
  5
AE5
  8
DIM
 62
     0
 10
20.386495
 20
9.8778609999999993
 30
0.0
 11
20.386495
 21
9.6378609999999991
 31
0.0
 12
19.666495000000001
 22
9.7578610000000001
 32
0.0
 13
19.666495000000001
 23
9.7578610000000001
 33
0.0
  0
TEXT
  5
AE6
  8
TEXT
 62
     0
 10
21.196995000000001
 20
9.5078610000000001
 30
0.0
 40
0.5
  1
(3) SPACES @ 3.937 = 11.811
 41
0.75
  7
TXT
  0
POINT
  5
AE7
  8
DEFPOINTS
 62
     0
 10
31.477495000000001
 20
6.7988609999999996
 30
0.0
  0
POINT
  5
AE8
  8
DEFPOINTS
 62
     0
 10
19.666495000000001
 20
6.7988609999999996
 30
0.0
  0
POINT
  5
AE9
  8
DEFPOINTS
 62
     0
 10
19.666495000000001
 20
9.7578610000000001
 30
0.0
  0
ENDBLK
  5
6DD
  8
0
  0
BLOCK
  8
0
  2
*D74
 70
     1
 10
0.0
 20
0.0
 30
0.0
  3
*D74
  1

  0
LINE
  5
AEA
  8
DIM
 62
     0
 10
19.666495000000001
 20
7.0508610000000003
 30
0.0
 11
19.666495000000001
 21
10.129861
 31
0.0
  0
LINE
  5
AEB
  8
DIM
 62
     0
 10
16.071995000000001
 20
7.5698609999999986
 30
0.0
 11
16.071995000000001
 21
10.129861
 31
0.0
  0
LINE
  5
AEC
  8
DIM
 62
     0
 10
20.386495
 20
9.7578610000000001
 30
0.0
 11
21.106494999999999
 21
9.7578610000000001
 31
0.0
  0
LINE
  5
AED
  8
DIM
 62
     0
 10
15.351995000000001
 20
9.7578610000000001
 30
0.0
 11
14.631995
 21
9.7578610000000001
 31
0.0
  0
SOLID
  5
AEE
  8
DIM
 62
     0
 10
20.386495
 20
9.8778609999999993
 30
0.0
 11
20.386495
 21
9.6378609999999991
 31
0.0
 12
19.666495000000001
 22
9.7578610000000001
 32
0.0
 13
19.666495000000001
 23
9.7578610000000001
 33
0.0
  0
SOLID
  5
AEF
  8
DIM
 62
     0
 10
15.351995000000001
 20
9.8778609999999993
 30
0.0
 11
15.351995000000001
 21
9.6378609999999991
 31
0.0
 12
16.071995000000001
 22
9.7578610000000001
 32
0.0
 13
16.071995000000001
 23
9.7578610000000001
 33
0.0
  0
TEXT
  5
AF0
  8
TEXT
 62
     0
 10
17.119244999999999
 20
9.5078610000000001
 30
0.0
 40
0.5
  1
3.595
 41
0.75
  7
TXT
  0
POINT
  5
AF1
  8
DEFPOINTS
 62
     0
 10
19.666495000000001
 20
6.7988609999999996
 30
0.0
  0
POINT
  5
AF2
  8
DEFPOINTS
 62
     0
 10
16.071995000000001
 20
7.3178609999999988
 30
0.0
  0
POINT
  5
AF3
  8
DEFPOINTS
 62
     0
 10
16.071995000000001
 20
9.7578610000000001
 30
0.0
  0
ENDBLK
  5
6EB
  8
0
  0
BLOCK
  8
0
  2
*D75
 70
     1
 10
0.0
 20
0.0
 30
0.0
  3
*D75
  1

  0
LINE
  5
AF4
  8
DIM
 62
     0
 10
34.743994999999998
 20
7.4258610000000003
 30
0.0
 11
34.743994999999998
 21
10.129861
 31
0.0
  0
LINE
  5
AF5
  8
DIM
 62
     0
 10
35.071995000000001
 20
7.5698609999999986
 30
0.0
 11
35.071995000000001
 21
10.129861
 31
0.0
  0
LINE
  5
AF6
  8
DIM
 62
     0
 10
34.023994999999999
 20
9.7578610000000001
 30
0.0
 11
33.303995
 21
9.7578610000000001
 31
0.0
  0
LINE
  5
AF7
  8
DIM
 62
     0
 10
35.791995
 20
9.7578610000000001
 30
0.0
 11
36.511994999999999
 21
9.7578610000000001
 31
0.0
  0
SOLID
  5
AF8
  8
DIM
 62
     0
 10
34.023994999999999
 20
9.8778609999999993
 30
0.0
 11
34.023994999999999
 21
9.6378609999999991
 31
0.0
 12
34.743994999999998
 22
9.7578610000000001
 32
0.0
 13
34.743994999999998
 23
9.7578610000000001
 33
0.0
  0
SOLID
  5
AF9
  8
DIM
 62
     0
 10
35.791995
 20
9.8778609999999993
 30
0.0
 11
35.791995
 21
9.6378609999999991
 31
0.0
 12
35.071995000000001
 22
9.7578610000000001
 32
0.0
 13
35.071995000000001
 23
9.7578610000000001
 33
0.0
  0
TEXT
  5
AFA
  8
TEXT
 62
     0
 10
36.871994999999998
 20
9.5078610000000001
 30
0.0
 40
0.5
  1
0.328
 41
0.75
  7
TXT
  0
POINT
  5
AFB
  8
DEFPOINTS
 62
     0
 10
34.743994999999998
 20
7.1738609999999996
 30
0.0
  0
POINT
  5
AFC
  8
DEFPOINTS
 62
     0
 10
35.071995000000001
 20
7.3178609999999988
 30
0.0
  0
POINT
  5
AFD
  8
DEFPOINTS
 62
     0
 10
35.071995000000001
 20
9.7578610000000001
 30
0.0
  0
ENDBLK
  5
70A
  8
0
  0
BLOCK
  8
0
  2
*D76
 70
     1
 10
0.0
 20
0.0
 30
0.0
  3
*D76
  1

  0
LINE
  5
AFE
  8
DIM
 62
     0
 10
32.914994999999998
 20
6.4568609999999991
 30
0.0
 11
32.914994999999998
 21
11.129861
 31
0.0
  0
LINE
  5
AFF
  8
DIM
 62
     0
 10
33.976995000000002
 20
6.4568609999999991
 30
0.0
 11
33.976995000000002
 21
11.129861
 31
0.0
  0
LINE
  5
B00
  8
DIM
 62
     0
 10
32.194994999999999
 20
10.757860999999989
 30
0.0
 11
31.474995
 21
10.757860999999989
 31
0.0
  0
LINE
  5
B01
  8
DIM
 62
     0
 10
34.696995000000001
 20
10.757860999999989
 30
0.0
 11
35.416995
 21
10.757860999999989
 31
0.0
  0
SOLID
  5
B02
  8
DIM
 62
     0
 10
32.194994999999999
 20
10.87786099999999
 30
0.0
 11
32.194994999999999
 21
10.637860999999999
 31
0.0
 12
32.914994999999998
 22
10.757860999999989
 32
0.0
 13
32.914994999999998
 23
10.757860999999989
 33
0.0
  0
SOLID
  5
B03
  8
DIM
 62
     0
 10
34.696995000000001
 20
10.87786099999999
 30
0.0
 11
34.696995000000001
 21
10.637860999999999
 31
0.0
 12
33.976995000000002
 22
10.757860999999989
 32
0.0
 13
33.976995000000002
 23
10.757860999999989
 33
0.0
  0
TEXT
  5
B04
  8
TEXT
 62
     0
 10
35.776994999999999
 20
10.507861
 30
0.0
 40
0.5
  1
1.062 TYP.
 41
0.75
  7
TXT
  0
POINT
  5
B05
  8
DEFPOINTS
 62
     0
 10
32.914994999999998
 20
6.2048610000000002
 30
0.0
  0
POINT
  5
B06
  8
DEFPOINTS
 62
     0
 10
33.976995000000002
 20
6.2048610000000002
 30
0.0
  0
POINT
  5
B07
  8
DEFPOINTS
 62
     0
 10
33.976995000000002
 20
10.757860999999989
 30
0.0
  0
ENDBLK
  5
729
  8
0
  0
BLOCK
  8
0
  2
*D77
 70
     1
 10
0.0
 20
0.0
 30
0.0
  3
*D77
  1

  0
LINE
  5
B08
  8
DIM
 62
     0
 10
7.4103089999999989
 20
28.671386999999989
 30
0.0
 11
7.4103089999999989
 21
26.619503999999999
 31
0.0
  0
LINE
  5
B09
  8
DIM
 62
     0
 10
6.9103089999999989
 20
28.671386999999989
 30
0.0
 11
6.9103089999999989
 21
26.619503999999999
 31
0.0
  0
LINE
  5
B0A
  8
DIM
 62
     0
 10
8.1303090000000005
 20
26.991503999999999
 30
0.0
 11
8.8503089999999993
 21
26.991503999999999
 31
0.0
  0
LINE
  5
B0B
  8
DIM
 62
     0
 10
6.1903090000000001
 20
26.991503999999999
 30
0.0
 11
5.4703090000000003
 21
26.991503999999999
 31
0.0
  0
SOLID
  5
B0C
  8
DIM
 62
     0
 10
8.1303090000000005
 20
27.111504
 30
0.0
 11
8.1303090000000005
 21
26.871504000000002
 31
0.0
 12
7.4103089999999989
 22
26.991503999999999
 32
0.0
 13
7.4103089999999989
 23
26.991503999999999
 33
0.0
  0
SOLID
  5
B0D
  8
DIM
 62
     0
 10
6.1903090000000001
 20
27.111504
 30
0.0
 11
6.1903090000000001
 21
26.871504000000002
 31
0.0
 12
6.9103089999999989
 22
26.991503999999999
 32
0.0
 13
6.9103089999999989
 23
26.991503999999999
 33
0.0
  0
TEXT
  5
B0E
  8
TEXT
 62
     0
 10
3.7978089999999991
 20
26.741503999999999
 30
0.0
 40
0.5
  1
0.500
 41
0.75
  7
TXT
  0
POINT
  5
B0F
  8
DEFPOINTS
 62
     0
 10
7.4103089999999989
 20
28.923386999999991
 30
0.0
  0
POINT
  5
B10
  8
DEFPOINTS
 62
     0
 10
6.9103089999999989
 20
28.923386999999991
 30
0.0
  0
POINT
  5
B11
  8
DEFPOINTS
 62
     0
 10
6.9103089999999989
 20
26.991503999999999
 30
0.0
  0
ENDBLK
  5
740
  8
0
  0
BLOCK
  8
0
  2
*D78
 70
     1
 10
0.0
 20
0.0
 30
0.0
  3
*D78
  1

  0
LINE
  5
BFB
  8
DIM
 62
     0
 10
7.6623089999999987
 20
28.923386999999991
 30
0.0
 11
8.7668739999999996
 21
28.923386999999991
 31
0.0
  0
LINE
  5
BFC
  8
DIM
 62
     0
 10
7.6623089999999987
 20
30.641386999999991
 30
0.0
 11
8.7668739999999996
 21
30.641386999999991
 31
0.0
  0
LINE
  5
BFD
  8
DIM
 62
     0
 10
8.3948739999999997
 20
28.203386999999989
 30
0.0
 11
8.3948739999999962
 21
27.48338699999999
 31
0.0
  0
LINE
  5
BFE
  8
DIM
 62
     0
 10
8.3948739999999997
 20
31.36138699999999
 30
0.0
 11
8.3948739999999997
 21
32.081386999999999
 31
0.0
  0
SOLID
  5
BFF
  8
DIM
 62
     0
 10
8.2748740000000005
 20
28.203386999999989
 30
0.0
 11
8.5148739999999972
 21
28.203386999999989
 31
0.0
 12
8.3948739999999997
 22
28.923386999999991
 32
0.0
 13
8.3948739999999997
 23
28.923386999999991
 33
0.0
  0
SOLID
  5
C00
  8
DIM
 62
     0
 10
8.2748740000000005
 20
31.36138699999999
 30
0.0
 11
8.5148739999999972
 21
31.36138699999999
 31
0.0
 12
8.3948739999999997
 22
30.641386999999991
 32
0.0
 13
8.3948739999999997
 23
30.641386999999991
 33
0.0
  0
TEXT
  5
C01
  8
TEXT
 62
     0
 10
7.7698739999999944
 20
29.532386999999989
 30
0.0
 40
0.5
  1
1.718
 41
0.75
  7
TXT
  0
POINT
  5
C02
  8
DEFPOINTS
 62
     0
 10
7.4103089999999989
 20
28.923386999999991
 30
0.0
  0
POINT
  5
C03
  8
DEFPOINTS
 62
     0
 10
7.4103089999999989
 20
30.641386999999991
 30
0.0
  0
POINT
  5
C04
  8
DEFPOINTS
 62
     0
 10
8.3948739999999997
 20
30.641386999999991
 30
0.0
  0
ENDBLK
  5
74E
  8
0
  0
BLOCK
  8
0
  2
*D79
 70
     1
 10
0.0
 20
0.0
 30
0.0
  3
*D79
  1

  0
LINE
  5
B12
  8
DIM
 62
     0
 10
7.4103089999999989
 20
3.5978609999999991
 30
0.0
 11
7.4103089999999989
 21
2.0747999999999989
 31
0.0
  0
LINE
  5
B13
  8
DIM
 62
     0
 10
6.9103089999999989
 20
3.5978609999999991
 30
0.0
 11
6.9103089999999989
 21
2.0747999999999989
 31
0.0
  0
LINE
  5
B14
  8
DIM
 62
     0
 10
8.1303090000000005
 20
2.4468000000000001
 30
0.0
 11
8.8503089999999993
 21
2.4468000000000001
 31
0.0
  0
LINE
  5
B15
  8
DIM
 62
     0
 10
6.1903090000000001
 20
2.4468000000000001
 30
0.0
 11
5.4703090000000003
 21
2.4468000000000001
 31
0.0
  0
SOLID
  5
B16
  8
DIM
 62
     0
 10
8.1303090000000005
 20
2.5668000000000002
 30
0.0
 11
8.1303090000000005
 21
2.3267999999999991
 31
0.0
 12
7.4103089999999989
 22
2.4468000000000001
 32
0.0
 13
7.4103089999999989
 23
2.4468000000000001
 33
0.0
  0
SOLID
  5
B17
  8
DIM
 62
     0
 10
6.1903090000000001
 20
2.5668000000000002
 30
0.0
 11
6.1903090000000001
 21
2.3267999999999991
 31
0.0
 12
6.9103089999999989
 22
2.4468000000000001
 32
0.0
 13
6.9103089999999989
 23
2.4468000000000001
 33
0.0
  0
TEXT
  5
B18
  8
TEXT
 62
     0
 10
3.7978089999999991
 20
2.1968000000000001
 30
0.0
 40
0.5
  1
0.500
 41
0.75
  7
TXT
  0
POINT
  5
B19
  8
DEFPOINTS
 62
     0
 10
7.4103089999999989
 20
3.8498610000000002
 30
0.0
  0
POINT
  5
B1A
  8
DEFPOINTS
 62
     0
 10
6.9103089999999989
 20
3.8498610000000002
 30
0.0
  0
POINT
  5
B1B
  8
DEFPOINTS
 62
     0
 10
6.9103089999999989
 20
2.4468000000000001
 30
0.0
  0
ENDBLK
  5
768
  8
0
  0
BLOCK
  8
0
  2
*D80
 70
     1
 10
0.0
 20
0.0
 30
0.0
  3
*D80
  1

  0
LINE
  5
B1C
  8
DIM
 62
     0
 10
7.6623089999999987
 20
3.8498610000000002
 30
0.0
 11
8.8677309999999974
 21
3.8498610000000002
 31
0.0
  0
LINE
  5
B1D
  8
DIM
 62
     0
 10
7.6623089999999987
 20
7.3178609999999988
 30
0.0
 11
8.8677309999999991
 21
7.3178609999999988
 31
0.0
  0
LINE
  5
B1E
  8
DIM
 62
     0
 10
8.4957309999999993
 20
4.5698610000000004
 30
0.0
 11
8.4957309999999993
 21
4.9738610000000003
 31
0.0
  0
LINE
  5
B1F
  8
DIM
 62
     0
 10
8.4957309999999993
 20
6.5978609999999991
 30
0.0
 11
8.4957309999999993
 21
6.1938610000000001
 31
0.0
  0
SOLID
  5
B20
  8
DIM
 62
     0
 10
8.375731
 20
4.5698610000000004
 30
0.0
 11
8.6157309999999985
 21
4.5698610000000004
 31
0.0
 12
8.4957309999999975
 22
3.8498610000000002
 32
0.0
 13
8.4957309999999975
 23
3.8498610000000002
 33
0.0
  0
SOLID
  5
B21
  8
DIM
 62
     0
 10
8.375731
 20
6.5978609999999991
 30
0.0
 11
8.6157309999999985
 21
6.5978609999999991
 31
0.0
 12
8.4957309999999993
 22
7.3178609999999988
 32
0.0
 13
8.4957309999999993
 23
7.3178609999999988
 33
0.0
  0
TEXT
  5
B22
  8
TEXT
 62
     0
 10
7.7457309999999966
 20
5.3338610000000006
 30
0.0
 40
0.5
  1
3.468
 41
0.75
  7
TXT
  0
POINT
  5
B23
  8
DEFPOINTS
 62
     0
 10
7.4103089999999989
 20
3.8498610000000002
 30
0.0
  0
POINT
  5
B24
  8
DEFPOINTS
 62
     0
 10
7.4103089999999989
 20
7.3178609999999988
 30
0.0
  0
POINT
  5
B25
  8
DEFPOINTS
 62
     0
 10
8.4957309999999993
 20
7.3178609999999988
 30
0.0
  0
ENDBLK
  5
77A
  8
0
  0
BLOCK
  8
0
  2
*D81
 70
     1
 10
0.0
 20
0.0
 30
0.0
  3
*D81
  1

  0
LINE
  5
C05
  8
DIM
 62
     0
 10
33.995237000000003
 20
54.250849000000002
 30
0.0
 11
33.995237000000003
 21
58.554848999999997
 31
0.0
  0
LINE
  5
C06
  8
DIM
 62
     0
 10
36.21423699999999
 20
54.250849000000002
 30
0.0
 11
36.21423699999999
 21
58.554848999999997
 31
0.0
  0
LINE
  5
C07
  8
DIM
 62
     0
 10
33.275236999999997
 20
58.182848999999997
 30
0.0
 11
32.555236999999998
 21
58.182848999999997
 31
0.0
  0
LINE
  5
C08
  8
DIM
 62
     0
 10
36.934236999999989
 20
58.182848999999997
 30
0.0
 11
37.654236999999988
 21
58.182848999999997
 31
0.0
  0
SOLID
  5
C09
  8
DIM
 62
     0
 10
33.275236999999997
 20
58.302848999999988
 30
0.0
 11
33.275236999999997
 21
58.062849
 31
0.0
 12
33.995237000000003
 22
58.182848999999997
 32
0.0
 13
33.995237000000003
 23
58.182848999999997
 33
0.0
  0
SOLID
  5
C0A
  8
DIM
 62
     0
 10
36.934236999999989
 20
58.302848999999988
 30
0.0
 11
36.934236999999989
 21
58.062849
 31
0.0
 12
36.21423699999999
 22
58.182848999999997
 32
0.0
 13
36.21423699999999
 23
58.182848999999997
 33
0.0
  0
TEXT
  5
C0B
  8
TEXT
 62
     0
 10
34.417237
 20
57.93284899999999
 30
0.0
 40
0.5
  1
2.219
 41
0.75
  7
TXT
  0
POINT
  5
C0C
  8
DEFPOINTS
 62
     0
 10
33.995237000000003
 20
53.998848999999993
 30
0.0
  0
POINT
  5
C0D
  8
DEFPOINTS
 62
     0
 10
36.21423699999999
 20
53.998848999999993
 30
0.0
  0
POINT
  5
C0E
  8
DEFPOINTS
 62
     0
 10
36.21423699999999
 20
58.182848999999997
 30
0.0
  0
ENDBLK
  5
798
  8
0
  0
BLOCK
  8
0
  2
*D82
 70
     1
 10
0.0
 20
0.0
 30
0.0
  3
*D82
  1

  0
LINE
  5
B26
  8
DIM
 62
     0
 10
36.042237
 20
54.250849000000002
 30
0.0
 11
36.042237
 21
56.554848999999997
 31
0.0
  0
LINE
  5
B27
  8
DIM
 62
     0
 10
36.21423699999999
 20
54.250849000000002
 30
0.0
 11
36.21423699999999
 21
56.554848999999997
 31
0.0
  0
LINE
  5
B28
  8
DIM
 62
     0
 10
35.322237000000001
 20
56.18284899999999
 30
0.0
 11
34.602237000000002
 21
56.18284899999999
 31
0.0
  0
LINE
  5
B29
  8
DIM
 62
     0
 10
36.934236999999989
 20
56.18284899999999
 30
0.0
 11
37.654236999999988
 21
56.18284899999999
 31
0.0
  0
SOLID
  5
B2A
  8
DIM
 62
     0
 10
35.322237000000001
 20
56.302848999999988
 30
0.0
 11
35.322237000000001
 21
56.062849
 31
0.0
 12
36.042237
 22
56.18284899999999
 32
0.0
 13
36.042237
 23
56.18284899999999
 33
0.0
  0
SOLID
  5
B2B
  8
DIM
 62
     0
 10
36.934236999999989
 20
56.302848999999988
 30
0.0
 11
36.934236999999989
 21
56.062849
 31
0.0
 12
36.21423699999999
 22
56.18284899999999
 32
0.0
 13
36.21423699999999
 23
56.18284899999999
 33
0.0
  0
TEXT
  5
B2C
  8
TEXT
 62
     0
 10
38.014236999999987
 20
55.932848999999997
 30
0.0
 40
0.5
  1
0.172
 41
0.75
  7
TXT
  0
POINT
  5
B2D
  8
DEFPOINTS
 62
     0
 10
36.042237
 20
53.998848999999993
 30
0.0
  0
POINT
  5
B2E
  8
DEFPOINTS
 62
     0
 10
36.21423699999999
 20
53.998848999999993
 30
0.0
  0
POINT
  5
B2F
  8
DEFPOINTS
 62
     0
 10
36.21423699999999
 20
56.18284899999999
 30
0.0
  0
ENDBLK
  5
7A6
  8
0
  0
BLOCK
  8
0
  2
*D83
 70
     1
 10
0.0
 20
0.0
 30
0.0
  3
*D83
  1

  0
LINE
  5
D02
  8
DIM
 62
     0
 10
34.351016999999999
 20
52.281134000000002
 30
0.0
 11
34.351016999999999
 21
53.519998677858069
 31
0.0
  0
ARC
  5
D03
  8
DIM
 62
     0
 10
34.351016999999992
 20
51.56084899999999
 30
0.0
 40
1.5871496778580749
 50
37.559902897223381
 51
63.779951448611662
  0
ARC
  5
D04
  8
DIM
 62
     0
 10
34.351016999999992
 20
51.56084899999999
 30
0.0
 40
1.5871496778580749
 50
120.5309350684726
 51
146.75098361986079
  0
SOLID
  5
D05
  8
DIM
 62
     0
 10
35.025032529822582
 20
52.867814692666236
 30
0.0
 11
35.079469739624109
 21
53.101559404240689
 31
0.0
 12
34.351016999999992
 22
53.14799867785807
 32
0.0
 13
34.351016999999992
 23
53.14799867785807
 33
0.0
  0
SOLID
  5
D06
  8
DIM
 62
     0
 10
33.508812726543461
 20
53.042444054450769
 30
0.0
 11
33.58066609469536
 21
52.813452584117861
 31
0.0
 12
34.23171382161815
 22
53.143508423739974
 32
0.0
 13
34.23171382161815
 23
53.143508423739974
 33
0.0
  0
TEXT
  8
0
  40
0.5
  5
D7D
  62
0
  72
0
  71
0
 10
31.8402
 20
51.1620
 30
0.000000
  1
4%%d REF.
  7
TXT
  0
POINT
  5
D08
  8
DEFPOINTS
 62
     0
 10
34.311215901418592
 20
53.147499551468933
 30
0.0
  0
POINT
  5
D09
  8
DEFPOINTS
 62
     0
 10
34.351016999999999
 20
51.56084899999999
 30
0.0
  0
POINT
  5
D0A
  8
DEFPOINTS
 62
     0
 10
34.351016999999999
 20
51.56084899999999
 30
0.0
  0
POINT
  5
D0B
  8
DEFPOINTS
 62
     0
 10
34.351016999999999
 20
52.029133999999992
 30
0.0
  0
POINT
  5
D0C
  8
DEFPOINTS
 62
     0
 10
34.167237
 20
53.998848999999993
 30
0.0
  0
ENDBLK
  5
7B6
  8
0
  0
BLOCK
  8
0
  2
*D84
 70
     1
 10
0.0
 20
0.0
 30
0.0
  3
*D84
  1

  0
LINE
  5
C0F
  8
DIM
 62
     0
 10
36.169293000000003
 20
51.498848999999993
 30
0.0
 11
38.242237000000003
 21
51.498848999999993
 31
0.0
  0
LINE
  5
C10
  8
DIM
 62
     0
 10
36.466237
 20
53.998848999999993
 30
0.0
 11
38.242237000000003
 21
53.998848999999993
 31
0.0
  0
LINE
  5
C11
  8
DIM
 62
     0
 10
37.870237000000003
 20
50.778849000000001
 30
0.0
 11
37.870237000000003
 21
50.058849000000002
 31
0.0
  0
LINE
  5
C12
  8
DIM
 62
     0
 10
37.870237000000003
 20
54.718848999999999
 30
0.0
 11
37.870237000000003
 21
55.438848999999998
 31
0.0
  0
SOLID
  5
C13
  8
DIM
 62
     0
 10
37.750236999999998
 20
50.778849000000001
 30
0.0
 11
37.990237
 21
50.778849000000001
 31
0.0
 12
37.870237000000003
 22
51.498848999999993
 32
0.0
 13
37.870237000000003
 23
51.498848999999993
 33
0.0
  0
SOLID
  5
C14
  8
DIM
 62
     0
 10
37.750236999999998
 20
54.718848999999999
 30
0.0
 11
37.990237
 21
54.718848999999999
 31
0.0
 12
37.870237000000003
 22
53.998848999999993
 32
0.0
 13
37.870237000000003
 23
53.998848999999993
 33
0.0
  0
TEXT
  5
C15
  8
TEXT
 62
     0
 10
37.182736999999989
 20
52.498849000000007
 30
0.0
 40
0.5
  1
2.500
 41
0.75
  7
TXT
  0
POINT
  5
C16
  8
DEFPOINTS
 62
     0
 10
35.917293000000001
 20
51.498848999999993
 30
0.0
  0
POINT
  5
C17
  8
DEFPOINTS
 62
     0
 10
36.21423699999999
 20
53.998848999999993
 30
0.0
  0
POINT
  5
C18
  8
DEFPOINTS
 62
     0
 10
37.870237000000003
 20
53.998848999999993
 30
0.0
  0
ENDBLK
  5
7C4
  8
0
  0
BLOCK
  8
0
  2
*D85
 70
     1
 10
0.0
 20
0.0
 30
0.0
  3
*D85
  1

  0
LINE
  5
B3B
  8
DIM
 62
     0
 10
28.653859000000001
 20
53.811849000000002
 30
0.0
 11
30.849657000000001
 21
53.811849000000002
 31
0.0
  0
LINE
  5
B3C
  8
DIM
 62
     0
 10
28.458859
 20
53.998848999999993
 30
0.0
 11
30.849657000000001
 21
53.998848999999993
 31
0.0
  0
LINE
  5
B3D
  8
DIM
 62
     0
 10
30.477657000000001
 20
53.091849000000003
 30
0.0
 11
30.477657000000001
 21
52.371848999999997
 31
0.0
  0
LINE
  5
B3E
  8
DIM
 62
     0
 10
30.477657000000001
 20
54.718848999999999
 30
0.0
 11
30.477657000000001
 21
55.438848999999998
 31
0.0
  0
LINE
  5
B3F
  8
DIM
 62
     0
 10
30.477657000000001
 20
55.438848999999998
 30
0.0
 11
31.197657
 21
55.438848999999998
 31
0.0
  0
SOLID
  5
B40
  8
DIM
 62
     0
 10
30.357657
 20
53.091849000000003
 30
0.0
 11
30.597657000000002
 21
53.091849000000003
 31
0.0
 12
30.477657000000001
 22
53.811849000000002
 32
0.0
 13
30.477657000000001
 23
53.811849000000002
 33
0.0
  0
SOLID
  5
B41
  8
DIM
 62
     0
 10
30.357657
 20
54.718848999999999
 30
0.0
 11
30.597657000000002
 21
54.718848999999999
 31
0.0
 12
30.477657000000001
 22
53.998848999999993
 32
0.0
 13
30.477657000000001
 23
53.998848999999993
 33
0.0
  0
TEXT
  5
B42
  8
TEXT
 62
     0
 10
31.557656999999988
 20
55.188848999999998
 30
0.0
 40
0.5
  1
0.187
 41
0.75
  7
TXT
  0
POINT
  5
B43
  8
DEFPOINTS
 62
     0
 10
28.401859000000002
 20
53.811849000000002
 30
0.0
  0
POINT
  5
B44
  8
DEFPOINTS
 62
     0
 10
28.206859000000001
 20
53.998848999999993
 30
0.0
  0
POINT
  5
B45
  8
DEFPOINTS
 62
     0
 10
30.477657000000001
 20
53.998848999999993
 30
0.0
  0
ENDBLK
  5
7D4
  8
0
  0
BLOCK
  8
0
  2
*D86
 70
     1
 10
0.0
 20
0.0
 30
0.0
  3
*D86
  1

  0
LINE
  5
B46
  8
DIM
 62
     0
 10
35.917293000000001
 20
51.246848999999997
 30
0.0
 11
35.917293000000001
 21
50.214849000000001
 31
0.0
  0
LINE
  5
B47
  8
DIM
 62
     0
 10
34.292181999999997
 20
51.246848999999997
 30
0.0
 11
34.292181999999997
 21
50.214849000000001
 31
0.0
  0
LINE
  5
B48
  8
DIM
 62
     0
 10
36.637292999999993
 20
50.586849000000001
 30
0.0
 11
37.357292999999999
 21
50.586849000000001
 31
0.0
  0
LINE
  5
B49
  8
DIM
 62
     0
 10
33.572181999999998
 20
50.586849000000001
 30
0.0
 11
32.852181999999999
 21
50.586849000000001
 31
0.0
  0
SOLID
  5
B4A
  8
DIM
 62
     0
 10
36.637292999999993
 20
50.706848999999991
 30
0.0
 11
36.637292999999993
 21
50.466849000000003
 31
0.0
 12
35.917293000000001
 22
50.586849000000001
 32
0.0
 13
35.917293000000001
 23
50.586849000000001
 33
0.0
  0
SOLID
  5
B4B
  8
DIM
 62
     0
 10
33.572181999999998
 20
50.706848999999991
 30
0.0
 11
33.572181999999998
 21
50.466849000000003
 31
0.0
 12
34.292181999999997
 22
50.586849000000001
 32
0.0
 13
34.292181999999997
 23
50.586849000000001
 33
0.0
  0
TEXT
  5
B4C
  8
TEXT
 62
     0
 10
31.117182
 20
50.336849000000001
 30
0.0
 40
0.5
  1
1.625
 41
0.75
  7
TXT
  0
POINT
  5
B4D
  8
DEFPOINTS
 62
     0
 10
35.917293000000001
 20
51.498848999999993
 30
0.0
  0
POINT
  5
B4E
  8
DEFPOINTS
 62
     0
 10
34.292181999999997
 20
51.498848999999993
 30
0.0
  0
POINT
  5
B4F
  8
DEFPOINTS
 62
     0
 10
34.292181999999997
 20
50.586849000000001
 30
0.0
  0
ENDBLK
  5
7E8
  8
0
  0
BLOCK
  8
0
  2
*D87
 70
     1
 10
0.0
 20
0.0
 30
0.0
  3
*D87
  1

  0
LINE
  5
B50
  8
DIM
 62
     0
 10
27.471858999999998
 20
54.250849000000002
 30
0.0
 11
27.471858999999998
 21
56.000849000000002
 31
0.0
  0
LINE
  5
B51
  8
DIM
 62
     0
 10
27.276859000000002
 20
54.063848999999998
 30
0.0
 11
27.276859000000002
 21
56.000849000000002
 31
0.0
  0
LINE
  5
B52
  8
DIM
 62
     0
 10
28.191859000000001
 20
55.628849000000002
 30
0.0
 11
28.911859
 21
55.628849000000002
 31
0.0
  0
LINE
  5
B53
  8
DIM
 62
     0
 10
26.556858999999999
 20
55.628849000000002
 30
0.0
 11
25.836859
 21
55.628849000000002
 31
0.0
  0
SOLID
  5
B54
  8
DIM
 62
     0
 10
28.191859000000001
 20
55.748849
 30
0.0
 11
28.191859000000001
 21
55.508848999999998
 31
0.0
 12
27.471858999999998
 22
55.628849000000002
 32
0.0
 13
27.471858999999998
 23
55.628849000000002
 33
0.0
  0
SOLID
  5
B55
  8
DIM
 62
     0
 10
26.556858999999999
 20
55.748849
 30
0.0
 11
26.556858999999999
 21
55.508848999999998
 31
0.0
 12
27.276859000000002
 22
55.628849000000002
 32
0.0
 13
27.276859000000002
 23
55.628849000000002
 33
0.0
  0
TEXT
  5
B56
  8
TEXT
 62
     0
 10
22.539359000000001
 20
55.378849000000002
 30
0.0
 40
0.5
  1
0.195 TYP.
 41
0.75
  7
TXT
  0
POINT
  5
B57
  8
DEFPOINTS
 62
     0
 10
27.471858999999998
 20
53.998848999999993
 30
0.0
  0
POINT
  5
B58
  8
DEFPOINTS
 62
     0
 10
27.276859000000002
 20
53.811849000000002
 30
0.0
  0
POINT
  5
B59
  8
DEFPOINTS
 62
     0
 10
27.276859000000002
 20
55.628849000000002
 30
0.0
  0
ENDBLK
  5
7FC
  8
0
  0
BLOCK
  8
0
  2
*D88
 70
     1
 10
0.0
 20
0.0
 30
0.0
  3
*D88
  1

  0
LINE
  5
B5A
  8
DIM
 62
     0
 10
28.401859000000002
 20
54.063848999999998
 30
0.0
 11
28.401859000000002
 21
57.000849000000002
 31
0.0
  0
LINE
  5
B5B
  8
DIM
 62
     0
 10
27.276859000000002
 20
54.063848999999998
 30
0.0
 11
27.276859000000002
 21
57.000849000000002
 31
0.0
  0
LINE
  5
B5C
  8
DIM
 62
     0
 10
29.121859000000001
 20
56.628849000000002
 30
0.0
 11
29.841858999999999
 21
56.628849000000002
 31
0.0
  0
LINE
  5
B5D
  8
DIM
 62
     0
 10
26.556858999999999
 20
56.628849000000002
 30
0.0
 11
25.836859
 21
56.628849000000002
 31
0.0
  0
SOLID
  5
B5E
  8
DIM
 62
     0
 10
29.121859000000001
 20
56.748849
 30
0.0
 11
29.121859000000001
 21
56.508849000000012
 31
0.0
 12
28.401859000000002
 22
56.628849000000002
 32
0.0
 13
28.401859000000002
 23
56.628849000000002
 33
0.0
  0
SOLID
  5
B5F
  8
DIM
 62
     0
 10
26.556858999999999
 20
56.748849
 30
0.0
 11
26.556858999999999
 21
56.508849000000012
 31
0.0
 12
27.276859000000002
 22
56.628849000000002
 32
0.0
 13
27.276859000000002
 23
56.628849000000002
 33
0.0
  0
TEXT
  5
B60
  8
TEXT
 62
     0
 10
24.226859000000001
 20
56.378849000000002
 30
0.0
 40
0.5
  1
1.125
 41
0.75
  7
TXT
  0
POINT
  5
B61
  8
DEFPOINTS
 62
     0
 10
28.401859000000002
 20
53.811849000000002
 30
0.0
  0
POINT
  5
B62
  8
DEFPOINTS
 62
     0
 10
27.276859000000002
 20
53.811849000000002
 30
0.0
  0
POINT
  5
B63
  8
DEFPOINTS
 62
     0
 10
27.276859000000002
 20
56.628849000000002
 30
0.0
  0
ENDBLK
  5
80A
  8
0
  0
BLOCK
  8
0
  2
*D89
 70
     1
 10
0.0
 20
0.0
 30
0.0
  3
*D89
  1

  0
LINE
  5
B64
  8
DIM
 62
     0
 10
34.167237
 20
54.250849000000002
 30
0.0
 11
34.167237
 21
57.55484899999999
 31
0.0
  0
LINE
  5
B65
  8
DIM
 62
     0
 10
33.995237000000003
 20
54.250849000000002
 30
0.0
 11
33.995237000000003
 21
57.55484899999999
 31
0.0
  0
LINE
  5
B66
  8
DIM
 62
     0
 10
34.887236999999992
 20
57.182848999999997
 30
0.0
 11
35.607236999999998
 21
57.182848999999997
 31
0.0
  0
LINE
  5
B67
  8
DIM
 62
     0
 10
33.275236999999997
 20
57.182848999999997
 30
0.0
 11
32.555236999999998
 21
57.182848999999997
 31
0.0
  0
SOLID
  5
B68
  8
DIM
 62
     0
 10
34.887236999999992
 20
57.302849000000002
 30
0.0
 11
34.887236999999992
 21
57.062848999999993
 31
0.0
 12
34.167237
 22
57.182848999999997
 32
0.0
 13
34.167237
 23
57.182848999999997
 33
0.0
  0
SOLID
  5
B69
  8
DIM
 62
     0
 10
33.275236999999997
 20
57.302849000000002
 30
0.0
 11
33.275236999999997
 21
57.062848999999993
 31
0.0
 12
33.995237000000003
 22
57.182848999999997
 32
0.0
 13
33.995237000000003
 23
57.182848999999997
 33
0.0
  0
TEXT
  5
B6A
  8
TEXT
 62
     0
 10
30.882736999999999
 20
56.932848999999997
 30
0.0
 40
0.5
  1
0.172
 41
0.75
  7
TXT
  0
POINT
  5
B6B
  8
DEFPOINTS
 62
     0
 10
34.167237
 20
53.998848999999993
 30
0.0
  0
POINT
  5
B6C
  8
DEFPOINTS
 62
     0
 10
33.995237000000003
 20
53.998848999999993
 30
0.0
  0
POINT
  5
B6D
  8
DEFPOINTS
 62
     0
 10
33.995237000000003
 20
57.182848999999997
 30
0.0
  0
ENDBLK
  5
81E
  8
0
  0
BLOCK
  8
0
  2
*D90
 70
     1
 10
0.0
 20
0.0
 30
0.0
  3
*D90
  1

  0
LINE
  5
C19
  8
DIM
 62
     0
 10
28.653859000000001
 20
53.811849000000002
 30
0.0
 11
29.849657000000001
 21
53.811849000000002
 31
0.0
  0
LINE
  5
C1A
  8
DIM
 62
     0
 10
28.653859000000001
 20
51.498848999999993
 30
0.0
 11
29.849657000000001
 21
51.498848999999993
 31
0.0
  0
LINE
  5
C1B
  8
DIM
 62
     0
 10
29.477657000000001
 20
54.531849000000001
 30
0.0
 11
29.477657000000001
 21
55.251849
 31
0.0
  0
LINE
  5
C1C
  8
DIM
 62
     0
 10
29.477657000000001
 20
50.778849000000001
 30
0.0
 11
29.477657000000001
 21
50.058849000000002
 31
0.0
  0
SOLID
  5
C1D
  8
DIM
 62
     0
 10
29.357657
 20
54.531849000000001
 30
0.0
 11
29.597657000000002
 21
54.531849000000001
 31
0.0
 12
29.477657000000001
 22
53.811849000000002
 32
0.0
 13
29.477657000000001
 23
53.811849000000002
 33
0.0
  0
SOLID
  5
C1E
  8
DIM
 62
     0
 10
29.357657
 20
50.778849000000001
 30
0.0
 11
29.597657000000002
 21
50.778849000000001
 31
0.0
 12
29.477657000000001
 22
51.498848999999993
 32
0.0
 13
29.477657000000001
 23
51.498848999999993
 33
0.0
  0
TEXT
  5
C1F
  8
TEXT
 62
     0
 10
28.79015699999999
 20
52.405349000000001
 30
0.0
 40
0.5
  1
2.313
 41
0.75
  7
TXT
  0
POINT
  5
C20
  8
DEFPOINTS
 62
     0
 10
28.401859000000002
 20
53.811849000000002
 30
0.0
  0
POINT
  5
C21
  8
DEFPOINTS
 62
     0
 10
28.401859000000002
 20
51.498848999999993
 30
0.0
  0
POINT
  5
C22
  8
DEFPOINTS
 62
     0
 10
29.477657000000001
 20
51.498848999999993
 30
0.0
  0
ENDBLK
  5
838
  8
0
  0
BLOCK
  8
0
  2
*D91
 70
     1
 10
0.0
 20
0.0
 30
0.0
  3
*D91
  1

  0
LINE
  5
B6E
  8
DIM
 62
     0
 10
9.3853369999999998
 20
53.811849000000002
 30
0.0
 11
10.581136000000001
 21
53.811849000000002
 31
0.0
  0
LINE
  5
B6F
  8
DIM
 62
     0
 10
9.3853369999999998
 20
50.248848999999993
 30
0.0
 11
10.581136000000001
 21
50.248848999999993
 31
0.0
  0
LINE
  5
B70
  8
DIM
 62
     0
 10
10.209136000000001
 20
53.091849000000003
 30
0.0
 11
10.209136000000001
 21
52.640349000000001
 31
0.0
  0
LINE
  5
B71
  8
DIM
 62
     0
 10
10.209136000000001
 20
50.968848999999999
 30
0.0
 11
10.209136000000001
 21
51.420349000000002
 31
0.0
  0
SOLID
  5
B72
  8
DIM
 62
     0
 10
10.089136
 20
53.091849000000003
 30
0.0
 11
10.329136
 21
53.091849000000003
 31
0.0
 12
10.209136000000001
 22
53.811849000000002
 32
0.0
 13
10.209136000000001
 23
53.811849000000002
 33
0.0
  0
SOLID
  5
B73
  8
DIM
 62
     0
 10
10.089136
 20
50.968848999999999
 30
0.0
 11
10.329136
 21
50.968848999999999
 31
0.0
 12
10.209136000000001
 22
50.248848999999993
 32
0.0
 13
10.209136000000001
 23
50.248848999999993
 33
0.0
  0
TEXT
  5
B74
  8
TEXT
 62
     0
 10
9.4591359999999938
 20
51.780349000000001
 30
0.0
 40
0.5
  1
3.563
 41
0.75
  7
TXT
  0
POINT
  5
B75
  8
DEFPOINTS
 62
     0
 10
9.1333369999999992
 20
53.811849000000002
 30
0.0
  0
POINT
  5
B76
  8
DEFPOINTS
 62
     0
 10
9.1333369999999992
 20
50.248848999999993
 30
0.0
  0
POINT
  5
B77
  8
DEFPOINTS
 62
     0
 10
10.209136000000001
 20
50.248848999999993
 30
0.0
  0
ENDBLK
  5
848
  8
0
  0
BLOCK
  8
0
  2
*D92
 70
     1
 10
0.0
 20
0.0
 30
0.0
  3
*D92
  1

  0
LINE
  5
B78
  8
DIM
 62
     0
 10
9.3853369999999998
 20
53.811849000000002
 30
0.0
 11
10.581136000000001
 21
53.811849000000002
 31
0.0
  0
LINE
  5
B79
  8
DIM
 62
     0
 10
9.1903369999999995
 20
53.998848999999993
 30
0.0
 11
10.581136000000001
 21
53.998848999999993
 31
0.0
  0
LINE
  5
B7A
  8
DIM
 62
     0
 10
10.209136000000001
 20
53.091849000000003
 30
0.0
 11
10.209136000000001
 21
52.371848999999997
 31
0.0
  0
LINE
  5
B7B
  8
DIM
 62
     0
 10
10.209136000000001
 20
54.718848999999999
 30
0.0
 11
10.209136000000001
 21
55.438848999999998
 31
0.0
  0
LINE
  5
B7C
  8
DIM
 62
     0
 10
10.209136000000001
 20
55.438848999999998
 30
0.0
 11
10.929136
 21
55.438848999999998
 31
0.0
  0
SOLID
  5
B7D
  8
DIM
 62
     0
 10
10.089136
 20
53.091849000000003
 30
0.0
 11
10.329136
 21
53.091849000000003
 31
0.0
 12
10.209136000000001
 22
53.811849000000002
 32
0.0
 13
10.209136000000001
 23
53.811849000000002
 33
0.0
  0
SOLID
  5
B7E
  8
DIM
 62
     0
 10
10.089136
 20
54.718848999999999
 30
0.0
 11
10.329136
 21
54.718848999999999
 31
0.0
 12
10.209136000000001
 22
53.998848999999993
 32
0.0
 13
10.209136000000001
 23
53.998848999999993
 33
0.0
  0
TEXT
  5
B7F
  8
TEXT
 62
     0
 10
11.28913599999999
 20
55.18884899999999
 30
0.0
 40
0.5
  1
0.187
 41
0.75
  7
TXT
  0
POINT
  5
B80
  8
DEFPOINTS
 62
     0
 10
9.1333369999999992
 20
53.811849000000002
 30
0.0
  0
POINT
  5
B81
  8
DEFPOINTS
 62
     0
 10
8.9383369999999989
 20
53.998848999999993
 30
0.0
  0
POINT
  5
B82
  8
DEFPOINTS
 62
     0
 10
10.209136000000001
 20
53.998848999999993
 30
0.0
  0
ENDBLK
  5
856
  8
0
  0
BLOCK
  8
0
  2
*D93
 70
     1
 10
0.0
 20
0.0
 30
0.0
  3
*D93
  1

  0
LINE
  5
B83
  8
DIM
 62
     0
 10
9.1333369999999992
 20
54.063848999999998
 30
0.0
 11
9.1333369999999992
 21
57.372849000000002
 31
0.0
  0
LINE
  5
B84
  8
DIM
 62
     0
 10
8.0083369999999992
 20
54.063848999999998
 30
0.0
 11
8.0083369999999992
 21
57.372849000000002
 31
0.0
  0
LINE
  5
B85
  8
DIM
 62
     0
 10
9.8533369999999998
 20
57.000849000000002
 30
0.0
 11
10.57333699999999
 21
57.000849000000002
 31
0.0
  0
LINE
  5
B86
  8
DIM
 62
     0
 10
7.2883369999999994
 20
57.000849000000002
 30
0.0
 11
6.5683369999999988
 21
57.000849000000002
 31
0.0
  0
SOLID
  5
B87
  8
DIM
 62
     0
 10
9.8533369999999998
 20
57.120849
 30
0.0
 11
9.8533369999999998
 21
56.880848999999998
 31
0.0
 12
9.1333369999999992
 22
57.000849000000002
 32
0.0
 13
9.1333369999999992
 23
57.000849000000002
 33
0.0
  0
SOLID
  5
B88
  8
DIM
 62
     0
 10
7.2883369999999994
 20
57.120849
 30
0.0
 11
7.2883369999999994
 21
56.880848999999998
 31
0.0
 12
8.0083369999999992
 22
57.000849000000002
 32
0.0
 13
8.0083369999999992
 23
57.000849000000002
 33
0.0
  0
TEXT
  5
B89
  8
TEXT
 62
     0
 10
4.9583369999999993
 20
56.750849000000002
 30
0.0
 40
0.5
  1
1.125
 41
0.75
  7
TXT
  0
POINT
  5
B8A
  8
DEFPOINTS
 62
     0
 10
9.1333369999999992
 20
53.811849000000002
 30
0.0
  0
POINT
  5
B8B
  8
DEFPOINTS
 62
     0
 10
8.0083369999999992
 20
53.811849000000002
 30
0.0
  0
POINT
  5
B8C
  8
DEFPOINTS
 62
     0
 10
8.0083369999999992
 20
57.000849000000002
 30
0.0
  0
ENDBLK
  5
866
  8
0
  0
BLOCK
  8
0
  2
*D94
 70
     1
 10
0.0
 20
0.0
 30
0.0
  3
*D94
  1

  0
LINE
  5
B8D
  8
DIM
 62
     0
 10
8.2033369999999994
 20
54.250849000000002
 30
0.0
 11
8.2033369999999994
 21
56.372849000000002
 31
0.0
  0
LINE
  5
B8E
  8
DIM
 62
     0
 10
8.0083369999999992
 20
54.063848999999998
 30
0.0
 11
8.0083369999999992
 21
56.372849000000002
 31
0.0
  0
LINE
  5
B8F
  8
DIM
 62
     0
 10
8.9233370000000001
 20
56.000849000000002
 30
0.0
 11
9.6433369999999972
 21
56.000849000000002
 31
0.0
  0
LINE
  5
B90
  8
DIM
 62
     0
 10
7.2883369999999994
 20
56.000849000000002
 30
0.0
 11
6.5683369999999988
 21
56.000849000000002
 31
0.0
  0
SOLID
  5
B91
  8
DIM
 62
     0
 10
8.9233370000000001
 20
56.120849
 30
0.0
 11
8.9233370000000001
 21
55.880849000000012
 31
0.0
 12
8.2033369999999994
 22
56.000849000000002
 32
0.0
 13
8.2033369999999994
 23
56.000849000000002
 33
0.0
  0
SOLID
  5
B92
  8
DIM
 62
     0
 10
7.2883369999999994
 20
56.120849
 30
0.0
 11
7.2883369999999994
 21
55.880849000000012
 31
0.0
 12
8.0083369999999992
 22
56.000849000000002
 32
0.0
 13
8.0083369999999992
 23
56.000849000000002
 33
0.0
  0
TEXT
  5
B93
  8
TEXT
 62
     0
 10
3.2708369999999989
 20
55.750849000000002
 30
0.0
 40
0.5
  1
0.195 TYP.
 41
0.75
  7
TXT
  0
POINT
  5
B94
  8
DEFPOINTS
 62
     0
 10
8.2033369999999994
 20
53.998848999999993
 30
0.0
  0
POINT
  5
B95
  8
DEFPOINTS
 62
     0
 10
8.0083369999999992
 20
53.811849000000002
 30
0.0
  0
POINT
  5
B96
  8
DEFPOINTS
 62
     0
 10
8.0083369999999992
 20
56.000849000000002
 30
0.0
  0
ENDBLK
  5
874
  8
0
  0
BLOCK
  8
0
  2
*D95
 70
     1
 10
0.0
 20
0.0
 30
0.0
  3
*D95
  1

  0
LINE
  5
D0D
  8
DIM
 62
     0
 10
14.378864
 20
51.031134000000009
 30
0.0
 11
14.378863999999989
 21
53.222540622285287
 31
0.0
  0
ARC
  5
D0E
  8
DIM
 62
     0
 10
14.378864
 20
50.31084899999999
 30
0.0
 40
2.5396916222852801
 50
106.2981890720433
 51
76.554607940107886
  0
SOLID
  5
D0F
  8
DIM
 62
     0
 10
13.64912421656981
 20
52.86726929465565
 30
0.0
 11
13.683144094905369
 21
52.62969267990151
 31
0.0
 12
14.378863999999989
 22
52.85054062228528
 32
0.0
 13
14.378863999999989
 23
52.85054062228528
 33
0.0
  0
SOLID
  5
D10
  8
DIM
 62
     0
 10
14.958312546246979
 20
52.661445005360413
 30
0.0
 11
14.98046604459735
 21
52.900420364991568
 31
0.0
 12
14.2524632165287
 22
52.84739318022708
 32
0.0
 13
14.2524632165287
 23
52.84739318022708
 33
0.0
  0
TEXT
  8
0
  40
0.5
  5
D7E
  62
0
  72
0
  71
0
 10
11.8680
 20
51.4673
 30
0.000000
  1
3%%d REF.
  7
TXT
  0
POINT
  5
D12
  8
DEFPOINTS
 62
     0
 10
14.33671492658231
 20
52.850190842272532
 30
0.0
  0
POINT
  5
D13
  8
DEFPOINTS
 62
     0
 10
14.378864
 20
50.310848999999997
 30
0.0
  0
POINT
  5
D14
  8
DEFPOINTS
 62
     0
 10
14.378864
 20
50.310848999999997
 30
0.0
  0
POINT
  5
D15
  8
DEFPOINTS
 62
     0
 10
14.378864
 20
50.779134000000013
 30
0.0
  0
POINT
  5
D16
  8
DEFPOINTS
 62
     0
 10
14.195084
 20
53.998849000000007
 30
0.0
  0
ENDBLK
  5
88A
  8
0
  0
ENDSEC
  0
SECTION
  2
ENTITIES
  0
LINE
  5
2B8
  8
OBJECT
 10
14.704378
 20
50.248848999999993
 30
0.0
 11
14.49779
 21
50.248848999999993
 31
0.0
  0
LINE
  5
2B9
  8
OBJECT
 10
15.179084
 20
53.998848999999993
 30
0.0
 11
15.081294
 21
53.998848999999993
 31
0.0
  0
LINE
  5
2BA
  8
OBJECT
 10
15.179084
 20
53.998848999999993
 30
0.0
 11
15.179084
 21
53.936849000000002
 31
0.0
  0
LINE
  5
2BB
  8
OBJECT
 10
15.179084
 20
53.936849000000002
 30
0.0
 11
15.08114299999999
 21
53.936849000000002
 31
0.0
  0
LINE
  5
2BC
  8
OBJECT
 10
14.704378
 20
50.31084899999999
 30
0.0
 11
14.49779
 21
50.31084899999999
 31
0.0
  0
LINE
  5
2BD
  8
OBJECT
 10
14.890620999999991
 20
50.419035999999998
 30
0.0
 11
15.065163
 21
53.921644999999991
 31
0.0
  0
LINE
  5
2BE
  8
OBJECT
 10
14.829223000000001
 20
50.429628000000001
 30
0.0
 11
15.003391000000001
 21
53.924731000000008
 31
0.0
  0
LINE
  5
2BF
  8
OBJECT
 10
14.372945
 20
50.429628000000001
 30
0.0
 11
14.198778000000001
 21
53.924731000000008
 31
0.0
  0
LINE
  5
2C0
  8
OBJECT
 10
14.311548
 20
50.419035999999998
 30
0.0
 11
14.137006
 21
53.921644999999991
 31
0.0
  0
LINE
  5
2C1
  8
OBJECT
 10
14.02308399999999
 20
53.936849000000002
 30
0.0
 11
14.121026000000001
 21
53.936849000000002
 31
0.0
  0
LINE
  5
2C2
  8
OBJECT
 10
14.02308399999999
 20
53.998848999999993
 30
0.0
 11
14.02308399999999
 21
53.936849000000002
 31
0.0
  0
LINE
  5
2C3
  8
OBJECT
 10
14.02308399999999
 20
53.998848999999993
 30
0.0
 11
14.12087399999999
 21
53.998848999999993
 31
0.0
  0
LINE
  5
2C4
  8
OBJECT
 10
15.059369
 20
53.811849000000002
 30
0.0
 11
14.997284000000001
 21
53.811849000000002
 31
0.0
  0
DIMENSION
  5
2C5
  8
DIM
  2
*D48
 10
14.02308399999999
 20
56.43884899999999
 30
0.0
 11
11.566834
 21
56.43884899999999
 31
0.0
 70
     0
 13
14.195083999999991
 23
53.998848999999993
 33
0.0
 14
14.02308399999999
 24
53.998848999999993
 34
0.0
  0
DIMENSION
  5
2D3
  8
DIM
  2
*D49
 10
15.179084
 20
55.438848999999998
 30
0.0
 11
17.635334
 21
55.438848999999998
 31
0.0
 70
     0
 13
15.00708399999999
 23
53.998848999999993
 33
0.0
 14
15.179084
 24
53.998848999999993
 34
0.0
  0
DIMENSION
  5
2E1
  8
DIM
  2
*D50
 10
14.320028000000001
 20
49.336849000000001
 30
0.0
 11
11.801277999999989
 21
49.336849000000001
 31
0.0
 70
     0
 13
14.88214
 23
50.248848999999993
 33
0.0
 14
14.320028000000001
 24
50.248848999999993
 34
0.0
  0
DIMENSION
  5
2EF
  8
DIM
  2
*D51
 10
15.179084
 20
57.438848999999998
 30
0.0
 11
17.604084
 21
57.438848999999998
 31
0.0
 70
     0
 13
14.02308399999999
 23
53.998848999999993
 33
0.0
 14
15.179084
 24
53.998848999999993
 34
0.0
  0
DIMENSION
  5
2FD
  8
DIM
  2
*D52
 10
16.091083999999999
 20
53.998848999999993
 30
0.0
 11
16.091083999999992
 21
52.123848999999993
 31
0.0
 70
     0
 13
14.88214
 23
50.248848999999993
 33
0.0
 14
15.179084
 24
53.998848999999993
 34
0.0
 50
90.0
  0
ARC
  5
30B
  8
OBJECT
 10
14.49779
 20
50.43584899999999
 30
0.0
 40
0.125
 50
182.8527949999999
 51
270.0
  0
ARC
  5
30C
  8
OBJECT
 10
14.704378
 20
50.43584899999999
 30
0.0
 40
0.125
 50
270.0
 51
357.14720499999999
  0
ARC
  5
30D
  8
OBJECT
 10
14.49779
 20
50.43584899999999
 30
0.0
 40
0.187
 50
182.8527949999999
 51
270.0
  0
ARC
  5
30E
  8
OBJECT
 10
14.704378
 20
50.43584899999999
 30
0.0
 40
0.187
 50
270.0
 51
357.14720499999999
  0
ARC
  5
30F
  8
OBJECT
 10
15.08114299999999
 20
53.920848999999997
 30
0.0
 40
0.016
 50
90.0
 51
177.14720500000001
  0
ARC
  5
310
  8
OBJECT
 10
14.121026000000001
 20
53.920848999999997
 30
0.0
 40
0.016
 50
2.8527949999999991
 51
90.0
  0
LINE
  5
311
  8
OBJECT
 10
1.682920999999999
 20
33.013843999999992
 30
0.0
 11
2.961933999999999
 21
33.752282000000001
 31
0.0
  0
LINE
  5
312
  8
OBJECT
 10
18.137404
 20
42.813579999999988
 30
0.0
 11
18.137404
 21
44.231844000000002
 31
0.0
  0
LINE
  5
313
  8
OBJECT
 10
18.137404
 20
44.231844000000002
 30
0.0
 11
1.682920999999999
 21
34.731844000000002
 31
0.0
  0
LINE
  5
314
  8
OBJECT
 10
1.682920999999999
 20
34.731844000000002
 30
0.0
 11
1.682920999999999
 21
33.013843999999992
 31
0.0
  0
LINE
  5
315
  8
OBJECT
 10
18.096700999999989
 20
44.255344000000001
 30
0.0
 11
17.555434999999989
 21
43.942844000000001
 31
0.0
  0
LINE
  5
316
  8
OBJECT
 10
1.6422179999999991
 20
34.755344000000001
 30
0.0
 11
1.6422179999999991
 21
33.03734399999999
 31
0.0
  0
LINE
  5
317
  8
OBJECT
 10
1.682920999999999
 20
34.731844000000002
 30
0.0
 11
1.6422179999999991
 21
34.755344000000001
 31
0.0
  0
LINE
  5
318
  8
OBJECT
 10
17.541578999999999
 20
43.950843999999996
 30
0.0
 11
17.596138
 21
43.919344000000002
 31
0.0
  0
LINE
  5
319
  8
OBJECT
 10
17.163125999999998
 20
44.169344000000002
 30
0.0
 11
1.7911749999999991
 21
35.294344000000002
 31
0.0
  0
LINE
  5
31A
  8
OBJECT
 10
17.163125999999998
 20
44.169344000000002
 30
0.0
 11
17.596138
 21
43.919344000000002
 31
0.0
  0
LINE
  5
31B
  8
OBJECT
 10
1.7911749999999991
 20
35.294344000000002
 30
0.0
 11
2.2241869999999988
 21
35.044344000000002
 31
0.0
  0
LINE
  5
31C
  8
OBJECT
 10
2.1834839999999991
 20
35.067844000000001
 30
0.0
 11
1.6422179999999991
 21
34.755344000000001
 31
0.0
  0
LINE
  5
31D
  8
OBJECT
 10
1.7911749999999991
 20
35.247343999999991
 30
0.0
 11
2.1427809999999998
 21
35.044344000000002
 31
0.0
  0
LINE
  5
31E
  8
OBJECT
 10
1.7911749999999991
 20
35.294344000000002
 30
0.0
 11
1.7911749999999991
 21
35.247343999999991
 31
0.0
  0
LINE
  5
31F
  8
OBJECT
 10
18.096700999999989
 20
44.255344000000001
 30
0.0
 11
18.137404
 21
44.231844000000002
 31
0.0
  0
LINE
  5
320
  8
OBJECT
 10
1.6422179999999991
 20
33.03734399999999
 30
0.0
 11
1.682920999999999
 21
33.013843999999992
 31
0.0
  0
LINE
  5
321
  8
OBJECT
 10
1.901518
 20
33.512638000000003
 30
0.0
 11
2.0663860000000001
 21
33.417451
 31
0.0
  0
LINE
  5
322
  8
OBJECT
 10
1.9418629999999999
 20
33.536344
 30
0.0
 11
2.0843899999999991
 21
33.454056999999999
 31
0.0
  0
POLYLINE
  5
323
  8
OBJECT
 66
     1
 10
0.0
 20
0.0
 30
0.0
  0
VERTEX
  5
C28
  8
OBJECT
 10
7.8533530000000003
 20
37.107343999999991
 30
0.0
  0
VERTEX
  5
C29
  8
OBJECT
 10
8.4621680000000001
 20
37.458843999999999
 30
0.0
  0
VERTEX
  5
C2A
  8
OBJECT
 10
8.5028719999999982
 20
37.435344000000001
 30
0.0
  0
VERTEX
  5
C2B
  8
OBJECT
 10
7.8533530000000003
 20
37.060344000000001
 30
0.0
  0
VERTEX
  5
C2C
  8
OBJECT
 10
7.8533530000000003
 20
37.810344000000001
 30
0.0
  0
VERTEX
  5
C2D
  8
OBJECT
 10
8.5028719999999982
 20
38.185344000000001
 30
0.0
  0
VERTEX
  5
C2E
  8
OBJECT
 10
8.5028719999999982
 20
37.435344000000001
 30
0.0
  0
SEQEND
  5
C2F
  8
OBJECT
  0
LINE
  5
32C
  8
OBJECT
 10
8.4621680000000001
 20
37.458843999999999
 30
0.0
 11
8.4621680000000001
 21
38.161844000000002
 31
0.0
  0
POLYLINE
  5
32D
  8
OBJECT
 66
     1
 10
0.0
 20
0.0
 30
0.0
  0
VERTEX
  5
C30
  8
OBJECT
 10
6.121302
 20
36.107343999999998
 30
0.0
  0
VERTEX
  5
C31
  8
OBJECT
 10
6.7301179999999992
 20
36.458843999999992
 30
0.0
  0
VERTEX
  5
C32
  8
OBJECT
 10
6.7708209999999998
 20
36.435344000000001
 30
0.0
  0
VERTEX
  5
C33
  8
OBJECT
 10
6.121302
 20
36.060344000000001
 30
0.0
  0
VERTEX
  5
C34
  8
OBJECT
 10
6.121302
 20
36.810344000000001
 30
0.0
  0
VERTEX
  5
C35
  8
OBJECT
 10
6.7708209999999998
 20
37.185344000000001
 30
0.0
  0
VERTEX
  5
C36
  8
OBJECT
 10
6.7708209999999998
 20
36.435344000000001
 30
0.0
  0
SEQEND
  5
C37
  8
OBJECT
  0
LINE
  5
336
  8
OBJECT
 10
6.7301179999999992
 20
36.458843999999992
 30
0.0
 11
6.7301179999999992
 21
37.161844000000002
 31
0.0
  0
POLYLINE
  5
337
  8
OBJECT
 66
     1
 10
0.0
 20
0.0
 30
0.0
  0
VERTEX
  5
C38
  8
OBJECT
 10
4.3892509999999989
 20
35.107343999999998
 30
0.0
  0
VERTEX
  5
C39
  8
OBJECT
 10
4.9980669999999989
 20
35.458843999999999
 30
0.0
  0
VERTEX
  5
C3A
  8
OBJECT
 10
5.0387699999999986
 20
35.435344000000001
 30
0.0
  0
VERTEX
  5
C3B
  8
OBJECT
 10
4.3892509999999989
 20
35.060344000000001
 30
0.0
  0
VERTEX
  5
C3C
  8
OBJECT
 10
4.3892509999999989
 20
35.810344000000001
 30
0.0
  0
VERTEX
  5
C3D
  8
OBJECT
 10
5.0387699999999986
 20
36.185344000000001
 30
0.0
  0
VERTEX
  5
C3E
  8
OBJECT
 10
5.0387699999999986
 20
35.435344000000001
 30
0.0
  0
SEQEND
  5
C3F
  8
OBJECT
  0
LINE
  5
340
  8
OBJECT
 10
4.9980669999999989
 20
35.458843999999999
 30
0.0
 11
4.9980669999999989
 21
36.161844000000002
 31
0.0
  0
POLYLINE
  5
341
  8
OBJECT
 66
     1
 10
0.0
 20
0.0
 30
0.0
  0
VERTEX
  5
C40
  8
OBJECT
 10
11.317454
 20
39.107343999999991
 30
0.0
  0
VERTEX
  5
C41
  8
OBJECT
 10
11.926270000000001
 20
39.458843999999999
 30
0.0
  0
VERTEX
  5
C42
  8
OBJECT
 10
11.966972999999999
 20
39.435344000000001
 30
0.0
  0
VERTEX
  5
C43
  8
OBJECT
 10
11.317454
 20
39.060344000000001
 30
0.0
  0
VERTEX
  5
C44
  8
OBJECT
 10
11.317454
 20
39.810344000000001
 30
0.0
  0
VERTEX
  5
C45
  8
OBJECT
 10
11.966972999999999
 20
40.185344000000001
 30
0.0
  0
VERTEX
  5
C46
  8
OBJECT
 10
11.966972999999999
 20
39.435344000000001
 30
0.0
  0
SEQEND
  5
C47
  8
OBJECT
  0
LINE
  5
34A
  8
OBJECT
 10
11.926270000000001
 20
39.458843999999999
 30
0.0
 11
11.926270000000001
 21
40.161844000000002
 31
0.0
  0
POLYLINE
  5
34B
  8
OBJECT
 66
     1
 10
0.0
 20
0.0
 30
0.0
  0
VERTEX
  5
C48
  8
OBJECT
 10
13.049505
 20
40.107343999999991
 30
0.0
  0
VERTEX
  5
C49
  8
OBJECT
 10
13.65832099999999
 20
40.458843999999999
 30
0.0
  0
VERTEX
  5
C4A
  8
OBJECT
 10
13.699023999999991
 20
40.435344000000001
 30
0.0
  0
VERTEX
  5
C4B
  8
OBJECT
 10
13.049505
 20
40.060343999999994
 30
0.0
  0
VERTEX
  5
C4C
  8
OBJECT
 10
13.049505
 20
40.810344000000001
 30
0.0
  0
VERTEX
  5
C4D
  8
OBJECT
 10
13.699023999999991
 20
41.185344000000001
 30
0.0
  0
VERTEX
  5
C4E
  8
OBJECT
 10
13.699023999999991
 20
40.435344000000001
 30
0.0
  0
SEQEND
  5
C4F
  8
OBJECT
  0
LINE
  5
354
  8
OBJECT
 10
13.65832099999999
 20
40.458843999999999
 30
0.0
 11
13.65832099999999
 21
41.161844000000002
 31
0.0
  0
POLYLINE
  5
355
  8
OBJECT
 66
     1
 10
0.0
 20
0.0
 30
0.0
  0
VERTEX
  5
C50
  8
OBJECT
 10
14.781556
 20
41.107343999999998
 30
0.0
  0
VERTEX
  5
C51
  8
OBJECT
 10
15.390371999999999
 20
41.458843999999992
 30
0.0
  0
VERTEX
  5
C52
  8
OBJECT
 10
15.431075
 20
41.435344000000001
 30
0.0
  0
VERTEX
  5
C53
  8
OBJECT
 10
14.781556
 20
41.060344000000001
 30
0.0
  0
VERTEX
  5
C54
  8
OBJECT
 10
14.781556
 20
41.810344000000001
 30
0.0
  0
VERTEX
  5
C55
  8
OBJECT
 10
15.431075
 20
42.185344000000001
 30
0.0
  0
VERTEX
  5
C56
  8
OBJECT
 10
15.431075
 20
41.435344000000001
 30
0.0
  0
SEQEND
  5
C57
  8
OBJECT
  0
LINE
  5
35E
  8
OBJECT
 10
15.390371999999999
 20
41.458843999999992
 30
0.0
 11
15.390371999999999
 21
42.161844000000002
 31
0.0
  0
LINE
  5
35F
  8
OBJECT
 10
3.333998999999999
 20
35.388593999999991
 30
0.0
 11
6.5001879999999987
 21
33.466093999999998
 31
0.0
  0
LINE
  5
360
  8
OBJECT
 10
6.0134819999999989
 20
33.185093999999992
 30
0.0
 11
6.5001879999999987
 21
33.466093999999998
 31
0.0
  0
LINE
  5
361
  8
OBJECT
 10
6.0134819999999989
 20
32.06109399999999
 30
0.0
 11
6.5001879999999987
 21
32.342094000000003
 31
0.0
  0
LINE
  5
362
  8
OBJECT
 10
2.6844799999999989
 20
33.888593999999991
 30
0.0
 11
2.6844799999999989
 21
35.013593999999998
 31
0.0
  0
LINE
  5
363
  8
OBJECT
 10
3.2803049999999998
 20
35.357593999999992
 30
0.0
 11
6.3941540000000003
 21
33.466875000000002
 31
0.0
  0
LINE
  5
364
  8
OBJECT
 10
2.6844799999999989
 20
35.013593999999998
 30
0.0
 11
6.0134819999999989
 21
33.185093999999992
 31
0.0
  0
LINE
  5
365
  8
OBJECT
 10
2.7381729999999989
 20
35.044593999999996
 30
0.0
 11
6.012143
 21
33.246321999999992
 31
0.0
  0
LINE
  5
366
  8
OBJECT
 10
2.6844799999999989
 20
33.888593999999991
 30
0.0
 11
6.0134819999999989
 21
32.06109399999999
 31
0.0
  0
LINE
  5
367
  8
OBJECT
 10
6.0134819999999989
 20
32.06109399999999
 30
0.0
 11
6.0134819999999989
 21
33.185093999999992
 31
0.0
  0
LINE
  5
368
  8
OBJECT
 10
6.012143
 20
33.246321999999992
 30
0.0
 11
6.3941540000000003
 21
33.466875000000002
 31
0.0
  0
LINE
  5
369
  8
OBJECT
 10
2.9046009999999991
 20
34.953181999999991
 30
0.0
 11
3.2803049999999998
 21
35.170093999999999
 31
0.0
  0
LINE
  5
36A
  8
OBJECT
 10
2.6844799999999989
 20
35.013593999999998
 30
0.0
 11
2.7381729999999989
 21
35.044593999999996
 31
0.0
  0
LINE
  5
36B
  8
OBJECT
 10
3.1859090000000001
 20
34.798670000000001
 30
0.0
 11
3.1859090000000001
 21
35.115594000000002
 31
0.0
  0
LINE
  5
36C
  8
OBJECT
 10
3.2803049999999998
 20
35.170093999999999
 30
0.0
 11
3.2803049999999998
 21
35.357593999999992
 31
0.0
  0
LINE
  5
36D
  8
OBJECT
 10
3.2803049999999998
 20
35.357593999999992
 30
0.0
 11
3.333998999999999
 21
35.388593999999991
 31
0.0
  0
LINE
  5
36E
  8
OBJECT
 10
6.5001879999999987
 20
32.342094000000003
 30
0.0
 11
6.5001879999999987
 21
33.466093999999998
 31
0.0
  0
LINE
  5
36F
  8
OBJECT
 10
17.136711999999999
 20
43.357593999999992
 30
0.0
 11
20.25056
 21
41.466875000000002
 31
0.0
  0
LINE
  5
370
  8
OBJECT
 10
17.190404999999998
 20
43.388593999999991
 30
0.0
 11
20.356594000000001
 21
41.466093999999998
 31
0.0
  0
LINE
  5
371
  8
OBJECT
 10
16.761008
 20
42.953181999999991
 30
0.0
 11
17.136711999999999
 21
43.170093999999992
 31
0.0
  0
LINE
  5
372
  8
OBJECT
 10
17.042314999999991
 20
42.798670000000001
 30
0.0
 11
17.042314999999991
 21
43.115594000000002
 31
0.0
  0
LINE
  5
373
  8
OBJECT
 10
17.136711999999999
 20
43.170093999999992
 30
0.0
 11
17.136711999999999
 21
43.357593999999992
 31
0.0
  0
LINE
  5
374
  8
OBJECT
 10
17.136711999999999
 20
43.357593999999992
 30
0.0
 11
17.190404999999998
 21
43.388593999999991
 31
0.0
  0
LINE
  5
375
  8
OBJECT
 10
20.356594000000001
 20
40.342094000000003
 30
0.0
 11
20.356594000000001
 21
41.466093999999998
 31
0.0
  0
LINE
  5
376
  8
OBJECT
 10
19.868548999999991
 20
41.246321999999992
 30
0.0
 11
20.25056
 21
41.466875000000002
 31
0.0
  0
LINE
  5
377
  8
OBJECT
 10
19.869887999999989
 20
41.185093999999992
 30
0.0
 11
20.356594000000001
 21
41.466093999999998
 31
0.0
  0
LINE
  5
378
  8
OBJECT
 10
19.869887999999989
 20
40.06109399999999
 30
0.0
 11
19.869887999999989
 21
41.185093999999992
 31
0.0
  0
LINE
  5
379
  8
OBJECT
 10
19.869887999999989
 20
40.06109399999999
 30
0.0
 11
20.356594000000001
 21
40.342094000000003
 31
0.0
  0
LINE
  5
37A
  8
OBJECT
 10
16.54088599999999
 20
41.888593999999998
 30
0.0
 11
19.869887999999989
 21
40.06109399999999
 31
0.0
  0
LINE
  5
37B
  8
OBJECT
 10
16.594580000000001
 20
43.044593999999996
 30
0.0
 11
19.868548999999991
 21
41.246321999999992
 31
0.0
  0
LINE
  5
37C
  8
OBJECT
 10
16.54088599999999
 20
43.013593999999991
 30
0.0
 11
19.869887999999989
 21
41.185093999999992
 31
0.0
  0
LINE
  5
37D
  8
OBJECT
 10
16.54088599999999
 20
43.013593999999991
 30
0.0
 11
16.594580000000001
 21
43.044593999999996
 31
0.0
  0
LINE
  5
37E
  8
OBJECT
 10
16.54088599999999
 20
41.888593999999998
 30
0.0
 11
16.54088599999999
 21
43.013593999999991
 31
0.0
  0
LINE
  5
37F
  8
OBJECT
 10
11.452928999999999
 20
38.654561000000001
 30
0.0
 11
16.818339999999999
 21
41.752282000000001
 31
0.0
  0
LINE
  5
380
  8
OBJECT
 10
4.5475430000000001
 20
34.667734000000003
 30
0.0
 11
9.9092190000000002
 21
37.763300000000001
 31
0.0
  0
LINE
  5
381
  8
OBJECT
 10
9.4234570000000009
 20
38.716844000000002
 30
0.0
 11
10.396869000000001
 21
39.278843999999992
 31
0.0
  0
LINE
  5
382
  8
OBJECT
 10
9.5854029999999995
 20
38.169344000000002
 30
0.0
 11
9.5854029999999995
 21
38.556657000000001
 31
0.0
  0
LINE
  5
383
  8
OBJECT
 10
12.671052
 20
36.747844000000001
 30
0.0
 11
13.644463999999999
 21
37.309843999999998
 31
0.0
  0
LINE
  5
384
  8
OBJECT
 10
12.671052
 20
36.231844000000002
 30
0.0
 11
13.644463999999999
 21
36.793843999999993
 31
0.0
  0
LINE
  5
385
  8
OBJECT
 10
13.644463999999999
 20
36.793843999999993
 30
0.0
 11
13.644463999999999
 21
37.309843999999998
 31
0.0
  0
LINE
  5
386
  8
OBJECT
 10
12.671052
 20
36.747844000000001
 30
0.0
 11
12.671052
 21
36.231844000000002
 31
0.0
  0
LINE
  5
387
  8
OBJECT
 10
10.396869000000001
 20
39.278843999999992
 30
0.0
 11
13.644463999999999
 21
37.309843999999998
 31
0.0
  0
LINE
  5
388
  8
OBJECT
 10
9.4234570000000009
 20
38.716844000000002
 30
0.0
 11
12.671052
 21
36.747844000000001
 31
0.0
  0
LINE
  5
389
  8
OBJECT
 10
12.617357999999999
 20
36.718398000000001
 30
0.0
 11
12.617357999999999
 21
36.323307
 31
0.0
  0
LINE
  5
38A
  8
OBJECT
 10
9.4234570000000009
 20
38.716844000000002
 30
0.0
 11
9.4234570000000009
 21
38.65484399999999
 31
0.0
  0
LINE
  5
38B
  8
OBJECT
 10
9.4234570000000009
 20
38.013843999999992
 30
0.0
 11
12.671052
 21
36.231844000000002
 31
0.0
  0
LINE
  5
38C
  8
OBJECT
 10
9.4234570000000009
 20
38.65484399999999
 30
0.0
 11
12.617357999999999
 21
36.718398000000001
 31
0.0
  0
LINE
  5
38D
  8
OBJECT
 10
9.4234570000000009
 20
38.075843999999996
 30
0.0
 11
12.617357999999999
 21
36.323307
 31
0.0
  0
LINE
  5
38E
  8
OBJECT
 10
9.4234570000000009
 20
38.075843999999996
 30
0.0
 11
9.4234570000000009
 21
38.013843999999992
 31
0.0
  0
LINE
  5
38F
  8
OBJECT
 10
9.4234570000000009
 20
38.075843999999996
 30
0.0
 11
9.5854029999999995
 21
38.169344000000002
 31
0.0
  0
LINE
  5
390
  8
OBJECT
 10
9.5854029999999995
 20
38.278343999999997
 30
0.0
 11
9.8205350000000013
 21
38.414097999999989
 31
0.0
  0
LINE
  5
391
  8
OBJECT
 10
25.196995000000001
 20
30.157386999999989
 30
0.0
 11
25.196995000000001
 21
29.407387
 31
0.0
  0
LINE
  5
392
  8
OBJECT
 10
25.946995000000001
 20
30.157386999999989
 30
0.0
 11
25.946995000000001
 21
29.407387
 31
0.0
  0
LINE
  5
393
  8
OBJECT
 10
25.946995000000001
 20
30.157386999999989
 30
0.0
 11
25.196995000000001
 21
30.157386999999989
 31
0.0
  0
LINE
  5
394
  8
OBJECT
 10
25.946995000000001
 20
29.407387
 30
0.0
 11
25.196995000000001
 21
29.407387
 31
0.0
  0
LINE
  5
395
  8
CENTER
 10
25.481995000000001
 20
29.782387
 30
0.0
 11
25.661995000000001
 21
29.782387
 31
0.0
  0
LINE
  5
396
  8
CENTER
 10
25.571995000000001
 20
29.692387
 30
0.0
 11
25.571995000000001
 21
29.872387
 31
0.0
  0
LINE
  5
397
  8
OBJECT
 10
27.946995000000001
 20
30.157386999999989
 30
0.0
 11
27.946995000000001
 21
29.407387
 31
0.0
  0
LINE
  5
398
  8
OBJECT
 10
27.196995000000001
 20
30.157386999999989
 30
0.0
 11
27.196995000000001
 21
29.407387
 31
0.0
  0
LINE
  5
399
  8
OBJECT
 10
27.946995000000001
 20
29.407387
 30
0.0
 11
27.196995000000001
 21
29.407387
 31
0.0
  0
LINE
  5
39A
  8
CENTER
 10
27.571995000000001
 20
29.692387
 30
0.0
 11
27.571995000000001
 21
29.872387
 31
0.0
  0
LINE
  5
39B
  8
CENTER
 10
27.481995000000001
 20
29.782387
 30
0.0
 11
27.661995000000001
 21
29.782387
 31
0.0
  0
LINE
  5
39C
  8
OBJECT
 10
27.946995000000001
 20
30.157386999999989
 30
0.0
 11
27.196995000000001
 21
30.157386999999989
 31
0.0
  0
LINE
  5
39D
  8
OBJECT
 10
29.946995000000001
 20
30.157386999999989
 30
0.0
 11
29.946995000000001
 21
29.407387
 31
0.0
  0
LINE
  5
39E
  8
OBJECT
 10
29.196995000000001
 20
30.157386999999989
 30
0.0
 11
29.196995000000001
 21
29.407387
 31
0.0
  0
LINE
  5
39F
  8
OBJECT
 10
29.946995000000001
 20
29.407387
 30
0.0
 11
29.196995000000001
 21
29.407387
 31
0.0
  0
LINE
  5
3A0
  8
CENTER
 10
29.571995000000001
 20
29.692387
 30
0.0
 11
29.571995000000001
 21
29.872387
 31
0.0
  0
LINE
  5
3A1
  8
CENTER
 10
29.481995000000001
 20
29.782387
 30
0.0
 11
29.661995000000001
 21
29.782387
 31
0.0
  0
LINE
  5
3A2
  8
OBJECT
 10
29.946995000000001
 20
30.157386999999989
 30
0.0
 11
29.196995000000001
 21
30.157386999999989
 31
0.0
  0
LINE
  5
3A3
  8
OBJECT
 10
23.946995000000001
 20
30.157386999999989
 30
0.0
 11
23.946995000000001
 21
29.407387
 31
0.0
  0
LINE
  5
3A4
  8
OBJECT
 10
23.196995000000001
 20
30.157386999999989
 30
0.0
 11
23.196995000000001
 21
29.407387
 31
0.0
  0
LINE
  5
3A5
  8
OBJECT
 10
23.946995000000001
 20
29.407387
 30
0.0
 11
23.196995000000001
 21
29.407387
 31
0.0
  0
LINE
  5
3A6
  8
CENTER
 10
23.571995000000001
 20
29.692387
 30
0.0
 11
23.571995000000001
 21
29.872387
 31
0.0
  0
LINE
  5
3A7
  8
CENTER
 10
23.481995000000001
 20
29.782387
 30
0.0
 11
23.661995000000001
 21
29.782387
 31
0.0
  0
LINE
  5
3A8
  8
OBJECT
 10
23.946995000000001
 20
30.157386999999989
 30
0.0
 11
23.196995000000001
 21
30.157386999999989
 31
0.0
  0
LINE
  5
3A9
  8
OBJECT
 10
21.946995000000001
 20
30.157386999999989
 30
0.0
 11
21.946995000000001
 21
29.407387
 31
0.0
  0
LINE
  5
3AA
  8
OBJECT
 10
21.196995000000001
 20
30.157386999999989
 30
0.0
 11
21.196995000000001
 21
29.407387
 31
0.0
  0
LINE
  5
3AB
  8
OBJECT
 10
21.946995000000001
 20
29.407387
 30
0.0
 11
21.196995000000001
 21
29.407387
 31
0.0
  0
LINE
  5
3AC
  8
CENTER
 10
21.571995000000001
 20
29.692387
 30
0.0
 11
21.571995000000001
 21
29.872387
 31
0.0
  0
LINE
  5
3AD
  8
CENTER
 10
21.481995000000001
 20
29.782387
 30
0.0
 11
21.661995000000001
 21
29.782387
 31
0.0
  0
LINE
  5
3AE
  8
OBJECT
 10
21.946995000000001
 20
30.157386999999989
 30
0.0
 11
21.196995000000001
 21
30.157386999999989
 31
0.0
  0
LINE
  5
3AF
  8
OBJECT
 10
35.071995000000001
 20
35.917479
 30
0.0
 11
16.071995000000001
 21
35.917479
 31
0.0
  0
LINE
  5
3B0
  8
OBJECT
 10
34.446995000000001
 20
36.417479
 30
0.0
 11
16.696995000000001
 21
36.417479
 31
0.0
  0
LINE
  5
3B1
  8
OBJECT
 10
16.071995000000001
 20
35.96447899999999
 30
0.0
 11
16.071995000000001
 21
35.917479
 31
0.0
  0
LINE
  5
3B2
  8
OBJECT
 10
35.071995000000001
 20
35.96447899999999
 30
0.0
 11
35.071995000000001
 21
35.917479
 31
0.0
  0
LINE
  5
3B3
  8
OBJECT
 10
16.696995000000001
 20
36.417479
 30
0.0
 11
16.696995000000001
 21
35.917479
 31
0.0
  0
LINE
  5
3B4
  8
OBJECT
 10
34.446995000000001
 20
36.417479
 30
0.0
 11
34.446995000000001
 21
35.917479
 31
0.0
  0
LINE
  5
3B5
  8
OBJECT
 10
16.696995000000001
 20
35.96447899999999
 30
0.0
 11
16.071995000000001
 21
35.96447899999999
 31
0.0
  0
LINE
  5
3B6
  8
OBJECT
 10
34.446995000000001
 20
35.96447899999999
 30
0.0
 11
35.071995000000001
 21
35.96447899999999
 31
0.0
  0
LINE
  5
3B7
  8
OBJECT
 10
35.071995000000001
 20
28.923386999999991
 30
0.0
 11
35.071995000000001
 21
30.641386999999991
 31
0.0
  0
LINE
  5
3B8
  8
OBJECT
 10
16.071995000000001
 20
30.641386999999991
 30
0.0
 11
16.071995000000001
 21
28.923386999999991
 31
0.0
  0
LINE
  5
3B9
  8
OBJECT
 10
35.071995000000001
 20
30.641386999999991
 30
0.0
 11
16.071995000000001
 21
30.641386999999991
 31
0.0
  0
LINE
  5
3BA
  8
OBJECT
 10
35.071995000000001
 20
28.923386999999991
 30
0.0
 11
16.071995000000001
 21
28.923386999999991
 31
0.0
  0
LINE
  5
3BB
  8
CENTER
 10
21.946995000000001
 20
29.782387
 30
0.0
 11
23.196995000000001
 21
29.782387
 31
0.0
  0
LINE
  5
3BC
  8
CENTER
 10
23.946995000000001
 20
29.782387
 30
0.0
 11
25.196995000000001
 21
29.782387
 31
0.0
  0
LINE
  5
3BD
  8
CENTER
 10
25.946995000000001
 20
29.782387
 30
0.0
 11
27.196995000000001
 21
29.782387
 31
0.0
  0
LINE
  5
3BE
  8
CENTER
 10
27.946995000000001
 20
29.782387
 30
0.0
 11
29.196995000000001
 21
29.782387
 31
0.0
  0
DIMENSION
  5
3BF
  8
DIM
  2
*D53
 10
16.071995000000001
 20
33.984790999999987
 30
0.0
 11
16.821995000000001
 21
33.984790999999987
 31
0.0
 70
     0
 13
17.571995000000001
 23
29.872387
 33
0.0
 14
16.071995000000001
 24
30.641386999999991
 34
0.0
 50
180.0
  0
DIMENSION
  5
3CD
  8
DIM
  2
*D54
 10
16.071995000000001
 20
32.984790999999987
 30
0.0
 11
13.553245
 21
32.984790999999987
 31
0.0
 70
     0
 13
16.399995000000001
 23
30.497387
 33
0.0
 14
16.071995000000001
 24
30.641386999999991
 34
0.0
 50
180.0
  0
DIMENSION
  5
3DB
  8
DIM
  2
*D55
 10
13.95407
 20
29.782387
 30
0.0
 11
13.954069999999991
 21
30.211887000000001
 31
0.0
 70
     0
 13
16.071995000000001
 23
30.641386999999991
 33
0.0
 14
17.481995000000001
 24
29.782387
 34
0.0
 50
90.0
  0
DIMENSION
  5
3E9
  8
DIM
  2
*D56
 10
35.071995000000001
 20
34.984790999999987
 30
0.0
 11
25.571995000000001
 21
34.984790999999987
 31
0.0
 70
     0
 13
16.071995000000001
 23
30.641386999999991
 33
0.0
 14
35.071995000000001
 24
30.641386999999991
 34
0.0
 50
180.0
  0
LINE
  5
3F7
  8
CENTER
 10
29.946995000000001
 20
29.782387
 30
0.0
 11
31.196995000000001
 21
29.782387
 31
0.0
  0
LINE
  5
3F8
  8
CENTER
 10
33.571995000000001
 20
29.692387
 30
0.0
 11
33.571995000000001
 21
29.872387
 31
0.0
  0
LINE
  5
3F9
  8
OBJECT
 10
33.196995000000001
 20
30.157386999999989
 30
0.0
 11
33.196995000000001
 21
29.407387
 31
0.0
  0
LINE
  5
3FA
  8
OBJECT
 10
33.946995000000001
 20
30.157386999999989
 30
0.0
 11
33.946995000000001
 21
29.407387
 31
0.0
  0
LINE
  5
3FB
  8
OBJECT
 10
31.946995000000001
 20
30.157386999999989
 30
0.0
 11
31.946995000000001
 21
29.407387
 31
0.0
  0
LINE
  5
3FC
  8
OBJECT
 10
31.196995000000001
 20
30.157386999999989
 30
0.0
 11
31.196995000000001
 21
29.407387
 31
0.0
  0
LINE
  5
3FD
  8
CENTER
 10
31.571995000000001
 20
29.692387
 30
0.0
 11
31.571995000000001
 21
29.872387
 31
0.0
  0
LINE
  5
3FE
  8
OBJECT
 10
31.946995000000001
 20
29.407387
 30
0.0
 11
31.196995000000001
 21
29.407387
 31
0.0
  0
LINE
  5
3FF
  8
OBJECT
 10
33.946995000000001
 20
29.407387
 30
0.0
 11
33.196995000000001
 21
29.407387
 31
0.0
  0
LINE
  5
400
  8
CENTER
 10
31.946995000000001
 20
29.782387
 30
0.0
 11
33.196995000000001
 21
29.782387
 31
0.0
  0
LINE
  5
401
  8
CENTER
 10
31.481995000000001
 20
29.782387
 30
0.0
 11
31.661995000000001
 21
29.782387
 31
0.0
  0
LINE
  5
402
  8
OBJECT
 10
31.946995000000001
 20
30.157386999999989
 30
0.0
 11
31.196995000000001
 21
30.157386999999989
 31
0.0
  0
LINE
  5
403
  8
CENTER
 10
33.481994999999991
 20
29.782387
 30
0.0
 11
33.661994999999997
 21
29.782387
 31
0.0
  0
LINE
  5
404
  8
OBJECT
 10
33.946995000000001
 20
30.157386999999989
 30
0.0
 11
33.196995000000001
 21
30.157386999999989
 31
0.0
  0
LINE
  5
405
  8
CENTER
 10
17.571995000000001
 20
29.692387
 30
0.0
 11
17.571995000000001
 21
29.872387
 31
0.0
  0
LINE
  5
406
  8
OBJECT
 10
17.196995000000001
 20
30.157386999999989
 30
0.0
 11
17.196995000000001
 21
29.407387
 31
0.0
  0
LINE
  5
407
  8
OBJECT
 10
17.946995000000001
 20
30.157386999999989
 30
0.0
 11
17.946995000000001
 21
29.407387
 31
0.0
  0
LINE
  5
408
  8
OBJECT
 10
19.946995000000001
 20
30.157386999999989
 30
0.0
 11
19.946995000000001
 21
29.407387
 31
0.0
  0
LINE
  5
409
  8
OBJECT
 10
19.196995000000001
 20
30.157386999999989
 30
0.0
 11
19.196995000000001
 21
29.407387
 31
0.0
  0
LINE
  5
40A
  8
CENTER
 10
19.571995000000001
 20
29.692387
 30
0.0
 11
19.571995000000001
 21
29.872387
 31
0.0
  0
LINE
  5
40B
  8
OBJECT
 10
17.946995000000001
 20
29.407387
 30
0.0
 11
17.196995000000001
 21
29.407387
 31
0.0
  0
LINE
  5
40C
  8
OBJECT
 10
19.946995000000001
 20
29.407387
 30
0.0
 11
19.196995000000001
 21
29.407387
 31
0.0
  0
LINE
  5
40D
  8
CENTER
 10
17.946995000000001
 20
29.782387
 30
0.0
 11
19.196995000000001
 21
29.782387
 31
0.0
  0
LINE
  5
40E
  8
OBJECT
 10
17.946995000000001
 20
30.157386999999989
 30
0.0
 11
17.196995000000001
 21
30.157386999999989
 31
0.0
  0
LINE
  5
40F
  8
CENTER
 10
17.481995000000001
 20
29.782387
 30
0.0
 11
17.661995000000001
 21
29.782387
 31
0.0
  0
LINE
  5
410
  8
OBJECT
 10
19.946995000000001
 20
30.157386999999989
 30
0.0
 11
19.196995000000001
 21
30.157386999999989
 31
0.0
  0
LINE
  5
411
  8
CENTER
 10
19.481995000000001
 20
29.782387
 30
0.0
 11
19.661995000000001
 21
29.782387
 31
0.0
  0
LINE
  5
412
  8
CENTER
 10
19.946995000000001
 20
29.782387
 30
0.0
 11
21.196995000000001
 21
29.782387
 31
0.0
  0
LINE
  5
413
  8
HIDDEN
 10
34.446995000000001
 20
35.96447899999999
 30
0.0
 11
16.696995000000001
 21
35.96447899999999
 31
0.0
  0
LINE
  5
414
  8
OBJECT
 10
24.665994999999999
 20
5.427861
 30
0.0
 11
24.665994999999999
 21
4.677861
 31
0.0
  0
LINE
  5
415
  8
OBJECT
 10
25.415994999999999
 20
5.427861
 30
0.0
 11
25.415994999999999
 21
4.677861
 31
0.0
  0
LINE
  5
416
  8
OBJECT
 10
25.415994999999999
 20
4.677861
 30
0.0
 11
24.665994999999999
 21
4.677861
 31
0.0
  0
LINE
  5
417
  8
CENTER
 10
24.950994999999999
 20
5.052861
 30
0.0
 11
25.130994999999999
 21
5.052861
 31
0.0
  0
LINE
  5
418
  8
CENTER
 10
25.040994999999999
 20
4.9628610000000002
 30
0.0
 11
25.040994999999999
 21
5.142860999999999
 31
0.0
  0
LINE
  5
419
  8
OBJECT
 10
25.415994999999999
 20
5.427861
 30
0.0
 11
24.665994999999999
 21
5.427861
 31
0.0
  0
LINE
  5
41A
  8
OBJECT
 10
26.477995
 20
5.427861
 30
0.0
 11
26.477995
 21
4.677861
 31
0.0
  0
LINE
  5
41B
  8
OBJECT
 10
25.727995
 20
5.427861
 30
0.0
 11
25.727995
 21
4.677861
 31
0.0
  0
LINE
  5
41C
  8
OBJECT
 10
26.477995
 20
4.677861
 30
0.0
 11
25.727995
 21
4.677861
 31
0.0
  0
LINE
  5
41D
  8
CENTER
 10
26.102994999999989
 20
4.9628610000000002
 30
0.0
 11
26.102994999999989
 21
5.142860999999999
 31
0.0
  0
LINE
  5
41E
  8
CENTER
 10
26.012995
 20
5.052861
 30
0.0
 11
26.192995
 21
5.052861
 31
0.0
  0
LINE
  5
41F
  8
OBJECT
 10
26.477995
 20
5.427861
 30
0.0
 11
25.727995
 21
5.427861
 31
0.0
  0
LINE
  5
420
  8
OBJECT
 10
25.415994999999999
 20
6.4898610000000003
 30
0.0
 11
24.665994999999999
 21
6.4898610000000003
 31
0.0
  0
LINE
  5
421
  8
OBJECT
 10
25.415994999999999
 20
5.7398610000000003
 30
0.0
 11
24.665994999999999
 21
5.7398610000000003
 31
0.0
  0
LINE
  5
422
  8
OBJECT
 10
24.665994999999999
 20
5.7398610000000003
 30
0.0
 11
24.665994999999999
 21
6.4898610000000003
 31
0.0
  0
LINE
  5
423
  8
OBJECT
 10
25.415994999999999
 20
5.7398610000000003
 30
0.0
 11
25.415994999999999
 21
6.4898610000000003
 31
0.0
  0
LINE
  5
424
  8
CENTER
 10
24.950994999999999
 20
6.1148610000000003
 30
0.0
 11
25.130994999999999
 21
6.1148610000000003
 31
0.0
  0
LINE
  5
425
  8
CENTER
 10
25.040994999999999
 20
6.2048610000000002
 30
0.0
 11
25.040994999999999
 21
6.0248609999999996
 31
0.0
  0
LINE
  5
426
  8
CENTER
 10
26.012995
 20
6.1148610000000003
 30
0.0
 11
26.192995
 21
6.1148610000000003
 31
0.0
  0
LINE
  5
427
  8
OBJECT
 10
26.477995
 20
6.4898610000000003
 30
0.0
 11
25.727995
 21
6.4898610000000003
 31
0.0
  0
LINE
  5
428
  8
OBJECT
 10
26.477995
 20
5.7398610000000003
 30
0.0
 11
25.727995
 21
5.7398610000000003
 31
0.0
  0
LINE
  5
429
  8
OBJECT
 10
25.727995
 20
5.7398610000000003
 30
0.0
 11
25.727995
 21
6.4898610000000003
 31
0.0
  0
LINE
  5
42A
  8
CENTER
 10
26.102994999999989
 20
6.2048610000000002
 30
0.0
 11
26.102994999999989
 21
6.0248609999999996
 31
0.0
  0
LINE
  5
42B
  8
OBJECT
 10
26.477995
 20
5.7398610000000003
 30
0.0
 11
26.477995
 21
6.4898610000000003
 31
0.0
  0
LINE
  5
42C
  8
OBJECT
 10
35.071995000000001
 20
12.736564
 30
0.0
 11
16.071995000000001
 21
12.736564
 31
0.0
  0
LINE
  5
42D
  8
OBJECT
 10
34.446995000000001
 20
13.236564
 30
0.0
 11
16.696995000000001
 21
13.236564
 31
0.0
  0
LINE
  5
42E
  8
OBJECT
 10
16.071995000000001
 20
12.783564
 30
0.0
 11
16.071995000000001
 21
12.736564
 31
0.0
  0
LINE
  5
42F
  8
OBJECT
 10
35.071995000000001
 20
12.783564
 30
0.0
 11
35.071995000000001
 21
12.736564
 31
0.0
  0
LINE
  5
430
  8
OBJECT
 10
16.696995000000001
 20
13.236564
 30
0.0
 11
16.696995000000001
 21
12.736564
 31
0.0
  0
LINE
  5
431
  8
OBJECT
 10
34.446995000000001
 20
13.236564
 30
0.0
 11
34.446995000000001
 21
12.736564
 31
0.0
  0
LINE
  5
432
  8
OBJECT
 10
16.696995000000001
 20
12.783564
 30
0.0
 11
16.071995000000001
 21
12.783564
 31
0.0
  0
LINE
  5
433
  8
OBJECT
 10
34.446995000000001
 20
12.783564
 30
0.0
 11
35.071995000000001
 21
12.783564
 31
0.0
  0
LINE
  5
434
  8
OBJECT
 10
35.071995000000001
 20
3.8498610000000002
 30
0.0
 11
35.071995000000001
 21
7.3178609999999988
 31
0.0
  0
LINE
  5
435
  8
OBJECT
 10
16.071995000000001
 20
7.3178609999999988
 30
0.0
 11
16.071995000000001
 21
3.8498610000000002
 31
0.0
  0
LINE
  5
436
  8
CENTER
 10
16.309995000000001
 20
7.0838609999999989
 30
0.0
 11
16.489995
 21
7.0838609999999989
 31
0.0
  0
LINE
  5
437
  8
CENTER
 10
16.399995000000001
 20
6.993860999999999
 30
0.0
 11
16.399995000000001
 21
7.1738609999999996
 31
0.0
  0
POLYLINE
  5
438
  8
OBJECT
 66
     1
 10
0.0
 20
0.0
 30
0.0
 70
     1
  0
VERTEX
  5
C58
  8
OBJECT
 10
16.463995000000001
 20
7.2228609999999991
 30
0.0
  0
VERTEX
  5
C59
  8
OBJECT
 10
16.335995
 20
7.2228609999999991
 30
0.0
 42
1.0
  0
VERTEX
  5
C5A
  8
OBJECT
 10
16.335995
 20
6.9448610000000004
 30
0.0
  0
VERTEX
  5
C5B
  8
OBJECT
 10
16.463995000000001
 20
6.9448610000000004
 30
0.0
 42
1.0
  0
SEQEND
  5
C5C
  8
OBJECT
  0
POLYLINE
  5
43E
  8
OBJECT
 66
     1
 10
0.0
 20
0.0
 30
0.0
 70
     1
  0
VERTEX
  5
C5D
  8
OBJECT
 10
34.679994999999991
 20
7.2228609999999991
 30
0.0
  0
VERTEX
  5
C5E
  8
OBJECT
 10
34.807994999999991
 20
7.2228609999999991
 30
0.0
 42
-1.0
  0
VERTEX
  5
C5F
  8
OBJECT
 10
34.807994999999991
 20
6.9448610000000004
 30
0.0
  0
VERTEX
  5
C60
  8
OBJECT
 10
34.679994999999991
 20
6.9448610000000004
 30
0.0
 42
-1.0
  0
SEQEND
  5
C61
  8
OBJECT
  0
LINE
  5
444
  8
CENTER
 10
34.743994999999998
 20
6.993860999999999
 30
0.0
 11
34.743994999999998
 21
7.1738609999999996
 31
0.0
  0
LINE
  5
445
  8
CENTER
 10
34.833995000000002
 20
7.0838609999999989
 30
0.0
 11
34.653995000000002
 21
7.0838609999999989
 31
0.0
  0
POLYLINE
  5
446
  8
OBJECT
 66
     1
 10
0.0
 20
0.0
 30
0.0
 70
     1
  0
VERTEX
  5
C62
  8
OBJECT
 10
16.463995000000001
 20
3.9448609999999991
 30
0.0
  0
VERTEX
  5
C63
  8
OBJECT
 10
16.335995
 20
3.9448609999999991
 30
0.0
 42
-1.0
  0
VERTEX
  5
C64
  8
OBJECT
 10
16.335995
 20
4.2228609999999991
 30
0.0
  0
VERTEX
  5
C65
  8
OBJECT
 10
16.463995000000001
 20
4.2228609999999991
 30
0.0
 42
-1.0
  0
SEQEND
  5
C66
  8
OBJECT
  0
LINE
  5
44C
  8
CENTER
 10
16.399995000000001
 20
4.1738609999999996
 30
0.0
 11
16.399995000000001
 21
3.993860999999999
 31
0.0
  0
LINE
  5
44D
  8
CENTER
 10
16.309995000000001
 20
4.0838609999999989
 30
0.0
 11
16.489995
 21
4.0838609999999989
 31
0.0
  0
LINE
  5
44E
  8
CENTER
 10
34.833995000000002
 20
4.0838609999999989
 30
0.0
 11
34.653995000000002
 21
4.0838609999999989
 31
0.0
  0
LINE
  5
44F
  8
CENTER
 10
34.743994999999998
 20
4.1738609999999996
 30
0.0
 11
34.743994999999998
 21
3.993860999999999
 31
0.0
  0
POLYLINE
  5
450
  8
OBJECT
 66
     1
 10
0.0
 20
0.0
 30
0.0
 70
     1
  0
VERTEX
  5
C67
  8
OBJECT
 10
34.679994999999991
 20
3.9448609999999991
 30
0.0
  0
VERTEX
  5
C68
  8
OBJECT
 10
34.807994999999991
 20
3.9448609999999991
 30
0.0
 42
1.0
  0
VERTEX
  5
C69
  8
OBJECT
 10
34.807994999999991
 20
4.2228609999999991
 30
0.0
  0
VERTEX
  5
C6A
  8
OBJECT
 10
34.679994999999991
 20
4.2228609999999991
 30
0.0
 42
1.0
  0
SEQEND
  5
C6B
  8
OBJECT
  0
LINE
  5
456
  8
CENTER
 10
25.241244999999999
 20
5.052861
 30
0.0
 11
25.902744999999999
 21
5.052861
 31
0.0
  0
LINE
  5
457
  8
CENTER
 10
25.241244999999999
 20
6.1148610000000003
 30
0.0
 11
25.902744999999999
 21
6.1148610000000003
 31
0.0
  0
LINE
  5
458
  8
CENTER
 10
25.040994999999999
 20
5.914610999999999
 30
0.0
 11
25.040994999999999
 21
5.2531109999999988
 31
0.0
  0
LINE
  5
459
  8
CENTER
 10
26.102994999999989
 20
5.914610999999999
 30
0.0
 11
26.102994999999989
 21
5.2531109999999988
 31
0.0
  0
DIMENSION
  5
45A
  8
DIM
  2
*D57
 10
13.060701999999999
 20
3.8498610000000002
 30
0.0
 11
11.293202000000001
 21
2.409861000000002
 31
0.0
 70
     0
 13
19.576495000000001
 23
4.4588609999999989
 33
0.0
 14
16.071995000000001
 24
3.8498610000000002
 34
0.0
 50
90.0
  0
LINE
  5
468
  8
CENTER
 10
16.399995000000001
 20
6.9448610000000004
 30
0.0
 11
16.399995000000001
 21
4.2228609999999991
 31
0.0
  0
LINE
  5
469
  8
CENTER
 10
34.743994999999998
 20
6.9448610000000004
 30
0.0
 11
34.743994999999998
 21
4.2228609999999991
 31
0.0
  0
DIMENSION
  5
46A
  8
DIM
  2
*D58
 10
37.201073999999991
 20
7.3178609999999988
 30
0.0
 11
38.99982399999999
 21
8.7578610000000054
 31
0.0
 70
     0
 13
34.833995000000002
 23
7.0838609999999989
 33
0.0
 14
35.071995000000001
 24
7.3178609999999988
 34
0.0
 50
270.0
  0
DIMENSION
  5
478
  8
DIM
  2
*D59
 10
17.714960999999999
 20
3.9448609999999991
 30
0.0
 11
15.10371099999999
 21
2.5048610000000018
 31
0.0
 70
     0
  1
<> REF.
 13
16.463995000000001
 23
4.2228609999999991
 33
0.0
 14
16.463995000000001
 24
3.9448609999999991
 34
0.0
 50
270.0
  0
LINE
  5
486
  8
CENTER
 10
21.304245000000002
 20
6.1148610000000003
 30
0.0
 11
21.965744999999998
 21
6.1148610000000003
 31
0.0
  0
LINE
  5
487
  8
CENTER
 10
21.304245000000002
 20
5.052861
 30
0.0
 11
21.965744999999998
 21
5.052861
 31
0.0
  0
LINE
  5
488
  8
OBJECT
 10
21.478995000000001
 20
5.7398610000000003
 30
0.0
 11
21.478995000000001
 21
6.4898610000000003
 31
0.0
  0
LINE
  5
489
  8
CENTER
 10
21.103995000000001
 20
6.2048610000000002
 30
0.0
 11
21.103995000000001
 21
6.0248609999999996
 31
0.0
  0
LINE
  5
48A
  8
OBJECT
 10
20.728995000000001
 20
5.7398610000000003
 30
0.0
 11
20.728995000000001
 21
6.4898610000000003
 31
0.0
  0
LINE
  5
48B
  8
OBJECT
 10
21.478995000000001
 20
5.427861
 30
0.0
 11
21.478995000000001
 21
4.677861
 31
0.0
  0
LINE
  5
48C
  8
CENTER
 10
21.103995000000001
 20
4.9628610000000002
 30
0.0
 11
21.103995000000001
 21
5.142860999999999
 31
0.0
  0
LINE
  5
48D
  8
OBJECT
 10
20.728995000000001
 20
5.427861
 30
0.0
 11
20.728995000000001
 21
4.677861
 31
0.0
  0
LINE
  5
48E
  8
OBJECT
 10
21.478995000000001
 20
4.677861
 30
0.0
 11
20.728995000000001
 21
4.677861
 31
0.0
  0
LINE
  5
48F
  8
CENTER
 10
21.013995000000001
 20
5.052861
 30
0.0
 11
21.193995000000001
 21
5.052861
 31
0.0
  0
LINE
  5
490
  8
OBJECT
 10
21.478995000000001
 20
5.7398610000000003
 30
0.0
 11
20.728995000000001
 21
5.7398610000000003
 31
0.0
  0
LINE
  5
491
  8
OBJECT
 10
21.478995000000001
 20
5.427861
 30
0.0
 11
20.728995000000001
 21
5.427861
 31
0.0
  0
LINE
  5
492
  8
CENTER
 10
21.103995000000001
 20
5.914610999999999
 30
0.0
 11
21.103995000000001
 21
5.2531109999999988
 31
0.0
  0
LINE
  5
493
  8
OBJECT
 10
21.478995000000001
 20
6.4898610000000003
 30
0.0
 11
20.728995000000001
 21
6.4898610000000003
 31
0.0
  0
LINE
  5
494
  8
CENTER
 10
21.013995000000001
 20
6.1148610000000003
 30
0.0
 11
21.193995000000001
 21
6.1148610000000003
 31
0.0
  0
LINE
  5
495
  8
CENTER
 10
22.165994999999999
 20
6.2048610000000002
 30
0.0
 11
22.165994999999999
 21
6.0248609999999996
 31
0.0
  0
LINE
  5
496
  8
OBJECT
 10
21.790994999999999
 20
5.7398610000000003
 30
0.0
 11
21.790994999999999
 21
6.4898610000000003
 31
0.0
  0
LINE
  5
497
  8
OBJECT
 10
22.540994999999999
 20
5.7398610000000003
 30
0.0
 11
22.540994999999999
 21
6.4898610000000003
 31
0.0
  0
LINE
  5
498
  8
OBJECT
 10
22.540994999999999
 20
5.427861
 30
0.0
 11
22.540994999999999
 21
4.677861
 31
0.0
  0
LINE
  5
499
  8
CENTER
 10
22.165994999999999
 20
4.9628610000000002
 30
0.0
 11
22.165994999999999
 21
5.142860999999999
 31
0.0
  0
LINE
  5
49A
  8
OBJECT
 10
21.790994999999999
 20
5.427861
 30
0.0
 11
21.790994999999999
 21
4.677861
 31
0.0
  0
LINE
  5
49B
  8
OBJECT
 10
22.540994999999999
 20
4.677861
 30
0.0
 11
21.790994999999999
 21
4.677861
 31
0.0
  0
LINE
  5
49C
  8
CENTER
 10
22.075994999999999
 20
5.052861
 30
0.0
 11
22.255994999999999
 21
5.052861
 31
0.0
  0
LINE
  5
49D
  8
OBJECT
 10
22.540994999999999
 20
5.7398610000000003
 30
0.0
 11
21.790994999999999
 21
5.7398610000000003
 31
0.0
  0
LINE
  5
49E
  8
OBJECT
 10
22.540994999999999
 20
5.427861
 30
0.0
 11
21.790994999999999
 21
5.427861
 31
0.0
  0
LINE
  5
49F
  8
CENTER
 10
22.165994999999999
 20
5.914610999999999
 30
0.0
 11
22.165994999999999
 21
5.2531109999999988
 31
0.0
  0
LINE
  5
4A0
  8
OBJECT
 10
22.540994999999999
 20
6.4898610000000003
 30
0.0
 11
21.790994999999999
 21
6.4898610000000003
 31
0.0
  0
LINE
  5
4A1
  8
CENTER
 10
22.075994999999999
 20
6.1148610000000003
 30
0.0
 11
22.255994999999999
 21
6.1148610000000003
 31
0.0
  0
LINE
  5
4A2
  8
OBJECT
 10
18.603995000000001
 20
5.7398610000000003
 30
0.0
 11
18.603995000000001
 21
6.4898610000000003
 31
0.0
  0
LINE
  5
4A3
  8
OBJECT
 10
17.853995000000001
 20
5.7398610000000003
 30
0.0
 11
17.853995000000001
 21
6.4898610000000003
 31
0.0
  0
LINE
  5
4A4
  8
CENTER
 10
18.228995000000001
 20
6.2048610000000002
 30
0.0
 11
18.228995000000001
 21
6.0248609999999996
 31
0.0
  0
LINE
  5
4A5
  8
OBJECT
 10
16.791995
 20
5.7398610000000003
 30
0.0
 11
16.791995
 21
6.4898610000000003
 31
0.0
  0
LINE
  5
4A6
  8
CENTER
 10
17.166995
 20
6.2048610000000002
 30
0.0
 11
17.166995
 21
6.0248609999999996
 31
0.0
  0
LINE
  5
4A7
  8
OBJECT
 10
17.541995
 20
5.7398610000000003
 30
0.0
 11
17.541995
 21
6.4898610000000003
 31
0.0
  0
LINE
  5
4A8
  8
OBJECT
 10
17.541995
 20
5.427861
 30
0.0
 11
16.791995
 21
5.427861
 31
0.0
  0
LINE
  5
4A9
  8
OBJECT
 10
17.541995
 20
5.7398610000000003
 30
0.0
 11
16.791995
 21
5.7398610000000003
 31
0.0
  0
LINE
  5
4AA
  8
CENTER
 10
17.076995
 20
5.052861
 30
0.0
 11
17.256995
 21
5.052861
 31
0.0
  0
LINE
  5
4AB
  8
OBJECT
 10
17.541995
 20
4.677861
 30
0.0
 11
16.791995
 21
4.677861
 31
0.0
  0
LINE
  5
4AC
  8
OBJECT
 10
16.791995
 20
5.427861
 30
0.0
 11
16.791995
 21
4.677861
 31
0.0
  0
LINE
  5
4AD
  8
CENTER
 10
17.166995
 20
4.9628610000000002
 30
0.0
 11
17.166995
 21
5.142860999999999
 31
0.0
  0
LINE
  5
4AE
  8
CENTER
 10
17.166995
 20
5.914610999999999
 30
0.0
 11
17.166995
 21
5.2531109999999988
 31
0.0
  0
LINE
  5
4AF
  8
OBJECT
 10
17.853995000000001
 20
5.427861
 30
0.0
 11
17.853995000000001
 21
4.677861
 31
0.0
  0
LINE
  5
4B0
  8
CENTER
 10
18.228995000000001
 20
4.9628610000000002
 30
0.0
 11
18.228995000000001
 21
5.142860999999999
 31
0.0
  0
LINE
  5
4B1
  8
OBJECT
 10
18.603995000000001
 20
5.427861
 30
0.0
 11
18.603995000000001
 21
4.677861
 31
0.0
  0
LINE
  5
4B2
  8
OBJECT
 10
17.541995
 20
5.427861
 30
0.0
 11
17.541995
 21
4.677861
 31
0.0
  0
LINE
  5
4B3
  8
OBJECT
 10
18.603995000000001
 20
4.677861
 30
0.0
 11
17.853995000000001
 21
4.677861
 31
0.0
  0
LINE
  5
4B4
  8
CENTER
 10
17.367245
 20
5.052861
 30
0.0
 11
18.028745000000001
 21
5.052861
 31
0.0
  0
LINE
  5
4B5
  8
CENTER
 10
18.138995000000001
 20
5.052861
 30
0.0
 11
18.318995000000001
 21
5.052861
 31
0.0
  0
LINE
  5
4B6
  8
OBJECT
 10
18.603995000000001
 20
5.427861
 30
0.0
 11
17.853995000000001
 21
5.427861
 31
0.0
  0
LINE
  5
4B7
  8
OBJECT
 10
18.603995000000001
 20
5.7398610000000003
 30
0.0
 11
17.853995000000001
 21
5.7398610000000003
 31
0.0
  0
LINE
  5
4B8
  8
CENTER
 10
18.228995000000001
 20
5.914610999999999
 30
0.0
 11
18.228995000000001
 21
5.2531109999999988
 31
0.0
  0
LINE
  5
4B9
  8
CENTER
 10
17.076995
 20
6.1148610000000003
 30
0.0
 11
17.256995
 21
6.1148610000000003
 31
0.0
  0
LINE
  5
4BA
  8
OBJECT
 10
17.541995
 20
6.4898610000000003
 30
0.0
 11
16.791995
 21
6.4898610000000003
 31
0.0
  0
LINE
  5
4BB
  8
OBJECT
 10
18.603995000000001
 20
6.4898610000000003
 30
0.0
 11
17.853995000000001
 21
6.4898610000000003
 31
0.0
  0
LINE
  5
4BC
  8
CENTER
 10
17.367245
 20
6.1148610000000003
 30
0.0
 11
18.028745000000001
 21
6.1148610000000003
 31
0.0
  0
LINE
  5
4BD
  8
CENTER
 10
18.138995000000001
 20
6.1148610000000003
 30
0.0
 11
18.318995000000001
 21
6.1148610000000003
 31
0.0
  0
LINE
  5
4BE
  8
CENTER
 10
33.115245000000002
 20
6.1148610000000003
 30
0.0
 11
33.776744999999991
 21
6.1148610000000003
 31
0.0
  0
LINE
  5
4BF
  8
CENTER
 10
33.115245000000002
 20
5.052861
 30
0.0
 11
33.776744999999991
 21
5.052861
 31
0.0
  0
LINE
  5
4C0
  8
OBJECT
 10
30.414995000000001
 20
5.7398610000000003
 30
0.0
 11
30.414995000000001
 21
6.4898610000000003
 31
0.0
  0
LINE
  5
4C1
  8
OBJECT
 10
29.664995000000001
 20
5.7398610000000003
 30
0.0
 11
29.664995000000001
 21
6.4898610000000003
 31
0.0
  0
LINE
  5
4C2
  8
CENTER
 10
30.039995000000001
 20
6.2048610000000002
 30
0.0
 11
30.039995000000001
 21
6.0248609999999996
 31
0.0
  0
LINE
  5
4C3
  8
OBJECT
 10
28.602994999999989
 20
5.7398610000000003
 30
0.0
 11
28.602994999999989
 21
6.4898610000000003
 31
0.0
  0
LINE
  5
4C4
  8
CENTER
 10
28.977994999999989
 20
6.2048610000000002
 30
0.0
 11
28.977994999999989
 21
6.0248609999999996
 31
0.0
  0
LINE
  5
4C5
  8
OBJECT
 10
29.352995
 20
5.7398610000000003
 30
0.0
 11
29.352995
 21
6.4898610000000003
 31
0.0
  0
LINE
  5
4C6
  8
OBJECT
 10
33.289994999999998
 20
5.7398610000000003
 30
0.0
 11
33.289994999999998
 21
6.4898610000000003
 31
0.0
  0
LINE
  5
4C7
  8
CENTER
 10
32.914994999999998
 20
6.2048610000000002
 30
0.0
 11
32.914994999999998
 21
6.0248609999999996
 31
0.0
  0
LINE
  5
4C8
  8
OBJECT
 10
32.539994999999998
 20
5.7398610000000003
 30
0.0
 11
32.539994999999998
 21
6.4898610000000003
 31
0.0
  0
LINE
  5
4C9
  8
OBJECT
 10
29.352995
 20
5.427861
 30
0.0
 11
28.602994999999989
 21
5.427861
 31
0.0
  0
LINE
  5
4CA
  8
OBJECT
 10
29.352995
 20
5.7398610000000003
 30
0.0
 11
28.602994999999989
 21
5.7398610000000003
 31
0.0
  0
LINE
  5
4CB
  8
CENTER
 10
28.887995
 20
5.052861
 30
0.0
 11
29.067994999999989
 21
5.052861
 31
0.0
  0
LINE
  5
4CC
  8
OBJECT
 10
29.352995
 20
4.677861
 30
0.0
 11
28.602994999999989
 21
4.677861
 31
0.0
  0
LINE
  5
4CD
  8
OBJECT
 10
28.602994999999989
 20
5.427861
 30
0.0
 11
28.602994999999989
 21
4.677861
 31
0.0
  0
LINE
  5
4CE
  8
CENTER
 10
28.977994999999989
 20
4.9628610000000002
 30
0.0
 11
28.977994999999989
 21
5.142860999999999
 31
0.0
  0
LINE
  5
4CF
  8
CENTER
 10
28.977994999999989
 20
5.914610999999999
 30
0.0
 11
28.977994999999989
 21
5.2531109999999988
 31
0.0
  0
LINE
  5
4D0
  8
OBJECT
 10
29.664995000000001
 20
5.427861
 30
0.0
 11
29.664995000000001
 21
4.677861
 31
0.0
  0
LINE
  5
4D1
  8
CENTER
 10
30.039995000000001
 20
4.9628610000000002
 30
0.0
 11
30.039995000000001
 21
5.142860999999999
 31
0.0
  0
LINE
  5
4D2
  8
OBJECT
 10
30.414995000000001
 20
5.427861
 30
0.0
 11
30.414995000000001
 21
4.677861
 31
0.0
  0
LINE
  5
4D3
  8
OBJECT
 10
29.352995
 20
5.427861
 30
0.0
 11
29.352995
 21
4.677861
 31
0.0
  0
LINE
  5
4D4
  8
OBJECT
 10
30.414995000000001
 20
4.677861
 30
0.0
 11
29.664995000000001
 21
4.677861
 31
0.0
  0
LINE
  5
4D5
  8
CENTER
 10
29.178245
 20
5.052861
 30
0.0
 11
29.839745000000001
 21
5.052861
 31
0.0
  0
LINE
  5
4D6
  8
CENTER
 10
29.949995000000001
 20
5.052861
 30
0.0
 11
30.129995000000001
 21
5.052861
 31
0.0
  0
LINE
  5
4D7
  8
OBJECT
 10
30.414995000000001
 20
5.427861
 30
0.0
 11
29.664995000000001
 21
5.427861
 31
0.0
  0
LINE
  5
4D8
  8
OBJECT
 10
30.414995000000001
 20
5.7398610000000003
 30
0.0
 11
29.664995000000001
 21
5.7398610000000003
 31
0.0
  0
LINE
  5
4D9
  8
CENTER
 10
30.039995000000001
 20
5.914610999999999
 30
0.0
 11
30.039995000000001
 21
5.2531109999999988
 31
0.0
  0
LINE
  5
4DA
  8
OBJECT
 10
33.289994999999998
 20
5.427861
 30
0.0
 11
33.289994999999998
 21
4.677861
 31
0.0
  0
LINE
  5
4DB
  8
CENTER
 10
32.914994999999998
 20
4.9628610000000002
 30
0.0
 11
32.914994999999998
 21
5.142860999999999
 31
0.0
  0
LINE
  5
4DC
  8
OBJECT
 10
32.539994999999998
 20
5.427861
 30
0.0
 11
32.539994999999998
 21
4.677861
 31
0.0
  0
LINE
  5
4DD
  8
OBJECT
 10
33.289994999999998
 20
4.677861
 30
0.0
 11
32.539994999999998
 21
4.677861
 31
0.0
  0
LINE
  5
4DE
  8
CENTER
 10
32.824995000000001
 20
5.052861
 30
0.0
 11
33.004995000000001
 21
5.052861
 31
0.0
  0
LINE
  5
4DF
  8
OBJECT
 10
33.289994999999998
 20
5.7398610000000003
 30
0.0
 11
32.539994999999998
 21
5.7398610000000003
 31
0.0
  0
LINE
  5
4E0
  8
OBJECT
 10
33.289994999999998
 20
5.427861
 30
0.0
 11
32.539994999999998
 21
5.427861
 31
0.0
  0
LINE
  5
4E1
  8
CENTER
 10
32.914994999999998
 20
5.914610999999999
 30
0.0
 11
32.914994999999998
 21
5.2531109999999988
 31
0.0
  0
LINE
  5
4E2
  8
CENTER
 10
28.887995
 20
6.1148610000000003
 30
0.0
 11
29.067994999999989
 21
6.1148610000000003
 31
0.0
  0
LINE
  5
4E3
  8
OBJECT
 10
29.352995
 20
6.4898610000000003
 30
0.0
 11
28.602994999999989
 21
6.4898610000000003
 31
0.0
  0
LINE
  5
4E4
  8
OBJECT
 10
30.414995000000001
 20
6.4898610000000003
 30
0.0
 11
29.664995000000001
 21
6.4898610000000003
 31
0.0
  0
LINE
  5
4E5
  8
CENTER
 10
29.178245
 20
6.1148610000000003
 30
0.0
 11
29.839745000000001
 21
6.1148610000000003
 31
0.0
  0
LINE
  5
4E6
  8
CENTER
 10
29.949995000000001
 20
6.1148610000000003
 30
0.0
 11
30.129995000000001
 21
6.1148610000000003
 31
0.0
  0
LINE
  5
4E7
  8
OBJECT
 10
33.289994999999998
 20
6.4898610000000003
 30
0.0
 11
32.539994999999998
 21
6.4898610000000003
 31
0.0
  0
LINE
  5
4E8
  8
CENTER
 10
32.824995000000001
 20
6.1148610000000003
 30
0.0
 11
33.004995000000001
 21
6.1148610000000003
 31
0.0
  0
LINE
  5
4E9
  8
CENTER
 10
33.976995000000002
 20
6.2048610000000002
 30
0.0
 11
33.976995000000002
 21
6.0248609999999996
 31
0.0
  0
LINE
  5
4EA
  8
OBJECT
 10
33.601995000000002
 20
5.7398610000000003
 30
0.0
 11
33.601995000000002
 21
6.4898610000000003
 31
0.0
  0
LINE
  5
4EB
  8
OBJECT
 10
34.351995000000002
 20
5.7398610000000003
 30
0.0
 11
34.351995000000002
 21
6.4898610000000003
 31
0.0
  0
LINE
  5
4EC
  8
OBJECT
 10
34.351995000000002
 20
5.427861
 30
0.0
 11
34.351995000000002
 21
4.677861
 31
0.0
  0
LINE
  5
4ED
  8
CENTER
 10
33.976995000000002
 20
4.9628610000000002
 30
0.0
 11
33.976995000000002
 21
5.142860999999999
 31
0.0
  0
LINE
  5
4EE
  8
OBJECT
 10
33.601995000000002
 20
5.427861
 30
0.0
 11
33.601995000000002
 21
4.677861
 31
0.0
  0
LINE
  5
4EF
  8
OBJECT
 10
34.351995000000002
 20
4.677861
 30
0.0
 11
33.601995000000002
 21
4.677861
 31
0.0
  0
LINE
  5
4F0
  8
CENTER
 10
33.886994999999992
 20
5.052861
 30
0.0
 11
34.066994999999999
 21
5.052861
 31
0.0
  0
LINE
  5
4F1
  8
OBJECT
 10
34.351995000000002
 20
5.7398610000000003
 30
0.0
 11
33.601995000000002
 21
5.7398610000000003
 31
0.0
  0
LINE
  5
4F2
  8
OBJECT
 10
34.351995000000002
 20
5.427861
 30
0.0
 11
33.601995000000002
 21
5.427861
 31
0.0
  0
LINE
  5
4F3
  8
CENTER
 10
33.976995000000002
 20
5.914610999999999
 30
0.0
 11
33.976995000000002
 21
5.2531109999999988
 31
0.0
  0
LINE
  5
4F4
  8
OBJECT
 10
34.351995000000002
 20
6.4898610000000003
 30
0.0
 11
33.601995000000002
 21
6.4898610000000003
 31
0.0
  0
LINE
  5
4F5
  8
CENTER
 10
33.886994999999992
 20
6.1148610000000003
 30
0.0
 11
34.066994999999999
 21
6.1148610000000003
 31
0.0
  0
LINE
  5
4F6
  8
OBJECT
 10
23.978494999999999
 20
6.3338609999999989
 30
0.0
 11
23.978494999999999
 21
7.0838609999999989
 31
0.0
  0
LINE
  5
4F7
  8
CENTER
 10
23.603494999999999
 20
6.7988609999999996
 30
0.0
 11
23.603494999999999
 21
6.618860999999999
 31
0.0
  0
LINE
  5
4F8
  8
OBJECT
 10
23.228494999999999
 20
6.3338609999999989
 30
0.0
 11
23.228494999999999
 21
7.0838609999999989
 31
0.0
  0
LINE
  5
4F9
  8
OBJECT
 10
23.978494999999999
 20
4.8338609999999989
 30
0.0
 11
23.978494999999999
 21
4.0838609999999989
 31
0.0
  0
LINE
  5
4FA
  8
CENTER
 10
23.603494999999999
 20
4.368860999999999
 30
0.0
 11
23.603494999999999
 21
4.5488609999999996
 31
0.0
  0
LINE
  5
4FB
  8
OBJECT
 10
23.228494999999999
 20
4.8338609999999989
 30
0.0
 11
23.228494999999999
 21
4.0838609999999989
 31
0.0
  0
LINE
  5
4FC
  8
OBJECT
 10
23.978494999999999
 20
4.0838609999999989
 30
0.0
 11
23.228494999999999
 21
4.0838609999999989
 31
0.0
  0
LINE
  5
4FD
  8
CENTER
 10
23.513494999999999
 20
4.4588609999999989
 30
0.0
 11
23.693494999999999
 21
4.4588609999999989
 31
0.0
  0
LINE
  5
4FE
  8
OBJECT
 10
23.978494999999999
 20
6.3338609999999989
 30
0.0
 11
23.228494999999999
 21
6.3338609999999989
 31
0.0
  0
LINE
  5
4FF
  8
OBJECT
 10
23.978494999999999
 20
4.8338609999999989
 30
0.0
 11
23.228494999999999
 21
4.8338609999999989
 31
0.0
  0
LINE
  5
500
  8
CENTER
 10
23.603494999999999
 20
6.5086110000000001
 30
0.0
 11
23.603494999999999
 21
4.6591110000000002
 31
0.0
  0
LINE
  5
501
  8
OBJECT
 10
23.978494999999999
 20
7.0838609999999989
 30
0.0
 11
23.228494999999999
 21
7.0838609999999989
 31
0.0
  0
LINE
  5
502
  8
CENTER
 10
23.513494999999999
 20
6.7088609999999989
 30
0.0
 11
23.693494999999999
 21
6.7088609999999989
 31
0.0
  0
LINE
  5
503
  8
CENTER
 10
19.666495000000001
 20
6.5086110000000001
 30
0.0
 11
19.666495000000001
 21
4.6591110000000002
 31
0.0
  0
LINE
  5
504
  8
OBJECT
 10
20.041495000000001
 20
4.8338609999999989
 30
0.0
 11
20.041495000000001
 21
4.0838609999999989
 31
0.0
  0
LINE
  5
505
  8
OBJECT
 10
19.291495000000001
 20
4.8338609999999989
 30
0.0
 11
19.291495000000001
 21
4.0838609999999989
 31
0.0
  0
LINE
  5
506
  8
OBJECT
 10
20.041495000000001
 20
4.0838609999999989
 30
0.0
 11
19.291495000000001
 21
4.0838609999999989
 31
0.0
  0
LINE
  5
507
  8
OBJECT
 10
20.041495000000001
 20
4.8338609999999989
 30
0.0
 11
19.291495000000001
 21
4.8338609999999989
 31
0.0
  0
LINE
  5
508
  8
CENTER
 10
19.576495000000001
 20
4.4588609999999989
 30
0.0
 11
19.756495000000001
 21
4.4588609999999989
 31
0.0
  0
LINE
  5
509
  8
CENTER
 10
19.666495000000001
 20
4.368860999999999
 30
0.0
 11
19.666495000000001
 21
4.5488609999999996
 31
0.0
  0
LINE
  5
50A
  8
OBJECT
 10
20.041495000000001
 20
6.3338609999999989
 30
0.0
 11
20.041495000000001
 21
7.0838609999999989
 31
0.0
  0
LINE
  5
50B
  8
OBJECT
 10
19.291495000000001
 20
6.3338609999999989
 30
0.0
 11
19.291495000000001
 21
7.0838609999999989
 31
0.0
  0
LINE
  5
50C
  8
OBJECT
 10
20.041495000000001
 20
6.3338609999999989
 30
0.0
 11
19.291495000000001
 21
6.3338609999999989
 31
0.0
  0
LINE
  5
50D
  8
CENTER
 10
19.576495000000001
 20
6.7088609999999989
 30
0.0
 11
19.756495000000001
 21
6.7088609999999989
 31
0.0
  0
LINE
  5
50E
  8
CENTER
 10
19.666495000000001
 20
6.7988609999999996
 30
0.0
 11
19.666495000000001
 21
6.618860999999999
 31
0.0
  0
LINE
  5
50F
  8
OBJECT
 10
20.041495000000001
 20
7.0838609999999989
 30
0.0
 11
19.291495000000001
 21
7.0838609999999989
 31
0.0
  0
LINE
  5
510
  8
CENTER
 10
27.540495
 20
6.5086110000000001
 30
0.0
 11
27.540495
 21
4.6591110000000002
 31
0.0
  0
LINE
  5
511
  8
OBJECT
 10
27.915495
 20
4.8338609999999989
 30
0.0
 11
27.915495
 21
4.0838609999999989
 31
0.0
  0
LINE
  5
512
  8
OBJECT
 10
27.165495
 20
4.8338609999999989
 30
0.0
 11
27.165495
 21
4.0838609999999989
 31
0.0
  0
LINE
  5
513
  8
OBJECT
 10
27.915495
 20
4.0838609999999989
 30
0.0
 11
27.165495
 21
4.0838609999999989
 31
0.0
  0
LINE
  5
514
  8
OBJECT
 10
27.915495
 20
4.8338609999999989
 30
0.0
 11
27.165495
 21
4.8338609999999989
 31
0.0
  0
LINE
  5
515
  8
CENTER
 10
27.450495
 20
4.4588609999999989
 30
0.0
 11
27.630495
 21
4.4588609999999989
 31
0.0
  0
LINE
  5
516
  8
CENTER
 10
27.540495
 20
4.368860999999999
 30
0.0
 11
27.540495
 21
4.5488609999999996
 31
0.0
  0
LINE
  5
517
  8
OBJECT
 10
27.915495
 20
6.3338609999999989
 30
0.0
 11
27.915495
 21
7.0838609999999989
 31
0.0
  0
LINE
  5
518
  8
OBJECT
 10
27.165495
 20
6.3338609999999989
 30
0.0
 11
27.165495
 21
7.0838609999999989
 31
0.0
  0
LINE
  5
519
  8
OBJECT
 10
27.915495
 20
6.3338609999999989
 30
0.0
 11
27.165495
 21
6.3338609999999989
 31
0.0
  0
LINE
  5
51A
  8
CENTER
 10
27.450495
 20
6.7088609999999989
 30
0.0
 11
27.630495
 21
6.7088609999999989
 31
0.0
  0
LINE
  5
51B
  8
CENTER
 10
27.540495
 20
6.7988609999999996
 30
0.0
 11
27.540495
 21
6.618860999999999
 31
0.0
  0
LINE
  5
51C
  8
OBJECT
 10
27.915495
 20
7.0838609999999989
 30
0.0
 11
27.165495
 21
7.0838609999999989
 31
0.0
  0
LINE
  5
51D
  8
CENTER
 10
31.477495000000001
 20
6.5086110000000001
 30
0.0
 11
31.477495000000001
 21
4.6591110000000002
 31
0.0
  0
LINE
  5
51E
  8
OBJECT
 10
31.852495000000001
 20
4.8338609999999989
 30
0.0
 11
31.852495000000001
 21
4.0838609999999989
 31
0.0
  0
LINE
  5
51F
  8
OBJECT
 10
31.102495000000001
 20
4.8338609999999989
 30
0.0
 11
31.102495000000001
 21
4.0838609999999989
 31
0.0
  0
LINE
  5
520
  8
OBJECT
 10
31.852495000000001
 20
4.0838609999999989
 30
0.0
 11
31.102495000000001
 21
4.0838609999999989
 31
0.0
  0
LINE
  5
521
  8
OBJECT
 10
31.852495000000001
 20
4.8338609999999989
 30
0.0
 11
31.102495000000001
 21
4.8338609999999989
 31
0.0
  0
LINE
  5
522
  8
CENTER
 10
31.387495000000001
 20
4.4588609999999989
 30
0.0
 11
31.567495000000001
 21
4.4588609999999989
 31
0.0
  0
LINE
  5
523
  8
CENTER
 10
31.477495000000001
 20
4.368860999999999
 30
0.0
 11
31.477495000000001
 21
4.5488609999999996
 31
0.0
  0
LINE
  5
524
  8
OBJECT
 10
31.852495000000001
 20
6.3338609999999989
 30
0.0
 11
31.852495000000001
 21
7.0838609999999989
 31
0.0
  0
LINE
  5
525
  8
OBJECT
 10
31.102495000000001
 20
6.3338609999999989
 30
0.0
 11
31.102495000000001
 21
7.0838609999999989
 31
0.0
  0
LINE
  5
526
  8
OBJECT
 10
31.852495000000001
 20
6.3338609999999989
 30
0.0
 11
31.102495000000001
 21
6.3338609999999989
 31
0.0
  0
LINE
  5
527
  8
CENTER
 10
31.387495000000001
 20
6.7088609999999989
 30
0.0
 11
31.567495000000001
 21
6.7088609999999989
 31
0.0
  0
LINE
  5
528
  8
CENTER
 10
31.477495000000001
 20
6.7988609999999996
 30
0.0
 11
31.477495000000001
 21
6.618860999999999
 31
0.0
  0
LINE
  5
529
  8
OBJECT
 10
31.852495000000001
 20
7.0838609999999989
 30
0.0
 11
31.102495000000001
 21
7.0838609999999989
 31
0.0
  0
LINE
  5
52A
  8
CENTER
 10
19.866745000000002
 20
4.4588609999999989
 30
0.0
 11
23.403244999999998
 21
4.4588609999999989
 31
0.0
  0
LINE
  5
52B
  8
CENTER
 10
19.866745000000002
 20
6.7088609999999989
 30
0.0
 11
23.403244999999998
 21
6.7088609999999989
 31
0.0
  0
LINE
  5
52C
  8
CENTER
 10
23.803744999999999
 20
6.7088609999999989
 30
0.0
 11
27.340244999999999
 21
6.7088609999999989
 31
0.0
  0
LINE
  5
52D
  8
CENTER
 10
23.803744999999999
 20
4.4588609999999989
 30
0.0
 11
27.340244999999999
 21
4.4588609999999989
 31
0.0
  0
LINE
  5
52E
  8
CENTER
 10
27.740745
 20
6.7088609999999989
 30
0.0
 11
31.277245000000001
 21
6.7088609999999989
 31
0.0
  0
LINE
  5
52F
  8
CENTER
 10
27.740745
 20
4.4588609999999989
 30
0.0
 11
31.277245000000001
 21
4.4588609999999989
 31
0.0
  0
LINE
  5
530
  8
CENTER
 10
18.603995000000001
 20
6.1148610000000003
 30
0.0
 11
20.903745000000001
 21
6.1148610000000003
 31
0.0
  0
LINE
  5
531
  8
CENTER
 10
20.903745000000001
 20
5.052861
 30
0.0
 11
18.603995000000001
 21
5.052861
 31
0.0
  0
LINE
  5
532
  8
CENTER
 10
24.840744999999998
 20
5.052861
 30
0.0
 11
22.366244999999999
 21
5.052861
 31
0.0
  0
LINE
  5
533
  8
CENTER
 10
22.366244999999999
 20
6.1148610000000003
 30
0.0
 11
24.840744999999998
 21
6.1148610000000003
 31
0.0
  0
LINE
  5
534
  8
CENTER
 10
28.777744999999999
 20
5.052861
 30
0.0
 11
26.303245
 21
5.052861
 31
0.0
  0
LINE
  5
535
  8
CENTER
 10
26.303245
 20
6.1148610000000003
 30
0.0
 11
28.777744999999999
 21
6.1148610000000003
 31
0.0
  0
LINE
  5
536
  8
CENTER
 10
32.714745000000001
 20
5.052861
 30
0.0
 11
30.240245000000002
 21
5.052861
 31
0.0
  0
LINE
  5
537
  8
CENTER
 10
30.240245000000002
 20
6.1148610000000003
 30
0.0
 11
32.714745000000001
 21
6.1148610000000003
 31
0.0
  0
DIMENSION
  5
538
  8
DIM
  2
*D60
 10
11.688701999999999
 20
6.7088610000000024
 30
0.0
 11
11.68870199999999
 21
5.5838610000000042
 31
0.0
 70
     0
  1
<>
 13
19.576495000000001
 23
4.4588609999999989
 33
0.0
 14
19.576495000000001
 24
6.7088609999999989
 34
0.0
 50
90.0
  0
DIMENSION
  5
546
  8
DIM
  2
*D61
 10
10.316701999999999
 20
5.052861
 30
0.0
 11
10.31670199999999
 21
4.451361000000003
 31
0.0
 70
     0
 13
16.071995000000001
 23
3.8498610000000002
 33
0.0
 14
17.076995
 24
5.052861
 34
0.0
 50
90.0
  0
DIMENSION
  5
554
  8
DIM
  2
*D62
 10
14.43270199999999
 20
6.1148610000000003
 30
0.0
 11
14.43270199999999
 21
5.5838610000000033
 31
0.0
 70
     0
 13
17.076995
 23
5.052861
 33
0.0
 14
17.076995
 24
6.1148610000000003
 34
0.0
 50
90.0
  0
DIMENSION
  5
562
  8
DIM
  2
*D63
 10
16.071995000000001
 20
10.757860999999989
 30
0.0
 11
13.615745
 21
10.757860999999989
 31
0.0
 70
     0
 13
17.166995
 23
6.2048610000000002
 33
0.0
 14
16.071995000000001
 24
7.3178609999999988
 34
0.0
  0
LINE
  5
570
  8
HIDDEN
 10
34.446995000000001
 20
12.783564
 30
0.0
 11
16.696995000000001
 21
12.783564
 31
0.0
  0
LINE
  5
571
  8
OBJECT
 10
1.399656
 20
53.62339999999999
 30
0.0
 11
4.5071969999999988
 21
51.916539999999998
 31
0.0
  0
LINE
  5
572
  8
OBJECT
 10
1.941786999999999
 20
53.926757999999992
 30
0.0
 11
4.8892079999999991
 21
52.137093999999991
 31
0.0
  0
LINE
  5
573
  8
OBJECT
 10
1.9954810000000001
 20
53.957757999999998
 30
0.0
 11
4.9952420000000002
 21
52.136313000000001
 31
0.0
  0
LINE
  5
574
  8
OBJECT
 10
1.3459620000000001
 20
53.592399999999991
 30
0.0
 11
4.5085360000000003
 21
51.855313000000002
 31
0.0
  0
LINE
  5
575
  8
OBJECT
 10
1.3459620000000001
 20
52.467449999999999
 30
0.0
 11
4.5085360000000003
 21
50.731313
 31
0.0
  0
LINE
  5
576
  8
OBJECT
 10
4.5085360000000003
 20
50.731313
 30
0.0
 11
4.9952420000000002
 21
51.012312999999999
 31
0.0
  0
LINE
  5
577
  8
OBJECT
 10
4.5085360000000003
 20
50.731313
 30
0.0
 11
4.5085360000000003
 21
51.855313000000002
 31
0.0
  0
LINE
  5
578
  8
OBJECT
 10
4.9952420000000002
 20
51.012312999999999
 30
0.0
 11
4.9952420000000002
 21
52.136313000000001
 31
0.0
  0
LINE
  5
579
  8
OBJECT
 10
4.5085360000000003
 20
51.855313000000002
 30
0.0
 11
4.9952420000000002
 21
52.136313000000001
 31
0.0
  0
LINE
  5
57A
  8
OBJECT
 10
4.5071969999999988
 20
51.916539999999998
 30
0.0
 11
4.8892079999999991
 21
52.137093999999991
 31
0.0
  0
LINE
  5
57B
  8
OBJECT
 10
1.003730999999999
 20
53.386813000000011
 30
0.0
 11
1.2336709999999991
 21
53.519568999999997
 31
0.0
  0
LINE
  5
57C
  8
OBJECT
 10
1.057423999999999
 20
53.355812999999998
 30
0.0
 11
1.003730999999999
 21
53.386813000000011
 31
0.0
  0
LINE
  5
57D
  8
OBJECT
 10
1.3459620000000001
 20
53.592399999999991
 30
0.0
 11
1.399656
 21
53.62339999999999
 31
0.0
  0
LINE
  5
57E
  8
OBJECT
 10
1.2350099999999991
 20
53.458342000000002
 30
0.0
 11
1.3459620000000001
 21
53.39739999999999
 31
0.0
  0
LINE
  5
57F
  8
OBJECT
 10
1.057423999999999
 20
53.355812999999998
 30
0.0
 11
1.2350099999999991
 21
53.458342000000002
 31
0.0
  0
LINE
  5
580
  8
OBJECT
 10
1.3459620000000001
 20
53.592399999999991
 30
0.0
 11
1.3459620000000001
 21
53.39739999999999
 31
0.0
  0
LINE
  5
581
  8
OBJECT
 10
1.003730999999999
 20
53.386813000000011
 30
0.0
 11
1.003730999999999
 21
52.651812999999997
 31
0.0
  0
LINE
  5
582
  8
OBJECT
 10
1.057423999999999
 20
53.355812999999998
 30
0.0
 11
1.057423999999999
 21
52.620812999999998
 31
0.0
  0
LINE
  5
583
  8
OBJECT
 10
1.2350099999999991
 20
52.723342000000002
 30
0.0
 11
1.3459620000000001
 21
52.662399999999991
 31
0.0
  0
LINE
  5
584
  8
OBJECT
 10
1.3459620000000001
 20
52.662399999999991
 30
0.0
 11
1.3459620000000001
 21
52.467449999999999
 31
0.0
  0
LINE
  5
585
  8
OBJECT
 10
1.057423999999999
 20
52.620812999999998
 30
0.0
 11
1.2350099999999991
 21
52.723342000000002
 31
0.0
  0
LINE
  5
586
  8
OBJECT
 10
1.003730999999999
 20
52.651812999999997
 30
0.0
 11
1.057423999999999
 21
52.620812999999998
 31
0.0
  0
LINE
  5
587
  8
OBJECT
 10
1.2336709999999991
 20
53.519568999999997
 30
0.0
 11
1.3459620000000001
 21
53.457892000000001
 31
0.0
  0
LINE
  5
588
  8
OBJECT
 10
1.2350099999999991
 20
52.723342000000002
 30
0.0
 11
1.2350099999999991
 21
53.458342000000002
 31
0.0
  0
LINE
  5
589
  8
OBJECT
 10
1.7753599999999989
 20
53.832813000000002
 30
0.0
 11
1.941786999999999
 21
53.741399999999999
 31
0.0
  0
LINE
  5
58A
  8
OBJECT
 10
1.8840849999999989
 20
53.833584999999992
 30
0.0
 11
1.941786999999999
 21
53.801892000000002
 31
0.0
  0
LINE
  5
58B
  8
OBJECT
 10
1.941786999999999
 20
53.926757999999992
 30
0.0
 11
1.941786999999999
 21
53.741399999999999
 31
0.0
  0
LINE
  5
58C
  8
OBJECT
 10
1.8840849999999989
 20
53.833584999999992
 30
0.0
 11
1.941786999999999
 21
53.866900000000001
 31
0.0
  0
LINE
  5
58D
  8
OBJECT
 10
1.7753599999999989
 20
53.832813000000002
 30
0.0
 11
2.007976999999999
 21
53.967114000000002
 31
0.0
  0
LINE
  5
58E
  8
OBJECT
 10
2.061671
 20
53.936114000000011
 30
0.0
 11
2.061671
 21
53.917568000000003
 31
0.0
  0
LINE
  5
58F
  8
OBJECT
 10
2.061671
 20
53.936114000000011
 30
0.0
 11
2.007976999999999
 21
53.967114000000002
 31
0.0
  0
LINE
  5
590
  8
OBJECT
 10
1.941786999999999
 20
53.926757999999992
 30
0.0
 11
1.9954810000000001
 21
53.957757999999998
 31
0.0
  0
LINE
  5
591
  8
OBJECT
 10
1.7753599999999989
 20
53.417039000000003
 30
0.0
 11
1.7753599999999989
 21
53.832813000000002
 31
0.0
  0
LINE
  5
592
  8
OBJECT
 10
2.0460139999999991
 20
53.927075000000002
 30
0.0
 11
2.061671
 21
53.936114000000011
 31
0.0
  0
LINE
  5
593
  8
OBJECT
 10
21.599046999999992
 20
53.62339999999999
 30
0.0
 11
23.624056
 21
52.541539999999998
 31
0.0
  0
LINE
  5
594
  8
OBJECT
 10
21.545352999999999
 20
53.592399999999991
 30
0.0
 11
23.625395000000001
 21
52.480313000000002
 31
0.0
  0
LINE
  5
595
  8
OBJECT
 10
23.115456999999989
 20
54.489257999999992
 30
0.0
 11
25.032686000000002
 21
53.292813000000002
 31
0.0
  0
LINE
  5
596
  8
OBJECT
 10
23.061762999999999
 20
54.458257999999987
 30
0.0
 11
24.926652000000001
 21
53.293593999999992
 31
0.0
  0
LINE
  5
597
  8
OBJECT
 10
21.545352999999999
 20
52.467449999999999
 30
0.0
 11
23.625395000000001
 21
51.356313
 31
0.0
  0
LINE
  5
598
  8
OBJECT
 10
21.256815
 20
52.620812999999998
 30
0.0
 11
21.434401000000001
 21
52.723342000000002
 31
0.0
  0
LINE
  5
599
  8
OBJECT
 10
21.434401000000001
 20
52.723342000000002
 30
0.0
 11
21.545352999999999
 21
52.662399999999991
 31
0.0
  0
LINE
  5
59A
  8
OBJECT
 10
21.256815
 20
53.355812999999998
 30
0.0
 11
21.256815
 21
52.620812999999998
 31
0.0
  0
LINE
  5
59B
  8
OBJECT
 10
21.203122
 20
53.386813000000011
 30
0.0
 11
21.203122
 21
52.651812999999997
 31
0.0
  0
LINE
  5
59C
  8
OBJECT
 10
21.203122
 20
52.651812999999997
 30
0.0
 11
21.256815
 21
52.620812999999998
 31
0.0
  0
LINE
  5
59D
  8
OBJECT
 10
21.545352999999999
 20
52.662399999999991
 30
0.0
 11
21.545352999999999
 21
52.467449999999999
 31
0.0
  0
LINE
  5
59E
  8
OBJECT
 10
23.061762999999999
 20
54.458257999999987
 30
0.0
 11
23.115456999999989
 21
54.489257999999992
 31
0.0
  0
LINE
  5
59F
  8
OBJECT
 10
22.89533599999999
 20
54.364313000000003
 30
0.0
 11
23.127953000000002
 21
54.498614000000003
 31
0.0
  0
LINE
  5
5A0
  8
OBJECT
 10
21.545352999999999
 20
53.592399999999991
 30
0.0
 11
21.599046999999992
 21
53.62339999999999
 31
0.0
  0
LINE
  5
5A1
  8
OBJECT
 10
23.004061
 20
54.365085000000001
 30
0.0
 11
23.061762999999999
 21
54.398400000000002
 31
0.0
  0
LINE
  5
5A2
  8
OBJECT
 10
22.89533599999999
 20
53.611029000000002
 30
0.0
 11
22.89533599999999
 21
54.364313000000003
 31
0.0
  0
LINE
  5
5A3
  8
OBJECT
 10
23.061762999999999
 20
54.458257999999987
 30
0.0
 11
23.061762999999999
 21
54.2729
 31
0.0
  0
LINE
  5
5A4
  8
OBJECT
 10
23.004061
 20
54.365085000000001
 30
0.0
 11
23.061762999999999
 21
54.333392000000003
 31
0.0
  0
LINE
  5
5A5
  8
OBJECT
 10
22.89533599999999
 20
54.364313000000003
 30
0.0
 11
23.061762999999999
 21
54.2729
 31
0.0
  0
LINE
  5
5A6
  8
OBJECT
 10
21.434401000000001
 20
52.723342000000002
 30
0.0
 11
21.434401000000001
 21
53.458342000000002
 31
0.0
  0
LINE
  5
5A7
  8
OBJECT
 10
21.433062
 20
53.519568999999997
 30
0.0
 11
21.545352999999999
 21
53.457892000000001
 31
0.0
  0
LINE
  5
5A8
  8
OBJECT
 10
21.545352999999999
 20
53.592399999999991
 30
0.0
 11
21.545352999999999
 21
53.39739999999999
 31
0.0
  0
LINE
  5
5A9
  8
OBJECT
 10
21.256815
 20
53.355812999999998
 30
0.0
 11
21.434401000000001
 21
53.458342000000002
 31
0.0
  0
LINE
  5
5AA
  8
OBJECT
 10
21.434401000000001
 20
53.458342000000002
 30
0.0
 11
21.545352999999999
 21
53.39739999999999
 31
0.0
  0
LINE
  5
5AB
  8
OBJECT
 10
21.256815
 20
53.355812999999998
 30
0.0
 11
21.203122
 21
53.386813000000011
 31
0.0
  0
LINE
  5
5AC
  8
OBJECT
 10
21.203122
 20
53.386813000000011
 30
0.0
 11
21.433062
 21
53.519568999999997
 31
0.0
  0
LINE
  5
5AD
  8
OBJECT
 10
23.181647000000002
 20
54.467613999999998
 30
0.0
 11
23.181647000000002
 21
54.449067999999997
 31
0.0
  0
LINE
  5
5AE
  8
OBJECT
 10
23.165990000000001
 20
54.458575000000003
 30
0.0
 11
23.181647000000002
 21
54.467613999999998
 31
0.0
  0
LINE
  5
5AF
  8
OBJECT
 10
23.181647000000002
 20
54.467613999999998
 30
0.0
 11
23.127953000000002
 21
54.498614000000003
 31
0.0
  0
LINE
  5
5B0
  8
OBJECT
 10
23.625395000000001
 20
51.356313
 30
0.0
 11
23.625395000000001
 21
52.480313000000002
 31
0.0
  0
LINE
  5
5B1
  8
OBJECT
 10
25.032686000000002
 20
52.168813
 30
0.0
 11
25.032686000000002
 21
53.292813000000002
 31
0.0
  0
LINE
  5
5B2
  8
OBJECT
 10
23.061762999999999
 20
53.334257999999998
 30
0.0
 11
24.005042
 21
52.761502
 31
0.0
  0
LINE
  5
5B3
  8
OBJECT
 10
23.061762999999999
 20
53.519615999999999
 30
0.0
 11
23.061762999999999
 21
53.334257999999998
 31
0.0
  0
LINE
  5
5B4
  8
OBJECT
 10
22.89533599999999
 20
53.611029000000002
 30
0.0
 11
23.061762999999999
 21
53.519615999999999
 31
0.0
  0
LINE
  5
5B5
  8
OBJECT
 10
14.204402999999999
 20
53.811849000000002
 30
0.0
 11
14.142478000000001
 21
53.811849000000002
 31
0.0
  0
ARC
  5
5B6
  8
OBJECT
 10
14.12087399999999
 20
53.920848999999997
 30
0.0
 40
0.078
 50
2.8527949999999991
 51
90.0
  0
ARC
  5
5B7
  8
OBJECT
 10
15.081294
 20
53.920848999999997
 30
0.0
 40
0.078
 50
90.0
 51
177.14720500000001
  0
POLYLINE
  5
5B8
  8
HIDDEN
 66
     1
 10
0.0
 20
0.0
 30
0.0
  0
VERTEX
  5
C6C
  8
HIDDEN
 10
34.446995000000001
 20
28.923386999999991
 30
0.0
  0
VERTEX
  5
C6D
  8
HIDDEN
 10
34.446995000000001
 20
28.970386999999992
 30
0.0
  0
VERTEX
  5
C6E
  8
HIDDEN
 10
16.696995000000001
 20
28.970386999999992
 30
0.0
  0
VERTEX
  5
C6F
  8
HIDDEN
 10
16.696995000000001
 20
28.923386999999991
 30
0.0
  0
SEQEND
  5
C70
  8
HIDDEN
  0
POLYLINE
  5
5BE
  8
HIDDEN
 66
     1
 10
0.0
 20
0.0
 30
0.0
  0
VERTEX
  5
C71
  8
HIDDEN
 10
16.696995000000001
 20
30.641386999999991
 30
0.0
  0
VERTEX
  5
C72
  8
HIDDEN
 10
16.696995000000001
 20
30.594387000000001
 30
0.0
  0
VERTEX
  5
C73
  8
HIDDEN
 10
34.446995000000001
 20
30.594387000000001
 30
0.0
  0
VERTEX
  5
C74
  8
HIDDEN
 10
34.446995000000001
 20
30.641386999999991
 30
0.0
  0
SEQEND
  5
C75
  8
HIDDEN
  0
POLYLINE
  5
5C4
  8
HIDDEN
 66
     1
 10
0.0
 20
0.0
 30
0.0
  0
VERTEX
  5
C76
  8
HIDDEN
 10
16.696995000000001
 20
7.3178609999999988
 30
0.0
  0
VERTEX
  5
C77
  8
HIDDEN
 10
16.696995000000001
 20
7.270861
 30
0.0
  0
VERTEX
  5
C78
  8
HIDDEN
 10
34.446995000000001
 20
7.270861
 30
0.0
  0
VERTEX
  5
C79
  8
HIDDEN
 10
34.446995000000001
 20
7.3178609999999988
 30
0.0
  0
SEQEND
  5
C7A
  8
HIDDEN
  0
LINE
  5
5CA
  8
OBJECT
 10
35.071995000000001
 20
7.3178609999999988
 30
0.0
 11
16.071995000000001
 21
7.3178609999999988
 31
0.0
  0
POLYLINE
  5
5CB
  8
HIDDEN
 66
     1
 10
0.0
 20
0.0
 30
0.0
  0
VERTEX
  5
C7B
  8
HIDDEN
 10
34.446995000000001
 20
3.8498610000000002
 30
0.0
  0
VERTEX
  5
C7C
  8
HIDDEN
 10
34.446995000000001
 20
3.896860999999999
 30
0.0
  0
VERTEX
  5
C7D
  8
HIDDEN
 10
16.930994999999999
 20
3.896860999999999
 30
0.0
  0
VERTEX
  5
C7E
  8
HIDDEN
 10
16.930994999999999
 20
3.8498610000000002
 30
0.0
  0
SEQEND
  5
C7F
  8
HIDDEN
  0
LINE
  5
5D1
  8
OBJECT
 10
35.071995000000001
 20
3.8498610000000002
 30
0.0
 11
16.071995000000001
 21
3.8498610000000002
 31
0.0
  0
DIMENSION
  5
5D2
  8
DIM
  2
*D64
 10
36.201073999999998
 20
4.0838609999999989
 30
0.0
 11
36.201073999999998
 21
5.5838610000000051
 31
0.0
 70
     0
 13
34.833995000000002
 23
7.0838609999999989
 33
0.0
 14
34.833995000000002
 24
4.0838609999999989
 34
0.0
 50
90.0
  0
DIMENSION
  5
5E0
  8
DIM
  2
*D65
 10
16.071995000000001
 20
8.7578610000000001
 30
0.0
 11
13.553245
 21
8.7578610000000001
 31
0.0
 70
     0
 13
16.399995000000001
 23
7.1738609999999996
 33
0.0
 14
16.071995000000001
 24
7.3178609999999988
 34
0.0
 50
180.0
  0
DIMENSION
  5
5EE
  8
DIM
  2
*D66
 10
35.071995000000001
 20
11.757861
 30
0.0
 11
25.571995000000001
 21
11.757861
 31
0.0
 70
     0
 13
16.071995000000001
 23
7.3178609999999988
 33
0.0
 14
35.071995000000001
 24
7.3178609999999988
 34
0.0
 50
180.0
  0
POLYLINE
  5
5FC
  8
OBJECT
 66
     1
 10
0.0
 20
0.0
 30
0.0
 70
     1
  0
VERTEX
  5
C80
  8
OBJECT
 10
2.0224029999999988
 20
34.554844000000003
 30
0.0
 42
0.072341
  0
VERTEX
  5
C81
  8
OBJECT
 10
2.0663649999999998
 20
34.589531999999991
 30
0.0
 42
0.058752
  0
VERTEX
  5
C82
  8
OBJECT
 10
2.107523
 20
34.6447
 30
0.0
 42
0.058752
  0
VERTEX
  5
C83
  8
OBJECT
 10
2.134720999999999
 20
34.707928000000003
 30
0.0
 42
0.072341
  0
VERTEX
  5
C84
  8
OBJECT
 10
2.1427809999999998
 20
34.763343999999996
 30
0.0
 42
0.106617
  0
VERTEX
  5
C85
  8
OBJECT
 10
2.131737999999999
 20
34.814543999999998
 30
0.0
 42
0.156851
  0
VERTEX
  5
C86
  8
OBJECT
 10
2.107523
 20
34.841276000000001
 30
0.0
 42
0.156851
  0
VERTEX
  5
C87
  8
OBJECT
 10
2.0722649999999998
 20
34.848880999999999
 30
0.0
 42
0.106617
  0
VERTEX
  5
C88
  8
OBJECT
 10
2.0224029999999988
 20
34.832844000000001
 30
0.0
  0
VERTEX
  5
C89
  8
OBJECT
 10
1.9115519999999999
 20
34.768844000000001
 30
0.0
 42
0.072341
  0
VERTEX
  5
C8A
  8
OBJECT
 10
1.8675900000000001
 20
34.734155999999999
 30
0.0
 42
0.058752
  0
VERTEX
  5
C8B
  8
OBJECT
 10
1.8264320000000001
 20
34.678987999999997
 30
0.0
 42
0.058752
  0
VERTEX
  5
C8C
  8
OBJECT
 10
1.799234999999999
 20
34.615759999999987
 30
0.0
 42
0.072341
  0
VERTEX
  5
C8D
  8
OBJECT
 10
1.7911749999999991
 20
34.560344000000001
 30
0.0
 42
0.106617
  0
VERTEX
  5
C8E
  8
OBJECT
 10
1.8022180000000001
 20
34.509143999999999
 30
0.0
 42
0.156851
  0
VERTEX
  5
C8F
  8
OBJECT
 10
1.8264320000000001
 20
34.482413000000001
 30
0.0
 42
0.156851
  0
VERTEX
  5
C90
  8
OBJECT
 10
1.8616900000000001
 20
34.474808000000003
 30
0.0
 42
0.106617
  0
VERTEX
  5
C91
  8
OBJECT
 10
1.9115519999999999
 20
34.490844000000003
 30
0.0
  0
SEQEND
  5
C92
  8
OBJECT
  0
POLYLINE
  5
610
  8
OBJECT
 66
     1
 10
0.0
 20
0.0
 30
0.0
  0
VERTEX
  5
C93
  8
OBJECT
 10
1.808525999999999
 20
34.498398000000002
 30
0.0
 42
0.053037
  0
VERTEX
  5
C94
  8
OBJECT
 10
1.820986999999999
 20
34.498308000000002
 30
0.0
 42
0.106617
  0
VERTEX
  5
C95
  8
OBJECT
 10
1.870849
 20
34.514344000000001
 30
0.0
  0
VERTEX
  5
C96
  8
OBJECT
 10
1.9817
 20
34.578344000000001
 30
0.0
 42
0.072341
  0
VERTEX
  5
C97
  8
OBJECT
 10
2.0256620000000001
 20
34.613031999999997
 30
0.0
 42
0.058752
  0
VERTEX
  5
C98
  8
OBJECT
 10
2.066819999999999
 20
34.668199999999999
 30
0.0
 42
0.058752
  0
VERTEX
  5
C99
  8
OBJECT
 10
2.0940180000000002
 20
34.731428000000001
 30
0.0
 42
0.072341
  0
VERTEX
  5
C9A
  8
OBJECT
 10
2.1020779999999988
 20
34.786844000000002
 30
0.0
 42
0.106617
  0
VERTEX
  5
C9B
  8
OBJECT
 10
2.0910349999999989
 20
34.838043999999996
 30
0.0
 42
0.053037
  0
VERTEX
  5
C9C
  8
OBJECT
 10
2.084725999999999
 20
34.848790000000001
 30
0.0
 42
0.156851
  0
SEQEND
  5
C9D
  8
OBJECT
  0
POLYLINE
  5
61C
  8
OBJECT
 66
     1
 10
0.0
 20
0.0
 30
0.0
 70
     1
  0
VERTEX
  5
C9E
  8
OBJECT
 10
1.9115519999999999
 20
33.240844000000003
 30
0.0
  0
VERTEX
  5
C9F
  8
OBJECT
 10
2.0224029999999988
 20
33.304844000000003
 30
0.0
 42
0.072341
  0
VERTEX
  5
CA0
  8
OBJECT
 10
2.0663649999999998
 20
33.339531999999991
 30
0.0
 42
0.058752
  0
VERTEX
  5
CA1
  8
OBJECT
 10
2.107523
 20
33.3947
 30
0.0
 42
0.058752
  0
VERTEX
  5
CA2
  8
OBJECT
 10
2.134720999999999
 20
33.457928000000003
 30
0.0
 42
0.072341
  0
VERTEX
  5
CA3
  8
OBJECT
 10
2.1427809999999998
 20
33.513343999999996
 30
0.0
 42
0.106617
  0
VERTEX
  5
CA4
  8
OBJECT
 10
2.131737999999999
 20
33.564543999999998
 30
0.0
 42
0.156851
  0
VERTEX
  5
CA5
  8
OBJECT
 10
2.107523
 20
33.591276000000001
 30
0.0
 42
0.156851
  0
VERTEX
  5
CA6
  8
OBJECT
 10
2.0722649999999998
 20
33.598880999999999
 30
0.0
 42
0.106617
  0
VERTEX
  5
CA7
  8
OBJECT
 10
2.0224029999999988
 20
33.582844000000001
 30
0.0
  0
VERTEX
  5
CA8
  8
OBJECT
 10
1.9115519999999999
 20
33.518844000000001
 30
0.0
 42
0.072341
  0
VERTEX
  5
CA9
  8
OBJECT
 10
1.8675900000000001
 20
33.484155999999999
 30
0.0
 42
0.058752
  0
VERTEX
  5
CAA
  8
OBJECT
 10
1.8264320000000001
 20
33.428987999999997
 30
0.0
 42
0.058752
  0
VERTEX
  5
CAB
  8
OBJECT
 10
1.799234999999999
 20
33.365759999999987
 30
0.0
 42
0.072341
  0
VERTEX
  5
CAC
  8
OBJECT
 10
1.7911749999999991
 20
33.310344000000001
 30
0.0
 42
0.106617
  0
VERTEX
  5
CAD
  8
OBJECT
 10
1.8022180000000001
 20
33.259143999999999
 30
0.0
 42
0.156851
  0
VERTEX
  5
CAE
  8
OBJECT
 10
1.8264320000000001
 20
33.232413000000001
 30
0.0
 42
0.156851
  0
VERTEX
  5
CAF
  8
OBJECT
 10
1.8616900000000001
 20
33.224808000000003
 30
0.0
 42
0.106617
  0
SEQEND
  5
CB0
  8
OBJECT
  0
POLYLINE
  5
630
  8
OBJECT
 66
     1
 10
0.0
 20
0.0
 30
0.0
  0
VERTEX
  5
CB1
  8
OBJECT
 10
1.808525999999999
 20
33.248398000000002
 30
0.0
 42
0.053037
  0
VERTEX
  5
CB2
  8
OBJECT
 10
1.820986999999999
 20
33.248308000000002
 30
0.0
 42
0.106617
  0
VERTEX
  5
CB3
  8
OBJECT
 10
1.870849
 20
33.264344000000001
 30
0.0
  0
VERTEX
  5
CB4
  8
OBJECT
 10
1.9817
 20
33.328344000000001
 30
0.0
 42
0.072341
  0
VERTEX
  5
CB5
  8
OBJECT
 10
2.0256620000000001
 20
33.363031999999997
 30
0.0
 42
0.058752
  0
VERTEX
  5
CB6
  8
OBJECT
 10
2.066819999999999
 20
33.418199999999999
 30
0.0
 42
0.058752
  0
VERTEX
  5
CB7
  8
OBJECT
 10
2.0940180000000002
 20
33.481428000000001
 30
0.0
 42
0.072341
  0
VERTEX
  5
CB8
  8
OBJECT
 10
2.1020779999999988
 20
33.536844000000002
 30
0.0
 42
0.106617
  0
VERTEX
  5
CB9
  8
OBJECT
 10
2.0910349999999989
 20
33.588043999999996
 30
0.0
 42
0.053037
  0
VERTEX
  5
CBA
  8
OBJECT
 10
2.084725999999999
 20
33.598790000000001
 30
0.0
 42
0.156851
  0
SEQEND
  5
CBB
  8
OBJECT
  0
POLYLINE
  5
63C
  8
OBJECT
 66
     1
 10
0.0
 20
0.0
 30
0.0
 70
     1
  0
VERTEX
  5
CBC
  8
OBJECT
 10
17.908773
 20
43.726843999999993
 30
0.0
 42
0.072341
  0
VERTEX
  5
CBD
  8
OBJECT
 10
17.952735000000001
 20
43.761532000000003
 30
0.0
 42
0.058752
  0
VERTEX
  5
CBE
  8
OBJECT
 10
17.993893
 20
43.81669999999999
 30
0.0
 42
0.058752
  0
VERTEX
  5
CBF
  8
OBJECT
 10
18.021090999999998
 20
43.879928
 30
0.0
 42
0.072341
  0
VERTEX
  5
CC0
  8
OBJECT
 10
18.029150999999999
 20
43.935344000000001
 30
0.0
 42
0.106617
  0
VERTEX
  5
CC1
  8
OBJECT
 10
18.018107999999991
 20
43.986544000000002
 30
0.0
 42
0.156851
  0
VERTEX
  5
CC2
  8
OBJECT
 10
17.993893
 20
44.013275999999998
 30
0.0
 42
0.156851
  0
VERTEX
  5
CC3
  8
OBJECT
 10
17.958635000000001
 20
44.020881000000003
 30
0.0
 42
0.106617
  0
VERTEX
  5
CC4
  8
OBJECT
 10
17.908773
 20
44.004843999999991
 30
0.0
  0
VERTEX
  5
CC5
  8
OBJECT
 10
17.797922
 20
43.940843999999991
 30
0.0
 42
0.072341
  0
VERTEX
  5
CC6
  8
OBJECT
 10
17.753959999999989
 20
43.906156000000003
 30
0.0
 42
0.058752
  0
VERTEX
  5
CC7
  8
OBJECT
 10
17.712802
 20
43.850988000000001
 30
0.0
 42
0.058752
  0
VERTEX
  5
CC8
  8
OBJECT
 10
17.685604999999988
 20
43.787759999999999
 30
0.0
 42
0.072341
  0
VERTEX
  5
CC9
  8
OBJECT
 10
17.677544999999999
 20
43.732343999999998
 30
0.0
 42
0.106617
  0
VERTEX
  5
CCA
  8
OBJECT
 10
17.688587999999999
 20
43.681144000000003
 30
0.0
 42
0.156851
  0
VERTEX
  5
CCB
  8
OBJECT
 10
17.712802
 20
43.654412999999991
 30
0.0
 42
0.156851
  0
VERTEX
  5
CCC
  8
OBJECT
 10
17.748059999999992
 20
43.646808
 30
0.0
 42
0.106617
  0
VERTEX
  5
CCD
  8
OBJECT
 10
17.797922
 20
43.662844
 30
0.0
  0
SEQEND
  5
CCE
  8
OBJECT
  0
POLYLINE
  5
650
  8
OBJECT
 66
     1
 10
0.0
 20
0.0
 30
0.0
  0
VERTEX
  5
CCF
  8
OBJECT
 10
17.694895999999989
 20
43.670397999999992
 30
0.0
 42
0.053037
  0
VERTEX
  5
CD0
  8
OBJECT
 10
17.707356999999998
 20
43.670307999999999
 30
0.0
 42
0.106617
  0
VERTEX
  5
CD1
  8
OBJECT
 10
17.757218999999989
 20
43.686343999999998
 30
0.0
  0
VERTEX
  5
CD2
  8
OBJECT
 10
17.868069999999999
 20
43.750343999999991
 30
0.0
 42
0.072341
  0
VERTEX
  5
CD3
  8
OBJECT
 10
17.912031999999989
 20
43.785031999999987
 30
0.0
 42
0.058752
  0
VERTEX
  5
CD4
  8
OBJECT
 10
17.953189999999999
 20
43.840200000000003
 30
0.0
 42
0.058752
  0
VERTEX
  5
CD5
  8
OBJECT
 10
17.980388000000001
 20
43.903427999999998
 30
0.0
 42
0.072341
  0
VERTEX
  5
CD6
  8
OBJECT
 10
17.988448000000002
 20
43.958843999999992
 30
0.0
 42
0.106617
  0
VERTEX
  5
CD7
  8
OBJECT
 10
17.97740499999999
 20
44.010044000000001
 30
0.0
 42
0.053037
  0
VERTEX
  5
CD8
  8
OBJECT
 10
17.971095999999989
 20
44.020789999999998
 30
0.0
 42
0.156851
  0
SEQEND
  5
CD9
  8
OBJECT
  0
POLYLINE
  5
65C
  8
OBJECT
 66
     1
 10
0.0
 20
0.0
 30
0.0
 70
     1
  0
VERTEX
  5
CDA
  8
OBJECT
 10
34.679994999999991
 20
30.546386999999989
 30
0.0
  0
VERTEX
  5
CDB
  8
OBJECT
 10
34.807994999999991
 20
30.546386999999989
 30
0.0
 42
-1.0
  0
VERTEX
  5
CDC
  8
OBJECT
 10
34.807994999999991
 20
30.268387000000001
 30
0.0
  0
VERTEX
  5
CDD
  8
OBJECT
 10
34.679994999999991
 20
30.268387000000001
 30
0.0
 42
-1.0
  0
SEQEND
  5
CDE
  8
OBJECT
  0
LINE
  5
662
  8
CENTER
 10
34.743994999999998
 20
30.317387
 30
0.0
 11
34.743994999999998
 21
30.497387
 31
0.0
  0
LINE
  5
663
  8
CENTER
 10
34.833995000000002
 20
30.407387
 30
0.0
 11
34.653995000000002
 21
30.407387
 31
0.0
  0
POLYLINE
  5
664
  8
OBJECT
 66
     1
 10
0.0
 20
0.0
 30
0.0
 70
     1
  0
VERTEX
  5
CDF
  8
OBJECT
 10
16.463995000000001
 20
30.546386999999989
 30
0.0
  0
VERTEX
  5
CE0
  8
OBJECT
 10
16.335995
 20
30.546386999999989
 30
0.0
 42
1.0
  0
VERTEX
  5
CE1
  8
OBJECT
 10
16.335995
 20
30.268387000000001
 30
0.0
  0
VERTEX
  5
CE2
  8
OBJECT
 10
16.463995000000001
 20
30.268387000000001
 30
0.0
 42
1.0
  0
SEQEND
  5
CE3
  8
OBJECT
  0
LINE
  5
66A
  8
CENTER
 10
16.309995000000001
 20
30.407387
 30
0.0
 11
16.489995
 21
30.407387
 31
0.0
  0
LINE
  5
66B
  8
CENTER
 10
16.399995000000001
 20
30.317387
 30
0.0
 11
16.399995000000001
 21
30.497387
 31
0.0
  0
LINE
  5
66C
  8
CENTER
 10
16.399995000000001
 20
29.247387
 30
0.0
 11
16.399995000000001
 21
29.067387
 31
0.0
  0
POLYLINE
  5
66D
  8
OBJECT
 66
     1
 10
0.0
 20
0.0
 30
0.0
 70
     1
  0
VERTEX
  5
CE4
  8
OBJECT
 10
16.463995000000001
 20
29.018387000000001
 30
0.0
  0
VERTEX
  5
CE5
  8
OBJECT
 10
16.335995
 20
29.018387000000001
 30
0.0
 42
-1.0
  0
VERTEX
  5
CE6
  8
OBJECT
 10
16.335995
 20
29.296386999999989
 30
0.0
  0
VERTEX
  5
CE7
  8
OBJECT
 10
16.463995000000001
 20
29.296386999999989
 30
0.0
 42
-1.0
  0
SEQEND
  5
CE8
  8
OBJECT
  0
LINE
  5
673
  8
CENTER
 10
16.309995000000001
 20
29.157387
 30
0.0
 11
16.489995
 21
29.157387
 31
0.0
  0
LINE
  5
674
  8
CENTER
 10
34.743994999999998
 20
29.247387
 30
0.0
 11
34.743994999999998
 21
29.067387
 31
0.0
  0
POLYLINE
  5
675
  8
OBJECT
 66
     1
 10
0.0
 20
0.0
 30
0.0
 70
     1
  0
VERTEX
  5
CE9
  8
OBJECT
 10
34.679994999999991
 20
29.018387000000001
 30
0.0
  0
VERTEX
  5
CEA
  8
OBJECT
 10
34.807994999999991
 20
29.018387000000001
 30
0.0
 42
1.0
  0
VERTEX
  5
CEB
  8
OBJECT
 10
34.807994999999991
 20
29.296386999999989
 30
0.0
  0
VERTEX
  5
CEC
  8
OBJECT
 10
34.679994999999991
 20
29.296386999999989
 30
0.0
 42
1.0
  0
SEQEND
  5
CED
  8
OBJECT
  0
LINE
  5
67B
  8
CENTER
 10
34.833995000000002
 20
29.157387
 30
0.0
 11
34.653995000000002
 21
29.157387
 31
0.0
  0
DIMENSION
  5
67C
  8
DIM
  2
*D67
 10
33.571995000000001
 20
33.984790999999987
 30
0.0
 11
25.571995000000001
 21
33.984790999999987
 31
0.0
 70
     0
  1
(8) SPACES @ 2.000 = <>
 13
17.571995000000001
 23
29.872387
 33
0.0
 14
33.571995000000001
 24
29.872387
 34
0.0
  0
DIMENSION
  5
68A
  8
DIM
  2
*D68
 10
36.201073999999998
 20
30.407387
 30
0.0
 11
36.201073999999991
 21
29.782387
 31
0.0
 70
     0
 13
34.833995000000002
 23
29.157387
 33
0.0
 14
34.833995000000002
 24
30.407387
 34
0.0
 50
90.0
  0
DIMENSION
  5
698
  8
DIM
  2
*D69
 10
37.201073999999991
 20
30.641386999999991
 30
0.0
 11
38.999823999999983
 21
32.081387000000007
 31
0.0
 70
     0
 13
34.833995000000002
 23
30.407387
 33
0.0
 14
35.071995000000001
 24
30.641386999999991
 34
0.0
 50
90.0
  0
DIMENSION
  5
6A6
  8
DIM
  2
*D70
 10
15.32607
 20
29.018387000000001
 30
0.0
 11
12.714819999999991
 21
27.578386999999999
 31
0.0
 70
     0
  1
<> REF.
 13
16.335995
 23
29.296386999999989
 33
0.0
 14
16.335995
 24
29.018387000000001
 34
0.0
 50
270.0
  0
DIMENSION
  5
6B4
  8
DIM
  2
*D71
 10
35.071995000000001
 20
32.984790999999987
 30
0.0
 11
37.590744999999998
 21
32.984790999999987
 31
0.0
 70
     0
 13
34.743994999999998
 23
30.497387
 33
0.0
 14
35.071995000000001
 24
30.641386999999991
 34
0.0
 50
180.0
  0
DIMENSION
  5
6C2
  8
DIM
  2
*D72
 10
17.166995
 20
10.757860999999989
 30
0.0
 11
25.040994999999999
 21
10.757860999999989
 31
0.0
 70
     0
  1
(4) SPACES @ 3.937 = <>
 13
32.914994999999998
 23
6.2048610000000002
 33
0.0
 14
17.166995
 24
6.2048610000000002
 34
0.0
  0
DIMENSION
  5
6D0
  8
DIM
  2
*D73
 10
19.666495000000001
 20
9.7578610000000001
 30
0.0
 11
25.571995000000001
 21
9.7578610000000001
 31
0.0
 70
     0
  1
(3) SPACES @ 3.937 = <>
 13
31.477495000000001
 23
6.7988609999999996
 33
0.0
 14
19.666495000000001
 24
6.7988609999999996
 34
0.0
  0
DIMENSION
  5
6DE
  8
DIM
  2
*D74
 10
16.071995000000001
 20
9.7578610000000001
 30
0.0
 11
17.869244999999999
 21
9.7578610000000001
 31
0.0
 70
     0
 13
19.666495000000001
 23
6.7988609999999996
 33
0.0
 14
16.071995000000001
 24
7.3178609999999988
 34
0.0
  0
POLYLINE
  5
6EC
  8
DIM
 66
     1
 10
0.0
 20
0.0
 30
0.0
 41
0.27
  0
VERTEX
  5
CEE
  8
DIM
 10
25.571995000000001
 20
29.407387
 30
0.0
  0
VERTEX
  5
CEF
  8
DIM
 10
25.359559999999998
 20
28.719439000000001
 30
0.0
 41
0.0
  0
VERTEX
  5
CF0
  8
DIM
 10
25.031375000000001
 20
27.656645999999999
 30
0.0
 41
0.0
  0
VERTEX
  5
CF1
  8
DIM
 10
24.311375000000002
 20
27.656645999999999
 30
0.0
 41
0.0
  0
SEQEND
  5
CF2
  8
DIM
  0
TEXT
  5
6F2
  8
DIM
 10
19.951374999999999
 20
27.406645999999999
 30
0.0
 40
0.5
  1
0.750 SQUARE
 41
0.75
  7
TXT
 72
     2
 11
23.951374999999999
 21
27.656645999999999
 31
0.0
 73
     2
  0
TEXT
  5
6F3
  8
DIM
 10
20.576374999999992
 20
26.573312999999999
 30
0.0
 40
0.5
  1
(9) PLACES
 41
0.75
  7
TXT
 72
     2
 11
23.951374999999999
 21
26.823312999999992
 31
0.0
 73
     2
  0
TEXT
  5
6F4
  8
DIM
 10
29.397908999999999
 20
1.0945089999999991
 30
0.0
 40
0.5
  1
(4) HOLES
 41
0.75
  7
TXT
 72
     2
 11
32.397908999999999
 21
1.3445089999999991
 31
0.0
 73
     2
  0
TEXT
  5
6F5
  8
DIM
 10
28.335408999999999
 20
2.761175999999999
 30
0.0
 40
0.5
  1
0.278 x 0.406
 41
0.75
  7
TXT
 72
     2
 11
32.397908999999999
 21
3.011175999999999
 31
0.0
 73
     2
  0
TEXT
  5
6F6
  8
DIM
 10
29.897908999999999
 20
1.927843
 30
0.0
 40
0.5
  1
OBROUND
 41
0.75
  7
TXT
 72
     2
 11
32.397908999999999
 21
2.1778430000000002
 31
0.0
 73
     2
  0
POLYLINE
  5
6F7
  8
DIM
 66
     1
 10
0.0
 20
0.0
 30
0.0
 41
0.27
  0
VERTEX
  5
CF3
  8
DIM
 10
34.679994999999991
 20
3.9448609999999991
 30
0.0
  0
VERTEX
  5
CF4
  8
DIM
 10
34.111370000000001
 20
3.5031979999999998
 30
0.0
 41
0.0
  0
VERTEX
  5
CF5
  8
DIM
 10
33.477908999999997
 20
3.011175999999999
 30
0.0
 41
0.0
  0
VERTEX
  5
CF6
  8
DIM
 10
32.757908999999998
 20
3.011175999999999
 30
0.0
 41
0.0
  0
SEQEND
  5
CF7
  8
DIM
  0
DIMENSION
  5
6FD
  8
DIM
  2
*D75
 10
35.071995000000001
 20
9.7578610000000001
 30
0.0
 11
37.590744999999998
 21
9.7578610000000001
 31
0.0
 70
     0
 13
34.743994999999998
 23
7.1738609999999996
 33
0.0
 14
35.071995000000001
 24
7.3178609999999988
 34
0.0
 50
180.0
  0
TEXT
  5
70B
  8
TEXT
 10
0.8313333333333336
 20
60.240316999999997
 30
0.0
 40
0.5
  1
NAME
 72
     1
 11
1.748
 21
60.240316999999997
 31
0.0
  0
TEXT
  5
70C
  8
TEXT
 10
0.8313333333333336
 20
61.073650000000001
 30
0.0
 40
0.5
  1
PART
 72
     1
 11
1.748
 21
61.073650000000001
 31
0.0
  0
TEXT
  5
70D
  8
TEXT
 10
21.488
 20
60.240316999999997
 30
0.0
 40
0.5
  1
No.
 72
     1
 11
21.988
 21
60.240316999999997
 31
0.0
  0
TEXT
  5
70E
  8
TEXT
 10
21.071333333333332
 20
61.073650000000001
 30
0.0
 40
0.5
  1
PART
 72
     1
 11
21.988
 21
61.073650000000001
 31
0.0
  0
LINE
  5
70F
  8
TITLE
 10
23.488
 20
61.752000000000002
 30
0.0
 11
23.488
 21
60.079999999999998
 31
0.0
  0
LINE
  5
710
  8
TITLE
 10
20.488
 20
61.752000000000002
 30
0.0
 11
20.488
 21
60.079999999999998
 31
0.0
  0
LINE
  5
711
  8
TITLE
 10
20.239999999999998
 20
61.752000000000002
 30
0.0
 11
20.239999999999998
 21
60.079999999999998
 31
0.0
  0
LINE
  5
712
  8
TITLE
 10
3.2480000000000002
 20
60.079999999999998
 30
0.0
 11
3.2480000000000002
 21
61.752000000000002
 31
0.0
  0
LINE
  5
713
  8
TITLE
 10
0.248
 20
60.079999999999998
 30
0.0
 11
40.231999999999999
 21
60.079999999999998
 31
0.0
  0
LINE
  5
714
  8
TITLE
 10
40.231999999999999
 20
0.248
 30
0.0
 11
0.248
 21
0.248
 31
0.0
  0
LINE
  5
715
  8
TITLE
 10
40.231999999999999
 20
61.752000000000002
 30
0.0
 11
40.231999999999999
 21
46.996000000000002
 31
0.0
  0
LINE
  5
716
  8
TITLE
 10
0.248
 20
61.752000000000002
 30
0.0
 11
40.231999999999999
 21
61.752000000000002
 31
0.0
  0
LINE
  5
717
  8
TITLE
 10
0.248
 20
0.248
 30
0.0
 11
0.248
 21
24.748000000000001
 31
0.0
  0
LINE
  5
718
  8
TITLE
 10
0.0
 20
0.0
 30
0.0
 11
0.0
 21
62.0
 31
0.0
  0
LINE
  5
719
  8
TITLE
 10
40.479999999999997
 20
0.0
 30
0.0
 11
0.0
 21
0.0
 31
0.0
  0
LINE
  5
71A
  8
TITLE
 10
40.479999999999997
 20
62.0
 30
0.0
 11
40.479999999999997
 21
0.0
 31
0.0
  0
LINE
  5
71B
  8
TITLE
 10
0.0
 20
62.0
 30
0.0
 11
40.479999999999997
 21
62.0
 31
0.0
  0
DIMENSION
  5
71C
  8
DIM
  2
*D76
 10
33.976995000000002
 20
10.757860999999989
 30
0.0
 11
37.245744999999999
 21
10.757860999999989
 31
0.0
 70
     0
  1
<> TYP.
 13
32.914994999999998
 23
6.2048610000000002
 33
0.0
 14
33.976995000000002
 24
6.2048610000000002
 34
0.0
  0
TEXT
  5
72A
  8
DIM
 10
29.397908999999999
 20
26.168034999999989
 30
0.0
 40
0.5
  1
(4) HOLES
 41
0.75
  7
TXT
 72
     2
 11
32.397908999999999
 21
26.418034999999989
 31
0.0
 73
     2
  0
TEXT
  5
72B
  8
DIM
 10
28.335408999999999
 20
27.834702
 30
0.0
 40
0.5
  1
0.278 x 0.406
 41
0.75
  7
TXT
 72
     2
 11
32.397908999999999
 21
28.084702
 31
0.0
 73
     2
  0
TEXT
  5
72C
  8
DIM
 10
29.897908999999999
 20
27.001369
 30
0.0
 40
0.5
  1
OBROUND
 41
0.75
  7
TXT
 72
     2
 11
32.397908999999999
 21
27.251369
 31
0.0
 73
     2
  0
POLYLINE
  5
72D
  8
DIM
 66
     1
 10
0.0
 20
0.0
 30
0.0
 41
0.27
  0
VERTEX
  5
CF8
  8
DIM
 10
34.679994999999991
 20
29.018387000000001
 30
0.0
  0
VERTEX
  5
CF9
  8
DIM
 10
34.111370000000001
 20
28.576723999999999
 30
0.0
 41
0.0
  0
VERTEX
  5
CFA
  8
DIM
 10
33.477908999999997
 20
28.084702
 30
0.0
 41
0.0
  0
VERTEX
  5
CFB
  8
DIM
 10
32.757908999999998
 20
28.084702
 30
0.0
 41
0.0
  0
SEQEND
  5
CFC
  8
DIM
  0
DIMENSION
  5
733
  8
DIM
  2
*D77
 10
6.9103089999999989
 20
26.991503999999999
 30
0.0
 11
4.4540589999999991
 21
26.991503999999999
 31
0.0
 70
     0
 13
7.4103089999999989
 23
28.923386999999991
 33
0.0
 14
6.9103089999999989
 24
28.923386999999991
 34
0.0
 50
180.0
  0
DIMENSION
  5
741
  8
DIM
  2
*D78
 10
8.3948739999999997
 20
30.641386999999991
 30
0.0
 11
8.3948739999999944
 21
29.782387
 31
0.0
 70
     0
 13
7.4103089999999989
 23
28.923386999999991
 33
0.0
 14
7.4103089999999989
 24
30.641386999999991
 34
0.0
 50
90.0
  0
LINE
  5
74F
  8
OBJECT
 10
7.4103089999999989
 20
28.923386999999991
 30
0.0
 11
7.4103089999999989
 21
30.641386999999991
 31
0.0
  0
LINE
  5
750
  8
OBJECT
 10
7.3633089999999992
 20
28.923386999999991
 30
0.0
 11
7.3633089999999992
 21
30.641386999999991
 31
0.0
  0
LINE
  5
751
  8
OBJECT
 10
6.9103089999999989
 20
28.923386999999991
 30
0.0
 11
7.4103089999999989
 21
28.923386999999991
 31
0.0
  0
LINE
  5
752
  8
OBJECT
 10
6.9103089999999989
 20
28.970386999999992
 30
0.0
 11
6.9103089999999989
 21
28.923386999999991
 31
0.0
  0
LINE
  5
753
  8
OBJECT
 10
6.9103089999999989
 20
28.970386999999992
 30
0.0
 11
7.3483089999999986
 21
28.970386999999992
 31
0.0
  0
ARC
  5
754
  8
OBJECT
 10
7.3483089999999986
 20
28.985386999999989
 30
0.0
 40
0.015
 50
270.0
 51
0.0
  0
ARC
  5
755
  8
HIDDEN
 10
7.3483089999999986
 20
28.985386999999989
 30
0.0
 40
0.062
 50
270.0
 51
0.0
  0
LINE
  5
756
  8
OBJECT
 10
7.4103089999999989
 20
30.641386999999991
 30
0.0
 11
6.9103089999999989
 21
30.641386999999991
 31
0.0
  0
LINE
  5
757
  8
OBJECT
 10
6.9103089999999989
 20
30.641386999999991
 30
0.0
 11
6.9103089999999989
 21
30.594387000000001
 31
0.0
  0
LINE
  5
758
  8
OBJECT
 10
7.3483089999999986
 20
30.594387000000001
 30
0.0
 11
6.9103089999999989
 21
30.594387000000001
 31
0.0
  0
ARC
  5
759
  8
OBJECT
 10
7.3483089999999986
 20
30.579387000000001
 30
0.0
 40
0.015
 50
0.0
 51
90.0
  0
ARC
  5
75A
  8
HIDDEN
 10
7.3483089999999986
 20
30.579387000000001
 30
0.0
 40
0.062
 50
0.0
 51
90.0
  0
DIMENSION
  5
75B
  8
DIM
  2
*D79
 10
6.9103089999999989
 20
2.4468000000000001
 30
0.0
 11
4.4540589999999991
 21
2.4468000000000001
 31
0.0
 70
     0
 13
7.4103089999999989
 23
3.8498610000000002
 33
0.0
 14
6.9103089999999989
 24
3.8498610000000002
 34
0.0
  0
ARC
  5
769
  8
HIDDEN
 10
7.3483089999999986
 20
7.2558610000000003
 30
0.0
 40
0.062
 50
0.0
 51
90.0
  0
LINE
  5
76A
  8
OBJECT
 10
6.9103089999999989
 20
7.3178609999999988
 30
0.0
 11
6.9103089999999989
 21
7.270861
 31
0.0
  0
LINE
  5
76B
  8
OBJECT
 10
7.3633089999999992
 20
3.8498610000000002
 30
0.0
 11
7.3633089999999992
 21
7.3178609999999988
 31
0.0
  0
LINE
  5
76C
  8
OBJECT
 10
7.4103089999999989
 20
3.8498610000000002
 30
0.0
 11
7.4103089999999989
 21
7.3178609999999988
 31
0.0
  0
DIMENSION
  5
76D
  8
DIM
  2
*D80
 10
8.4957309999999993
 20
7.3178609999999988
 30
0.0
 11
8.4957309999999975
 21
5.5838610000000006
 31
0.0
 70
     0
 13
7.4103089999999989
 23
3.8498610000000002
 33
0.0
 14
7.4103089999999989
 24
7.3178609999999988
 34
0.0
 50
90.0
  0
ARC
  5
77B
  8
HIDDEN
 10
7.3483089999999986
 20
3.911861
 30
0.0
 40
0.062
 50
270.0
 51
0.0
  0
ARC
  5
77C
  8
OBJECT
 10
7.3483089999999986
 20
3.911861
 30
0.0
 40
0.015
 50
270.0
 51
0.0
  0
LINE
  5
77D
  8
OBJECT
 10
6.9103089999999989
 20
3.896860999999999
 30
0.0
 11
7.3483089999999986
 21
3.896860999999999
 31
0.0
  0
LINE
  5
77E
  8
OBJECT
 10
6.9103089999999989
 20
3.896860999999999
 30
0.0
 11
6.9103089999999989
 21
3.8498610000000002
 31
0.0
  0
LINE
  5
77F
  8
OBJECT
 10
6.9103089999999989
 20
3.8498610000000002
 30
0.0
 11
7.4103089999999989
 21
3.8498610000000002
 31
0.0
  0
ARC
  5
780
  8
OBJECT
 10
7.3483089999999986
 20
7.2558610000000003
 30
0.0
 40
0.015
 50
0.0
 51
90.0
  0
LINE
  5
781
  8
OBJECT
 10
7.3483089999999986
 20
7.270861
 30
0.0
 11
6.9103089999999989
 21
7.270861
 31
0.0
  0
LINE
  5
782
  8
OBJECT
 10
7.4103089999999989
 20
7.3178609999999988
 30
0.0
 11
6.9103089999999989
 21
7.3178609999999988
 31
0.0
  0
TEXT
  5
783
  8
DIM
 10
20.482375000000001
 20
2.6771199999999991
 30
0.0
 40
0.5
  1
0.750 SQUARE
 41
0.75
  7
TXT
 72
     2
 11
24.482375000000001
 21
2.9271199999999999
 31
0.0
 73
     2
  0
TEXT
  5
784
  8
DIM
 10
20.732375000000001
 20
1.8437859999999999
 30
0.0
 40
0.5
  1
(28) PLACES
 41
0.75
  7
TXT
 72
     2
 11
24.482375000000001
 21
2.0937860000000001
 31
0.0
 73
     2
  0
POLYLINE
  5
785
  8
DIM
 66
     1
 10
0.0
 20
0.0
 30
0.0
 41
0.27
  0
VERTEX
  5
CFD
  8
DIM
 10
26.102994999999989
 20
4.677861
 30
0.0
  0
VERTEX
  5
CFE
  8
DIM
 10
25.890560000000001
 20
3.9899129999999992
 30
0.0
 41
0.0
  0
VERTEX
  5
CFF
  8
DIM
 10
25.562374999999989
 20
2.9271199999999999
 30
0.0
 41
0.0
  0
VERTEX
  5
D00
  8
DIM
 10
24.842375000000001
 20
2.9271199999999999
 30
0.0
 41
0.0
  0
SEQEND
  5
D01
  8
DIM
  0
DIMENSION
  5
78B
  8
DIM
  2
*D81
 10
36.21423699999999
 20
58.182848999999997
 30
0.0
 11
35.104737
 21
58.182848999999997
 31
0.0
 70
     0
 13
33.995237000000003
 23
53.998848999999993
 33
0.0
 14
36.21423699999999
 24
53.998848999999993
 34
0.0
  0
DIMENSION
  5
799
  8
DIM
  2
*D82
 10
36.21423699999999
 20
56.18284899999999
 30
0.0
 11
38.670486999999987
 21
56.18284899999999
 31
0.0
 70
     0
 13
36.042237
 23
53.998848999999993
 33
0.0
 14
36.21423699999999
 24
53.998848999999993
 34
0.0
  0
DIMENSION
  5
7A7
  8
DIM
  2
*D83
 10
34.167237
 20
53.998848999999993
 30
0.0
 11
32.840161999999992
 21
52.047018999999992
 31
0.0
 70
   130
  1
<> REF.
 13
34.351016999999999
 23
51.56084899999999
 33
0.0
 14
34.351016999999999
 24
52.029133999999992
 34
0.0
 15
34.351016999999999
 25
51.56084899999999
 35
0.0
 16
34.311215901418592
 26
53.147499551468933
 36
0.0
1001
ACAD
1000
DSTYLE
1002
{
1070
   271
1070
     0
1002
}
  0
DIMENSION
  5
7B7
  8
DIM
  2
*D84
 10
37.870237000000003
 20
53.998848999999993
 30
0.0
 11
37.870236999999982
 21
52.748849
 31
0.0
 70
     0
 13
35.917293000000001
 23
51.498848999999993
 33
0.0
 14
36.21423699999999
 24
53.998848999999993
 34
0.0
 50
90.0
  0
LINE
  5
7C5
  8
OBJECT
 10
28.401859000000002
 20
51.498848999999993
 30
0.0
 11
28.401859000000002
 21
53.811849000000002
 31
0.0
  0
LINE
  5
7C6
  8
OBJECT
 10
27.276859000000002
 20
53.811849000000002
 30
0.0
 11
27.276859000000002
 21
51.498848999999993
 31
0.0
  0
DIMENSION
  5
7C7
  8
DIM
  2
*D85
 10
30.477657000000001
 20
53.998848999999993
 30
0.0
 11
32.213906999999992
 21
55.438849000000012
 31
0.0
 70
     0
  1
<>
 13
28.401859000000002
 23
53.811849000000002
 33
0.0
 14
28.206859000000001
 24
53.998848999999993
 34
0.0
 50
270.0
  0
LINE
  5
7D5
  8
OBJECT
 10
34.283701000000001
 20
51.669035999999998
 30
0.0
 11
34.109158999999998
 21
53.921644999999991
 31
0.0
  0
LINE
  5
7D6
  8
OBJECT
 10
34.345098
 20
51.679628000000001
 30
0.0
 11
34.170931000000003
 21
53.924731000000008
 31
0.0
  0
LINE
  5
7D7
  8
OBJECT
 10
35.864376999999998
 20
51.679628000000001
 30
0.0
 11
36.038544000000002
 21
53.924731000000008
 31
0.0
  0
LINE
  5
7D8
  8
OBJECT
 10
35.92577399999999
 20
51.669035999999998
 30
0.0
 11
36.100315999999999
 21
53.921644999999991
 31
0.0
  0
LINE
  5
7D9
  8
OBJECT
 10
28.401859000000002
 20
51.498848999999993
 30
0.0
 11
27.276859000000002
 21
51.498848999999993
 31
0.0
  0
LINE
  5
7DA
  8
HIDDEN
 10
28.401859000000002
 20
51.56084899999999
 30
0.0
 11
27.276859000000002
 21
51.56084899999999
 31
0.0
  0
DIMENSION
  5
7DB
  8
DIM
  2
*D86
 10
34.292181999999997
 20
50.586849000000001
 30
0.0
 11
31.804682
 21
50.586849000000001
 31
0.0
 70
     0
 13
35.917293000000001
 23
51.498848999999993
 33
0.0
 14
34.292181999999997
 24
51.498848999999993
 34
0.0
  0
ARC
  5
7E9
  8
OBJECT
 10
35.739530999999999
 20
51.68584899999999
 30
0.0
 40
0.187
 50
270.0
 51
357.14720499999999
  0
ARC
  5
7EA
  8
OBJECT
 10
34.469943999999991
 20
51.68584899999999
 30
0.0
 40
0.187
 50
182.8527949999999
 51
270.0
  0
ARC
  5
7EB
  8
OBJECT
 10
35.739530999999999
 20
51.68584899999999
 30
0.0
 40
0.125
 50
270.0
 51
357.14720499999999
  0
ARC
  5
7EC
  8
OBJECT
 10
34.469943999999991
 20
51.68584899999999
 30
0.0
 40
0.125
 50
182.8527949999999
 51
270.0
  0
LINE
  5
7ED
  8
OBJECT
 10
35.739531999999997
 20
51.498848999999993
 30
0.0
 11
34.469943999999991
 21
51.498848999999993
 31
0.0
  0
LINE
  5
7EE
  8
OBJECT
 10
35.739530999999999
 20
51.56084899999999
 30
0.0
 11
34.469943999999991
 21
51.56084899999999
 31
0.0
  0
DIMENSION
  5
7EF
  8
DIM
  2
*D87
 10
27.276859000000002
 20
55.628849000000002
 30
0.0
 11
24.008109000000001
 21
55.628849000000002
 31
0.0
 70
     0
  1
<> TYP.
 13
27.471858999999998
 23
53.998848999999993
 33
0.0
 14
27.276859000000002
 24
53.811849000000002
 34
0.0
 50
180.0
  0
DIMENSION
  5
7FD
  8
DIM
  2
*D88
 10
27.276859000000002
 20
56.628849000000002
 30
0.0
 11
24.851859000000001
 21
56.628849000000002
 31
0.0
 70
     0
 13
28.401859000000002
 23
53.811849000000002
 33
0.0
 14
27.276859000000002
 24
53.811849000000002
 34
0.0
  0
LINE
  5
80B
  8
OBJECT
 10
28.206859000000001
 20
53.998848999999993
 30
0.0
 11
27.471858999999998
 21
53.998848999999993
 31
0.0
  0
LINE
  5
80C
  8
OBJECT
 10
28.206859000000001
 20
53.936849000000002
 30
0.0
 11
27.471858999999998
 21
53.936849000000002
 31
0.0
  0
LINE
  5
80D
  8
OBJECT
 10
27.471858999999998
 20
53.998848999999993
 30
0.0
 11
27.471858999999998
 21
53.811849000000002
 31
0.0
  0
LINE
  5
80E
  8
OBJECT
 10
27.276859000000002
 20
53.811849000000002
 30
0.0
 11
27.471858999999998
 21
53.811849000000002
 31
0.0
  0
LINE
  5
80F
  8
OBJECT
 10
28.206859000000001
 20
53.998848999999993
 30
0.0
 11
28.206859000000001
 21
53.811849000000002
 31
0.0
  0
LINE
  5
810
  8
OBJECT
 10
28.401859000000002
 20
53.811849000000002
 30
0.0
 11
28.206859000000001
 21
53.811849000000002
 31
0.0
  0
DIMENSION
  5
811
  8
DIM
  2
*D89
 10
33.995237000000003
 20
57.182848999999997
 30
0.0
 11
31.538986999999999
 21
57.182848999999997
 31
0.0
 70
     0
 13
34.167237
 23
53.998848999999993
 33
0.0
 14
33.995237000000003
 24
53.998848999999993
 34
0.0
  0
ARC
  5
81F
  8
OBJECT
 10
36.116446999999987
 20
53.920848999999997
 30
0.0
 40
0.078
 50
90.0
 51
177.14720500000001
  0
ARC
  5
820
  8
OBJECT
 10
34.093027999999997
 20
53.920848999999997
 30
0.0
 40
0.078
 50
2.8527949999999991
 51
90.0
  0
ARC
  5
821
  8
OBJECT
 10
34.093178999999999
 20
53.920848999999997
 30
0.0
 40
0.016
 50
2.8527949999999991
 51
90.0
  0
ARC
  5
822
  8
OBJECT
 10
36.116295999999998
 20
53.920848999999997
 30
0.0
 40
0.016
 50
90.0
 51
177.14720500000001
  0
LINE
  5
823
  8
OBJECT
 10
34.176555999999991
 20
53.811849000000002
 30
0.0
 11
34.114631000000003
 21
53.811849000000002
 31
0.0
  0
LINE
  5
824
  8
OBJECT
 10
36.094521999999991
 20
53.811849000000002
 30
0.0
 11
36.032437000000002
 21
53.811849000000002
 31
0.0
  0
LINE
  5
825
  8
OBJECT
 10
33.995237000000003
 20
53.998848999999993
 30
0.0
 11
34.093027999999997
 21
53.998848999999993
 31
0.0
  0
LINE
  5
826
  8
OBJECT
 10
33.995237000000003
 20
53.998848999999993
 30
0.0
 11
33.995237000000003
 21
53.936849000000002
 31
0.0
  0
LINE
  5
827
  8
OBJECT
 10
33.995237000000003
 20
53.936849000000002
 30
0.0
 11
34.093178999999999
 21
53.936849000000002
 31
0.0
  0
LINE
  5
828
  8
OBJECT
 10
36.21423699999999
 20
53.936849000000002
 30
0.0
 11
36.116295999999998
 21
53.936849000000002
 31
0.0
  0
LINE
  5
829
  8
OBJECT
 10
36.21423699999999
 20
53.998848999999993
 30
0.0
 11
36.21423699999999
 21
53.936849000000002
 31
0.0
  0
LINE
  5
82A
  8
OBJECT
 10
36.21423699999999
 20
53.998848999999993
 30
0.0
 11
36.116446999999987
 21
53.998848999999993
 31
0.0
  0
DIMENSION
  5
82B
  8
DIM
  2
*D90
 10
29.477657000000001
 20
51.498848999999993
 30
0.0
 11
29.47765699999999
 21
52.655349000000008
 31
0.0
 70
     0
 13
28.401859000000002
 23
53.811849000000002
 33
0.0
 14
28.401859000000002
 24
51.498848999999993
 34
0.0
 50
270.0
  0
LINE
  5
839
  8
OBJECT
 10
8.0083369999999992
 20
53.811849000000002
 30
0.0
 11
8.0083369999999992
 21
50.248848999999993
 31
0.0
  0
LINE
  5
83A
  8
OBJECT
 10
9.1333369999999992
 20
50.248848999999993
 30
0.0
 11
9.1333369999999992
 21
53.811849000000002
 31
0.0
  0
DIMENSION
  5
83B
  8
DIM
  2
*D91
 10
10.209136000000001
 20
50.248848999999993
 30
0.0
 11
10.20913599999999
 21
52.030349000000001
 31
0.0
 70
     0
 13
9.1333369999999992
 23
53.811849000000002
 33
0.0
 14
9.1333369999999992
 24
50.248848999999993
 34
0.0
 50
270.0
  0
DIMENSION
  5
849
  8
DIM
  2
*D92
 10
10.209136000000001
 20
53.998848999999993
 30
0.0
 11
11.94538599999999
 21
55.438848999999998
 31
0.0
 70
     0
  1
<>
 13
9.1333369999999992
 23
53.811849000000002
 33
0.0
 14
8.9383369999999989
 24
53.998848999999993
 34
0.0
 50
270.0
  0
LINE
  5
857
  8
OBJECT
 10
9.1333369999999992
 20
50.248848999999993
 30
0.0
 11
8.0083369999999992
 21
50.248848999999993
 31
0.0
  0
LINE
  5
858
  8
HIDDEN
 10
9.1333369999999992
 20
50.31084899999999
 30
0.0
 11
8.0083369999999992
 21
50.31084899999999
 31
0.0
  0
DIMENSION
  5
859
  8
DIM
  2
*D93
 10
8.0083369999999992
 20
57.000849000000002
 30
0.0
 11
5.5833369999999993
 21
57.000849000000002
 31
0.0
 70
     0
 13
9.1333369999999992
 23
53.811849000000002
 33
0.0
 14
8.0083369999999992
 24
53.811849000000002
 34
0.0
  0
DIMENSION
  5
867
  8
DIM
  2
*D94
 10
8.0083369999999992
 20
56.000849000000002
 30
0.0
 11
4.7395869999999993
 21
56.000849000000002
 31
0.0
 70
     0
  1
<> TYP.
 13
8.2033369999999994
 23
53.998848999999993
 33
0.0
 14
8.0083369999999992
 24
53.811849000000002
 34
0.0
 50
180.0
  0
LINE
  5
875
  8
OBJECT
 10
8.0083369999999992
 20
53.811849000000002
 30
0.0
 11
8.2033369999999994
 21
53.811849000000002
 31
0.0
  0
LINE
  5
876
  8
OBJECT
 10
8.9383369999999989
 20
53.998848999999993
 30
0.0
 11
8.9383369999999989
 21
53.811849000000002
 31
0.0
  0
LINE
  5
877
  8
OBJECT
 10
8.2033369999999994
 20
53.998848999999993
 30
0.0
 11
8.2033369999999994
 21
53.811849000000002
 31
0.0
  0
LINE
  5
878
  8
OBJECT
 10
9.1333369999999992
 20
53.811849000000002
 30
0.0
 11
8.9383369999999989
 21
53.811849000000002
 31
0.0
  0
LINE
  5
879
  8
OBJECT
 10
8.9383369999999989
 20
53.936849000000002
 30
0.0
 11
8.2033369999999994
 21
53.936849000000002
 31
0.0
  0
LINE
  5
87A
  8
OBJECT
 10
8.9383369999999989
 20
53.998848999999993
 30
0.0
 11
8.2033369999999994
 21
53.998848999999993
 31
0.0
  0
DIMENSION
  5
87B
  8
DIM
  2
*D95
 10
14.195083999999991
 20
53.998848999999993
 30
0.0
 11
12.86800899999999
 21
52.35225800000002
 31
0.0
 70
   130
  1
<> REF.
 13
14.378864
 23
50.31084899999999
 33
0.0
 14
14.378864
 24
50.779133999999992
 34
0.0
 15
14.378864
 25
50.31084899999999
 35
0.0
 16
14.33671492658231
 26
52.850190842272532
 36
0.0
1001
ACAD
1000
DSTYLE
1002
{
1070
   271
1070
     0
1002
}
  0
TEXT
  5
88B
  8
TEXT
 10
7.6815000000000007
 20
60.603499999999997
 30
0.0
 40
0.625
  1
CABLE CLIP PACKAGE
 41
0.75
  7
TXT
 72
     4
 11
11.744
 21
60.915999999999997
 31
0.0
  0
TEXT
  5
88C
  8
TEXT
 10
27.602187499999989
 20
60.603499999999997
 30
0.0
 40
0.625
  1
CM-2220  &  CM-2221
 41
0.75
  7
TXT
 72
     4
 11
31.859999999999989
 21
60.915999999999997
 31
0.0
  0
TEXT
  5
88D
  8
TEXT
 10
1.1196669999999991
 20
58.988526
 30
0.0
 40
0.5
  1
MATERIAL: 16 GA. SPRING STEEL
 41
0.75
  7
TXT
  0
TEXT
  5
88E
  8
TEXT
 10
1.1196669999999991
 20
58.155192999999997
 30
0.0
 40
0.5
  1
FINISH: BLACK
 41
0.75
  7
TXT
  0
TEXT
  5
88F
  8
TEXT
 10
1.9915189999999989
 20
48.691341000000001
 30
0.0
 40
0.625
  1
%%uCM-2220
 41
0.75
  7
TXT
  0
LINE
  5
890
  8
TITLE
 10
0.248
 20
46.996000000000002
 30
0.0
 11
40.231999999999999
 21
46.996000000000002
 31
0.0
  0
LINE
  5
891
  8
TITLE
 10
0.248
 20
46.747999999999998
 30
0.0
 11
40.231999999999999
 21
46.747999999999998
 31
0.0
  0
LINE
  5
892
  8
TITLE
 10
0.248
 20
45.076000000000001
 30
0.0
 11
40.231999999999999
 21
45.076000000000001
 31
0.0
  0
TEXT
  5
893
  8
TEXT
 10
0.8313333333333336
 20
46.069650000000003
 30
0.0
 40
0.5
  1
PART
 72
     1
 11
1.748
 21
46.069650000000003
 31
0.0
  0
TEXT
  5
894
  8
TEXT
 10
0.8313333333333336
 20
45.236317
 30
0.0
 40
0.5
  1
NAME
 72
     1
 11
1.748
 21
45.236317
 31
0.0
  0
LINE
  5
895
  8
TITLE
 10
3.2480000000000002
 20
45.076000000000001
 30
0.0
 11
3.2480000000000002
 21
46.747999999999998
 31
0.0
  0
TEXT
  5
896
  8
TEXT
 10
5.5721250000000007
 20
45.599499999999992
 30
0.0
 40
0.625
  1
CABLE MANAGEMENT PANEL - 1U
 41
0.75
  7
TXT
 72
     4
 11
11.744
 21
45.911999999999992
 31
0.0
  0
LINE
  5
897
  8
TITLE
 10
20.239999999999998
 20
46.747999999999998
 30
0.0
 11
20.239999999999998
 21
45.076000000000001
 31
0.0
  0
TEXT
  5
898
  8
TEXT
 10
30.297499999999989
 20
45.599499999999992
 30
0.0
 40
0.625
  1
CM-2225
 41
0.75
  7
TXT
 72
     4
 11
31.859999999999989
 21
45.911999999999992
 31
0.0
  0
TEXT
  5
899
  8
TEXT
 10
21.071333333333332
 20
46.069650000000003
 30
0.0
 40
0.5
  1
PART
 72
     1
 11
21.988
 21
46.069650000000003
 31
0.0
  0
TEXT
  5
89A
  8
TEXT
 10
21.488
 20
45.236317
 30
0.0
 40
0.5
  1
No.
 72
     1
 11
21.988
 21
45.236317
 31
0.0
  0
LINE
  5
89B
  8
TITLE
 10
20.488
 20
46.747999999999998
 30
0.0
 11
20.488
 21
45.076000000000001
 31
0.0
  0
LINE
  5
89C
  8
TITLE
 10
23.488
 20
46.747999999999998
 30
0.0
 11
23.488
 21
45.076000000000001
 31
0.0
  0
LINE
  5
89D
  8
TITLE
 10
40.231999999999999
 20
46.747999999999998
 30
0.0
 11
40.231999999999999
 21
24.995999999999999
 31
0.0
  0
LINE
  5
89E
  8
TITLE
 10
0.248
 20
46.996000000000002
 30
0.0
 11
0.248
 21
61.752000000000002
 31
0.0
  0
TEXT
  5
89F
  8
TEXT
 10
1.1196669999999991
 20
43.151192999999999
 30
0.0
 40
0.5
  1
FINISH: BLACK
 41
0.75
  7
TXT
  0
TEXT
  5
8A0
  8
TEXT
 10
1.1196669999999991
 20
43.984526000000002
 30
0.0
 40
0.5
  1
MATERIAL: 18 GA. STEEL
 41
0.75
  7
TXT
  0
TEXT
  5
8A1
  8
TEXT
 10
23.488
 20
43.984526000000002
 30
0.0
 40
0.5
  1
SUPPLIED WITH:
 41
0.75
  7
TXT
  0
TEXT
  5
8A2
  8
TEXT
 10
24.167079999999991
 20
43.151192999999999
 30
0.0
 40
0.5
  1
QTY. (1) #CM-2220 CABLE CLIP PACKAGE
 41
0.75
  7
TXT
  0
TEXT
  5
8A3
  8
TEXT
 10
24.167079999999991
 20
42.341692999999999
 30
0.0
 40
0.5
  1
QTY. (4) #10-32 x 5/8 LG. SCREWS
 41
0.75
  7
TXT
  0
TEXT
  5
8A4
  8
TEXT
 10
24.167079999999991
 20
41.508358999999999
 30
0.0
 40
0.5
  1
QTY. (4) #12-24 x 1/2 LG. SCREWS
 41
0.75
  7
TXT
  0
LINE
  5
8A5
  8
TITLE
 10
0.248
 20
23.076000000000001
 30
0.0
 11
40.231999999999999
 21
23.076000000000001
 31
0.0
  0
LINE
  5
8A6
  8
TITLE
 10
0.248
 20
24.748000000000001
 30
0.0
 11
40.231999999999999
 21
24.748000000000001
 31
0.0
  0
LINE
  5
8A7
  8
TITLE
 10
0.248
 20
24.995999999999999
 30
0.0
 11
40.231999999999999
 21
24.995999999999999
 31
0.0
  0
TEXT
  5
8A8
  8
TEXT
 10
5.4940000000000007
 20
23.599499999999988
 30
0.0
 40
0.625
  1
CABLE MANAGEMENT PANEL - 2U
 41
0.75
  7
TXT
 72
     4
 11
11.744
 21
23.911999999999988
 31
0.0
  0
TEXT
  5
8A9
  8
TEXT
 10
0.8313333333333336
 20
23.236316999999989
 30
0.0
 40
0.5
  1
NAME
 72
     1
 11
1.748
 21
23.236316999999989
 31
0.0
  0
TEXT
  5
8AA
  8
TEXT
 10
0.8313333333333336
 20
24.069649999999999
 30
0.0
 40
0.5
  1
PART
 72
     1
 11
1.748
 21
24.069649999999999
 31
0.0
  0
LINE
  5
8AB
  8
TITLE
 10
3.2480000000000002
 20
23.076000000000001
 30
0.0
 11
3.2480000000000002
 21
24.748000000000001
 31
0.0
  0
LINE
  5
8AC
  8
TITLE
 10
20.239999999999998
 20
24.748000000000001
 30
0.0
 11
20.239999999999998
 21
23.076000000000001
 31
0.0
  0
TEXT
  5
8AD
  8
TEXT
 10
30.297499999999989
 20
23.599499999999988
 30
0.0
 40
0.625
  1
CM-2227
 41
0.75
  7
TXT
 72
     4
 11
31.859999999999989
 21
23.911999999999988
 31
0.0
  0
LINE
  5
8AE
  8
TITLE
 10
20.488
 20
24.748000000000001
 30
0.0
 11
20.488
 21
23.076000000000001
 31
0.0
  0
TEXT
  5
8AF
  8
TEXT
 10
21.488
 20
23.236316999999989
 30
0.0
 40
0.5
  1
No.
 72
     1
 11
21.988
 21
23.236316999999989
 31
0.0
  0
TEXT
  5
8B0
  8
TEXT
 10
21.071333333333332
 20
24.069649999999999
 30
0.0
 40
0.5
  1
PART
 72
     1
 11
21.988
 21
24.069649999999999
 31
0.0
  0
LINE
  5
8B1
  8
TITLE
 10
23.488
 20
24.748000000000001
 30
0.0
 11
23.488
 21
23.076000000000001
 31
0.0
  0
TEXT
  5
8B2
  8
TEXT
 10
1.1196669999999991
 20
21.151192999999989
 30
0.0
 40
0.5
  1
FINISH: BLACK
 41
0.75
  7
TXT
  0
TEXT
  5
8B3
  8
TEXT
 10
1.1196669999999991
 20
21.984525999999999
 30
0.0
 40
0.5
  1
MATERIAL: 18 GA. STEEL
 41
0.75
  7
TXT
  0
TEXT
  5
8B4
  8
TEXT
 10
23.488
 20
21.984525999999999
 30
0.0
 40
0.5
  1
SUPPLIED WITH:
 41
0.75
  7
TXT
  0
TEXT
  5
8B5
  8
TEXT
 10
24.167079999999991
 20
21.151192999999989
 30
0.0
 40
0.5
  1
QTY. (1) #CM-2220 CABLE CLIP PACKAGE
 41
0.75
  7
TXT
  0
TEXT
  5
8B6
  8
TEXT
 10
24.167079999999991
 20
19.532192999999989
 30
0.0
 40
0.5
  1
QTY. (4) #10-32 x 5/8 LG. SCREWS
 41
0.75
  7
TXT
  0
TEXT
  5
8B7
  8
TEXT
 10
24.167079999999991
 20
18.698858999999992
 30
0.0
 40
0.5
  1
QTY. (4) #12-24 x 1/2 LG. SCREWS
 41
0.75
  7
TXT
  0
LINE
  5
8B8
  8
TITLE
 10
40.231999999999999
 20
24.748000000000001
 30
0.0
 11
40.231999999999999
 21
0.248
 31
0.0
  0
LINE
  5
8B9
  8
TITLE
 10
0.248
 20
24.995999999999999
 30
0.0
 11
0.248
 21
46.747999999999998
 31
0.0
  0
TEXT
  5
8BA
  8
TEXT
 10
24.167079999999991
 20
20.317858999999999
 30
0.0
 40
0.5
  1
QTY. (1) #CM-2221 CABLE CLIP PACKAGE
 41
0.75
  7
TXT
  0
TEXT
  5
8BB
  8
TEXT
 10
1.9915189999999989
 20
47.679465999999998
 30
0.0
 40
0.5
  1
SUPPLIED WITH (3) CABLE CLIP BRACKETS
 41
0.75
  7
TXT
  0
LINE
  5
8BC
  8
TITLE
 10
20.239999999999998
 20
60.079999999999998
 30
0.0
 11
20.239999999999998
 21
46.996000000000002
 31
0.0
  0
TEXT
  5
8BD
  8
TEXT
 10
21.111667000000001
 20
58.988526
 30
0.0
 40
0.5
  1
MATERIAL: 16 GA. SPRING STEEL
 41
0.75
  7
TXT
  0
TEXT
  5
8BE
  8
TEXT
 10
21.111667000000001
 20
58.155192999999997
 30
0.0
 40
0.5
  1
FINISH: BLACK
 41
0.75
  7
TXT
  0
TEXT
  5
8BF
  8
TEXT
 10
21.983519000000001
 20
47.679465999999998
 30
0.0
 40
0.5
  1
SUPPLIED WITH (3) CABLE CLIP BRACKETS
 41
0.75
  7
TXT
  0
TEXT
  5
8C0
  8
TEXT
 10
21.983519000000001
 20
48.691341000000001
 30
0.0
 40
0.625
  1
%%uCM-2221
 41
0.75
  7
TXT
  0
LINE
  5
8C1
  8
OBJECT
 10
23.624056
 20
52.541539999999998
 30
0.0
 11
24.926652000000001
 21
53.293593999999992
 31
0.0
  0
LINE
  5
8C2
  8
OBJECT
 10
23.625395000000001
 20
52.480313000000002
 30
0.0
 11
25.032686000000002
 21
53.292813000000002
 31
0.0
  0
LINE
  5
8C3
  8
OBJECT
 10
23.625395000000001
 20
51.356313
 30
0.0
 11
25.032686000000002
 21
52.168813
 31
0.0
  0
LINE
  5
8C4
  8
OBJECT
 10
1.682920999999999
 20
8.7440660000000001
 30
0.0
 11
2.903678999999999
 21
9.4488710000000005
 31
0.0
  0
LINE
  5
8C5
  8
OBJECT
 10
18.137404
 20
18.630284
 30
0.0
 11
18.137404
 21
19.118234000000001
 31
0.0
  0
LINE
  5
8C6
  8
OBJECT
 10
18.137404
 20
21.744066
 30
0.0
 11
1.682920999999999
 21
12.244066
 31
0.0
  0
LINE
  5
8C7
  8
OBJECT
 10
1.682920999999999
 20
12.244066
 30
0.0
 11
1.682920999999999
 21
8.7440660000000001
 31
0.0
  0
LINE
  5
8C8
  8
OBJECT
 10
18.096700999999989
 20
21.767565999999999
 30
0.0
 11
17.555434999999989
 21
21.455065999999999
 31
0.0
  0
LINE
  5
8C9
  8
OBJECT
 10
1.6422179999999991
 20
12.267566
 30
0.0
 11
1.6422179999999991
 21
8.7675660000000004
 31
0.0
  0
LINE
  5
8CA
  8
OBJECT
 10
1.682920999999999
 20
12.244066
 30
0.0
 11
1.6422179999999991
 21
12.267566
 31
0.0
  0
LINE
  5
8CB
  8
OBJECT
 10
17.541578999999999
 20
21.463066000000001
 30
0.0
 11
17.596138
 21
21.431566
 31
0.0
  0
LINE
  5
8CC
  8
OBJECT
 10
17.163125999999998
 20
21.681566
 30
0.0
 11
1.7911749999999991
 21
12.806566
 31
0.0
  0
LINE
  5
8CD
  8
OBJECT
 10
17.163125999999998
 20
21.681566
 30
0.0
 11
17.596138
 21
21.431566
 31
0.0
  0
LINE
  5
8CE
  8
OBJECT
 10
1.7911749999999991
 20
12.806566
 30
0.0
 11
2.2241869999999988
 21
12.556566
 31
0.0
  0
LINE
  5
8CF
  8
OBJECT
 10
2.1834839999999991
 20
12.580066
 30
0.0
 11
1.6422179999999991
 21
12.267566
 31
0.0
  0
LINE
  5
8D0
  8
OBJECT
 10
1.7911749999999991
 20
12.759565999999991
 30
0.0
 11
2.1427809999999998
 21
12.556566
 31
0.0
  0
LINE
  5
8D1
  8
OBJECT
 10
1.7911749999999991
 20
12.806566
 30
0.0
 11
1.7911749999999991
 21
12.759565999999991
 31
0.0
  0
LINE
  5
8D2
  8
OBJECT
 10
9.1255439999999997
 20
13.885066
 30
0.0
 11
9.1255439999999997
 21
14.635066
 31
0.0
  0
LINE
  5
8D3
  8
OBJECT
 10
9.1255439999999997
 20
13.885066
 30
0.0
 11
9.7750630000000012
 21
14.260066
 31
0.0
  0
LINE
  5
8D4
  8
OBJECT
 10
9.7750630000000012
 20
14.260066
 30
0.0
 11
9.7750630000000012
 21
15.010066
 31
0.0
  0
LINE
  5
8D5
  8
OBJECT
 10
9.1255439999999997
 20
14.635066
 30
0.0
 11
9.7750630000000012
 21
15.010066
 31
0.0
  0
LINE
  5
8D6
  8
OBJECT
 10
1.9115519999999999
 20
9.2490659999999991
 30
0.0
 11
2.0224029999999988
 21
9.3130659999999992
 31
0.0
  0
LINE
  5
8D7
  8
OBJECT
 10
2.0224029999999988
 20
9.0350660000000005
 30
0.0
 11
1.9115519999999999
 21
8.9710660000000004
 31
0.0
  0
POLYLINE
  5
8D8
  8
OBJECT
 66
     1
 10
0.0
 20
0.0
 30
0.0
  0
VERTEX
  5
D17
  8
OBJECT
 10
1.8264320000000001
 20
9.1592099999999999
 30
0.0
 42
0.058752
  0
VERTEX
  5
D18
  8
OBJECT
 10
1.799234999999999
 20
9.0959820000000011
 30
0.0
 42
0.072341
  0
VERTEX
  5
D19
  8
OBJECT
 10
1.7911749999999991
 20
9.0405660000000001
 30
0.0
 42
0.106617
  0
VERTEX
  5
D1A
  8
OBJECT
 10
1.8022180000000001
 20
8.9893660000000004
 30
0.0
 42
0.156851
  0
VERTEX
  5
D1B
  8
OBJECT
 10
1.8264320000000001
 20
8.9626339999999995
 30
0.0
 42
0.156851
  0
VERTEX
  5
D1C
  8
OBJECT
 10
1.8616900000000001
 20
8.9550289999999997
 30
0.0
 42
0.106617
  0
VERTEX
  5
D1D
  8
OBJECT
 10
1.9115519999999999
 20
8.9710660000000004
 30
0.0
 42
0.072341
  0
SEQEND
  5
D1E
  8
OBJECT
  0
POLYLINE
  5
8E1
  8
OBJECT
 66
     1
 10
0.0
 20
0.0
 30
0.0
  0
VERTEX
  5
D1F
  8
OBJECT
 10
1.9115519999999999
 20
9.2490659999999991
 30
0.0
 42
0.072341
  0
VERTEX
  5
D20
  8
OBJECT
 10
1.8675900000000001
 20
9.2143779999999982
 30
0.0
 42
0.058752
  0
VERTEX
  5
D21
  8
OBJECT
 10
1.8264320000000001
 20
9.1592099999999999
 30
0.0
 42
0.058752
  0
SEQEND
  5
D22
  8
OBJECT
  0
POLYLINE
  5
8E6
  8
OBJECT
 66
     1
 10
0.0
 20
0.0
 30
0.0
  0
VERTEX
  5
D23
  8
OBJECT
 10
2.0224029999999988
 20
9.0350660000000005
 30
0.0
 42
0.072341
  0
VERTEX
  5
D24
  8
OBJECT
 10
2.0663649999999998
 20
9.0697539999999996
 30
0.0
 42
0.058752
  0
VERTEX
  5
D25
  8
OBJECT
 10
2.107523
 20
9.1249219999999998
 30
0.0
 42
0.058752
  0
VERTEX
  5
D26
  8
OBJECT
 10
2.134720999999999
 20
9.1881500000000003
 30
0.0
 42
0.072341
  0
VERTEX
  5
D27
  8
OBJECT
 10
2.1427809999999998
 20
9.2435659999999995
 30
0.0
 42
0.106617
  0
VERTEX
  5
D28
  8
OBJECT
 10
2.131737999999999
 20
9.2947659999999992
 30
0.0
 42
0.156851
  0
VERTEX
  5
D29
  8
OBJECT
 10
2.107523
 20
9.3214970000000008
 30
0.0
 42
0.156851
  0
VERTEX
  5
D2A
  8
OBJECT
 10
2.0722649999999998
 20
9.3291020000000007
 30
0.0
 42
0.106617
  0
VERTEX
  5
D2B
  8
OBJECT
 10
2.0224029999999988
 20
9.3130659999999992
 30
0.0
 42
0.072341
  0
SEQEND
  5
D2C
  8
OBJECT
  0
POLYLINE
  5
8F1
  8
OBJECT
 66
     1
 10
0.0
 20
0.0
 30
0.0
  0
VERTEX
  5
D2D
  8
OBJECT
 10
1.9115519999999999
 20
12.281065999999999
 30
0.0
 42
0.072341
  0
VERTEX
  5
D2E
  8
OBJECT
 10
1.8675900000000001
 20
12.246377999999989
 30
0.0
 42
0.058752
  0
VERTEX
  5
D2F
  8
OBJECT
 10
1.8264320000000001
 20
12.19121
 30
0.0
 42
0.058752
  0
SEQEND
  5
D30
  8
OBJECT
  0
POLYLINE
  5
8F6
  8
OBJECT
 66
     1
 10
0.0
 20
0.0
 30
0.0
  0
VERTEX
  5
D31
  8
OBJECT
 10
2.0224029999999988
 20
12.067066000000001
 30
0.0
 42
0.072341
  0
VERTEX
  5
D32
  8
OBJECT
 10
2.0663649999999998
 20
12.101754
 30
0.0
 42
0.058752
  0
VERTEX
  5
D33
  8
OBJECT
 10
2.107523
 20
12.156922
 30
0.0
 42
0.058752
  0
VERTEX
  5
D34
  8
OBJECT
 10
2.134720999999999
 20
12.22015
 30
0.0
 42
0.072341
  0
VERTEX
  5
D35
  8
OBJECT
 10
2.1427809999999998
 20
12.275565999999991
 30
0.0
 42
0.106617
  0
VERTEX
  5
D36
  8
OBJECT
 10
2.131737999999999
 20
12.326765999999999
 30
0.0
 42
0.156851
  0
VERTEX
  5
D37
  8
OBJECT
 10
2.107523
 20
12.353497000000001
 30
0.0
 42
0.156851
  0
VERTEX
  5
D38
  8
OBJECT
 10
2.0722649999999998
 20
12.361102000000001
 30
0.0
 42
0.106617
  0
VERTEX
  5
D39
  8
OBJECT
 10
2.0224029999999988
 20
12.345065999999999
 30
0.0
 42
0.072341
  0
SEQEND
  5
D3A
  8
OBJECT
  0
LINE
  5
901
  8
OBJECT
 10
2.0224029999999988
 20
12.067066000000001
 30
0.0
 11
1.9115519999999999
 21
12.003066
 31
0.0
  0
POLYLINE
  5
902
  8
OBJECT
 66
     1
 10
0.0
 20
0.0
 30
0.0
  0
VERTEX
  5
D3B
  8
OBJECT
 10
1.8264320000000001
 20
12.19121
 30
0.0
 42
0.058752
  0
VERTEX
  5
D3C
  8
OBJECT
 10
1.799234999999999
 20
12.127981999999999
 30
0.0
 42
0.072341
  0
VERTEX
  5
D3D
  8
OBJECT
 10
1.7911749999999991
 20
12.072566
 30
0.0
 42
0.106617
  0
VERTEX
  5
D3E
  8
OBJECT
 10
1.8022180000000001
 20
12.021366
 30
0.0
 42
0.156851
  0
VERTEX
  5
D3F
  8
OBJECT
 10
1.8264320000000001
 20
11.994633999999991
 30
0.0
 42
0.156851
  0
VERTEX
  5
D40
  8
OBJECT
 10
1.8616900000000001
 20
11.987029
 30
0.0
 42
0.106617
  0
VERTEX
  5
D41
  8
OBJECT
 10
1.9115519999999999
 20
12.003066
 30
0.0
 42
0.072341
  0
SEQEND
  5
D42
  8
OBJECT
  0
LINE
  5
90B
  8
OBJECT
 10
1.9115519999999999
 20
12.281065999999999
 30
0.0
 11
2.0224029999999988
 21
12.345065999999999
 31
0.0
  0
POLYLINE
  5
90C
  8
OBJECT
 66
     1
 10
0.0
 20
0.0
 30
0.0
  0
VERTEX
  5
D43
  8
OBJECT
 10
17.712802
 20
21.363209999999999
 30
0.0
 42
0.058752
  0
VERTEX
  5
D44
  8
OBJECT
 10
17.685604999999988
 20
21.299982
 30
0.0
 42
0.072341
  0
VERTEX
  5
D45
  8
OBJECT
 10
17.677544999999999
 20
21.244565999999988
 30
0.0
 42
0.106617
  0
VERTEX
  5
D46
  8
OBJECT
 10
17.688587999999999
 20
21.193366000000001
 30
0.0
 42
0.156851
  0
VERTEX
  5
D47
  8
OBJECT
 10
17.712802
 20
21.166633999999991
 30
0.0
 42
0.156851
  0
VERTEX
  5
D48
  8
OBJECT
 10
17.748059999999992
 20
21.159029
 30
0.0
 42
0.106617
  0
VERTEX
  5
D49
  8
OBJECT
 10
17.797922
 20
21.175066000000001
 30
0.0
 42
0.072341
  0
SEQEND
  5
D4A
  8
OBJECT
  0
POLYLINE
  5
915
  8
OBJECT
 66
     1
 10
0.0
 20
0.0
 30
0.0
  0
VERTEX
  5
D4B
  8
OBJECT
 10
17.908773
 20
21.239066000000001
 30
0.0
 42
0.072341
  0
VERTEX
  5
D4C
  8
OBJECT
 10
17.952735000000001
 20
21.273754
 30
0.0
 42
0.058752
  0
VERTEX
  5
D4D
  8
OBJECT
 10
17.993893
 20
21.328921999999999
 30
0.0
 42
0.058752
  0
VERTEX
  5
D4E
  8
OBJECT
 10
18.021090999999998
 20
21.392150000000001
 30
0.0
 42
0.072341
  0
VERTEX
  5
D4F
  8
OBJECT
 10
18.029150999999999
 20
21.447565999999998
 30
0.0
 42
0.106617
  0
VERTEX
  5
D50
  8
OBJECT
 10
18.018107999999991
 20
21.498766
 30
0.0
 42
0.156851
  0
VERTEX
  5
D51
  8
OBJECT
 10
17.993893
 20
21.525497000000001
 30
0.0
 42
0.156851
  0
VERTEX
  5
D52
  8
OBJECT
 10
17.958635000000001
 20
21.533101999999989
 30
0.0
 42
0.106617
  0
VERTEX
  5
D53
  8
OBJECT
 10
17.908773
 20
21.517066
 30
0.0
 42
0.072341
  0
SEQEND
  5
D54
  8
OBJECT
  0
LINE
  5
920
  8
OBJECT
 10
17.908773
 20
21.239066000000001
 30
0.0
 11
17.797922
 21
21.175066000000001
 31
0.0
  0
LINE
  5
921
  8
OBJECT
 10
17.797922
 20
21.453066
 30
0.0
 11
17.908773
 21
21.517066
 31
0.0
  0
POLYLINE
  5
922
  8
OBJECT
 66
     1
 10
0.0
 20
0.0
 30
0.0
  0
VERTEX
  5
D55
  8
OBJECT
 10
17.797922
 20
21.453066
 30
0.0
 42
0.072341
  0
VERTEX
  5
D56
  8
OBJECT
 10
17.753959999999989
 20
21.418378000000001
 30
0.0
 42
0.058752
  0
VERTEX
  5
D57
  8
OBJECT
 10
17.712802
 20
21.363209999999999
 30
0.0
 42
0.058752
  0
SEQEND
  5
D58
  8
OBJECT
  0
LINE
  5
927
  8
OBJECT
 10
18.096700999999989
 20
21.767565999999999
 30
0.0
 11
18.137404
 21
21.744066
 31
0.0
  0
LINE
  5
928
  8
OBJECT
 10
1.6422179999999991
 20
8.7675660000000004
 30
0.0
 11
1.682920999999999
 21
8.7440660000000001
 31
0.0
  0
LINE
  5
929
  8
OBJECT
 10
9.1255439999999997
 20
15.697065999999991
 30
0.0
 11
9.7750630000000012
 21
16.072066
 31
0.0
  0
LINE
  5
92A
  8
OBJECT
 10
9.1255439999999997
 20
14.947065999999991
 30
0.0
 11
9.7750630000000012
 21
15.322066
 31
0.0
  0
LINE
  5
92B
  8
OBJECT
 10
9.1255439999999997
 20
14.947065999999991
 30
0.0
 11
9.1255439999999997
 21
15.697065999999991
 31
0.0
  0
LINE
  5
92C
  8
OBJECT
 10
9.7750630000000012
 20
15.322066
 30
0.0
 11
9.7750630000000012
 21
16.072066
 31
0.0
  0
LINE
  5
92D
  8
OBJECT
 10
10.04526299999999
 20
15.478066
 30
0.0
 11
10.464570999999999
 21
15.720154000000001
 31
0.0
  0
LINE
  5
92E
  8
OBJECT
 10
10.04526299999999
 20
15.166066000000001
 30
0.0
 11
10.694782
 21
15.541066000000001
 31
0.0
  0
LINE
  5
92F
  8
OBJECT
 10
10.04526299999999
 20
14.478066
 30
0.0
 11
10.04526299999999
 21
15.166066000000001
 31
0.0
  0
LINE
  5
930
  8
OBJECT
 10
10.04526299999999
 20
15.478066
 30
0.0
 11
10.04526299999999
 21
15.974377999999991
 31
0.0
  0
LINE
  5
931
  8
OBJECT
 10
10.694782
 20
14.853066
 30
0.0
 11
10.694782
 21
15.541066000000001
 31
0.0
  0
LINE
  5
932
  8
OBJECT
 10
12.535085999999991
 20
15.853566000000001
 30
0.0
 11
12.535085999999991
 21
15.919904999999989
 31
0.0
  0
LINE
  5
933
  8
OBJECT
 10
12.535085999999991
 20
15.853566000000001
 30
0.0
 11
12.593985
 21
15.887570999999999
 31
0.0
  0
LINE
  5
934
  8
OBJECT
 10
12.599439
 20
17.702719999999999
 30
0.0
 11
13.184604999999999
 21
18.040565999999998
 31
0.0
  0
LINE
  5
935
  8
OBJECT
 10
13.184604999999999
 20
17.347408999999999
 30
0.0
 11
13.184604999999999
 21
18.040565999999998
 31
0.0
  0
LINE
  5
936
  8
OBJECT
 10
13.45480499999999
 20
17.446566000000001
 30
0.0
 11
14.104323999999989
 21
17.821566000000001
 31
0.0
  0
LINE
  5
937
  8
OBJECT
 10
13.45480499999999
 20
17.446566000000001
 30
0.0
 11
13.45480499999999
 21
18.196566000000001
 31
0.0
  0
LINE
  5
938
  8
OBJECT
 10
14.104323999999989
 20
16.788958999999991
 30
0.0
 11
14.104323999999989
 21
17.509566
 31
0.0
  0
LINE
  5
939
  8
OBJECT
 10
13.495984
 20
17.158341
 30
0.0
 11
14.104323999999989
 21
17.509566
 31
0.0
  0
LINE
  5
93A
  8
OBJECT
 10
13.45480499999999
 20
18.196566000000001
 30
0.0
 11
14.104323999999989
 21
18.571566000000001
 31
0.0
  0
LINE
  5
93B
  8
OBJECT
 10
14.104323999999989
 20
17.821566000000001
 30
0.0
 11
14.104323999999989
 21
18.571566000000001
 31
0.0
  0
LINE
  5
93C
  8
OBJECT
 10
15.944628
 20
19.634066000000001
 30
0.0
 11
16.594147
 21
20.00906599999999
 31
0.0
  0
LINE
  5
93D
  8
OBJECT
 10
15.944628
 20
18.572065999999989
 30
0.0
 11
16.594147
 21
18.947066
 31
0.0
  0
LINE
  5
93E
  8
OBJECT
 10
15.944628
 20
17.822066
 30
0.0
 11
16.594147
 21
18.197065999999989
 31
0.0
  0
LINE
  5
93F
  8
OBJECT
 10
15.944628
 20
18.884066000000001
 30
0.0
 11
16.594147
 21
19.259066000000001
 31
0.0
  0
LINE
  5
940
  8
OBJECT
 10
15.944628
 20
17.822066
 30
0.0
 11
15.944628
 21
18.572065999999989
 31
0.0
  0
LINE
  5
941
  8
OBJECT
 10
15.944628
 20
18.884066000000001
 30
0.0
 11
15.944628
 21
19.634066000000001
 31
0.0
  0
LINE
  5
942
  8
OBJECT
 10
16.864346999999992
 20
19.415065999999999
 30
0.0
 11
16.864346999999992
 21
19.911377999999988
 31
0.0
  0
LINE
  5
943
  8
OBJECT
 10
16.864346999999992
 20
19.415065999999999
 30
0.0
 11
17.283654999999989
 21
19.657153999999998
 31
0.0
  0
LINE
  5
944
  8
OBJECT
 10
16.594147
 20
19.259066000000001
 30
0.0
 11
16.594147
 21
20.00906599999999
 31
0.0
  0
LINE
  5
945
  8
OBJECT
 10
16.864346999999992
 20
19.103065999999998
 30
0.0
 11
17.513866
 21
19.478065999999998
 31
0.0
  0
LINE
  5
946
  8
OBJECT
 10
16.864346999999992
 20
18.415065999999989
 30
0.0
 11
16.864346999999992
 21
19.103065999999998
 31
0.0
  0
LINE
  5
947
  8
OBJECT
 10
16.594147
 20
18.197065999999989
 30
0.0
 11
16.594147
 21
18.947066
 31
0.0
  0
LINE
  5
948
  8
OBJECT
 10
17.513866
 20
18.790065999999999
 30
0.0
 11
17.513866
 21
19.478065999999998
 31
0.0
  0
LINE
  5
949
  8
OBJECT
 10
5.7803550000000001
 20
13.76572
 30
0.0
 11
6.3655210000000002
 21
14.103566000000001
 31
0.0
  0
LINE
  5
94A
  8
OBJECT
 10
5.7160019999999987
 20
11.916565999999991
 30
0.0
 11
5.774900999999999
 21
11.950571
 31
0.0
  0
LINE
  5
94B
  8
OBJECT
 10
2.3064599999999991
 20
10.698066000000001
 30
0.0
 11
2.9559790000000001
 21
11.073066000000001
 31
0.0
  0
LINE
  5
94C
  8
OBJECT
 10
2.144512999999999
 20
11.666566
 30
0.0
 11
3.1179259999999989
 21
12.228566000000001
 31
0.0
  0
LINE
  5
94D
  8
OBJECT
 10
2.3064599999999991
 20
11.010066
 30
0.0
 11
2.7257679999999991
 21
11.25215399999999
 31
0.0
  0
LINE
  5
94E
  8
OBJECT
 10
2.3064599999999991
 20
11.057066000000001
 30
0.0
 11
2.686061
 21
11.276227999999991
 31
0.0
  0
LINE
  5
94F
  8
OBJECT
 10
2.3064599999999991
 20
10.010065999999989
 30
0.0
 11
2.3064599999999991
 21
10.698066000000001
 31
0.0
  0
LINE
  5
950
  8
OBJECT
 10
2.3064599999999991
 20
11.010066
 30
0.0
 11
2.3064599999999991
 21
11.506377999999989
 31
0.0
  0
LINE
  5
951
  8
OBJECT
 10
3.7046800000000002
 20
11.864328
 30
0.0
 11
3.8349949999999988
 21
11.939565999999999
 31
0.0
  0
LINE
  5
952
  8
OBJECT
 10
3.7439079999999998
 20
11.839976999999999
 30
0.0
 11
3.8756979999999999
 21
11.916066000000001
 31
0.0
  0
LINE
  5
953
  8
OBJECT
 10
3.2261790000000001
 20
12.162932
 30
0.0
 11
3.2261790000000001
 21
12.291066000000001
 31
0.0
  0
LINE
  5
954
  8
OBJECT
 10
2.915276
 20
10.408566
 30
0.0
 11
2.915276
 21
11.049566
 31
0.0
  0
LINE
  5
955
  8
OBJECT
 10
2.9559790000000001
 20
10.385066
 30
0.0
 11
2.9559790000000001
 21
11.073066000000001
 31
0.0
  0
LINE
  5
956
  8
OBJECT
 10
3.2261790000000001
 20
10.526066
 30
0.0
 11
3.5832889999999988
 21
10.73224299999999
 31
0.0
  0
LINE
  5
957
  8
OBJECT
 10
3.2261790000000001
 20
10.479065999999991
 30
0.0
 11
3.2261790000000001
 21
10.948757000000001
 31
0.0
  0
LINE
  5
958
  8
OBJECT
 10
3.2261790000000001
 20
10.479065999999991
 30
0.0
 11
3.6229969999999998
 21
10.708169
 31
0.0
  0
LINE
  5
959
  8
OBJECT
 10
3.2261790000000001
 20
12.291066000000001
 30
0.0
 11
3.8756979999999999
 21
12.666066000000001
 31
0.0
  0
LINE
  5
95A
  8
OBJECT
 10
3.8756979999999999
 20
11.916066000000001
 30
0.0
 11
3.8349949999999988
 21
11.939565999999999
 31
0.0
  0
LINE
  5
95B
  8
OBJECT
 10
3.8349949999999988
 20
11.939565999999999
 30
0.0
 11
3.8349949999999988
 21
12.642566
 31
0.0
  0
LINE
  5
95C
  8
OBJECT
 10
3.8756979999999999
 20
11.916066000000001
 30
0.0
 11
3.8756979999999999
 21
12.666066000000001
 31
0.0
  0
LINE
  5
95D
  8
OBJECT
 10
5.7160019999999987
 20
11.916565999999991
 30
0.0
 11
5.7160019999999987
 21
11.982905000000001
 31
0.0
  0
LINE
  5
95E
  8
OBJECT
 10
6.6357210000000002
 20
13.509565999999991
 30
0.0
 11
6.6357210000000002
 21
14.259566
 31
0.0
  0
LINE
  5
95F
  8
OBJECT
 10
6.6357210000000002
 20
13.509565999999991
 30
0.0
 11
7.285239999999999
 21
13.884566
 31
0.0
  0
LINE
  5
960
  8
OBJECT
 10
6.3655210000000002
 20
13.410409
 30
0.0
 11
6.3655210000000002
 21
14.103566000000001
 31
0.0
  0
LINE
  5
961
  8
OBJECT
 10
6.6768999999999989
 20
13.221341000000001
 30
0.0
 11
7.285239999999999
 21
13.572566
 31
0.0
  0
LINE
  5
962
  8
OBJECT
 10
7.285239999999999
 20
12.85195899999999
 30
0.0
 11
7.285239999999999
 21
13.572566
 31
0.0
  0
LINE
  5
963
  8
OBJECT
 10
6.6357210000000002
 20
14.259566
 30
0.0
 11
7.285239999999999
 21
14.634565999999991
 31
0.0
  0
LINE
  5
964
  8
OBJECT
 10
7.285239999999999
 20
13.884566
 30
0.0
 11
7.285239999999999
 21
14.634565999999991
 31
0.0
  0
LINE
  5
965
  8
OBJECT
 10
7.8806320000000003
 20
14.822316000000001
 30
0.0
 11
8.530151
 21
15.197316000000001
 31
0.0
  0
LINE
  5
966
  8
OBJECT
 10
7.8806320000000003
 20
15.572316000000001
 30
0.0
 11
8.530151
 21
15.947316000000001
 31
0.0
  0
LINE
  5
967
  8
OBJECT
 10
7.8806320000000003
 20
14.822316000000001
 30
0.0
 11
7.8806320000000003
 21
15.572316000000001
 31
0.0
  0
LINE
  5
968
  8
OBJECT
 10
8.530151
 20
15.197316000000001
 30
0.0
 11
8.530151
 21
15.947316000000001
 31
0.0
  0
LINE
  5
969
  8
OBJECT
 10
8.1007540000000002
 20
13.449403
 30
0.0
 11
8.4764579999999992
 21
13.666316
 31
0.0
  0
LINE
  5
96A
  8
OBJECT
 10
7.8806320000000003
 20
12.490437999999999
 30
0.0
 11
7.8806320000000003
 21
13.509816000000001
 31
0.0
  0
LINE
  5
96B
  8
OBJECT
 10
4.5169940000000004
 20
11.380318000000001
 30
0.0
 11
5.1206089999999991
 21
11.728815999999989
 31
0.0
  0
LINE
  5
96C
  8
OBJECT
 10
5.1206089999999991
 20
10.985366000000001
 30
0.0
 11
5.1206089999999991
 21
11.728815999999989
 31
0.0
  0
LINE
  5
96D
  8
OBJECT
 10
5.0799059999999994
 20
11.010633
 30
0.0
 11
5.0799059999999994
 21
11.705316
 31
0.0
  0
LINE
  5
96E
  8
OBJECT
 10
11.439289
 20
14.626906999999999
 30
0.0
 11
11.83911799999999
 21
14.857748000000001
 31
0.0
  0
LINE
  5
96F
  8
OBJECT
 10
11.290174
 20
14.708728000000001
 30
0.0
 11
11.290174
 21
15.198717
 31
0.0
  0
LINE
  5
970
  8
OBJECT
 10
14.699716
 20
17.259315999999998
 30
0.0
 11
15.349235
 21
17.634315999999998
 31
0.0
  0
LINE
  5
971
  8
OBJECT
 10
14.699716
 20
16.509315999999998
 30
0.0
 11
15.349235
 21
16.884315999999998
 31
0.0
  0
LINE
  5
972
  8
OBJECT
 10
14.699716
 20
16.509315999999998
 30
0.0
 11
14.699716
 21
17.259315999999998
 31
0.0
  0
LINE
  5
973
  8
OBJECT
 10
15.349235
 20
16.884315999999998
 30
0.0
 11
15.349235
 21
17.634315999999998
 31
0.0
  0
LINE
  5
974
  8
OBJECT
 10
15.349235
 20
19.134315999999998
 30
0.0
 11
15.349235
 21
19.884315999999998
 31
0.0
  0
LINE
  5
975
  8
OBJECT
 10
14.699716
 20
19.509315999999998
 30
0.0
 11
15.349235
 21
19.884315999999998
 31
0.0
  0
LINE
  5
976
  8
OBJECT
 10
14.699716
 20
18.759315999999998
 30
0.0
 11
15.349235
 21
19.134315999999998
 31
0.0
  0
LINE
  5
977
  8
OBJECT
 10
14.699716
 20
18.759315999999998
 30
0.0
 11
14.699716
 21
19.509315999999998
 31
0.0
  0
LINE
  5
978
  8
OBJECT
 10
1.901518
 20
9.2428589999999993
 30
0.0
 11
2.0663860000000001
 21
9.147672
 31
0.0
  0
LINE
  5
979
  8
OBJECT
 10
1.9418629999999999
 20
9.2665659999999992
 30
0.0
 11
2.0843899999999991
 21
9.1842779999999991
 31
0.0
  0
LINE
  5
97A
  8
OBJECT
 10
1.9817
 20
12.090566000000001
 30
0.0
 11
1.870849
 21
12.026566000000001
 31
0.0
  0
POLYLINE
  5
97B
  8
OBJECT
 66
     1
 10
0.0
 20
0.0
 30
0.0
  0
VERTEX
  5
D59
  8
OBJECT
 10
1.808525999999999
 20
12.010619
 30
0.0
 42
0.053037
  0
VERTEX
  5
D5A
  8
OBJECT
 10
1.820986999999999
 20
12.010529
 30
0.0
 42
0.106617
  0
VERTEX
  5
D5B
  8
OBJECT
 10
1.870849
 20
12.026566000000001
 30
0.0
 42
0.072341
  0
SEQEND
  5
D5C
  8
OBJECT
  0
POLYLINE
  5
980
  8
OBJECT
 66
     1
 10
0.0
 20
0.0
 30
0.0
  0
VERTEX
  5
D5D
  8
OBJECT
 10
1.9817
 20
12.090566000000001
 30
0.0
 42
0.072341
  0
VERTEX
  5
D5E
  8
OBJECT
 10
2.0256620000000001
 20
12.125254
 30
0.0
 42
0.058752
  0
VERTEX
  5
D5F
  8
OBJECT
 10
2.066819999999999
 20
12.180422
 30
0.0
 42
0.058752
  0
VERTEX
  5
D60
  8
OBJECT
 10
2.0940180000000002
 20
12.243650000000001
 30
0.0
 42
0.072341
  0
VERTEX
  5
D61
  8
OBJECT
 10
2.1020779999999988
 20
12.299066
 30
0.0
 42
0.106617
  0
VERTEX
  5
D62
  8
OBJECT
 10
2.0910349999999989
 20
12.350266
 30
0.0
 42
0.053037
  0
VERTEX
  5
D63
  8
OBJECT
 10
2.084725999999999
 20
12.361012000000001
 30
0.0
 42
0.156851
  0
SEQEND
  5
D64
  8
OBJECT
  0
LINE
  5
989
  8
OBJECT
 10
1.9817
 20
9.0585660000000008
 30
0.0
 11
1.870849
 21
8.9945660000000007
 31
0.0
  0
POLYLINE
  5
98A
  8
OBJECT
 66
     1
 10
0.0
 20
0.0
 30
0.0
  0
VERTEX
  5
D65
  8
OBJECT
 10
1.808525999999999
 20
8.9786190000000001
 30
0.0
 42
0.053037
  0
VERTEX
  5
D66
  8
OBJECT
 10
1.820986999999999
 20
8.9785289999999982
 30
0.0
 42
0.106617
  0
VERTEX
  5
D67
  8
OBJECT
 10
1.870849
 20
8.9945660000000007
 30
0.0
 42
0.072341
  0
SEQEND
  5
D68
  8
OBJECT
  0
POLYLINE
  5
98F
  8
OBJECT
 66
     1
 10
0.0
 20
0.0
 30
0.0
  0
VERTEX
  5
D69
  8
OBJECT
 10
1.9817
 20
9.0585660000000008
 30
0.0
 42
0.072341
  0
VERTEX
  5
D6A
  8
OBJECT
 10
2.0256620000000001
 20
9.0932539999999982
 30
0.0
 42
0.058752
  0
VERTEX
  5
D6B
  8
OBJECT
 10
2.066819999999999
 20
9.1484220000000001
 30
0.0
 42
0.058752
  0
VERTEX
  5
D6C
  8
OBJECT
 10
2.0940180000000002
 20
9.2116500000000006
 30
0.0
 42
0.072341
  0
VERTEX
  5
D6D
  8
OBJECT
 10
2.1020779999999988
 20
9.2670659999999998
 30
0.0
 42
0.106617
  0
VERTEX
  5
D6E
  8
OBJECT
 10
2.0910349999999989
 20
9.3182659999999995
 30
0.0
 42
0.053037
  0
VERTEX
  5
D6F
  8
OBJECT
 10
2.084725999999999
 20
9.3290119999999987
 30
0.0
 42
0.156851
  0
SEQEND
  5
D70
  8
OBJECT
  0
LINE
  5
998
  8
OBJECT
 10
5.0799059999999994
 20
11.205316
 30
0.0
 11
4.9174160000000002
 21
11.111501999999991
 31
0.0
  0
LINE
  5
999
  8
OBJECT
 10
17.868069999999999
 20
21.262566
 30
0.0
 11
17.757218999999989
 21
21.198565999999989
 31
0.0
  0
POLYLINE
  5
99A
  8
OBJECT
 66
     1
 10
0.0
 20
0.0
 30
0.0
  0
VERTEX
  5
D71
  8
OBJECT
 10
17.694895999999989
 20
21.182618999999988
 30
0.0
 42
0.053037
  0
VERTEX
  5
D72
  8
OBJECT
 10
17.707356999999998
 20
21.182528999999999
 30
0.0
 42
0.106617
  0
VERTEX
  5
D73
  8
OBJECT
 10
17.757218999999989
 20
21.198565999999989
 30
0.0
 42
0.072341
  0
SEQEND
  5
D74
  8
OBJECT
  0
POLYLINE
  5
99F
  8
OBJECT
 66
     1
 10
0.0
 20
0.0
 30
0.0
  0
VERTEX
  5
D75
  8
OBJECT
 10
17.868069999999999
 20
21.262566
 30
0.0
 42
0.072341
  0
VERTEX
  5
D76
  8
OBJECT
 10
17.912031999999989
 20
21.297253999999999
 30
0.0
 42
0.058752
  0
VERTEX
  5
D77
  8
OBJECT
 10
17.953189999999999
 20
21.35242199999999
 30
0.0
 42
0.058752
  0
VERTEX
  5
D78
  8
OBJECT
 10
17.980388000000001
 20
21.415649999999989
 30
0.0
 42
0.072341
  0
VERTEX
  5
D79
  8
OBJECT
 10
17.988448000000002
 20
21.471066
 30
0.0
 42
0.106617
  0
VERTEX
  5
D7A
  8
OBJECT
 10
17.97740499999999
 20
21.522265999999998
 30
0.0
 42
0.053037
  0
VERTEX
  5
D7B
  8
OBJECT
 10
17.971095999999989
 20
21.533011999999999
 30
0.0
 42
0.156851
  0
SEQEND
  5
D7C
  8
OBJECT
  0
LINE
  5
9A8
  8
OBJECT
 10
7.285239999999999
 20
13.884566
 30
0.0
 11
7.2445369999999993
 21
13.908066
 31
0.0
  0
LINE
  5
9A9
  8
OBJECT
 10
8.530151
 20
15.197316000000001
 30
0.0
 11
8.4894479999999994
 21
15.220815999999999
 31
0.0
  0
LINE
  5
9AA
  8
OBJECT
 10
8.4894479999999994
 20
15.220815999999999
 30
0.0
 11
8.4894479999999994
 21
15.923816
 31
0.0
  0
LINE
  5
9AB
  8
OBJECT
 10
7.8806320000000003
 20
14.869316
 30
0.0
 11
8.4894479999999994
 21
15.220815999999999
 31
0.0
  0
LINE
  5
9AC
  8
OBJECT
 10
7.2445369999999993
 20
12.876674
 30
0.0
 11
7.2445369999999993
 21
13.549066
 31
0.0
  0
LINE
  5
9AD
  8
OBJECT
 10
7.2445369999999993
 20
13.908066
 30
0.0
 11
7.2445369999999993
 21
14.611065999999999
 31
0.0
  0
LINE
  5
9AE
  8
OBJECT
 10
6.6357210000000002
 20
13.556566
 30
0.0
 11
7.2445369999999993
 21
13.908066
 31
0.0
  0
LINE
  5
9AF
  8
OBJECT
 10
6.3248179999999987
 20
13.435123999999989
 30
0.0
 11
6.3248179999999987
 21
14.080066
 31
0.0
  0
LINE
  5
9B0
  8
OBJECT
 10
5.7160019999999987
 20
11.963566
 30
0.0
 11
5.7331719999999988
 21
11.973478999999999
 31
0.0
  0
LINE
  5
9B1
  8
OBJECT
 10
9.7750630000000012
 20
15.322066
 30
0.0
 11
9.7343600000000006
 21
15.345566
 31
0.0
  0
LINE
  5
9B2
  8
OBJECT
 10
9.7750630000000012
 20
14.260066
 30
0.0
 11
9.7343600000000006
 21
14.283566
 31
0.0
  0
LINE
  5
9B3
  8
OBJECT
 10
11.630521
 20
14.98731499999999
 30
0.0
 11
11.290174
 21
14.790815999999991
 31
0.0
  0
LINE
  5
9B4
  8
OBJECT
 10
11.397550000000001
 20
14.649808999999999
 30
0.0
 11
11.799901999999999
 21
14.882107
 31
0.0
  0
LINE
  5
9B5
  8
OBJECT
 10
10.654078999999999
 20
14.876566
 30
0.0
 11
10.654078999999999
 21
15.517566
 31
0.0
  0
LINE
  5
9B6
  8
OBJECT
 10
10.04526299999999
 20
15.525066000000001
 30
0.0
 11
10.424863999999999
 21
15.744227999999991
 31
0.0
  0
LINE
  5
9B7
  8
OBJECT
 10
9.7343600000000006
 20
15.345566
 30
0.0
 11
9.7343600000000006
 21
16.048566000000001
 31
0.0
  0
LINE
  5
9B8
  8
OBJECT
 10
9.1255439999999997
 20
14.994066
 30
0.0
 11
9.7343600000000006
 21
15.345566
 31
0.0
  0
LINE
  5
9B9
  8
OBJECT
 10
9.7343600000000006
 20
14.283566
 30
0.0
 11
9.7343600000000006
 21
14.986566
 31
0.0
  0
LINE
  5
9BA
  8
OBJECT
 10
9.1255439999999997
 20
13.932066000000001
 30
0.0
 11
9.7343600000000006
 21
14.283566
 31
0.0
  0
LINE
  5
9BB
  8
OBJECT
 10
14.104323999999989
 20
17.821566000000001
 30
0.0
 11
14.063620999999991
 21
17.845065999999999
 31
0.0
  0
LINE
  5
9BC
  8
OBJECT
 10
15.308532
 20
17.110815999999989
 30
0.0
 11
14.699716
 21
16.759315999999998
 31
0.0
  0
LINE
  5
9BD
  8
OBJECT
 10
15.349235
 20
16.884315999999998
 30
0.0
 11
15.308532
 21
16.907816
 31
0.0
  0
LINE
  5
9BE
  8
OBJECT
 10
15.349235
 20
19.134315999999998
 30
0.0
 11
15.308532
 21
19.157816
 31
0.0
  0
LINE
  5
9BF
  8
OBJECT
 10
15.308532
 20
19.157816
 30
0.0
 11
15.308532
 21
19.860816
 31
0.0
  0
LINE
  5
9C0
  8
OBJECT
 10
14.699716
 20
18.806315999999999
 30
0.0
 11
15.308532
 21
19.157816
 31
0.0
  0
LINE
  5
9C1
  8
OBJECT
 10
15.308532
 20
16.907816
 30
0.0
 11
15.308532
 21
17.610815999999989
 31
0.0
  0
LINE
  5
9C2
  8
OBJECT
 10
14.699716
 20
16.556315999999988
 30
0.0
 11
15.308532
 21
16.907816
 31
0.0
  0
LINE
  5
9C3
  8
OBJECT
 10
14.063620999999991
 20
16.813673999999999
 30
0.0
 11
14.063620999999991
 21
17.486066000000001
 31
0.0
  0
LINE
  5
9C4
  8
OBJECT
 10
14.063620999999991
 20
17.845065999999999
 30
0.0
 11
14.063620999999991
 21
18.548065999999992
 31
0.0
  0
LINE
  5
9C5
  8
OBJECT
 10
13.45480499999999
 20
17.493566000000001
 30
0.0
 11
14.063620999999991
 21
17.845065999999999
 31
0.0
  0
LINE
  5
9C6
  8
OBJECT
 10
13.143902000000001
 20
17.372123999999989
 30
0.0
 11
13.143902000000001
 21
18.017066
 31
0.0
  0
LINE
  5
9C7
  8
OBJECT
 10
12.535085999999991
 20
15.900566
 30
0.0
 11
12.552256
 21
15.910479
 31
0.0
  0
LINE
  5
9C8
  8
OBJECT
 10
16.594147
 20
19.259066000000001
 30
0.0
 11
16.553443999999988
 21
19.282565999999999
 31
0.0
  0
LINE
  5
9C9
  8
OBJECT
 10
16.594147
 20
18.197065999999989
 30
0.0
 11
16.553443999999988
 21
18.220566000000002
 31
0.0
  0
LINE
  5
9CA
  8
OBJECT
 10
17.473163
 20
18.813566000000002
 30
0.0
 11
17.473163
 21
19.454565999999989
 31
0.0
  0
LINE
  5
9CB
  8
OBJECT
 10
16.864346999999992
 20
19.462066
 30
0.0
 11
17.243947999999989
 21
19.681228000000001
 31
0.0
  0
LINE
  5
9CC
  8
OBJECT
 10
16.553443999999988
 20
19.282565999999999
 30
0.0
 11
16.553443999999988
 21
19.985565999999992
 31
0.0
  0
LINE
  5
9CD
  8
OBJECT
 10
15.944628
 20
18.931066000000001
 30
0.0
 11
16.553443999999988
 21
19.282565999999999
 31
0.0
  0
LINE
  5
9CE
  8
OBJECT
 10
16.553443999999988
 20
18.220566000000002
 30
0.0
 11
16.553443999999988
 21
18.923566000000001
 31
0.0
  0
LINE
  5
9CF
  8
OBJECT
 10
15.944628
 20
17.869066
 30
0.0
 11
16.553443999999988
 21
18.220566000000002
 31
0.0
  0
LINE
  5
9D0
  8
OBJECT
 10
4.3095769999999991
 20
10.322565999999989
 30
0.0
 11
5.2829889999999988
 21
10.884565999999991
 31
0.0
  0
LINE
  5
9D1
  8
OBJECT
 10
4.3095769999999991
 20
8.6975660000000001
 30
0.0
 11
5.2829889999999988
 21
9.2595659999999995
 31
0.0
  0
LINE
  5
9D2
  8
OBJECT
 10
3.1179259999999989
 20
12.228566000000001
 30
0.0
 11
5.2829889999999988
 21
10.884565999999991
 31
0.0
  0
LINE
  5
9D3
  8
OBJECT
 10
2.144512999999999
 20
11.666566
 30
0.0
 11
4.3095769999999991
 21
10.322565999999989
 31
0.0
  0
LINE
  5
9D4
  8
OBJECT
 10
2.144512999999999
 20
11.666566
 30
0.0
 11
2.144512999999999
 21
11.604566
 31
0.0
  0
LINE
  5
9D5
  8
OBJECT
 10
2.144512999999999
 20
9.8545660000000002
 30
0.0
 11
4.3095769999999991
 21
8.6975660000000001
 31
0.0
  0
LINE
  5
9D6
  8
OBJECT
 10
2.144512999999999
 20
11.604566
 30
0.0
 11
4.255882999999999
 21
10.29312
 31
0.0
  0
LINE
  5
9D7
  8
OBJECT
 10
2.144512999999999
 20
9.9165659999999995
 30
0.0
 11
4.255882999999999
 21
8.7890280000000001
 31
0.0
  0
LINE
  5
9D8
  8
OBJECT
 10
3.922498
 20
10.037086
 30
0.0
 11
4.255882999999999
 21
10.229566
 31
0.0
  0
LINE
  5
9D9
  8
OBJECT
 10
2.144512999999999
 20
9.9165659999999995
 30
0.0
 11
2.144512999999999
 21
9.8545660000000002
 31
0.0
  0
LINE
  5
9DA
  8
OBJECT
 10
2.144512999999999
 20
9.9165659999999995
 30
0.0
 11
2.3064599999999991
 21
10.010065999999989
 31
0.0
  0
LINE
  5
9DB
  8
OBJECT
 10
3.1179259999999989
 20
10.478566000000001
 30
0.0
 11
4.255882999999999
 21
9.8541530000000002
 31
0.0
  0
LINE
  5
9DC
  8
OBJECT
 10
5.2829889999999988
 20
10.822566
 30
0.0
 11
6.524248
 21
11.539206999999999
 31
0.0
  0
LINE
  5
9DD
  8
OBJECT
 10
2.9559790000000001
 20
10.385066
 30
0.0
 11
2.861581999999999
 21
10.439565999999999
 31
0.0
  0
LINE
  5
9DE
  8
OBJECT
 10
2.3064599999999991
 20
10.119066
 30
0.0
 11
2.861581999999999
 21
10.439565999999999
 31
0.0
  0
LINE
  5
9DF
  8
OBJECT
 10
2.9559790000000001
 20
10.385066
 30
0.0
 11
3.1179259999999989
 21
10.478566000000001
 31
0.0
  0
LINE
  5
9E0
  8
OBJECT
 10
16.702400000000001
 20
20.071566000000001
 30
0.0
 11
17.675813000000002
 21
20.633565999999998
 31
0.0
  0
LINE
  5
9E1
  8
OBJECT
 10
16.702400000000001
 20
20.071566000000001
 30
0.0
 11
16.702400000000001
 21
20.009565999999989
 31
0.0
  0
LINE
  5
9E2
  8
OBJECT
 10
16.702400000000001
 20
18.321566000000001
 30
0.0
 11
16.864346999999992
 21
18.415065999999989
 31
0.0
  0
LINE
  5
9E3
  8
OBJECT
 10
16.702400000000001
 20
18.321566000000001
 30
0.0
 11
16.702400000000001
 21
18.259565999999989
 31
0.0
  0
LINE
  5
9E4
  8
OBJECT
 10
16.864346999999992
 20
18.524066000000001
 30
0.0
 11
17.419468999999999
 21
18.844566
 31
0.0
  0
LINE
  5
9E5
  8
OBJECT
 10
17.513866
 20
18.790065999999999
 30
0.0
 11
17.675813000000002
 21
18.883565999999998
 31
0.0
  0
LINE
  5
9E6
  8
OBJECT
 10
17.513866
 20
18.790065999999999
 30
0.0
 11
17.419468999999999
 21
18.844566
 31
0.0
  0
LINE
  5
9E7
  8
OBJECT
 10
18.137404
 20
20.353704999999991
 30
0.0
 11
18.137404
 21
21.744066
 31
0.0
  0
LINE
  5
9E8
  8
OBJECT
 10
9.8833160000000007
 20
16.134566
 30
0.0
 11
10.856729
 21
16.696566000000001
 31
0.0
  0
LINE
  5
9E9
  8
OBJECT
 10
9.8833160000000007
 20
16.134566
 30
0.0
 11
9.8833160000000007
 21
16.072565999999998
 31
0.0
  0
LINE
  5
9EA
  8
OBJECT
 10
9.8833160000000007
 20
14.384566
 30
0.0
 11
10.04526299999999
 21
14.478066
 31
0.0
  0
LINE
  5
9EB
  8
OBJECT
 10
9.8833160000000007
 20
14.384566
 30
0.0
 11
9.8833160000000007
 21
14.322566
 31
0.0
  0
LINE
  5
9EC
  8
OBJECT
 10
10.04526299999999
 20
14.587066
 30
0.0
 11
10.600384999999999
 21
14.907565999999999
 31
0.0
  0
LINE
  5
9ED
  8
OBJECT
 10
10.694782
 20
14.853066
 30
0.0
 11
10.856729
 21
14.946566000000001
 31
0.0
  0
LINE
  5
9EE
  8
OBJECT
 10
10.694782
 20
14.853066
 30
0.0
 11
10.600384999999999
 21
14.907565999999999
 31
0.0
  0
LINE
  5
9EF
  8
OBJECT
 10
11.661300999999989
 20
14.505086
 30
0.0
 11
11.994686
 21
14.697566
 31
0.0
  0
LINE
  5
9F0
  8
OBJECT
 10
13.021792
 20
15.290566
 30
0.0
 11
13.343332
 21
15.476207
 31
0.0
  0
LINE
  5
9F1
  8
OBJECT
 10
7.8806320000000003
 20
13.509816000000001
 30
0.0
 11
7.9343259999999987
 21
13.540815999999991
 31
0.0
  0
LINE
  5
9F2
  8
OBJECT
 10
11.209633999999991
 20
10.557316
 30
0.0
 11
11.209633999999991
 21
11.681316000000001
 31
0.0
  0
LINE
  5
9F3
  8
OBJECT
 10
11.696339999999999
 20
10.838316000000001
 30
0.0
 11
11.696339999999999
 21
11.962315999999991
 31
0.0
  0
LINE
  5
9F4
  8
OBJECT
 10
11.209633999999991
 20
11.681316000000001
 30
0.0
 11
11.696339999999999
 21
11.962315999999991
 31
0.0
  0
LINE
  5
9F5
  8
OBJECT
 10
11.209633999999991
 20
10.557316
 30
0.0
 11
11.696339999999999
 21
10.838316000000001
 31
0.0
  0
LINE
  5
9F6
  8
OBJECT
 10
7.8806320000000003
 20
13.509816000000001
 30
0.0
 11
11.209633999999991
 21
11.681316000000001
 31
0.0
  0
LINE
  5
9F7
  8
OBJECT
 10
8.2867979999999992
 20
12.161845
 30
0.0
 11
11.209633999999991
 21
10.557316
 31
0.0
  0
LINE
  5
9F8
  8
OBJECT
 10
8.4764579999999992
 20
13.666316
 30
0.0
 11
8.4764579999999992
 21
13.853816
 31
0.0
  0
LINE
  5
9F9
  8
OBJECT
 10
11.208294999999991
 20
11.742543
 30
0.0
 11
11.590306
 21
11.963096999999999
 31
0.0
  0
LINE
  5
9FA
  8
OBJECT
 10
8.530151
 20
13.884816000000001
 30
0.0
 11
11.696339999999999
 21
11.962315999999991
 31
0.0
  0
LINE
  5
9FB
  8
OBJECT
 10
7.9343259999999987
 20
13.540815999999991
 30
0.0
 11
11.208294999999991
 21
11.742543
 31
0.0
  0
LINE
  5
9FC
  8
OBJECT
 10
8.4764579999999992
 20
13.853816
 30
0.0
 11
11.590306
 21
11.963096999999999
 31
0.0
  0
LINE
  5
9FD
  8
OBJECT
 10
8.4764579999999992
 20
13.853816
 30
0.0
 11
8.530151
 21
13.884816000000001
 31
0.0
  0
LINE
  5
9FE
  8
OBJECT
 10
8.3820610000000002
 20
13.294890999999989
 30
0.0
 11
8.3820610000000002
 21
13.611815999999999
 31
0.0
  0
LINE
  5
9FF
  8
OBJECT
 10
9.5326439999999995
 20
13.276104999999999
 30
0.0
 11
10.642481999999999
 21
13.91687099999999
 31
0.0
  0
LINE
  5
A00
  8
OBJECT
 10
4.5247839999999986
 20
13.822316000000001
 30
0.0
 11
7.7987529999999987
 21
12.02404299999999
 31
0.0
  0
LINE
  5
A01
  8
OBJECT
 10
5.0669159999999991
 20
14.135315999999991
 30
0.0
 11
8.1807639999999981
 21
12.244597000000001
 31
0.0
  0
LINE
  5
A02
  8
OBJECT
 10
5.1206089999999991
 20
14.166316
 30
0.0
 11
8.2867979999999992
 21
12.243816000000001
 31
0.0
  0
LINE
  5
A03
  8
OBJECT
 10
4.4710900000000002
 20
12.666316
 30
0.0
 11
7.8000920000000002
 21
10.838815999999991
 31
0.0
  0
LINE
  5
A04
  8
OBJECT
 10
4.4710900000000002
 20
13.791316
 30
0.0
 11
7.8000920000000002
 21
11.962816
 31
0.0
  0
LINE
  5
A05
  8
OBJECT
 10
4.4710900000000002
 20
12.666316
 30
0.0
 11
4.4710900000000002
 21
13.791316
 31
0.0
  0
LINE
  5
A06
  8
OBJECT
 10
4.9725190000000001
 20
13.576390999999999
 30
0.0
 11
4.9725190000000001
 21
13.893316
 31
0.0
  0
LINE
  5
A07
  8
OBJECT
 10
4.6912120000000002
 20
13.730903
 30
0.0
 11
5.0669159999999991
 21
13.947815999999991
 31
0.0
  0
LINE
  5
A08
  8
OBJECT
 10
4.4710900000000002
 20
13.791316
 30
0.0
 11
4.5247839999999986
 21
13.822316000000001
 31
0.0
  0
LINE
  5
A09
  8
OBJECT
 10
5.0669159999999991
 20
13.947815999999991
 30
0.0
 11
5.0669159999999991
 21
14.135315999999991
 31
0.0
  0
LINE
  5
A0A
  8
OBJECT
 10
5.0669159999999991
 20
14.135315999999991
 30
0.0
 11
5.1206089999999991
 21
14.166316
 31
0.0
  0
LINE
  5
A0B
  8
OBJECT
 10
8.2867979999999992
 20
11.119816
 30
0.0
 11
8.2867979999999992
 21
12.243816000000001
 31
0.0
  0
LINE
  5
A0C
  8
OBJECT
 10
7.8000920000000002
 20
11.962816
 30
0.0
 11
8.2867979999999992
 21
12.243816000000001
 31
0.0
  0
LINE
  5
A0D
  8
OBJECT
 10
7.8000920000000002
 20
10.838815999999991
 30
0.0
 11
8.2867979999999992
 21
11.119816
 31
0.0
  0
LINE
  5
A0E
  8
OBJECT
 10
7.8000920000000002
 20
10.838815999999991
 30
0.0
 11
7.8000920000000002
 21
11.962816
 31
0.0
  0
LINE
  5
A0F
  8
OBJECT
 10
7.7987529999999987
 20
12.02404299999999
 30
0.0
 11
8.1807639999999981
 21
12.244597000000001
 31
0.0
  0
LINE
  5
A10
  8
OBJECT
 10
11.34386799999999
 20
17.759315999999998
 30
0.0
 11
14.617836999999991
 21
15.961043
 31
0.0
  0
LINE
  5
A11
  8
OBJECT
 10
11.88599999999999
 20
18.072316000000001
 30
0.0
 11
14.999848
 21
16.181597
 31
0.0
  0
LINE
  5
A12
  8
OBJECT
 10
11.939693
 20
18.103315999999989
 30
0.0
 11
15.105881999999999
 21
16.180816
 31
0.0
  0
LINE
  5
A13
  8
OBJECT
 10
11.290174
 20
16.603316
 30
0.0
 11
14.619176
 21
14.775816000000001
 31
0.0
  0
LINE
  5
A14
  8
OBJECT
 10
11.290174
 20
17.728315999999989
 30
0.0
 11
14.619176
 21
15.899815999999991
 31
0.0
  0
LINE
  5
A15
  8
OBJECT
 10
15.105881999999999
 20
15.056815999999991
 30
0.0
 11
15.105881999999999
 21
16.180816
 31
0.0
  0
LINE
  5
A16
  8
OBJECT
 10
14.619176
 20
15.899815999999991
 30
0.0
 11
15.105881999999999
 21
16.180816
 31
0.0
  0
LINE
  5
A17
  8
OBJECT
 10
14.619176
 20
14.775816000000001
 30
0.0
 11
15.105881999999999
 21
15.056815999999991
 31
0.0
  0
LINE
  5
A18
  8
OBJECT
 10
14.619176
 20
14.775816000000001
 30
0.0
 11
14.619176
 21
15.899815999999991
 31
0.0
  0
LINE
  5
A19
  8
OBJECT
 10
14.617836999999991
 20
15.961043
 30
0.0
 11
14.999848
 21
16.181597
 31
0.0
  0
LINE
  5
A1A
  8
OBJECT
 10
11.290174
 20
16.603316
 30
0.0
 11
11.290174
 21
17.728315999999989
 31
0.0
  0
LINE
  5
A1B
  8
OBJECT
 10
11.791603
 20
17.513390999999999
 30
0.0
 11
11.791603
 21
17.830316
 31
0.0
  0
LINE
  5
A1C
  8
OBJECT
 10
11.51029599999999
 20
17.667902999999999
 30
0.0
 11
11.88599999999999
 21
17.884816000000001
 31
0.0
  0
LINE
  5
A1D
  8
OBJECT
 10
11.290174
 20
17.728315999999989
 30
0.0
 11
11.34386799999999
 21
17.759315999999998
 31
0.0
  0
LINE
  5
A1E
  8
OBJECT
 10
11.88599999999999
 20
17.884816000000001
 30
0.0
 11
11.88599999999999
 21
18.072316000000001
 31
0.0
  0
LINE
  5
A1F
  8
OBJECT
 10
11.88599999999999
 20
18.072316000000001
 30
0.0
 11
11.939693
 21
18.103315999999989
 31
0.0
  0
LINE
  5
A20
  8
OBJECT
 10
14.84164599999999
 20
16.341259000000001
 30
0.0
 11
17.461566999999999
 21
17.853870999999991
 31
0.0
  0
LINE
  5
A21
  8
OBJECT
 10
4.255882999999999
 20
10.29312
 30
0.0
 11
4.255882999999999
 21
8.7890280000000001
 31
0.0
  0
LINE
  5
A22
  8
OBJECT
 10
4.3095769999999991
 20
10.322565999999989
 30
0.0
 11
4.3095769999999991
 21
8.6975660000000001
 31
0.0
  0
LINE
  5
A23
  8
OBJECT
 10
5.2829889999999988
 20
9.2595659999999995
 30
0.0
 11
5.2829889999999988
 21
10.884565999999991
 31
0.0
  0
LINE
  5
A24
  8
OBJECT
 10
9.8833160000000007
 20
14.322566
 30
0.0
 11
12.04838
 21
13.165566
 31
0.0
  0
LINE
  5
A25
  8
OBJECT
 10
9.8833160000000007
 20
14.384566
 30
0.0
 11
11.994686
 21
13.257028
 31
0.0
  0
LINE
  5
A26
  8
OBJECT
 10
13.021792
 20
13.727565999999991
 30
0.0
 11
13.021792
 21
15.352565999999999
 31
0.0
  0
LINE
  5
A27
  8
OBJECT
 10
12.04838
 20
14.790566
 30
0.0
 11
12.04838
 21
13.165566
 31
0.0
  0
LINE
  5
A28
  8
OBJECT
 10
11.994686
 20
14.76112
 30
0.0
 11
11.994686
 21
13.257028
 31
0.0
  0
LINE
  5
A29
  8
OBJECT
 10
12.04838
 20
13.165566
 30
0.0
 11
13.021792
 21
13.727565999999991
 31
0.0
  0
LINE
  5
A2A
  8
OBJECT
 10
12.04838
 20
14.790566
 30
0.0
 11
13.021792
 21
15.352565999999999
 31
0.0
  0
LINE
  5
A2B
  8
OBJECT
 10
10.856729
 20
16.696566000000001
 30
0.0
 11
13.021792
 21
15.352565999999999
 31
0.0
  0
LINE
  5
A2C
  8
OBJECT
 10
9.8833160000000007
 20
16.134566
 30
0.0
 11
12.04838
 21
14.790566
 31
0.0
  0
LINE
  5
A2D
  8
OBJECT
 10
9.8833160000000007
 20
16.072565999999998
 30
0.0
 11
11.994686
 21
14.76112
 31
0.0
  0
LINE
  5
A2E
  8
OBJECT
 10
10.856729
 20
14.946566000000001
 30
0.0
 11
11.994686
 21
14.322153
 31
0.0
  0
LINE
  5
A2F
  8
OBJECT
 10
16.702400000000001
 20
18.259565999999989
 30
0.0
 11
18.867463999999998
 21
17.102565999999999
 31
0.0
  0
LINE
  5
A30
  8
OBJECT
 10
16.702400000000001
 20
18.321566000000001
 30
0.0
 11
18.813770000000002
 21
17.194027999999999
 31
0.0
  0
LINE
  5
A31
  8
OBJECT
 10
19.840876000000002
 20
17.664566000000001
 30
0.0
 11
19.840876000000002
 21
19.289566000000001
 31
0.0
  0
LINE
  5
A32
  8
OBJECT
 10
18.867463999999998
 20
18.727565999999989
 30
0.0
 11
18.867463999999998
 21
17.102565999999999
 31
0.0
  0
LINE
  5
A33
  8
OBJECT
 10
18.813770000000002
 20
18.698119999999989
 30
0.0
 11
18.813770000000002
 21
17.194027999999999
 31
0.0
  0
LINE
  5
A34
  8
OBJECT
 10
18.867463999999998
 20
17.102565999999999
 30
0.0
 11
19.840876000000002
 21
17.664566000000001
 31
0.0
  0
LINE
  5
A35
  8
OBJECT
 10
18.867463999999998
 20
18.727565999999989
 30
0.0
 11
19.840876000000002
 21
19.289566000000001
 31
0.0
  0
LINE
  5
A36
  8
OBJECT
 10
17.675813000000002
 20
20.633565999999998
 30
0.0
 11
19.840876000000002
 21
19.289566000000001
 31
0.0
  0
LINE
  5
A37
  8
OBJECT
 10
16.702400000000001
 20
20.071566000000001
 30
0.0
 11
18.867463999999998
 21
18.727565999999989
 31
0.0
  0
LINE
  5
A38
  8
OBJECT
 10
16.702400000000001
 20
20.009565999999989
 30
0.0
 11
18.813770000000002
 21
18.698119999999989
 31
0.0
  0
LINE
  5
A39
  8
OBJECT
 10
17.675813000000002
 20
18.883565999999998
 30
0.0
 11
18.813770000000002
 21
18.259153000000001
 31
0.0
  0
ENDSEC
  0
EOF
