  0
SECTION
  2
HEADER
  9
$ACADVER
  1
AC1015
  9
$ACADMAINTVER
 70
     6
  9
$DWGCODEPAGE
  3
ANSI_1252
  9
$INSBASE
 10
0.0
 20
0.0
 30
0.0
  9
$EXTMIN
 10
-0.0092647125837289
 20
-0.0141900242140878
 30
-0.0000000349181948
  9
$EXTMAX
 10
151.8092661263743
 20
232.5141921896053
 30
0.0000000814935746
  9
$LIMMIN
 10
0.0
 20
0.0
  9
$LIMMAX
 10
151.7999999999998
 20
232.4999999999998
  9
$ORTHOMODE
 70
     1
  9
$REGENMODE
 70
     1
  9
$FILLMODE
 70
     1
  9
$QTEXTMODE
 70
     0
  9
$MIRRTEXT
 70
     0
  9
$LTSCALE
 40
11.25
  9
$ATTMODE
 70
     1
  9
$TEXTSIZE
 40
1.875
  9
$TRACEWID
 40
0.05
  9
$TEXTSTYLE
  7
TXT
  9
$CLAYER
  8
OBJECT
  9
$CELTYPE
  6
ByLayer
  9
$CECOLOR
 62
   256
  9
$CELTSCALE
 40
1.0
  9
$DISPSILH
 70
     0
  9
$DIMSCALE
 40
15.0
  9
$DIMASZ
 40
0.18
  9
$DIMEXO
 40
0.063
  9
$DIMDLI
 40
0.281
  9
$DIMRND
 40
0.0
  9
$DIMDLE
 40
0.0
  9
$DIMEXE
 40
0.093
  9
$DIMTP
 40
0.0
  9
$DIMTM
 40
0.0
  9
$DIMTXT
 40
0.125
  9
$DIMCEN
 40
0.09
  9
$DIMTSZ
 40
0.0
  9
$DIMTOL
 70
     0
  9
$DIMLIM
 70
     0
  9
$DIMTIH
 70
     1
  9
$DIMTOH
 70
     1
  9
$DIMSE1
 70
     0
  9
$DIMSE2
 70
     0
  9
$DIMTAD
 70
     0
  9
$DIMZIN
 70
     0
  9
$DIMBLK
  1

  9
$DIMASO
 70
     1
  9
$DIMSHO
 70
     1
  9
$DIMPOST
  1

  9
$DIMAPOST
  1
ction
  9
$DIMALT
 70
     0
  9
$DIMALTD
 70
     2
  9
$DIMALTF
 40
25.4
  9
$DIMLFAC
 40
1.0
  9
$DIMTOFL
 70
     0
  9
$DIMTVP
 40
0.0
  9
$DIMTIX
 70
     0
  9
$DIMSOXD
 70
     0
  9
$DIMSAH
 70
     0
  9
$DIMBLK1
  1

  9
$DIMBLK2
  1

  9
$DIMSTYLE
  2
23NSTDI
  9
$DIMCLRD
 70
     0
  9
$DIMCLRE
 70
     0
  9
$DIMCLRT
 70
     0
  9
$DIMTFAC
 40
1.0
  9
$DIMGAP
 40
0.09
  9
$DIMJUST
 70
     0
  9
$DIMSD1
 70
     0
  9
$DIMSD2
 70
     0
  9
$DIMTOLJ
 70
     1
  9
$DIMTZIN
 70
     0
  9
$DIMALTZ
 70
     0
  9
$DIMALTTZ
 70
     0
  9
$DIMUPT
 70
     0
  9
$DIMDEC
 70
     3
  9
$DIMTDEC
 70
     3
  9
$DIMALTU
 70
     2
  9
$DIMALTTD
 70
     2
  9
$DIMTXSTY
  7
STANDARD
  9
$DIMAUNIT
 70
     0
  9
$DIMADEC
 70
     0
  9
$DIMALTRND
 40
0.0
  9
$DIMAZIN
 70
     0
  9
$DIMDSEP
 70
    46
  9
$DIMATFIT
 70
     1
  9
$DIMFRAC
 70
     0
  9
$DIMLDRBLK
  1

  9
$DIMLUNIT
 70
     2
  9
$DIMLWD
 70
    -2
  9
$DIMLWE
 70
    -2
  9
$DIMTMOVE
 70
     0
  9
$LUNITS
 70
     2
  9
$LUPREC
 70
     3
  9
$SKETCHINC
 40
0.1
  9
$FILLETRAD
 40
0.0
  9
$AUNITS
 70
     0
  9
$AUPREC
 70
     0
  9
$MENU
  1
acad
  9
$ELEVATION
 40
0.0
  9
$PELEVATION
 40
0.0
  9
$THICKNESS
 40
0.0
  9
$LIMCHECK
 70
     0
  9
$CHAMFERA
 40
0.0
  9
$CHAMFERB
 40
0.0
  9
$CHAMFERC
 40
0.0
  9
$CHAMFERD
 40
0.0
  9
$SKPOLY
 70
     0
  9
$TDCREATE
 40
2448390.614117129
  9
$TDUCREATE
 40
2448390.822450463
  9
$TDUPDATE
 40
2455589.400810358
  9
$TDUUPDATE
 40
2455589.609143692
  9
$TDINDWG
 40
0.1013458449
  9
$TDUSRTIMER
 40
0.1013458449
  9
$USRTIMER
 70
     1
  9
$ANGBASE
 50
0.0
  9
$ANGDIR
 70
     0
  9
$PDMODE
 70
     0
  9
$PDSIZE
 40
0.0
  9
$PLINEWID
 40
0.0
  9
$SPLFRAME
 70
     0
  9
$SPLINETYPE
 70
     6
  9
$SPLINESEGS
 70
     8
  9
$HANDSEED
  5
1B73
  9
$SURFTAB1
 70
     6
  9
$SURFTAB2
 70
     6
  9
$SURFTYPE
 70
     6
  9
$SURFU
 70
     6
  9
$SURFV
 70
     6
  9
$UCSBASE
  2

  9
$UCSNAME
  2

  9
$UCSORG
 10
0.0
 20
0.0
 30
0.0
  9
$UCSXDIR
 10
1.0
 20
0.0
 30
0.0
  9
$UCSYDIR
 10
0.0
 20
1.0
 30
0.0
  9
$UCSORTHOREF
  2

  9
$UCSORTHOVIEW
 70
     0
  9
$UCSORGTOP
 10
0.0
 20
0.0
 30
0.0
  9
$UCSORGBOTTOM
 10
0.0
 20
0.0
 30
0.0
  9
$UCSORGLEFT
 10
0.0
 20
0.0
 30
0.0
  9
$UCSORGRIGHT
 10
0.0
 20
0.0
 30
0.0
  9
$UCSORGFRONT
 10
0.0
 20
0.0
 30
0.0
  9
$UCSORGBACK
 10
0.0
 20
0.0
 30
0.0
  9
$PUCSBASE
  2

  9
$PUCSNAME
  2

  9
$PUCSORG
 10
0.0
 20
0.0
 30
0.0
  9
$PUCSXDIR
 10
1.0
 20
0.0
 30
0.0
  9
$PUCSYDIR
 10
0.0
 20
1.0
 30
0.0
  9
$PUCSORTHOREF
  2

  9
$PUCSORTHOVIEW
 70
     0
  9
$PUCSORGTOP
 10
0.0
 20
0.0
 30
0.0
  9
$PUCSORGBOTTOM
 10
0.0
 20
0.0
 30
0.0
  9
$PUCSORGLEFT
 10
0.0
 20
0.0
 30
0.0
  9
$PUCSORGRIGHT
 10
0.0
 20
0.0
 30
0.0
  9
$PUCSORGFRONT
 10
0.0
 20
0.0
 30
0.0
  9
$PUCSORGBACK
 10
0.0
 20
0.0
 30
0.0
  9
$USERI1
 70
     0
  9
$USERI2
 70
     0
  9
$USERI3
 70
     0
  9
$USERI4
 70
     0
  9
$USERI5
 70
     0
  9
$USERR1
 40
0.0
  9
$USERR2
 40
0.0
  9
$USERR3
 40
0.0
  9
$USERR4
 40
0.0
  9
$USERR5
 40
0.0
  9
$WORLDVIEW
 70
     1
  9
$SHADEDGE
 70
     3
  9
$SHADEDIF
 70
    70
  9
$TILEMODE
 70
     1
  9
$MAXACTVP
 70
    16
  9
$PINSBASE
 10
0.0
 20
0.0
 30
0.0
  9
$PLIMCHECK
 70
     0
  9
$PEXTMIN
 10
1.000000000000000E+20
 20
1.000000000000000E+20
 30
1.000000000000000E+20
  9
$PEXTMAX
 10
-1.000000000000000E+20
 20
-1.000000000000000E+20
 30
-1.000000000000000E+20
  9
$PLIMMIN
 10
0.0
 20
0.0
  9
$PLIMMAX
 10
12.0
 20
9.0
  9
$UNITMODE
 70
     0
  9
$VISRETAIN
 70
     0
  9
$PLINEGEN
 70
     0
  9
$PSLTSCALE
 70
     0
  9
$TREEDEPTH
 70
  3020
  9
$CMLSTYLE
  2
Standard
  9
$CMLJUST
 70
     0
  9
$CMLSCALE
 40
1.0
  9
$PROXYGRAPHICS
 70
     1
  9
$MEASUREMENT
 70
     0
  9
$CELWEIGHT
370
    -1
  9
$ENDCAPS
280
     0
  9
$JOINSTYLE
280
     0
  9
$LWDISPLAY
290
     0
  9
$INSUNITS
 70
     0
  9
$HYPERLINKBASE
  1

  9
$STYLESHEET
  1
monochrome.ctb
  9
$XEDIT
290
     1
  9
$CEPSNTYPE
380
     0
  9
$PSTYLEMODE
290
     1
  9
$FINGERPRINTGUID
  2
{A2A24FD8-DC5B-4F59-9723-A7FFFAEEDF59}
  9
$VERSIONGUID
  2
{14349197-1190-4165-8B00-B4863DE94A7C}
  9
$EXTNAMES
290
     1
  9
$PSVPSCALE
 40
0.0
  9
$OLESTARTUP
290
     0
  0
ENDSEC
  0
SECTION
  2
CLASSES
  0
CLASS
  1
ACDBDICTIONARYWDFLT
  2
AcDbDictionaryWithDefault
  3
AutoCAD 2000
 90
        0
280
     0
281
     0
  0
CLASS
  1
ACDBPLACEHOLDER
  2
AcDbPlaceHolder
  3
AutoCAD 2000
 90
        0
280
     0
281
     0
  0
CLASS
  1
LAYOUT
  2
AcDbLayout
  3
AutoCAD 2000
 90
        0
280
     0
281
     0
  0
ENDSEC
  0
SECTION
  2
TABLES
  0
TABLE
  2
VPORT
  5
1167
330
0
100
AcDbSymbolTable
 70
     3
  0
VPORT
  5
1B72
330
1167
100
AcDbSymbolTableRecord
100
AcDbViewportTableRecord
  2
*Active
 70
     0
 10
0.0
 20
0.0
 11
1.0
 21
1.0
 12
75.90000035343688
 22
116.2500005413312
 13
0.0
 23
0.0
 14
1.0
 24
1.0
 15
4.0
 25
4.0
 16
0.0
 26
0.0
 36
1.0
 17
0.0
 27
0.0
 37
0.0
 40
235.1024748000841
 41
1.711895910780669
 42
50.0
 43
0.0
 44
0.0
 50
0.0
 51
0.0
 71
     0
 72
   100
 73
     1
 74
     0
 75
     0
 76
     0
 77
     0
 78
     0
281
     0
 65
     0
110
0.0
120
0.0
130
0.0
111
1.0
121
0.0
131
0.0
112
0.0
122
1.0
132
0.0
 79
     0
146
0.0
  0
ENDTAB
  0
TABLE
  2
LTYPE
  5
1164
330
0
100
AcDbSymbolTable
 70
     6
  0
LTYPE
  5
1172
330
1164
100
AcDbSymbolTableRecord
100
AcDbLinetypeTableRecord
  2
ByBlock
 70
     0
  3

 72
    65
 73
     0
 40
0.0
  0
LTYPE
  5
1173
330
1164
100
AcDbSymbolTableRecord
100
AcDbLinetypeTableRecord
  2
ByLayer
 70
     0
  3

 72
    65
 73
     0
 40
0.0
  0
LTYPE
  5
1174
330
1164
100
AcDbSymbolTableRecord
100
AcDbLinetypeTableRecord
  2
CONTINUOUS
 70
     0
  3
Solid line
 72
    65
 73
     0
 40
0.0
  0
LTYPE
  5
1184
330
1164
100
AcDbSymbolTableRecord
100
AcDbLinetypeTableRecord
  2
HIDDEN
 70
     0
  3
_ _ _ _ _ _ _ _ _ _ _ _ _ _ _ _ _ _ _ _ _ _ _
 72
    65
 73
     2
 40
0.375
 49
0.25
 74
     0
 49
-0.125
 74
     0
  0
LTYPE
  5
1185
330
1164
100
AcDbSymbolTableRecord
100
AcDbLinetypeTableRecord
  2
CENTER
 70
     0
  3
____ _ ____ _ ____ _ ____ _ ____ _ ____ _ ____
 72
    65
 73
     4
 40
2.0
 49
1.25
 74
     0
 49
-0.25
 74
     0
 49
0.25
 74
     0
 49
-0.25
 74
     0
  0
LTYPE
  5
19D2
330
1164
100
AcDbSymbolTableRecord
100
AcDbLinetypeTableRecord
  2
PHANTOM
 70
     0
  3
_____ _ _ _____ _ _ _____ _ _ _____ _ _ ____
 72
    65
 73
     6
 40
2.5
 49
1.25
 74
     0
 49
-0.25
 74
     0
 49
0.25
 74
     0
 49
-0.25
 74
     0
 49
0.25
 74
     0
 49
-0.25
 74
     0
  0
LTYPE
  5
19D3
330
1164
100
AcDbSymbolTableRecord
100
AcDbLinetypeTableRecord
  2
HIDDEN2
 70
     0
  3
_ _ _ _ _ _ _ _ _ _ _ _ _ _ _ _ _ _ _ _ _ _ _ _
 72
    65
 73
     2
 40
0.1875
 49
0.125
 74
     0
 49
-0.0625
 74
     0
  0
LTYPE
  5
19D4
330
1164
100
AcDbSymbolTableRecord
100
AcDbLinetypeTableRecord
  2
PHANTOM2
 70
     0
  3
___ _ _ ___ _ _ ___ _ _ ___ _ _ ___ _ _ ___ _ _
 72
    65
 73
     6
 40
1.25
 49
0.625
 74
     0
 49
-0.125
 74
     0
 49
0.125
 74
     0
 49
-0.125
 74
     0
 49
0.125
 74
     0
 49
-0.125
 74
     0
  0
ENDTAB
  0
TABLE
  2
LAYER
  5
1161
330
0
100
AcDbSymbolTable
 70
    10
  0
LAYER
  5
116F
330
1161
100
AcDbSymbolTableRecord
100
AcDbLayerTableRecord
  2
0
 70
     0
 62
     7
  6
CONTINUOUS
370
    -3
390
116E
  0
LAYER
  5
1181
330
1161
100
AcDbSymbolTableRecord
100
AcDbLayerTableRecord
  2
OBJECT
 70
     0
 62
     7
  6
CONTINUOUS
370
    -3
390
116E
  0
LAYER
  5
1186
330
1161
100
AcDbSymbolTableRecord
100
AcDbLayerTableRecord
  2
DIM
 70
     0
 62
     7
  6
CONTINUOUS
370
    -3
390
116E
  0
LAYER
  5
1187
330
1161
100
AcDbSymbolTableRecord
100
AcDbLayerTableRecord
  2
HIDDEN
 70
     0
 62
     7
  6
HIDDEN
370
    -3
390
116E
  0
LAYER
  5
1188
330
1161
100
AcDbSymbolTableRecord
100
AcDbLayerTableRecord
  2
TEXT
 70
     0
 62
     7
  6
CONTINUOUS
370
    -3
390
116E
  0
LAYER
  5
1189
330
1161
100
AcDbSymbolTableRecord
100
AcDbLayerTableRecord
  2
TITLE
 70
     0
 62
     7
  6
CONTINUOUS
370
    -3
390
116E
  0
LAYER
  5
118A
330
1161
100
AcDbSymbolTableRecord
100
AcDbLayerTableRecord
  2
CENTER
 70
     0
 62
     7
  6
CENTER
370
    -3
390
116E
  0
LAYER
  5
118B
330
1161
100
AcDbSymbolTableRecord
100
AcDbLayerTableRecord
  2
DEFPOINTS
 70
     0
 62
     7
  6
CONTINUOUS
290
     0
370
    -3
390
116E
  0
LAYER
  5
118C
330
1161
100
AcDbSymbolTableRecord
100
AcDbLayerTableRecord
  2
PMR
 70
     0
 62
     7
  6
CONTINUOUS
370
    -3
390
116E
  0
LAYER
  5
19D5
330
1161
100
AcDbSymbolTableRecord
100
AcDbLayerTableRecord
  2
BEND
 70
     0
 62
     4
  6
PHANTOM
370
    -3
390
116E
  0
ENDTAB
  0
TABLE
  2
STYLE
  5
1162
330
0
100
AcDbSymbolTable
 70
     2
  0
STYLE
  5
1170
330
1162
100
AcDbSymbolTableRecord
100
AcDbTextStyleTableRecord
  2
STANDARD
 70
     0
 40
0.0
 41
1.0
 50
0.0
 71
     0
 42
2.186999999999998
  3
txt
  4

  0
STYLE
  5
1182
330
1162
100
AcDbSymbolTableRecord
100
AcDbTextStyleTableRecord
  2
TXT
 70
     0
 40
0.0
 41
0.75
 50
0.0
 71
     0
 42
1.875
  3
TXT.shx
  4

  0
ENDTAB
  0
TABLE
  2
VIEW
  5
1165
330
0
100
AcDbSymbolTable
 70
     0
  0
ENDTAB
  0
TABLE
  2
UCS
  5
1166
330
0
100
AcDbSymbolTable
 70
     0
  0
ENDTAB
  0
TABLE
  2
APPID
  5
1168
330
0
100
AcDbSymbolTable
 70
     1
  0
APPID
  5
1171
330
1168
100
AcDbSymbolTableRecord
100
AcDbRegAppTableRecord
  2
ACAD
 70
     0
  0
ENDTAB
  0
TABLE
  2
DIMSTYLE
  5
1169
330
0
100
AcDbSymbolTable
 70
     2
100
AcDbDimStyleTable
 71
     2
340
118D
340
118E
  0
DIMSTYLE
105
118D
102
{ACAD_REACTORS
330
147B
330
1489
330
1497
330
14A5
330
14B3
330
14C1
330
14CF
330
162B
330
1639
330
174D
330
175A
330
1768
330
1776
330
17DD
330
18B6
330
18C4
330
18D4
330
18E2
330
18F7
330
1905
330
1913
330
1921
330
192F
330
193C
330
196C
102
}
330
1169
100
AcDbSymbolTableRecord
100
AcDbDimStyleTableRecord
  2
23NSTD
 70
     0
  4
ction
 40
15.0
 42
0.063
 43
0.281
 44
0.093
140
0.125
271
     3
272
     3
340
1182
  0
DIMSTYLE
105
118E
330
1169
100
AcDbSymbolTableRecord
100
AcDbDimStyleTableRecord
  2
23NSTDI
 70
     0
  4
ction
 40
15.0
 42
0.063
 43
0.281
 44
0.093
140
0.125
174
     1
271
     3
272
     3
340
1182
  0
ENDTAB
  0
TABLE
  2
BLOCK_RECORD
  5
1160
330
0
100
AcDbSymbolTable
 70
    28
  0
BLOCK_RECORD
  5
117D
330
1160
100
AcDbSymbolTableRecord
100
AcDbBlockTableRecord
  2
*Model_Space
340
1180
  0
BLOCK_RECORD
  5
1179
330
1160
100
AcDbSymbolTableRecord
100
AcDbBlockTableRecord
  2
*Paper_Space
340
117C
  0
BLOCK_RECORD
  5
1190
330
1160
100
AcDbSymbolTableRecord
100
AcDbBlockTableRecord
  2
$MODEL_SPACE
340
0
  0
BLOCK_RECORD
  5
1193
330
1160
100
AcDbSymbolTableRecord
100
AcDbBlockTableRecord
  2
$PAPER_SPACE
340
0
  0
BLOCK_RECORD
  5
1196
330
1160
100
AcDbSymbolTableRecord
100
AcDbBlockTableRecord
  2
HB
340
0
102
{BLKREFS
331
130D
102
}
  0
BLOCK_RECORD
  5
147C
330
1160
100
AcDbSymbolTableRecord
100
AcDbBlockTableRecord
  2
*D3
340
0
  0
BLOCK_RECORD
  5
148A
330
1160
100
AcDbSymbolTableRecord
100
AcDbBlockTableRecord
  2
*D4
340
0
  0
BLOCK_RECORD
  5
1498
330
1160
100
AcDbSymbolTableRecord
100
AcDbBlockTableRecord
  2
*D5
340
0
  0
BLOCK_RECORD
  5
14A6
330
1160
100
AcDbSymbolTableRecord
100
AcDbBlockTableRecord
  2
*D6
340
0
  0
BLOCK_RECORD
  5
14B4
330
1160
100
AcDbSymbolTableRecord
100
AcDbBlockTableRecord
  2
*D7
340
0
  0
BLOCK_RECORD
  5
14C2
330
1160
100
AcDbSymbolTableRecord
100
AcDbBlockTableRecord
  2
*D8
340
0
  0
BLOCK_RECORD
  5
14D0
330
1160
100
AcDbSymbolTableRecord
100
AcDbBlockTableRecord
  2
*D9
340
0
  0
BLOCK_RECORD
  5
162C
330
1160
100
AcDbSymbolTableRecord
100
AcDbBlockTableRecord
  2
*D10
340
0
  0
BLOCK_RECORD
  5
163A
330
1160
100
AcDbSymbolTableRecord
100
AcDbBlockTableRecord
  2
*D11
340
0
  0
BLOCK_RECORD
  5
174E
330
1160
100
AcDbSymbolTableRecord
100
AcDbBlockTableRecord
  2
*D12
340
0
  0
BLOCK_RECORD
  5
175B
330
1160
100
AcDbSymbolTableRecord
100
AcDbBlockTableRecord
  2
*D13
340
0
  0
BLOCK_RECORD
  5
1769
330
1160
100
AcDbSymbolTableRecord
100
AcDbBlockTableRecord
  2
*D14
340
0
  0
BLOCK_RECORD
  5
1777
330
1160
100
AcDbSymbolTableRecord
100
AcDbBlockTableRecord
  2
*D15
340
0
  0
BLOCK_RECORD
  5
17DE
330
1160
100
AcDbSymbolTableRecord
100
AcDbBlockTableRecord
  2
*D16
340
0
  0
BLOCK_RECORD
  5
18B7
330
1160
100
AcDbSymbolTableRecord
100
AcDbBlockTableRecord
  2
*D17
340
0
  0
BLOCK_RECORD
  5
18C5
330
1160
100
AcDbSymbolTableRecord
100
AcDbBlockTableRecord
  2
*D18
340
0
  0
BLOCK_RECORD
  5
18D5
330
1160
100
AcDbSymbolTableRecord
100
AcDbBlockTableRecord
  2
*D19
340
0
  0
BLOCK_RECORD
  5
18E3
330
1160
100
AcDbSymbolTableRecord
100
AcDbBlockTableRecord
  2
*D20
340
0
  0
BLOCK_RECORD
  5
18F8
330
1160
100
AcDbSymbolTableRecord
100
AcDbBlockTableRecord
  2
*D21
340
0
  0
BLOCK_RECORD
  5
1906
330
1160
100
AcDbSymbolTableRecord
100
AcDbBlockTableRecord
  2
*D22
340
0
  0
BLOCK_RECORD
  5
1914
330
1160
100
AcDbSymbolTableRecord
100
AcDbBlockTableRecord
  2
*D23
340
0
  0
BLOCK_RECORD
  5
1922
330
1160
100
AcDbSymbolTableRecord
100
AcDbBlockTableRecord
  2
*D24
340
0
  0
BLOCK_RECORD
  5
1930
330
1160
100
AcDbSymbolTableRecord
100
AcDbBlockTableRecord
  2
*D25
340
0
  0
BLOCK_RECORD
  5
193D
330
1160
100
AcDbSymbolTableRecord
100
AcDbBlockTableRecord
  2
*D26
340
0
  0
BLOCK_RECORD
  5
196D
330
1160
100
AcDbSymbolTableRecord
100
AcDbBlockTableRecord
  2
*D27
340
0
  0
ENDTAB
  0
ENDSEC
  0
SECTION
  2
BLOCKS
  0
BLOCK
  5
117E
330
117D
100
AcDbEntity
  8
0
100
AcDbBlockBegin
  2
*Model_Space
 70
     0
 10
0.0
 20
0.0
 30
0.0
  3
*Model_Space
  1

  0
ENDBLK
  5
117F
330
117D
100
AcDbEntity
  8
0
100
AcDbBlockEnd
  0
BLOCK
  5
117A
330
1179
100
AcDbEntity
 67
     1
  8
0
100
AcDbBlockBegin
  2
*Paper_Space
 70
     0
 10
0.0
 20
0.0
 30
0.0
  3
*Paper_Space
  1

  0
ENDBLK
  5
117B
330
1179
100
AcDbEntity
 67
     1
  8
0
100
AcDbBlockEnd
  0
BLOCK
  5
1191
330
1190
100
AcDbEntity
  8
0
100
AcDbBlockBegin
  2
$MODEL_SPACE
 70
     0
 10
0.0
 20
0.0
 30
0.0
  3
$MODEL_SPACE
  1

  0
ENDBLK
  5
1192
330
1190
100
AcDbEntity
  8
0
100
AcDbBlockEnd
  0
BLOCK
  5
1194
330
1193
100
AcDbEntity
  8
0
100
AcDbBlockBegin
  2
$PAPER_SPACE
 70
     0
 10
0.0
 20
0.0
 30
0.0
  3
$PAPER_SPACE
  1

  0
ENDBLK
  5
1195
330
1193
100
AcDbEntity
  8
0
100
AcDbBlockEnd
  0
BLOCK
  5
1197
330
1196
100
AcDbEntity
  8
0
100
AcDbBlockBegin
  2
HB
 70
     0
 10
0.0
 20
0.0
 30
0.0
  3
HB
  1

  0
LINE
  5
19D6
330
1196
100
AcDbEntity
  8
TITLE
100
AcDbLine
 10
0.0
 20
15.5
 30
0.0
 11
10.11999999999999
 21
15.49999999999999
 31
0.0
  0
LINE
  5
19D7
330
1196
100
AcDbEntity
  8
TITLE
100
AcDbLine
 10
10.11999999999999
 20
-0.0000000000000018
 30
0.0
 11
0.0
 21
0.0
 31
0.0
  0
LINE
  5
19D8
330
1196
100
AcDbEntity
  8
TITLE
100
AcDbLine
 10
0.0620000000000012
 20
15.438
 30
0.0
 11
10.058
 21
15.438
 31
0.0
  0
LINE
  5
19D9
330
1196
100
AcDbEntity
  8
TITLE
100
AcDbLine
 10
10.058
 20
0.0619999999999994
 30
0.0
 11
0.0619999999999976
 21
0.0620000000000012
 31
0.0
  0
LINE
  5
19DA
330
1196
100
AcDbEntity
  8
TITLE
100
AcDbLine
 10
0.0620000000000012
 20
15.01999999999999
 30
0.0
 11
10.058
 21
15.01999999999999
 31
0.0
  0
LINE
  5
19DB
330
1196
100
AcDbEntity
  8
TITLE
100
AcDbLine
 10
0.0
 20
0.0
 30
0.0
 11
0.0
 21
15.5
 31
0.0
  0
LINE
  5
19DC
330
1196
100
AcDbEntity
  8
TITLE
100
AcDbLine
 10
0.0619999999999976
 20
0.0620000000000012
 30
0.0
 11
0.0620000000000012
 21
15.438
 31
0.0
  0
TEXT
  5
19DD
330
1196
100
AcDbEntity
  8
TEXT
100
AcDbText
 10
0.2078333333333381
 20
15.26841252897341
 30
0.0
 40
0.125
  1
PART
  7
TXT
 72
     1
 11
0.4370000000000048
 21
15.26841252897341
 31
0.0
100
AcDbText
  0
TEXT
  5
19DE
330
1196
100
AcDbEntity
  8
TEXT
100
AcDbText
 10
0.2078333333333381
 20
15.06007919564008
 30
0.0
 40
0.125
  1
NAME
  7
TXT
 72
     1
 11
0.4370000000000048
 21
15.06007919564008
 31
0.0
100
AcDbText
  0
LINE
  5
19DF
330
1196
100
AcDbEntity
  8
TITLE
100
AcDbLine
 10
0.8120000000000047
 20
15.01999999999999
 30
0.0
 11
0.8120000000000011
 21
15.438
 31
0.0
  0
LINE
  5
19E0
330
1196
100
AcDbEntity
  8
TITLE
100
AcDbLine
 10
10.11999999999999
 20
15.49999999999999
 30
0.0
 11
10.11999999999999
 21
-0.0000000000000018
 31
0.0
  0
LINE
  5
19E1
330
1196
100
AcDbEntity
  8
TITLE
100
AcDbLine
 10
10.058
 20
15.438
 30
0.0
 11
10.058
 21
0.0619999999999994
 31
0.0
  0
TEXT
  5
19E2
330
1196
100
AcDbEntity
  8
TEXT
100
AcDbText
 10
4.36183333333333
 20
15.26841252897341
 30
0.0
 40
0.125
  1
PART
  7
TXT
 72
     1
 11
4.590999999999997
 21
15.26841252897341
 31
0.0
100
AcDbText
  0
LINE
  5
19E3
330
1196
100
AcDbEntity
  8
TITLE
100
AcDbLine
 10
4.153999999999999
 20
15.438
 30
0.0
 11
4.153999999999999
 21
15.01999999999999
 31
0.0
  0
LINE
  5
19E4
330
1196
100
AcDbEntity
  8
TITLE
100
AcDbLine
 10
4.215999999999997
 20
15.438
 30
0.0
 11
4.215999999999997
 21
15.01999999999999
 31
0.0
  0
TEXT
  5
19E5
330
1196
100
AcDbEntity
  8
TEXT
100
AcDbText
 10
4.465999999999997
 20
15.06007919564008
 30
0.0
 40
0.125
  1
No.
  7
TXT
 72
     1
 11
4.590999999999997
 21
15.06007919564008
 31
0.0
100
AcDbText
  0
LINE
  5
19E6
330
1196
100
AcDbEntity
  8
TITLE
100
AcDbLine
 10
4.965999999999997
 20
15.438
 30
0.0
 11
4.965999999999997
 21
15.01999999999999
 31
0.0
  0
LINE
  5
19E7
330
1196
100
AcDbEntity
  8
TITLE
100
AcDbLine
 10
8.307999999999999
 20
15.438
 30
0.0
 11
8.307999999999999
 21
15.02
 31
0.0
  0
LINE
  5
19E8
330
1196
100
AcDbEntity
  8
TITLE
100
AcDbLine
 10
8.245999999999988
 20
15.438
 30
0.0
 11
8.245999999999988
 21
15.02
 31
0.0
  0
TEXT
  5
19E9
330
1196
100
AcDbEntity
  8
TEXT
100
AcDbText
 10
8.453833333333333
 20
15.06007919564008
 30
0.0
 40
0.125
  1
DATE
  7
TXT
 72
     1
 11
8.682999999999999
 21
15.06007919564008
 31
0.0
100
AcDbText
  0
TEXT
  5
19EA
330
1196
100
AcDbEntity
  8
TEXT
100
AcDbText
 10
8.474666666666665
 20
15.26841252897341
 30
0.0
 40
0.125
  1
REV.
  7
TXT
 72
     1
 11
8.682999999999999
 21
15.26841252897341
 31
0.0
100
AcDbText
  0
LINE
  5
19EB
330
1196
100
AcDbEntity
  8
TITLE
100
AcDbLine
 10
9.057999999999999
 20
15.438
 30
0.0
 11
9.057999999999999
 21
15.02
 31
0.0
  0
ENDBLK
  5
11A9
330
1196
100
AcDbEntity
  8
0
100
AcDbBlockEnd
  0
BLOCK
  5
1487
330
147C
100
AcDbEntity
  8
0
100
AcDbBlockBegin
  2
*D3
 70
     1
 10
0.0
 20
0.0
 30
0.0
  3
*D3
  1

  0
LINE
  5
19ED
330
147C
100
AcDbEntity
  8
DIM
 62
     0
370
    -2
100
AcDbLine
 10
110.4221313817309
 20
122.3269835608664
 30
0.0
 11
98.9196313817308
 21
122.3269835608664
 31
0.0
  0
LINE
  5
19EE
330
147C
100
AcDbEntity
  8
DIM
 62
     0
370
    -2
100
AcDbLine
 10
110.4221313817309
 20
183.6389835608664
 30
0.0
 11
98.91963138173082
 21
183.6389835608664
 31
0.0
  0
LINE
  5
19EF
330
147C
100
AcDbEntity
  8
DIM
 62
     0
370
    -2
100
AcDbLine
 10
100.3146313817308
 20
125.0269835608664
 30
0.0
 11
100.3146313817308
 21
150.6954835608664
 31
0.0
  0
LINE
  5
19F0
330
147C
100
AcDbEntity
  8
DIM
 62
     0
370
    -2
100
AcDbLine
 10
100.3146313817308
 20
180.9389835608664
 30
0.0
 11
100.3146313817308
 21
155.2704835608664
 31
0.0
  0
SOLID
  5
19F1
330
147C
100
AcDbEntity
  8
DIM
 62
     0
100
AcDbTrace
 10
99.86463138173078
 20
125.0269835608664
 30
0.0
 11
100.7646313817307
 21
125.0269835608664
 31
0.0
 12
100.3146313817308
 22
122.3269835608664
 32
0.0
 13
100.3146313817308
 23
122.3269835608664
 33
0.0
  0
SOLID
  5
19F2
330
147C
100
AcDbEntity
  8
DIM
 62
     0
100
AcDbTrace
 10
99.8646313817308
 20
180.9389835608664
 30
0.0
 11
100.7646313817308
 21
180.9389835608664
 31
0.0
 12
100.3146313817308
 22
183.6389835608664
 32
0.0
 13
100.3146313817308
 23
183.6389835608664
 33
0.0
  0
MTEXT
  5
19F3
330
147C
100
AcDbEntity
  8
DIM
 62
     0
100
AcDbMText
 10
100.3146313817307
 20
152.9829835608664
 30
0.0
 40
1.875
 41
0.0
 71
     5
 72
     1
  1
\A1;A
  7
TXT
 73
     1
 44
1.0
  0
POINT
  5
19F4
330
147C
100
AcDbEntity
  8
DEFPOINTS
 62
     0
100
AcDbPoint
 10
111.3671313817309
 20
122.3269835608664
 30
0.0
  0
POINT
  5
19F5
330
147C
100
AcDbEntity
  8
DEFPOINTS
 62
     0
100
AcDbPoint
 10
111.3671313817309
 20
183.6389835608664
 30
0.0
  0
POINT
  5
19F6
330
147C
100
AcDbEntity
  8
DEFPOINTS
 62
     0
100
AcDbPoint
 10
100.3146313817308
 20
183.6389835608664
 30
0.0
  0
ENDBLK
  5
1488
330
147C
100
AcDbEntity
  8
0
100
AcDbBlockEnd
  0
BLOCK
  5
1495
330
148A
100
AcDbEntity
  8
0
100
AcDbBlockBegin
  2
*D4
 70
     1
 10
0.0
 20
0.0
 30
0.0
  3
*D4
  1

  0
LINE
  5
1B35
330
148A
100
AcDbEntity
  8
DIM
 62
     0
370
    -2
100
AcDbLine
 10
110.4221313817309
 20
183.6389835608664
 30
0.0
 11
98.91963138173082
 21
183.6389835608664
 31
0.0
  0
LINE
  5
1B36
330
148A
100
AcDbEntity
  8
DIM
 62
     0
370
    -2
100
AcDbLine
 10
108.9846313817308
 20
186.2639835608663
 30
0.0
 11
98.91963138173082
 21
186.2639835608663
 31
0.0
  0
LINE
  5
1B37
330
148A
100
AcDbEntity
  8
DIM
 62
     0
370
    -2
100
AcDbLine
 10
100.3146313817308
 20
180.9389835608664
 30
0.0
 11
100.3146313817308
 21
178.2389835608664
 31
0.0
  0
LINE
  5
1B38
330
148A
100
AcDbEntity
  8
DIM
 62
     0
370
    -2
100
AcDbLine
 10
100.3146313817308
 20
188.9639835608663
 30
0.0
 11
100.3146313817308
 21
191.6639835608664
 31
0.0
  0
SOLID
  5
1B39
330
148A
100
AcDbEntity
  8
DIM
 62
     0
100
AcDbTrace
 10
99.8646313817308
 20
180.9389835608664
 30
0.0
 11
100.7646313817308
 21
180.9389835608664
 31
0.0
 12
100.3146313817308
 22
183.6389835608664
 32
0.0
 13
100.3146313817308
 23
183.6389835608664
 33
0.0
  0
SOLID
  5
1B3A
330
148A
100
AcDbEntity
  8
DIM
 62
     0
100
AcDbTrace
 10
99.8646313817308
 20
188.9639835608663
 30
0.0
 11
100.7646313817308
 21
188.9639835608663
 31
0.0
 12
100.3146313817308
 22
186.2639835608663
 32
0.0
 13
100.3146313817308
 23
186.2639835608663
 33
0.0
  0
MTEXT
  5
1B3B
330
148A
100
AcDbEntity
  8
DIM
 62
     0
100
AcDbMText
 10
100.3146313817307
 20
184.9514835608664
 30
0.0
 40
1.875
 41
0.0
 71
     5
 72
     1
  1
\A1;2.625
  7
TXT
 73
     1
 44
1.0
  0
POINT
  5
1B3C
330
148A
100
AcDbEntity
  8
DEFPOINTS
 62
     0
100
AcDbPoint
 10
111.3671313817309
 20
183.6389835608664
 30
0.0
  0
POINT
  5
1B3D
330
148A
100
AcDbEntity
  8
DEFPOINTS
 62
     0
100
AcDbPoint
 10
109.9296313817307
 20
186.2639835608663
 30
0.0
  0
POINT
  5
1B3E
330
148A
100
AcDbEntity
  8
DEFPOINTS
 62
     0
100
AcDbPoint
 10
100.3146313817308
 20
186.2639835608663
 30
0.0
  0
ENDBLK
  5
1496
330
148A
100
AcDbEntity
  8
0
100
AcDbBlockEnd
  0
BLOCK
  5
14A3
330
1498
100
AcDbEntity
  8
0
100
AcDbBlockBegin
  2
*D5
 70
     1
 10
0.0
 20
0.0
 30
0.0
  3
*D5
  1

  0
LINE
  5
1A02
330
1498
100
AcDbEntity
  8
DIM
 62
     0
370
    -2
100
AcDbLine
 10
132.8746313817308
 20
119.7019835608664
 30
0.0
 11
138.7246313817308
 21
119.7019835608664
 31
0.0
  0
LINE
  5
1A03
330
1498
100
AcDbEntity
  8
DIM
 62
     0
370
    -2
100
AcDbLine
 10
132.8746313817308
 20
186.2639835608663
 30
0.0
 11
138.7246313817308
 21
186.2639835608663
 31
0.0
  0
LINE
  5
1A04
330
1498
100
AcDbEntity
  8
DIM
 62
     0
370
    -2
100
AcDbLine
 10
137.3296313817307
 20
122.4019835608664
 30
0.0
 11
137.3296313817307
 21
150.6954835608664
 31
0.0
  0
LINE
  5
1A05
330
1498
100
AcDbEntity
  8
DIM
 62
     0
370
    -2
100
AcDbLine
 10
137.3296313817307
 20
183.5639835608663
 30
0.0
 11
137.3296313817307
 21
155.2704835608664
 31
0.0
  0
SOLID
  5
1A06
330
1498
100
AcDbEntity
  8
DIM
 62
     0
100
AcDbTrace
 10
136.8796313817308
 20
122.4019835608664
 30
0.0
 11
137.7796313817307
 21
122.4019835608664
 31
0.0
 12
137.3296313817307
 22
119.7019835608664
 32
0.0
 13
137.3296313817307
 23
119.7019835608664
 33
0.0
  0
SOLID
  5
1A07
330
1498
100
AcDbEntity
  8
DIM
 62
     0
100
AcDbTrace
 10
136.8796313817308
 20
183.5639835608663
 30
0.0
 11
137.7796313817307
 21
183.5639835608663
 31
0.0
 12
137.3296313817307
 22
186.2639835608663
 32
0.0
 13
137.3296313817307
 23
186.2639835608663
 33
0.0
  0
MTEXT
  5
1A08
330
1498
100
AcDbEntity
  8
DIM
 62
     0
100
AcDbMText
 10
137.3296313817307
 20
152.9829835608664
 30
0.0
 40
1.875
 41
0.0
 71
     5
 72
     1
  1
\A1;B
  7
TXT
 73
     1
 44
1.0
  0
POINT
  5
1A09
330
1498
100
AcDbEntity
  8
DEFPOINTS
 62
     0
100
AcDbPoint
 10
131.9296313817308
 20
119.7019835608664
 30
0.0
  0
POINT
  5
1A0A
330
1498
100
AcDbEntity
  8
DEFPOINTS
 62
     0
100
AcDbPoint
 10
131.9296313817308
 20
186.2639835608663
 30
0.0
  0
POINT
  5
1A0B
330
1498
100
AcDbEntity
  8
DEFPOINTS
 62
     0
100
AcDbPoint
 10
137.3296313817307
 20
186.2639835608663
 30
0.0
  0
ENDBLK
  5
14A4
330
1498
100
AcDbEntity
  8
0
100
AcDbBlockEnd
  0
BLOCK
  5
14B1
330
14A6
100
AcDbEntity
  8
0
100
AcDbBlockBegin
  2
*D6
 70
     1
 10
0.0
 20
0.0
 30
0.0
  3
*D6
  1

  0
LINE
  5
1A0C
330
14A6
100
AcDbEntity
  8
DIM
 62
     0
370
    -2
100
AcDbLine
 10
64.58753973111254
 20
140.1624835608664
 30
0.0
 11
64.58753973111254
 21
140.6124835608664
 31
0.0
  0
LINE
  5
1A0D
330
14A6
100
AcDbEntity
  8
DIM
 62
     0
370
    -2
100
AcDbLine
 10
88.58753973111246
 20
140.1624835608664
 30
0.0
 11
88.58753973111246
 21
140.6124835608664
 31
0.0
  0
LINE
  5
1A0E
330
14A6
100
AcDbEntity
  8
DIM
 62
     0
370
    -2
100
AcDbLine
 10
67.28753973111254
 20
139.2174835608664
 30
0.0
 11
74.76878973111251
 21
139.2174835608664
 31
0.0
  0
LINE
  5
1A0F
330
14A6
100
AcDbEntity
  8
DIM
 62
     0
370
    -2
100
AcDbLine
 10
85.88753973111245
 20
139.2174835608664
 30
0.0
 11
78.40628973111249
 21
139.2174835608664
 31
0.0
  0
SOLID
  5
1A10
330
14A6
100
AcDbEntity
  8
DIM
 62
     0
100
AcDbTrace
 10
67.28753973111254
 20
139.6674835608664
 30
0.0
 11
67.28753973111254
 21
138.7674835608664
 31
0.0
 12
64.58753973111254
 22
139.2174835608664
 32
0.0
 13
64.58753973111254
 23
139.2174835608664
 33
0.0
  0
SOLID
  5
1A11
330
14A6
100
AcDbEntity
  8
DIM
 62
     0
100
AcDbTrace
 10
85.88753973111245
 20
139.6674835608664
 30
0.0
 11
85.88753973111245
 21
138.7674835608664
 31
0.0
 12
88.58753973111246
 22
139.2174835608664
 32
0.0
 13
88.58753973111246
 23
139.2174835608664
 33
0.0
  0
MTEXT
  5
1A12
330
14A6
100
AcDbEntity
  8
DIM
 62
     0
100
AcDbMText
 10
76.5875397311125
 20
139.2174835608664
 30
0.0
 40
1.875
 41
0.0
 71
     5
 72
     1
  1
\A1;D
  7
TXT
 73
     1
 44
1.0
  0
POINT
  5
1A13
330
14A6
100
AcDbEntity
  8
DEFPOINTS
 62
     0
100
AcDbPoint
 10
64.58753973111254
 20
139.2174835608664
 30
0.0
  0
POINT
  5
1A14
330
14A6
100
AcDbEntity
  8
DEFPOINTS
 62
     0
100
AcDbPoint
 10
88.58753973111246
 20
139.2174835608664
 30
0.0
  0
POINT
  5
1A15
330
14A6
100
AcDbEntity
  8
DEFPOINTS
 62
     0
100
AcDbPoint
 10
88.58753973111246
 20
139.2174835608664
 30
0.0
  0
ENDBLK
  5
14B2
330
14A6
100
AcDbEntity
  8
0
100
AcDbBlockEnd
  0
BLOCK
  5
14BF
330
14B4
100
AcDbEntity
  8
0
100
AcDbBlockBegin
  2
*D7
 70
     1
 10
0.0
 20
0.0
 30
0.0
  3
*D7
  1

  0
LINE
  5
1A16
330
14B4
100
AcDbEntity
  8
DIM
 62
     0
370
    -2
100
AcDbLine
 10
64.26778973111249
 20
154.3579835608664
 30
0.0
 11
55.39153973111257
 21
154.3579835608664
 31
0.0
  0
LINE
  5
1A17
330
14B4
100
AcDbEntity
  8
DIM
 62
     0
370
    -2
100
AcDbLine
 10
64.26778973111254
 20
181.8889835608663
 30
0.0
 11
55.39153973111258
 21
181.8889835608664
 31
0.0
  0
LINE
  5
1A18
330
14B4
100
AcDbEntity
  8
DIM
 62
     0
370
    -2
100
AcDbLine
 10
56.78653973111256
 20
157.0579835608664
 30
0.0
 11
56.78653973111256
 21
165.8359835608664
 31
0.0
  0
LINE
  5
1A19
330
14B4
100
AcDbEntity
  8
DIM
 62
     0
370
    -2
100
AcDbLine
 10
56.78653973111257
 20
179.1889835608664
 30
0.0
 11
56.78653973111256
 21
170.4109835608664
 31
0.0
  0
SOLID
  5
1A1A
330
14B4
100
AcDbEntity
  8
DIM
 62
     0
100
AcDbTrace
 10
56.33653973111256
 20
157.0579835608664
 30
0.0
 11
57.23653973111257
 21
157.0579835608664
 31
0.0
 12
56.78653973111256
 22
154.3579835608664
 32
0.0
 13
56.78653973111256
 23
154.3579835608664
 33
0.0
  0
SOLID
  5
1A1B
330
14B4
100
AcDbEntity
  8
DIM
 62
     0
100
AcDbTrace
 10
56.33653973111257
 20
179.1889835608664
 30
0.0
 11
57.23653973111257
 21
179.1889835608664
 31
0.0
 12
56.78653973111257
 22
181.8889835608664
 32
0.0
 13
56.78653973111257
 23
181.8889835608664
 33
0.0
  0
MTEXT
  5
1A1C
330
14B4
100
AcDbEntity
  8
DIM
 62
     0
100
AcDbMText
 10
56.78653973111253
 20
168.1234835608664
 30
0.0
 40
1.875
 41
0.0
 71
     5
 72
     1
  1
\A1;E
  7
TXT
 73
     1
 44
1.0
  0
POINT
  5
1A1D
330
14B4
100
AcDbEntity
  8
DEFPOINTS
 62
     0
100
AcDbPoint
 10
65.21278973111248
 20
154.3579835608664
 30
0.0
  0
POINT
  5
1A1E
330
14B4
100
AcDbEntity
  8
DEFPOINTS
 62
     0
100
AcDbPoint
 10
65.21278973111254
 20
181.8889835608663
 30
0.0
  0
POINT
  5
1A1F
330
14B4
100
AcDbEntity
  8
DEFPOINTS
 62
     0
100
AcDbPoint
 10
56.78653973111257
 20
181.8889835608664
 30
0.0
  0
ENDBLK
  5
14C0
330
14B4
100
AcDbEntity
  8
0
100
AcDbBlockEnd
  0
BLOCK
  5
14CD
330
14C2
100
AcDbEntity
  8
0
100
AcDbBlockBegin
  2
*D8
 70
     1
 10
0.0
 20
0.0
 30
0.0
  3
*D8
  1

  0
LINE
  5
1AF9
330
14C2
100
AcDbEntity
  8
DIM
 62
     0
370
    -2
100
AcDbLine
 10
64.26778973111254
 20
124.0769835608664
 30
0.0
 11
48.96965191772096
 21
124.0769835608664
 31
0.0
  0
LINE
  5
1AFA
330
14C2
100
AcDbEntity
  8
DIM
 62
     0
370
    -2
100
AcDbLine
 10
62.89253973111254
 20
119.7019835608664
 30
0.0
 11
48.96965191772096
 21
119.7019835608664
 31
0.0
  0
LINE
  5
1AFB
330
14C2
100
AcDbEntity
  8
DIM
 62
     0
370
    -2
100
AcDbLine
 10
50.36465191772096
 20
126.7769835608665
 30
0.0
 11
50.36465191772096
 21
129.4769835608664
 31
0.0
  0
LINE
  5
1AFC
330
14C2
100
AcDbEntity
  8
DIM
 62
     0
370
    -2
100
AcDbLine
 10
50.36465191772096
 20
117.0019835608664
 30
0.0
 11
50.36465191772096
 21
114.3019835608664
 31
0.0
  0
SOLID
  5
1AFD
330
14C2
100
AcDbEntity
  8
DIM
 62
     0
100
AcDbTrace
 10
49.91465191772096
 20
126.7769835608665
 30
0.0
 11
50.81465191772096
 21
126.7769835608665
 31
0.0
 12
50.36465191772096
 22
124.0769835608664
 32
0.0
 13
50.36465191772096
 23
124.0769835608664
 33
0.0
  0
SOLID
  5
1AFE
330
14C2
100
AcDbEntity
  8
DIM
 62
     0
100
AcDbTrace
 10
49.91465191772096
 20
117.0019835608664
 30
0.0
 11
50.81465191772096
 21
117.0019835608664
 31
0.0
 12
50.36465191772096
 22
119.7019835608664
 32
0.0
 13
50.36465191772096
 23
119.7019835608664
 33
0.0
  0
MTEXT
  5
1AFF
330
14C2
100
AcDbEntity
  8
DIM
 62
     0
100
AcDbMText
 10
50.36465191772094
 20
121.8894835608665
 30
0.0
 40
1.875
 41
0.0
 71
     5
 72
     1
  1
\A1;4.375
  7
TXT
 73
     1
 44
1.0
  0
POINT
  5
1B00
330
14C2
100
AcDbEntity
  8
DEFPOINTS
 62
     0
100
AcDbPoint
 10
65.21278973111254
 20
124.0769835608664
 30
0.0
  0
POINT
  5
1B01
330
14C2
100
AcDbEntity
  8
DEFPOINTS
 62
     0
100
AcDbPoint
 10
63.83753973111254
 20
119.7019835608664
 30
0.0
  0
POINT
  5
1B02
330
14C2
100
AcDbEntity
  8
DEFPOINTS
 62
     0
100
AcDbPoint
 10
50.36465191772096
 20
119.7019835608664
 30
0.0
  0
ENDBLK
  5
14CE
330
14C2
100
AcDbEntity
  8
0
100
AcDbBlockEnd
  0
BLOCK
  5
14DB
330
14D0
100
AcDbEntity
  8
0
100
AcDbBlockBegin
  2
*D9
 70
     1
 10
0.0
 20
0.0
 30
0.0
  3
*D9
  1

  0
LINE
  5
1B49
330
14D0
100
AcDbEntity
  8
DIM
 62
     0
370
    -2
100
AcDbLine
 10
110.4221313817309
 20
122.3269835608664
 30
0.0
 11
98.9196313817308
 21
122.3269835608664
 31
0.0
  0
LINE
  5
1B4A
330
14D0
100
AcDbEntity
  8
DIM
 62
     0
370
    -2
100
AcDbLine
 10
108.9846313817308
 20
119.7019835608664
 30
0.0
 11
98.9196313817308
 21
119.7019835608664
 31
0.0
  0
LINE
  5
1B4B
330
14D0
100
AcDbEntity
  8
DIM
 62
     0
370
    -2
100
AcDbLine
 10
100.3146313817308
 20
125.0269835608664
 30
0.0
 11
100.3146313817308
 21
127.7269835608664
 31
0.0
  0
LINE
  5
1B4C
330
14D0
100
AcDbEntity
  8
DIM
 62
     0
370
    -2
100
AcDbLine
 10
100.3146313817308
 20
117.0019835608664
 30
0.0
 11
100.3146313817308
 21
114.3019835608664
 31
0.0
  0
SOLID
  5
1B4D
330
14D0
100
AcDbEntity
  8
DIM
 62
     0
100
AcDbTrace
 10
99.86463138173078
 20
125.0269835608664
 30
0.0
 11
100.7646313817307
 21
125.0269835608664
 31
0.0
 12
100.3146313817308
 22
122.3269835608664
 32
0.0
 13
100.3146313817308
 23
122.3269835608664
 33
0.0
  0
SOLID
  5
1B4E
330
14D0
100
AcDbEntity
  8
DIM
 62
     0
100
AcDbTrace
 10
99.86463138173078
 20
117.0019835608664
 30
0.0
 11
100.7646313817307
 21
117.0019835608664
 31
0.0
 12
100.3146313817308
 22
119.7019835608664
 32
0.0
 13
100.3146313817308
 23
119.7019835608664
 33
0.0
  0
MTEXT
  5
1B4F
330
14D0
100
AcDbEntity
  8
DIM
 62
     0
100
AcDbMText
 10
100.3146313817307
 20
121.0144835608664
 30
0.0
 40
1.875
 41
0.0
 71
     5
 72
     1
  1
\A1;2.625
  7
TXT
 73
     1
 44
1.0
  0
POINT
  5
1B50
330
14D0
100
AcDbEntity
  8
DEFPOINTS
 62
     0
100
AcDbPoint
 10
111.3671313817309
 20
122.3269835608664
 30
0.0
  0
POINT
  5
1B51
330
14D0
100
AcDbEntity
  8
DEFPOINTS
 62
     0
100
AcDbPoint
 10
109.9296313817307
 20
119.7019835608664
 30
0.0
  0
POINT
  5
1B52
330
14D0
100
AcDbEntity
  8
DEFPOINTS
 62
     0
100
AcDbPoint
 10
100.3146313817308
 20
119.7019835608664
 30
0.0
  0
ENDBLK
  5
14DC
330
14D0
100
AcDbEntity
  8
0
100
AcDbBlockEnd
  0
BLOCK
  5
1637
330
162C
100
AcDbEntity
  8
0
100
AcDbBlockBegin
  2
*D10
 70
     1
 10
0.0
 20
0.0
 30
0.0
  3
*D10
  1

  0
LINE
  5
1B21
330
162C
100
AcDbEntity
  8
DIM
 62
     0
370
    -2
100
AcDbLine
 10
64.26778973111249
 20
154.3579835608664
 30
0.0
 11
55.39153973111258
 21
154.3579835608664
 31
0.0
  0
LINE
  5
1B22
330
162C
100
AcDbEntity
  8
DIM
 62
     0
370
    -2
100
AcDbLine
 10
64.26778973111249
 20
151.6079835608664
 30
0.0
 11
55.39153973111258
 21
151.6079835608664
 31
0.0
  0
LINE
  5
1B23
330
162C
100
AcDbEntity
  8
DIM
 62
     0
370
    -2
100
AcDbLine
 10
56.78653973111257
 20
157.0579835608664
 30
0.0
 11
56.78653973111257
 21
159.7579835608664
 31
0.0
  0
LINE
  5
1B24
330
162C
100
AcDbEntity
  8
DIM
 62
     0
370
    -2
100
AcDbLine
 10
56.78653973111257
 20
148.9079835608664
 30
0.0
 11
56.78653973111257
 21
146.2079835608664
 31
0.0
  0
SOLID
  5
1B25
330
162C
100
AcDbEntity
  8
DIM
 62
     0
100
AcDbTrace
 10
56.33653973111258
 20
157.0579835608664
 30
0.0
 11
57.23653973111257
 21
157.0579835608664
 31
0.0
 12
56.78653973111257
 22
154.3579835608664
 32
0.0
 13
56.78653973111257
 23
154.3579835608664
 33
0.0
  0
SOLID
  5
1B26
330
162C
100
AcDbEntity
  8
DIM
 62
     0
100
AcDbTrace
 10
56.33653973111258
 20
148.9079835608664
 30
0.0
 11
57.23653973111257
 21
148.9079835608664
 31
0.0
 12
56.78653973111257
 22
151.6079835608664
 32
0.0
 13
56.78653973111257
 23
151.6079835608664
 33
0.0
  0
MTEXT
  5
1B27
330
162C
100
AcDbEntity
  8
DIM
 62
     0
100
AcDbMText
 10
56.78653973111255
 20
152.9829835608664
 30
0.0
 40
1.875
 41
0.0
 71
     5
 72
     1
  1
\A1;2.750
  7
TXT
 73
     1
 44
1.0
  0
POINT
  5
1B28
330
162C
100
AcDbEntity
  8
DEFPOINTS
 62
     0
100
AcDbPoint
 10
65.21278973111248
 20
154.3579835608664
 30
0.0
  0
POINT
  5
1B29
330
162C
100
AcDbEntity
  8
DEFPOINTS
 62
     0
100
AcDbPoint
 10
65.21278973111248
 20
151.6079835608664
 30
0.0
  0
POINT
  5
1B2A
330
162C
100
AcDbEntity
  8
DEFPOINTS
 62
     0
100
AcDbPoint
 10
56.78653973111257
 20
151.6079835608664
 30
0.0
  0
ENDBLK
  5
1638
330
162C
100
AcDbEntity
  8
0
100
AcDbBlockEnd
  0
BLOCK
  5
1645
330
163A
100
AcDbEntity
  8
0
100
AcDbBlockBegin
  2
*D11
 70
     1
 10
0.0
 20
0.0
 30
0.0
  3
*D11
  1

  0
LINE
  5
1A41
330
163A
100
AcDbEntity
  8
DIM
 62
     0
370
    -2
100
AcDbLine
 10
64.26778973111249
 20
151.6079835608664
 30
0.0
 11
55.39153973111258
 21
151.6079835608664
 31
0.0
  0
LINE
  5
1A42
330
163A
100
AcDbEntity
  8
DIM
 62
     0
370
    -2
100
AcDbLine
 10
64.26778973111249
 20
124.0769835608664
 30
0.0
 11
55.39153973111258
 21
124.0769835608664
 31
0.0
  0
LINE
  5
1A43
330
163A
100
AcDbEntity
  8
DIM
 62
     0
370
    -2
100
AcDbLine
 10
56.78653973111257
 20
148.9079835608664
 30
0.0
 11
56.78653973111257
 21
140.1299835608664
 31
0.0
  0
LINE
  5
1A44
330
163A
100
AcDbEntity
  8
DIM
 62
     0
370
    -2
100
AcDbLine
 10
56.78653973111257
 20
126.7769835608664
 30
0.0
 11
56.78653973111257
 21
135.5549835608664
 31
0.0
  0
SOLID
  5
1A45
330
163A
100
AcDbEntity
  8
DIM
 62
     0
100
AcDbTrace
 10
56.33653973111258
 20
148.9079835608664
 30
0.0
 11
57.23653973111257
 21
148.9079835608664
 31
0.0
 12
56.78653973111257
 22
151.6079835608664
 32
0.0
 13
56.78653973111257
 23
151.6079835608664
 33
0.0
  0
SOLID
  5
1A46
330
163A
100
AcDbEntity
  8
DIM
 62
     0
100
AcDbTrace
 10
56.33653973111257
 20
126.7769835608664
 30
0.0
 11
57.23653973111257
 21
126.7769835608664
 31
0.0
 12
56.78653973111257
 22
124.0769835608664
 32
0.0
 13
56.78653973111257
 23
124.0769835608664
 33
0.0
  0
MTEXT
  5
1A47
330
163A
100
AcDbEntity
  8
DIM
 62
     0
100
AcDbMText
 10
56.78653973111255
 20
137.8424835608664
 30
0.0
 40
1.875
 41
0.0
 71
     5
 72
     1
  1
\A1;E
  7
TXT
 73
     1
 44
1.0
  0
POINT
  5
1A48
330
163A
100
AcDbEntity
  8
DEFPOINTS
 62
     0
100
AcDbPoint
 10
65.21278973111248
 20
151.6079835608664
 30
0.0
  0
POINT
  5
1A49
330
163A
100
AcDbEntity
  8
DEFPOINTS
 62
     0
100
AcDbPoint
 10
65.21278973111248
 20
124.0769835608664
 30
0.0
  0
POINT
  5
1A4A
330
163A
100
AcDbEntity
  8
DEFPOINTS
 62
     0
100
AcDbPoint
 10
56.78653973111257
 20
124.0769835608664
 30
0.0
  0
ENDBLK
  5
1646
330
163A
100
AcDbEntity
  8
0
100
AcDbBlockEnd
  0
BLOCK
  5
1758
330
174E
100
AcDbEntity
  8
0
100
AcDbBlockBegin
  2
*D12
 70
     1
 10
0.0
 20
0.0
 30
0.0
  3
*D12
  1

  0
LINE
  5
1B0D
330
174E
100
AcDbEntity
  8
DIM
 62
     0
370
    -2
100
AcDbLine
 10
25.75922723463013
 20
120.0689835608664
 30
0.0
 11
25.75922723463013
 21
115.5169835608665
 31
0.0
  0
LINE
  5
1B0E
330
174E
100
AcDbEntity
  8
DIM
 62
     0
370
    -2
100
AcDbLine
 10
34.85222723463009
 20
120.0689835608664
 30
0.0
 11
34.85222723463009
 21
115.5169835608665
 31
0.0
  0
LINE
  5
1B0F
330
174E
100
AcDbEntity
  8
DIM
 62
     0
370
    -2
100
AcDbLine
 10
23.05922723463013
 20
116.9119835608664
 30
0.0
 11
20.35922723463013
 21
116.9119835608664
 31
0.0
  0
LINE
  5
1B10
330
174E
100
AcDbEntity
  8
DIM
 62
     0
370
    -2
100
AcDbLine
 10
37.55222723463009
 20
116.9119835608664
 30
0.0
 11
40.25222723463008
 21
116.9119835608664
 31
0.0
  0
SOLID
  5
1B11
330
174E
100
AcDbEntity
  8
DIM
 62
     0
100
AcDbTrace
 10
23.05922723463013
 20
117.3619835608665
 30
0.0
 11
23.05922723463013
 21
116.4619835608664
 31
0.0
 12
25.75922723463013
 22
116.9119835608664
 32
0.0
 13
25.75922723463013
 23
116.9119835608664
 33
0.0
  0
SOLID
  5
1B12
330
174E
100
AcDbEntity
  8
DIM
 62
     0
100
AcDbTrace
 10
37.55222723463009
 20
117.3619835608665
 30
0.0
 11
37.55222723463009
 21
116.4619835608664
 31
0.0
 12
34.85222723463009
 22
116.9119835608664
 32
0.0
 13
34.85222723463009
 23
116.9119835608664
 33
0.0
  0
MTEXT
  5
1B13
330
174E
100
AcDbEntity
  8
DIM
 62
     0
100
AcDbMText
 10
30.73428578404286
 20
116.9119835608664
 30
0.0
 40
1.875
 41
0.0
 71
     5
 72
     1
  1
\A1;9.093
  7
TXT
 73
     1
 44
1.0
  0
POINT
  5
1B14
330
174E
100
AcDbEntity
  8
DEFPOINTS
 62
     0
100
AcDbPoint
 10
25.75922723463013
 20
121.0139835608664
 30
0.0
  0
POINT
  5
1B15
330
174E
100
AcDbEntity
  8
DEFPOINTS
 62
     0
100
AcDbPoint
 10
34.85222723463009
 20
121.0139835608664
 30
0.0
  0
POINT
  5
1B16
330
174E
100
AcDbEntity
  8
DEFPOINTS
 62
     0
100
AcDbPoint
 10
34.85222723463009
 20
116.9119835608664
 30
0.0
  0
ENDBLK
  5
1759
330
174E
100
AcDbEntity
  8
0
100
AcDbBlockEnd
  0
BLOCK
  5
1766
330
175B
100
AcDbEntity
  8
0
100
AcDbBlockBegin
  2
*D13
 70
     1
 10
0.0
 20
0.0
 30
0.0
  3
*D13
  1

  0
LINE
  5
1B03
330
175B
100
AcDbEntity
  8
DIM
 62
     0
370
    -2
100
AcDbLine
 10
34.85222723463009
 20
120.0689835608664
 30
0.0
 11
34.85222723463009
 21
111.3319835608665
 31
0.0
  0
LINE
  5
1B04
330
175B
100
AcDbEntity
  8
DIM
 62
     0
370
    -2
100
AcDbLine
 10
41.30572723463012
 20
118.7569835608665
 30
0.0
 11
41.30572723463012
 21
111.3319835608665
 31
0.0
  0
LINE
  5
1B05
330
175B
100
AcDbEntity
  8
DIM
 62
     0
370
    -2
100
AcDbLine
 10
32.15222723463009
 20
112.7269835608665
 30
0.0
 11
29.45222723463009
 21
112.7269835608665
 31
0.0
  0
LINE
  5
1B06
330
175B
100
AcDbEntity
  8
DIM
 62
     0
370
    -2
100
AcDbLine
 10
44.00572723463012
 20
112.7269835608665
 30
0.0
 11
46.70572723463012
 21
112.7269835608665
 31
0.0
  0
SOLID
  5
1B07
330
175B
100
AcDbEntity
  8
DIM
 62
     0
100
AcDbTrace
 10
32.15222723463009
 20
113.1769835608665
 30
0.0
 11
32.15222723463009
 21
112.2769835608665
 31
0.0
 12
34.85222723463009
 22
112.7269835608665
 32
0.0
 13
34.85222723463009
 23
112.7269835608665
 33
0.0
  0
SOLID
  5
1B08
330
175B
100
AcDbEntity
  8
DIM
 62
     0
100
AcDbTrace
 10
44.00572723463012
 20
113.1769835608665
 30
0.0
 11
44.00572723463012
 21
112.2769835608665
 31
0.0
 12
41.30572723463012
 22
112.7269835608665
 32
0.0
 13
41.30572723463012
 23
112.7269835608665
 33
0.0
  0
MTEXT
  5
1B09
330
175B
100
AcDbEntity
  8
DIM
 62
     0
100
AcDbMText
 10
38.0789772346301
 20
112.7269835608665
 30
0.0
 40
1.875
 41
0.0
 71
     5
 72
     1
  1
\A1;6.454
  7
TXT
 73
     1
 44
1.0
  0
POINT
  5
1B0A
330
175B
100
AcDbEntity
  8
DEFPOINTS
 62
     0
100
AcDbPoint
 10
34.85222723463009
 20
121.0139835608664
 30
0.0
  0
POINT
  5
1B0B
330
175B
100
AcDbEntity
  8
DEFPOINTS
 62
     0
100
AcDbPoint
 10
41.30572723463012
 20
119.7019835608664
 30
0.0
  0
POINT
  5
1B0C
330
175B
100
AcDbEntity
  8
DEFPOINTS
 62
     0
100
AcDbPoint
 10
41.30572723463012
 20
112.7269835608665
 30
0.0
  0
ENDBLK
  5
1767
330
175B
100
AcDbEntity
  8
0
100
AcDbBlockEnd
  0
BLOCK
  5
1774
330
1769
100
AcDbEntity
  8
0
100
AcDbBlockBegin
  2
*D14
 70
     1
 10
0.0
 20
0.0
 30
0.0
  3
*D14
  1

  0
LINE
  5
1A5F
330
1769
100
AcDbEntity
  8
DIM
 62
     0
370
    -2
100
AcDbLine
 10
24.81422723463013
 20
121.0139835608664
 30
0.0
 11
12.51072723463006
 21
121.0139835608664
 31
0.0
  0
LINE
  5
1A60
330
1769
100
AcDbEntity
  8
DIM
 62
     0
370
    -2
100
AcDbLine
 10
18.36072723463005
 20
119.7019835608664
 30
0.0
 11
12.51072723463005
 21
119.7019835608664
 31
0.0
  0
LINE
  5
1A61
330
1769
100
AcDbEntity
  8
DIM
 62
     0
370
    -2
100
AcDbLine
 10
13.90572723463006
 20
123.7139835608664
 30
0.0
 11
13.90572723463006
 21
126.4139835608664
 31
0.0
  0
LINE
  5
1A62
330
1769
100
AcDbEntity
  8
DIM
 62
     0
370
    -2
100
AcDbLine
 10
13.90572723463006
 20
117.0019835608664
 30
0.0
 11
13.90572723463005
 21
114.3019835608664
 31
0.0
  0
LINE
  5
1A63
330
1769
100
AcDbEntity
  8
DIM
 62
     0
370
    -2
100
AcDbLine
 10
13.90572723463005
 20
114.3019835608664
 30
0.0
 11
11.20572723463005
 21
114.3019835608664
 31
0.0
  0
SOLID
  5
1A64
330
1769
100
AcDbEntity
  8
DIM
 62
     0
100
AcDbTrace
 10
13.45572723463006
 20
123.7139835608664
 30
0.0
 11
14.35572723463006
 21
123.7139835608664
 31
0.0
 12
13.90572723463006
 22
121.0139835608664
 32
0.0
 13
13.90572723463006
 23
121.0139835608664
 33
0.0
  0
SOLID
  5
1A65
330
1769
100
AcDbEntity
  8
DIM
 62
     0
100
AcDbTrace
 10
13.45572723463006
 20
117.0019835608664
 30
0.0
 11
14.35572723463006
 21
117.0019835608664
 31
0.0
 12
13.90572723463006
 22
119.7019835608664
 32
0.0
 13
13.90572723463006
 23
119.7019835608664
 33
0.0
  0
MTEXT
  5
1A66
330
1769
100
AcDbEntity
  8
DIM
 62
     0
100
AcDbMText
 10
7.511977234630041
 20
114.3019835608664
 30
0.0
 40
1.875
 41
0.0
 71
     5
 72
     1
  1
\A1;1.312
  7
TXT
 73
     1
 44
1.0
  0
POINT
  5
1A67
330
1769
100
AcDbEntity
  8
DEFPOINTS
 62
     0
100
AcDbPoint
 10
25.75922723463013
 20
121.0139835608664
 30
0.0
  0
POINT
  5
1A68
330
1769
100
AcDbEntity
  8
DEFPOINTS
 62
     0
100
AcDbPoint
 10
19.30572723463005
 20
119.7019835608664
 30
0.0
  0
POINT
  5
1A69
330
1769
100
AcDbEntity
  8
DEFPOINTS
 62
     0
100
AcDbPoint
 10
13.90572723463006
 20
119.7019835608664
 30
0.0
  0
ENDBLK
  5
1775
330
1769
100
AcDbEntity
  8
0
100
AcDbBlockEnd
  0
BLOCK
  5
1782
330
1777
100
AcDbEntity
  8
0
100
AcDbBlockBegin
  2
*D15
 70
     1
 10
0.0
 20
0.0
 30
0.0
  3
*D15
  1

  0
LINE
  5
1A6A
330
1777
100
AcDbEntity
  8
DIM
 62
     0
370
    -2
100
AcDbLine
 10
64.26778973111249
 20
124.0769835608664
 30
0.0
 11
48.96965191772096
 21
124.0769835608664
 31
0.0
  0
LINE
  5
1A6B
330
1777
100
AcDbEntity
  8
DIM
 62
     0
370
    -2
100
AcDbLine
 10
64.26778973111249
 20
181.8889835608663
 30
0.0
 11
48.96965191772098
 21
181.8889835608664
 31
0.0
  0
LINE
  5
1A6C
330
1777
100
AcDbEntity
  8
DIM
 62
     0
370
    -2
100
AcDbLine
 10
50.36465191772096
 20
126.7769835608664
 30
0.0
 11
50.36465191772097
 21
150.6954835608664
 31
0.0
  0
LINE
  5
1A6D
330
1777
100
AcDbEntity
  8
DIM
 62
     0
370
    -2
100
AcDbLine
 10
50.36465191772098
 20
179.1889835608664
 30
0.0
 11
50.36465191772097
 21
155.2704835608664
 31
0.0
  0
SOLID
  5
1A6E
330
1777
100
AcDbEntity
  8
DIM
 62
     0
100
AcDbTrace
 10
49.91465191772096
 20
126.7769835608664
 30
0.0
 11
50.81465191772096
 21
126.7769835608664
 31
0.0
 12
50.36465191772096
 22
124.0769835608664
 32
0.0
 13
50.36465191772096
 23
124.0769835608664
 33
0.0
  0
SOLID
  5
1A6F
330
1777
100
AcDbEntity
  8
DIM
 62
     0
100
AcDbTrace
 10
49.91465191772097
 20
179.1889835608664
 30
0.0
 11
50.81465191772098
 21
179.1889835608664
 31
0.0
 12
50.36465191772098
 22
181.8889835608664
 32
0.0
 13
50.36465191772098
 23
181.8889835608664
 33
0.0
  0
MTEXT
  5
1A70
330
1777
100
AcDbEntity
  8
DIM
 62
     0
100
AcDbMText
 10
50.36465191772094
 20
152.9829835608664
 30
0.0
 40
1.875
 41
0.0
 71
     5
 72
     1
  1
\A1;F
  7
TXT
 73
     1
 44
1.0
  0
POINT
  5
1A71
330
1777
100
AcDbEntity
  8
DEFPOINTS
 62
     0
100
AcDbPoint
 10
65.21278973111248
 20
124.0769835608664
 30
0.0
  0
POINT
  5
1A72
330
1777
100
AcDbEntity
  8
DEFPOINTS
 62
     0
100
AcDbPoint
 10
65.21278973111248
 20
181.8889835608663
 30
0.0
  0
POINT
  5
1A73
330
1777
100
AcDbEntity
  8
DEFPOINTS
 62
     0
100
AcDbPoint
 10
50.36465191772098
 20
181.8889835608664
 30
0.0
  0
ENDBLK
  5
1783
330
1777
100
AcDbEntity
  8
0
100
AcDbBlockEnd
  0
BLOCK
  5
17E9
330
17DE
100
AcDbEntity
  8
0
100
AcDbBlockBegin
  2
*D16
 70
     1
 10
0.0
 20
0.0
 30
0.0
  3
*D16
  1

  0
LINE
  5
1A74
330
17DE
100
AcDbEntity
  8
DIM
 62
     0
370
    -2
100
AcDbLine
 10
63.8375397311125
 20
187.2089835608663
 30
0.0
 11
63.8375397311125
 21
191.7539835608664
 31
0.0
  0
LINE
  5
1A75
330
17DE
100
AcDbEntity
  8
DIM
 62
     0
370
    -2
100
AcDbLine
 10
89.33753973111246
 20
187.2089835608663
 30
0.0
 11
89.33753973111246
 21
191.7539835608664
 31
0.0
  0
LINE
  5
1A76
330
17DE
100
AcDbEntity
  8
DIM
 62
     0
370
    -2
100
AcDbLine
 10
66.5375397311125
 20
190.3589835608664
 30
0.0
 11
74.76878973111249
 21
190.3589835608664
 31
0.0
  0
LINE
  5
1A77
330
17DE
100
AcDbEntity
  8
DIM
 62
     0
370
    -2
100
AcDbLine
 10
86.63753973111246
 20
190.3589835608664
 30
0.0
 11
78.40628973111248
 21
190.3589835608664
 31
0.0
  0
SOLID
  5
1A78
330
17DE
100
AcDbEntity
  8
DIM
 62
     0
100
AcDbTrace
 10
66.5375397311125
 20
190.8089835608664
 30
0.0
 11
66.5375397311125
 21
189.9089835608664
 31
0.0
 12
63.8375397311125
 22
190.3589835608664
 32
0.0
 13
63.8375397311125
 23
190.3589835608664
 33
0.0
  0
SOLID
  5
1A79
330
17DE
100
AcDbEntity
  8
DIM
 62
     0
100
AcDbTrace
 10
86.63753973111246
 20
190.8089835608664
 30
0.0
 11
86.63753973111246
 21
189.9089835608664
 31
0.0
 12
89.33753973111246
 22
190.3589835608664
 32
0.0
 13
89.33753973111246
 23
190.3589835608664
 33
0.0
  0
MTEXT
  5
1A7A
330
17DE
100
AcDbEntity
  8
DIM
 62
     0
100
AcDbMText
 10
76.58753973111249
 20
190.3589835608664
 30
0.0
 40
1.875
 41
0.0
 71
     5
 72
     1
  1
\A1;C
  7
TXT
 73
     1
 44
1.0
  0
POINT
  5
1A7B
330
17DE
100
AcDbEntity
  8
DEFPOINTS
 62
     0
100
AcDbPoint
 10
63.8375397311125
 20
186.2639835608663
 30
0.0
  0
POINT
  5
1A7C
330
17DE
100
AcDbEntity
  8
DEFPOINTS
 62
     0
100
AcDbPoint
 10
89.33753973111246
 20
186.2639835608663
 30
0.0
  0
POINT
  5
1A7D
330
17DE
100
AcDbEntity
  8
DEFPOINTS
 62
     0
100
AcDbPoint
 10
89.33753973111246
 20
190.3589835608664
 30
0.0
  0
ENDBLK
  5
17EA
330
17DE
100
AcDbEntity
  8
0
100
AcDbBlockEnd
  0
BLOCK
  5
18C2
330
18B7
100
AcDbEntity
  8
0
100
AcDbBlockBegin
  2
*D17
 70
     1
 10
0.0
 20
0.0
 30
0.0
  3
*D17
  1

  0
LINE
  5
1A7E
330
18B7
100
AcDbEntity
  8
DIM
 62
     0
370
    -2
100
AcDbLine
 10
111.3906313817307
 20
103.2642519744548
 30
0.0
 11
103.1346313817308
 21
103.2642519744548
 31
0.0
  0
LINE
  5
1A7F
330
18B7
100
AcDbEntity
  8
DIM
 62
     0
370
    -2
100
AcDbLine
 10
111.3906313817307
 20
100.2642519744548
 30
0.0
 11
103.1346313817308
 21
100.2642519744548
 31
0.0
  0
LINE
  5
1A80
330
18B7
100
AcDbEntity
  8
DIM
 62
     0
370
    -2
100
AcDbLine
 10
104.5296313817308
 20
105.9642519744548
 30
0.0
 11
104.5296313817308
 21
108.6642519744548
 31
0.0
  0
LINE
  5
1A81
330
18B7
100
AcDbEntity
  8
DIM
 62
     0
370
    -2
100
AcDbLine
 10
104.5296313817308
 20
97.5642519744548
 30
0.0
 11
104.5296313817307
 21
94.8642519744548
 31
0.0
  0
LINE
  5
1A82
330
18B7
100
AcDbEntity
  8
DIM
 62
     0
370
    -2
100
AcDbLine
 10
104.5296313817307
 20
94.8642519744548
 30
0.0
 11
101.8296313817308
 21
94.8642519744548
 31
0.0
  0
SOLID
  5
1A83
330
18B7
100
AcDbEntity
  8
DIM
 62
     0
100
AcDbTrace
 10
104.0796313817307
 20
105.9642519744548
 30
0.0
 11
104.9796313817308
 21
105.9642519744548
 31
0.0
 12
104.5296313817308
 22
103.2642519744548
 32
0.0
 13
104.5296313817308
 23
103.2642519744548
 33
0.0
  0
SOLID
  5
1A84
330
18B7
100
AcDbEntity
  8
DIM
 62
     0
100
AcDbTrace
 10
104.0796313817307
 20
97.5642519744548
 30
0.0
 11
104.9796313817308
 21
97.5642519744548
 31
0.0
 12
104.5296313817308
 22
100.2642519744548
 32
0.0
 13
104.5296313817308
 23
100.2642519744548
 33
0.0
  0
MTEXT
  5
1A85
330
18B7
100
AcDbEntity
  8
DIM
 62
     0
100
AcDbMText
 10
98.01869388173079
 20
94.86425197445482
 30
0.0
 40
1.875
 41
0.0
 71
     5
 72
     1
  1
\A1;3.000
  7
TXT
 73
     1
 44
1.0
  0
POINT
  5
1A86
330
18B7
100
AcDbEntity
  8
DEFPOINTS
 62
     0
100
AcDbPoint
 10
112.3356313817307
 20
103.2642519744548
 30
0.0
  0
POINT
  5
1A87
330
18B7
100
AcDbEntity
  8
DEFPOINTS
 62
     0
100
AcDbPoint
 10
112.3356313817307
 20
100.2642519744548
 30
0.0
  0
POINT
  5
1A88
330
18B7
100
AcDbEntity
  8
DEFPOINTS
 62
     0
100
AcDbPoint
 10
104.5296313817308
 20
100.2642519744548
 30
0.0
  0
ENDBLK
  5
18C3
330
18B7
100
AcDbEntity
  8
0
100
AcDbBlockEnd
  0
BLOCK
  5
18D0
330
18C5
100
AcDbEntity
  8
0
100
AcDbBlockBegin
  2
*D18
 70
     1
 10
0.0
 20
0.0
 30
0.0
  3
*D18
  1

  0
LINE
  5
1A89
330
18C5
100
AcDbEntity
  8
DIM
 62
     0
370
    -2
100
AcDbLine
 10
108.9846313817308
 20
105.0922519744547
 30
0.0
 11
98.91963138173082
 21
105.0922519744547
 31
0.0
  0
LINE
  5
1A8A
330
18C5
100
AcDbEntity
  8
DIM
 62
     0
370
    -2
100
AcDbLine
 10
111.3906313817307
 20
103.2642519744548
 30
0.0
 11
98.91963138173082
 21
103.2642519744548
 31
0.0
  0
LINE
  5
1A8B
330
18C5
100
AcDbEntity
  8
DIM
 62
     0
370
    -2
100
AcDbLine
 10
100.3146313817308
 20
107.7922519744548
 30
0.0
 11
100.3146313817308
 21
110.4922519744548
 31
0.0
  0
LINE
  5
1A8C
330
18C5
100
AcDbEntity
  8
DIM
 62
     0
370
    -2
100
AcDbLine
 10
100.3146313817308
 20
100.5642519744547
 30
0.0
 11
100.3146313817308
 21
97.86425197445481
 31
0.0
  0
LINE
  5
1A8D
330
18C5
100
AcDbEntity
  8
DIM
 62
     0
370
    -2
100
AcDbLine
 10
100.3146313817308
 20
97.86425197445481
 30
0.0
 11
97.6146313817308
 21
97.86425197445481
 31
0.0
  0
SOLID
  5
1A8E
330
18C5
100
AcDbEntity
  8
DIM
 62
     0
100
AcDbTrace
 10
99.8646313817308
 20
107.7922519744548
 30
0.0
 11
100.7646313817308
 21
107.7922519744548
 31
0.0
 12
100.3146313817308
 22
105.0922519744547
 32
0.0
 13
100.3146313817308
 23
105.0922519744547
 33
0.0
  0
SOLID
  5
1A8F
330
18C5
100
AcDbEntity
  8
DIM
 62
     0
100
AcDbTrace
 10
99.8646313817308
 20
100.5642519744547
 30
0.0
 11
100.7646313817308
 21
100.5642519744547
 31
0.0
 12
100.3146313817308
 22
103.2642519744548
 32
0.0
 13
100.3146313817308
 23
103.2642519744548
 33
0.0
  0
MTEXT
  5
1A90
330
18C5
100
AcDbEntity
  8
DIM
 62
     0
100
AcDbMText
 10
93.68650638173077
 20
97.86425197445483
 30
0.0
 40
1.875
 41
0.0
 71
     5
 72
     1
  1
\A1;1.828
  7
TXT
 73
     1
 44
1.0
  0
POINT
  5
1A91
330
18C5
100
AcDbEntity
  8
DEFPOINTS
 62
     0
100
AcDbPoint
 10
109.9296313817307
 20
105.0922519744547
 30
0.0
  0
POINT
  5
1A92
330
18C5
100
AcDbEntity
  8
DEFPOINTS
 62
     0
100
AcDbPoint
 10
112.3356313817307
 20
103.2642519744548
 30
0.0
  0
POINT
  5
1A93
330
18C5
100
AcDbEntity
  8
DEFPOINTS
 62
     0
100
AcDbPoint
 10
100.3146313817308
 20
103.2642519744548
 30
0.0
  0
ENDBLK
  5
18D1
330
18C5
100
AcDbEntity
  8
0
100
AcDbBlockEnd
  0
BLOCK
  5
18E0
330
18D5
100
AcDbEntity
  8
0
100
AcDbBlockBegin
  2
*D19
 70
     1
 10
0.0
 20
0.0
 30
0.0
  3
*D19
  1

  0
LINE
  5
1A94
330
18D5
100
AcDbEntity
  8
DIM
 62
     0
370
    -2
100
AcDbLine
 10
112.3356313817307
 20
104.2092519744548
 30
0.0
 11
112.3356313817307
 21
109.1872519744548
 31
0.0
  0
LINE
  5
1A95
330
18D5
100
AcDbEntity
  8
DIM
 62
     0
370
    -2
100
AcDbLine
 10
114.0856313817307
 20
104.2092519744548
 30
0.0
 11
114.0856313817307
 21
109.1872519744548
 31
0.0
  0
LINE
  5
1A96
330
18D5
100
AcDbEntity
  8
DIM
 62
     0
370
    -2
100
AcDbLine
 10
109.6356313817307
 20
107.7922519744549
 30
0.0
 11
106.9356313817307
 21
107.7922519744549
 31
0.0
  0
LINE
  5
1A97
330
18D5
100
AcDbEntity
  8
DIM
 62
     0
370
    -2
100
AcDbLine
 10
116.7856313817307
 20
107.7922519744549
 30
0.0
 11
119.4856313817307
 21
107.7922519744549
 31
0.0
  0
SOLID
  5
1A98
330
18D5
100
AcDbEntity
  8
DIM
 62
     0
100
AcDbTrace
 10
109.6356313817307
 20
108.2422519744548
 30
0.0
 11
109.6356313817307
 21
107.3422519744549
 31
0.0
 12
112.3356313817307
 22
107.7922519744549
 32
0.0
 13
112.3356313817307
 23
107.7922519744549
 33
0.0
  0
SOLID
  5
1A99
330
18D5
100
AcDbEntity
  8
DIM
 62
     0
100
AcDbTrace
 10
116.7856313817307
 20
108.2422519744548
 30
0.0
 11
116.7856313817307
 21
107.3422519744549
 31
0.0
 12
114.0856313817307
 22
107.7922519744549
 32
0.0
 13
114.0856313817307
 23
107.7922519744549
 33
0.0
  0
MTEXT
  5
1A9A
330
18D5
100
AcDbEntity
  8
DIM
 62
     0
100
AcDbMText
 10
123.2965688817307
 20
107.7922519744549
 30
0.0
 40
1.875
 41
0.0
 71
     5
 72
     1
  1
\A1;1.750
  7
TXT
 73
     1
 44
1.0
  0
POINT
  5
1A9B
330
18D5
100
AcDbEntity
  8
DEFPOINTS
 62
     0
100
AcDbPoint
 10
112.3356313817307
 20
103.2642519744548
 30
0.0
  0
POINT
  5
1A9C
330
18D5
100
AcDbEntity
  8
DEFPOINTS
 62
     0
100
AcDbPoint
 10
114.0856313817307
 20
103.2642519744548
 30
0.0
  0
POINT
  5
1A9D
330
18D5
100
AcDbEntity
  8
DEFPOINTS
 62
     0
100
AcDbPoint
 10
114.0856313817307
 20
107.7922519744549
 30
0.0
  0
ENDBLK
  5
18E1
330
18D5
100
AcDbEntity
  8
0
100
AcDbBlockEnd
  0
BLOCK
  5
18EE
330
18E3
100
AcDbEntity
  8
0
100
AcDbBlockBegin
  2
*D20
 70
     1
 10
0.0
 20
0.0
 30
0.0
  3
*D20
  1

  0
LINE
  5
1A9E
330
18E3
100
AcDbEntity
  8
DIM
 62
     0
370
    -2
100
AcDbLine
 10
109.9296313817307
 20
106.0372519744547
 30
0.0
 11
109.9296313817307
 21
113.4022519744549
 31
0.0
  0
LINE
  5
1A9F
330
18E3
100
AcDbEntity
  8
DIM
 62
     0
370
    -2
100
AcDbLine
 10
112.3356313817307
 20
104.2092519744548
 30
0.0
 11
112.3356313817307
 21
113.4022519744549
 31
0.0
  0
LINE
  5
1AA0
330
18E3
100
AcDbEntity
  8
DIM
 62
     0
370
    -2
100
AcDbLine
 10
107.2296313817308
 20
112.0072519744549
 30
0.0
 11
104.5296313817307
 21
112.0072519744549
 31
0.0
  0
LINE
  5
1AA1
330
18E3
100
AcDbEntity
  8
DIM
 62
     0
370
    -2
100
AcDbLine
 10
115.0356313817307
 20
112.0072519744549
 30
0.0
 11
117.7356313817307
 21
112.0072519744549
 31
0.0
  0
SOLID
  5
1AA2
330
18E3
100
AcDbEntity
  8
DIM
 62
     0
100
AcDbTrace
 10
107.2296313817308
 20
112.4572519744549
 30
0.0
 11
107.2296313817308
 21
111.5572519744548
 31
0.0
 12
109.9296313817307
 22
112.0072519744549
 32
0.0
 13
109.9296313817307
 23
112.0072519744549
 33
0.0
  0
SOLID
  5
1AA3
330
18E3
100
AcDbEntity
  8
DIM
 62
     0
100
AcDbTrace
 10
115.0356313817307
 20
112.4572519744549
 30
0.0
 11
115.0356313817307
 21
111.5572519744548
 31
0.0
 12
112.3356313817307
 22
112.0072519744549
 32
0.0
 13
112.3356313817307
 23
112.0072519744549
 33
0.0
  0
MTEXT
  5
1AA4
330
18E3
100
AcDbEntity
  8
DIM
 62
     0
100
AcDbMText
 10
121.7809438817307
 20
112.0072519744549
 30
0.0
 40
1.875
 41
0.0
 71
     5
 72
     1
  1
\A1;2.406
  7
TXT
 73
     1
 44
1.0
  0
POINT
  5
1AA5
330
18E3
100
AcDbEntity
  8
DEFPOINTS
 62
     0
100
AcDbPoint
 10
109.9296313817307
 20
105.0922519744547
 30
0.0
  0
POINT
  5
1AA6
330
18E3
100
AcDbEntity
  8
DEFPOINTS
 62
     0
100
AcDbPoint
 10
112.3356313817307
 20
103.2642519744548
 30
0.0
  0
POINT
  5
1AA7
330
18E3
100
AcDbEntity
  8
DEFPOINTS
 62
     0
100
AcDbPoint
 10
112.3356313817307
 20
112.0072519744549
 30
0.0
  0
ENDBLK
  5
18EF
330
18E3
100
AcDbEntity
  8
0
100
AcDbBlockEnd
  0
BLOCK
  5
1903
330
18F8
100
AcDbEntity
  8
0
100
AcDbBlockBegin
  2
*D21
 70
     1
 10
0.0
 20
0.0
 30
0.0
  3
*D21
  1

  0
LINE
  5
1AA8
330
18F8
100
AcDbEntity
  8
DIM
 62
     0
370
    -2
100
AcDbLine
 10
111.3671313817309
 20
170.3832811864538
 30
0.0
 11
111.3671313817309
 21
170.8332811864539
 31
0.0
  0
LINE
  5
1AA9
330
18F8
100
AcDbEntity
  8
DIM
 62
     0
370
    -2
100
AcDbLine
 10
130.4921313817309
 20
170.3832811864538
 30
0.0
 11
130.4921313817309
 21
170.8332811864539
 31
0.0
  0
LINE
  5
1AAA
330
18F8
100
AcDbEntity
  8
DIM
 62
     0
370
    -2
100
AcDbLine
 10
108.667131381731
 20
169.4382811864539
 30
0.0
 11
105.9671313817309
 21
169.4382811864539
 31
0.0
  0
LINE
  5
1AAB
330
18F8
100
AcDbEntity
  8
DIM
 62
     0
370
    -2
100
AcDbLine
 10
133.1921313817308
 20
169.4382811864539
 30
0.0
 11
135.8921313817309
 21
169.4382811864539
 31
0.0
  0
SOLID
  5
1AAC
330
18F8
100
AcDbEntity
  8
DIM
 62
     0
100
AcDbTrace
 10
108.667131381731
 20
169.8882811864538
 30
0.0
 11
108.667131381731
 21
168.9882811864539
 31
0.0
 12
111.3671313817309
 22
169.4382811864539
 32
0.0
 13
111.3671313817309
 23
169.4382811864539
 33
0.0
  0
SOLID
  5
1AAD
330
18F8
100
AcDbEntity
  8
DIM
 62
     0
100
AcDbTrace
 10
133.1921313817308
 20
169.8882811864538
 30
0.0
 11
133.1921313817308
 21
168.9882811864539
 31
0.0
 12
130.4921313817309
 22
169.4382811864539
 32
0.0
 13
130.4921313817309
 23
169.4382811864539
 33
0.0
  0
MTEXT
  5
1AAE
330
18F8
100
AcDbEntity
  8
DIM
 62
     0
100
AcDbMText
 10
120.9296313817309
 20
169.4382811864539
 30
0.0
 40
1.875
 41
0.0
 71
     5
 72
     1
  1
\A1;19.125 %%p0.031
  7
TXT
 73
     1
 44
1.0
  0
POINT
  5
1AAF
330
18F8
100
AcDbEntity
  8
DEFPOINTS
 62
     0
100
AcDbPoint
 10
111.3671313817309
 20
169.4382811864539
 30
0.0
  0
POINT
  5
1AB0
330
18F8
100
AcDbEntity
  8
DEFPOINTS
 62
     0
100
AcDbPoint
 10
130.4921313817309
 20
169.4382811864539
 30
0.0
  0
POINT
  5
1AB1
330
18F8
100
AcDbEntity
  8
DEFPOINTS
 62
     0
100
AcDbPoint
 10
130.4921313817309
 20
169.4382811864539
 30
0.0
  0
ENDBLK
  5
1904
330
18F8
100
AcDbEntity
  8
0
100
AcDbBlockEnd
  0
BLOCK
  5
1911
330
1906
100
AcDbEntity
  8
0
100
AcDbBlockBegin
  2
*D22
 70
     1
 10
0.0
 20
0.0
 30
0.0
  3
*D22
  1

  0
LINE
  5
1AB2
330
1906
100
AcDbEntity
  8
DIM
 62
     0
370
    -2
100
AcDbLine
 10
111.7741313817308
 20
174.5710445787487
 30
0.0
 11
111.7741313817308
 21
175.0210445787488
 31
0.0
  0
LINE
  5
1AB3
330
1906
100
AcDbEntity
  8
DIM
 62
     0
370
    -2
100
AcDbLine
 10
130.0861313817309
 20
174.5710445787487
 30
0.0
 11
130.0861313817309
 21
175.0210445787488
 31
0.0
  0
LINE
  5
1AB4
330
1906
100
AcDbEntity
  8
DIM
 62
     0
370
    -2
100
AcDbLine
 10
109.0741313817308
 20
173.6260445787488
 30
0.0
 11
106.3741313817308
 21
173.6260445787488
 31
0.0
  0
LINE
  5
1AB5
330
1906
100
AcDbEntity
  8
DIM
 62
     0
370
    -2
100
AcDbLine
 10
132.7861313817308
 20
173.6260445787488
 30
0.0
 11
135.4861313817309
 21
173.6260445787488
 31
0.0
  0
SOLID
  5
1AB6
330
1906
100
AcDbEntity
  8
DIM
 62
     0
100
AcDbTrace
 10
109.0741313817308
 20
174.0760445787487
 30
0.0
 11
109.0741313817308
 21
173.1760445787488
 31
0.0
 12
111.7741313817308
 22
173.6260445787488
 32
0.0
 13
111.7741313817308
 23
173.6260445787488
 33
0.0
  0
SOLID
  5
1AB7
330
1906
100
AcDbEntity
  8
DIM
 62
     0
100
AcDbTrace
 10
132.7861313817308
 20
174.0760445787487
 30
0.0
 11
132.7861313817308
 21
173.1760445787488
 31
0.0
 12
130.0861313817309
 22
173.6260445787488
 32
0.0
 13
130.0861313817309
 23
173.6260445787488
 33
0.0
  0
MTEXT
  5
1AB8
330
1906
100
AcDbEntity
  8
DIM
 62
     0
100
AcDbMText
 10
120.9301313817308
 20
173.6260445787488
 30
0.0
 40
1.875
 41
0.0
 71
     5
 72
     1
  1
\A1;18.312 %%p0.062
  7
TXT
 73
     1
 44
1.0
  0
POINT
  5
1AB9
330
1906
100
AcDbEntity
  8
DEFPOINTS
 62
     0
100
AcDbPoint
 10
111.7741313817308
 20
173.6260445787488
 30
0.0
  0
POINT
  5
1ABA
330
1906
100
AcDbEntity
  8
DEFPOINTS
 62
     0
100
AcDbPoint
 10
130.0861313817309
 20
173.6260445787488
 30
0.0
  0
POINT
  5
1ABB
330
1906
100
AcDbEntity
  8
DEFPOINTS
 62
     0
100
AcDbPoint
 10
130.0861313817309
 20
173.6260445787488
 30
0.0
  0
ENDBLK
  5
1912
330
1906
100
AcDbEntity
  8
0
100
AcDbBlockEnd
  0
BLOCK
  5
191F
330
1914
100
AcDbEntity
  8
0
100
AcDbBlockBegin
  2
*D23
 70
     1
 10
0.0
 20
0.0
 30
0.0
  3
*D23
  1

  0
LINE
  5
1ABC
330
1914
100
AcDbEntity
  8
DIM
 62
     0
370
    -2
100
AcDbLine
 10
111.9618813817307
 20
178.5893263015771
 30
0.0
 11
111.9618813817307
 21
179.0393263015771
 31
0.0
  0
LINE
  5
1ABD
330
1914
100
AcDbEntity
  8
DIM
 62
     0
370
    -2
100
AcDbLine
 10
129.8986313817308
 20
178.5893263015771
 30
0.0
 11
129.8986313817308
 21
179.0393263015771
 31
0.0
  0
LINE
  5
1ABE
330
1914
100
AcDbEntity
  8
DIM
 62
     0
370
    -2
100
AcDbLine
 10
109.2618813817308
 20
177.6443263015771
 30
0.0
 11
106.5618813817307
 21
177.6443263015771
 31
0.0
  0
LINE
  5
1ABF
330
1914
100
AcDbEntity
  8
DIM
 62
     0
370
    -2
100
AcDbLine
 10
132.5986313817308
 20
177.6443263015771
 30
0.0
 11
135.2986313817308
 21
177.6443263015771
 31
0.0
  0
SOLID
  5
1AC0
330
1914
100
AcDbEntity
  8
DIM
 62
     0
100
AcDbTrace
 10
109.2618813817308
 20
178.0943263015771
 30
0.0
 11
109.2618813817308
 21
177.1943263015771
 31
0.0
 12
111.9618813817307
 22
177.6443263015771
 32
0.0
 13
111.9618813817307
 23
177.6443263015771
 33
0.0
  0
SOLID
  5
1AC1
330
1914
100
AcDbEntity
  8
DIM
 62
     0
100
AcDbTrace
 10
132.5986313817308
 20
178.0943263015771
 30
0.0
 11
132.5986313817308
 21
177.1943263015771
 31
0.0
 12
129.8986313817308
 22
177.6443263015771
 32
0.0
 13
129.8986313817308
 23
177.6443263015771
 33
0.0
  0
MTEXT
  5
1AC2
330
1914
100
AcDbEntity
  8
DIM
 62
     0
100
AcDbMText
 10
120.9302563817308
 20
177.6443263015771
 30
0.0
 40
1.875
 41
0.0
 71
     5
 72
     1
  1
\A1;17.937 %%p0.093
  7
TXT
 73
     1
 44
1.0
  0
POINT
  5
1AC3
330
1914
100
AcDbEntity
  8
DEFPOINTS
 62
     0
100
AcDbPoint
 10
111.9618813817307
 20
177.6443263015771
 30
0.0
  0
POINT
  5
1AC4
330
1914
100
AcDbEntity
  8
DEFPOINTS
 62
     0
100
AcDbPoint
 10
129.8986313817308
 20
177.6443263015771
 30
0.0
  0
POINT
  5
1AC5
330
1914
100
AcDbEntity
  8
DEFPOINTS
 62
     0
100
AcDbPoint
 10
129.8986313817308
 20
177.6443263015771
 30
0.0
  0
ENDBLK
  5
1920
330
1914
100
AcDbEntity
  8
0
100
AcDbBlockEnd
  0
BLOCK
  5
192D
330
1922
100
AcDbEntity
  8
0
100
AcDbBlockBegin
  2
*D24
 70
     1
 10
0.0
 20
0.0
 30
0.0
  3
*D24
  1

  0
LINE
  5
1AC6
330
1922
100
AcDbEntity
  8
DIM
 62
     0
370
    -2
100
AcDbLine
 10
109.9296313817309
 20
187.2089835608663
 30
0.0
 11
109.9296313817309
 21
191.7539835608664
 31
0.0
  0
LINE
  5
1AC7
330
1922
100
AcDbEntity
  8
DIM
 62
     0
370
    -2
100
AcDbLine
 10
131.9296313817308
 20
187.2089835608663
 30
0.0
 11
131.9296313817308
 21
191.7539835608664
 31
0.0
  0
LINE
  5
1AC8
330
1922
100
AcDbEntity
  8
DIM
 62
     0
370
    -2
100
AcDbLine
 10
107.2296313817308
 20
190.3589835608664
 30
0.0
 11
104.5296313817309
 21
190.3589835608664
 31
0.0
  0
LINE
  5
1AC9
330
1922
100
AcDbEntity
  8
DIM
 62
     0
370
    -2
100
AcDbLine
 10
134.6296313817308
 20
190.3589835608664
 30
0.0
 11
137.3296313817308
 21
190.3589835608664
 31
0.0
  0
SOLID
  5
1ACA
330
1922
100
AcDbEntity
  8
DIM
 62
     0
100
AcDbTrace
 10
107.2296313817308
 20
190.8089835608664
 30
0.0
 11
107.2296313817308
 21
189.9089835608664
 31
0.0
 12
109.9296313817309
 22
190.3589835608664
 32
0.0
 13
109.9296313817309
 23
190.3589835608664
 33
0.0
  0
SOLID
  5
1ACB
330
1922
100
AcDbEntity
  8
DIM
 62
     0
100
AcDbTrace
 10
134.6296313817308
 20
190.8089835608664
 30
0.0
 11
134.6296313817308
 21
189.9089835608664
 31
0.0
 12
131.9296313817308
 22
190.3589835608664
 32
0.0
 13
131.9296313817308
 23
190.3589835608664
 33
0.0
  0
MTEXT
  5
1ACC
330
1922
100
AcDbEntity
  8
DIM
 62
     0
100
AcDbMText
 10
120.9296313817308
 20
190.3589835608664
 30
0.0
 40
1.875
 41
0.0
 71
     5
 72
     1
  1
\A1;22.000 %%p0.062
  7
TXT
 73
     1
 44
1.0
  0
POINT
  5
1ACD
330
1922
100
AcDbEntity
  8
DEFPOINTS
 62
     0
100
AcDbPoint
 10
109.9296313817309
 20
186.2639835608663
 30
0.0
  0
POINT
  5
1ACE
330
1922
100
AcDbEntity
  8
DEFPOINTS
 62
     0
100
AcDbPoint
 10
131.9296313817308
 20
186.2639835608663
 30
0.0
  0
POINT
  5
1ACF
330
1922
100
AcDbEntity
  8
DEFPOINTS
 62
     0
100
AcDbPoint
 10
131.9296313817308
 20
190.3589835608664
 30
0.0
  0
ENDBLK
  5
192E
330
1922
100
AcDbEntity
  8
0
100
AcDbBlockEnd
  0
BLOCK
  5
193A
330
1930
100
AcDbEntity
  8
0
100
AcDbBlockBegin
  2
*D25
 70
     1
 10
0.0
 20
0.0
 30
0.0
  3
*D25
  1

  0
LINE
  5
1B5D
330
1930
100
AcDbEntity
  8
DIM
 62
     0
370
    -2
100
AcDbLine
 10
116.3831313817309
 20
80.47525197445493
 30
0.0
 11
116.3831313817309
 21
75.49725197445491
 31
0.0
  0
LINE
  5
1B5E
330
1930
100
AcDbEntity
  8
DIM
 62
     0
370
    -2
100
AcDbLine
 10
125.4761313817308
 20
80.47525197445493
 30
0.0
 11
125.4761313817308
 21
75.49725197445491
 31
0.0
  0
LINE
  5
1B5F
330
1930
100
AcDbEntity
  8
DIM
 62
     0
370
    -2
100
AcDbLine
 10
113.6831313817309
 20
76.89225197445491
 30
0.0
 11
110.9831313817309
 21
76.89225197445491
 31
0.0
  0
LINE
  5
1B60
330
1930
100
AcDbEntity
  8
DIM
 62
     0
370
    -2
100
AcDbLine
 10
128.1761313817308
 20
76.89225197445491
 30
0.0
 11
130.8761313817307
 21
76.89225197445491
 31
0.0
  0
SOLID
  5
1B61
330
1930
100
AcDbEntity
  8
DIM
 62
     0
100
AcDbTrace
 10
113.6831313817309
 20
77.34225197445491
 30
0.0
 11
113.6831313817309
 21
76.4422519744549
 31
0.0
 12
116.3831313817309
 22
76.89225197445491
 32
0.0
 13
116.3831313817309
 23
76.89225197445491
 33
0.0
  0
SOLID
  5
1B62
330
1930
100
AcDbEntity
  8
DIM
 62
     0
100
AcDbTrace
 10
128.1761313817308
 20
77.34225197445491
 30
0.0
 11
128.1761313817308
 21
76.4422519744549
 31
0.0
 12
125.4761313817308
 22
76.89225197445491
 32
0.0
 13
125.4761313817308
 23
76.89225197445491
 33
0.0
  0
MTEXT
  5
1B63
330
1930
100
AcDbEntity
  8
DIM
 62
     0
100
AcDbMText
 10
121.2168343461585
 20
76.89225197445491
 30
0.0
 40
1.875
 41
0.0
 71
     5
 72
     1
  1
\A1;9.093
  7
TXT
 73
     1
 44
1.0
  0
POINT
  5
1B64
330
1930
100
AcDbEntity
  8
DEFPOINTS
 62
     0
100
AcDbPoint
 10
116.3831313817309
 20
81.42025197445491
 30
0.0
  0
POINT
  5
1B65
330
1930
100
AcDbEntity
  8
DEFPOINTS
 62
     0
100
AcDbPoint
 10
125.4761313817308
 20
81.42025197445491
 30
0.0
  0
POINT
  5
1B66
330
1930
100
AcDbEntity
  8
DEFPOINTS
 62
     0
100
AcDbPoint
 10
125.4761313817308
 20
76.89225197445491
 30
0.0
  0
ENDBLK
  5
193B
330
1930
100
AcDbEntity
  8
0
100
AcDbBlockEnd
  0
BLOCK
  5
1948
330
193D
100
AcDbEntity
  8
0
100
AcDbBlockBegin
  2
*D26
 70
     1
 10
0.0
 20
0.0
 30
0.0
  3
*D26
  1

  0
LINE
  5
1ADA
330
193D
100
AcDbEntity
  8
DIM
 62
     0
370
    -2
100
AcDbLine
 10
125.4761313817308
 20
80.47525197445493
 30
0.0
 11
125.4761313817308
 21
71.28225197445489
 31
0.0
  0
LINE
  5
1ADB
330
193D
100
AcDbEntity
  8
DIM
 62
     0
370
    -2
100
AcDbLine
 10
131.9296313817309
 20
79.16325197445496
 30
0.0
 11
131.9296313817309
 21
71.28225197445489
 31
0.0
  0
LINE
  5
1ADC
330
193D
100
AcDbEntity
  8
DIM
 62
     0
370
    -2
100
AcDbLine
 10
122.7761313817308
 20
72.67725197445489
 30
0.0
 11
120.0761313817308
 21
72.67725197445489
 31
0.0
  0
LINE
  5
1ADD
330
193D
100
AcDbEntity
  8
DIM
 62
     0
370
    -2
100
AcDbLine
 10
134.6296313817308
 20
72.67725197445489
 30
0.0
 11
137.3296313817309
 21
72.67725197445489
 31
0.0
  0
SOLID
  5
1ADE
330
193D
100
AcDbEntity
  8
DIM
 62
     0
100
AcDbTrace
 10
122.7761313817308
 20
73.12725197445489
 30
0.0
 11
122.7761313817308
 21
72.22725197445488
 31
0.0
 12
125.4761313817308
 22
72.67725197445489
 32
0.0
 13
125.4761313817308
 23
72.67725197445489
 33
0.0
  0
SOLID
  5
1ADF
330
193D
100
AcDbEntity
  8
DIM
 62
     0
100
AcDbTrace
 10
134.6296313817308
 20
73.12725197445489
 30
0.0
 11
134.6296313817308
 21
72.22725197445488
 31
0.0
 12
131.9296313817309
 22
72.67725197445489
 32
0.0
 13
131.9296313817309
 23
72.67725197445489
 33
0.0
  0
MTEXT
  5
1AE0
330
193D
100
AcDbEntity
  8
DIM
 62
     0
100
AcDbMText
 10
141.4921313817309
 20
72.67725197445489
 30
0.0
 40
1.875
 41
0.0
 71
     5
 72
     1
  1
\A1;6.454
  7
TXT
 73
     1
 44
1.0
  0
POINT
  5
1AE1
330
193D
100
AcDbEntity
  8
DEFPOINTS
 62
     0
100
AcDbPoint
 10
125.4761313817308
 20
81.42025197445491
 30
0.0
  0
POINT
  5
1AE2
330
193D
100
AcDbEntity
  8
DEFPOINTS
 62
     0
100
AcDbPoint
 10
131.9296313817309
 20
80.10825197445496
 30
0.0
  0
POINT
  5
1AE3
330
193D
100
AcDbEntity
  8
DEFPOINTS
 62
     0
100
AcDbPoint
 10
131.9296313817309
 20
72.67725197445489
 30
0.0
  0
ENDBLK
  5
1949
330
193D
100
AcDbEntity
  8
0
100
AcDbBlockEnd
  0
BLOCK
  5
1978
330
196D
100
AcDbEntity
  8
0
100
AcDbBlockBegin
  2
*D27
 70
     1
 10
0.0
 20
0.0
 30
0.0
  3
*D27
  1

  0
LINE
  5
1AE4
330
196D
100
AcDbEntity
  8
DIM
 62
     0
370
    -2
100
AcDbLine
 10
132.8746313817307
 20
79.59225197445488
 30
0.0
 11
138.7246313817308
 21
79.59225197445488
 31
0.0
  0
LINE
  5
1AE5
330
196D
100
AcDbEntity
  8
DIM
 62
     0
370
    -2
100
AcDbLine
 10
126.4211313817308
 20
81.42025197445491
 30
0.0
 11
138.7246313817308
 21
81.42025197445491
 31
0.0
  0
LINE
  5
1AE6
330
196D
100
AcDbEntity
  8
DIM
 62
     0
370
    -2
100
AcDbLine
 10
137.3296313817307
 20
76.89225197445487
 30
0.0
 11
137.3296313817307
 21
74.19225197445488
 31
0.0
  0
LINE
  5
1AE7
330
196D
100
AcDbEntity
  8
DIM
 62
     0
370
    -2
100
AcDbLine
 10
137.3296313817307
 20
84.12025197445492
 30
0.0
 11
137.3296313817307
 21
86.82025197445492
 31
0.0
  0
LINE
  5
1AE8
330
196D
100
AcDbEntity
  8
DIM
 62
     0
370
    -2
100
AcDbLine
 10
137.3296313817307
 20
86.82025197445492
 30
0.0
 11
140.0296313817307
 21
86.82025197445492
 31
0.0
  0
SOLID
  5
1AE9
330
196D
100
AcDbEntity
  8
DIM
 62
     0
100
AcDbTrace
 10
136.8796313817308
 20
76.89225197445487
 30
0.0
 11
137.7796313817307
 21
76.89225197445487
 31
0.0
 12
137.3296313817307
 22
79.59225197445488
 32
0.0
 13
137.3296313817307
 23
79.59225197445488
 33
0.0
  0
SOLID
  5
1AEA
330
196D
100
AcDbEntity
  8
DIM
 62
     0
100
AcDbTrace
 10
136.8796313817308
 20
84.12025197445492
 30
0.0
 11
137.7796313817307
 21
84.12025197445492
 31
0.0
 12
137.3296313817307
 22
81.42025197445491
 32
0.0
 13
137.3296313817307
 23
81.42025197445491
 33
0.0
  0
MTEXT
  5
1AEB
330
196D
100
AcDbEntity
  8
DIM
 62
     0
100
AcDbMText
 10
143.9577563817307
 20
86.82025197445494
 30
0.0
 40
1.875
 41
0.0
 71
     5
 72
     1
  1
\A1;1.828
  7
TXT
 73
     1
 44
1.0
  0
POINT
  5
1AEC
330
196D
100
AcDbEntity
  8
DEFPOINTS
 62
     0
100
AcDbPoint
 10
131.9296313817307
 20
79.59225197445488
 30
0.0
  0
POINT
  5
1AED
330
196D
100
AcDbEntity
  8
DEFPOINTS
 62
     0
100
AcDbPoint
 10
125.4761313817308
 20
81.42025197445491
 30
0.0
  0
POINT
  5
1AEE
330
196D
100
AcDbEntity
  8
DEFPOINTS
 62
     0
100
AcDbPoint
 10
137.3296313817307
 20
81.42025197445491
 30
0.0
  0
ENDBLK
  5
1979
330
196D
100
AcDbEntity
  8
0
100
AcDbBlockEnd
  0
ENDSEC
  0
SECTION
  2
ENTITIES
  0
TEXT
  5
130A
330
117D
100
AcDbEntity
  8
DIM
100
AcDbText
 10
67.94740615224192
 20
108.6852108231004
 30
0.0
 40
1.25
  1

100
AcDbText
  0
TEXT
  5
130B
330
117D
100
AcDbEntity
  8
DIM
100
AcDbText
 10
69.00990615224192
 20
104.5914523622864
 30
0.0
 40
1.0
  1

100
AcDbText
  0
TEXT
  5
130C
330
117D
100
AcDbEntity
  8
OBJECT
100
AcDbText
 10
69.86664955012854
 20
155.2881100892591
 30
0.0
 40
1.25
  1

100
AcDbText
  0
INSERT
  5
130D
330
117D
100
AcDbEntity
  8
OBJECT
100
AcDbBlockReference
  2
HB
 10
0.0
 20
0.0
 30
0.0
 41
15.0
 42
15.0
 43
15.0
  0
LINE
  5
130E
330
117D
100
AcDbEntity
  8
TITLE
100
AcDbLine
 10
0.929999999999964
 20
0.9300000000000173
 30
0.0
 11
150.87
 21
0.9300000000000176
 31
0.0
  0
LINE
  5
130F
330
117D
100
AcDbEntity
  8
TITLE
100
AcDbLine
 10
0.929999999999964
 20
4.050000000000016
 30
0.0
 11
150.87
 21
4.050000000000016
 31
0.0
  0
LINE
  5
1310
330
117D
100
AcDbEntity
  8
TITLE
100
AcDbLine
 10
0.929999999999964
 20
7.170000000000015
 30
0.0
 11
150.87
 21
7.170000000000015
 31
0.0
  0
LINE
  5
1311
330
117D
100
AcDbEntity
  8
TITLE
100
AcDbLine
 10
0.929999999999964
 20
10.29000000000001
 30
0.0
 11
150.87
 21
10.29000000000001
 31
0.0
  0
LINE
  5
1312
330
117D
100
AcDbEntity
  8
TITLE
100
AcDbLine
 10
0.929999999999964
 20
13.41000000000001
 30
0.0
 11
150.87
 21
13.41000000000001
 31
0.0
  0
LINE
  5
1313
330
117D
100
AcDbEntity
  8
TITLE
100
AcDbLine
 10
0.9299999999999499
 20
19.65
 30
0.0
 11
150.87
 21
19.65
 31
0.0
  0
LINE
  5
1314
330
117D
100
AcDbEntity
  8
TITLE
100
AcDbLine
 10
0.9299999999999499
 20
22.77000000000001
 30
0.0
 11
150.87
 21
22.77000000000001
 31
0.0
  0
LINE
  5
1315
330
117D
100
AcDbEntity
  8
TITLE
100
AcDbLine
 10
0.9299999999999499
 20
25.89000000000001
 30
0.0
 11
150.87
 21
25.89000000000001
 31
0.0
  0
LINE
  5
1316
330
117D
100
AcDbEntity
  8
TITLE
100
AcDbLine
 10
0.9299999999999499
 20
29.01000000000001
 30
0.0
 11
150.87
 21
29.01000000000001
 31
0.0
  0
LINE
  5
1317
330
117D
100
AcDbEntity
  8
TITLE
100
AcDbLine
 10
0.9299999999999499
 20
32.13
 30
0.0
 11
150.87
 21
32.13
 31
0.0
  0
LINE
  5
1318
330
117D
100
AcDbEntity
  8
TITLE
100
AcDbLine
 10
0.9299999999999714
 20
38.36999999999999
 30
0.0
 11
150.87
 21
38.37000000000001
 31
0.0
  0
LINE
  5
1319
330
117D
100
AcDbEntity
  8
TITLE
100
AcDbLine
 10
0.9299999999999714
 20
41.49
 30
0.0
 11
150.87
 21
41.49
 31
0.0
  0
LINE
  5
131A
330
117D
100
AcDbEntity
  8
TITLE
100
AcDbLine
 10
0.9299999999999714
 20
44.61000000000001
 30
0.0
 11
150.87
 21
44.61000000000001
 31
0.0
  0
LINE
  5
131B
330
117D
100
AcDbEntity
  8
TITLE
100
AcDbLine
 10
0.9299999999999714
 20
47.72999999999999
 30
0.0
 11
150.87
 21
47.72999999999999
 31
0.0
  0
LINE
  5
131C
330
117D
100
AcDbEntity
  8
TITLE
100
AcDbLine
 10
0.9299999999999714
 20
50.85
 30
0.0
 11
150.87
 21
50.85
 31
0.0
  0
LINE
  5
131D
330
117D
100
AcDbEntity
  8
TITLE
100
AcDbLine
 10
0.9299999999999714
 20
53.97000000000002
 30
0.0
 11
150.87
 21
53.97000000000002
 31
0.0
  0
LINE
  5
131E
330
117D
100
AcDbEntity
  8
TITLE
100
AcDbLine
 10
0.9299999999999714
 20
63.33
 30
0.0
 11
150.87
 21
63.33
 31
0.0
  0
LINE
  5
131F
330
117D
100
AcDbEntity
  8
TITLE
100
AcDbLine
 10
106.1378571428571
 20
66.44999999999999
 30
0.0
 11
150.87
 21
66.44999999999999
 31
0.0
  0
TEXT
  5
1320
330
117D
100
AcDbEntity
  8
TEXT
100
AcDbText
 10
114.6829946054813
 20
63.86465181799318
 30
0.0
 40
1.875
  1
OPTIONAL ACCESSORIES
 41
0.75
  7
TXT
100
AcDbText
  0
TEXT
  5
1321
330
117D
100
AcDbEntity
  8
TEXT
100
AcDbText
 10
133.8500024385282
 20
60.2015465767191
 30
0.0
 40
1.875
  1
ECONOGLAS
 41
0.75
  7
TXT
 72
     1
 11
139.9437524385283
 21
60.2015465767191
 31
0.0
100
AcDbText
  0
TEXT
  5
1322
330
117D
100
AcDbEntity
  8
TEXT
100
AcDbText
 10
136.6625024385282
 20
57.51138000746137
 30
0.0
 40
1.875
  1
DOORS
 41
0.75
  7
TXT
 72
     1
 11
139.9437524385283
 21
57.51138000746137
 31
0.0
100
AcDbText
  0
TEXT
  5
1323
330
117D
100
AcDbEntity
  8
TEXT
100
AcDbText
 10
135.0218774385282
 20
54.73062314013233
 30
0.0
 40
1.875
  1
PART NO.
 41
0.75
  7
TXT
 72
     1
 11
139.9437524385283
 21
54.73062314013233
 31
0.0
100
AcDbText
  0
TEXT
  5
1324
330
117D
100
AcDbEntity
  8
TEXT
100
AcDbText
 10
111.986489230036
 20
60.2015465767191
 30
0.0
 40
1.875
  1
PANEL MTG.
 41
0.75
  7
TXT
 72
     1
 11
118.314614230036
 21
60.2015465767191
 31
0.0
100
AcDbText
  0
TEXT
  5
1325
330
117D
100
AcDbEntity
  8
TEXT
100
AcDbText
 10
115.267739230036
 20
57.51138000746137
 30
0.0
 40
1.875
  1
RAILS
 41
0.75
  7
TXT
 72
     1
 11
118.314614230036
 21
57.51138000746137
 31
0.0
100
AcDbText
  0
TEXT
  5
1326
330
117D
100
AcDbEntity
  8
TEXT
100
AcDbText
 10
113.392739230036
 20
54.73062314013233
 30
0.0
 40
1.875
  1
PART NO.
 41
0.75
  7
TXT
 72
     1
 11
118.314614230036
 21
54.73062314013233
 31
0.0
100
AcDbText
  0
LINE
  5
1327
330
117D
100
AcDbEntity
  8
TITLE
100
AcDbLine
 10
128.9057142857142
 20
63.33
 30
0.0
 11
128.9057142857142
 21
0.9299999999999943
 31
0.0
  0
LINE
  5
1328
330
117D
100
AcDbEntity
  8
TITLE
100
AcDbLine
 10
106.9414285714285
 20
66.44999999999999
 30
0.0
 11
106.9414285714284
 21
0.9300000000000029
 31
0.0
  0
LINE
  5
1329
330
117D
100
AcDbEntity
  8
TITLE
100
AcDbLine
 10
106.1378571428571
 20
66.44999999999999
 30
0.0
 11
106.1378571428571
 21
0.9300000000000029
 31
0.0
  0
LINE
  5
132A
330
117D
100
AcDbEntity
  8
TITLE
100
AcDbLine
 10
91.80750000000006
 20
63.33000000000001
 30
0.0
 11
91.80750000000001
 21
0.9300000000000082
 31
0.0
  0
LINE
  5
132B
330
117D
100
AcDbEntity
  8
TITLE
100
AcDbLine
 10
77.47714285714291
 20
63.33000000000001
 30
0.0
 11
77.47714285714285
 21
0.9300000000000132
 31
0.0
  0
LINE
  5
132C
330
117D
100
AcDbEntity
  8
TITLE
100
AcDbLine
 10
63.14678571428578
 20
63.33000000000001
 30
0.0
 11
63.14678571428572
 21
0.9300000000000183
 31
0.0
  0
LINE
  5
132D
330
117D
100
AcDbEntity
  8
TITLE
100
AcDbLine
 10
48.8164285714286
 20
63.33
 30
0.0
 11
48.81642857142857
 21
0.9300000000000238
 31
0.0
  0
LINE
  5
132E
330
117D
100
AcDbEntity
  8
TITLE
100
AcDbLine
 10
34.48607142857147
 20
63.33
 30
0.0
 11
34.48607142857144
 21
0.9300000000000292
 31
0.0
  0
LINE
  5
132F
330
117D
100
AcDbEntity
  8
TITLE
100
AcDbLine
 10
20.15571428571433
 20
63.32999999999999
 30
0.0
 11
20.15571428571429
 21
0.9300000000000343
 31
0.0
  0
TEXT
  5
1330
330
117D
100
AcDbEntity
  8
TEXT
100
AcDbText
 10
24.38324273126927
 20
60.39178620266884
 30
0.0
 40
1.875
  1
PANEL
 41
0.75
  7
TXT
 72
     1
 11
27.66449273126927
 21
60.39178620266884
 31
0.0
100
AcDbText
  0
TEXT
  5
1331
330
117D
100
AcDbEntity
  8
TEXT
100
AcDbText
 10
24.22920029575982
 20
57.51138000746137
 30
0.0
 40
1.875
  1
SPACE
 41
0.75
  7
TXT
 72
     1
 11
27.51045029575982
 21
57.51138000746137
 31
0.0
100
AcDbText
  0
TEXT
  5
1332
330
117D
100
AcDbEntity
  8
TEXT
100
AcDbText
 10
27.04170029575982
 20
54.86650858723929
 30
0.0
 40
1.875
  1
A
 41
0.75
  7
TXT
 72
     1
 11
27.51045029575982
 21
54.86650858723929
 31
0.0
100
AcDbText
  0
TEXT
  5
1333
330
117D
100
AcDbEntity
  8
TEXT
100
AcDbText
 10
41.37205743861695
 20
57.51138000746135
 30
0.0
 40
1.875
  1
B
 41
0.75
  7
TXT
 72
     1
 11
41.84080743861695
 21
57.51138000746135
 31
0.0
100
AcDbText
  0
TEXT
  5
1334
330
117D
100
AcDbEntity
  8
TEXT
100
AcDbText
 10
55.7024145814741
 20
57.51138000746134
 30
0.0
 40
1.875
  1
C
 41
0.75
  7
TXT
 72
     1
 11
56.1711645814741
 21
57.51138000746134
 31
0.0
100
AcDbText
  0
TEXT
  5
1335
330
117D
100
AcDbEntity
  8
TEXT
100
AcDbText
 10
70.03277172433127
 20
57.51138000746134
 30
0.0
 40
1.875
  1
D
 41
0.75
  7
TXT
 72
     1
 11
70.50152172433127
 21
57.51138000746134
 31
0.0
100
AcDbText
  0
TEXT
  5
1336
330
117D
100
AcDbEntity
  8
TEXT
100
AcDbText
 10
84.36312886718837
 20
57.51138000746134
 30
0.0
 40
1.875
  1
E
 41
0.75
  7
TXT
 72
     1
 11
84.83187886718837
 21
57.51138000746134
 31
0.0
100
AcDbText
  0
TEXT
  5
1337
330
117D
100
AcDbEntity
  8
TEXT
100
AcDbText
 10
98.69348601004551
 20
57.51138000746134
 30
0.0
 40
1.875
  1
F
 41
0.75
  7
TXT
 72
     1
 11
99.16223601004551
 21
57.51138000746134
 31
0.0
100
AcDbText
  0
TEXT
  5
1338
330
117D
100
AcDbEntity
  8
TEXT
100
AcDbText
 10
5.531901469134465
 20
57.51138000746137
 30
0.0
 40
1.875
  1
PART NO.
 41
0.75
  7
TXT
 72
     1
 11
10.45377646913446
 21
57.51138000746137
 31
0.0
100
AcDbText
  0
TEXT
  5
1339
330
117D
100
AcDbEntity
  8
TEXT
100
AcDbText
 10
5.134401403921992
 20
51.362342946409
 30
0.0
 40
1.875
  1
ER-16552
 41
0.75
  7
TXT
100
AcDbText
  0
TEXT
  5
133A
330
117D
100
AcDbEntity
  8
TEXT
100
AcDbText
 10
5.134401403921992
 20
48.237342946409
 30
0.0
 40
1.875
  1
ER-16553
 41
0.75
  7
TXT
100
AcDbText
  0
TEXT
  5
133B
330
117D
100
AcDbEntity
  8
TEXT
100
AcDbText
 10
5.134401403921992
 20
45.112342946409
 30
0.0
 40
1.875
  1
ER-16554
 41
0.75
  7
TXT
100
AcDbText
  0
TEXT
  5
133C
330
117D
100
AcDbEntity
  8
TEXT
100
AcDbText
 10
5.134401403921992
 20
41.987342946409
 30
0.0
 40
1.875
  1
ER-16555
 41
0.75
  7
TXT
100
AcDbText
  0
TEXT
  5
133D
330
117D
100
AcDbEntity
  8
TEXT
100
AcDbText
 10
5.134401403921992
 20
38.862342946409
 30
0.0
 40
1.875
  1
ER-16556
 41
0.75
  7
TXT
100
AcDbText
  0
TEXT
  5
133E
330
117D
100
AcDbEntity
  8
TEXT
100
AcDbText
 10
5.134401403921969
 20
32.61734294640902
 30
0.0
 40
1.875
  1
ER-16562
 41
0.75
  7
TXT
100
AcDbText
  0
TEXT
  5
133F
330
117D
100
AcDbEntity
  8
TEXT
100
AcDbText
 10
5.134401403921969
 20
29.49234294640902
 30
0.0
 40
1.875
  1
ER-16563
 41
0.75
  7
TXT
100
AcDbText
  0
TEXT
  5
1340
330
117D
100
AcDbEntity
  8
TEXT
100
AcDbText
 10
5.134401403921969
 20
26.36734294640902
 30
0.0
 40
1.875
  1
ER-16564
 41
0.75
  7
TXT
100
AcDbText
  0
TEXT
  5
1341
330
117D
100
AcDbEntity
  8
TEXT
100
AcDbText
 10
5.134401403921969
 20
23.24234294640902
 30
0.0
 40
1.875
  1
ER-16565
 41
0.75
  7
TXT
100
AcDbText
  0
TEXT
  5
1342
330
117D
100
AcDbEntity
  8
TEXT
100
AcDbText
 10
5.134401403921969
 20
20.11734294640902
 30
0.0
 40
1.875
  1
ER-16566
 41
0.75
  7
TXT
100
AcDbText
  0
TEXT
  5
1343
330
117D
100
AcDbEntity
  8
TEXT
100
AcDbText
 10
5.134401403921979
 20
13.87234294640901
 30
0.0
 40
1.875
  1
ER-16572
 41
0.75
  7
TXT
100
AcDbText
  0
TEXT
  5
1344
330
117D
100
AcDbEntity
  8
TEXT
100
AcDbText
 10
5.134401403921979
 20
10.74734294640901
 30
0.0
 40
1.875
  1
ER-16573
 41
0.75
  7
TXT
100
AcDbText
  0
TEXT
  5
1345
330
117D
100
AcDbEntity
  8
TEXT
100
AcDbText
 10
5.134401403921979
 20
7.622342946409015
 30
0.0
 40
1.875
  1
ER-16574
 41
0.75
  7
TXT
100
AcDbText
  0
TEXT
  5
1346
330
117D
100
AcDbEntity
  8
TEXT
100
AcDbText
 10
5.134401403921979
 20
4.497342946409017
 30
0.0
 40
1.875
  1
ER-16575
 41
0.75
  7
TXT
100
AcDbText
  0
TEXT
  5
1347
330
117D
100
AcDbEntity
  8
TEXT
100
AcDbText
 10
5.134401403921979
 20
1.37234294640902
 30
0.0
 40
1.875
  1
ER-16576
 41
0.75
  7
TXT
100
AcDbText
  0
TEXT
  5
1348
330
117D
100
AcDbEntity
  8
TEXT
100
AcDbText
 10
24.15683035714289
 20
51.47250000000002
 30
0.0
 40
1.875
  1
42.000
 41
0.75
  7
TXT
 72
     1
 11
27.32089285714289
 21
51.47250000000002
 31
0.0
100
AcDbText
  0
TEXT
  5
1349
330
117D
100
AcDbEntity
  8
TEXT
100
AcDbText
 10
24.03964285714289
 20
48.34750000000002
 30
0.0
 40
1.875
  1
52.500
 41
0.75
  7
TXT
 72
     1
 11
27.32089285714289
 21
48.34750000000002
 31
0.0
100
AcDbText
  0
TEXT
  5
134A
330
117D
100
AcDbEntity
  8
TEXT
100
AcDbText
 10
24.15683035714289
 20
45.22250000000002
 30
0.0
 40
1.875
  1
61.250
 41
0.75
  7
TXT
 72
     1
 11
27.32089285714289
 21
45.22250000000002
 31
0.0
100
AcDbText
  0
TEXT
  5
134B
330
117D
100
AcDbEntity
  8
TEXT
100
AcDbText
 10
24.27401785714289
 20
42.09750000000001
 30
0.0
 40
1.875
  1
70.000
 41
0.75
  7
TXT
 72
     1
 11
27.32089285714289
 21
42.09750000000001
 31
0.0
100
AcDbText
  0
TEXT
  5
134C
330
117D
100
AcDbEntity
  8
TEXT
100
AcDbText
 10
23.92245535714289
 20
38.97250000000001
 30
0.0
 40
1.875
  1
78.750
 41
0.75
  7
TXT
 72
     1
 11
27.32089285714289
 21
38.97250000000001
 31
0.0
100
AcDbText
  0
TEXT
  5
134D
330
117D
100
AcDbEntity
  8
TEXT
100
AcDbText
 10
38.37000000000005
 20
51.47250000000001
 30
0.0
 40
1.875
  1
47.312
 41
0.75
  7
TXT
 72
     1
 11
41.65125000000005
 21
51.47250000000001
 31
0.0
100
AcDbText
  0
TEXT
  5
134E
330
117D
100
AcDbEntity
  8
TEXT
100
AcDbText
 10
38.37000000000005
 20
48.34750000000001
 30
0.0
 40
1.875
  1
57.812
 41
0.75
  7
TXT
 72
     1
 11
41.65125000000005
 21
48.34750000000001
 31
0.0
100
AcDbText
  0
TEXT
  5
134F
330
117D
100
AcDbEntity
  8
TEXT
100
AcDbText
 10
38.13562500000005
 20
45.22250000000001
 30
0.0
 40
1.875
  1
66.562
 41
0.75
  7
TXT
 72
     1
 11
41.65125000000005
 21
45.22250000000001
 31
0.0
100
AcDbText
  0
TEXT
  5
1350
330
117D
100
AcDbEntity
  8
TEXT
100
AcDbText
 10
38.37000000000005
 20
42.09750000000001
 30
0.0
 40
1.875
  1
75.312
 41
0.75
  7
TXT
 72
     1
 11
41.65125000000005
 21
42.09750000000001
 31
0.0
100
AcDbText
  0
TEXT
  5
1351
330
117D
100
AcDbEntity
  8
TEXT
100
AcDbText
 10
38.25281250000005
 20
38.97250000000001
 30
0.0
 40
1.875
  1
84.062
 41
0.75
  7
TXT
 72
     1
 11
41.65125000000005
 21
38.97250000000001
 31
0.0
100
AcDbText
  0
TEXT
  5
1352
330
117D
100
AcDbEntity
  8
TEXT
100
AcDbText
 10
52.93473214285718
 20
51.47250000000001
 30
0.0
 40
1.875
  1
18.500
 41
0.75
  7
TXT
 72
     1
 11
55.98160714285718
 21
51.47250000000001
 31
0.0
100
AcDbText
  0
TEXT
  5
1353
330
117D
100
AcDbEntity
  8
TEXT
100
AcDbText
 10
52.70035714285718
 20
35.8675
 30
0.0
 40
1.875
  1
25.500
 41
0.75
  7
TXT
 72
     1
 11
55.98160714285718
 21
35.8675
 31
0.0
100
AcDbText
  0
TEXT
  5
1354
330
117D
100
AcDbEntity
  8
TEXT
100
AcDbText
 10
52.70035714285715
 20
17.14250000000003
 30
0.0
 40
1.875
  1
30.750
 41
0.75
  7
TXT
 72
     1
 11
55.98160714285715
 21
17.14250000000003
 31
0.0
100
AcDbText
  0
TEXT
  5
1355
330
117D
100
AcDbEntity
  8
TEXT
100
AcDbText
 10
67.38227678571433
 20
51.47250000000001
 30
0.0
 40
1.875
  1
17.000
 41
0.75
  7
TXT
 72
     1
 11
70.31196428571433
 21
51.47250000000001
 31
0.0
100
AcDbText
  0
TEXT
  5
1356
330
117D
100
AcDbEntity
  8
TEXT
100
AcDbText
 10
67.14790178571431
 20
20.26750000000002
 30
0.0
 40
1.875
  1
24.000
 41
0.75
  7
TXT
 72
     1
 11
70.31196428571431
 21
20.26750000000002
 31
0.0
100
AcDbText
  0
TEXT
  5
1357
330
117D
100
AcDbEntity
  8
TEXT
100
AcDbText
 10
66.91352678571431
 20
1.542500000000023
 30
0.0
 40
1.875
  1
29.250
 41
0.75
  7
TXT
 72
     1
 11
70.31196428571431
 21
1.542500000000023
 31
0.0
100
AcDbText
  0
TEXT
  5
1358
330
117D
100
AcDbEntity
  8
TEXT
100
AcDbText
 10
81.36107142857145
 20
45.23249999999999
 30
0.0
 40
1.875
  1
27.531
 41
0.75
  7
TXT
 72
     1
 11
84.64232142857145
 21
45.23249999999999
 31
0.0
100
AcDbText
  0
TEXT
  5
1359
330
117D
100
AcDbEntity
  8
TEXT
100
AcDbText
 10
81.47825892857145
 20
42.10749999999999
 30
0.0
 40
1.875
  1
31.906
 41
0.75
  7
TXT
 72
     1
 11
84.64232142857145
 21
42.10749999999999
 31
0.0
100
AcDbText
  0
TEXT
  5
135A
330
117D
100
AcDbEntity
  8
TEXT
100
AcDbText
 10
81.36107142857145
 20
38.9825
 30
0.0
 40
1.875
  1
36.281
 41
0.75
  7
TXT
 72
     1
 11
84.64232142857145
 21
38.9825
 31
0.0
100
AcDbText
  0
TEXT
  5
135B
330
117D
100
AcDbEntity
  8
TEXT
100
AcDbText
 10
95.45705357142859
 20
51.47250000000001
 30
0.0
 40
1.875
  1
38.562
 41
0.75
  7
TXT
 72
     1
 11
98.97267857142859
 21
51.47250000000001
 31
0.0
100
AcDbText
  0
TEXT
  5
135C
330
117D
100
AcDbEntity
  8
TEXT
100
AcDbText
 10
95.57424107142859
 20
48.34750000000001
 30
0.0
 40
1.875
  1
49.062
 41
0.75
  7
TXT
 72
     1
 11
98.97267857142859
 21
48.34750000000001
 31
0.0
100
AcDbText
  0
TEXT
  5
135D
330
117D
100
AcDbEntity
  8
TEXT
100
AcDbText
 10
95.69142857142859
 20
45.22250000000001
 30
0.0
 40
1.875
  1
57.812
 41
0.75
  7
TXT
 72
     1
 11
98.97267857142859
 21
45.22250000000001
 31
0.0
100
AcDbText
  0
TEXT
  5
135E
330
117D
100
AcDbEntity
  8
TEXT
100
AcDbText
 10
95.45705357142859
 20
42.09750000000001
 30
0.0
 40
1.875
  1
66.562
 41
0.75
  7
TXT
 72
     1
 11
98.97267857142859
 21
42.09750000000001
 31
0.0
100
AcDbText
  0
TEXT
  5
135F
330
117D
100
AcDbEntity
  8
TEXT
100
AcDbText
 10
95.69142857142859
 20
38.97250000000001
 30
0.0
 40
1.875
  1
75.312
 41
0.75
  7
TXT
 72
     1
 11
98.97267857142859
 21
38.97250000000001
 31
0.0
100
AcDbText
  0
TEXT
  5
1360
330
117D
100
AcDbEntity
  8
TEXT
100
AcDbText
 10
112.6501339285714
 20
51.47250000000001
 30
0.0
 40
1.875
  1
PMR-9450
 41
0.75
  7
TXT
 72
     1
 11
117.9235714285714
 21
51.47250000000001
 31
0.0
100
AcDbText
  0
TEXT
  5
1361
330
117D
100
AcDbEntity
  8
TEXT
100
AcDbText
 10
112.7673214285714
 20
48.34750000000001
 30
0.0
 40
1.875
  1
PMR-9451
 41
0.75
  7
TXT
 72
     1
 11
117.9235714285714
 21
48.34750000000001
 31
0.0
100
AcDbText
  0
TEXT
  5
1362
330
117D
100
AcDbEntity
  8
TEXT
100
AcDbText
 10
112.5329464285714
 20
45.22250000000001
 30
0.0
 40
1.875
  1
PMR-9452
 41
0.75
  7
TXT
 72
     1
 11
117.9235714285714
 21
45.22250000000001
 31
0.0
100
AcDbText
  0
TEXT
  5
1363
330
117D
100
AcDbEntity
  8
TEXT
100
AcDbText
 10
112.5329464285714
 20
42.09750000000001
 30
0.0
 40
1.875
  1
PMR-9453
 41
0.75
  7
TXT
 72
     1
 11
117.9235714285714
 21
42.09750000000001
 31
0.0
100
AcDbText
  0
TEXT
  5
1364
330
117D
100
AcDbEntity
  8
TEXT
100
AcDbText
 10
112.5329464285714
 20
38.97250000000001
 30
0.0
 40
1.875
  1
PMR-9454
 41
0.75
  7
TXT
 72
     1
 11
117.9235714285714
 21
38.97250000000001
 31
0.0
100
AcDbText
  0
TEXT
  5
1365
330
117D
100
AcDbEntity
  8
TEXT
100
AcDbText
 10
134.262857142857
 20
51.47250000000001
 30
0.0
 40
1.875
  1
V-9763-L
 41
0.75
  7
TXT
 72
     1
 11
139.887857142857
 21
51.47250000000001
 31
0.0
100
AcDbText
  0
TEXT
  5
1366
330
117D
100
AcDbEntity
  8
TEXT
100
AcDbText
 10
134.262857142857
 20
48.34750000000001
 30
0.0
 40
1.875
  1
V-9764-L
 41
0.75
  7
TXT
 72
     1
 11
139.887857142857
 21
48.34750000000001
 31
0.0
100
AcDbText
  0
TEXT
  5
1367
330
117D
100
AcDbEntity
  8
TEXT
100
AcDbText
 10
134.262857142857
 20
45.22250000000001
 30
0.0
 40
1.875
  1
V-9765-L
 41
0.75
  7
TXT
 72
     1
 11
139.887857142857
 21
45.22250000000001
 31
0.0
100
AcDbText
  0
TEXT
  5
1368
330
117D
100
AcDbEntity
  8
TEXT
100
AcDbText
 10
134.262857142857
 20
42.09750000000001
 30
0.0
 40
1.875
  1
V-9766-L
 41
0.75
  7
TXT
 72
     1
 11
139.887857142857
 21
42.09750000000001
 31
0.0
100
AcDbText
  0
TEXT
  5
1369
330
117D
100
AcDbEntity
  8
TEXT
100
AcDbText
 10
134.262857142857
 20
38.97250000000001
 30
0.0
 40
1.875
  1
V-9767-L
 41
0.75
  7
TXT
 72
     1
 11
139.887857142857
 21
38.97250000000001
 31
0.0
100
AcDbText
  0
TEXT
  5
136A
330
117D
100
AcDbEntity
  8
TEXT
100
AcDbText
 10
38.25281250000003
 20
20.25250000000001
 30
0.0
 40
1.875
  1
84.062
 41
0.75
  7
TXT
 72
     1
 11
41.65125000000003
 21
20.25250000000001
 31
0.0
100
AcDbText
  0
TEXT
  5
136B
330
117D
100
AcDbEntity
  8
TEXT
100
AcDbText
 10
38.37000000000003
 20
23.37750000000001
 30
0.0
 40
1.875
  1
75.312
 41
0.75
  7
TXT
 72
     1
 11
41.65125000000003
 21
23.37750000000001
 31
0.0
100
AcDbText
  0
TEXT
  5
136C
330
117D
100
AcDbEntity
  8
TEXT
100
AcDbText
 10
38.13562500000003
 20
26.50250000000001
 30
0.0
 40
1.875
  1
66.562
 41
0.75
  7
TXT
 72
     1
 11
41.65125000000003
 21
26.50250000000001
 31
0.0
100
AcDbText
  0
TEXT
  5
136D
330
117D
100
AcDbEntity
  8
TEXT
100
AcDbText
 10
38.37000000000003
 20
29.62750000000001
 30
0.0
 40
1.875
  1
57.812
 41
0.75
  7
TXT
 72
     1
 11
41.65125000000003
 21
29.62750000000001
 31
0.0
100
AcDbText
  0
TEXT
  5
136E
330
117D
100
AcDbEntity
  8
TEXT
100
AcDbText
 10
38.37000000000003
 20
32.75250000000001
 30
0.0
 40
1.875
  1
47.312
 41
0.75
  7
TXT
 72
     1
 11
41.65125000000003
 21
32.75250000000001
 31
0.0
100
AcDbText
  0
TEXT
  5
136F
330
117D
100
AcDbEntity
  8
TEXT
100
AcDbText
 10
23.92245535714287
 20
20.25250000000001
 30
0.0
 40
1.875
  1
78.750
 41
0.75
  7
TXT
 72
     1
 11
27.32089285714287
 21
20.25250000000001
 31
0.0
100
AcDbText
  0
TEXT
  5
1370
330
117D
100
AcDbEntity
  8
TEXT
100
AcDbText
 10
24.27401785714287
 20
23.37750000000001
 30
0.0
 40
1.875
  1
70.000
 41
0.75
  7
TXT
 72
     1
 11
27.32089285714287
 21
23.37750000000001
 31
0.0
100
AcDbText
  0
TEXT
  5
1371
330
117D
100
AcDbEntity
  8
TEXT
100
AcDbText
 10
24.15683035714287
 20
26.50250000000001
 30
0.0
 40
1.875
  1
61.250
 41
0.75
  7
TXT
 72
     1
 11
27.32089285714287
 21
26.50250000000001
 31
0.0
100
AcDbText
  0
TEXT
  5
1372
330
117D
100
AcDbEntity
  8
TEXT
100
AcDbText
 10
24.03964285714287
 20
29.62750000000001
 30
0.0
 40
1.875
  1
52.500
 41
0.75
  7
TXT
 72
     1
 11
27.32089285714287
 21
29.62750000000001
 31
0.0
100
AcDbText
  0
TEXT
  5
1373
330
117D
100
AcDbEntity
  8
TEXT
100
AcDbText
 10
24.15683035714287
 20
32.75250000000001
 30
0.0
 40
1.875
  1
42.000
 41
0.75
  7
TXT
 72
     1
 11
27.32089285714287
 21
32.75250000000001
 31
0.0
100
AcDbText
  0
TEXT
  5
1374
330
117D
100
AcDbEntity
  8
TEXT
100
AcDbText
 10
134.262857142857
 20
20.25250000000001
 30
0.0
 40
1.875
  1
V-9767-L
 41
0.75
  7
TXT
 72
     1
 11
139.887857142857
 21
20.25250000000001
 31
0.0
100
AcDbText
  0
TEXT
  5
1375
330
117D
100
AcDbEntity
  8
TEXT
100
AcDbText
 10
134.262857142857
 20
23.37750000000001
 30
0.0
 40
1.875
  1
V-9766-L
 41
0.75
  7
TXT
 72
     1
 11
139.887857142857
 21
23.37750000000001
 31
0.0
100
AcDbText
  0
TEXT
  5
1376
330
117D
100
AcDbEntity
  8
TEXT
100
AcDbText
 10
134.262857142857
 20
26.50250000000001
 30
0.0
 40
1.875
  1
V-9765-L
 41
0.75
  7
TXT
 72
     1
 11
139.887857142857
 21
26.50250000000001
 31
0.0
100
AcDbText
  0
TEXT
  5
1377
330
117D
100
AcDbEntity
  8
TEXT
100
AcDbText
 10
134.262857142857
 20
29.62750000000001
 30
0.0
 40
1.875
  1
V-9764-L
 41
0.75
  7
TXT
 72
     1
 11
139.887857142857
 21
29.62750000000001
 31
0.0
100
AcDbText
  0
TEXT
  5
1378
330
117D
100
AcDbEntity
  8
TEXT
100
AcDbText
 10
134.262857142857
 20
32.75250000000001
 30
0.0
 40
1.875
  1
V-9763-L
 41
0.75
  7
TXT
 72
     1
 11
139.887857142857
 21
32.75250000000001
 31
0.0
100
AcDbText
  0
TEXT
  5
1379
330
117D
100
AcDbEntity
  8
TEXT
100
AcDbText
 10
112.5329464285714
 20
20.25250000000001
 30
0.0
 40
1.875
  1
PMR-9454
 41
0.75
  7
TXT
 72
     1
 11
117.9235714285714
 21
20.25250000000001
 31
0.0
100
AcDbText
  0
TEXT
  5
137A
330
117D
100
AcDbEntity
  8
TEXT
100
AcDbText
 10
112.5329464285714
 20
23.37750000000001
 30
0.0
 40
1.875
  1
PMR-9453
 41
0.75
  7
TXT
 72
     1
 11
117.9235714285714
 21
23.37750000000001
 31
0.0
100
AcDbText
  0
TEXT
  5
137B
330
117D
100
AcDbEntity
  8
TEXT
100
AcDbText
 10
112.5329464285714
 20
26.50250000000001
 30
0.0
 40
1.875
  1
PMR-9452
 41
0.75
  7
TXT
 72
     1
 11
117.9235714285714
 21
26.50250000000001
 31
0.0
100
AcDbText
  0
TEXT
  5
137C
330
117D
100
AcDbEntity
  8
TEXT
100
AcDbText
 10
112.7673214285714
 20
29.62750000000001
 30
0.0
 40
1.875
  1
PMR-9451
 41
0.75
  7
TXT
 72
     1
 11
117.9235714285714
 21
29.62750000000001
 31
0.0
100
AcDbText
  0
TEXT
  5
137D
330
117D
100
AcDbEntity
  8
TEXT
100
AcDbText
 10
112.6501339285714
 20
32.75250000000001
 30
0.0
 40
1.875
  1
PMR-9450
 41
0.75
  7
TXT
 72
     1
 11
117.9235714285714
 21
32.75250000000001
 31
0.0
100
AcDbText
  0
TEXT
  5
137E
330
117D
100
AcDbEntity
  8
TEXT
100
AcDbText
 10
95.69142857142859
 20
20.25250000000001
 30
0.0
 40
1.875
  1
75.312
 41
0.75
  7
TXT
 72
     1
 11
98.97267857142859
 21
20.25250000000001
 31
0.0
100
AcDbText
  0
TEXT
  5
137F
330
117D
100
AcDbEntity
  8
TEXT
100
AcDbText
 10
95.45705357142859
 20
23.37750000000001
 30
0.0
 40
1.875
  1
66.562
 41
0.75
  7
TXT
 72
     1
 11
98.97267857142859
 21
23.37750000000001
 31
0.0
100
AcDbText
  0
TEXT
  5
1380
330
117D
100
AcDbEntity
  8
TEXT
100
AcDbText
 10
95.69142857142859
 20
26.50250000000001
 30
0.0
 40
1.875
  1
57.812
 41
0.75
  7
TXT
 72
     1
 11
98.97267857142859
 21
26.50250000000001
 31
0.0
100
AcDbText
  0
TEXT
  5
1381
330
117D
100
AcDbEntity
  8
TEXT
100
AcDbText
 10
95.57424107142859
 20
29.62750000000001
 30
0.0
 40
1.875
  1
49.062
 41
0.75
  7
TXT
 72
     1
 11
98.97267857142859
 21
29.62750000000001
 31
0.0
100
AcDbText
  0
TEXT
  5
1382
330
117D
100
AcDbEntity
  8
TEXT
100
AcDbText
 10
95.45705357142859
 20
32.75250000000001
 30
0.0
 40
1.875
  1
38.562
 41
0.75
  7
TXT
 72
     1
 11
98.97267857142859
 21
32.75250000000001
 31
0.0
100
AcDbText
  0
TEXT
  5
1383
330
117D
100
AcDbEntity
  8
TEXT
100
AcDbText
 10
81.36107142857142
 20
20.26250000000002
 30
0.0
 40
1.875
  1
36.281
 41
0.75
  7
TXT
 72
     1
 11
84.64232142857142
 21
20.26250000000002
 31
0.0
100
AcDbText
  0
TEXT
  5
1384
330
117D
100
AcDbEntity
  8
TEXT
100
AcDbText
 10
81.47825892857142
 20
23.3875
 30
0.0
 40
1.875
  1
31.906
 41
0.75
  7
TXT
 72
     1
 11
84.64232142857142
 21
23.3875
 31
0.0
100
AcDbText
  0
TEXT
  5
1385
330
117D
100
AcDbEntity
  8
TEXT
100
AcDbText
 10
81.36107142857142
 20
26.5125
 30
0.0
 40
1.875
  1
27.531
 41
0.75
  7
TXT
 72
     1
 11
84.64232142857142
 21
26.5125
 31
0.0
100
AcDbText
  0
TEXT
  5
1386
330
117D
100
AcDbEntity
  8
TEXT
100
AcDbText
 10
24.15683035714287
 20
14.03250000000001
 30
0.0
 40
1.875
  1
42.000
 41
0.75
  7
TXT
 72
     1
 11
27.32089285714287
 21
14.03250000000001
 31
0.0
100
AcDbText
  0
TEXT
  5
1387
330
117D
100
AcDbEntity
  8
TEXT
100
AcDbText
 10
24.03964285714287
 20
10.90750000000003
 30
0.0
 40
1.875
  1
52.500
 41
0.75
  7
TXT
 72
     1
 11
27.32089285714287
 21
10.90750000000003
 31
0.0
100
AcDbText
  0
TEXT
  5
1388
330
117D
100
AcDbEntity
  8
TEXT
100
AcDbText
 10
24.15683035714287
 20
7.78250000000003
 30
0.0
 40
1.875
  1
61.250
 41
0.75
  7
TXT
 72
     1
 11
27.32089285714287
 21
7.78250000000003
 31
0.0
100
AcDbText
  0
TEXT
  5
1389
330
117D
100
AcDbEntity
  8
TEXT
100
AcDbText
 10
24.27401785714287
 20
4.657500000000035
 30
0.0
 40
1.875
  1
70.000
 41
0.75
  7
TXT
 72
     1
 11
27.32089285714287
 21
4.657500000000035
 31
0.0
100
AcDbText
  0
TEXT
  5
138A
330
117D
100
AcDbEntity
  8
TEXT
100
AcDbText
 10
23.92245535714287
 20
1.532500000000033
 30
0.0
 40
1.875
  1
78.750
 41
0.75
  7
TXT
 72
     1
 11
27.32089285714287
 21
1.532500000000033
 31
0.0
100
AcDbText
  0
TEXT
  5
138B
330
117D
100
AcDbEntity
  8
TEXT
100
AcDbText
 10
38.37000000000001
 20
14.03250000000001
 30
0.0
 40
1.875
  1
47.312
 41
0.75
  7
TXT
 72
     1
 11
41.65125000000001
 21
14.03250000000001
 31
0.0
100
AcDbText
  0
TEXT
  5
138C
330
117D
100
AcDbEntity
  8
TEXT
100
AcDbText
 10
38.37000000000001
 20
10.90750000000001
 30
0.0
 40
1.875
  1
57.812
 41
0.75
  7
TXT
 72
     1
 11
41.65125000000001
 21
10.90750000000001
 31
0.0
100
AcDbText
  0
TEXT
  5
138D
330
117D
100
AcDbEntity
  8
TEXT
100
AcDbText
 10
38.13562500000001
 20
7.782500000000023
 30
0.0
 40
1.875
  1
66.562
 41
0.75
  7
TXT
 72
     1
 11
41.65125000000001
 21
7.782500000000023
 31
0.0
100
AcDbText
  0
TEXT
  5
138E
330
117D
100
AcDbEntity
  8
TEXT
100
AcDbText
 10
38.37000000000001
 20
4.657500000000028
 30
0.0
 40
1.875
  1
75.312
 41
0.75
  7
TXT
 72
     1
 11
41.65125000000001
 21
4.657500000000028
 31
0.0
100
AcDbText
  0
TEXT
  5
138F
330
117D
100
AcDbEntity
  8
TEXT
100
AcDbText
 10
38.25281250000001
 20
1.532500000000025
 30
0.0
 40
1.875
  1
84.062
 41
0.75
  7
TXT
 72
     1
 11
41.65125000000001
 21
1.532500000000025
 31
0.0
100
AcDbText
  0
TEXT
  5
1390
330
117D
100
AcDbEntity
  8
TEXT
100
AcDbText
 10
81.36107142857142
 20
7.79250000000002
 30
0.0
 40
1.875
  1
27.531
 41
0.75
  7
TXT
 72
     1
 11
84.64232142857142
 21
7.79250000000002
 31
0.0
100
AcDbText
  0
TEXT
  5
1391
330
117D
100
AcDbEntity
  8
TEXT
100
AcDbText
 10
81.47825892857142
 20
4.667500000000024
 30
0.0
 40
1.875
  1
31.906
 41
0.75
  7
TXT
 72
     1
 11
84.64232142857142
 21
4.667500000000024
 31
0.0
100
AcDbText
  0
TEXT
  5
1392
330
117D
100
AcDbEntity
  8
TEXT
100
AcDbText
 10
81.36107142857142
 20
1.542500000000027
 30
0.0
 40
1.875
  1
36.281
 41
0.75
  7
TXT
 72
     1
 11
84.64232142857142
 21
1.542500000000027
 31
0.0
100
AcDbText
  0
TEXT
  5
1393
330
117D
100
AcDbEntity
  8
TEXT
100
AcDbText
 10
95.45705357142859
 20
14.03250000000001
 30
0.0
 40
1.875
  1
38.562
 41
0.75
  7
TXT
 72
     1
 11
98.97267857142859
 21
14.03250000000001
 31
0.0
100
AcDbText
  0
TEXT
  5
1394
330
117D
100
AcDbEntity
  8
TEXT
100
AcDbText
 10
95.57424107142859
 20
10.90750000000001
 30
0.0
 40
1.875
  1
49.062
 41
0.75
  7
TXT
 72
     1
 11
98.97267857142859
 21
10.90750000000001
 31
0.0
100
AcDbText
  0
TEXT
  5
1395
330
117D
100
AcDbEntity
  8
TEXT
100
AcDbText
 10
95.69142857142859
 20
7.782500000000023
 30
0.0
 40
1.875
  1
57.812
 41
0.75
  7
TXT
 72
     1
 11
98.97267857142859
 21
7.782500000000023
 31
0.0
100
AcDbText
  0
TEXT
  5
1396
330
117D
100
AcDbEntity
  8
TEXT
100
AcDbText
 10
95.45705357142859
 20
4.657500000000028
 30
0.0
 40
1.875
  1
66.562
 41
0.75
  7
TXT
 72
     1
 11
98.97267857142859
 21
4.657500000000028
 31
0.0
100
AcDbText
  0
TEXT
  5
1397
330
117D
100
AcDbEntity
  8
TEXT
100
AcDbText
 10
95.69142857142859
 20
1.532500000000025
 30
0.0
 40
1.875
  1
75.312
 41
0.75
  7
TXT
 72
     1
 11
98.97267857142859
 21
1.532500000000025
 31
0.0
100
AcDbText
  0
TEXT
  5
1398
330
117D
100
AcDbEntity
  8
TEXT
100
AcDbText
 10
112.6501339285714
 20
14.03250000000001
 30
0.0
 40
1.875
  1
PMR-9450
 41
0.75
  7
TXT
 72
     1
 11
117.9235714285714
 21
14.03250000000001
 31
0.0
100
AcDbText
  0
TEXT
  5
1399
330
117D
100
AcDbEntity
  8
TEXT
100
AcDbText
 10
112.7673214285714
 20
10.90750000000001
 30
0.0
 40
1.875
  1
PMR-9451
 41
0.75
  7
TXT
 72
     1
 11
117.9235714285714
 21
10.90750000000001
 31
0.0
100
AcDbText
  0
TEXT
  5
139A
330
117D
100
AcDbEntity
  8
TEXT
100
AcDbText
 10
112.5329464285714
 20
7.782500000000023
 30
0.0
 40
1.875
  1
PMR-9452
 41
0.75
  7
TXT
 72
     1
 11
117.9235714285714
 21
7.782500000000023
 31
0.0
100
AcDbText
  0
TEXT
  5
139B
330
117D
100
AcDbEntity
  8
TEXT
100
AcDbText
 10
112.5329464285714
 20
4.657500000000028
 30
0.0
 40
1.875
  1
PMR-9453
 41
0.75
  7
TXT
 72
     1
 11
117.9235714285714
 21
4.657500000000028
 31
0.0
100
AcDbText
  0
TEXT
  5
139C
330
117D
100
AcDbEntity
  8
TEXT
100
AcDbText
 10
112.5329464285714
 20
1.532500000000025
 30
0.0
 40
1.875
  1
PMR-9454
 41
0.75
  7
TXT
 72
     1
 11
117.9235714285714
 21
1.532500000000025
 31
0.0
100
AcDbText
  0
TEXT
  5
139D
330
117D
100
AcDbEntity
  8
TEXT
100
AcDbText
 10
134.262857142857
 20
14.03250000000001
 30
0.0
 40
1.875
  1
V-9763-L
 41
0.75
  7
TXT
 72
     1
 11
139.887857142857
 21
14.03250000000001
 31
0.0
100
AcDbText
  0
TEXT
  5
139E
330
117D
100
AcDbEntity
  8
TEXT
100
AcDbText
 10
134.262857142857
 20
10.90750000000001
 30
0.0
 40
1.875
  1
V-9764-L
 41
0.75
  7
TXT
 72
     1
 11
139.887857142857
 21
10.90750000000001
 31
0.0
100
AcDbText
  0
TEXT
  5
139F
330
117D
100
AcDbEntity
  8
TEXT
100
AcDbText
 10
134.262857142857
 20
7.782500000000023
 30
0.0
 40
1.875
  1
V-9765-L
 41
0.75
  7
TXT
 72
     1
 11
139.887857142857
 21
7.782500000000023
 31
0.0
100
AcDbText
  0
TEXT
  5
13A0
330
117D
100
AcDbEntity
  8
TEXT
100
AcDbText
 10
134.262857142857
 20
4.657500000000028
 30
0.0
 40
1.875
  1
V-9766-L
 41
0.75
  7
TXT
 72
     1
 11
139.887857142857
 21
4.657500000000028
 31
0.0
100
AcDbText
  0
TEXT
  5
13A1
330
117D
100
AcDbEntity
  8
TEXT
100
AcDbText
 10
134.262857142857
 20
1.532500000000025
 30
0.0
 40
1.875
  1
V-9767-L
 41
0.75
  7
TXT
 72
     1
 11
139.887857142857
 21
1.532500000000025
 31
0.0
100
AcDbText
  0
TEXT
  5
13A2
330
117D
100
AcDbEntity
  8
TEXT
100
AcDbText
 10
52.93473214285718
 20
38.9925
 30
0.0
 40
1.875
  1
18.500
 41
0.75
  7
TXT
 72
     1
 11
55.98160714285718
 21
38.9925
 31
0.0
100
AcDbText
  0
TEXT
  5
13A3
330
117D
100
AcDbEntity
  8
TEXT
100
AcDbText
 10
52.70035714285717
 20
20.2675
 30
0.0
 40
1.875
  1
25.500
 41
0.75
  7
TXT
 72
     1
 11
55.98160714285717
 21
20.2675
 31
0.0
100
AcDbText
  0
TEXT
  5
13A4
330
117D
100
AcDbEntity
  8
TEXT
100
AcDbText
 10
52.70035714285715
 20
1.542500000000023
 30
0.0
 40
1.875
  1
30.750
 41
0.75
  7
TXT
 72
     1
 11
55.98160714285715
 21
1.542500000000023
 31
0.0
100
AcDbText
  0
LINE
  5
13A5
330
117D
100
AcDbEntity
  8
TEXT
100
AcDbLine
 10
55.98160714285718
 20
50.47503321429303
 30
0.0
 11
55.98160714285718
 21
41.84627726493593
 31
0.0
  0
LINE
  5
13A6
330
117D
100
AcDbEntity
  8
TEXT
100
AcDbLine
 10
55.98160714285718
 20
34.87503321429302
 30
0.0
 11
55.98160714285717
 21
23.12627726493592
 31
0.0
  0
LINE
  5
13A7
330
117D
100
AcDbEntity
  8
TEXT
100
AcDbLine
 10
55.98160714285717
 20
16.15503321429304
 30
0.0
 11
55.98160714285717
 21
4.40627726493594
 31
0.0
  0
TEXT
  5
13A8
330
117D
100
AcDbEntity
  8
TEXT
100
AcDbText
 10
67.14790178571433
 20
35.8675
 30
0.0
 40
1.875
  1
24.000
 41
0.75
  7
TXT
 72
     1
 11
70.31196428571433
 21
35.8675
 31
0.0
100
AcDbText
  0
TEXT
  5
13A9
330
117D
100
AcDbEntity
  8
TEXT
100
AcDbText
 10
66.91352678571431
 20
17.14250000000003
 30
0.0
 40
1.875
  1
29.250
 41
0.75
  7
TXT
 72
     1
 11
70.31196428571431
 21
17.14250000000003
 31
0.0
100
AcDbText
  0
TEXT
  5
13AA
330
117D
100
AcDbEntity
  8
TEXT
100
AcDbText
 10
67.38227678571433
 20
38.9925
 30
0.0
 40
1.875
  1
17.000
 41
0.75
  7
TXT
 72
     1
 11
70.31196428571433
 21
38.9925
 31
0.0
100
AcDbText
  0
LINE
  5
13AB
330
117D
100
AcDbEntity
  8
TEXT
100
AcDbLine
 10
70.31196428571433
 20
50.47503321429303
 30
0.0
 11
70.31196428571433
 21
41.84627726493592
 31
0.0
  0
LINE
  5
13AC
330
117D
100
AcDbEntity
  8
TEXT
100
AcDbLine
 10
70.31196428571433
 20
34.87503321429302
 30
0.0
 11
70.31196428571431
 21
23.12627726493592
 31
0.0
  0
LINE
  5
13AD
330
117D
100
AcDbEntity
  8
TEXT
100
AcDbLine
 10
70.31196428571431
 20
16.15503321429304
 30
0.0
 11
70.31196428571431
 21
4.406277264935935
 31
0.0
  0
TEXT
  5
13AE
330
117D
100
AcDbEntity
  8
TEXT
100
AcDbText
 10
14.43025779458344
 20
227.265
 30
0.0
 40
2.343214285714284
  1
ECONOMIZER ADD-A-RACK (19" P.S.)
 41
0.6875
  7
TXT
 72
     1
 11
37.52068190172629
 21
227.265
 31
0.0
100
AcDbText
  0
TEXT
  5
13AF
330
117D
100
AcDbEntity
  8
TEXT
100
AcDbText
 10
80.6745313100464
 20
227.265
 30
0.0
 40
2.343214285714284
  1
ER-16552 thru ER-16576
 41
0.75
  7
TXT
 72
     1
 11
99.12734381004639
 21
227.265
 31
0.0
100
AcDbText
  0
LINE
  5
13B0
330
117D
100
AcDbEntity
  8
TEXT
100
AcDbLine
 10
81.71045071803048
 20
49.29000000000001
 30
0.0
 11
87.7181057028994
 21
49.29000000000001
 31
0.0
  0
LINE
  5
13B1
330
117D
100
AcDbEntity
  8
TEXT
100
AcDbLine
 10
81.71045071803048
 20
52.41000000000001
 30
0.0
 11
87.7181057028994
 21
52.41000000000001
 31
0.0
  0
LINE
  5
13B2
330
117D
100
AcDbEntity
  8
TEXT
100
AcDbLine
 10
81.71045071803046
 20
30.57000000000002
 30
0.0
 11
87.7181057028994
 21
30.57000000000002
 31
0.0
  0
LINE
  5
13B3
330
117D
100
AcDbEntity
  8
TEXT
100
AcDbLine
 10
81.71045071803046
 20
33.69000000000001
 30
0.0
 11
87.7181057028994
 21
33.69000000000001
 31
0.0
  0
LINE
  5
13B4
330
117D
100
AcDbEntity
  8
TEXT
100
AcDbLine
 10
81.71045071803046
 20
11.85000000000002
 30
0.0
 11
87.7181057028994
 21
11.85000000000002
 31
0.0
  0
LINE
  5
13B5
330
117D
100
AcDbEntity
  8
TEXT
100
AcDbLine
 10
81.71045071803046
 20
14.97000000000001
 30
0.0
 11
87.7181057028994
 21
14.97000000000001
 31
0.0
  0
TEXT
  5
13B6
330
117D
100
AcDbEntity
  8
DIM
100
AcDbText
 10
214.0607447761921
 20
108.8408447118856
 30
0.0
 40
1.25
  1

100
AcDbText
  0
TEXT
  5
13B7
330
117D
100
AcDbEntity
  8
DIM
100
AcDbText
 10
215.123244776192
 20
104.7470862510715
 30
0.0
 40
1.0
  1

100
AcDbText
  0
TEXT
  5
13B8
330
117D
100
AcDbEntity
  8
OBJECT
100
AcDbText
 10
215.9799881740786
 20
155.4437439780443
 30
0.0
 40
1.25
  1

100
AcDbText
  0
TEXT
  5
13B9
330
117D
100
AcDbEntity
  8
DIM
100
AcDbText
 10
365.1276090292151
 20
171.4350225442728
 30
0.0
 40
1.25
  1

100
AcDbText
  0
TEXT
  5
13BA
330
117D
100
AcDbEntity
  8
DIM
100
AcDbText
 10
366.1901090292151
 20
167.3412640834588
 30
0.0
 40
1.0
  1

100
AcDbText
  0
TEXT
  5
13BB
330
117D
100
AcDbEntity
  8
OBJECT
100
AcDbText
 10
367.0468524271019
 20
218.0379218104314
 30
0.0
 40
1.25
  1

100
AcDbText
  0
TEXT
  5
13BC
330
117D
100
AcDbEntity
  8
DIM
100
AcDbText
 10
570.1276090292152
 20
171.4350225442728
 30
0.0
 40
1.25
  1

100
AcDbText
  0
TEXT
  5
13BD
330
117D
100
AcDbEntity
  8
DIM
100
AcDbText
 10
571.1901090292152
 20
167.3412640834588
 30
0.0
 40
1.0
  1

100
AcDbText
  0
TEXT
  5
13BE
330
117D
100
AcDbEntity
  8
OBJECT
100
AcDbText
 10
572.0468524271017
 20
218.0379218104314
 30
0.0
 40
1.25
  1

100
AcDbText
  0
TEXT
  5
13BF
330
117D
100
AcDbEntity
  8
DIM
100
AcDbText
 10
775.1276090292154
 20
171.4350225442728
 30
0.0
 40
1.25
  1

100
AcDbText
  0
TEXT
  5
13C0
330
117D
100
AcDbEntity
  8
DIM
100
AcDbText
 10
776.1901090292154
 20
167.3412640834588
 30
0.0
 40
1.0
  1

100
AcDbText
  0
TEXT
  5
13C1
330
117D
100
AcDbEntity
  8
DIM
100
AcDbText
 10
939.1276090292151
 20
171.4350225442728
 30
0.0
 40
1.25
  1

100
AcDbText
  0
TEXT
  5
13C2
330
117D
100
AcDbEntity
  8
DIM
100
AcDbText
 10
940.1901090292152
 20
167.3412640834588
 30
0.0
 40
1.0
  1

100
AcDbText
  0
TEXT
  5
13C3
330
117D
100
AcDbEntity
  8
OBJECT
100
AcDbText
 10
941.0468524271021
 20
218.0379218104314
 30
0.0
 40
1.25
  1

100
AcDbText
  0
TEXT
  5
13C4
330
117D
100
AcDbEntity
  8
DIM
100
AcDbText
 10
939.1276090292151
 20
171.4350225442728
 30
0.0
 40
1.25
  1

100
AcDbText
  0
TEXT
  5
13C5
330
117D
100
AcDbEntity
  8
DIM
100
AcDbText
 10
940.1901090292152
 20
167.3412640834588
 30
0.0
 40
1.0
  1

100
AcDbText
  0
TEXT
  5
13C6
330
117D
100
AcDbEntity
  8
OBJECT
100
AcDbText
 10
941.0468524271021
 20
218.0379218104314
 30
0.0
 40
1.25
  1

100
AcDbText
  0
TEXT
  5
13C7
330
117D
100
AcDbEntity
  8
DIM
100
AcDbText
 10
957.0949866255363
 20
356.3593991589006
 30
0.0
 40
0.72
  1

100
AcDbText
  0
TEXT
  5
13C8
330
117D
100
AcDbEntity
  8
DIM
100
AcDbText
 10
893.5591098844257
 20
333.4841338323929
 30
0.0
 40
0.72
  1

100
AcDbText
  0
TEXT
  5
13C9
330
117D
100
AcDbEntity
  8
DIM
100
AcDbText
 10
1044.471430845866
 20
284.362395787692
 30
0.0
 40
0.72
  1

100
AcDbText
  0
TEXT
  5
13CA
330
117D
100
AcDbEntity
  8
DIM
100
AcDbText
 10
980.9355541047562
 20
261.4871304611842
 30
0.0
 40
0.72
  1

100
AcDbText
  0
TEXT
  5
13CB
330
117D
100
AcDbEntity
  8
DIM
100
AcDbText
 10
947.124786773536
 20
369.974361794991
 30
0.0
 40
0.72
  1

100
AcDbText
  0
TEXT
  5
13CC
330
117D
100
AcDbEntity
  8
DIM
100
AcDbText
 10
883.5889100324257
 20
347.0990964684834
 30
0.0
 40
0.72
  1

100
AcDbText
  0
TEXT
  5
13CD
330
117D
100
AcDbEntity
  8
DIM
100
AcDbText
 10
883.5889100324257
 20
387.0990964684833
 30
0.0
 40
0.72
  1

100
AcDbText
  0
TEXT
  5
13CE
330
117D
100
AcDbEntity
  8
DIM
100
AcDbText
 10
945.0889100324257
 20
387.0990964684833
 30
0.0
 40
0.72
  1

100
AcDbText
  0
TEXT
  5
13CF
330
117D
100
AcDbEntity
  8
DIM
100
AcDbText
 10
570.1276090292152
 20
171.4350225442728
 30
0.0
 40
1.25
  1

100
AcDbText
  0
TEXT
  5
13D0
330
117D
100
AcDbEntity
  8
DIM
100
AcDbText
 10
571.1901090292152
 20
167.3412640834588
 30
0.0
 40
1.0
  1

100
AcDbText
  0
TEXT
  5
13D1
330
117D
100
AcDbEntity
  8
OBJECT
100
AcDbText
 10
572.0468524271017
 20
218.0379218104314
 30
0.0
 40
1.25
  1

100
AcDbText
  0
TEXT
  5
13D2
330
117D
100
AcDbEntity
  8
TEXT
100
AcDbText
 10
3.429805845818178
 20
104.8770716220184
 30
0.0
 40
1.674107142857141
  1
%%uMATERIAL:
 41
0.75
100
AcDbText
  0
TEXT
  5
13D3
330
117D
100
AcDbEntity
  8
TEXT
100
AcDbText
 10
3.429805845818178
 20
102.091357336304
 30
0.0
 40
1.674107142857141
  1
REAR DOOR
 41
0.75
100
AcDbText
  0
TEXT
  5
13D4
330
117D
100
AcDbEntity
  8
TEXT
100
AcDbText
 10
3.429805845818178
 20
99.30564305058986
 30
0.0
 40
1.674107142857141
  1
REAR DOOR STIFFENER
 41
0.75
100
AcDbText
  0
TEXT
  5
13D5
330
117D
100
AcDbEntity
  8
TEXT
100
AcDbText
 10
3.429805845818178
 20
96.51992876487556
 30
0.0
 40
1.674107142857141
  1
TOP, BOTTOM, RAIL SUPPORTS
 41
0.75
100
AcDbText
  0
TEXT
  5
13D6
330
117D
100
AcDbEntity
  8
TEXT
100
AcDbText
 10
3.429805845818178
 20
93.73421447916133
 30
0.0
 40
1.674107142857141
  1
 AND DOOR STOPS
 41
0.75
100
AcDbText
  0
TEXT
  5
13D7
330
117D
100
AcDbEntity
  8
TEXT
100
AcDbText
 10
3.429805845818178
 20
90.94850019344701
 30
0.0
 40
1.674107142857141
  1
VERTICAL RAILS
 41
0.75
100
AcDbText
  0
TEXT
  5
13D8
330
117D
100
AcDbEntity
  8
TEXT
100
AcDbText
 10
3.429805845818178
 20
88.16278590773277
 30
0.0
 40
1.674107142857141
  1
PANEL MOUNTING RAILS
 41
0.75
100
AcDbText
  0
TEXT
  5
13D9
330
117D
100
AcDbEntity
  8
TEXT
100
AcDbText
 10
3.429805845818178
 20
82.59135733630419
 30
0.0
 40
1.674107142857141
  1
%%uFINISH:
 41
0.75
100
AcDbText
  0
TEXT
  5
13DA
330
117D
100
AcDbEntity
  8
TEXT
100
AcDbText
 10
3.429805845818178
 20
79.8056430505898
 30
0.0
 40
1.674107142857141
  1
FRAME ASSEMBLY
 41
0.75
100
AcDbText
  0
TEXT
  5
13DB
330
117D
100
AcDbEntity
  8
TEXT
100
AcDbText
 10
3.429805845818178
 20
77.01992876487557
 30
0.0
 40
1.674107142857141
  1
 AND REAR DOOR
 41
0.75
100
AcDbText
  0
TEXT
  5
13DC
330
117D
100
AcDbEntity
  8
TEXT
100
AcDbText
 10
3.429805845818178
 20
68.66278590773268
 30
0.0
 40
1.674107142857141
  1
PANEL MOUNTING RAILS
 41
0.75
100
AcDbText
  0
TEXT
  5
13DD
330
117D
100
AcDbEntity
  8
TEXT
100
AcDbText
 10
3.429805845818178
 20
65.87707162201842
 30
0.0
 40
1.674107142857141
  1
 AND DOOR STOPS
 41
0.75
100
AcDbText
  0
LINE
  5
13DE
330
117D
100
AcDbEntity
  8
TEXT
100
AcDbLine
 10
49.77156193415052
 20
88.16278590773277
 30
0.0
 11
27.74979044096827
 21
88.16278590773277
 31
0.0
  0
LINE
  5
13DF
330
117D
100
AcDbEntity
  8
TEXT
100
AcDbLine
 10
49.77156193415052
 20
90.94850019344701
 30
0.0
 11
20.65381380284986
 21
90.94850019344701
 31
0.0
  0
LINE
  5
13E0
330
117D
100
AcDbEntity
  8
TEXT
100
AcDbLine
 10
49.77156193415052
 20
93.73421447916133
 30
0.0
 11
22.42780796237942
 21
93.73421447916133
 31
0.0
  0
LINE
  5
13E1
330
117D
100
AcDbEntity
  8
TEXT
100
AcDbLine
 10
49.77156193415052
 20
99.30564305058986
 30
0.0
 11
26.86279336120346
 21
99.30564305058986
 31
0.0
  0
LINE
  5
13E2
330
117D
100
AcDbEntity
  8
TEXT
100
AcDbLine
 10
49.77156193415052
 20
102.091357336304
 30
0.0
 11
14.89363656596442
 21
102.091357336304
 31
0.0
  0
TEXT
  5
13E3
330
117D
100
AcDbEntity
  8
DIM
100
AcDbText
 10
775.1276090292154
 20
171.4350225442728
 30
0.0
 40
1.25
  1

100
AcDbText
  0
TEXT
  5
13E4
330
117D
100
AcDbEntity
  8
DIM
100
AcDbText
 10
776.1901090292154
 20
167.3412640834588
 30
0.0
 40
1.0
  1

100
AcDbText
  0
TEXT
  5
13E5
330
117D
100
AcDbEntity
  8
DIM
100
AcDbText
 10
939.1276090292151
 20
171.4350225442728
 30
0.0
 40
1.25
  1

100
AcDbText
  0
TEXT
  5
13E6
330
117D
100
AcDbEntity
  8
DIM
100
AcDbText
 10
940.1901090292152
 20
167.3412640834588
 30
0.0
 40
1.0
  1

100
AcDbText
  0
TEXT
  5
13E7
330
117D
100
AcDbEntity
  8
OBJECT
100
AcDbText
 10
941.0468524271021
 20
218.0379218104314
 30
0.0
 40
1.25
  1

100
AcDbText
  0
TEXT
  5
13E8
330
117D
100
AcDbEntity
  8
DIM
100
AcDbText
 10
939.1276090292151
 20
171.4350225442728
 30
0.0
 40
1.25
  1

100
AcDbText
  0
TEXT
  5
13E9
330
117D
100
AcDbEntity
  8
DIM
100
AcDbText
 10
940.1901090292152
 20
167.3412640834588
 30
0.0
 40
1.0
  1

100
AcDbText
  0
TEXT
  5
13EA
330
117D
100
AcDbEntity
  8
OBJECT
100
AcDbText
 10
941.0468524271021
 20
218.0379218104314
 30
0.0
 40
1.25
  1

100
AcDbText
  0
TEXT
  5
13EB
330
117D
100
AcDbEntity
  8
DIM
100
AcDbText
 10
957.0949866255363
 20
356.3593991589006
 30
0.0
 40
0.72
  1

100
AcDbText
  0
TEXT
  5
13EC
330
117D
100
AcDbEntity
  8
DIM
100
AcDbText
 10
893.5591098844257
 20
333.4841338323929
 30
0.0
 40
0.72
  1

100
AcDbText
  0
TEXT
  5
13ED
330
117D
100
AcDbEntity
  8
DIM
100
AcDbText
 10
1044.471430845866
 20
284.362395787692
 30
0.0
 40
0.72
  1

100
AcDbText
  0
TEXT
  5
13EE
330
117D
100
AcDbEntity
  8
DIM
100
AcDbText
 10
980.9355541047562
 20
261.4871304611842
 30
0.0
 40
0.72
  1

100
AcDbText
  0
TEXT
  5
13EF
330
117D
100
AcDbEntity
  8
DIM
100
AcDbText
 10
947.124786773536
 20
369.974361794991
 30
0.0
 40
0.72
  1

100
AcDbText
  0
TEXT
  5
13F0
330
117D
100
AcDbEntity
  8
DIM
100
AcDbText
 10
883.5889100324257
 20
347.0990964684834
 30
0.0
 40
0.72
  1

100
AcDbText
  0
TEXT
  5
13F1
330
117D
100
AcDbEntity
  8
DIM
100
AcDbText
 10
883.5889100324257
 20
387.0990964684833
 30
0.0
 40
0.72
  1

100
AcDbText
  0
TEXT
  5
13F2
330
117D
100
AcDbEntity
  8
DIM
100
AcDbText
 10
945.0889100324257
 20
387.0990964684833
 30
0.0
 40
0.72
  1

100
AcDbText
  0
TEXT
  5
13F3
330
117D
100
AcDbEntity
  8
DIM
100
AcDbText
 10
549.6276090292152
 20
171.4350225442728
 30
0.0
 40
1.25
  1

100
AcDbText
  0
TEXT
  5
13F4
330
117D
100
AcDbEntity
  8
DIM
100
AcDbText
 10
550.6901090292152
 20
167.3412640834588
 30
0.0
 40
1.0
  1

100
AcDbText
  0
TEXT
  5
13F5
330
117D
100
AcDbEntity
  8
DIM
100
AcDbText
 10
713.6276090292152
 20
171.4350225442728
 30
0.0
 40
1.25
  1

100
AcDbText
  0
TEXT
  5
13F6
330
117D
100
AcDbEntity
  8
DIM
100
AcDbText
 10
714.6901090292153
 20
167.3412640834588
 30
0.0
 40
1.0
  1

100
AcDbText
  0
TEXT
  5
13F7
330
117D
100
AcDbEntity
  8
OBJECT
100
AcDbText
 10
715.5468524271017
 20
218.0379218104314
 30
0.0
 40
1.25
  1

100
AcDbText
  0
TEXT
  5
13F8
330
117D
100
AcDbEntity
  8
DIM
100
AcDbText
 10
713.6276090292152
 20
171.4350225442728
 30
0.0
 40
1.25
  1

100
AcDbText
  0
TEXT
  5
13F9
330
117D
100
AcDbEntity
  8
DIM
100
AcDbText
 10
714.6901090292153
 20
167.3412640834588
 30
0.0
 40
1.0
  1

100
AcDbText
  0
TEXT
  5
13FA
330
117D
100
AcDbEntity
  8
OBJECT
100
AcDbText
 10
715.5468524271017
 20
218.0379218104314
 30
0.0
 40
1.25
  1

100
AcDbText
  0
TEXT
  5
13FB
330
117D
100
AcDbEntity
  8
DIM
100
AcDbText
 10
731.5949866255363
 20
356.3593991589006
 30
0.0
 40
0.72
  1

100
AcDbText
  0
TEXT
  5
13FC
330
117D
100
AcDbEntity
  8
DIM
100
AcDbText
 10
668.0591098844257
 20
333.4841338323929
 30
0.0
 40
0.72
  1

100
AcDbText
  0
TEXT
  5
13FD
330
117D
100
AcDbEntity
  8
DIM
100
AcDbText
 10
818.9714308458668
 20
284.362395787692
 30
0.0
 40
0.72
  1

100
AcDbText
  0
TEXT
  5
13FE
330
117D
100
AcDbEntity
  8
DIM
100
AcDbText
 10
755.4355541047563
 20
261.4871304611842
 30
0.0
 40
0.72
  1

100
AcDbText
  0
TEXT
  5
13FF
330
117D
100
AcDbEntity
  8
DIM
100
AcDbText
 10
721.624786773536
 20
369.974361794991
 30
0.0
 40
0.72
  1

100
AcDbText
  0
TEXT
  5
1400
330
117D
100
AcDbEntity
  8
DIM
100
AcDbText
 10
658.0889100324258
 20
347.0990964684834
 30
0.0
 40
0.72
  1

100
AcDbText
  0
TEXT
  5
1401
330
117D
100
AcDbEntity
  8
DIM
100
AcDbText
 10
658.0889100324258
 20
387.0990964684833
 30
0.0
 40
0.72
  1

100
AcDbText
  0
TEXT
  5
1402
330
117D
100
AcDbEntity
  8
DIM
100
AcDbText
 10
719.5889100324257
 20
387.0990964684833
 30
0.0
 40
0.72
  1

100
AcDbText
  0
TEXT
  5
1403
330
117D
100
AcDbEntity
  8
DIM
100
AcDbText
 10
570.1276090292152
 20
171.4350225442728
 30
0.0
 40
1.25
  1

100
AcDbText
  0
TEXT
  5
1404
330
117D
100
AcDbEntity
  8
DIM
100
AcDbText
 10
571.1901090292152
 20
167.3412640834588
 30
0.0
 40
1.0
  1

100
AcDbText
  0
TEXT
  5
1405
330
117D
100
AcDbEntity
  8
DIM
100
AcDbText
 10
734.1276090292153
 20
171.4350225442728
 30
0.0
 40
1.25
  1

100
AcDbText
  0
TEXT
  5
1406
330
117D
100
AcDbEntity
  8
DIM
100
AcDbText
 10
735.1901090292152
 20
167.3412640834588
 30
0.0
 40
1.0
  1

100
AcDbText
  0
TEXT
  5
1407
330
117D
100
AcDbEntity
  8
OBJECT
100
AcDbText
 10
736.0468524271017
 20
218.0379218104314
 30
0.0
 40
1.25
  1

100
AcDbText
  0
TEXT
  5
1408
330
117D
100
AcDbEntity
  8
DIM
100
AcDbText
 10
734.1276090292153
 20
171.4350225442728
 30
0.0
 40
1.25
  1

100
AcDbText
  0
TEXT
  5
1409
330
117D
100
AcDbEntity
  8
DIM
100
AcDbText
 10
735.1901090292152
 20
167.3412640834588
 30
0.0
 40
1.0
  1

100
AcDbText
  0
TEXT
  5
140A
330
117D
100
AcDbEntity
  8
OBJECT
100
AcDbText
 10
736.0468524271017
 20
218.0379218104314
 30
0.0
 40
1.25
  1

100
AcDbText
  0
TEXT
  5
140B
330
117D
100
AcDbEntity
  8
DIM
100
AcDbText
 10
752.0949866255363
 20
356.3593991589006
 30
0.0
 40
0.72
  1

100
AcDbText
  0
TEXT
  5
140C
330
117D
100
AcDbEntity
  8
DIM
100
AcDbText
 10
688.5591098844257
 20
333.4841338323929
 30
0.0
 40
0.72
  1

100
AcDbText
  0
TEXT
  5
140D
330
117D
100
AcDbEntity
  8
DIM
100
AcDbText
 10
839.4714308458668
 20
284.362395787692
 30
0.0
 40
0.72
  1

100
AcDbText
  0
TEXT
  5
140E
330
117D
100
AcDbEntity
  8
DIM
100
AcDbText
 10
775.9355541047563
 20
261.4871304611842
 30
0.0
 40
0.72
  1

100
AcDbText
  0
TEXT
  5
140F
330
117D
100
AcDbEntity
  8
DIM
100
AcDbText
 10
742.124786773536
 20
369.974361794991
 30
0.0
 40
0.72
  1

100
AcDbText
  0
TEXT
  5
1410
330
117D
100
AcDbEntity
  8
DIM
100
AcDbText
 10
678.5889100324258
 20
347.0990964684834
 30
0.0
 40
0.72
  1

100
AcDbText
  0
TEXT
  5
1411
330
117D
100
AcDbEntity
  8
DIM
100
AcDbText
 10
678.5889100324258
 20
387.0990964684833
 30
0.0
 40
0.72
  1

100
AcDbText
  0
TEXT
  5
1412
330
117D
100
AcDbEntity
  8
DIM
100
AcDbText
 10
740.0889100324256
 20
387.0990964684833
 30
0.0
 40
0.72
  1

100
AcDbText
  0
TEXT
  5
1413
330
117D
100
AcDbEntity
  8
DIM
100
AcDbText
 10
470.8800722548446
 20
130.3216327238477
 30
0.0
 40
1.25
  1

100
AcDbText
  0
TEXT
  5
1414
330
117D
100
AcDbEntity
  8
DIM
100
AcDbText
 10
471.9425722548446
 20
126.2278742630337
 30
0.0
 40
1.0
  1

100
AcDbText
  0
TEXT
  5
1415
330
117D
100
AcDbEntity
  8
OBJECT
100
AcDbText
 10
472.7993156527311
 20
176.9245319900064
 30
0.0
 40
1.25
  1

100
AcDbText
  0
TEXT
  5
1416
330
117D
100
AcDbEntity
  8
DIM
100
AcDbText
 10
675.8800722548445
 20
130.3216327238477
 30
0.0
 40
1.25
  1

100
AcDbText
  0
TEXT
  5
1417
330
117D
100
AcDbEntity
  8
DIM
100
AcDbText
 10
676.9425722548445
 20
126.2278742630337
 30
0.0
 40
1.0
  1

100
AcDbText
  0
TEXT
  5
1418
330
117D
100
AcDbEntity
  8
OBJECT
100
AcDbText
 10
677.7993156527314
 20
176.9245319900064
 30
0.0
 40
1.25
  1

100
AcDbText
  0
TEXT
  5
1419
330
117D
100
AcDbEntity
  8
DIM
100
AcDbText
 10
880.8800722548447
 20
130.3216327238477
 30
0.0
 40
1.25
  1

100
AcDbText
  0
TEXT
  5
141A
330
117D
100
AcDbEntity
  8
DIM
100
AcDbText
 10
881.9425722548444
 20
126.2278742630337
 30
0.0
 40
1.0
  1

100
AcDbText
  0
TEXT
  5
141B
330
117D
100
AcDbEntity
  8
DIM
100
AcDbText
 10
1044.880072254843
 20
130.3216327238477
 30
0.0
 40
1.25
  1

100
AcDbText
  0
TEXT
  5
141C
330
117D
100
AcDbEntity
  8
DIM
100
AcDbText
 10
1045.942572254844
 20
126.2278742630337
 30
0.0
 40
1.0
  1

100
AcDbText
  0
TEXT
  5
141D
330
117D
100
AcDbEntity
  8
OBJECT
100
AcDbText
 10
1046.79931565273
 20
176.9245319900064
 30
0.0
 40
1.25
  1

100
AcDbText
  0
TEXT
  5
141E
330
117D
100
AcDbEntity
  8
DIM
100
AcDbText
 10
1044.880072254843
 20
130.3216327238477
 30
0.0
 40
1.25
  1

100
AcDbText
  0
TEXT
  5
141F
330
117D
100
AcDbEntity
  8
DIM
100
AcDbText
 10
1045.942572254844
 20
126.2278742630337
 30
0.0
 40
1.0
  1

100
AcDbText
  0
TEXT
  5
1420
330
117D
100
AcDbEntity
  8
OBJECT
100
AcDbText
 10
1046.79931565273
 20
176.9245319900064
 30
0.0
 40
1.25
  1

100
AcDbText
  0
TEXT
  5
1421
330
117D
100
AcDbEntity
  8
DIM
100
AcDbText
 10
1062.847449851165
 20
315.2460093384754
 30
0.0
 40
0.72
  1

100
AcDbText
  0
TEXT
  5
1422
330
117D
100
AcDbEntity
  8
DIM
100
AcDbText
 10
999.3115731100553
 20
292.3707440119678
 30
0.0
 40
0.72
  1

100
AcDbText
  0
TEXT
  5
1423
330
117D
100
AcDbEntity
  8
DIM
100
AcDbText
 10
1150.223894071496
 20
243.2490059672666
 30
0.0
 40
0.72
  1

100
AcDbText
  0
TEXT
  5
1424
330
117D
100
AcDbEntity
  8
DIM
100
AcDbText
 10
1086.688017330385
 20
220.3737406407591
 30
0.0
 40
0.72
  1

100
AcDbText
  0
TEXT
  5
1425
330
117D
100
AcDbEntity
  8
DIM
100
AcDbText
 10
1052.877249999165
 20
328.8609719745659
 30
0.0
 40
0.72
  1

100
AcDbText
  0
TEXT
  5
1426
330
117D
100
AcDbEntity
  8
DIM
100
AcDbText
 10
989.3413732580548
 20
305.9857066480582
 30
0.0
 40
0.72
  1

100
AcDbText
  0
TEXT
  5
1427
330
117D
100
AcDbEntity
  8
DIM
100
AcDbText
 10
989.3413732580548
 20
345.9857066480582
 30
0.0
 40
0.72
  1

100
AcDbText
  0
TEXT
  5
1428
330
117D
100
AcDbEntity
  8
DIM
100
AcDbText
 10
1050.841373258055
 20
345.9857066480582
 30
0.0
 40
0.72
  1

100
AcDbText
  0
LINE
  5
1429
330
117D
100
AcDbEntity
  8
OBJECT
100
AcDbLine
 10
131.9296313817308
 20
119.7019835608664
 30
0.0
 11
131.9296313817308
 21
186.2639835608663
 31
0.0
  0
LINE
  5
142A
330
117D
100
AcDbEntity
  8
OBJECT
100
AcDbLine
 10
131.9296313817308
 20
186.2639835608663
 30
0.0
 11
109.9296313817307
 21
186.2639835608663
 31
0.0
  0
LINE
  5
142B
330
117D
100
AcDbEntity
  8
OBJECT
100
AcDbLine
 10
109.9296313817307
 20
186.2639835608663
 30
0.0
 11
109.9296313817307
 21
119.7019835608664
 31
0.0
  0
LINE
  5
142C
330
117D
100
AcDbEntity
  8
OBJECT
100
AcDbLine
 10
109.9296313817307
 20
119.7019835608664
 30
0.0
 11
131.9296313817308
 21
119.7019835608664
 31
0.0
  0
LINE
  5
142D
330
117D
100
AcDbEntity
  8
OBJECT
100
AcDbLine
 10
130.4921313817308
 20
119.7019835608664
 30
0.0
 11
130.4921313817308
 21
186.2639835608663
 31
0.0
  0
LINE
  5
142E
330
117D
100
AcDbEntity
  8
OBJECT
100
AcDbLine
 10
111.3671313817309
 20
186.2639835608663
 30
0.0
 11
111.3671313817309
 21
119.7019835608664
 31
0.0
  0
LINE
  5
142F
330
117D
100
AcDbEntity
  8
OBJECT
100
AcDbLine
 10
111.3671313817309
 20
122.3269835608664
 30
0.0
 11
130.4921313817308
 21
122.3269835608664
 31
0.0
  0
LINE
  5
1430
330
117D
100
AcDbEntity
  8
OBJECT
100
AcDbLine
 10
130.4921313817308
 20
183.6389835608664
 30
0.0
 11
111.3671313817309
 21
183.6389835608664
 31
0.0
  0
LINE
  5
1431
330
117D
100
AcDbEntity
  8
OBJECT
100
AcDbLine
 10
89.33753973111246
 20
146.996692177346
 30
0.0
 11
89.33753973111246
 21
186.2639835608663
 31
0.0
  0
LINE
  5
1432
330
117D
100
AcDbEntity
  8
OBJECT
100
AcDbLine
 10
89.33753973111246
 20
186.2639835608663
 30
0.0
 11
63.8375397311125
 21
186.2639835608663
 31
0.0
  0
LINE
  5
1433
330
117D
100
AcDbEntity
  8
OBJECT
100
AcDbLine
 10
63.8375397311125
 20
186.2639835608663
 30
0.0
 11
63.8375397311125
 21
181.3484510994881
 31
0.0
  0
LINE
  5
1434
330
117D
100
AcDbEntity
  8
OBJECT
100
AcDbLine
 10
87.86953973111236
 20
183.6389835608663
 30
0.0
 11
65.30553973111247
 21
183.6389835608663
 31
0.0
  0
ARC
  5
1435
330
117D
100
AcDbEntity
  8
OBJECT
100
AcDbCircle
 10
34.85222723463009
 20
121.0139835608664
 30
0.0
 40
0.5545
100
AcDbArc
 50
96.41980556739294
 51
263.580194432607
  0
LINE
  5
1436
330
117D
100
AcDbEntity
  8
OBJECT
100
AcDbLine
 10
34.91422723463012
 20
120.5241987754127
 30
0.0
 11
34.91422723463012
 21
120.3810136302494
 31
0.0
  0
LINE
  5
1437
330
117D
100
AcDbEntity
  8
OBJECT
100
AcDbLine
 10
34.79022723463009
 20
121.6060420944246
 30
0.0
 11
34.79022723463009
 21
121.6431641690965
 31
0.0
  0
LINE
  5
1438
330
117D
100
AcDbEntity
  8
OBJECT
100
AcDbLine
 10
34.79022723463009
 20
120.5241987754127
 30
0.0
 11
34.79022723463009
 21
120.3810136302494
 31
0.0
  0
ARC
  5
1439
330
117D
100
AcDbEntity
  8
OBJECT
100
AcDbCircle
 10
34.85222723463009
 20
121.0139835608664
 30
0.0
 40
0.5545
100
AcDbArc
 50
276.4198055673929
 51
83.58019443260706
  0
LINE
  5
143A
330
117D
100
AcDbEntity
  8
OBJECT
100
AcDbLine
 10
34.91422723463012
 20
121.6060420944246
 30
0.0
 11
34.91422723463012
 21
121.6431641690965
 31
0.0
  0
LINE
  5
143B
330
117D
100
AcDbEntity
  8
OBJECT
100
AcDbLine
 10
34.91422723463012
 20
121.4628569492612
 30
0.0
 11
34.91422723463012
 21
121.6060420944246
 31
0.0
  0
LINE
  5
143C
330
117D
100
AcDbEntity
  8
OBJECT
100
AcDbLine
 10
34.79022723463009
 20
121.6060420944246
 30
0.0
 11
34.79022723463009
 21
121.4628569492612
 31
0.0
  0
LINE
  5
143D
330
117D
100
AcDbEntity
  8
OBJECT
100
AcDbLine
 10
25.82122723463015
 20
121.6060420944246
 30
0.0
 11
25.82122723463015
 21
121.4628569492612
 31
0.0
  0
LINE
  5
143E
330
117D
100
AcDbEntity
  8
OBJECT
100
AcDbLine
 10
25.69722723463012
 20
121.4628569492612
 30
0.0
 11
25.69722723463012
 21
121.6060420944246
 31
0.0
  0
LINE
  5
143F
330
117D
100
AcDbEntity
  8
OBJECT
100
AcDbLine
 10
25.69722723463012
 20
121.6060420944246
 30
0.0
 11
25.69722723463012
 21
121.6431641690965
 31
0.0
  0
ARC
  5
1440
330
117D
100
AcDbEntity
  8
OBJECT
100
AcDbCircle
 10
25.75922723463013
 20
121.0139835608664
 30
0.0
 40
0.5545
100
AcDbArc
 50
96.41980556739294
 51
263.580194432607
  0
LINE
  5
1441
330
117D
100
AcDbEntity
  8
OBJECT
100
AcDbLine
 10
25.82122723463015
 20
120.5241987754127
 30
0.0
 11
25.82122723463015
 21
120.3810136302494
 31
0.0
  0
LINE
  5
1442
330
117D
100
AcDbEntity
  8
OBJECT
100
AcDbLine
 10
25.82122723463015
 20
121.6060420944246
 30
0.0
 11
25.82122723463015
 21
121.6431641690965
 31
0.0
  0
LINE
  5
1443
330
117D
100
AcDbEntity
  8
OBJECT
100
AcDbLine
 10
25.69722723463012
 20
120.5241987754127
 30
0.0
 11
25.69722723463012
 21
120.3810136302494
 31
0.0
  0
ARC
  5
1444
330
117D
100
AcDbEntity
  8
OBJECT
100
AcDbCircle
 10
25.75922723463013
 20
121.0139835608664
 30
0.0
 40
0.5545
100
AcDbArc
 50
276.4198055673929
 51
83.58019443260706
  0
LINE
  5
1445
330
117D
100
AcDbEntity
  8
OBJECT
100
AcDbLine
 10
41.30572723463017
 20
119.7019835608664
 30
0.0
 11
19.30572723463005
 21
119.7019835608664
 31
0.0
  0
LINE
  5
1446
330
117D
100
AcDbEntity
  8
OBJECT
100
AcDbLine
 10
41.30572723463017
 20
186.2639835608663
 30
0.0
 11
41.30572723463017
 21
119.7019835608664
 31
0.0
  0
LINE
  5
1447
330
117D
100
AcDbEntity
  8
OBJECT
100
AcDbLine
 10
19.30572723463017
 20
186.2639835608663
 30
0.0
 11
41.30572723463017
 21
186.2639835608663
 31
0.0
  0
LINE
  5
1448
330
117D
100
AcDbEntity
  8
OBJECT
100
AcDbLine
 10
19.30572723463005
 20
119.7019835608664
 30
0.0
 11
19.30572723463017
 21
186.2639835608663
 31
0.0
  0
LINE
  5
1449
330
117D
100
AcDbEntity
  8
OBJECT
100
AcDbLine
 10
87.86953973111236
 20
148.4032058322966
 30
0.0
 11
87.86953973111236
 21
186.2639835608663
 31
0.0
  0
LINE
  5
144A
330
117D
100
AcDbEntity
  8
OBJECT
100
AcDbLine
 10
65.30553973111247
 20
186.2639835608663
 30
0.0
 11
65.3055397311125
 21
182.0298851902372
 31
0.0
  0
TEXT
  5
144B
330
117D
100
AcDbEntity
  8
DIM
100
AcDbText
 10
675.8800722548445
 20
130.3216327238477
 30
0.0
 40
1.25
  1

100
AcDbText
  0
TEXT
  5
144C
330
117D
100
AcDbEntity
  8
DIM
100
AcDbText
 10
676.9425722548445
 20
126.2278742630337
 30
0.0
 40
1.0
  1

100
AcDbText
  0
LINE
  5
144D
330
117D
100
AcDbEntity
  8
OBJECT
100
AcDbLine
 10
130.4921313817308
 20
198.3911320733468
 30
0.0
 11
131.9296313817308
 21
198.3911320733468
 31
0.0
  0
LINE
  5
144E
330
117D
100
AcDbEntity
  8
OBJECT
100
AcDbLine
 10
110.0076313817309
 20
198.4691320733468
 30
0.0
 11
110.0076313817309
 21
223.8131320733468
 31
0.0
  0
LINE
  5
144F
330
117D
100
AcDbEntity
  8
OBJECT
100
AcDbLine
 10
131.8516313817308
 20
198.4691320733468
 30
0.0
 11
131.8516313817308
 21
223.8131320733468
 31
0.0
  0
LINE
  5
1450
330
117D
100
AcDbEntity
  8
OBJECT
100
AcDbLine
 10
110.0076313817309
 20
198.4691320733468
 30
0.0
 11
131.8516313817308
 21
198.4691320733468
 31
0.0
  0
LINE
  5
1451
330
117D
100
AcDbEntity
  8
OBJECT
100
AcDbLine
 10
131.9296313817308
 20
198.3911320733468
 30
0.0
 11
131.9296313817308
 21
199.8591320733469
 31
0.0
  0
LINE
  5
1452
330
117D
100
AcDbEntity
  8
OBJECT
100
AcDbLine
 10
109.9296313817307
 20
198.3911320733468
 30
0.0
 11
109.9296313817307
 21
199.8591320733469
 31
0.0
  0
LINE
  5
1453
330
117D
100
AcDbEntity
  8
OBJECT
100
AcDbLine
 10
109.9296313817307
 20
198.3911320733468
 30
0.0
 11
111.3671313817307
 21
198.3911320733468
 31
0.0
  0
LINE
  5
1454
330
117D
100
AcDbEntity
  8
OBJECT
100
AcDbLine
 10
109.9296313817307
 20
223.8911320733468
 30
0.0
 11
111.3671313817307
 21
223.8911320733468
 31
0.0
  0
LINE
  5
1455
330
117D
100
AcDbEntity
  8
OBJECT
100
AcDbLine
 10
109.9296313817307
 20
223.8911320733468
 30
0.0
 11
109.9296313817307
 21
222.4231320733468
 31
0.0
  0
LINE
  5
1456
330
117D
100
AcDbEntity
  8
OBJECT
100
AcDbLine
 10
131.9296313817308
 20
223.8911320733468
 30
0.0
 11
131.9296313817308
 21
222.4231320733468
 31
0.0
  0
LINE
  5
1457
330
117D
100
AcDbEntity
  8
OBJECT
100
AcDbLine
 10
110.0076313817309
 20
223.8131320733468
 30
0.0
 11
131.8516313817308
 21
223.8131320733468
 31
0.0
  0
LINE
  5
1458
330
117D
100
AcDbEntity
  8
OBJECT
100
AcDbLine
 10
109.9296313817307
 20
222.4231320733468
 30
0.0
 11
110.0076313817309
 21
222.4231320733468
 31
0.0
  0
LINE
  5
1459
330
117D
100
AcDbEntity
  8
OBJECT
100
AcDbLine
 10
109.9296313817307
 20
199.8591320733469
 30
0.0
 11
110.0076313817309
 21
199.8591320733469
 31
0.0
  0
LINE
  5
145A
330
117D
100
AcDbEntity
  8
OBJECT
100
AcDbLine
 10
131.8516313817308
 20
222.4231320733468
 30
0.0
 11
131.9296313817308
 21
222.4231320733468
 31
0.0
  0
LINE
  5
145B
330
117D
100
AcDbEntity
  8
OBJECT
100
AcDbLine
 10
131.8516313817308
 20
199.8591320733469
 30
0.0
 11
131.9296313817308
 21
199.8591320733469
 31
0.0
  0
LINE
  5
145C
330
117D
100
AcDbEntity
  8
PMR
100
AcDbLine
 10
129.8986313817309
 20
122.3569835608665
 30
0.0
 11
129.8986313817309
 21
183.6069835608663
 31
0.0
  0
LINE
  5
145D
330
117D
100
AcDbEntity
  8
PMR
100
AcDbLine
 10
111.9618813817309
 20
183.6069835608663
 30
0.0
 11
111.9618813817309
 21
122.3569835608665
 31
0.0
  0
CIRCLE
  5
145E
330
117D
100
AcDbEntity
  8
PMR
100
AcDbCircle
 10
130.0861313817309
 20
123.8579835608665
 30
0.0
 40
0.095
  0
CIRCLE
  5
145F
330
117D
100
AcDbEntity
  8
PMR
100
AcDbCircle
 10
130.0861313817309
 20
123.2329835608664
 30
0.0
 40
0.095
  0
CIRCLE
  5
1460
330
117D
100
AcDbEntity
  8
PMR
100
AcDbCircle
 10
130.0861313817309
 20
122.6079835608665
 30
0.0
 40
0.095
  0
CIRCLE
  5
1461
330
117D
100
AcDbEntity
  8
PMR
100
AcDbCircle
 10
111.7741313817308
 20
122.6079835608665
 30
0.0
 40
0.095
  0
CIRCLE
  5
1462
330
117D
100
AcDbEntity
  8
PMR
100
AcDbCircle
 10
111.7741313817308
 20
123.2329835608664
 30
0.0
 40
0.095
  0
CIRCLE
  5
1463
330
117D
100
AcDbEntity
  8
PMR
100
AcDbCircle
 10
111.7741313817308
 20
123.8579835608665
 30
0.0
 40
0.095
  0
LINE
  5
1464
330
117D
100
AcDbEntity
  8
HIDDEN
100
AcDbLine
 10
39.86922723463015
 20
123.5769835608665
 30
0.0
 11
39.35422723463017
 21
123.5769835608665
 31
0.0
  0
LINE
  5
1465
330
117D
100
AcDbEntity
  8
HIDDEN
100
AcDbLine
 10
39.35422723463017
 20
123.5769835608665
 30
0.0
 11
39.35422723463017
 21
122.3269835608664
 31
0.0
  0
LINE
  5
1466
330
117D
100
AcDbEntity
  8
HIDDEN
100
AcDbLine
 10
39.35422723463017
 20
182.3889835608664
 30
0.0
 11
39.35422723463017
 21
183.6389835608664
 31
0.0
  0
LINE
  5
1467
330
117D
100
AcDbEntity
  8
HIDDEN
100
AcDbLine
 10
39.86922723463015
 20
182.3889835608664
 30
0.0
 11
39.35422723463017
 21
182.3889835608664
 31
0.0
  0
TEXT
  5
1468
330
117D
100
AcDbEntity
  8
OBJECT
100
AcDbText
 10
677.7993156527314
 20
176.9245319900064
 30
0.0
 40
1.25
  1

100
AcDbText
  0
TEXT
  5
1469
330
117D
100
AcDbEntity
  8
TEXT
100
AcDbText
 10
8.145578346060972
 20
220.7713957804068
 30
0.0
 40
1.673999999999999
  1
%%uNOTES:
 41
0.75
100
AcDbText
  0
TEXT
  5
146A
330
117D
100
AcDbEntity
  8
TEXT
100
AcDbText
 10
8.145578346060972
 20
217.9858597804068
 30
0.0
 40
1.673999999999999
  1
PANEL MOUNTING RAILS TAPPED #10-32 ON E.I.A. UNIVERSAL
 41
0.75
100
AcDbText
  0
TEXT
  5
146B
330
117D
100
AcDbEntity
  8
TEXT
100
AcDbText
 10
8.145578346060972
 20
209.6292517804068
 30
0.0
 40
1.673999999999999
  1
MOUNTING HOLES PIERCED IN BASE FOR #RC-7758 CASTERS.
 41
0.75
100
AcDbText
  0
TEXT
  5
146C
330
117D
100
AcDbEntity
  8
TEXT
100
AcDbText
 10
5.552953385063457
 20
217.9858597804067
 30
0.0
 40
1.673999999999999
  1
1
 41
0.75
 72
     4
 11
5.762203385063457
 21
218.8228597804068
 31
0.0
100
AcDbText
  0
LWPOLYLINE
  5
146D
330
117D
100
AcDbEntity
  8
TEXT
100
AcDbPolyline
 90
        6
 70
     1
 43
0.0
 10
4.989015904564721
 20
220.1620597804069
 10
4.215828424065988
 20
218.8228597804068
 10
4.989015904564721
 20
217.4836597804069
 10
6.535390865562161
 20
217.4836597804069
 10
7.308578346060954
 20
218.8228597804068
 10
6.535390865562161
 20
220.1620597804069
  0
TEXT
  5
1475
330
117D
100
AcDbEntity
  8
TEXT
100
AcDbText
 10
115.7518970067308
 20
195.0118450554014
 30
0.0
 40
1.71875
  1
%%uTOP VIEW
 41
0.75
 72
     1
 11
120.9296313817308
 21
195.0118450554014
 31
0.0
100
AcDbText
  0
TEXT
  5
1476
330
117D
100
AcDbEntity
  8
TEXT
100
AcDbText
 10
114.4628345067308
 20
115.9697170847828
 30
0.0
 40
1.71875
  1
%%uFRONT VIEW
 41
0.75
 72
     1
 11
120.9296313817308
 21
115.9697170847828
 31
0.0
100
AcDbText
  0
TEXT
  5
1477
330
117D
100
AcDbEntity
  8
TEXT
100
AcDbText
 10
70.75313512612819
 20
115.8774720747115
 30
0.0
 40
1.71875
  1
%%uSIDE VIEW
 41
0.75
 72
     1
 11
76.36055700112819
 21
115.8774720747115
 31
0.0
100
AcDbText
  0
TEXT
  5
1478
330
117D
100
AcDbEntity
  8
TEXT
100
AcDbText
 10
24.48346160963007
 20
108.2809534015195
 30
0.0
 40
1.71875
  1
%%uREAR VIEW
 41
0.75
 72
     1
 11
30.30572723463007
 21
108.2809534015195
 31
0.0
100
AcDbText
  0
LINE
  5
1479
330
117D
100
AcDbEntity
  8
OBJECT
100
AcDbLine
 10
111.476131381731
 20
223.8911320733468
 30
0.0
 11
111.476131381731
 21
223.8131320733468
 31
0.0
  0
LINE
  5
147A
330
117D
100
AcDbEntity
  8
OBJECT
100
AcDbLine
 10
130.4921313817308
 20
223.8911320733468
 30
0.0
 11
131.9296313817308
 21
223.8911320733468
 31
0.0
  0
DIMENSION
  5
147B
330
117D
100
AcDbEntity
  8
DIM
100
AcDbDimension
  2
*D3
 10
100.3146313817308
 20
183.6389835608664
 30
0.0
 11
100.3146313817307
 21
152.9829835608664
 31
0.0
 70
    32
  1
A
 71
     5
 42
61.31200000000006
  3
23NSTD
100
AcDbAlignedDimension
 13
111.3671313817309
 23
122.3269835608664
 33
0.0
 14
111.3671313817309
 24
183.6389835608664
 34
0.0
 50
90.0
100
AcDbRotatedDimension
  0
DIMENSION
  5
1489
330
117D
100
AcDbEntity
  8
DIM
100
AcDbDimension
  2
*D4
 10
100.3146313817308
 20
186.2639835608663
 30
0.0
 11
100.3146313817307
 21
184.9514835608664
 31
0.0
 70
   160
 71
     5
 42
2.624999999999914
  3
23NSTD
100
AcDbAlignedDimension
 13
111.3671313817309
 23
183.6389835608664
 33
0.0
 14
109.9296313817307
 24
186.2639835608663
 34
0.0
 50
90.0
100
AcDbRotatedDimension
  0
DIMENSION
  5
1497
330
117D
100
AcDbEntity
  8
DIM
100
AcDbDimension
  2
*D5
 10
137.3296313817307
 20
186.2639835608663
 30
0.0
 11
137.3296313817307
 21
152.9829835608664
 31
0.0
 70
    32
  1
B
 71
     5
 42
66.56199999999998
  3
23NSTD
100
AcDbAlignedDimension
 13
131.9296313817308
 23
119.7019835608664
 33
0.0
 14
131.9296313817308
 24
186.2639835608663
 34
0.0
 50
90.0
100
AcDbRotatedDimension
  0
DIMENSION
  5
14A5
330
117D
100
AcDbEntity
  8
DIM
100
AcDbDimension
  2
*D6
 10
88.58753973111246
 20
139.2174835608664
 30
0.0
 11
76.5875397311125
 21
139.2174835608664
 31
0.0
 70
    32
  1
D
 71
     5
 42
23.99999999999991
  3
23NSTD
100
AcDbAlignedDimension
 13
64.58753973111254
 23
139.2174835608664
 33
0.0
 14
88.58753973111246
 24
139.2174835608664
 34
0.0
100
AcDbRotatedDimension
  0
DIMENSION
  5
14B3
330
117D
100
AcDbEntity
  8
DIM
100
AcDbDimension
  2
*D7
 10
56.78653973111257
 20
181.8889835608664
 30
0.0
 11
56.78653973111253
 21
168.1234835608664
 31
0.0
 70
    32
  1
E
 71
     5
 42
27.53099999999998
  3
23NSTD
100
AcDbAlignedDimension
 13
65.21278973111248
 23
154.3579835608664
 33
0.0
 14
65.21278973111254
 24
181.8889835608663
 34
0.0
 50
90.0
100
AcDbRotatedDimension
  0
DIMENSION
  5
14C1
330
117D
100
AcDbEntity
  8
DIM
100
AcDbDimension
  2
*D8
 10
50.36465191772096
 20
119.7019835608664
 30
0.0
 11
50.36465191772094
 21
121.8894835608665
 31
0.0
 70
   160
 71
     5
 42
4.375
  3
23NSTD
100
AcDbAlignedDimension
 13
65.21278973111254
 23
124.0769835608664
 33
0.0
 14
63.83753973111254
 24
119.7019835608664
 34
0.0
 50
90.0
100
AcDbRotatedDimension
  0
DIMENSION
  5
14CF
330
117D
100
AcDbEntity
  8
DIM
100
AcDbDimension
  2
*D9
 10
100.3146313817308
 20
119.7019835608664
 30
0.0
 11
100.3146313817307
 21
121.0144835608664
 31
0.0
 70
   160
 71
     5
 42
2.625
  3
23NSTD
100
AcDbAlignedDimension
 13
111.3671313817309
 23
122.3269835608664
 33
0.0
 14
109.9296313817307
 24
119.7019835608664
 34
0.0
 50
90.0
100
AcDbRotatedDimension
  0
CIRCLE
  5
14DD
330
117D
100
AcDbEntity
  8
PMR
100
AcDbCircle
 10
111.7741313817308
 20
124.9829835608665
 30
0.0
 40
0.095
  0
CIRCLE
  5
14DE
330
117D
100
AcDbEntity
  8
PMR
100
AcDbCircle
 10
111.7741313817308
 20
125.6079835608665
 30
0.0
 40
0.095
  0
CIRCLE
  5
14DF
330
117D
100
AcDbEntity
  8
PMR
100
AcDbCircle
 10
111.7741313817308
 20
124.3579835608665
 30
0.0
 40
0.095
  0
CIRCLE
  5
14E0
330
117D
100
AcDbEntity
  8
PMR
100
AcDbCircle
 10
130.0861313817309
 20
125.6079835608665
 30
0.0
 40
0.095
  0
CIRCLE
  5
14E1
330
117D
100
AcDbEntity
  8
PMR
100
AcDbCircle
 10
130.0861313817309
 20
124.9829835608665
 30
0.0
 40
0.095
  0
CIRCLE
  5
14E2
330
117D
100
AcDbEntity
  8
PMR
100
AcDbCircle
 10
130.0861313817309
 20
124.3579835608665
 30
0.0
 40
0.095
  0
CIRCLE
  5
14E3
330
117D
100
AcDbEntity
  8
PMR
100
AcDbCircle
 10
111.7741313817308
 20
126.7329835608665
 30
0.0
 40
0.095
  0
CIRCLE
  5
14E4
330
117D
100
AcDbEntity
  8
PMR
100
AcDbCircle
 10
111.7741313817308
 20
127.3579835608664
 30
0.0
 40
0.095
  0
CIRCLE
  5
14E5
330
117D
100
AcDbEntity
  8
PMR
100
AcDbCircle
 10
111.7741313817308
 20
126.1079835608664
 30
0.0
 40
0.095
  0
CIRCLE
  5
14E6
330
117D
100
AcDbEntity
  8
PMR
100
AcDbCircle
 10
130.0861313817309
 20
127.3579835608664
 30
0.0
 40
0.095
  0
CIRCLE
  5
14E7
330
117D
100
AcDbEntity
  8
PMR
100
AcDbCircle
 10
130.0861313817309
 20
126.7329835608665
 30
0.0
 40
0.095
  0
CIRCLE
  5
14E8
330
117D
100
AcDbEntity
  8
PMR
100
AcDbCircle
 10
130.0861313817309
 20
126.1079835608664
 30
0.0
 40
0.095
  0
CIRCLE
  5
14E9
330
117D
100
AcDbEntity
  8
PMR
100
AcDbCircle
 10
111.7741313817308
 20
128.4829835608664
 30
0.0
 40
0.095
  0
CIRCLE
  5
14EA
330
117D
100
AcDbEntity
  8
PMR
100
AcDbCircle
 10
111.7741313817308
 20
129.1079835608665
 30
0.0
 40
0.095
  0
CIRCLE
  5
14EB
330
117D
100
AcDbEntity
  8
PMR
100
AcDbCircle
 10
111.7741313817308
 20
127.8579835608665
 30
0.0
 40
0.095
  0
CIRCLE
  5
14EC
330
117D
100
AcDbEntity
  8
PMR
100
AcDbCircle
 10
130.0861313817309
 20
129.1079835608665
 30
0.0
 40
0.095
  0
CIRCLE
  5
14ED
330
117D
100
AcDbEntity
  8
PMR
100
AcDbCircle
 10
130.0861313817309
 20
128.4829835608664
 30
0.0
 40
0.095
  0
CIRCLE
  5
14EE
330
117D
100
AcDbEntity
  8
PMR
100
AcDbCircle
 10
130.0861313817309
 20
127.8579835608665
 30
0.0
 40
0.095
  0
CIRCLE
  5
14EF
330
117D
100
AcDbEntity
  8
PMR
100
AcDbCircle
 10
111.7741313817308
 20
130.2329835608664
 30
0.0
 40
0.095
  0
CIRCLE
  5
14F0
330
117D
100
AcDbEntity
  8
PMR
100
AcDbCircle
 10
111.7741313817308
 20
130.8579835608665
 30
0.0
 40
0.095
  0
CIRCLE
  5
14F1
330
117D
100
AcDbEntity
  8
PMR
100
AcDbCircle
 10
111.7741313817308
 20
129.6079835608665
 30
0.0
 40
0.095
  0
CIRCLE
  5
14F2
330
117D
100
AcDbEntity
  8
PMR
100
AcDbCircle
 10
130.0861313817309
 20
130.8579835608665
 30
0.0
 40
0.095
  0
CIRCLE
  5
14F3
330
117D
100
AcDbEntity
  8
PMR
100
AcDbCircle
 10
130.0861313817309
 20
130.2329835608664
 30
0.0
 40
0.095
  0
CIRCLE
  5
14F4
330
117D
100
AcDbEntity
  8
PMR
100
AcDbCircle
 10
130.0861313817309
 20
129.6079835608665
 30
0.0
 40
0.095
  0
CIRCLE
  5
14F5
330
117D
100
AcDbEntity
  8
PMR
100
AcDbCircle
 10
111.7741313817308
 20
131.9829835608665
 30
0.0
 40
0.095
  0
CIRCLE
  5
14F6
330
117D
100
AcDbEntity
  8
PMR
100
AcDbCircle
 10
111.7741313817308
 20
132.6079835608664
 30
0.0
 40
0.095
  0
CIRCLE
  5
14F7
330
117D
100
AcDbEntity
  8
PMR
100
AcDbCircle
 10
111.7741313817308
 20
131.3579835608664
 30
0.0
 40
0.095
  0
CIRCLE
  5
14F8
330
117D
100
AcDbEntity
  8
PMR
100
AcDbCircle
 10
130.0861313817309
 20
132.6079835608664
 30
0.0
 40
0.095
  0
CIRCLE
  5
14F9
330
117D
100
AcDbEntity
  8
PMR
100
AcDbCircle
 10
130.0861313817309
 20
131.9829835608665
 30
0.0
 40
0.095
  0
CIRCLE
  5
14FA
330
117D
100
AcDbEntity
  8
PMR
100
AcDbCircle
 10
130.0861313817309
 20
131.3579835608664
 30
0.0
 40
0.095
  0
CIRCLE
  5
14FB
330
117D
100
AcDbEntity
  8
PMR
100
AcDbCircle
 10
111.7741313817308
 20
133.7329835608665
 30
0.0
 40
0.095
  0
CIRCLE
  5
14FC
330
117D
100
AcDbEntity
  8
PMR
100
AcDbCircle
 10
111.7741313817308
 20
134.3579835608665
 30
0.0
 40
0.095
  0
CIRCLE
  5
14FD
330
117D
100
AcDbEntity
  8
PMR
100
AcDbCircle
 10
111.7741313817308
 20
133.1079835608665
 30
0.0
 40
0.095
  0
CIRCLE
  5
14FE
330
117D
100
AcDbEntity
  8
PMR
100
AcDbCircle
 10
130.0861313817309
 20
134.3579835608665
 30
0.0
 40
0.095
  0
CIRCLE
  5
14FF
330
117D
100
AcDbEntity
  8
PMR
100
AcDbCircle
 10
130.0861313817309
 20
133.7329835608665
 30
0.0
 40
0.095
  0
CIRCLE
  5
1500
330
117D
100
AcDbEntity
  8
PMR
100
AcDbCircle
 10
130.0861313817309
 20
133.1079835608665
 30
0.0
 40
0.095
  0
CIRCLE
  5
1501
330
117D
100
AcDbEntity
  8
PMR
100
AcDbCircle
 10
111.7741313817308
 20
135.4829835608664
 30
0.0
 40
0.095
  0
CIRCLE
  5
1502
330
117D
100
AcDbEntity
  8
PMR
100
AcDbCircle
 10
111.7741313817308
 20
136.1079835608665
 30
0.0
 40
0.095
  0
CIRCLE
  5
1503
330
117D
100
AcDbEntity
  8
PMR
100
AcDbCircle
 10
111.7741313817308
 20
134.8579835608665
 30
0.0
 40
0.095
  0
CIRCLE
  5
1504
330
117D
100
AcDbEntity
  8
PMR
100
AcDbCircle
 10
130.0861313817309
 20
136.1079835608665
 30
0.0
 40
0.095
  0
CIRCLE
  5
1505
330
117D
100
AcDbEntity
  8
PMR
100
AcDbCircle
 10
130.0861313817309
 20
135.4829835608664
 30
0.0
 40
0.095
  0
CIRCLE
  5
1506
330
117D
100
AcDbEntity
  8
PMR
100
AcDbCircle
 10
130.0861313817309
 20
134.8579835608665
 30
0.0
 40
0.095
  0
CIRCLE
  5
1507
330
117D
100
AcDbEntity
  8
PMR
100
AcDbCircle
 10
111.7741313817308
 20
137.2329835608665
 30
0.0
 40
0.095
  0
CIRCLE
  5
1508
330
117D
100
AcDbEntity
  8
PMR
100
AcDbCircle
 10
111.7741313817308
 20
137.8579835608664
 30
0.0
 40
0.095
  0
CIRCLE
  5
1509
330
117D
100
AcDbEntity
  8
PMR
100
AcDbCircle
 10
111.7741313817308
 20
136.6079835608664
 30
0.0
 40
0.095
  0
CIRCLE
  5
150A
330
117D
100
AcDbEntity
  8
PMR
100
AcDbCircle
 10
130.0861313817309
 20
137.8579835608664
 30
0.0
 40
0.095
  0
CIRCLE
  5
150B
330
117D
100
AcDbEntity
  8
PMR
100
AcDbCircle
 10
130.0861313817309
 20
137.2329835608665
 30
0.0
 40
0.095
  0
CIRCLE
  5
150C
330
117D
100
AcDbEntity
  8
PMR
100
AcDbCircle
 10
130.0861313817309
 20
136.6079835608664
 30
0.0
 40
0.095
  0
CIRCLE
  5
150D
330
117D
100
AcDbEntity
  8
PMR
100
AcDbCircle
 10
111.7741313817308
 20
138.9829835608665
 30
0.0
 40
0.095
  0
CIRCLE
  5
150E
330
117D
100
AcDbEntity
  8
PMR
100
AcDbCircle
 10
111.7741313817308
 20
139.6079835608665
 30
0.0
 40
0.095
  0
CIRCLE
  5
150F
330
117D
100
AcDbEntity
  8
PMR
100
AcDbCircle
 10
111.7741313817308
 20
138.3579835608665
 30
0.0
 40
0.095
  0
CIRCLE
  5
1510
330
117D
100
AcDbEntity
  8
PMR
100
AcDbCircle
 10
130.0861313817309
 20
139.6079835608665
 30
0.0
 40
0.095
  0
CIRCLE
  5
1511
330
117D
100
AcDbEntity
  8
PMR
100
AcDbCircle
 10
130.0861313817309
 20
138.9829835608665
 30
0.0
 40
0.095
  0
CIRCLE
  5
1512
330
117D
100
AcDbEntity
  8
PMR
100
AcDbCircle
 10
130.0861313817309
 20
138.3579835608665
 30
0.0
 40
0.095
  0
CIRCLE
  5
1513
330
117D
100
AcDbEntity
  8
PMR
100
AcDbCircle
 10
111.7741313817308
 20
140.7329835608664
 30
0.0
 40
0.095
  0
CIRCLE
  5
1514
330
117D
100
AcDbEntity
  8
PMR
100
AcDbCircle
 10
111.7741313817308
 20
141.3579835608665
 30
0.0
 40
0.095
  0
CIRCLE
  5
1515
330
117D
100
AcDbEntity
  8
PMR
100
AcDbCircle
 10
111.7741313817308
 20
140.1079835608665
 30
0.0
 40
0.095
  0
CIRCLE
  5
1516
330
117D
100
AcDbEntity
  8
PMR
100
AcDbCircle
 10
130.0861313817309
 20
141.3579835608665
 30
0.0
 40
0.095
  0
CIRCLE
  5
1517
330
117D
100
AcDbEntity
  8
PMR
100
AcDbCircle
 10
130.0861313817309
 20
140.7329835608664
 30
0.0
 40
0.095
  0
CIRCLE
  5
1518
330
117D
100
AcDbEntity
  8
PMR
100
AcDbCircle
 10
130.0861313817309
 20
140.1079835608665
 30
0.0
 40
0.095
  0
CIRCLE
  5
1519
330
117D
100
AcDbEntity
  8
PMR
100
AcDbCircle
 10
111.7741313817308
 20
142.4829835608665
 30
0.0
 40
0.095
  0
CIRCLE
  5
151A
330
117D
100
AcDbEntity
  8
PMR
100
AcDbCircle
 10
111.7741313817308
 20
143.1079835608665
 30
0.0
 40
0.095
  0
CIRCLE
  5
151B
330
117D
100
AcDbEntity
  8
PMR
100
AcDbCircle
 10
111.7741313817308
 20
141.8579835608665
 30
0.0
 40
0.095
  0
CIRCLE
  5
151C
330
117D
100
AcDbEntity
  8
PMR
100
AcDbCircle
 10
130.0861313817309
 20
143.1079835608665
 30
0.0
 40
0.095
  0
CIRCLE
  5
151D
330
117D
100
AcDbEntity
  8
PMR
100
AcDbCircle
 10
130.0861313817309
 20
142.4829835608665
 30
0.0
 40
0.095
  0
CIRCLE
  5
151E
330
117D
100
AcDbEntity
  8
PMR
100
AcDbCircle
 10
130.0861313817309
 20
141.8579835608665
 30
0.0
 40
0.095
  0
CIRCLE
  5
151F
330
117D
100
AcDbEntity
  8
PMR
100
AcDbCircle
 10
111.7741313817308
 20
144.2329835608665
 30
0.0
 40
0.095
  0
CIRCLE
  5
1520
330
117D
100
AcDbEntity
  8
PMR
100
AcDbCircle
 10
111.7741313817308
 20
144.8579835608664
 30
0.0
 40
0.095
  0
CIRCLE
  5
1521
330
117D
100
AcDbEntity
  8
PMR
100
AcDbCircle
 10
111.7741313817308
 20
143.6079835608665
 30
0.0
 40
0.095
  0
CIRCLE
  5
1522
330
117D
100
AcDbEntity
  8
PMR
100
AcDbCircle
 10
130.0861313817309
 20
144.8579835608664
 30
0.0
 40
0.095
  0
CIRCLE
  5
1523
330
117D
100
AcDbEntity
  8
PMR
100
AcDbCircle
 10
130.0861313817309
 20
144.2329835608665
 30
0.0
 40
0.095
  0
CIRCLE
  5
1524
330
117D
100
AcDbEntity
  8
PMR
100
AcDbCircle
 10
130.0861313817309
 20
143.6079835608665
 30
0.0
 40
0.095
  0
CIRCLE
  5
1525
330
117D
100
AcDbEntity
  8
PMR
100
AcDbCircle
 10
111.7741313817308
 20
145.9829835608664
 30
0.0
 40
0.095
  0
CIRCLE
  5
1526
330
117D
100
AcDbEntity
  8
PMR
100
AcDbCircle
 10
111.7741313817308
 20
146.6079835608665
 30
0.0
 40
0.095
  0
CIRCLE
  5
1527
330
117D
100
AcDbEntity
  8
PMR
100
AcDbCircle
 10
111.7741313817308
 20
145.3579835608665
 30
0.0
 40
0.095
  0
CIRCLE
  5
1528
330
117D
100
AcDbEntity
  8
PMR
100
AcDbCircle
 10
130.0861313817309
 20
146.6079835608665
 30
0.0
 40
0.095
  0
CIRCLE
  5
1529
330
117D
100
AcDbEntity
  8
PMR
100
AcDbCircle
 10
130.0861313817309
 20
145.9829835608664
 30
0.0
 40
0.095
  0
CIRCLE
  5
152A
330
117D
100
AcDbEntity
  8
PMR
100
AcDbCircle
 10
130.0861313817309
 20
145.3579835608665
 30
0.0
 40
0.095
  0
CIRCLE
  5
152B
330
117D
100
AcDbEntity
  8
PMR
100
AcDbCircle
 10
111.7741313817308
 20
147.7329835608665
 30
0.0
 40
0.095
  0
CIRCLE
  5
152C
330
117D
100
AcDbEntity
  8
PMR
100
AcDbCircle
 10
111.7741313817308
 20
148.3579835608665
 30
0.0
 40
0.095
  0
CIRCLE
  5
152D
330
117D
100
AcDbEntity
  8
PMR
100
AcDbCircle
 10
111.7741313817308
 20
147.1079835608664
 30
0.0
 40
0.095
  0
CIRCLE
  5
152E
330
117D
100
AcDbEntity
  8
PMR
100
AcDbCircle
 10
130.0861313817309
 20
148.3579835608665
 30
0.0
 40
0.095
  0
CIRCLE
  5
152F
330
117D
100
AcDbEntity
  8
PMR
100
AcDbCircle
 10
130.0861313817309
 20
147.7329835608665
 30
0.0
 40
0.095
  0
CIRCLE
  5
1530
330
117D
100
AcDbEntity
  8
PMR
100
AcDbCircle
 10
130.0861313817309
 20
147.1079835608664
 30
0.0
 40
0.095
  0
CIRCLE
  5
1531
330
117D
100
AcDbEntity
  8
PMR
100
AcDbCircle
 10
111.7741313817308
 20
168.7329835608665
 30
0.0
 40
0.095
  0
CIRCLE
  5
1532
330
117D
100
AcDbEntity
  8
PMR
100
AcDbCircle
 10
111.7741313817308
 20
169.3579835608665
 30
0.0
 40
0.095
  0
CIRCLE
  5
1533
330
117D
100
AcDbEntity
  8
PMR
100
AcDbCircle
 10
111.7741313817308
 20
148.8579835608665
 30
0.0
 40
0.095
  0
CIRCLE
  5
1534
330
117D
100
AcDbEntity
  8
PMR
100
AcDbCircle
 10
130.0861313817309
 20
169.3579835608665
 30
0.0
 40
0.095
  0
CIRCLE
  5
1535
330
117D
100
AcDbEntity
  8
PMR
100
AcDbCircle
 10
130.0861313817309
 20
168.7329835608665
 30
0.0
 40
0.095
  0
CIRCLE
  5
1536
330
117D
100
AcDbEntity
  8
PMR
100
AcDbCircle
 10
130.0861313817309
 20
148.8579835608665
 30
0.0
 40
0.095
  0
CIRCLE
  5
1537
330
117D
100
AcDbEntity
  8
PMR
100
AcDbCircle
 10
111.7741313817308
 20
170.4829835608665
 30
0.0
 40
0.095
  0
CIRCLE
  5
1538
330
117D
100
AcDbEntity
  8
PMR
100
AcDbCircle
 10
111.7741313817308
 20
171.1079835608664
 30
0.0
 40
0.095
  0
CIRCLE
  5
1539
330
117D
100
AcDbEntity
  8
PMR
100
AcDbCircle
 10
111.7741313817308
 20
169.8579835608664
 30
0.0
 40
0.095
  0
CIRCLE
  5
153A
330
117D
100
AcDbEntity
  8
PMR
100
AcDbCircle
 10
130.0861313817309
 20
171.1079835608664
 30
0.0
 40
0.095
  0
CIRCLE
  5
153B
330
117D
100
AcDbEntity
  8
PMR
100
AcDbCircle
 10
130.0861313817309
 20
170.4829835608665
 30
0.0
 40
0.095
  0
CIRCLE
  5
153C
330
117D
100
AcDbEntity
  8
PMR
100
AcDbCircle
 10
130.0861313817309
 20
169.8579835608664
 30
0.0
 40
0.095
  0
CIRCLE
  5
153D
330
117D
100
AcDbEntity
  8
PMR
100
AcDbCircle
 10
111.7741313817308
 20
172.2329835608665
 30
0.0
 40
0.095
  0
CIRCLE
  5
153E
330
117D
100
AcDbEntity
  8
PMR
100
AcDbCircle
 10
111.7741313817308
 20
172.8579835608663
 30
0.0
 40
0.095
  0
CIRCLE
  5
153F
330
117D
100
AcDbEntity
  8
PMR
100
AcDbCircle
 10
111.7741313817308
 20
171.6079835608665
 30
0.0
 40
0.095
  0
CIRCLE
  5
1540
330
117D
100
AcDbEntity
  8
PMR
100
AcDbCircle
 10
130.0861313817309
 20
172.8579835608663
 30
0.0
 40
0.095
  0
CIRCLE
  5
1541
330
117D
100
AcDbEntity
  8
PMR
100
AcDbCircle
 10
130.0861313817309
 20
172.2329835608665
 30
0.0
 40
0.095
  0
CIRCLE
  5
1542
330
117D
100
AcDbEntity
  8
PMR
100
AcDbCircle
 10
130.0861313817309
 20
171.6079835608665
 30
0.0
 40
0.095
  0
CIRCLE
  5
1543
330
117D
100
AcDbEntity
  8
PMR
100
AcDbCircle
 10
111.7741313817308
 20
173.9829835608665
 30
0.0
 40
0.095
  0
CIRCLE
  5
1544
330
117D
100
AcDbEntity
  8
PMR
100
AcDbCircle
 10
111.7741313817308
 20
174.6079835608665
 30
0.0
 40
0.095
  0
CIRCLE
  5
1545
330
117D
100
AcDbEntity
  8
PMR
100
AcDbCircle
 10
111.7741313817308
 20
173.3579835608665
 30
0.0
 40
0.095
  0
CIRCLE
  5
1546
330
117D
100
AcDbEntity
  8
PMR
100
AcDbCircle
 10
130.0861313817309
 20
174.6079835608665
 30
0.0
 40
0.095
  0
CIRCLE
  5
1547
330
117D
100
AcDbEntity
  8
PMR
100
AcDbCircle
 10
130.0861313817309
 20
173.9829835608665
 30
0.0
 40
0.095
  0
CIRCLE
  5
1548
330
117D
100
AcDbEntity
  8
PMR
100
AcDbCircle
 10
130.0861313817309
 20
173.3579835608665
 30
0.0
 40
0.095
  0
CIRCLE
  5
1549
330
117D
100
AcDbEntity
  8
PMR
100
AcDbCircle
 10
111.7741313817308
 20
175.7329835608665
 30
0.0
 40
0.095
  0
CIRCLE
  5
154A
330
117D
100
AcDbEntity
  8
PMR
100
AcDbCircle
 10
111.7741313817308
 20
176.3579835608663
 30
0.0
 40
0.095
  0
CIRCLE
  5
154B
330
117D
100
AcDbEntity
  8
PMR
100
AcDbCircle
 10
111.7741313817308
 20
175.1079835608663
 30
0.0
 40
0.095
  0
CIRCLE
  5
154C
330
117D
100
AcDbEntity
  8
PMR
100
AcDbCircle
 10
130.0861313817309
 20
176.3579835608663
 30
0.0
 40
0.095
  0
CIRCLE
  5
154D
330
117D
100
AcDbEntity
  8
PMR
100
AcDbCircle
 10
130.0861313817309
 20
175.7329835608665
 30
0.0
 40
0.095
  0
CIRCLE
  5
154E
330
117D
100
AcDbEntity
  8
PMR
100
AcDbCircle
 10
130.0861313817309
 20
175.1079835608663
 30
0.0
 40
0.095
  0
CIRCLE
  5
154F
330
117D
100
AcDbEntity
  8
PMR
100
AcDbCircle
 10
111.7741313817308
 20
177.4829835608665
 30
0.0
 40
0.095
  0
CIRCLE
  5
1550
330
117D
100
AcDbEntity
  8
PMR
100
AcDbCircle
 10
111.7741313817308
 20
178.1079835608665
 30
0.0
 40
0.095
  0
CIRCLE
  5
1551
330
117D
100
AcDbEntity
  8
PMR
100
AcDbCircle
 10
111.7741313817308
 20
176.8579835608665
 30
0.0
 40
0.095
  0
CIRCLE
  5
1552
330
117D
100
AcDbEntity
  8
PMR
100
AcDbCircle
 10
130.0861313817309
 20
178.1079835608665
 30
0.0
 40
0.095
  0
CIRCLE
  5
1553
330
117D
100
AcDbEntity
  8
PMR
100
AcDbCircle
 10
130.0861313817309
 20
177.4829835608665
 30
0.0
 40
0.095
  0
CIRCLE
  5
1554
330
117D
100
AcDbEntity
  8
PMR
100
AcDbCircle
 10
130.0861313817309
 20
176.8579835608665
 30
0.0
 40
0.095
  0
CIRCLE
  5
1555
330
117D
100
AcDbEntity
  8
PMR
100
AcDbCircle
 10
111.7741313817308
 20
179.2329835608663
 30
0.0
 40
0.095
  0
CIRCLE
  5
1556
330
117D
100
AcDbEntity
  8
PMR
100
AcDbCircle
 10
111.7741313817308
 20
179.8579835608665
 30
0.0
 40
0.095
  0
CIRCLE
  5
1557
330
117D
100
AcDbEntity
  8
PMR
100
AcDbCircle
 10
111.7741313817308
 20
178.6079835608665
 30
0.0
 40
0.095
  0
CIRCLE
  5
1558
330
117D
100
AcDbEntity
  8
PMR
100
AcDbCircle
 10
130.0861313817309
 20
179.8579835608665
 30
0.0
 40
0.095
  0
CIRCLE
  5
1559
330
117D
100
AcDbEntity
  8
PMR
100
AcDbCircle
 10
130.0861313817309
 20
179.2329835608663
 30
0.0
 40
0.095
  0
CIRCLE
  5
155A
330
117D
100
AcDbEntity
  8
PMR
100
AcDbCircle
 10
130.0861313817309
 20
178.6079835608665
 30
0.0
 40
0.095
  0
CIRCLE
  5
155B
330
117D
100
AcDbEntity
  8
PMR
100
AcDbCircle
 10
111.7741313817308
 20
180.9829835608665
 30
0.0
 40
0.095
  0
CIRCLE
  5
155C
330
117D
100
AcDbEntity
  8
PMR
100
AcDbCircle
 10
111.7741313817308
 20
181.6079835608665
 30
0.0
 40
0.095
  0
CIRCLE
  5
155D
330
117D
100
AcDbEntity
  8
PMR
100
AcDbCircle
 10
111.7741313817308
 20
180.3579835608663
 30
0.0
 40
0.095
  0
CIRCLE
  5
155E
330
117D
100
AcDbEntity
  8
PMR
100
AcDbCircle
 10
130.0861313817309
 20
181.6079835608665
 30
0.0
 40
0.095
  0
CIRCLE
  5
155F
330
117D
100
AcDbEntity
  8
PMR
100
AcDbCircle
 10
130.0861313817309
 20
180.9829835608665
 30
0.0
 40
0.095
  0
CIRCLE
  5
1560
330
117D
100
AcDbEntity
  8
PMR
100
AcDbCircle
 10
130.0861313817309
 20
180.3579835608663
 30
0.0
 40
0.095
  0
CIRCLE
  5
1561
330
117D
100
AcDbEntity
  8
PMR
100
AcDbCircle
 10
111.7741313817308
 20
182.7329835608665
 30
0.0
 40
0.095
  0
CIRCLE
  5
1562
330
117D
100
AcDbEntity
  8
PMR
100
AcDbCircle
 10
111.7741313817308
 20
183.3579835608665
 30
0.0
 40
0.095
  0
CIRCLE
  5
1563
330
117D
100
AcDbEntity
  8
PMR
100
AcDbCircle
 10
111.7741313817308
 20
182.1079835608665
 30
0.0
 40
0.095
  0
CIRCLE
  5
1564
330
117D
100
AcDbEntity
  8
PMR
100
AcDbCircle
 10
130.0861313817309
 20
183.3579835608665
 30
0.0
 40
0.095
  0
CIRCLE
  5
1565
330
117D
100
AcDbEntity
  8
PMR
100
AcDbCircle
 10
130.0861313817309
 20
182.7329835608665
 30
0.0
 40
0.095
  0
CIRCLE
  5
1566
330
117D
100
AcDbEntity
  8
PMR
100
AcDbCircle
 10
130.0861313817309
 20
182.1079835608665
 30
0.0
 40
0.095
  0
TEXT
  5
1567
330
117D
100
AcDbEntity
  8
TEXT
100
AcDbText
 10
8.145578346060972
 20
215.2003237804068
 30
0.0
 40
1.673999999999999
  1
 SPACING AND ARE FULLY ADJUSTABLE.
 41
0.75
100
AcDbText
  0
LWPOLYLINE
  5
1568
330
117D
100
AcDbEntity
  8
TEXT
100
AcDbPolyline
 90
        6
 70
     1
 43
0.0
 10
4.989015904564721
 20
211.8054517804068
 10
4.215828424065988
 20
210.4662517804068
 10
4.989015904564721
 20
209.1270517804069
 10
6.535390865562161
 20
209.1270517804069
 10
7.308578346060954
 20
210.4662517804068
 10
6.535390865562161
 20
211.8054517804068
  0
TEXT
  5
1570
330
117D
100
AcDbEntity
  8
TEXT
100
AcDbText
 10
5.343703385063457
 20
209.6292517804068
 30
0.0
 40
1.673999999999999
  1
2
 41
0.75
 72
     4
 11
5.762203385063457
 21
210.4662517804068
 31
0.0
100
AcDbText
  0
TEXT
  5
1571
330
117D
100
AcDbEntity
  8
DIM
100
AcDbText
 10
880.8800722548447
 20
130.3216327238477
 30
0.0
 40
1.25
  1

100
AcDbText
  0
TEXT
  5
1572
330
117D
100
AcDbEntity
  8
DIM
100
AcDbText
 10
881.9425722548444
 20
126.2278742630337
 30
0.0
 40
1.0
  1

100
AcDbText
  0
TEXT
  5
1573
330
117D
100
AcDbEntity
  8
DIM
100
AcDbText
 10
1044.880072254843
 20
130.3216327238477
 30
0.0
 40
1.25
  1

100
AcDbText
  0
TEXT
  5
1574
330
117D
100
AcDbEntity
  8
DIM
100
AcDbText
 10
1045.942572254844
 20
126.2278742630337
 30
0.0
 40
1.0
  1

100
AcDbText
  0
TEXT
  5
1575
330
117D
100
AcDbEntity
  8
OBJECT
100
AcDbText
 10
1046.79931565273
 20
176.9245319900064
 30
0.0
 40
1.25
  1

100
AcDbText
  0
TEXT
  5
1576
330
117D
100
AcDbEntity
  8
DIM
100
AcDbText
 10
1044.880072254843
 20
130.3216327238477
 30
0.0
 40
1.25
  1

100
AcDbText
  0
TEXT
  5
1577
330
117D
100
AcDbEntity
  8
DIM
100
AcDbText
 10
1045.942572254844
 20
126.2278742630337
 30
0.0
 40
1.0
  1

100
AcDbText
  0
TEXT
  5
1578
330
117D
100
AcDbEntity
  8
OBJECT
100
AcDbText
 10
1046.79931565273
 20
176.9245319900064
 30
0.0
 40
1.25
  1

100
AcDbText
  0
ARC
  5
1579
330
117D
100
AcDbEntity
  8
OBJECT
100
AcDbCircle
 10
85.08778973111239
 20
126.8269835608665
 30
0.0
 40
0.1405
100
AcDbArc
 50
295.3225088635592
 51
61.0976660672653
  0
ARC
  5
157A
330
117D
100
AcDbEntity
  8
OBJECT
100
AcDbCircle
 10
85.08778973111239
 20
124.0769835608664
 30
0.0
 40
0.1405
100
AcDbArc
 50
295.3225088635513
 51
61.09766606726278
  0
ARC
  5
157B
330
117D
100
AcDbEntity
  8
OBJECT
100
AcDbCircle
 10
83.83778973111239
 20
124.0769835608664
 30
0.0
 40
0.1405
100
AcDbArc
 50
38.14252241385696
 51
321.857477586143
  0
ARC
  5
157C
330
117D
100
AcDbEntity
  8
OBJECT
100
AcDbCircle
 10
83.83778973111239
 20
126.8269835608665
 30
0.0
 40
0.1405
100
AcDbArc
 50
38.14252241385696
 51
321.857477586143
  0
CIRCLE
  5
157D
330
117D
100
AcDbEntity
  8
OBJECT
100
AcDbCircle
 10
85.58778973111238
 20
124.0769835608664
 30
0.0
 40
0.218
  0
TEXT
  5
157E
330
117D
100
AcDbEntity
  8
DIM
100
AcDbText
 10
1062.847449851165
 20
315.2460093384754
 30
0.0
 40
0.72
  1

100
AcDbText
  0
TEXT
  5
157F
330
117D
100
AcDbEntity
  8
DIM
100
AcDbText
 10
999.3115731100553
 20
292.3707440119678
 30
0.0
 40
0.72
  1

100
AcDbText
  0
TEXT
  5
1580
330
117D
100
AcDbEntity
  8
DIM
100
AcDbText
 10
1150.223894071496
 20
243.2490059672666
 30
0.0
 40
0.72
  1

100
AcDbText
  0
TEXT
  5
1581
330
117D
100
AcDbEntity
  8
DIM
100
AcDbText
 10
1086.688017330385
 20
220.3737406407591
 30
0.0
 40
0.72
  1

100
AcDbText
  0
TEXT
  5
1582
330
117D
100
AcDbEntity
  8
DIM
100
AcDbText
 10
1052.877249999165
 20
328.8609719745659
 30
0.0
 40
0.72
  1

100
AcDbText
  0
TEXT
  5
1583
330
117D
100
AcDbEntity
  8
DIM
100
AcDbText
 10
989.3413732580548
 20
305.9857066480582
 30
0.0
 40
0.72
  1

100
AcDbText
  0
TEXT
  5
1584
330
117D
100
AcDbEntity
  8
DIM
100
AcDbText
 10
989.3413732580548
 20
345.9857066480582
 30
0.0
 40
0.72
  1

100
AcDbText
  0
TEXT
  5
1585
330
117D
100
AcDbEntity
  8
DIM
100
AcDbText
 10
1050.841373258055
 20
345.9857066480582
 30
0.0
 40
0.72
  1

100
AcDbText
  0
LINE
  5
1586
330
117D
100
AcDbEntity
  8
PMR
100
AcDbLine
 10
111.3671313817309
 20
183.6069835608663
 30
0.0
 11
111.9618813817309
 21
183.6069835608663
 31
0.0
  0
LINE
  5
1587
330
117D
100
AcDbEntity
  8
PMR
100
AcDbLine
 10
111.3671313817309
 20
122.3569835608665
 30
0.0
 11
111.9618813817309
 21
122.3569835608665
 31
0.0
  0
LINE
  5
1588
330
117D
100
AcDbEntity
  8
PMR
100
AcDbLine
 10
129.8986313817309
 20
122.3569835608665
 30
0.0
 11
130.4921313817308
 21
122.3569835608665
 31
0.0
  0
LINE
  5
1589
330
117D
100
AcDbEntity
  8
PMR
100
AcDbLine
 10
129.8986313817309
 20
183.6069835608663
 30
0.0
 11
130.4921313817308
 21
183.6069835608663
 31
0.0
  0
ARC
  5
158A
330
117D
100
AcDbEntity
  8
OBJECT
100
AcDbCircle
 10
85.08778973111239
 20
124.0769835608664
 30
0.0
 40
0.1405
100
AcDbArc
 50
118.9023339327371
 51
244.6774911364484
  0
ARC
  5
158B
330
117D
100
AcDbEntity
  8
OBJECT
100
AcDbCircle
 10
85.08778973111239
 20
126.8269835608665
 30
0.0
 40
0.1405
100
AcDbArc
 50
118.9023339327345
 51
244.6774911364407
  0
LINE
  5
158C
330
117D
100
AcDbEntity
  8
OBJECT
100
AcDbLine
 10
63.43253973111245
 20
125.5617335608664
 30
0.0
 11
63.43253973111245
 21
127.0622335608664
 31
0.0
  0
LINE
  5
158D
330
117D
100
AcDbEntity
  8
OBJECT
100
AcDbLine
 10
63.77553973111253
 20
127.0622335608664
 30
0.0
 11
63.77553973111253
 21
125.5617335608664
 31
0.0
  0
LINE
  5
158E
330
117D
100
AcDbEntity
  8
OBJECT
100
AcDbLine
 10
63.83753973111254
 20
125.5617335608664
 30
0.0
 11
63.43253973111245
 21
125.5617335608664
 31
0.0
  0
LINE
  5
158F
330
117D
100
AcDbEntity
  8
OBJECT
100
AcDbLine
 10
63.43253973111245
 20
127.0622335608664
 30
0.0
 11
63.83753973111254
 21
127.0622335608664
 31
0.0
  0
ARC
  5
1590
330
117D
100
AcDbEntity
  8
OBJECT
100
AcDbCircle
 10
63.94028820206039
 20
127.0149850899185
 30
0.0
 40
0.5099420827475099
100
AcDbArc
 50
139.9319074171274
 51
174.6836581810345
  0
ARC
  5
1591
330
117D
100
AcDbEntity
  8
OBJECT
100
AcDbCircle
 10
63.26779126016457
 20
127.0149850899185
 30
0.0
 40
0.5099420827475099
100
AcDbArc
 50
5.316341818965462
 51
40.06809258287239
  0
LINE
  5
1592
330
117D
100
AcDbEntity
  8
OBJECT
100
AcDbLine
 10
63.55003973111251
 20
127.3432335608664
 30
0.0
 11
63.65803973111248
 21
127.3432335608664
 31
0.0
  0
LINE
  5
1593
330
117D
100
AcDbEntity
  8
OBJECT
100
AcDbLine
 10
20.74322723463005
 20
119.7019835608664
 30
0.0
 11
20.74322723463017
 21
123.8365412277324
 31
0.0
  0
LINE
  5
1594
330
117D
100
AcDbEntity
  8
OBJECT
100
AcDbLine
 10
39.86822723463017
 20
186.2639835608663
 30
0.0
 11
39.86822723463017
 21
119.7019835608664
 31
0.0
  0
LINE
  5
1595
330
117D
100
AcDbEntity
  8
OBJECT
100
AcDbLine
 10
39.86822723463017
 20
122.3269835608664
 30
0.0
 11
20.74322723463005
 21
122.3269835608664
 31
0.0
  0
LINE
  5
1596
330
117D
100
AcDbEntity
  8
OBJECT
100
AcDbLine
 10
20.74222723463019
 20
183.6389835608664
 30
0.0
 11
39.86822723463017
 21
183.6389835608664
 31
0.0
  0
LINE
  5
1597
330
117D
100
AcDbEntity
  8
OBJECT
100
AcDbLine
 10
20.59472723463017
 20
177.7489835608664
 30
0.0
 11
20.7027272346301
 21
177.7489835608664
 31
0.0
  0
ARC
  5
1598
330
117D
100
AcDbEntity
  8
OBJECT
100
AcDbCircle
 10
20.31247876368222
 20
178.0772320318144
 30
0.0
 40
0.5099420827475099
100
AcDbArc
 50
319.9319074171276
 51
354.6836581810344
  0
ARC
  5
1599
330
117D
100
AcDbEntity
  8
OBJECT
100
AcDbCircle
 10
20.98497570557804
 20
178.0772320318144
 30
0.0
 40
0.5099420827475099
100
AcDbArc
 50
185.3163418189654
 51
220.0680925828724
  0
LINE
  5
159A
330
117D
100
AcDbEntity
  8
OBJECT
100
AcDbLine
 10
20.47722723463009
 20
178.0299835608663
 30
0.0
 11
20.47722723463009
 21
179.5294835608664
 31
0.0
  0
LINE
  5
159B
330
117D
100
AcDbEntity
  8
OBJECT
100
AcDbLine
 10
20.82022723463018
 20
178.0299835608663
 30
0.0
 11
20.47722723463009
 21
178.0299835608663
 31
0.0
  0
LINE
  5
159C
330
117D
100
AcDbEntity
  8
OBJECT
100
AcDbLine
 10
20.47722723463009
 20
124.0622335608664
 30
0.0
 11
20.47722723463009
 21
125.5617335608664
 31
0.0
  0
LINE
  5
159D
330
117D
100
AcDbEntity
  8
OBJECT
100
AcDbLine
 10
20.59472723463017
 20
123.7812335608664
 30
0.0
 11
20.7027272346301
 21
123.7812335608664
 31
0.0
  0
ARC
  5
159E
330
117D
100
AcDbEntity
  8
OBJECT
100
AcDbCircle
 10
20.31247876368222
 20
124.1094820318144
 30
0.0
 40
0.5099420827475099
100
AcDbArc
 50
319.9319074171276
 51
354.6836581810344
  0
ARC
  5
159F
330
117D
100
AcDbEntity
  8
OBJECT
100
AcDbCircle
 10
20.98497570557804
 20
124.1094820318144
 30
0.0
 40
0.5099420827475099
100
AcDbArc
 50
185.3163418189654
 51
220.0680925828724
  0
LINE
  5
15A0
330
117D
100
AcDbEntity
  8
OBJECT
100
AcDbLine
 10
20.82022723463018
 20
124.0622335608664
 30
0.0
 11
20.47722723463009
 21
124.0622335608664
 31
0.0
  0
ARC
  5
15A1
330
117D
100
AcDbEntity
  8
OBJECT
100
AcDbCircle
 10
63.94028820206039
 20
124.1084820318144
 30
0.0
 40
0.5099420827475099
100
AcDbArc
 50
185.3163418189654
 51
220.0680925828724
  0
ARC
  5
15A2
330
117D
100
AcDbEntity
  8
OBJECT
100
AcDbCircle
 10
63.26779126016457
 20
124.1084820318144
 30
0.0
 40
0.5099420827475099
100
AcDbArc
 50
319.9319074171276
 51
354.6836581810344
  0
LINE
  5
15A3
330
117D
100
AcDbEntity
  8
OBJECT
100
AcDbLine
 10
63.43253973111245
 20
124.0612335608664
 30
0.0
 11
63.83753973111254
 21
124.0612335608664
 31
0.0
  0
LINE
  5
15A4
330
117D
100
AcDbEntity
  8
OBJECT
100
AcDbLine
 10
63.43253973111245
 20
125.5617335608664
 30
0.0
 11
63.43253973111245
 21
124.0612335608664
 31
0.0
  0
LINE
  5
15A5
330
117D
100
AcDbEntity
  8
OBJECT
100
AcDbLine
 10
63.55003973111251
 20
123.7802335608664
 30
0.0
 11
63.65803973111248
 21
123.7802335608664
 31
0.0
  0
LINE
  5
15A6
330
117D
100
AcDbEntity
  8
OBJECT
100
AcDbLine
 10
63.77553973111253
 20
124.0612335608664
 30
0.0
 11
63.77553973111253
 21
125.5617335608664
 31
0.0
  0
ARC
  5
15A7
330
117D
100
AcDbEntity
  8
OBJECT
100
AcDbCircle
 10
63.94028820206039
 20
180.9829850899184
 30
0.0
 40
0.5099420827475099
100
AcDbArc
 50
139.9319074171274
 51
174.6836581810345
  0
ARC
  5
15A8
330
117D
100
AcDbEntity
  8
OBJECT
100
AcDbCircle
 10
63.26779126016457
 20
180.9829850899184
 30
0.0
 40
0.5099420827475099
100
AcDbArc
 50
5.316341818965462
 51
40.06809258287239
  0
LINE
  5
15A9
330
117D
100
AcDbEntity
  8
OBJECT
100
AcDbLine
 10
63.77553973111253
 20
178.0292335608663
 30
0.0
 11
63.77553973111253
 21
179.5297335608663
 31
0.0
  0
LINE
  5
15AA
330
117D
100
AcDbEntity
  8
OBJECT
100
AcDbLine
 10
63.43253973111245
 20
179.5297335608663
 30
0.0
 11
63.43253973111245
 21
178.0292335608663
 31
0.0
  0
LINE
  5
15AB
330
117D
100
AcDbEntity
  8
OBJECT
100
AcDbLine
 10
63.55003973111251
 20
177.7482335608663
 30
0.0
 11
63.65803973111248
 21
177.7482335608663
 31
0.0
  0
LINE
  5
15AC
330
117D
100
AcDbEntity
  8
OBJECT
100
AcDbLine
 10
63.43253973111245
 20
178.0292335608663
 30
0.0
 11
63.83753973111254
 21
178.0292335608663
 31
0.0
  0
ARC
  5
15AD
330
117D
100
AcDbEntity
  8
OBJECT
100
AcDbCircle
 10
63.26779126016457
 20
178.0764820318144
 30
0.0
 40
0.5099420827475099
100
AcDbArc
 50
319.9319074171276
 51
354.6836581810344
  0
ARC
  5
15AE
330
117D
100
AcDbEntity
  8
OBJECT
100
AcDbCircle
 10
63.94028820206039
 20
178.0764820318144
 30
0.0
 40
0.5099420827475099
100
AcDbArc
 50
185.3163418189654
 51
220.0680925828724
  0
LINE
  5
15AF
330
117D
100
AcDbEntity
  8
OBJECT
100
AcDbLine
 10
63.83753973111254
 20
179.5297335608663
 30
0.0
 11
63.43253973111245
 21
179.5297335608663
 31
0.0
  0
LINE
  5
15B0
330
117D
100
AcDbEntity
  8
OBJECT
100
AcDbLine
 10
63.43253973111245
 20
181.0302335608664
 30
0.0
 11
63.83753973111254
 21
181.0302335608664
 31
0.0
  0
LINE
  5
15B1
330
117D
100
AcDbEntity
  8
OBJECT
100
AcDbLine
 10
63.43253973111245
 20
179.5297335608663
 30
0.0
 11
63.43253973111245
 21
181.0302335608664
 31
0.0
  0
LINE
  5
15B2
330
117D
100
AcDbEntity
  8
OBJECT
100
AcDbLine
 10
63.77553973111253
 20
181.0302335608664
 30
0.0
 11
63.77553973111253
 21
179.5297335608663
 31
0.0
  0
LINE
  5
15B3
330
117D
100
AcDbEntity
  8
OBJECT
100
AcDbLine
 10
63.55003973111251
 20
181.3112335608663
 30
0.0
 11
63.65803973111248
 21
181.3112335608663
 31
0.0
  0
LINE
  5
15B4
330
117D
100
AcDbEntity
  8
OBJECT
100
AcDbLine
 10
130.5856313817309
 20
223.9531320733468
 30
0.0
 11
130.4921313817308
 21
223.9531320733468
 31
0.0
  0
LINE
  5
15B5
330
117D
100
AcDbEntity
  8
OBJECT
100
AcDbLine
 10
130.5856313817309
 20
223.9531320733468
 30
0.0
 11
130.5856313817309
 21
223.9531320733468
 31
0.0
  0
CIRCLE
  5
15B6
330
117D
100
AcDbEntity
  8
OBJECT
100
AcDbCircle
 10
130.5856313817309
 20
224.1246320733468
 30
0.0
 40
0.055
  0
LINE
  5
15B7
330
117D
100
AcDbEntity
  8
OBJECT
100
AcDbLine
 10
130.4141313817308
 20
223.8131320733468
 30
0.0
 11
130.4141313817308
 21
224.1246320733468
 31
0.0
  0
LINE
  5
15B8
330
117D
100
AcDbEntity
  8
OBJECT
100
AcDbLine
 10
130.4921313817308
 20
223.8131320733468
 30
0.0
 11
130.4921313817308
 21
223.9808614226562
 31
0.0
  0
LINE
  5
15B9
330
117D
100
AcDbEntity
  8
OBJECT
100
AcDbLine
 10
111.476131381731
 20
223.8911320733468
 30
0.0
 11
130.4141313817308
 21
223.8911320733468
 31
0.0
  0
LINE
  5
15BA
330
117D
100
AcDbEntity
  8
OBJECT
100
AcDbLine
 10
111.3671313817307
 20
223.8911320733468
 30
0.0
 11
111.3671313817307
 21
223.8131320733468
 31
0.0
  0
LINE
  5
15BB
330
117D
100
AcDbEntity
  8
OBJECT
100
AcDbLine
 10
111.3671313817307
 20
198.3911320733468
 30
0.0
 11
111.3671313817307
 21
198.4691320733468
 31
0.0
  0
LINE
  5
15BC
330
117D
100
AcDbEntity
  8
OBJECT
100
AcDbLine
 10
130.4921313817308
 20
198.3911320733468
 30
0.0
 11
130.4921313817308
 21
198.4691320733468
 31
0.0
  0
CIRCLE
  5
15BD
330
117D
100
AcDbEntity
  8
OBJECT
100
AcDbCircle
 10
130.5856313817309
 20
224.1246320733468
 30
0.0
 40
0.1714999999999947
  0
LINE
  5
15BE
330
117D
100
AcDbEntity
  8
OBJECT
100
AcDbLine
 10
20.74322723463017
 20
181.2559258940003
 30
0.0
 11
20.74322723463017
 21
186.2639835608663
 31
0.0
  0
LINE
  5
15BF
330
117D
100
AcDbEntity
  8
OBJECT
100
AcDbLine
 10
20.74322723463005
 20
127.2879258940003
 30
0.0
 11
20.74322723463017
 21
177.8042912277324
 31
0.0
  0
LINE
  5
15C0
330
117D
100
AcDbEntity
  8
OBJECT
100
AcDbLine
 10
20.47722723463009
 20
179.5297335608663
 30
0.0
 11
20.47722723463009
 21
181.0302335608664
 31
0.0
  0
LINE
  5
15C1
330
117D
100
AcDbEntity
  8
OBJECT
100
AcDbLine
 10
20.82022723463018
 20
183.5772335608664
 30
0.0
 11
20.82022723463018
 21
122.3897335608665
 31
0.0
  0
LINE
  5
15C2
330
117D
100
AcDbEntity
  8
OBJECT
100
AcDbLine
 10
39.75822723463005
 20
122.3897335608665
 30
0.0
 11
39.75822723463005
 21
183.5772335608664
 31
0.0
  0
LINE
  5
15C3
330
117D
100
AcDbEntity
  8
OBJECT
100
AcDbLine
 10
20.82022723463018
 20
122.3897335608665
 30
0.0
 11
39.75822723463005
 21
122.3897335608665
 31
0.0
  0
LINE
  5
15C4
330
117D
100
AcDbEntity
  8
OBJECT
100
AcDbLine
 10
20.47722723463009
 20
125.5617335608664
 30
0.0
 11
20.47722723463009
 21
127.0622335608664
 31
0.0
  0
LINE
  5
15C5
330
117D
100
AcDbEntity
  8
OBJECT
100
AcDbLine
 10
20.47722723463009
 20
125.5617335608665
 30
0.0
 11
20.82022723463018
 21
125.5617335608665
 31
0.0
  0
ARC
  5
15C6
330
117D
100
AcDbEntity
  8
OBJECT
100
AcDbCircle
 10
20.98497570557804
 20
127.0149850899185
 30
0.0
 40
0.5099420827475099
100
AcDbArc
 50
139.9319074171274
 51
174.6836581810345
  0
LINE
  5
15C7
330
117D
100
AcDbEntity
  8
OBJECT
100
AcDbLine
 10
20.47722723463009
 20
127.0622335608664
 30
0.0
 11
20.82022723463018
 21
127.0622335608664
 31
0.0
  0
ARC
  5
15C8
330
117D
100
AcDbEntity
  8
OBJECT
100
AcDbCircle
 10
20.31247876368222
 20
127.0149850899185
 30
0.0
 40
0.5099420827475099
100
AcDbArc
 50
5.316341818965462
 51
40.06809258287239
  0
LINE
  5
15C9
330
117D
100
AcDbEntity
  8
OBJECT
100
AcDbLine
 10
20.59472723463017
 20
127.3432335608664
 30
0.0
 11
20.7027272346301
 21
127.3432335608664
 31
0.0
  0
LINE
  5
15CA
330
117D
100
AcDbEntity
  8
OBJECT
100
AcDbLine
 10
20.47722723463009
 20
179.5297335608663
 30
0.0
 11
20.82022723463018
 21
179.5297335608663
 31
0.0
  0
LINE
  5
15CB
330
117D
100
AcDbEntity
  8
OBJECT
100
AcDbLine
 10
39.75822723463005
 20
183.5772335608664
 30
0.0
 11
20.82022723463018
 21
183.5772335608664
 31
0.0
  0
LINE
  5
15CC
330
117D
100
AcDbEntity
  8
OBJECT
100
AcDbLine
 10
20.47722723463009
 20
181.0302335608664
 30
0.0
 11
20.82022723463018
 21
181.0302335608664
 31
0.0
  0
ARC
  5
15CD
330
117D
100
AcDbEntity
  8
OBJECT
100
AcDbCircle
 10
20.98497570557804
 20
180.9829850899184
 30
0.0
 40
0.5099420827475099
100
AcDbArc
 50
139.9319074171274
 51
174.6836581810345
  0
LINE
  5
15CE
330
117D
100
AcDbEntity
  8
OBJECT
100
AcDbLine
 10
20.59472723463017
 20
181.3112335608663
 30
0.0
 11
20.7027272346301
 21
181.3112335608663
 31
0.0
  0
ARC
  5
15CF
330
117D
100
AcDbEntity
  8
OBJECT
100
AcDbCircle
 10
20.31247876368222
 20
180.9829850899184
 30
0.0
 40
0.5099420827475099
100
AcDbArc
 50
5.316341818965462
 51
40.06809258287239
  0
CIRCLE
  5
15D0
330
117D
100
AcDbEntity
  8
PMR
100
AcDbCircle
 10
111.7741313817308
 20
168.1079835608665
 30
0.0
 40
0.095
  0
CIRCLE
  5
15D1
330
117D
100
AcDbEntity
  8
PMR
100
AcDbCircle
 10
111.7741313817308
 20
154.7329835608665
 30
0.0
 40
0.095
  0
CIRCLE
  5
15D2
330
117D
100
AcDbEntity
  8
PMR
100
AcDbCircle
 10
111.7741313817308
 20
155.3579835608664
 30
0.0
 40
0.095
  0
CIRCLE
  5
15D3
330
117D
100
AcDbEntity
  8
PMR
100
AcDbCircle
 10
111.7741313817308
 20
155.8579835608665
 30
0.0
 40
0.095
  0
CIRCLE
  5
15D4
330
117D
100
AcDbEntity
  8
PMR
100
AcDbCircle
 10
111.7741313817308
 20
166.9829835608664
 30
0.0
 40
0.095
  0
CIRCLE
  5
15D5
330
117D
100
AcDbEntity
  8
PMR
100
AcDbCircle
 10
111.7741313817308
 20
167.6079835608665
 30
0.0
 40
0.095
  0
CIRCLE
  5
15D6
330
117D
100
AcDbEntity
  8
PMR
100
AcDbCircle
 10
111.7741313817308
 20
157.6079835608664
 30
0.0
 40
0.095
  0
CIRCLE
  5
15D7
330
117D
100
AcDbEntity
  8
PMR
100
AcDbCircle
 10
111.7741313817308
 20
156.4829835608664
 30
0.0
 40
0.095
  0
CIRCLE
  5
15D8
330
117D
100
AcDbEntity
  8
PMR
100
AcDbCircle
 10
111.7741313817308
 20
157.1079835608665
 30
0.0
 40
0.095
  0
CIRCLE
  5
15D9
330
117D
100
AcDbEntity
  8
PMR
100
AcDbCircle
 10
130.0861313817309
 20
168.1079835608665
 30
0.0
 40
0.095
  0
CIRCLE
  5
15DA
330
117D
100
AcDbEntity
  8
PMR
100
AcDbCircle
 10
130.0861313817309
 20
155.3579835608664
 30
0.0
 40
0.095
  0
CIRCLE
  5
15DB
330
117D
100
AcDbEntity
  8
PMR
100
AcDbCircle
 10
130.0861313817309
 20
154.7329835608665
 30
0.0
 40
0.095
  0
CIRCLE
  5
15DC
330
117D
100
AcDbEntity
  8
PMR
100
AcDbCircle
 10
130.0861313817309
 20
155.8579835608665
 30
0.0
 40
0.095
  0
CIRCLE
  5
15DD
330
117D
100
AcDbEntity
  8
PMR
100
AcDbCircle
 10
130.0861313817309
 20
167.6079835608665
 30
0.0
 40
0.095
  0
CIRCLE
  5
15DE
330
117D
100
AcDbEntity
  8
PMR
100
AcDbCircle
 10
130.0861313817309
 20
166.9829835608664
 30
0.0
 40
0.095
  0
CIRCLE
  5
15DF
330
117D
100
AcDbEntity
  8
PMR
100
AcDbCircle
 10
130.0861313817309
 20
157.6079835608664
 30
0.0
 40
0.095
  0
CIRCLE
  5
15E0
330
117D
100
AcDbEntity
  8
PMR
100
AcDbCircle
 10
130.0861313817309
 20
156.4829835608664
 30
0.0
 40
0.095
  0
CIRCLE
  5
15E1
330
117D
100
AcDbEntity
  8
PMR
100
AcDbCircle
 10
130.0861313817309
 20
157.1079835608665
 30
0.0
 40
0.095
  0
CIRCLE
  5
15E2
330
117D
100
AcDbEntity
  8
PMR
100
AcDbCircle
 10
111.7741313817308
 20
154.1079835608664
 30
0.0
 40
0.095
  0
CIRCLE
  5
15E3
330
117D
100
AcDbEntity
  8
PMR
100
AcDbCircle
 10
111.7741313817308
 20
149.4829835608665
 30
0.0
 40
0.095
  0
CIRCLE
  5
15E4
330
117D
100
AcDbEntity
  8
PMR
100
AcDbCircle
 10
111.7741313817308
 20
150.1079835608664
 30
0.0
 40
0.095
  0
CIRCLE
  5
15E5
330
117D
100
AcDbEntity
  8
PMR
100
AcDbCircle
 10
111.7741313817308
 20
150.6079835608665
 30
0.0
 40
0.095
  0
CIRCLE
  5
15E6
330
117D
100
AcDbEntity
  8
PMR
100
AcDbCircle
 10
111.7741313817308
 20
152.9829835608665
 30
0.0
 40
0.095
  0
CIRCLE
  5
15E7
330
117D
100
AcDbEntity
  8
PMR
100
AcDbCircle
 10
111.7741313817308
 20
153.6079835608665
 30
0.0
 40
0.095
  0
CIRCLE
  5
15E8
330
117D
100
AcDbEntity
  8
PMR
100
AcDbCircle
 10
111.7741313817308
 20
152.3579835608664
 30
0.0
 40
0.095
  0
CIRCLE
  5
15E9
330
117D
100
AcDbEntity
  8
PMR
100
AcDbCircle
 10
111.7741313817308
 20
151.2329835608665
 30
0.0
 40
0.095
  0
CIRCLE
  5
15EA
330
117D
100
AcDbEntity
  8
PMR
100
AcDbCircle
 10
111.7741313817308
 20
151.8579835608665
 30
0.0
 40
0.095
  0
CIRCLE
  5
15EB
330
117D
100
AcDbEntity
  8
PMR
100
AcDbCircle
 10
130.0861313817309
 20
154.1079835608664
 30
0.0
 40
0.095
  0
CIRCLE
  5
15EC
330
117D
100
AcDbEntity
  8
PMR
100
AcDbCircle
 10
130.0861313817309
 20
150.1079835608664
 30
0.0
 40
0.095
  0
CIRCLE
  5
15ED
330
117D
100
AcDbEntity
  8
PMR
100
AcDbCircle
 10
130.0861313817309
 20
149.4829835608665
 30
0.0
 40
0.095
  0
CIRCLE
  5
15EE
330
117D
100
AcDbEntity
  8
PMR
100
AcDbCircle
 10
130.0861313817309
 20
150.6079835608665
 30
0.0
 40
0.095
  0
CIRCLE
  5
15EF
330
117D
100
AcDbEntity
  8
PMR
100
AcDbCircle
 10
130.0861313817309
 20
153.6079835608665
 30
0.0
 40
0.095
  0
CIRCLE
  5
15F0
330
117D
100
AcDbEntity
  8
PMR
100
AcDbCircle
 10
130.0861313817309
 20
152.9829835608665
 30
0.0
 40
0.095
  0
CIRCLE
  5
15F1
330
117D
100
AcDbEntity
  8
PMR
100
AcDbCircle
 10
130.0861313817309
 20
152.3579835608664
 30
0.0
 40
0.095
  0
CIRCLE
  5
15F2
330
117D
100
AcDbEntity
  8
PMR
100
AcDbCircle
 10
130.0861313817309
 20
151.2329835608665
 30
0.0
 40
0.095
  0
CIRCLE
  5
15F3
330
117D
100
AcDbEntity
  8
PMR
100
AcDbCircle
 10
130.0861313817309
 20
151.8579835608665
 30
0.0
 40
0.095
  0
TEXT
  5
15F4
330
117D
100
AcDbEntity
  8
DIM
100
AcDbText
 10
655.3800722548445
 20
130.3216327238477
 30
0.0
 40
1.25
  1

100
AcDbText
  0
TEXT
  5
15F5
330
117D
100
AcDbEntity
  8
DIM
100
AcDbText
 10
656.4425722548445
 20
126.2278742630337
 30
0.0
 40
1.0
  1

100
AcDbText
  0
TEXT
  5
15F6
330
117D
100
AcDbEntity
  8
DIM
100
AcDbText
 10
819.3800722548447
 20
130.3216327238477
 30
0.0
 40
1.25
  1

100
AcDbText
  0
TEXT
  5
15F7
330
117D
100
AcDbEntity
  8
DIM
100
AcDbText
 10
820.4425722548446
 20
126.2278742630337
 30
0.0
 40
1.0
  1

100
AcDbText
  0
TEXT
  5
15F8
330
117D
100
AcDbEntity
  8
OBJECT
100
AcDbText
 10
821.2993156527314
 20
176.9245319900064
 30
0.0
 40
1.25
  1

100
AcDbText
  0
TEXT
  5
15F9
330
117D
100
AcDbEntity
  8
DIM
100
AcDbText
 10
819.3800722548447
 20
130.3216327238477
 30
0.0
 40
1.25
  1

100
AcDbText
  0
TEXT
  5
15FA
330
117D
100
AcDbEntity
  8
DIM
100
AcDbText
 10
820.4425722548446
 20
126.2278742630337
 30
0.0
 40
1.0
  1

100
AcDbText
  0
TEXT
  5
15FB
330
117D
100
AcDbEntity
  8
OBJECT
100
AcDbText
 10
821.2993156527314
 20
176.9245319900064
 30
0.0
 40
1.25
  1

100
AcDbText
  0
TEXT
  5
15FC
330
117D
100
AcDbEntity
  8
DIM
100
AcDbText
 10
837.3474498511656
 20
315.2460093384754
 30
0.0
 40
0.72
  1

100
AcDbText
  0
TEXT
  5
15FD
330
117D
100
AcDbEntity
  8
DIM
100
AcDbText
 10
773.8115731100549
 20
292.3707440119678
 30
0.0
 40
0.72
  1

100
AcDbText
  0
TEXT
  5
15FE
330
117D
100
AcDbEntity
  8
DIM
100
AcDbText
 10
924.7238940714961
 20
243.2490059672666
 30
0.0
 40
0.72
  1

100
AcDbText
  0
TEXT
  5
15FF
330
117D
100
AcDbEntity
  8
DIM
100
AcDbText
 10
861.1880173303855
 20
220.3737406407591
 30
0.0
 40
0.72
  1

100
AcDbText
  0
TEXT
  5
1600
330
117D
100
AcDbEntity
  8
DIM
100
AcDbText
 10
827.3772499991656
 20
328.8609719745659
 30
0.0
 40
0.72
  1

100
AcDbText
  0
TEXT
  5
1601
330
117D
100
AcDbEntity
  8
DIM
100
AcDbText
 10
763.8413732580548
 20
305.9857066480582
 30
0.0
 40
0.72
  1

100
AcDbText
  0
TEXT
  5
1602
330
117D
100
AcDbEntity
  8
DIM
100
AcDbText
 10
763.8413732580548
 20
345.9857066480582
 30
0.0
 40
0.72
  1

100
AcDbText
  0
TEXT
  5
1603
330
117D
100
AcDbEntity
  8
DIM
100
AcDbText
 10
825.341373258055
 20
345.9857066480582
 30
0.0
 40
0.72
  1

100
AcDbText
  0
CIRCLE
  5
1604
330
117D
100
AcDbEntity
  8
OBJECT
100
AcDbCircle
 10
38.63322723463005
 20
152.9829835608665
 30
0.0
 40
0.3174999999999999
  0
CIRCLE
  5
1605
330
117D
100
AcDbEntity
  8
OBJECT
100
AcDbCircle
 10
38.63322723463005
 20
152.9829835608665
 30
0.0
 40
0.453125
  0
LINE
  5
1606
330
117D
100
AcDbEntity
  8
OBJECT
100
AcDbLine
 10
38.58822723462998
 20
152.7304835608665
 30
0.0
 11
38.67822723463
 21
152.7304835608665
 31
0.0
  0
LINE
  5
1607
330
117D
100
AcDbEntity
  8
OBJECT
100
AcDbLine
 10
38.58822723462998
 20
153.1204835608664
 30
0.0
 11
38.67822723463
 21
153.1204835608664
 31
0.0
  0
LINE
  5
1608
330
117D
100
AcDbEntity
  8
OBJECT
100
AcDbLine
 10
38.58822723462998
 20
153.1204835608664
 30
0.0
 11
38.58822723462998
 21
152.7304835608665
 31
0.0
  0
LINE
  5
1609
330
117D
100
AcDbEntity
  8
OBJECT
100
AcDbLine
 10
38.67822723463
 20
153.1204835608664
 30
0.0
 11
38.67822723463
 21
152.7304835608665
 31
0.0
  0
ARC
  5
160A
330
117D
100
AcDbEntity
  8
OBJECT
100
AcDbCircle
 10
38.63322723463005
 20
152.9829835608665
 30
0.0
 40
0.125
100
AcDbArc
 50
291.100196024093
 51
68.89980397590702
  0
ARC
  5
160B
330
117D
100
AcDbEntity
  8
OBJECT
100
AcDbCircle
 10
38.63322723463005
 20
152.9829835608665
 30
0.0
 40
0.125
100
AcDbArc
 50
111.1001960240928
 51
248.8998039759068
  0
ARC
  5
160C
330
117D
100
AcDbEntity
  8
OBJECT
100
AcDbCircle
 10
85.58778973111238
 20
126.8269835608665
 30
0.0
 40
0.1405
100
AcDbArc
 50
118.9023339327345
 51
244.6774911364407
  0
CIRCLE
  5
160D
330
117D
100
AcDbEntity
  8
PMR
100
AcDbCircle
 10
111.7741313817308
 20
158.2329835608665
 30
0.0
 40
0.095
  0
CIRCLE
  5
160E
330
117D
100
AcDbEntity
  8
PMR
100
AcDbCircle
 10
130.0861313817309
 20
158.2329835608665
 30
0.0
 40
0.095
  0
CIRCLE
  5
160F
330
117D
100
AcDbEntity
  8
PMR
100
AcDbCircle
 10
111.7741313817308
 20
164.6079835608665
 30
0.0
 40
0.095
  0
CIRCLE
  5
1610
330
117D
100
AcDbEntity
  8
PMR
100
AcDbCircle
 10
111.7741313817308
 20
161.1079835608665
 30
0.0
 40
0.095
  0
CIRCLE
  5
1611
330
117D
100
AcDbEntity
  8
PMR
100
AcDbCircle
 10
111.7741313817308
 20
160.6079835608665
 30
0.0
 40
0.095
  0
CIRCLE
  5
1612
330
117D
100
AcDbEntity
  8
PMR
100
AcDbCircle
 10
111.7741313817308
 20
159.9829835608665
 30
0.0
 40
0.095
  0
CIRCLE
  5
1613
330
117D
100
AcDbEntity
  8
PMR
100
AcDbCircle
 10
111.7741313817308
 20
159.3579835608665
 30
0.0
 40
0.095
  0
CIRCLE
  5
1614
330
117D
100
AcDbEntity
  8
PMR
100
AcDbCircle
 10
111.7741313817308
 20
158.8579835608665
 30
0.0
 40
0.095
  0
CIRCLE
  5
1615
330
117D
100
AcDbEntity
  8
PMR
100
AcDbCircle
 10
111.7741313817308
 20
164.1079835608665
 30
0.0
 40
0.095
  0
CIRCLE
  5
1616
330
117D
100
AcDbEntity
  8
PMR
100
AcDbCircle
 10
111.7741313817308
 20
162.3579835608665
 30
0.0
 40
0.095
  0
CIRCLE
  5
1617
330
117D
100
AcDbEntity
  8
PMR
100
AcDbCircle
 10
111.7741313817308
 20
161.7329835608664
 30
0.0
 40
0.095
  0
CIRCLE
  5
1618
330
117D
100
AcDbEntity
  8
PMR
100
AcDbCircle
 10
111.7741313817308
 20
162.8579835608665
 30
0.0
 40
0.095
  0
CIRCLE
  5
1619
330
117D
100
AcDbEntity
  8
PMR
100
AcDbCircle
 10
111.7741313817308
 20
163.4829835608664
 30
0.0
 40
0.095
  0
CIRCLE
  5
161A
330
117D
100
AcDbEntity
  8
PMR
100
AcDbCircle
 10
111.7741313817308
 20
165.8579835608664
 30
0.0
 40
0.095
  0
CIRCLE
  5
161B
330
117D
100
AcDbEntity
  8
PMR
100
AcDbCircle
 10
111.7741313817308
 20
165.2329835608665
 30
0.0
 40
0.095
  0
CIRCLE
  5
161C
330
117D
100
AcDbEntity
  8
PMR
100
AcDbCircle
 10
111.7741313817308
 20
166.3579835608665
 30
0.0
 40
0.095
  0
CIRCLE
  5
161D
330
117D
100
AcDbEntity
  8
PMR
100
AcDbCircle
 10
130.0861313817309
 20
164.6079835608665
 30
0.0
 40
0.095
  0
CIRCLE
  5
161E
330
117D
100
AcDbEntity
  8
PMR
100
AcDbCircle
 10
130.0861313817309
 20
161.1079835608665
 30
0.0
 40
0.095
  0
CIRCLE
  5
161F
330
117D
100
AcDbEntity
  8
PMR
100
AcDbCircle
 10
130.0861313817309
 20
160.6079835608665
 30
0.0
 40
0.095
  0
CIRCLE
  5
1620
330
117D
100
AcDbEntity
  8
PMR
100
AcDbCircle
 10
130.0861313817309
 20
159.9829835608665
 30
0.0
 40
0.095
  0
CIRCLE
  5
1621
330
117D
100
AcDbEntity
  8
PMR
100
AcDbCircle
 10
130.0861313817309
 20
159.3579835608665
 30
0.0
 40
0.095
  0
CIRCLE
  5
1622
330
117D
100
AcDbEntity
  8
PMR
100
AcDbCircle
 10
130.0861313817309
 20
158.8579835608665
 30
0.0
 40
0.095
  0
CIRCLE
  5
1623
330
117D
100
AcDbEntity
  8
PMR
100
AcDbCircle
 10
130.0861313817309
 20
164.1079835608665
 30
0.0
 40
0.095
  0
CIRCLE
  5
1624
330
117D
100
AcDbEntity
  8
PMR
100
AcDbCircle
 10
130.0861313817309
 20
161.7329835608664
 30
0.0
 40
0.095
  0
CIRCLE
  5
1625
330
117D
100
AcDbEntity
  8
PMR
100
AcDbCircle
 10
130.0861313817309
 20
162.3579835608665
 30
0.0
 40
0.095
  0
CIRCLE
  5
1626
330
117D
100
AcDbEntity
  8
PMR
100
AcDbCircle
 10
130.0861313817309
 20
162.8579835608665
 30
0.0
 40
0.095
  0
CIRCLE
  5
1627
330
117D
100
AcDbEntity
  8
PMR
100
AcDbCircle
 10
130.0861313817309
 20
163.4829835608664
 30
0.0
 40
0.095
  0
CIRCLE
  5
1628
330
117D
100
AcDbEntity
  8
PMR
100
AcDbCircle
 10
130.0861313817309
 20
165.8579835608664
 30
0.0
 40
0.095
  0
CIRCLE
  5
1629
330
117D
100
AcDbEntity
  8
PMR
100
AcDbCircle
 10
130.0861313817309
 20
165.2329835608665
 30
0.0
 40
0.095
  0
CIRCLE
  5
162A
330
117D
100
AcDbEntity
  8
PMR
100
AcDbCircle
 10
130.0861313817309
 20
166.3579835608665
 30
0.0
 40
0.095
  0
DIMENSION
  5
162B
330
117D
100
AcDbEntity
  8
DIM
100
AcDbDimension
  2
*D10
 10
56.78653973111257
 20
151.6079835608664
 30
0.0
 11
56.78653973111255
 21
152.9829835608664
 31
0.0
 70
   160
 71
     5
 42
2.75
  3
23NSTD
100
AcDbAlignedDimension
 13
65.21278973111248
 23
154.3579835608664
 33
0.0
 14
65.21278973111248
 24
151.6079835608664
 34
0.0
 50
90.0
100
AcDbRotatedDimension
  0
DIMENSION
  5
1639
330
117D
100
AcDbEntity
  8
DIM
100
AcDbDimension
  2
*D11
 10
56.78653973111257
 20
124.0769835608664
 30
0.0
 11
56.78653973111255
 21
137.8424835608664
 31
0.0
 70
    32
  1
E
 71
     5
 42
27.53100000000002
  3
23NSTD
100
AcDbAlignedDimension
 13
65.21278973111248
 23
151.6079835608664
 33
0.0
 14
65.21278973111248
 24
124.0769835608664
 34
0.0
 50
90.0
100
AcDbRotatedDimension
  0
TEXT
  5
1647
330
117D
100
AcDbEntity
  8
DIM
100
AcDbText
 10
675.8800722548445
 20
130.3216327238477
 30
0.0
 40
1.25
  1

100
AcDbText
  0
TEXT
  5
1648
330
117D
100
AcDbEntity
  8
DIM
100
AcDbText
 10
676.9425722548445
 20
126.2278742630337
 30
0.0
 40
1.0
  1

100
AcDbText
  0
TEXT
  5
1649
330
117D
100
AcDbEntity
  8
DIM
100
AcDbText
 10
839.8800722548447
 20
130.3216327238477
 30
0.0
 40
1.25
  1

100
AcDbText
  0
TEXT
  5
164A
330
117D
100
AcDbEntity
  8
DIM
100
AcDbText
 10
840.9425722548444
 20
126.2278742630337
 30
0.0
 40
1.0
  1

100
AcDbText
  0
LINE
  5
164B
330
117D
100
AcDbEntity
  8
OBJECT
100
AcDbLine
 10
89.33753973111254
 20
119.7019835608664
 30
0.0
 11
63.83753973111254
 21
119.7019835608664
 31
0.0
  0
LINE
  5
164C
330
117D
100
AcDbEntity
  8
OBJECT
100
AcDbLine
 10
89.25953973111248
 20
122.3269835608664
 30
0.0
 11
63.91553973111253
 21
122.3269835608664
 31
0.0
  0
CIRCLE
  5
164D
330
117D
100
AcDbEntity
  8
OBJECT
100
AcDbCircle
 10
87.52453973111249
 20
122.9519835608664
 30
0.0
 40
0.0735
  0
CIRCLE
  5
164E
330
117D
100
AcDbEntity
  8
OBJECT
100
AcDbCircle
 10
65.65053973111253
 20
122.9519835608664
 30
0.0
 40
0.0735
  0
LINE
  5
164F
330
117D
100
AcDbEntity
  8
OBJECT
100
AcDbLine
 10
87.8695397311125
 20
122.3269835608664
 30
0.0
 11
87.8695397311125
 21
123.7019835608665
 31
0.0
  0
CIRCLE
  5
1650
330
117D
100
AcDbEntity
  8
OBJECT
100
AcDbCircle
 10
66.33753973111248
 20
180.5139835608663
 30
0.0
 40
0.1405
  0
LINE
  5
1651
330
117D
100
AcDbEntity
  8
OBJECT
100
AcDbLine
 10
66.02553973111253
 20
181.5139835608663
 30
0.0
 11
66.02553973111253
 21
179.5139835608663
 31
0.0
  0
LINE
  5
1652
330
117D
100
AcDbEntity
  8
OBJECT
100
AcDbLine
 10
66.64953973111249
 20
181.5139835608663
 30
0.0
 11
66.64953973111249
 21
179.5139835608663
 31
0.0
  0
LINE
  5
1653
330
117D
100
AcDbEntity
  8
OBJECT
100
AcDbLine
 10
66.64953973111249
 20
180.1389835608663
 30
0.0
 11
66.02553973111253
 21
180.1389835608663
 31
0.0
  0
LINE
  5
1654
330
117D
100
AcDbEntity
  8
OBJECT
100
AcDbLine
 10
66.64953973111249
 20
180.8889835608663
 30
0.0
 11
66.02553973111253
 21
180.8889835608663
 31
0.0
  0
LINE
  5
1655
330
117D
100
AcDbEntity
  8
OBJECT
100
AcDbLine
 10
87.3065397311125
 20
122.3269835608664
 30
0.0
 11
87.3065397311125
 21
123.7019835608665
 31
0.0
  0
LINE
  5
1656
330
117D
100
AcDbEntity
  8
OBJECT
100
AcDbLine
 10
63.8375397311125
 20
181.3484510994881
 30
0.0
 11
63.83753973111254
 21
119.7019835608664
 31
0.0
  0
LINE
  5
1657
330
117D
100
AcDbEntity
  8
OBJECT
100
AcDbLine
 10
89.33753973111246
 20
119.7019835608664
 30
0.0
 11
89.33753973111246
 21
146.996692177346
 31
0.0
  0
LINE
  5
1658
330
117D
100
AcDbEntity
  8
OBJECT
100
AcDbLine
 10
64.61878973111248
 20
181.7111012244184
 30
0.0
 11
64.61878973111248
 21
178.7639835608664
 31
0.0
  0
LINE
  5
1659
330
117D
100
AcDbEntity
  8
OBJECT
100
AcDbLine
 10
89.25953973111248
 20
119.7019835608664
 30
0.0
 11
89.25953973111248
 21
122.3269835608664
 31
0.0
  0
LINE
  5
165A
330
117D
100
AcDbEntity
  8
OBJECT
100
AcDbLine
 10
89.19753973111246
 20
119.7639835608664
 30
0.0
 11
89.19753973111246
 21
122.2649835608664
 31
0.0
  0
LINE
  5
165B
330
117D
100
AcDbEntity
  8
OBJECT
100
AcDbLine
 10
89.19753973111246
 20
119.7639835608664
 30
0.0
 11
63.97753973111258
 21
119.7639835608664
 31
0.0
  0
LINE
  5
165C
330
117D
100
AcDbEntity
  8
OBJECT
100
AcDbLine
 10
89.19753973111246
 20
122.2649835608664
 30
0.0
 11
63.97753973111253
 21
122.2649835608664
 31
0.0
  0
LINE
  5
165D
330
117D
100
AcDbEntity
  8
OBJECT
100
AcDbLine
 10
63.97753973111253
 20
122.2649835608664
 30
0.0
 11
63.97753973111253
 21
119.7639835608664
 31
0.0
  0
LINE
  5
165E
330
117D
100
AcDbEntity
  8
OBJECT
100
AcDbLine
 10
63.91553973111253
 20
122.3269835608664
 30
0.0
 11
63.91553973111253
 21
119.7019835608664
 31
0.0
  0
LINE
  5
165F
330
117D
100
AcDbEntity
  8
OBJECT
100
AcDbLine
 10
88.58753973111246
 20
122.3269835608664
 30
0.0
 11
88.58753973111246
 21
147.6598294651005
 31
0.0
  0
LINE
  5
1660
330
117D
100
AcDbEntity
  8
OBJECT
100
AcDbLine
 10
64.58753973111246
 20
181.6965952194212
 30
0.0
 11
64.58753973111254
 21
122.3269835608664
 31
0.0
  0
ARC
  5
1661
330
117D
100
AcDbEntity
  8
OBJECT
100
AcDbCircle
 10
65.21278973111248
 20
181.8889835608663
 30
0.0
 40
0.1405
100
AcDbArc
 50
165.7256702009888
 51
64.07504768278221
  0
CIRCLE
  5
1662
330
117D
100
AcDbEntity
  8
OBJECT
100
AcDbCircle
 10
65.83778973111248
 20
181.8889835608663
 30
0.0
 40
0.1405
  0
CIRCLE
  5
1663
330
117D
100
AcDbEntity
  8
OBJECT
100
AcDbCircle
 10
66.33778973111247
 20
181.8889835608663
 30
0.0
 40
0.1405
  0
CIRCLE
  5
1664
330
117D
100
AcDbEntity
  8
OBJECT
100
AcDbCircle
 10
66.96278973111247
 20
181.8889835608663
 30
0.0
 40
0.1405
  0
CIRCLE
  5
1665
330
117D
100
AcDbEntity
  8
OBJECT
100
AcDbCircle
 10
66.96278973111247
 20
179.1389835608663
 30
0.0
 40
0.1405
  0
CIRCLE
  5
1666
330
117D
100
AcDbEntity
  8
OBJECT
100
AcDbCircle
 10
66.33778973111247
 20
179.1389835608663
 30
0.0
 40
0.1405
  0
CIRCLE
  5
1667
330
117D
100
AcDbEntity
  8
OBJECT
100
AcDbCircle
 10
65.83778973111248
 20
179.1389835608663
 30
0.0
 40
0.1405
  0
CIRCLE
  5
1668
330
117D
100
AcDbEntity
  8
OBJECT
100
AcDbCircle
 10
65.21278973111248
 20
179.1389835608663
 30
0.0
 40
0.1405
  0
CIRCLE
  5
1669
330
117D
100
AcDbEntity
  8
OBJECT
100
AcDbCircle
 10
86.21228973111252
 20
126.8269835608665
 30
0.0
 40
0.1405
  0
CIRCLE
  5
166A
330
117D
100
AcDbEntity
  8
OBJECT
100
AcDbCircle
 10
86.83728973111252
 20
126.8269835608665
 30
0.0
 40
0.1405
  0
CIRCLE
  5
166B
330
117D
100
AcDbEntity
  8
OBJECT
100
AcDbCircle
 10
87.33728973111253
 20
126.8269835608665
 30
0.0
 40
0.1405
  0
CIRCLE
  5
166C
330
117D
100
AcDbEntity
  8
OBJECT
100
AcDbCircle
 10
87.96228973111253
 20
126.8269835608665
 30
0.0
 40
0.1405
  0
CIRCLE
  5
166D
330
117D
100
AcDbEntity
  8
OBJECT
100
AcDbCircle
 10
87.96228973111253
 20
124.0769835608664
 30
0.0
 40
0.1405
  0
CIRCLE
  5
166E
330
117D
100
AcDbEntity
  8
OBJECT
100
AcDbCircle
 10
87.33728973111253
 20
124.0769835608664
 30
0.0
 40
0.1405
  0
CIRCLE
  5
166F
330
117D
100
AcDbEntity
  8
OBJECT
100
AcDbCircle
 10
86.83728973111252
 20
124.0769835608664
 30
0.0
 40
0.1405
  0
CIRCLE
  5
1670
330
117D
100
AcDbEntity
  8
OBJECT
100
AcDbCircle
 10
86.21228973111252
 20
124.0769835608664
 30
0.0
 40
0.1405
  0
CIRCLE
  5
1671
330
117D
100
AcDbEntity
  8
OBJECT
100
AcDbCircle
 10
65.21278973111248
 20
126.8269835608665
 30
0.0
 40
0.1405
  0
CIRCLE
  5
1672
330
117D
100
AcDbEntity
  8
OBJECT
100
AcDbCircle
 10
65.83778973111248
 20
126.8269835608665
 30
0.0
 40
0.1405
  0
CIRCLE
  5
1673
330
117D
100
AcDbEntity
  8
OBJECT
100
AcDbCircle
 10
66.33778973111247
 20
126.8269835608665
 30
0.0
 40
0.1405
  0
CIRCLE
  5
1674
330
117D
100
AcDbEntity
  8
OBJECT
100
AcDbCircle
 10
66.96278973111247
 20
126.8269835608665
 30
0.0
 40
0.1405
  0
CIRCLE
  5
1675
330
117D
100
AcDbEntity
  8
OBJECT
100
AcDbCircle
 10
66.96278973111247
 20
124.0769835608664
 30
0.0
 40
0.1405
  0
CIRCLE
  5
1676
330
117D
100
AcDbEntity
  8
OBJECT
100
AcDbCircle
 10
66.33778973111247
 20
124.0769835608664
 30
0.0
 40
0.1405
  0
CIRCLE
  5
1677
330
117D
100
AcDbEntity
  8
OBJECT
100
AcDbCircle
 10
65.83778973111248
 20
124.0769835608664
 30
0.0
 40
0.1405
  0
CIRCLE
  5
1678
330
117D
100
AcDbEntity
  8
OBJECT
100
AcDbCircle
 10
65.21278973111248
 20
124.0769835608664
 30
0.0
 40
0.1405
  0
LINE
  5
1679
330
117D
100
AcDbEntity
  8
OBJECT
100
AcDbLine
 10
88.55628973111246
 20
123.7019835608665
 30
0.0
 11
88.55628973111246
 21
127.2019835608664
 31
0.0
  0
LINE
  5
167A
330
117D
100
AcDbEntity
  8
OBJECT
100
AcDbLine
 10
64.61878973111248
 20
123.7019835608665
 30
0.0
 11
64.61878973111248
 21
127.2019835608664
 31
0.0
  0
CIRCLE
  5
167B
330
117D
100
AcDbEntity
  8
OBJECT
100
AcDbCircle
 10
86.83753973111246
 20
125.4519835608664
 30
0.0
 40
0.1405
  0
LINE
  5
167C
330
117D
100
AcDbEntity
  8
OBJECT
100
AcDbLine
 10
87.14953973111247
 20
126.4519835608664
 30
0.0
 11
87.14953973111247
 21
124.4519835608665
 31
0.0
  0
LINE
  5
167D
330
117D
100
AcDbEntity
  8
OBJECT
100
AcDbLine
 10
86.52553973111256
 20
126.4519835608664
 30
0.0
 11
86.52553973111256
 21
124.4519835608665
 31
0.0
  0
LINE
  5
167E
330
117D
100
AcDbEntity
  8
OBJECT
100
AcDbLine
 10
87.14953973111247
 20
125.0769835608664
 30
0.0
 11
86.52553973111256
 21
125.0769835608664
 31
0.0
  0
LINE
  5
167F
330
117D
100
AcDbEntity
  8
OBJECT
100
AcDbLine
 10
87.14953973111247
 20
125.8269835608665
 30
0.0
 11
86.52553973111256
 21
125.8269835608665
 31
0.0
  0
LINE
  5
1680
330
117D
100
AcDbEntity
  8
OBJECT
100
AcDbLine
 10
66.64953973111249
 20
125.0769835608664
 30
0.0
 11
66.02553973111253
 21
125.0769835608664
 31
0.0
  0
LINE
  5
1681
330
117D
100
AcDbEntity
  8
OBJECT
100
AcDbLine
 10
66.64953973111249
 20
125.8269835608665
 30
0.0
 11
66.02553973111253
 21
125.8269835608665
 31
0.0
  0
LINE
  5
1682
330
117D
100
AcDbEntity
  8
OBJECT
100
AcDbLine
 10
66.64953973111249
 20
126.4519835608664
 30
0.0
 11
66.64953973111249
 21
124.4519835608665
 31
0.0
  0
LINE
  5
1683
330
117D
100
AcDbEntity
  8
OBJECT
100
AcDbLine
 10
66.02553973111253
 20
126.4519835608664
 30
0.0
 11
66.02553973111253
 21
124.4519835608665
 31
0.0
  0
CIRCLE
  5
1684
330
117D
100
AcDbEntity
  8
OBJECT
100
AcDbCircle
 10
66.33753973111248
 20
125.4519835608664
 30
0.0
 40
0.1405
  0
LINE
  5
1685
330
117D
100
AcDbEntity
  8
OBJECT
100
AcDbLine
 10
65.3055397311125
 20
178.7639835608664
 30
0.0
 11
65.3055397311125
 21
154.7329835608664
 31
0.0
  0
LINE
  5
1686
330
117D
100
AcDbEntity
  8
OBJECT
100
AcDbLine
 10
65.3055397311125
 20
123.7019835608665
 30
0.0
 11
65.3055397311125
 21
122.3269835608664
 31
0.0
  0
LINE
  5
1687
330
117D
100
AcDbEntity
  8
OBJECT
100
AcDbLine
 10
65.86853973111255
 20
123.7019835608665
 30
0.0
 11
65.86853973111255
 21
122.3269835608664
 31
0.0
  0
LINE
  5
1688
330
117D
100
AcDbEntity
  8
OBJECT
100
AcDbLine
 10
87.8695397311125
 20
127.2019835608664
 30
0.0
 11
87.8695397311125
 21
148.4032058322964
 31
0.0
  0
LINE
  5
1689
330
117D
100
AcDbEntity
  8
OBJECT
100
AcDbLine
 10
65.86853973111255
 20
183.6389835608663
 30
0.0
 11
65.86853973111255
 21
182.1502562924405
 31
0.0
  0
LINE
  5
168A
330
117D
100
AcDbEntity
  8
OBJECT
100
AcDbLine
 10
87.3065397311125
 20
127.2019835608664
 30
0.0
 11
87.3065397311125
 21
149.0105298115761
 31
0.0
  0
LINE
  5
168B
330
117D
100
AcDbEntity
  8
OBJECT
100
AcDbLine
 10
88.55628973111246
 20
127.2019835608664
 30
0.0
 11
86.02628973111237
 21
127.2019835608664
 31
0.0
  0
LINE
  5
168C
330
117D
100
AcDbEntity
  8
OBJECT
100
AcDbLine
 10
88.55628973111246
 20
126.5769835608665
 30
0.0
 11
86.02628973111237
 21
126.5769835608665
 31
0.0
  0
LINE
  5
168D
330
117D
100
AcDbEntity
  8
OBJECT
100
AcDbLine
 10
88.55628973111246
 20
124.3269835608664
 30
0.0
 11
86.02628973111237
 21
124.3269835608664
 31
0.0
  0
LINE
  5
168E
330
117D
100
AcDbEntity
  8
OBJECT
100
AcDbLine
 10
88.55628973111246
 20
123.7019835608665
 30
0.0
 11
86.02628973111237
 21
123.7019835608665
 31
0.0
  0
TEXT
  5
168F
330
117D
100
AcDbEntity
  8
OBJECT
100
AcDbText
 10
841.7993156527312
 20
176.9245319900064
 30
0.0
 40
1.25
  1

100
AcDbText
  0
CIRCLE
  5
1690
330
117D
100
AcDbEntity
  8
OBJECT
100
AcDbCircle
 10
71.08778973111248
 20
126.8269835608665
 30
0.0
 40
0.1405
  0
CIRCLE
  5
1691
330
117D
100
AcDbEntity
  8
OBJECT
100
AcDbCircle
 10
71.08778973111248
 20
124.0769835608664
 30
0.0
 40
0.1405
  0
CIRCLE
  5
1692
330
117D
100
AcDbEntity
  8
OBJECT
100
AcDbCircle
 10
71.58778973111248
 20
126.8269835608665
 30
0.0
 40
0.1405
  0
CIRCLE
  5
1693
330
117D
100
AcDbEntity
  8
OBJECT
100
AcDbCircle
 10
72.21278973111248
 20
126.8269835608665
 30
0.0
 40
0.1405
  0
CIRCLE
  5
1694
330
117D
100
AcDbEntity
  8
OBJECT
100
AcDbCircle
 10
72.83778973111248
 20
126.8269835608665
 30
0.0
 40
0.1405
  0
CIRCLE
  5
1695
330
117D
100
AcDbEntity
  8
OBJECT
100
AcDbCircle
 10
71.58778973111248
 20
124.0769835608664
 30
0.0
 40
0.1405
  0
CIRCLE
  5
1696
330
117D
100
AcDbEntity
  8
OBJECT
100
AcDbCircle
 10
72.21278973111248
 20
124.0769835608664
 30
0.0
 40
0.1405
  0
CIRCLE
  5
1697
330
117D
100
AcDbEntity
  8
OBJECT
100
AcDbCircle
 10
72.83778973111248
 20
124.0769835608664
 30
0.0
 40
0.1405
  0
CIRCLE
  5
1698
330
117D
100
AcDbEntity
  8
OBJECT
100
AcDbCircle
 10
73.33778973111249
 20
126.8269835608665
 30
0.0
 40
0.1405
  0
CIRCLE
  5
1699
330
117D
100
AcDbEntity
  8
OBJECT
100
AcDbCircle
 10
73.96278973111249
 20
126.8269835608665
 30
0.0
 40
0.1405
  0
CIRCLE
  5
169A
330
117D
100
AcDbEntity
  8
OBJECT
100
AcDbCircle
 10
74.58778973111249
 20
126.8269835608665
 30
0.0
 40
0.1405
  0
CIRCLE
  5
169B
330
117D
100
AcDbEntity
  8
OBJECT
100
AcDbCircle
 10
73.33778973111249
 20
124.0769835608664
 30
0.0
 40
0.1405
  0
CIRCLE
  5
169C
330
117D
100
AcDbEntity
  8
OBJECT
100
AcDbCircle
 10
73.96278973111249
 20
124.0769835608664
 30
0.0
 40
0.1405
  0
CIRCLE
  5
169D
330
117D
100
AcDbEntity
  8
OBJECT
100
AcDbCircle
 10
74.58778973111249
 20
124.0769835608664
 30
0.0
 40
0.1405
  0
CIRCLE
  5
169E
330
117D
100
AcDbEntity
  8
OBJECT
100
AcDbCircle
 10
75.08778973111252
 20
126.8269835608665
 30
0.0
 40
0.1405
  0
CIRCLE
  5
169F
330
117D
100
AcDbEntity
  8
OBJECT
100
AcDbCircle
 10
75.71278973111252
 20
126.8269835608665
 30
0.0
 40
0.1405
  0
CIRCLE
  5
16A0
330
117D
100
AcDbEntity
  8
OBJECT
100
AcDbCircle
 10
76.33778973111252
 20
126.8269835608665
 30
0.0
 40
0.1405
  0
CIRCLE
  5
16A1
330
117D
100
AcDbEntity
  8
OBJECT
100
AcDbCircle
 10
75.08778973111252
 20
124.0769835608664
 30
0.0
 40
0.1405
  0
CIRCLE
  5
16A2
330
117D
100
AcDbEntity
  8
OBJECT
100
AcDbCircle
 10
75.71278973111252
 20
124.0769835608664
 30
0.0
 40
0.1405
  0
CIRCLE
  5
16A3
330
117D
100
AcDbEntity
  8
OBJECT
100
AcDbCircle
 10
76.33778973111252
 20
124.0769835608664
 30
0.0
 40
0.1405
  0
CIRCLE
  5
16A4
330
117D
100
AcDbEntity
  8
OBJECT
100
AcDbCircle
 10
76.83778973111238
 20
126.8269835608665
 30
0.0
 40
0.1405
  0
CIRCLE
  5
16A5
330
117D
100
AcDbEntity
  8
OBJECT
100
AcDbCircle
 10
77.46278973111238
 20
126.8269835608665
 30
0.0
 40
0.1405
  0
CIRCLE
  5
16A6
330
117D
100
AcDbEntity
  8
OBJECT
100
AcDbCircle
 10
78.08778973111238
 20
126.8269835608665
 30
0.0
 40
0.1405
  0
CIRCLE
  5
16A7
330
117D
100
AcDbEntity
  8
OBJECT
100
AcDbCircle
 10
76.83778973111238
 20
124.0769835608664
 30
0.0
 40
0.1405
  0
CIRCLE
  5
16A8
330
117D
100
AcDbEntity
  8
OBJECT
100
AcDbCircle
 10
77.46278973111238
 20
124.0769835608664
 30
0.0
 40
0.1405
  0
CIRCLE
  5
16A9
330
117D
100
AcDbEntity
  8
OBJECT
100
AcDbCircle
 10
78.08778973111238
 20
124.0769835608664
 30
0.0
 40
0.1405
  0
CIRCLE
  5
16AA
330
117D
100
AcDbEntity
  8
OBJECT
100
AcDbCircle
 10
78.58778973111238
 20
126.8269835608665
 30
0.0
 40
0.1405
  0
CIRCLE
  5
16AB
330
117D
100
AcDbEntity
  8
OBJECT
100
AcDbCircle
 10
79.21278973111238
 20
126.8269835608665
 30
0.0
 40
0.1405
  0
CIRCLE
  5
16AC
330
117D
100
AcDbEntity
  8
OBJECT
100
AcDbCircle
 10
79.83778973111252
 20
126.8269835608665
 30
0.0
 40
0.1405
  0
CIRCLE
  5
16AD
330
117D
100
AcDbEntity
  8
OBJECT
100
AcDbCircle
 10
78.58778973111238
 20
124.0769835608664
 30
0.0
 40
0.1405
  0
CIRCLE
  5
16AE
330
117D
100
AcDbEntity
  8
OBJECT
100
AcDbCircle
 10
79.21278973111238
 20
124.0769835608664
 30
0.0
 40
0.1405
  0
CIRCLE
  5
16AF
330
117D
100
AcDbEntity
  8
OBJECT
100
AcDbCircle
 10
79.83778973111252
 20
124.0769835608664
 30
0.0
 40
0.1405
  0
TEXT
  5
16B0
330
117D
100
AcDbEntity
  8
DIM
100
AcDbText
 10
839.8800722548447
 20
130.3216327238477
 30
0.0
 40
1.25
  1

100
AcDbText
  0
TEXT
  5
16B1
330
117D
100
AcDbEntity
  8
DIM
100
AcDbText
 10
840.9425722548444
 20
126.2278742630337
 30
0.0
 40
1.0
  1

100
AcDbText
  0
TEXT
  5
16B2
330
117D
100
AcDbEntity
  8
OBJECT
100
AcDbText
 10
841.7993156527312
 20
176.9245319900064
 30
0.0
 40
1.25
  1

100
AcDbText
  0
CIRCLE
  5
16B3
330
117D
100
AcDbEntity
  8
OBJECT
100
AcDbCircle
 10
81.58778973111251
 20
126.8269835608665
 30
0.0
 40
0.1405
  0
CIRCLE
  5
16B4
330
117D
100
AcDbEntity
  8
OBJECT
100
AcDbCircle
 10
81.58778973111251
 20
124.0769835608664
 30
0.0
 40
0.1405
  0
CIRCLE
  5
16B5
330
117D
100
AcDbEntity
  8
OBJECT
100
AcDbCircle
 10
80.96278973111251
 20
124.0769835608664
 30
0.0
 40
0.1405
  0
CIRCLE
  5
16B6
330
117D
100
AcDbEntity
  8
OBJECT
100
AcDbCircle
 10
80.33778973111251
 20
124.0769835608664
 30
0.0
 40
0.1405
  0
CIRCLE
  5
16B7
330
117D
100
AcDbEntity
  8
OBJECT
100
AcDbCircle
 10
80.96278973111251
 20
126.8269835608665
 30
0.0
 40
0.1405
  0
CIRCLE
  5
16B8
330
117D
100
AcDbEntity
  8
OBJECT
100
AcDbCircle
 10
80.33778973111251
 20
126.8269835608665
 30
0.0
 40
0.1405
  0
CIRCLE
  5
16B9
330
117D
100
AcDbEntity
  8
OBJECT
100
AcDbCircle
 10
82.08778973111249
 20
124.0769835608664
 30
0.0
 40
0.1405
  0
CIRCLE
  5
16BA
330
117D
100
AcDbEntity
  8
OBJECT
100
AcDbCircle
 10
82.08778973111249
 20
126.8269835608665
 30
0.0
 40
0.1405
  0
CIRCLE
  5
16BB
330
117D
100
AcDbEntity
  8
OBJECT
100
AcDbCircle
 10
64.1975397311125
 20
124.4679835608664
 30
0.0
 40
0.1405
  0
CIRCLE
  5
16BC
330
117D
100
AcDbEntity
  8
OBJECT
100
AcDbCircle
 10
64.1975397311125
 20
125.1549835608664
 30
0.0
 40
0.1405
  0
CIRCLE
  5
16BD
330
117D
100
AcDbEntity
  8
OBJECT
100
AcDbCircle
 10
64.1975397311125
 20
126.8429835608664
 30
0.0
 40
0.1405
  0
CIRCLE
  5
16BE
330
117D
100
AcDbEntity
  8
OBJECT
100
AcDbCircle
 10
64.1975397311125
 20
127.5299835608664
 30
0.0
 40
0.1405
  0
ARC
  5
16BF
330
117D
100
AcDbEntity
  8
OBJECT
100
AcDbCircle
 10
64.1975397311125
 20
181.4979835608664
 30
0.0
 40
0.1405
100
AcDbArc
 50
198.3848616853954
 51
31.41585619837533
  0
CIRCLE
  5
16C0
330
117D
100
AcDbEntity
  8
OBJECT
100
AcDbCircle
 10
64.1975397311125
 20
179.1229835608664
 30
0.0
 40
0.1405
  0
CIRCLE
  5
16C1
330
117D
100
AcDbEntity
  8
OBJECT
100
AcDbCircle
 10
64.1975397311125
 20
180.8109835608664
 30
0.0
 40
0.1405
  0
CIRCLE
  5
16C2
330
117D
100
AcDbEntity
  8
OBJECT
100
AcDbCircle
 10
64.1975397311125
 20
178.4359835608663
 30
0.0
 40
0.1405
  0
CIRCLE
  5
16C3
330
117D
100
AcDbEntity
  8
OBJECT
100
AcDbCircle
 10
88.97753973111246
 20
124.4679835608664
 30
0.0
 40
0.1405
  0
CIRCLE
  5
16C4
330
117D
100
AcDbEntity
  8
OBJECT
100
AcDbCircle
 10
88.97753973111246
 20
126.8429835608664
 30
0.0
 40
0.1405
  0
CIRCLE
  5
16C5
330
117D
100
AcDbEntity
  8
OBJECT
100
AcDbCircle
 10
88.97753973111246
 20
125.1549835608664
 30
0.0
 40
0.1405
  0
CIRCLE
  5
16C6
330
117D
100
AcDbEntity
  8
OBJECT
100
AcDbCircle
 10
88.97753973111246
 20
127.5299835608664
 30
0.0
 40
0.1405
  0
TEXT
  5
16C7
330
117D
100
AcDbEntity
  8
DIM
100
AcDbText
 10
857.8474498511656
 20
315.2460093384754
 30
0.0
 40
0.72
  1

100
AcDbText
  0
TEXT
  5
16C8
330
117D
100
AcDbEntity
  8
DIM
100
AcDbText
 10
794.3115731100549
 20
292.3707440119678
 30
0.0
 40
0.72
  1

100
AcDbText
  0
TEXT
  5
16C9
330
117D
100
AcDbEntity
  8
DIM
100
AcDbText
 10
945.2238940714961
 20
243.2490059672666
 30
0.0
 40
0.72
  1

100
AcDbText
  0
TEXT
  5
16CA
330
117D
100
AcDbEntity
  8
DIM
100
AcDbText
 10
881.6880173303855
 20
220.3737406407591
 30
0.0
 40
0.72
  1

100
AcDbText
  0
TEXT
  5
16CB
330
117D
100
AcDbEntity
  8
DIM
100
AcDbText
 10
847.8772499991656
 20
328.8609719745659
 30
0.0
 40
0.72
  1

100
AcDbText
  0
TEXT
  5
16CC
330
117D
100
AcDbEntity
  8
DIM
100
AcDbText
 10
784.3413732580548
 20
305.9857066480582
 30
0.0
 40
0.72
  1

100
AcDbText
  0
TEXT
  5
16CD
330
117D
100
AcDbEntity
  8
DIM
100
AcDbText
 10
784.3413732580548
 20
345.9857066480582
 30
0.0
 40
0.72
  1

100
AcDbText
  0
TEXT
  5
16CE
330
117D
100
AcDbEntity
  8
DIM
100
AcDbText
 10
845.8413732580547
 20
345.9857066480582
 30
0.0
 40
0.72
  1

100
AcDbText
  0
CIRCLE
  5
16CF
330
117D
100
AcDbEntity
  8
OBJECT
100
AcDbCircle
 10
66.33753973111248
 20
152.9829835608665
 30
0.0
 40
0.1405
  0
LINE
  5
16D0
330
117D
100
AcDbEntity
  8
OBJECT
100
AcDbLine
 10
66.02553973111253
 20
153.9829835608665
 30
0.0
 11
66.02553973111253
 21
151.9829835608665
 31
0.0
  0
LINE
  5
16D1
330
117D
100
AcDbEntity
  8
OBJECT
100
AcDbLine
 10
66.64953973111249
 20
153.9829835608665
 30
0.0
 11
66.64953973111249
 21
151.9829835608665
 31
0.0
  0
LINE
  5
16D2
330
117D
100
AcDbEntity
  8
OBJECT
100
AcDbLine
 10
64.61878973111248
 20
151.2329835608665
 30
0.0
 11
64.61878973111248
 21
154.7329835608664
 31
0.0
  0
CIRCLE
  5
16D3
330
117D
100
AcDbEntity
  8
OBJECT
100
AcDbCircle
 10
65.83778973111248
 20
151.6079835608665
 30
0.0
 40
0.1405
  0
CIRCLE
  5
16D4
330
117D
100
AcDbEntity
  8
OBJECT
100
AcDbCircle
 10
65.21278973111248
 20
151.6079835608665
 30
0.0
 40
0.1405
  0
LINE
  5
16D5
330
117D
100
AcDbEntity
  8
OBJECT
100
AcDbLine
 10
66.64953973111249
 20
152.6079835608665
 30
0.0
 11
66.02553973111253
 21
152.6079835608665
 31
0.0
  0
CIRCLE
  5
16D6
330
117D
100
AcDbEntity
  8
OBJECT
100
AcDbCircle
 10
66.33778973111247
 20
151.6079835608665
 30
0.0
 40
0.1405
  0
CIRCLE
  5
16D7
330
117D
100
AcDbEntity
  8
OBJECT
100
AcDbCircle
 10
66.96278973111247
 20
151.6079835608665
 30
0.0
 40
0.1405
  0
CIRCLE
  5
16D8
330
117D
100
AcDbEntity
  8
OBJECT
100
AcDbCircle
 10
72.21278973111248
 20
151.6079835608665
 30
0.0
 40
0.1405
  0
CIRCLE
  5
16D9
330
117D
100
AcDbEntity
  8
OBJECT
100
AcDbCircle
 10
71.58778973111248
 20
151.6079835608665
 30
0.0
 40
0.1405
  0
CIRCLE
  5
16DA
330
117D
100
AcDbEntity
  8
OBJECT
100
AcDbCircle
 10
71.08778973111248
 20
151.6079835608665
 30
0.0
 40
0.1405
  0
CIRCLE
  5
16DB
330
117D
100
AcDbEntity
  8
OBJECT
100
AcDbCircle
 10
73.96278973111249
 20
151.6079835608665
 30
0.0
 40
0.1405
  0
CIRCLE
  5
16DC
330
117D
100
AcDbEntity
  8
OBJECT
100
AcDbCircle
 10
73.33778973111249
 20
151.6079835608665
 30
0.0
 40
0.1405
  0
CIRCLE
  5
16DD
330
117D
100
AcDbEntity
  8
OBJECT
100
AcDbCircle
 10
72.83778973111248
 20
151.6079835608665
 30
0.0
 40
0.1405
  0
CIRCLE
  5
16DE
330
117D
100
AcDbEntity
  8
OBJECT
100
AcDbCircle
 10
77.46278973111238
 20
151.6079835608665
 30
0.0
 40
0.1405
  0
CIRCLE
  5
16DF
330
117D
100
AcDbEntity
  8
OBJECT
100
AcDbCircle
 10
75.71278973111252
 20
151.6079835608665
 30
0.0
 40
0.1405
  0
CIRCLE
  5
16E0
330
117D
100
AcDbEntity
  8
OBJECT
100
AcDbCircle
 10
75.08778973111252
 20
151.6079835608665
 30
0.0
 40
0.1405
  0
CIRCLE
  5
16E1
330
117D
100
AcDbEntity
  8
OBJECT
100
AcDbCircle
 10
74.58778973111249
 20
151.6079835608665
 30
0.0
 40
0.1405
  0
CIRCLE
  5
16E2
330
117D
100
AcDbEntity
  8
OBJECT
100
AcDbCircle
 10
76.83778973111238
 20
151.6079835608665
 30
0.0
 40
0.1405
  0
CIRCLE
  5
16E3
330
117D
100
AcDbEntity
  8
OBJECT
100
AcDbCircle
 10
76.33778973111252
 20
151.6079835608665
 30
0.0
 40
0.1405
  0
CIRCLE
  5
16E4
330
117D
100
AcDbEntity
  8
OBJECT
100
AcDbCircle
 10
78.58778973111238
 20
151.6079835608665
 30
0.0
 40
0.1405
  0
CIRCLE
  5
16E5
330
117D
100
AcDbEntity
  8
OBJECT
100
AcDbCircle
 10
78.08778973111238
 20
151.6079835608665
 30
0.0
 40
0.1405
  0
CIRCLE
  5
16E6
330
117D
100
AcDbEntity
  8
OBJECT
100
AcDbCircle
 10
80.33778973111237
 20
151.6079835608665
 30
0.0
 40
0.1405
  0
CIRCLE
  5
16E7
330
117D
100
AcDbEntity
  8
OBJECT
100
AcDbCircle
 10
79.83778973111238
 20
151.6079835608665
 30
0.0
 40
0.1405
  0
CIRCLE
  5
16E8
330
117D
100
AcDbEntity
  8
OBJECT
100
AcDbCircle
 10
79.21278973111238
 20
151.6079835608665
 30
0.0
 40
0.1405
  0
CIRCLE
  5
16E9
330
117D
100
AcDbEntity
  8
OBJECT
100
AcDbCircle
 10
65.83778973111248
 20
154.3579835608665
 30
0.0
 40
0.1405
  0
CIRCLE
  5
16EA
330
117D
100
AcDbEntity
  8
OBJECT
100
AcDbCircle
 10
65.21278973111248
 20
154.3579835608665
 30
0.0
 40
0.1405
  0
LINE
  5
16EB
330
117D
100
AcDbEntity
  8
OBJECT
100
AcDbLine
 10
66.64953973111249
 20
153.3579835608664
 30
0.0
 11
66.02553973111253
 21
153.3579835608664
 31
0.0
  0
CIRCLE
  5
16EC
330
117D
100
AcDbEntity
  8
OBJECT
100
AcDbCircle
 10
66.96278973111247
 20
154.3579835608665
 30
0.0
 40
0.1405
  0
CIRCLE
  5
16ED
330
117D
100
AcDbEntity
  8
OBJECT
100
AcDbCircle
 10
66.33778973111247
 20
154.3579835608665
 30
0.0
 40
0.1405
  0
CIRCLE
  5
16EE
330
117D
100
AcDbEntity
  8
OBJECT
100
AcDbCircle
 10
72.21278973111248
 20
154.3579835608665
 30
0.0
 40
0.1405
  0
CIRCLE
  5
16EF
330
117D
100
AcDbEntity
  8
OBJECT
100
AcDbCircle
 10
71.58778973111248
 20
154.3579835608665
 30
0.0
 40
0.1405
  0
CIRCLE
  5
16F0
330
117D
100
AcDbEntity
  8
OBJECT
100
AcDbCircle
 10
71.08778973111248
 20
154.3579835608665
 30
0.0
 40
0.1405
  0
CIRCLE
  5
16F1
330
117D
100
AcDbEntity
  8
OBJECT
100
AcDbCircle
 10
73.96278973111249
 20
154.3579835608665
 30
0.0
 40
0.1405
  0
CIRCLE
  5
16F2
330
117D
100
AcDbEntity
  8
OBJECT
100
AcDbCircle
 10
73.33778973111249
 20
154.3579835608665
 30
0.0
 40
0.1405
  0
CIRCLE
  5
16F3
330
117D
100
AcDbEntity
  8
OBJECT
100
AcDbCircle
 10
72.83778973111248
 20
154.3579835608665
 30
0.0
 40
0.1405
  0
CIRCLE
  5
16F4
330
117D
100
AcDbEntity
  8
OBJECT
100
AcDbCircle
 10
77.46278973111238
 20
154.3579835608665
 30
0.0
 40
0.1405
  0
CIRCLE
  5
16F5
330
117D
100
AcDbEntity
  8
OBJECT
100
AcDbCircle
 10
75.71278973111252
 20
154.3579835608665
 30
0.0
 40
0.1405
  0
CIRCLE
  5
16F6
330
117D
100
AcDbEntity
  8
OBJECT
100
AcDbCircle
 10
75.08778973111252
 20
154.3579835608665
 30
0.0
 40
0.1405
  0
CIRCLE
  5
16F7
330
117D
100
AcDbEntity
  8
OBJECT
100
AcDbCircle
 10
74.58778973111249
 20
154.3579835608665
 30
0.0
 40
0.1405
  0
CIRCLE
  5
16F8
330
117D
100
AcDbEntity
  8
OBJECT
100
AcDbCircle
 10
76.83778973111238
 20
154.3579835608665
 30
0.0
 40
0.1405
  0
CIRCLE
  5
16F9
330
117D
100
AcDbEntity
  8
OBJECT
100
AcDbCircle
 10
76.33778973111252
 20
154.3579835608665
 30
0.0
 40
0.1405
  0
CIRCLE
  5
16FA
330
117D
100
AcDbEntity
  8
OBJECT
100
AcDbCircle
 10
78.58778973111238
 20
154.3579835608665
 30
0.0
 40
0.1405
  0
CIRCLE
  5
16FB
330
117D
100
AcDbEntity
  8
OBJECT
100
AcDbCircle
 10
78.08778973111238
 20
154.3579835608665
 30
0.0
 40
0.1405
  0
CIRCLE
  5
16FC
330
117D
100
AcDbEntity
  8
OBJECT
100
AcDbCircle
 10
80.33778973111237
 20
154.3579835608665
 30
0.0
 40
0.1405
  0
CIRCLE
  5
16FD
330
117D
100
AcDbEntity
  8
OBJECT
100
AcDbCircle
 10
79.83778973111238
 20
154.3579835608665
 30
0.0
 40
0.1405
  0
CIRCLE
  5
16FE
330
117D
100
AcDbEntity
  8
OBJECT
100
AcDbCircle
 10
79.21278973111238
 20
154.3579835608665
 30
0.0
 40
0.1405
  0
CIRCLE
  5
16FF
330
117D
100
AcDbEntity
  8
OBJECT
100
AcDbCircle
 10
82.08778973111238
 20
151.6079835608665
 30
0.0
 40
0.1405
  0
CIRCLE
  5
1700
330
117D
100
AcDbEntity
  8
OBJECT
100
AcDbCircle
 10
80.96278973111237
 20
151.6079835608665
 30
0.0
 40
0.1405
  0
CIRCLE
  5
1701
330
117D
100
AcDbEntity
  8
OBJECT
100
AcDbCircle
 10
81.58778973111237
 20
151.6079835608665
 30
0.0
 40
0.1405
  0
CIRCLE
  5
1702
330
117D
100
AcDbEntity
  8
OBJECT
100
AcDbCircle
 10
80.96278973111237
 20
154.3579835608665
 30
0.0
 40
0.1405
  0
CIRCLE
  5
1703
330
117D
100
AcDbEntity
  8
OBJECT
100
AcDbCircle
 10
81.58778973111237
 20
154.3579835608665
 30
0.0
 40
0.1405
  0
LINE
  5
1704
330
117D
100
AcDbEntity
  8
OBJECT
100
AcDbLine
 10
65.3055397311125
 20
151.2329835608665
 30
0.0
 11
65.3055397311125
 21
127.2019835608664
 31
0.0
  0
LINE
  5
1705
330
117D
100
AcDbEntity
  8
OBJECT
100
AcDbLine
 10
65.86853973111255
 20
151.2329835608665
 30
0.0
 11
65.86853973111255
 21
127.2019835608664
 31
0.0
  0
CIRCLE
  5
1706
330
117D
100
AcDbEntity
  8
OBJECT
100
AcDbCircle
 10
70.46278973111248
 20
124.0769835608664
 30
0.0
 40
0.1405
  0
CIRCLE
  5
1707
330
117D
100
AcDbEntity
  8
OBJECT
100
AcDbCircle
 10
68.71278973111248
 20
124.0769835608664
 30
0.0
 40
0.1405
  0
CIRCLE
  5
1708
330
117D
100
AcDbEntity
  8
OBJECT
100
AcDbCircle
 10
68.08778973111248
 20
124.0769835608664
 30
0.0
 40
0.1405
  0
CIRCLE
  5
1709
330
117D
100
AcDbEntity
  8
OBJECT
100
AcDbCircle
 10
67.58778973111247
 20
124.0769835608664
 30
0.0
 40
0.1405
  0
CIRCLE
  5
170A
330
117D
100
AcDbEntity
  8
OBJECT
100
AcDbCircle
 10
69.83778973111248
 20
124.0769835608664
 30
0.0
 40
0.1405
  0
CIRCLE
  5
170B
330
117D
100
AcDbEntity
  8
OBJECT
100
AcDbCircle
 10
69.33778973111248
 20
124.0769835608664
 30
0.0
 40
0.1405
  0
CIRCLE
  5
170C
330
117D
100
AcDbEntity
  8
OBJECT
100
AcDbCircle
 10
70.46278973111248
 20
126.8269835608665
 30
0.0
 40
0.1405
  0
CIRCLE
  5
170D
330
117D
100
AcDbEntity
  8
OBJECT
100
AcDbCircle
 10
68.71278973111248
 20
126.8269835608665
 30
0.0
 40
0.1405
  0
CIRCLE
  5
170E
330
117D
100
AcDbEntity
  8
OBJECT
100
AcDbCircle
 10
68.08778973111248
 20
126.8269835608665
 30
0.0
 40
0.1405
  0
CIRCLE
  5
170F
330
117D
100
AcDbEntity
  8
OBJECT
100
AcDbCircle
 10
67.58778973111247
 20
126.8269835608665
 30
0.0
 40
0.1405
  0
CIRCLE
  5
1710
330
117D
100
AcDbEntity
  8
OBJECT
100
AcDbCircle
 10
69.83778973111248
 20
126.8269835608665
 30
0.0
 40
0.1405
  0
CIRCLE
  5
1711
330
117D
100
AcDbEntity
  8
OBJECT
100
AcDbCircle
 10
69.33778973111248
 20
126.8269835608665
 30
0.0
 40
0.1405
  0
CIRCLE
  5
1712
330
117D
100
AcDbEntity
  8
OBJECT
100
AcDbCircle
 10
70.46278973111248
 20
154.3579835608665
 30
0.0
 40
0.1405
  0
CIRCLE
  5
1713
330
117D
100
AcDbEntity
  8
OBJECT
100
AcDbCircle
 10
70.46278973111248
 20
151.6079835608665
 30
0.0
 40
0.1405
  0
CIRCLE
  5
1714
330
117D
100
AcDbEntity
  8
OBJECT
100
AcDbCircle
 10
68.71278973111248
 20
151.6079835608665
 30
0.0
 40
0.1405
  0
CIRCLE
  5
1715
330
117D
100
AcDbEntity
  8
OBJECT
100
AcDbCircle
 10
67.58778973111247
 20
151.6079835608665
 30
0.0
 40
0.1405
  0
CIRCLE
  5
1716
330
117D
100
AcDbEntity
  8
OBJECT
100
AcDbCircle
 10
68.08778973111248
 20
151.6079835608665
 30
0.0
 40
0.1405
  0
CIRCLE
  5
1717
330
117D
100
AcDbEntity
  8
OBJECT
100
AcDbCircle
 10
69.33778973111248
 20
151.6079835608665
 30
0.0
 40
0.1405
  0
CIRCLE
  5
1718
330
117D
100
AcDbEntity
  8
OBJECT
100
AcDbCircle
 10
69.83778973111248
 20
151.6079835608665
 30
0.0
 40
0.1405
  0
CIRCLE
  5
1719
330
117D
100
AcDbEntity
  8
OBJECT
100
AcDbCircle
 10
68.71278973111248
 20
154.3579835608665
 30
0.0
 40
0.1405
  0
CIRCLE
  5
171A
330
117D
100
AcDbEntity
  8
OBJECT
100
AcDbCircle
 10
67.58778973111247
 20
154.3579835608665
 30
0.0
 40
0.1405
  0
CIRCLE
  5
171B
330
117D
100
AcDbEntity
  8
OBJECT
100
AcDbCircle
 10
68.08778973111248
 20
154.3579835608665
 30
0.0
 40
0.1405
  0
CIRCLE
  5
171C
330
117D
100
AcDbEntity
  8
OBJECT
100
AcDbCircle
 10
69.33778973111248
 20
154.3579835608665
 30
0.0
 40
0.1405
  0
CIRCLE
  5
171D
330
117D
100
AcDbEntity
  8
OBJECT
100
AcDbCircle
 10
69.83778973111248
 20
154.3579835608665
 30
0.0
 40
0.1405
  0
CIRCLE
  5
171E
330
117D
100
AcDbEntity
  8
OBJECT
100
AcDbCircle
 10
68.71278973111248
 20
179.1389835608663
 30
0.0
 40
0.1405
  0
CIRCLE
  5
171F
330
117D
100
AcDbEntity
  8
OBJECT
100
AcDbCircle
 10
68.08778973111248
 20
179.1389835608663
 30
0.0
 40
0.1405
  0
CIRCLE
  5
1720
330
117D
100
AcDbEntity
  8
OBJECT
100
AcDbCircle
 10
67.58778973111247
 20
179.1389835608663
 30
0.0
 40
0.1405
  0
CIRCLE
  5
1721
330
117D
100
AcDbEntity
  8
OBJECT
100
AcDbCircle
 10
69.83778973111248
 20
179.1389835608663
 30
0.0
 40
0.1405
  0
CIRCLE
  5
1722
330
117D
100
AcDbEntity
  8
OBJECT
100
AcDbCircle
 10
69.33778973111248
 20
179.1389835608663
 30
0.0
 40
0.1405
  0
ARC
  5
1723
330
117D
100
AcDbEntity
  8
OBJECT
100
AcDbCircle
 10
68.08778973111248
 20
181.8889835608663
 30
0.0
 40
0.1405
100
AcDbArc
 50
136.5649843200886
 51
329.5172969457033
  0
CIRCLE
  5
1724
330
117D
100
AcDbEntity
  8
OBJECT
100
AcDbCircle
 10
67.58778973111247
 20
181.8889835608663
 30
0.0
 40
0.1405
  0
ARC
  5
1725
330
117D
100
AcDbEntity
  8
OBJECT
100
AcDbCircle
 10
82.71228973111252
 20
151.6079835608665
 30
0.0
 40
0.1405
100
AcDbArc
 50
140.9039676302309
 51
261.2553913946376
  0
CIRCLE
  5
1726
330
117D
100
AcDbEntity
  8
OBJECT
100
AcDbCircle
 10
82.71228973111252
 20
126.8269835608665
 30
0.0
 40
0.1405
  0
CIRCLE
  5
1727
330
117D
100
AcDbEntity
  8
OBJECT
100
AcDbCircle
 10
83.33728973111252
 20
126.8269835608665
 30
0.0
 40
0.1405
  0
CIRCLE
  5
1728
330
117D
100
AcDbEntity
  8
OBJECT
100
AcDbCircle
 10
82.71228973111252
 20
124.0769835608664
 30
0.0
 40
0.1405
  0
CIRCLE
  5
1729
330
117D
100
AcDbEntity
  8
OBJECT
100
AcDbCircle
 10
83.33728973111252
 20
124.0769835608664
 30
0.0
 40
0.1405
  0
LWPOLYLINE
  5
172A
330
117D
100
AcDbEntity
  8
OBJECT
100
AcDbPolyline
 90
        4
 70
     1
 43
0.0
 10
65.6182897311125
 20
125.3269835608664
 10
65.68128973111249
 20
125.3269835608664
 42
1.0
 10
65.68128973111249
 20
125.5769835608664
 10
65.6182897311125
 20
125.5769835608664
 42
1.0
  0
LWPOLYLINE
  5
1730
330
117D
100
AcDbEntity
  8
OBJECT
100
AcDbPolyline
 90
        4
 70
     1
 43
0.0
 10
87.55678973111246
 20
125.3269835608664
 10
87.49378973111246
 20
125.3269835608664
 42
-1.0
 10
87.49378973111246
 20
125.5769835608664
 10
87.55678973111246
 20
125.5769835608664
 42
-1.0
  0
LWPOLYLINE
  5
1736
330
117D
100
AcDbEntity
  8
OBJECT
100
AcDbPolyline
 90
        4
 70
     1
 43
0.0
 10
65.6182897311125
 20
152.8579835608664
 10
65.68128973111249
 20
152.8579835608664
 42
1.0
 10
65.68128973111249
 20
153.1079835608664
 10
65.6182897311125
 20
153.1079835608664
 42
1.0
  0
LWPOLYLINE
  5
173C
330
117D
100
AcDbEntity
  8
OBJECT
100
AcDbPolyline
 90
        4
 70
     1
 43
0.0
 10
65.6182897311125
 20
180.3889835608663
 10
65.68128973111249
 20
180.3889835608663
 42
1.0
 10
65.68128973111249
 20
180.6389835608664
 10
65.6182897311125
 20
180.6389835608664
 42
1.0
  0
LINE
  5
1742
330
117D
100
AcDbEntity
  8
OBJECT
100
AcDbLine
 10
68.4464041059206
 20
181.6389835608664
 30
0.0
 11
64.61878973111248
 21
181.6389835608664
 31
0.0
  0
LINE
  5
1743
330
117D
100
AcDbEntity
  8
OBJECT
100
AcDbLine
 10
70.0549148467949
 20
179.3889835608663
 30
0.0
 11
64.61878973111248
 21
179.3889835608663
 31
0.0
  0
LINE
  5
1744
330
117D
100
AcDbEntity
  8
OBJECT
100
AcDbLine
 10
70.50524912624496
 20
178.7639835608664
 30
0.0
 11
64.61878973111248
 21
178.7639835608664
 31
0.0
  0
LINE
  5
1745
330
117D
100
AcDbEntity
  8
OBJECT
100
AcDbLine
 10
81.97557863464995
 20
154.1079835608664
 30
0.0
 11
64.61878973111248
 21
154.1079835608664
 31
0.0
  0
LINE
  5
1746
330
117D
100
AcDbEntity
  8
OBJECT
100
AcDbLine
 10
81.76035037297927
 20
154.7329835608664
 30
0.0
 11
64.61878973111248
 21
154.7329835608664
 31
0.0
  0
LINE
  5
1747
330
117D
100
AcDbEntity
  8
OBJECT
100
AcDbLine
 10
82.54103667956227
 20
151.8579835608665
 30
0.0
 11
64.61878973111248
 21
151.8579835608665
 31
0.0
  0
LINE
  5
1748
330
117D
100
AcDbEntity
  8
OBJECT
100
AcDbLine
 10
82.83611539705376
 20
151.2329835608665
 30
0.0
 11
64.61878973111248
 21
151.2329835608665
 31
0.0
  0
LINE
  5
1749
330
117D
100
AcDbEntity
  8
OBJECT
100
AcDbLine
 10
83.94828973111238
 20
127.2019835608664
 30
0.0
 11
64.61878973111248
 21
127.2019835608664
 31
0.0
  0
LINE
  5
174A
330
117D
100
AcDbEntity
  8
OBJECT
100
AcDbLine
 10
83.94828973111238
 20
126.5769835608665
 30
0.0
 11
64.61878973111248
 21
126.5769835608664
 31
0.0
  0
LINE
  5
174B
330
117D
100
AcDbEntity
  8
OBJECT
100
AcDbLine
 10
83.94828973111238
 20
124.3269835608664
 30
0.0
 11
64.61878973111248
 21
124.3269835608664
 31
0.0
  0
LINE
  5
174C
330
117D
100
AcDbEntity
  8
OBJECT
100
AcDbLine
 10
83.94828973111238
 20
123.7019835608665
 30
0.0
 11
64.61878973111248
 21
123.7019835608665
 31
0.0
  0
DIMENSION
  5
174D
330
117D
100
AcDbEntity
  8
DIM
100
AcDbDimension
  2
*D12
 10
34.85222723463009
 20
116.9119835608664
 30
0.0
 11
30.73428578404286
 21
116.9119835608664
 31
0.0
 70
   160
 71
     5
 42
9.092999999999957
  3
23NSTD
100
AcDbAlignedDimension
 13
25.75922723463013
 23
121.0139835608664
 33
0.0
 14
34.85222723463009
 24
121.0139835608664
 34
0.0
100
AcDbRotatedDimension
  0
DIMENSION
  5
175A
330
117D
100
AcDbEntity
  8
DIM
100
AcDbDimension
  2
*D13
 10
41.30572723463012
 20
112.7269835608665
 30
0.0
 11
38.0789772346301
 21
112.7269835608665
 31
0.0
 70
   160
 71
     5
 42
6.453500000000026
  3
23NSTD
100
AcDbAlignedDimension
 13
34.85222723463009
 23
121.0139835608664
 33
0.0
 14
41.30572723463012
 24
119.7019835608664
 34
0.0
100
AcDbRotatedDimension
  0
DIMENSION
  5
1768
330
117D
100
AcDbEntity
  8
DIM
100
AcDbDimension
  2
*D14
 10
13.90572723463006
 20
119.7019835608664
 30
0.0
 11
7.511977234630041
 21
114.3019835608664
 31
0.0
 70
    32
 71
     5
 42
1.311999999999912
  3
23NSTD
100
AcDbAlignedDimension
 13
25.75922723463013
 23
121.0139835608664
 33
0.0
 14
19.30572723463005
 24
119.7019835608664
 34
0.0
 50
90.0
100
AcDbRotatedDimension
  0
DIMENSION
  5
1776
330
117D
100
AcDbEntity
  8
DIM
100
AcDbDimension
  2
*D15
 10
50.36465191772098
 20
181.8889835608664
 30
0.0
 11
50.36465191772094
 21
152.9829835608664
 31
0.0
 70
    32
  1
F
 71
     5
 42
57.812
  3
23NSTD
100
AcDbAlignedDimension
 13
65.21278973111248
 23
124.0769835608664
 33
0.0
 14
65.21278973111248
 24
181.8889835608663
 34
0.0
 50
90.0
100
AcDbRotatedDimension
  0
CIRCLE
  5
1784
330
117D
100
AcDbEntity
  8
PMR
100
AcDbCircle
 10
84.19828973111238
 20
150.1069835608663
 30
0.0
 40
0.1405
  0
LINE
  5
1785
330
117D
100
AcDbEntity
  8
PMR
100
AcDbLine
 10
86.02628973111237
 20
122.3569835608663
 30
0.0
 11
86.02628973111242
 21
150.0583317472807
 31
0.0
  0
LINE
  5
1786
330
117D
100
AcDbEntity
  8
PMR
100
AcDbLine
 10
83.94828973111238
 20
150.656687408103
 30
0.0
 11
83.94828973111238
 21
122.3569835608663
 31
0.0
  0
LINE
  5
1787
330
117D
100
AcDbEntity
  8
PMR
100
AcDbLine
 10
85.91728973111244
 20
122.3569835608663
 30
0.0
 11
85.91728973111244
 21
150.118408368815
 31
0.0
  0
LINE
  5
1788
330
117D
100
AcDbEntity
  8
PMR
100
AcDbLine
 10
84.63528973111243
 20
150.5429554207513
 30
0.0
 11
84.63528973111243
 21
122.3569835608663
 31
0.0
  0
CIRCLE
  5
1789
330
117D
100
AcDbEntity
  8
PMR
100
AcDbCircle
 10
84.19828973111238
 20
134.8569835608663
 30
0.0
 40
0.1405
  0
CIRCLE
  5
178A
330
117D
100
AcDbEntity
  8
PMR
100
AcDbCircle
 10
84.19828973111238
 20
123.2319835608663
 30
0.0
 40
0.1405
  0
LINE
  5
178B
330
117D
100
AcDbEntity
  8
PMR
100
AcDbLine
 10
83.94828973111238
 20
122.3569835608663
 30
0.0
 11
86.02628973111237
 21
122.3569835608663
 31
0.0
  0
CIRCLE
  5
178C
330
117D
100
AcDbEntity
  8
PMR
100
AcDbCircle
 10
84.19828973111238
 20
122.6069835608663
 30
0.0
 40
0.1405
  0
CIRCLE
  5
178D
330
117D
100
AcDbEntity
  8
PMR
100
AcDbCircle
 10
84.19828973111238
 20
125.6069835608663
 30
0.0
 40
0.1405
  0
CIRCLE
  5
178E
330
117D
100
AcDbEntity
  8
PMR
100
AcDbCircle
 10
84.19828973111238
 20
124.9819835608662
 30
0.0
 40
0.1405
  0
CIRCLE
  5
178F
330
117D
100
AcDbEntity
  8
PMR
100
AcDbCircle
 10
84.19828973111238
 20
126.1069835608662
 30
0.0
 40
0.1405
  0
CIRCLE
  5
1790
330
117D
100
AcDbEntity
  8
PMR
100
AcDbCircle
 10
84.19828973111238
 20
126.7319835608663
 30
0.0
 40
0.1405
  0
CIRCLE
  5
1791
330
117D
100
AcDbEntity
  8
PMR
100
AcDbCircle
 10
84.19828973111238
 20
123.8569835608662
 30
0.0
 40
0.1405
  0
CIRCLE
  5
1792
330
117D
100
AcDbEntity
  8
PMR
100
AcDbCircle
 10
84.19828973111238
 20
124.3569835608663
 30
0.0
 40
0.1405
  0
CIRCLE
  5
1793
330
117D
100
AcDbEntity
  8
PMR
100
AcDbCircle
 10
84.19828973111238
 20
130.8569835608663
 30
0.0
 40
0.1405
  0
CIRCLE
  5
1794
330
117D
100
AcDbEntity
  8
PMR
100
AcDbCircle
 10
84.19828973111238
 20
130.2319835608662
 30
0.0
 40
0.1405
  0
CIRCLE
  5
1795
330
117D
100
AcDbEntity
  8
PMR
100
AcDbCircle
 10
84.19828973111238
 20
129.1069835608662
 30
0.0
 40
0.1405
  0
CIRCLE
  5
1796
330
117D
100
AcDbEntity
  8
PMR
100
AcDbCircle
 10
84.19828973111238
 20
128.4819835608663
 30
0.0
 40
0.1405
  0
CIRCLE
  5
1797
330
117D
100
AcDbEntity
  8
PMR
100
AcDbCircle
 10
84.19828973111238
 20
129.6069835608663
 30
0.0
 40
0.1405
  0
CIRCLE
  5
1798
330
117D
100
AcDbEntity
  8
PMR
100
AcDbCircle
 10
84.19828973111238
 20
127.8569835608662
 30
0.0
 40
0.1405
  0
CIRCLE
  5
1799
330
117D
100
AcDbEntity
  8
PMR
100
AcDbCircle
 10
84.19828973111238
 20
127.3569835608663
 30
0.0
 40
0.1405
  0
CIRCLE
  5
179A
330
117D
100
AcDbEntity
  8
PMR
100
AcDbCircle
 10
84.19828973111238
 20
132.6069835608663
 30
0.0
 40
0.1405
  0
CIRCLE
  5
179B
330
117D
100
AcDbEntity
  8
PMR
100
AcDbCircle
 10
84.19828973111238
 20
133.7319835608663
 30
0.0
 40
0.1405
  0
CIRCLE
  5
179C
330
117D
100
AcDbEntity
  8
PMR
100
AcDbCircle
 10
84.19828973111238
 20
133.1069835608662
 30
0.0
 40
0.1405
  0
CIRCLE
  5
179D
330
117D
100
AcDbEntity
  8
PMR
100
AcDbCircle
 10
84.19828973111238
 20
134.3569835608662
 30
0.0
 40
0.1405
  0
CIRCLE
  5
179E
330
117D
100
AcDbEntity
  8
PMR
100
AcDbCircle
 10
84.19828973111238
 20
131.3569835608662
 30
0.0
 40
0.1405
  0
CIRCLE
  5
179F
330
117D
100
AcDbEntity
  8
PMR
100
AcDbCircle
 10
84.19828973111238
 20
131.9819835608663
 30
0.0
 40
0.1405
  0
CIRCLE
  5
17A0
330
117D
100
AcDbEntity
  8
PMR
100
AcDbCircle
 10
84.19828973111238
 20
142.4819835608663
 30
0.0
 40
0.1405
  0
CIRCLE
  5
17A1
330
117D
100
AcDbEntity
  8
PMR
100
AcDbCircle
 10
84.19828973111238
 20
137.8569835608663
 30
0.0
 40
0.1405
  0
CIRCLE
  5
17A2
330
117D
100
AcDbEntity
  8
PMR
100
AcDbCircle
 10
84.19828973111238
 20
136.1069835608663
 30
0.0
 40
0.1405
  0
CIRCLE
  5
17A3
330
117D
100
AcDbEntity
  8
PMR
100
AcDbCircle
 10
84.19828973111238
 20
137.2319835608662
 30
0.0
 40
0.1405
  0
CIRCLE
  5
17A4
330
117D
100
AcDbEntity
  8
PMR
100
AcDbCircle
 10
84.19828973111238
 20
136.6069835608662
 30
0.0
 40
0.1405
  0
CIRCLE
  5
17A5
330
117D
100
AcDbEntity
  8
PMR
100
AcDbCircle
 10
84.19828973111238
 20
138.3569835608662
 30
0.0
 40
0.1405
  0
CIRCLE
  5
17A6
330
117D
100
AcDbEntity
  8
PMR
100
AcDbCircle
 10
84.19828973111238
 20
135.4819835608662
 30
0.0
 40
0.1405
  0
CIRCLE
  5
17A7
330
117D
100
AcDbEntity
  8
PMR
100
AcDbCircle
 10
84.19828973111238
 20
139.6069835608662
 30
0.0
 40
0.1405
  0
CIRCLE
  5
17A8
330
117D
100
AcDbEntity
  8
PMR
100
AcDbCircle
 10
84.19828973111238
 20
141.3569835608663
 30
0.0
 40
0.1405
  0
CIRCLE
  5
17A9
330
117D
100
AcDbEntity
  8
PMR
100
AcDbCircle
 10
84.19828973111238
 20
140.7319835608662
 30
0.0
 40
0.1405
  0
CIRCLE
  5
17AA
330
117D
100
AcDbEntity
  8
PMR
100
AcDbCircle
 10
84.19828973111238
 20
140.1069835608663
 30
0.0
 40
0.1405
  0
CIRCLE
  5
17AB
330
117D
100
AcDbEntity
  8
PMR
100
AcDbCircle
 10
84.19828973111238
 20
141.8569835608663
 30
0.0
 40
0.1405
  0
CIRCLE
  5
17AC
330
117D
100
AcDbEntity
  8
PMR
100
AcDbCircle
 10
84.19828973111238
 20
138.9819835608663
 30
0.0
 40
0.1405
  0
CIRCLE
  5
17AD
330
117D
100
AcDbEntity
  8
PMR
100
AcDbCircle
 10
84.19828973111238
 20
145.3569835608663
 30
0.0
 40
0.1405
  0
CIRCLE
  5
17AE
330
117D
100
AcDbEntity
  8
PMR
100
AcDbCircle
 10
84.19828973111238
 20
144.8569835608663
 30
0.0
 40
0.1405
  0
CIRCLE
  5
17AF
330
117D
100
AcDbEntity
  8
PMR
100
AcDbCircle
 10
84.19828973111238
 20
144.2319835608663
 30
0.0
 40
0.1405
  0
CIRCLE
  5
17B0
330
117D
100
AcDbEntity
  8
PMR
100
AcDbCircle
 10
84.19828973111238
 20
143.6069835608663
 30
0.0
 40
0.1405
  0
CIRCLE
  5
17B1
330
117D
100
AcDbEntity
  8
PMR
100
AcDbCircle
 10
84.19828973111238
 20
145.9819835608663
 30
0.0
 40
0.1405
  0
CIRCLE
  5
17B2
330
117D
100
AcDbEntity
  8
PMR
100
AcDbCircle
 10
84.19828973111238
 20
143.1069835608663
 30
0.0
 40
0.1405
  0
CIRCLE
  5
17B3
330
117D
100
AcDbEntity
  8
PMR
100
AcDbCircle
 10
84.19828973111238
 20
148.8569835608663
 30
0.0
 40
0.1405
  0
CIRCLE
  5
17B4
330
117D
100
AcDbEntity
  8
PMR
100
AcDbCircle
 10
84.19828973111238
 20
148.3569835608663
 30
0.0
 40
0.1405
  0
CIRCLE
  5
17B5
330
117D
100
AcDbEntity
  8
PMR
100
AcDbCircle
 10
84.19828973111238
 20
147.7319835608663
 30
0.0
 40
0.1405
  0
CIRCLE
  5
17B6
330
117D
100
AcDbEntity
  8
PMR
100
AcDbCircle
 10
84.19828973111238
 20
149.4819835608663
 30
0.0
 40
0.1405
  0
CIRCLE
  5
17B7
330
117D
100
AcDbEntity
  8
PMR
100
AcDbCircle
 10
84.19828973111238
 20
146.6069835608663
 30
0.0
 40
0.1405
  0
CIRCLE
  5
17B8
330
117D
100
AcDbEntity
  8
PMR
100
AcDbCircle
 10
84.19828973111238
 20
147.1069835608663
 30
0.0
 40
0.1405
  0
LWPOLYLINE
  5
17B9
330
117D
100
AcDbEntity
  8
PMR
100
AcDbPolyline
 90
        4
 70
     1
 43
0.0
 10
84.96278973111238
 20
138.4159835608662
 10
85.58778973111238
 20
138.4159835608662
 42
1.0
 10
85.58778973111238
 20
138.6659835608662
 10
84.96278973111238
 20
138.6659835608662
 42
1.0
  0
LWPOLYLINE
  5
17BF
330
117D
100
AcDbEntity
  8
PMR
100
AcDbPolyline
 90
        4
 70
     1
 43
0.0
 10
85.58778973111238
 20
135.9159835608662
 10
84.96278973111238
 20
135.9159835608662
 42
1.0
 10
84.96278973111238
 20
135.6659835608662
 10
85.58778973111238
 20
135.6659835608662
 42
1.0
  0
LWPOLYLINE
  5
17C5
330
117D
100
AcDbEntity
  8
PMR
100
AcDbPolyline
 90
        4
 70
     1
 43
0.0
 10
85.58778973111238
 20
126.9499835608663
 10
84.96278973111238
 20
126.9499835608663
 42
0.9999999999999992
 10
84.96278973111238
 20
126.6999835608664
 10
85.58778973111238
 20
126.6999835608664
 42
1.0
  0
LWPOLYLINE
  5
17CB
330
117D
100
AcDbEntity
  8
PMR
100
AcDbPolyline
 90
        4
 70
     1
 43
0.0
 10
85.58778973111238
 20
125.5749835608664
 10
84.96278973111238
 20
125.5749835608664
 42
0.9999999999999992
 10
84.96278973111238
 20
125.3249835608664
 10
85.58778973111238
 20
125.3249835608664
 42
1.0
  0
LWPOLYLINE
  5
17D1
330
117D
100
AcDbEntity
  8
PMR
100
AcDbPolyline
 90
        4
 70
     1
 43
0.0
 10
85.58778973111238
 20
124.1999835608664
 10
84.96278973111238
 20
124.1999835608664
 42
0.9999999999999992
 10
84.96278973111238
 20
123.9499835608663
 10
85.58778973111238
 20
123.9499835608663
 42
1.0
  0
LWPOLYLINE
  5
17D7
330
117D
100
AcDbEntity
  8
PMR
100
AcDbPolyline
 90
        4
 70
     1
 43
0.0
 10
85.58778973111238
 20
122.8249835608663
 10
84.96278973111238
 20
122.8249835608663
 42
0.9999999999999992
 10
84.96278973111238
 20
122.5749835608664
 10
85.58778973111238
 20
122.5749835608664
 42
1.0
  0
DIMENSION
  5
17DD
330
117D
100
AcDbEntity
  8
DIM
100
AcDbDimension
  2
*D16
 10
89.33753973111246
 20
190.3589835608664
 30
0.0
 11
76.58753973111249
 21
190.3589835608664
 31
0.0
 70
    32
  1
C
 71
     5
 42
25.49999999999995
  3
23NSTD
100
AcDbAlignedDimension
 13
63.8375397311125
 23
186.2639835608663
 33
0.0
 14
89.33753973111246
 24
186.2639835608663
 34
0.0
100
AcDbRotatedDimension
  0
LINE
  5
17EB
330
117D
100
AcDbEntity
  8
OBJECT
100
AcDbLine
 10
87.30653973111236
 20
154.7329835608664
 30
0.0
 11
81.76035037297927
 21
154.7329835608664
 31
0.0
  0
LINE
  5
17EC
330
117D
100
AcDbEntity
  8
OBJECT
100
AcDbLine
 10
87.30653973111236
 20
151.2329835608665
 30
0.0
 11
82.83611539705376
 21
151.2329835608665
 31
0.0
  0
LINE
  5
17ED
330
117D
100
AcDbEntity
  8
OBJECT
100
AcDbLine
 10
87.30653973111236
 20
178.7639835608664
 30
0.0
 11
70.50524912624493
 21
178.7639835608664
 31
0.0
  0
LINE
  5
17EE
330
117D
100
AcDbEntity
  8
OBJECT
100
AcDbLine
 10
87.30653973111236
 20
182.2639835608663
 30
0.0
 11
65.86853973111255
 21
182.2639835608663
 31
0.0
  0
LINE
  5
17EF
330
117D
100
AcDbEntity
  8
OBJECT
100
AcDbLine
 10
87.30653973111236
 20
183.6389835608663
 30
0.0
 11
87.30653973111236
 21
149.0105298115761
 31
0.0
  0
LINE
  5
17F0
330
117D
100
AcDbEntity
  8
PMR
100
AcDbLine
 10
86.02628973111237
 20
183.6089835608664
 30
0.0
 11
86.02628973111237
 21
182.2639835608663
 31
0.0
  0
LINE
  5
17F1
330
117D
100
AcDbEntity
  8
PMR
100
AcDbLine
 10
84.52628973111249
 20
150.562974514248
 30
0.0
 11
84.52628973111249
 21
151.2329835608665
 31
0.0
  0
LINE
  5
17F2
330
117D
100
AcDbEntity
  8
PMR
100
AcDbLine
 10
83.94828973111245
 20
150.656687408103
 30
0.0
 11
83.94828973111245
 21
151.2329835608664
 31
0.0
  0
LINE
  5
17F3
330
117D
100
AcDbEntity
  8
PMR
100
AcDbLine
 10
86.02628973111242
 20
151.2329835608665
 30
0.0
 11
86.02628973111242
 21
150.0583317472807
 31
0.0
  0
LINE
  5
17F4
330
117D
100
AcDbEntity
  8
PMR
100
AcDbLine
 10
83.94828973111245
 20
154.7329835608664
 30
0.0
 11
83.94828973111238
 21
178.7639835608664
 31
0.0
  0
LINE
  5
17F5
330
117D
100
AcDbEntity
  8
PMR
100
AcDbLine
 10
84.52628973111249
 20
154.7329835608664
 30
0.0
 11
84.52628973111249
 21
178.7639835608664
 31
0.0
  0
LINE
  5
17F6
330
117D
100
AcDbEntity
  8
PMR
100
AcDbLine
 10
86.02628973111237
 20
178.7639835608664
 30
0.0
 11
86.02628973111242
 21
154.7329835608664
 31
0.0
  0
LINE
  5
17F7
330
117D
100
AcDbEntity
  8
PMR
100
AcDbLine
 10
84.52628973111243
 20
182.2639835608663
 30
0.0
 11
84.52628973111249
 21
183.6089835608664
 31
0.0
  0
LINE
  5
17F8
330
117D
100
AcDbEntity
  8
PMR
100
AcDbLine
 10
83.94828973111238
 20
182.2639835608663
 30
0.0
 11
83.94828973111238
 21
183.6089835608664
 31
0.0
  0
LINE
  5
17F9
330
117D
100
AcDbEntity
  8
PMR
100
AcDbLine
 10
83.94828973111238
 20
183.6089835608664
 30
0.0
 11
86.02628973111237
 21
183.6089835608664
 31
0.0
  0
LWPOLYLINE
  5
17FA
330
117D
100
AcDbEntity
  8
OBJECT
100
AcDbPolyline
 90
        9
 70
     0
 43
0.0
 10
63.8375397311125
 20
181.3484510994881
 10
65.383961685817
 20
182.0662880467759
 10
66.81013461995246
 20
182.3134169467671
 10
67.8727940791034
 20
182.0705843137714
 10
68.6648766159451
 20
181.4745985337447
 10
69.27931878315274
 20
180.662267992642
 10
69.80905713340161
 20
179.7704010764194
 10
70.34702821936689
 20
178.9358061710319
 10
70.5052491262449
 20
178.7639835608664
  0
LWPOLYLINE
  5
1805
330
117D
100
AcDbEntity
  8
OBJECT
100
AcDbPolyline
 90
        8
 70
     0
 43
0.0
 10
81.7603503729793
 20
154.7329835608664
 10
81.89282551419578
 20
154.3942725500525
 10
82.08593802021635
 20
153.7261891733242
 10
82.24029159863713
 20
153.0693592443393
 10
82.37963198661061
 20
152.4495603650703
 10
82.52770492128901
 20
151.8925701374906
 10
82.70825613982472
 20
151.4241661635733
 10
82.83611539705379
 20
151.2329835608665
  0
LWPOLYLINE
  5
180F
330
117D
100
AcDbEntity
  8
PMR
100
AcDbPolyline
 90
        6
 70
     0
 43
0.0
 10
83.94828973111238
 20
150.656687408103
 10
84.08553404238274
 20
150.6315326207526
 10
84.58647353495072
 20
150.5536131203081
 10
85.13381057588629
 20
150.4341168424878
 10
85.71915211274076
 20
150.2276142285452
 10
86.02628973111242
 20
150.0583317472806
  0
LWPOLYLINE
  5
1817
330
117D
100
AcDbEntity
  8
OBJECT
100
AcDbPolyline
 90
        4
 70
     0
 43
0.0
 10
87.3065397311125
 20
149.0105298115761
 10
87.6365685206137
 20
148.6558873134027
 10
88.41106494062998
 20
147.8158654836572
 10
89.33753973111251
 20
146.996692177346
  0
LINE
  5
181D
330
117D
100
AcDbEntity
  8
OBJECT
100
AcDbLine
 10
86.52553973111242
 20
153.9829835608665
 30
0.0
 11
86.52553973111242
 21
151.9829835608665
 31
0.0
  0
LINE
  5
181E
330
117D
100
AcDbEntity
  8
OBJECT
100
AcDbLine
 10
87.14953973111237
 20
153.9829835608665
 30
0.0
 11
87.14953973111237
 21
151.9829835608665
 31
0.0
  0
LINE
  5
181F
330
117D
100
AcDbEntity
  8
OBJECT
100
AcDbLine
 10
86.52553973111242
 20
152.6079835608665
 30
0.0
 11
87.14953973111237
 21
152.6079835608665
 31
0.0
  0
LINE
  5
1820
330
117D
100
AcDbEntity
  8
OBJECT
100
AcDbLine
 10
86.52553973111242
 20
153.3579835608664
 30
0.0
 11
87.14953973111237
 21
153.3579835608664
 31
0.0
  0
LWPOLYLINE
  5
1821
330
117D
100
AcDbEntity
  8
OBJECT
100
AcDbPolyline
 90
        4
 70
     1
 43
0.0
 10
87.55678973111242
 20
152.8579835608664
 10
87.49378973111245
 20
152.8579835608664
 42
-1.0
 10
87.49378973111245
 20
153.1079835608664
 10
87.55678973111242
 20
153.1079835608664
 42
-1.0
  0
CIRCLE
  5
1827
330
117D
100
AcDbEntity
  8
OBJECT
100
AcDbCircle
 10
86.83753973111242
 20
152.9829835608665
 30
0.0
 40
0.1405
  0
LINE
  5
1828
330
117D
100
AcDbEntity
  8
OBJECT
100
AcDbLine
 10
65.86853973111255
 20
178.7639835608664
 30
0.0
 11
65.86853973111255
 21
154.7329835608664
 31
0.0
  0
LINE
  5
1829
330
117D
100
AcDbEntity
  8
OBJECT
100
AcDbLine
 10
86.52553973111242
 20
181.5139835608663
 30
0.0
 11
86.52553973111242
 21
179.5139835608663
 31
0.0
  0
LINE
  5
182A
330
117D
100
AcDbEntity
  8
OBJECT
100
AcDbLine
 10
87.14953973111237
 20
181.5139835608663
 30
0.0
 11
87.14953973111237
 21
179.5139835608663
 31
0.0
  0
LINE
  5
182B
330
117D
100
AcDbEntity
  8
OBJECT
100
AcDbLine
 10
86.52553973111242
 20
180.8889835608663
 30
0.0
 11
87.14953973111237
 21
180.8889835608663
 31
0.0
  0
LINE
  5
182C
330
117D
100
AcDbEntity
  8
OBJECT
100
AcDbLine
 10
86.52553973111242
 20
180.1389835608663
 30
0.0
 11
87.14953973111237
 21
180.1389835608663
 31
0.0
  0
LWPOLYLINE
  5
182D
330
117D
100
AcDbEntity
  8
OBJECT
100
AcDbPolyline
 90
        4
 70
     1
 43
0.0
 10
87.55678973111242
 20
180.3889835608663
 10
87.49378973111245
 20
180.3889835608663
 42
-1.0
 10
87.49378973111245
 20
180.6389835608664
 10
87.55678973111242
 20
180.6389835608664
 42
-1.0
  0
CIRCLE
  5
1833
330
117D
100
AcDbEntity
  8
OBJECT
100
AcDbCircle
 10
86.83753973111242
 20
180.5139835608663
 30
0.0
 40
0.1405
  0
CIRCLE
  5
1834
330
117D
100
AcDbEntity
  8
PMR
100
AcDbCircle
 10
84.19828973111238
 20
165.2339835608666
 30
0.0
 40
0.1405
  0
CIRCLE
  5
1835
330
117D
100
AcDbEntity
  8
PMR
100
AcDbCircle
 10
84.19828973111238
 20
157.6089835608665
 30
0.0
 40
0.1405
  0
ARC
  5
1836
330
117D
100
AcDbEntity
  8
PMR
100
AcDbCircle
 10
84.19828973111238
 20
151.2339835608665
 30
0.0
 40
0.1405
100
AcDbArc
 50
180.407802585588
 51
359.5921974144118
  0
CIRCLE
  5
1837
330
117D
100
AcDbEntity
  8
PMR
100
AcDbCircle
 10
84.19828973111238
 20
150.6089835608665
 30
0.0
 40
0.1405
  0
CIRCLE
  5
1838
330
117D
100
AcDbEntity
  8
PMR
100
AcDbCircle
 10
84.19828973111238
 20
155.8589835608666
 30
0.0
 40
0.1405
  0
CIRCLE
  5
1839
330
117D
100
AcDbEntity
  8
PMR
100
AcDbCircle
 10
84.19828973111238
 20
155.3589835608665
 30
0.0
 40
0.1405
  0
CIRCLE
  5
183A
330
117D
100
AcDbEntity
  8
PMR
100
AcDbCircle
 10
84.19828973111238
 20
156.4839835608665
 30
0.0
 40
0.1405
  0
CIRCLE
  5
183B
330
117D
100
AcDbEntity
  8
PMR
100
AcDbCircle
 10
84.19828973111238
 20
157.1089835608665
 30
0.0
 40
0.1405
  0
ARC
  5
183C
330
117D
100
AcDbEntity
  8
PMR
100
AcDbCircle
 10
84.19828973111238
 20
154.7339835608665
 30
0.0
 40
0.1405
100
AcDbArc
 50
359.5921974143769
 51
180.4078025856228
  0
CIRCLE
  5
183D
330
117D
100
AcDbEntity
  8
PMR
100
AcDbCircle
 10
84.19828973111238
 20
158.8589835608665
 30
0.0
 40
0.1405
  0
CIRCLE
  5
183E
330
117D
100
AcDbEntity
  8
PMR
100
AcDbCircle
 10
84.19828973111238
 20
159.3589835608665
 30
0.0
 40
0.1405
  0
CIRCLE
  5
183F
330
117D
100
AcDbEntity
  8
PMR
100
AcDbCircle
 10
84.19828973111238
 20
160.6089835608665
 30
0.0
 40
0.1405
  0
CIRCLE
  5
1840
330
117D
100
AcDbEntity
  8
PMR
100
AcDbCircle
 10
84.19828973111238
 20
159.9839835608666
 30
0.0
 40
0.1405
  0
CIRCLE
  5
1841
330
117D
100
AcDbEntity
  8
PMR
100
AcDbCircle
 10
84.19828973111238
 20
161.1089835608666
 30
0.0
 40
0.1405
  0
CIRCLE
  5
1842
330
117D
100
AcDbEntity
  8
PMR
100
AcDbCircle
 10
84.19828973111238
 20
158.2339835608665
 30
0.0
 40
0.1405
  0
CIRCLE
  5
1843
330
117D
100
AcDbEntity
  8
PMR
100
AcDbCircle
 10
84.19828973111238
 20
163.4839835608666
 30
0.0
 40
0.1405
  0
CIRCLE
  5
1844
330
117D
100
AcDbEntity
  8
PMR
100
AcDbCircle
 10
84.19828973111238
 20
162.8589835608665
 30
0.0
 40
0.1405
  0
CIRCLE
  5
1845
330
117D
100
AcDbEntity
  8
PMR
100
AcDbCircle
 10
84.19828973111238
 20
164.1089835608665
 30
0.0
 40
0.1405
  0
CIRCLE
  5
1846
330
117D
100
AcDbEntity
  8
PMR
100
AcDbCircle
 10
84.19828973111238
 20
164.6089835608665
 30
0.0
 40
0.1405
  0
CIRCLE
  5
1847
330
117D
100
AcDbEntity
  8
PMR
100
AcDbCircle
 10
84.19828973111238
 20
161.7339835608665
 30
0.0
 40
0.1405
  0
CIRCLE
  5
1848
330
117D
100
AcDbEntity
  8
PMR
100
AcDbCircle
 10
84.19828973111238
 20
162.3589835608665
 30
0.0
 40
0.1405
  0
CIRCLE
  5
1849
330
117D
100
AcDbEntity
  8
PMR
100
AcDbCircle
 10
84.19828973111238
 20
172.8589835608666
 30
0.0
 40
0.1405
  0
CIRCLE
  5
184A
330
117D
100
AcDbEntity
  8
PMR
100
AcDbCircle
 10
84.19828973111238
 20
166.9839835608665
 30
0.0
 40
0.1405
  0
CIRCLE
  5
184B
330
117D
100
AcDbEntity
  8
PMR
100
AcDbCircle
 10
84.19828973111238
 20
166.3589835608665
 30
0.0
 40
0.1405
  0
CIRCLE
  5
184C
330
117D
100
AcDbEntity
  8
PMR
100
AcDbCircle
 10
84.19828973111238
 20
168.1089835608665
 30
0.0
 40
0.1405
  0
CIRCLE
  5
184D
330
117D
100
AcDbEntity
  8
PMR
100
AcDbCircle
 10
84.19828973111238
 20
167.6089835608665
 30
0.0
 40
0.1405
  0
CIRCLE
  5
184E
330
117D
100
AcDbEntity
  8
PMR
100
AcDbCircle
 10
84.19828973111238
 20
168.7339835608665
 30
0.0
 40
0.1405
  0
CIRCLE
  5
184F
330
117D
100
AcDbEntity
  8
PMR
100
AcDbCircle
 10
84.19828973111238
 20
165.8589835608665
 30
0.0
 40
0.1405
  0
CIRCLE
  5
1850
330
117D
100
AcDbEntity
  8
PMR
100
AcDbCircle
 10
84.19828973111238
 20
171.1089835608665
 30
0.0
 40
0.1405
  0
CIRCLE
  5
1851
330
117D
100
AcDbEntity
  8
PMR
100
AcDbCircle
 10
84.19828973111238
 20
170.4839835608666
 30
0.0
 40
0.1405
  0
CIRCLE
  5
1852
330
117D
100
AcDbEntity
  8
PMR
100
AcDbCircle
 10
84.19828973111238
 20
171.6089835608666
 30
0.0
 40
0.1405
  0
CIRCLE
  5
1853
330
117D
100
AcDbEntity
  8
PMR
100
AcDbCircle
 10
84.19828973111238
 20
172.2339835608665
 30
0.0
 40
0.1405
  0
CIRCLE
  5
1854
330
117D
100
AcDbEntity
  8
PMR
100
AcDbCircle
 10
84.19828973111238
 20
169.3589835608666
 30
0.0
 40
0.1405
  0
CIRCLE
  5
1855
330
117D
100
AcDbEntity
  8
PMR
100
AcDbCircle
 10
84.19828973111238
 20
169.8589835608665
 30
0.0
 40
0.1405
  0
CIRCLE
  5
1856
330
117D
100
AcDbEntity
  8
PMR
100
AcDbCircle
 10
84.19828973111238
 20
174.6089835608666
 30
0.0
 40
0.1405
  0
CIRCLE
  5
1857
330
117D
100
AcDbEntity
  8
PMR
100
AcDbCircle
 10
84.19828973111238
 20
173.9839835608665
 30
0.0
 40
0.1405
  0
CIRCLE
  5
1858
330
117D
100
AcDbEntity
  8
PMR
100
AcDbCircle
 10
84.19828973111238
 20
175.7339835608665
 30
0.0
 40
0.1405
  0
CIRCLE
  5
1859
330
117D
100
AcDbEntity
  8
PMR
100
AcDbCircle
 10
84.19828973111238
 20
175.1089835608665
 30
0.0
 40
0.1405
  0
CIRCLE
  5
185A
330
117D
100
AcDbEntity
  8
PMR
100
AcDbCircle
 10
84.19828973111238
 20
176.3589835608665
 30
0.0
 40
0.1405
  0
CIRCLE
  5
185B
330
117D
100
AcDbEntity
  8
PMR
100
AcDbCircle
 10
84.19828973111238
 20
173.3589835608665
 30
0.0
 40
0.1405
  0
CIRCLE
  5
185C
330
117D
100
AcDbEntity
  8
PMR
100
AcDbCircle
 10
84.19828973111238
 20
178.6089835608665
 30
0.0
 40
0.1405
  0
CIRCLE
  5
185D
330
117D
100
AcDbEntity
  8
PMR
100
AcDbCircle
 10
84.19828973111238
 20
178.1089835608665
 30
0.0
 40
0.1405
  0
CIRCLE
  5
185E
330
117D
100
AcDbEntity
  8
PMR
100
AcDbCircle
 10
84.19828973111238
 20
176.8589835608666
 30
0.0
 40
0.1405
  0
CIRCLE
  5
185F
330
117D
100
AcDbEntity
  8
PMR
100
AcDbCircle
 10
84.19828973111238
 20
177.4839835608665
 30
0.0
 40
0.1405
  0
CIRCLE
  5
1860
330
117D
100
AcDbEntity
  8
PMR
100
AcDbCircle
 10
84.19828973111238
 20
183.3589835608664
 30
0.0
 40
0.1405
  0
CIRCLE
  5
1861
330
117D
100
AcDbEntity
  8
PMR
100
AcDbCircle
 10
84.19828973111238
 20
182.7339835608664
 30
0.0
 40
0.1405
  0
LWPOLYLINE
  5
1862
330
117D
100
AcDbEntity
  8
PMR
100
AcDbPolyline
 90
        4
 70
     1
 43
0.0
 10
85.58778973111238
 20
183.3909835608665
 10
84.96278973111238
 20
183.3909835608664
 42
0.9999999999999992
 10
84.96278973111238
 20
183.1409835608664
 10
85.58778973111238
 20
183.1409835608665
 42
1.0
  0
LWPOLYLINE
  5
1868
330
117D
100
AcDbEntity
  8
PMR
100
AcDbPolyline
 90
        4
 70
     1
 43
0.0
 10
85.58778973111238
 20
170.2979835608665
 10
84.96278973111238
 20
170.2979835608664
 42
1.0
 10
84.96278973111238
 20
170.0479835608665
 10
85.58778973111238
 20
170.0479835608665
 42
1.0
  0
LWPOLYLINE
  5
186E
330
117D
100
AcDbEntity
  8
PMR
100
AcDbPolyline
 90
        4
 70
     1
 43
0.0
 10
85.58778973111238
 20
167.5479835608665
 10
84.96278973111238
 20
167.5479835608665
 42
1.0
 10
84.96278973111238
 20
167.2979835608664
 10
85.58778973111238
 20
167.2979835608665
 42
1.0
  0
TEXT
  5
1874
330
117D
100
AcDbEntity
  8
TEXT
100
AcDbText
 10
8.145578346060972
 20
204.2292105740534
 30
0.0
 40
1.673999999999999
  1
LOAD RATING:  1200 LBS. MAX.
 41
0.75
100
AcDbText
  0
LWPOLYLINE
  5
1875
330
117D
100
AcDbEntity
  8
TEXT
100
AcDbPolyline
 90
        6
 70
     1
 43
0.0
 10
4.989015904564721
 20
206.4054105740534
 10
4.215828424065988
 20
205.0662105740534
 10
4.989015904564721
 20
203.7270105740534
 10
6.535390865562161
 20
203.7270105740534
 10
7.308578346060954
 20
205.0662105740534
 10
6.535390865562161
 20
206.4054105740534
  0
TEXT
  5
187D
330
117D
100
AcDbEntity
  8
TEXT
100
AcDbText
 10
5.343703385063457
 20
204.2292105740534
 30
0.0
 40
1.673999999999999
  1
3
 41
0.75
 72
     4
 11
5.762203385063457
 21
205.0662105740534
 31
0.0
100
AcDbText
  0
TEXT
  5
187E
330
117D
100
AcDbEntity
  8
TEXT
100
AcDbText
 10
37.2976196742419
 20
77.01992876487557
 30
0.0
 40
1.674107142857141
  1
SAND TEXTURE
 41
0.75
  7
TXT
100
AcDbText
  0
TEXT
  5
187F
330
117D
100
AcDbEntity
  8
TEXT
100
AcDbText
 10
37.2976196742419
 20
65.87707162201843
 30
0.0
 40
1.674107142857141
  1
SMOOTH BLACK
 41
0.75
  7
TXT
100
AcDbText
  0
TEXT
  5
1880
330
117D
100
AcDbEntity
  8
TEXT
100
AcDbText
 10
50.9616140491714
 20
102.091357336304
 30
0.0
 40
1.674107142857141
  1
20 GA. STEEL
 41
0.75
  7
TXT
100
AcDbText
  0
TEXT
  5
1881
330
117D
100
AcDbEntity
  8
TEXT
100
AcDbText
 10
50.9616140491714
 20
99.30564305058986
 30
0.0
 40
1.674107142857141
  1
18 GA. STEEL
 41
0.75
  7
TXT
100
AcDbText
  0
TEXT
  5
1882
330
117D
100
AcDbEntity
  8
TEXT
100
AcDbText
 10
50.9616140491714
 20
93.73421447916133
 30
0.0
 40
1.674107142857141
  1
16 GA. STEEL
 41
0.75
  7
TXT
100
AcDbText
  0
TEXT
  5
1883
330
117D
100
AcDbEntity
  8
TEXT
100
AcDbText
 10
50.9616140491714
 20
90.94850019344701
 30
0.0
 40
1.674107142857141
  1
14 GA. STEEL
 41
0.75
  7
TXT
100
AcDbText
  0
TEXT
  5
1884
330
117D
100
AcDbEntity
  8
TEXT
100
AcDbText
 10
50.9616140491714
 20
88.16278590773277
 30
0.0
 40
1.674107142857141
  1
12 GA. STEEL
 41
0.75
  7
TXT
100
AcDbText
  0
TEXT
  5
1885
330
117D
100
AcDbEntity
  8
TEXT
100
AcDbText
 10
37.2976196742419
 20
74.23421447916128
 30
0.0
 40
1.674107142857141
  1
ROYAL BLUE TEXTURE
 41
0.75
  7
TXT
100
AcDbText
  0
TEXT
  5
1886
330
117D
100
AcDbEntity
  8
TEXT
100
AcDbText
 10
37.2976196742419
 20
71.44850019344703
 30
0.0
 40
1.674107142857141
  1
BLACK TEXTURE
 41
0.75
  7
TXT
100
AcDbText
  0
LINE
  5
1887
330
117D
100
AcDbEntity
  8
TEXT
100
AcDbLine
 10
36.10756755922102
 20
65.87707162201842
 30
0.0
 11
22.33821229775673
 21
65.87707162201843
 31
0.0
  0
LINE
  5
1888
330
117D
100
AcDbEntity
  8
TEXT
100
AcDbLine
 10
36.10756755922102
 20
71.44850019344703
 30
0.0
 11
22.33821229775673
 21
71.44850019344703
 31
0.0
  0
LINE
  5
1889
330
117D
100
AcDbEntity
  8
TEXT
100
AcDbLine
 10
36.10756755922102
 20
74.23421447916128
 30
0.0
 11
22.33821229775673
 21
74.23421447916128
 31
0.0
  0
LINE
  5
188A
330
117D
100
AcDbEntity
  8
TEXT
100
AcDbLine
 10
36.10756755922102
 20
77.01992876487557
 30
0.0
 11
22.33821229775673
 21
77.01992876487557
 31
0.0
  0
LINE
  5
188B
330
117D
100
AcDbEntity
  8
OBJECT
100
AcDbLine
 10
110.0076313817307
 20
105.0142519744548
 30
0.0
 11
131.8516313817308
 21
105.0142519744548
 31
0.0
  0
LINE
  5
188C
330
117D
100
AcDbEntity
  8
OBJECT
100
AcDbLine
 10
131.8516313817308
 20
105.0142519744548
 30
0.0
 11
131.8516313817308
 21
79.67025197445491
 31
0.0
  0
LINE
  5
188D
330
117D
100
AcDbEntity
  8
OBJECT
100
AcDbLine
 10
110.0076313817307
 20
105.0142519744548
 30
0.0
 11
110.0076313817309
 21
79.67025197445491
 31
0.0
  0
LINE
  5
188E
330
117D
100
AcDbEntity
  8
OBJECT
100
AcDbLine
 10
110.0856313817309
 20
104.5142519744548
 30
0.0
 11
131.7736313817308
 21
104.5142519744548
 31
0.0
  0
LINE
  5
188F
330
117D
100
AcDbEntity
  8
OBJECT
100
AcDbLine
 10
131.7736313817308
 20
104.5142519744548
 30
0.0
 11
131.7736313817308
 21
105.0142519744548
 31
0.0
  0
LINE
  5
1890
330
117D
100
AcDbEntity
  8
OBJECT
100
AcDbLine
 10
110.0856313817309
 20
104.5142519744548
 30
0.0
 11
110.0856313817309
 21
105.0142519744548
 31
0.0
  0
CIRCLE
  5
1891
330
117D
100
AcDbEntity
  8
OBJECT
100
AcDbCircle
 10
129.5236313817308
 20
103.2642519744548
 30
0.0
 40
0.156
  0
CIRCLE
  5
1892
330
117D
100
AcDbEntity
  8
OBJECT
100
AcDbCircle
 10
127.7736313817308
 20
103.2642519744548
 30
0.0
 40
0.156
  0
CIRCLE
  5
1893
330
117D
100
AcDbEntity
  8
OBJECT
100
AcDbCircle
 10
129.5236313817308
 20
100.2642519744548
 30
0.0
 40
0.156
  0
CIRCLE
  5
1894
330
117D
100
AcDbEntity
  8
OBJECT
100
AcDbCircle
 10
127.7736313817308
 20
100.2642519744548
 30
0.0
 40
0.156
  0
CIRCLE
  5
1895
330
117D
100
AcDbEntity
  8
OBJECT
100
AcDbCircle
 10
114.0856313817309
 20
100.2642519744548
 30
0.0
 40
0.156
  0
CIRCLE
  5
1896
330
117D
100
AcDbEntity
  8
OBJECT
100
AcDbCircle
 10
112.3356313817309
 20
100.2642519744548
 30
0.0
 40
0.156
  0
CIRCLE
  5
1897
330
117D
100
AcDbEntity
  8
OBJECT
100
AcDbCircle
 10
114.0856313817309
 20
103.2642519744548
 30
0.0
 40
0.156
  0
CIRCLE
  5
1898
330
117D
100
AcDbEntity
  8
OBJECT
100
AcDbCircle
 10
112.3356313817309
 20
103.2642519744548
 30
0.0
 40
0.156
  0
CIRCLE
  5
1899
330
117D
100
AcDbEntity
  8
OBJECT
100
AcDbCircle
 10
112.3356313817309
 20
81.42025197445484
 30
0.0
 40
0.156
  0
CIRCLE
  5
189A
330
117D
100
AcDbEntity
  8
OBJECT
100
AcDbCircle
 10
114.0856313817309
 20
81.42025197445484
 30
0.0
 40
0.156
  0
CIRCLE
  5
189B
330
117D
100
AcDbEntity
  8
OBJECT
100
AcDbCircle
 10
112.3356313817309
 20
84.42025197445488
 30
0.0
 40
0.156
  0
CIRCLE
  5
189C
330
117D
100
AcDbEntity
  8
OBJECT
100
AcDbCircle
 10
114.0856313817309
 20
84.42025197445488
 30
0.0
 40
0.156
  0
CIRCLE
  5
189D
330
117D
100
AcDbEntity
  8
OBJECT
100
AcDbCircle
 10
127.7736313817308
 20
84.42025197445488
 30
0.0
 40
0.156
  0
CIRCLE
  5
189E
330
117D
100
AcDbEntity
  8
OBJECT
100
AcDbCircle
 10
129.5236313817308
 20
84.42025197445488
 30
0.0
 40
0.156
  0
CIRCLE
  5
189F
330
117D
100
AcDbEntity
  8
OBJECT
100
AcDbCircle
 10
127.7736313817308
 20
81.42025197445491
 30
0.0
 40
0.156
  0
CIRCLE
  5
18A0
330
117D
100
AcDbEntity
  8
OBJECT
100
AcDbCircle
 10
129.5236313817308
 20
81.42025197445491
 30
0.0
 40
0.156
  0
LINE
  5
18A1
330
117D
100
AcDbEntity
  8
OBJECT
100
AcDbLine
 10
110.0856313817309
 20
80.17025197445491
 30
0.0
 11
110.0856313817309
 21
79.67025197445491
 31
0.0
  0
LINE
  5
18A2
330
117D
100
AcDbEntity
  8
OBJECT
100
AcDbLine
 10
131.7736313817308
 20
80.17025197445491
 30
0.0
 11
131.7736313817308
 21
79.67025197445491
 31
0.0
  0
LINE
  5
18A3
330
117D
100
AcDbEntity
  8
OBJECT
100
AcDbLine
 10
110.0856313817309
 20
80.17025197445491
 30
0.0
 11
131.7736313817308
 21
80.17025197445491
 31
0.0
  0
LINE
  5
18A4
330
117D
100
AcDbEntity
  8
OBJECT
100
AcDbLine
 10
110.0076313817309
 20
79.67025197445491
 30
0.0
 11
131.8516313817308
 21
79.67025197445491
 31
0.0
  0
ARC
  5
18A5
330
117D
100
AcDbEntity
  8
OBJECT
100
AcDbCircle
 10
125.4761313817308
 20
81.42025197445491
 30
0.0
 40
0.5545
100
AcDbArc
 50
96.41980556739323
 51
263.5801944326066
  0
LINE
  5
18A6
330
117D
100
AcDbEntity
  8
OBJECT
100
AcDbLine
 10
125.5381313817307
 20
80.93046718900117
 30
0.0
 11
125.5381313817307
 21
80.78728204383782
 31
0.0
  0
LINE
  5
18A7
330
117D
100
AcDbEntity
  8
OBJECT
100
AcDbLine
 10
125.4141313817308
 20
82.01231050801307
 30
0.0
 11
125.4141313817308
 21
82.04943258268505
 31
0.0
  0
LINE
  5
18A8
330
117D
100
AcDbEntity
  8
OBJECT
100
AcDbLine
 10
125.4141313817308
 20
80.93046718900117
 30
0.0
 11
125.4141313817308
 21
80.78728204383782
 31
0.0
  0
ARC
  5
18A9
330
117D
100
AcDbEntity
  8
OBJECT
100
AcDbCircle
 10
125.4761313817308
 20
81.42025197445491
 30
0.0
 40
0.5545
100
AcDbArc
 50
276.4198055673932
 51
83.58019443260671
  0
LINE
  5
18AA
330
117D
100
AcDbEntity
  8
OBJECT
100
AcDbLine
 10
125.5381313817307
 20
82.01231050801307
 30
0.0
 11
125.5381313817307
 21
82.04943258268505
 31
0.0
  0
LINE
  5
18AB
330
117D
100
AcDbEntity
  8
OBJECT
100
AcDbLine
 10
125.5381313817307
 20
81.86912536284973
 30
0.0
 11
125.5381313817307
 21
82.01231050801307
 31
0.0
  0
LINE
  5
18AC
330
117D
100
AcDbEntity
  8
OBJECT
100
AcDbLine
 10
125.4141313817308
 20
82.01231050801307
 30
0.0
 11
125.4141313817308
 21
81.86912536284973
 31
0.0
  0
LINE
  5
18AD
330
117D
100
AcDbEntity
  8
OBJECT
100
AcDbLine
 10
116.4451313817308
 20
82.01231050801307
 30
0.0
 11
116.4451313817308
 21
81.86912536284973
 31
0.0
  0
LINE
  5
18AE
330
117D
100
AcDbEntity
  8
OBJECT
100
AcDbLine
 10
116.3211313817308
 20
81.86912536284973
 30
0.0
 11
116.3211313817308
 21
82.01231050801307
 31
0.0
  0
LINE
  5
18AF
330
117D
100
AcDbEntity
  8
OBJECT
100
AcDbLine
 10
116.3211313817308
 20
82.01231050801307
 30
0.0
 11
116.3211313817308
 21
82.04943258268505
 31
0.0
  0
ARC
  5
18B0
330
117D
100
AcDbEntity
  8
OBJECT
100
AcDbCircle
 10
116.3831313817307
 20
81.42025197445484
 30
0.0
 40
0.5545
100
AcDbArc
 50
96.41980556739323
 51
263.5801944326066
  0
LINE
  5
18B1
330
117D
100
AcDbEntity
  8
OBJECT
100
AcDbLine
 10
116.4451313817308
 20
80.93046718900117
 30
0.0
 11
116.4451313817308
 21
80.78728204383782
 31
0.0
  0
LINE
  5
18B2
330
117D
100
AcDbEntity
  8
OBJECT
100
AcDbLine
 10
116.4451313817308
 20
82.01231050801307
 30
0.0
 11
116.4451313817308
 21
82.04943258268505
 31
0.0
  0
LINE
  5
18B3
330
117D
100
AcDbEntity
  8
OBJECT
100
AcDbLine
 10
116.3211313817308
 20
80.93046718900117
 30
0.0
 11
116.3211313817308
 21
80.78728204383782
 31
0.0
  0
ARC
  5
18B4
330
117D
100
AcDbEntity
  8
OBJECT
100
AcDbCircle
 10
116.3831313817307
 20
81.42025197445484
 30
0.0
 40
0.5545
100
AcDbArc
 50
276.4198055673932
 51
83.58019443260671
  0
TEXT
  5
18B5
330
117D
100
AcDbEntity
  8
TEXT
100
AcDbText
 10
113.8183032567308
 20
68.18416070820314
 30
0.0
 40
1.71875
  1
%%uBOTTOM VIEW
 41
0.75
  7
TXT
 72
     1
 11
120.9296313817308
 21
68.18416070820314
 31
0.0
100
AcDbText
  0
DIMENSION
  5
18B6
330
117D
100
AcDbEntity
  8
DIM
100
AcDbDimension
  2
*D17
 10
104.5296313817308
 20
100.2642519744548
 30
0.0
 11
98.01869388173079
 21
94.86425197445482
 31
0.0
 70
    32
 71
     5
 42
3.0
  3
23NSTD
100
AcDbAlignedDimension
 13
112.3356313817307
 23
103.2642519744548
 33
0.0
 14
112.3356313817307
 24
100.2642519744548
 34
0.0
 50
270.0
100
AcDbRotatedDimension
  0
DIMENSION
  5
18C4
330
117D
100
AcDbEntity
  8
DIM
100
AcDbDimension
  2
*D18
 10
100.3146313817308
 20
103.2642519744548
 30
0.0
 11
93.68650638173077
 21
97.86425197445483
 31
0.0
 70
    32
 71
     5
 42
1.827999999999988
  3
23NSTD
100
AcDbAlignedDimension
 13
109.9296313817307
 23
105.0922519744547
 33
0.0
 14
112.3356313817307
 24
103.2642519744548
 34
0.0
 50
270.0
100
AcDbRotatedDimension
  0
LINE
  5
18D2
330
117D
100
AcDbEntity
  8
OBJECT
100
AcDbLine
 10
131.3516313817308
 20
104.5142519744548
 30
0.0
 11
131.3516313817308
 21
80.17025197445491
 31
0.0
  0
LINE
  5
18D3
330
117D
100
AcDbEntity
  8
OBJECT
100
AcDbLine
 10
110.5076313817308
 20
104.5142519744548
 30
0.0
 11
110.5076313817308
 21
80.17025197445491
 31
0.0
  0
DIMENSION
  5
18D4
330
117D
100
AcDbEntity
  8
DIM
100
AcDbDimension
  2
*D19
 10
114.0856313817307
 20
107.7922519744549
 30
0.0
 11
123.2965688817307
 21
107.7922519744549
 31
0.0
 70
    32
 71
     5
 42
1.75
  3
23NSTD
100
AcDbAlignedDimension
 13
112.3356313817307
 23
103.2642519744548
 33
0.0
 14
114.0856313817307
 24
103.2642519744548
 34
0.0
100
AcDbRotatedDimension
  0
DIMENSION
  5
18E2
330
117D
100
AcDbEntity
  8
DIM
100
AcDbDimension
  2
*D20
 10
112.3356313817307
 20
112.0072519744549
 30
0.0
 11
121.7809438817307
 21
112.0072519744549
 31
0.0
 70
    32
 71
     5
 42
2.40599999999992
  3
23NSTD
100
AcDbAlignedDimension
 13
109.9296313817307
 23
105.0922519744547
 33
0.0
 14
112.3356313817307
 24
103.2642519744548
 34
0.0
100
AcDbRotatedDimension
  0
LWPOLYLINE
  5
18F0
330
117D
100
AcDbEntity
  8
DIM
100
AcDbPolyline
 90
        4
 70
     0
 10
116.1491313817308
 20
92.34225197445487
 40
0.0
 41
1.0125016874973
 10
113.8047403850844
 20
91.00290319432899
 40
0.0
 41
0.0
 10
106.1814520330409
 20
86.98043005345301
 40
0.0
 41
0.0
 10
104.3064489080459
 20
86.98043005345301
 40
0.0
 41
0.0
  0
TEXT
  5
18F6
330
117D
100
AcDbEntity
  8
DIM
100
AcDbText
 10
87.32495613369259
 20
86.04292849095555
 30
0.0
 40
1.875003124995
  1
9.561 x 9.561
 41
0.75
  7
TXT
 72
     2
 11
102.3249811336525
 21
86.04292849095555
 31
0.0
100
AcDbText
  0
DIMENSION
  5
18F7
330
117D
100
AcDbEntity
  8
DIM
100
AcDbDimension
  2
*D21
 10
130.4921313817309
 20
169.4382811864539
 30
0.0
 11
120.9296313817309
 21
169.4382811864539
 31
0.0
 70
    32
  1
<> %%p0.031
 71
     5
 42
19.1249999999999
  3
23NSTD
100
AcDbAlignedDimension
 13
111.3671313817309
 23
169.4382811864539
 33
0.0
 14
130.4921313817309
 24
169.4382811864539
 34
0.0
100
AcDbRotatedDimension
  0
DIMENSION
  5
1905
330
117D
100
AcDbEntity
  8
DIM
100
AcDbDimension
  2
*D22
 10
130.0861313817309
 20
173.6260445787488
 30
0.0
 11
120.9301313817308
 21
173.6260445787488
 31
0.0
 70
    32
  1
<> %%p0.062
 71
     5
 42
18.31199999999999
  3
23NSTD
100
AcDbAlignedDimension
 13
111.7741313817308
 23
173.6260445787488
 33
0.0
 14
130.0861313817309
 24
173.6260445787488
 34
0.0
100
AcDbRotatedDimension
  0
DIMENSION
  5
1913
330
117D
100
AcDbEntity
  8
DIM
100
AcDbDimension
  2
*D23
 10
129.8986313817308
 20
177.6443263015771
 30
0.0
 11
120.9302563817308
 21
177.6443263015771
 31
0.0
 70
    32
  1
<> %%p0.093
 71
     5
 42
17.93675
  3
23NSTD
100
AcDbAlignedDimension
 13
111.9618813817307
 23
177.6443263015771
 33
0.0
 14
129.8986313817308
 24
177.6443263015771
 34
0.0
100
AcDbRotatedDimension
  0
DIMENSION
  5
1921
330
117D
100
AcDbEntity
  8
DIM
100
AcDbDimension
  2
*D24
 10
131.9296313817308
 20
190.3589835608664
 30
0.0
 11
120.9296313817308
 21
190.3589835608664
 31
0.0
 70
    32
  1
<> %%p0.062
 71
     5
 42
21.99999999999991
  3
23NSTD
100
AcDbAlignedDimension
 13
109.9296313817309
 23
186.2639835608663
 33
0.0
 14
131.9296313817308
 24
186.2639835608663
 34
0.0
100
AcDbRotatedDimension
  0
DIMENSION
  5
192F
330
117D
100
AcDbEntity
  8
DIM
100
AcDbDimension
  2
*D25
 10
125.4761313817308
 20
76.89225197445491
 30
0.0
 11
121.2168343461585
 21
76.89225197445491
 31
0.0
 70
   160
 71
     5
 42
9.092999999999889
  3
23NSTD
100
AcDbAlignedDimension
 13
116.3831313817309
 23
81.42025197445491
 33
0.0
 14
125.4761313817308
 24
81.42025197445491
 34
0.0
100
AcDbRotatedDimension
  0
DIMENSION
  5
193C
330
117D
100
AcDbEntity
  8
DIM
100
AcDbDimension
  2
*D26
 10
131.9296313817309
 20
72.67725197445489
 30
0.0
 11
141.4921313817309
 21
72.67725197445489
 31
0.0
 70
    32
 71
     5
 42
6.45350000000009
  3
23NSTD
100
AcDbAlignedDimension
 13
125.4761313817308
 23
81.42025197445491
 33
0.0
 14
131.9296313817309
 24
80.10825197445496
 34
0.0
100
AcDbRotatedDimension
  0
LWPOLYLINE
  5
194A
330
117D
100
AcDbEntity
  8
DIM
100
AcDbPolyline
 90
        4
 70
     0
 10
115.8917367807144
 20
81.1633442165102
 40
0.0
 41
1.012499999999999
 10
113.6558697854634
 20
79.64977268547935
 40
0.0
 41
0.0
 10
108.3922226062961
 20
76.08654350561309
 40
0.0
 41
0.0
 10
106.5172194813012
 20
76.08654350561309
 40
0.0
 41
0.0
  0
TEXT
  5
1950
330
117D
100
AcDbEntity
  8
DIM
100
AcDbText
 10
94.56407455945809
 20
75.14904194311556
 30
0.0
 40
1.875003124995
  1
1.109 DIA.
 41
0.75
  7
TXT
 72
     2
 11
104.6422163563062
 21
75.14904194311556
 31
0.0
100
AcDbText
  0
TEXT
  5
1951
330
117D
100
AcDbEntity
  8
DIM
100
AcDbText
 10
93.86094838758495
 20
72.02403673479063
 30
0.0
 40
1.875003124995
  1
KNOCKOUT
 41
0.75
  7
TXT
 72
     2
 11
104.6422163563062
 21
72.02403673479063
 31
0.0
100
AcDbText
  0
TEXT
  5
1952
330
117D
100
AcDbEntity
  8
DIM
100
AcDbText
 10
91.98594526258997
 20
68.89903152646559
 30
0.0
 40
1.875003124995
  1
(4) PLACES
 41
0.75
  7
TXT
 72
     2
 11
104.6422163563062
 21
68.89903152646559
 31
0.0
100
AcDbText
  0
LINE
  5
1953
330
117D
100
AcDbEntity
  8
OBJECT
100
AcDbLine
 10
131.9296313817307
 20
105.0922519744547
 30
0.0
 11
131.9296313817307
 21
103.6242519744548
 31
0.0
  0
LINE
  5
1954
330
117D
100
AcDbEntity
  8
OBJECT
100
AcDbLine
 10
109.9296313817307
 20
105.0922519744547
 30
0.0
 11
109.9296313817307
 21
103.6242519744548
 31
0.0
  0
LINE
  5
1955
330
117D
100
AcDbEntity
  8
OBJECT
100
AcDbLine
 10
109.9296313817307
 20
105.0922519744547
 30
0.0
 11
111.3671313817307
 21
105.0922519744547
 31
0.0
  0
LINE
  5
1956
330
117D
100
AcDbEntity
  8
OBJECT
100
AcDbLine
 10
111.3671313817307
 20
105.0922519744547
 30
0.0
 11
111.3671313817307
 21
105.0142519744548
 31
0.0
  0
LINE
  5
1957
330
117D
100
AcDbEntity
  8
OBJECT
100
AcDbLine
 10
130.4921313817308
 20
105.0922519744547
 30
0.0
 11
131.9296313817307
 21
105.0922519744547
 31
0.0
  0
LINE
  5
1958
330
117D
100
AcDbEntity
  8
OBJECT
100
AcDbLine
 10
130.4921313817308
 20
105.0922519744547
 30
0.0
 11
130.4921313817308
 21
105.0142519744548
 31
0.0
  0
LINE
  5
1959
330
117D
100
AcDbEntity
  8
OBJECT
100
AcDbLine
 10
111.476131381731
 20
79.59225197445488
 30
0.0
 11
130.4141313817308
 21
79.59225197445488
 31
0.0
  0
LINE
  5
195A
330
117D
100
AcDbEntity
  8
OBJECT
100
AcDbLine
 10
109.9296313817307
 20
103.6242519744548
 30
0.0
 11
110.0076313817309
 21
103.6242519744548
 31
0.0
  0
LINE
  5
195B
330
117D
100
AcDbEntity
  8
OBJECT
100
AcDbLine
 10
109.9296313817307
 20
79.59225197445488
 30
0.0
 11
111.3671313817307
 21
79.59225197445488
 31
0.0
  0
LINE
  5
195C
330
117D
100
AcDbEntity
  8
OBJECT
100
AcDbLine
 10
109.9296313817307
 20
81.06025197445488
 30
0.0
 11
110.0076313817309
 21
81.06025197445488
 31
0.0
  0
LINE
  5
195D
330
117D
100
AcDbEntity
  8
OBJECT
100
AcDbLine
 10
109.9296313817307
 20
79.59225197445488
 30
0.0
 11
109.9296313817307
 21
81.06025197445488
 31
0.0
  0
LINE
  5
195E
330
117D
100
AcDbEntity
  8
OBJECT
100
AcDbLine
 10
111.3671313817307
 20
79.59225197445488
 30
0.0
 11
111.3671313817307
 21
79.67025197445491
 31
0.0
  0
LINE
  5
195F
330
117D
100
AcDbEntity
  8
OBJECT
100
AcDbLine
 10
111.476131381731
 20
79.59225197445488
 30
0.0
 11
111.476131381731
 21
79.67025197445491
 31
0.0
  0
LINE
  5
1960
330
117D
100
AcDbEntity
  8
OBJECT
100
AcDbLine
 10
131.8516313817308
 20
103.6242519744548
 30
0.0
 11
131.9296313817307
 21
103.6242519744548
 31
0.0
  0
LINE
  5
1961
330
117D
100
AcDbEntity
  8
OBJECT
100
AcDbLine
 10
130.4921313817308
 20
79.59225197445488
 30
0.0
 11
131.9296313817307
 21
79.59225197445488
 31
0.0
  0
LINE
  5
1962
330
117D
100
AcDbEntity
  8
OBJECT
100
AcDbLine
 10
130.4141313817308
 20
79.67025197445491
 30
0.0
 11
130.4141313817308
 21
79.35875197445483
 31
0.0
  0
LINE
  5
1963
330
117D
100
AcDbEntity
  8
OBJECT
100
AcDbLine
 10
130.4921313817308
 20
79.67025197445491
 30
0.0
 11
130.4921313817308
 21
79.50252262514543
 31
0.0
  0
CIRCLE
  5
1964
330
117D
100
AcDbEntity
  8
OBJECT
100
AcDbCircle
 10
130.5856313817309
 20
79.35875197445483
 30
0.0
 40
0.055
  0
LINE
  5
1965
330
117D
100
AcDbEntity
  8
OBJECT
100
AcDbLine
 10
130.5856313817309
 20
79.53025197445488
 30
0.0
 11
130.4921313817308
 21
79.53025197445488
 31
0.0
  0
LINE
  5
1966
330
117D
100
AcDbEntity
  8
OBJECT
100
AcDbLine
 10
130.5856313817309
 20
79.53025197445488
 30
0.0
 11
130.5856313817309
 21
79.53025197445488
 31
0.0
  0
LINE
  5
1967
330
117D
100
AcDbEntity
  8
OBJECT
100
AcDbLine
 10
131.8516313817308
 20
81.06025197445488
 30
0.0
 11
131.9296313817307
 21
81.06025197445488
 31
0.0
  0
LINE
  5
1968
330
117D
100
AcDbEntity
  8
OBJECT
100
AcDbLine
 10
131.9296313817307
 20
79.59225197445488
 30
0.0
 11
131.9296313817307
 21
81.06025197445488
 31
0.0
  0
CIRCLE
  5
1969
330
117D
100
AcDbEntity
  8
OBJECT
100
AcDbCircle
 10
130.5856313817309
 20
79.35875197445483
 30
0.0
 40
0.1715
  0
LINE
  5
196A
330
117D
100
AcDbEntity
  8
CENTER
100
AcDbLine
 10
119.9396313817308
 20
92.34225197445487
 30
0.0
 11
121.9196313817308
 21
92.34225197445487
 31
0.0
  0
LINE
  5
196B
330
117D
100
AcDbEntity
  8
CENTER
100
AcDbLine
 10
120.9296313817308
 20
91.35225197445487
 30
0.0
 11
120.9296313817308
 21
93.33225197445488
 31
0.0
  0
DIMENSION
  5
196C
330
117D
100
AcDbEntity
  8
DIM
100
AcDbDimension
  2
*D27
 10
137.3296313817307
 20
81.42025197445491
 30
0.0
 11
143.9577563817307
 21
86.82025197445494
 31
0.0
 70
    32
 71
     5
 42
1.828000000000031
  3
23NSTD
100
AcDbAlignedDimension
 13
131.9296313817307
 23
79.59225197445488
 33
0.0
 14
125.4761313817308
 24
81.42025197445491
 34
0.0
 50
90.0
100
AcDbRotatedDimension
  0
LWPOLYLINE
  5
197A
330
117D
100
AcDbEntity
  8
OBJECT
100
AcDbPolyline
 90
        5
 70
     0
 43
0.0
 10
116.1491313817308
 20
87.56175197445486
 10
125.7101313817308
 20
87.56175197445486
 10
125.7101313817308
 20
97.12275197445489
 10
116.1491313817308
 20
97.12275197445489
 10
116.1491313817308
 20
87.56175197445486
  0
TEXT
  5
1981
330
117D
100
AcDbEntity
  8
DIM
100
AcDbText
 10
84.51248113365258
 20
82.91792849095555
 30
0.0
 40
1.875
  1
SQUARE CUTOUT
 41
0.75
  7
TXT
 72
     2
 11
102.3249811336525
 21
82.91792849095555
 31
0.0
100
AcDbText
  0
LINE
  5
1982
330
117D
100
AcDbEntity
  8
TEXT
100
AcDbLine
 10
81.64702147987949
 20
18.05446522501404
 30
0.0
 11
87.37377555293708
 21
18.05446522501404
 31
0.0
  0
LINE
  5
1983
330
117D
100
AcDbEntity
  8
TEXT
100
AcDbLine
 10
81.64702147987949
 20
36.75599649327851
 30
0.0
 11
87.37377555293708
 21
36.75599649327851
 31
0.0
  0
TEXT
  5
1984
330
117D
100
AcDbEntity
  8
TEXT
100
AcDbText
 10
24.39120535714285
 20
35.8725
 30
0.0
 40
1.875
  1
21.000
 41
0.75
  7
TXT
 72
     1
 11
27.32089285714285
 21
35.8725
 31
0.0
100
AcDbText
  0
TEXT
  5
1985
330
117D
100
AcDbEntity
  8
TEXT
100
AcDbText
 10
5.197830642072943
 20
35.737342946409
 30
0.0
 40
1.875
  1
ER-16561
 41
0.75
  7
TXT
100
AcDbText
  0
TEXT
  5
1986
330
117D
100
AcDbEntity
  8
TEXT
100
AcDbText
 10
38.37000000000003
 20
35.8725
 30
0.0
 40
1.875
  1
26.312
 41
0.75
  7
TXT
 72
     1
 11
41.65125000000003
 21
35.8725
 31
0.0
100
AcDbText
  0
TEXT
  5
1987
330
117D
100
AcDbEntity
  8
TEXT
100
AcDbText
 10
95.69142857142859
 20
35.8725
 30
0.0
 40
1.875
  1
17.562
 41
0.75
  7
TXT
 72
     1
 11
98.97267857142859
 21
35.8725
 31
0.0
100
AcDbText
  0
TEXT
  5
1988
330
117D
100
AcDbEntity
  8
TEXT
100
AcDbText
 10
112.5329464285714
 20
35.8725
 30
0.0
 40
1.875
  1
PMR-9448
 41
0.75
  7
TXT
 72
     1
 11
117.9235714285714
 21
35.8725
 31
0.0
100
AcDbText
  0
TEXT
  5
1989
330
117D
100
AcDbEntity
  8
TEXT
100
AcDbText
 10
134.380044642857
 20
35.8725
 30
0.0
 40
1.875
  1
V-9760-L
 41
0.75
  7
TXT
 72
     1
 11
139.887857142857
 21
35.8725
 31
0.0
100
AcDbText
  0
TEXT
  5
198A
330
117D
100
AcDbEntity
  8
TEXT
100
AcDbText
 10
24.39120535714285
 20
17.15250000000001
 30
0.0
 40
1.875
  1
21.000
 41
0.75
  7
TXT
 72
     1
 11
27.32089285714285
 21
17.15250000000001
 31
0.0
100
AcDbText
  0
TEXT
  5
198B
330
117D
100
AcDbEntity
  8
TEXT
100
AcDbText
 10
5.197830642072943
 20
17.01734294640901
 30
0.0
 40
1.875
  1
ER-16571
 41
0.75
  7
TXT
100
AcDbText
  0
TEXT
  5
198C
330
117D
100
AcDbEntity
  8
TEXT
100
AcDbText
 10
38.37000000000003
 20
17.15250000000001
 30
0.0
 40
1.875
  1
26.312
 41
0.75
  7
TXT
 72
     1
 11
41.65125000000003
 21
17.15250000000001
 31
0.0
100
AcDbText
  0
TEXT
  5
198D
330
117D
100
AcDbEntity
  8
TEXT
100
AcDbText
 10
95.69142857142859
 20
17.15250000000001
 30
0.0
 40
1.875
  1
17.562
 41
0.75
  7
TXT
 72
     1
 11
98.97267857142859
 21
17.15250000000001
 31
0.0
100
AcDbText
  0
TEXT
  5
198E
330
117D
100
AcDbEntity
  8
TEXT
100
AcDbText
 10
112.5329464285714
 20
17.15250000000001
 30
0.0
 40
1.875
  1
PMR-9448
 41
0.75
  7
TXT
 72
     1
 11
117.9235714285714
 21
17.15250000000001
 31
0.0
100
AcDbText
  0
TEXT
  5
198F
330
117D
100
AcDbEntity
  8
TEXT
100
AcDbText
 10
134.380044642857
 20
17.15250000000001
 30
0.0
 40
1.875
  1
V-9760-L
 41
0.75
  7
TXT
 72
     1
 11
139.887857142857
 21
17.15250000000001
 31
0.0
100
AcDbText
  0
LWPOLYLINE
  5
1990
330
117D
100
AcDbEntity
  8
OBJECT
100
AcDbPolyline
 90
        4
 70
     1
 43
0.0
 10
76.43103973111244
 20
152.4514835608664
 10
76.43103973111244
 20
153.5144835608664
 10
76.74403973111245
 20
153.5144835608664
 10
76.74403973111245
 20
152.4514835608664
  0
LWPOLYLINE
  5
1996
330
117D
100
AcDbEntity
  8
OBJECT
100
AcDbPolyline
 90
        4
 70
     1
 43
0.0
 10
79.93103973111245
 20
152.4514835608664
 10
79.93103973111245
 20
153.5144835608664
 10
80.24403973111246
 20
153.5144835608664
 10
80.24403973111246
 20
152.4514835608664
  0
LWPOLYLINE
  5
199C
330
117D
100
AcDbEntity
  8
OBJECT
100
AcDbPolyline
 90
        4
 70
     1
 43
0.0
 10
78.18103973111245
 20
152.4514835608664
 10
78.18103973111245
 20
153.5144835608664
 10
78.49403973111245
 20
153.5144835608664
 10
78.49403973111245
 20
152.4514835608664
  0
LWPOLYLINE
  5
19A2
330
117D
100
AcDbEntity
  8
OBJECT
100
AcDbPolyline
 90
        4
 70
     1
 43
0.0
 10
78.18103973111245
 20
124.9204835608664
 10
78.18103973111245
 20
125.9834835608664
 10
78.49403973111245
 20
125.9834835608664
 10
78.49403973111245
 20
124.9204835608664
  0
LWPOLYLINE
  5
19A8
330
117D
100
AcDbEntity
  8
OBJECT
100
AcDbPolyline
 90
        4
 70
     1
 43
0.0
 10
79.93103973111245
 20
124.9204835608664
 10
79.93103973111245
 20
125.9834835608664
 10
80.24403973111246
 20
125.9834835608664
 10
80.24403973111246
 20
124.9204835608664
  0
LWPOLYLINE
  5
19AE
330
117D
100
AcDbEntity
  8
OBJECT
100
AcDbPolyline
 90
        4
 70
     1
 43
0.0
 10
76.43103973111244
 20
124.9204835608664
 10
76.43103973111244
 20
125.9834835608664
 10
76.74403973111245
 20
125.9834835608664
 10
76.74403973111245
 20
124.9204835608664
  0
LWPOLYLINE
  5
19B4
330
117D
100
AcDbEntity
  8
OBJECT
100
AcDbPolyline
 90
        4
 70
     1
 43
0.0
 10
78.18103973111245
 20
179.9824835608664
 10
78.18103973111245
 20
181.0454835608663
 10
78.49403973111245
 20
181.0454835608663
 10
78.49403973111245
 20
179.9824835608664
  0
LWPOLYLINE
  5
19BA
330
117D
100
AcDbEntity
  8
OBJECT
100
AcDbPolyline
 90
        4
 70
     1
 43
0.0
 10
76.43103973111244
 20
179.9824835608664
 10
76.43103973111244
 20
181.0454835608663
 10
76.74403973111245
 20
181.0454835608663
 10
76.74403973111245
 20
179.9824835608664
  0
LWPOLYLINE
  5
19C0
330
117D
100
AcDbEntity
  8
OBJECT
100
AcDbPolyline
 90
        4
 70
     1
 43
0.0
 10
79.93103973111245
 20
179.9824835608664
 10
79.93103973111245
 20
181.0454835608663
 10
80.24403973111246
 20
181.0454835608663
 10
80.24403973111246
 20
179.9824835608664
  0
LINE
  5
19C6
330
117D
100
AcDbEntity
  8
TITLE
100
AcDbLine
 10
0.9299999999999499
 20
16.53
 30
0.0
 11
150.87
 21
16.53
 31
0.0
  0
LINE
  5
19C7
330
117D
100
AcDbEntity
  8
TITLE
100
AcDbLine
 10
0.9299999999999716
 20
35.25
 30
0.0
 11
150.87
 21
35.25
 31
0.0
  0
TEXT
  5
19EC
330
117D
100
AcDbEntity
  8
TEXT
100
AcDbText
 10
138.8984773163426
 20
227.265
 30
0.0
 40
2.343214285714284
  1
1-27-11
 41
0.75
  7
TXT
 72
     1
 11
143.8778076734855
 21
227.265
 31
0.0
100
AcDbText
  0
ENDSEC
  0
SECTION
  2
OBJECTS
  0
DICTIONARY
  5
116B
330
0
100
AcDbDictionary
281
     1
  3
ACAD_GROUP
350
116C
  3
ACAD_LAYOUT
350
1178
  3
ACAD_MLINESTYLE
350
1175
  3
ACAD_PLOTSETTINGS
350
1177
  3
ACAD_PLOTSTYLENAME
350
116D
  0
DICTIONARY
  5
116C
102
{ACAD_REACTORS
330
116B
102
}
330
116B
100
AcDbDictionary
281
     1
  0
DICTIONARY
  5
1178
102
{ACAD_REACTORS
330
116B
102
}
330
116B
100
AcDbDictionary
281
     1
  3
Layout1
350
117C
  3
Model
350
1180
  0
DICTIONARY
  5
1175
102
{ACAD_REACTORS
330
116B
102
}
330
116B
100
AcDbDictionary
281
     1
  3
Standard
350
1176
  0
DICTIONARY
  5
1177
102
{ACAD_REACTORS
330
116B
102
}
330
116B
100
AcDbDictionary
281
     1
  0
ACDBDICTIONARYWDFLT
  5
116D
102
{ACAD_REACTORS
330
116B
102
}
330
116B
100
AcDbDictionary
281
     1
  3
Normal
350
116E
100
AcDbDictionaryWithDefault
340
116E
  0
LAYOUT
  5
117C
102
{ACAD_REACTORS
330
1178
102
}
330
1178
100
AcDbPlotSettings
  1

  2
None
  4

  6

 40
0.0
 41
0.0
 42
0.0
 43
0.0
 44
0.0
 45
0.0
 46
0.0
 47
0.0
 48
0.0
 49
0.0
140
0.0
141
0.0
142
1.0
143
1.0
 70
   688
 72
     0
 73
     0
 74
     5
  7
monochrome.ctb
 75
    16
147
1.0
148
0.0
149
0.0
100
AcDbLayout
  1
Layout1
 70
     0
 71
     1
 10
0.0
 20
0.0
 11
12.0
 21
9.0
 12
0.0
 22
0.0
 32
0.0
 14
1.000000000000000E+20
 24
1.000000000000000E+20
 34
1.000000000000000E+20
 15
-1.000000000000000E+20
 25
-1.000000000000000E+20
 35
-1.000000000000000E+20
146
0.0
 13
0.0
 23
0.0
 33
0.0
 16
1.0
 26
0.0
 36
0.0
 17
0.0
 27
1.0
 37
0.0
 76
     0
330
1179
  0
LAYOUT
  5
1180
102
{ACAD_REACTORS
330
1178
102
}
330
1178
100
AcDbPlotSettings
  1

  2
RICOH Aficio 1060 PCL 5e.pc3
  4
Letter
  6

 40
7.143749713897705
 41
5.027085304260253
 42
7.14373779296875
 43
5.027069091796875
 44
215.8999938964843
 45
279.3999938964843
 46
12.95399999999999
 47
0.0
 48
0.0
 49
0.0
140
0.0
141
0.0
142
1.0
143
21.92668152613616
 70
 11956
 72
     0
 73
     0
 74
     1
  7
monochrome.ctb
 75
     0
147
0.0456065364386316
148
0.1176582591681722
149
0.1802078080128808
100
AcDbLayout
  1
Model
 70
     1
 71
     0
 10
0.0
 20
0.0
 11
12.0
 21
9.0
 12
0.0
 22
0.0
 32
0.0
 14
0.0
 24
0.0
 34
0.0
 15
0.0
 25
0.0
 35
0.0
146
0.0
 13
0.0
 23
0.0
 33
0.0
 16
1.0
 26
0.0
 36
0.0
 17
0.0
 27
1.0
 37
0.0
 76
     0
330
117D
  0
MLINESTYLE
  5
1176
102
{ACAD_REACTORS
330
1175
102
}
330
1175
100
AcDbMlineStyle
  2
STANDARD
 70
     0
  3

 62
   256
 51
90.0
 52
90.0
 71
     2
 49
0.5
 62
   256
  6
BYLAYER
 49
-0.5
 62
   256
  6
BYLAYER
  0
ACDBPLACEHOLDER
  5
116E
102
{ACAD_REACTORS
330
116D
102
}
330
116D
  0
ENDSEC
  0
EOF
