  0
SECTION
  2
HEADER
  9
$ACADVER
  1
AC1015
  9
$ACADMAINTVER
 70
     6
  9
$DWGCODEPAGE
  3
ANSI_1252
  9
$INSBASE
 10
0.0
 20
0.0
 30
0.0
  9
$EXTMIN
 10
0.0
 20
0.0
 30
0.0
  9
$EXTMAX
 10
30.0
 20
22.0
 30
0.0
  9
$LIMMIN
 10
0.0
 20
0.0
  9
$LIMMAX
 10
30.0
 20
22.0
  9
$ORTHOMODE
 70
     0
  9
$REGENMODE
 70
     1
  9
$FILLMODE
 70
     1
  9
$QTEXTMODE
 70
     0
  9
$MIRRTEXT
 70
     1
  9
$LTSCALE
 40
1.0
  9
$ATTMODE
 70
     1
  9
$TEXTSIZE
 40
0.125
  9
$TRACEWID
 40
0.05
  9
$TEXTSTYLE
  7
Standard
  9
$CLAYER
  8
0
  9
$CELTYPE
  6
ByLayer
  9
$CECOLOR
 62
   256
  9
$CELTSCALE
 40
1.0
  9
$DISPSILH
 70
     0
  9
$DIMSCALE
 40
1.0
  9
$DIMASZ
 40
0.13
  9
$DIMEXO
 40
0.05
  9
$DIMDLI
 40
0.38
  9
$DIMRND
 40
0.0
  9
$DIMDLE
 40
0.0
  9
$DIMEXE
 40
0.125
  9
$DIMTP
 40
0.0
  9
$DIMTM
 40
0.0
  9
$DIMTXT
 40
0.1377952756
  9
$DIMCEN
 40
0.09
  9
$DIMTSZ
 40
0.0
  9
$DIMTOL
 70
     0
  9
$DIMLIM
 70
     0
  9
$DIMTIH
 70
     1
  9
$DIMTOH
 70
     1
  9
$DIMSE1
 70
     0
  9
$DIMSE2
 70
     0
  9
$DIMTAD
 70
     1
  9
$DIMZIN
 70
     1
  9
$DIMBLK
  1

  9
$DIMASO
 70
     1
  9
$DIMSHO
 70
     1
  9
$DIMPOST
  1

  9
$DIMAPOST
  1

  9
$DIMALT
 70
     0
  9
$DIMALTD
 70
     2
  9
$DIMALTF
 40
25.4
  9
$DIMLFAC
 40
0.5
  9
$DIMTOFL
 70
     0
  9
$DIMTVP
 40
0.0
  9
$DIMTIX
 70
     0
  9
$DIMSOXD
 70
     0
  9
$DIMSAH
 70
     0
  9
$DIMBLK1
  1

  9
$DIMBLK2
  1

  9
$DIMSTYLE
  2
Standard
  9
$DIMCLRD
 70
     0
  9
$DIMCLRE
 70
     0
  9
$DIMCLRT
 70
     0
  9
$DIMTFAC
 40
1.0
  9
$DIMGAP
 40
0.06
  9
$DIMJUST
 70
     0
  9
$DIMSD1
 70
     0
  9
$DIMSD2
 70
     0
  9
$DIMTOLJ
 70
     1
  9
$DIMTZIN
 70
     1
  9
$DIMALTZ
 70
     0
  9
$DIMALTTZ
 70
     0
  9
$DIMUPT
 70
     0
  9
$DIMDEC
 70
     2
  9
$DIMTDEC
 70
     2
  9
$DIMALTU
 70
     2
  9
$DIMALTTD
 70
     2
  9
$DIMTXSTY
  7
Standard
  9
$DIMAUNIT
 70
     0
  9
$DIMADEC
 70
     2
  9
$DIMALTRND
 40
0.0
  9
$DIMAZIN
 70
     0
  9
$DIMDSEP
 70
    46
  9
$DIMATFIT
 70
     3
  9
$DIMFRAC
 70
     0
  9
$DIMLDRBLK
  1

  9
$DIMLUNIT
 70
     2
  9
$DIMLWD
 70
    -2
  9
$DIMLWE
 70
    -2
  9
$DIMTMOVE
 70
     0
  9
$LUNITS
 70
     2
  9
$LUPREC
 70
     3
  9
$SKETCHINC
 40
0.1
  9
$FILLETRAD
 40
0.5
  9
$AUNITS
 70
     0
  9
$AUPREC
 70
     2
  9
$MENU
  1
.
  9
$ELEVATION
 40
0.0
  9
$PELEVATION
 40
0.0
  9
$THICKNESS
 40
0.0
  9
$LIMCHECK
 70
     0
  9
$CHAMFERA
 40
0.0
  9
$CHAMFERB
 40
0.0
  9
$CHAMFERC
 40
0.0
  9
$CHAMFERD
 40
0.0
  9
$SKPOLY
 70
     0
  9
$TDCREATE
 40
2459269.374005394
  9
$TDUCREATE
 40
2459269.582338727
  9
$TDUPDATE
 40
2459269.374007222
  9
$TDUUPDATE
 40
2459269.582340556
  9
$TDINDWG
 40
0.0000000116
  9
$TDUSRTIMER
 40
0.0000000116
  9
$USRTIMER
 70
     1
  9
$ANGBASE
 50
0.0
  9
$ANGDIR
 70
     0
  9
$PDMODE
 70
     0
  9
$PDSIZE
 40
-1.0
  9
$PLINEWID
 40
0.0
  9
$SPLFRAME
 70
     0
  9
$SPLINETYPE
 70
     6
  9
$SPLINESEGS
 70
     8
  9
$HANDSEED
  5
34A
  9
$SURFTAB1
 70
     6
  9
$SURFTAB2
 70
     6
  9
$SURFTYPE
 70
     6
  9
$SURFU
 70
     6
  9
$SURFV
 70
     6
  9
$UCSBASE
  2

  9
$UCSNAME
  2

  9
$UCSORG
 10
0.0
 20
0.0
 30
0.0
  9
$UCSXDIR
 10
1.0
 20
0.0
 30
0.0
  9
$UCSYDIR
 10
0.0
 20
1.0
 30
0.0
  9
$UCSORTHOREF
  2

  9
$UCSORTHOVIEW
 70
     0
  9
$UCSORGTOP
 10
0.0
 20
0.0
 30
0.0
  9
$UCSORGBOTTOM
 10
0.0
 20
0.0
 30
0.0
  9
$UCSORGLEFT
 10
0.0
 20
0.0
 30
0.0
  9
$UCSORGRIGHT
 10
0.0
 20
0.0
 30
0.0
  9
$UCSORGFRONT
 10
0.0
 20
0.0
 30
0.0
  9
$UCSORGBACK
 10
0.0
 20
0.0
 30
0.0
  9
$PUCSBASE
  2

  9
$PUCSNAME
  2

  9
$PUCSORG
 10
0.0
 20
0.0
 30
0.0
  9
$PUCSXDIR
 10
1.0
 20
0.0
 30
0.0
  9
$PUCSYDIR
 10
0.0
 20
1.0
 30
0.0
  9
$PUCSORTHOREF
  2

  9
$PUCSORTHOVIEW
 70
     0
  9
$PUCSORGTOP
 10
0.0
 20
0.0
 30
0.0
  9
$PUCSORGBOTTOM
 10
0.0
 20
0.0
 30
0.0
  9
$PUCSORGLEFT
 10
0.0
 20
0.0
 30
0.0
  9
$PUCSORGRIGHT
 10
0.0
 20
0.0
 30
0.0
  9
$PUCSORGFRONT
 10
0.0
 20
0.0
 30
0.0
  9
$PUCSORGBACK
 10
0.0
 20
0.0
 30
0.0
  9
$USERI1
 70
     0
  9
$USERI2
 70
     0
  9
$USERI3
 70
     0
  9
$USERI4
 70
     0
  9
$USERI5
 70
     0
  9
$USERR1
 40
0.0
  9
$USERR2
 40
0.0
  9
$USERR3
 40
0.0
  9
$USERR4
 40
0.0
  9
$USERR5
 40
0.0
  9
$WORLDVIEW
 70
     1
  9
$SHADEDGE
 70
     3
  9
$SHADEDIF
 70
    70
  9
$TILEMODE
 70
     1
  9
$MAXACTVP
 70
    64
  9
$PINSBASE
 10
0.0
 20
0.0
 30
0.0
  9
$PLIMCHECK
 70
     0
  9
$PEXTMIN
 10
1.0000000000E+20
 20
1.0000000000E+20
 30
1.0000000000E+20
  9
$PEXTMAX
 10
-1.0000000000E+20
 20
-1.0000000000E+20
 30
-1.0000000000E+20
  9
$PLIMMIN
 10
0.0
 20
0.0
  9
$PLIMMAX
 10
12.0
 20
9.0
  9
$UNITMODE
 70
     0
  9
$VISRETAIN
 70
     1
  9
$PLINEGEN
 70
     0
  9
$PSLTSCALE
 70
     1
  9
$TREEDEPTH
 70
  3020
  9
$CMLSTYLE
  2
Standard
  9
$CMLJUST
 70
     0
  9
$CMLSCALE
 40
1.0
  9
$PROXYGRAPHICS
 70
     1
  9
$MEASUREMENT
 70
     0
  9
$CELWEIGHT
370
    -1
  9
$ENDCAPS
280
     0
  9
$JOINSTYLE
280
     0
  9
$LWDISPLAY
290
     1
  9
$INSUNITS
 70
     1
  9
$HYPERLINKBASE
  1

  9
$STYLESHEET
  1

  9
$XEDIT
290
     1
  9
$CEPSNTYPE
380
     0
  9
$PSTYLEMODE
290
     1
  9
$FINGERPRINTGUID
  2
{a3991cbb-4964-4f55-9d2c-f9444b1ca670}
  9
$VERSIONGUID
  2
{FAEB1C32-E019-11D5-929B-00C0DF256EC4}
  9
$EXTNAMES
290
     1
  9
$PSVPSCALE
 40
0.0
  9
$OLESTARTUP
290
     0
  0
ENDSEC
  0
SECTION
  2
CLASSES
  0
CLASS
  1
ACDBDICTIONARYWDFLT
  2
AcDbDictionaryWithDefault
  3
ObjectDBX Classes
 90
        0
280
     0
281
     0
  0
CLASS
  1
VISUALSTYLE
  2
AcDbVisualStyle
  3
ObjectDBX Classes
 90
     4095
280
     0
281
     0
  0
CLASS
  1
MATERIAL
  2
AcDbMaterial
  3
ObjectDBX Classes
 90
     1153
280
     0
281
     0
  0
CLASS
  1
SCALE
  2
AcDbScale
  3
ObjectDBX Classes
 90
     1153
280
     0
281
     0
  0
CLASS
  1
TABLESTYLE
  2
AcDbTableStyle
  3
ObjectDBX Classes
 90
     4095
280
     0
281
     0
  0
CLASS
  1
MLEADERSTYLE
  2
AcDbMLeaderStyle
  3
ACDB_MLEADERSTYLE_CLASS
 90
     4095
280
     0
281
     0
  0
CLASS
  1
SUN
  2
AcDbSun
  3
SCENEOE
 90
     1153
280
     0
281
     0
  0
CLASS
  1
ACDBPLACEHOLDER
  2
AcDbPlaceHolder
  3
ObjectDBX Classes
 90
        0
280
     0
281
     0
  0
CLASS
  1
LAYOUT
  2
AcDbLayout
  3
ObjectDBX Classes
 90
        0
280
     0
281
     0
  0
ENDSEC
  0
SECTION
  2
TABLES
  0
TABLE
  2
VPORT
  5
8
330
0
100
AcDbSymbolTable
 70
     1
  0
VPORT
  5
29
330
8
100
AcDbSymbolTableRecord
100
AcDbViewportTableRecord
  2
*Active
 70
     0
 10
0.0
 20
0.0
 11
1.0
 21
1.0
 12
15.0
 22
11.0
 13
0.0
 23
0.0
 14
0.5
 24
0.5
 15
0.5
 25
0.5
 16
0.0
 26
0.0
 36
1.0
 17
0.0
 27
0.0
 37
0.0
 40
22.0
 41
1.3636363636
 42
50.0
 43
0.0
 44
0.0
 50
0.0
 51
0.0
 71
     0
 72
  2000
 73
     1
 74
     3
 75
     0
 76
     0
 77
     0
 78
     0
281
     0
 65
     1
110
0.0
120
0.0
130
0.0
111
1.0
121
0.0
131
0.0
112
0.0
122
1.0
132
0.0
 79
     0
146
0.0
  0
ENDTAB
  0
TABLE
  2
LTYPE
  5
5
330
0
100
AcDbSymbolTable
 70
     6
  0
LTYPE
  5
14
330
5
100
AcDbSymbolTableRecord
100
AcDbLinetypeTableRecord
  2
ByBlock
 70
     0
  3

 72
    65
 73
     0
 40
0.0
  0
LTYPE
  5
15
330
5
100
AcDbSymbolTableRecord
100
AcDbLinetypeTableRecord
  2
ByLayer
 70
     0
  3

 72
    65
 73
     0
 40
0.0
  0
LTYPE
  5
16
330
5
100
AcDbSymbolTableRecord
100
AcDbLinetypeTableRecord
  2
Continuous
 70
     0
  3
Solid line
 72
    65
 73
     0
 40
0.0
  0
LTYPE
  5
6E
330
5
100
AcDbSymbolTableRecord
100
AcDbLinetypeTableRecord
  2
HIDDEN
 70
     0
  3
Hidden __ __ __ __ __ __ __ __ __ __ __ __ __ __
 72
    65
 73
     2
 40
0.075
 49
0.05
 74
     0
 49
-0.025
 74
     0
  0
LTYPE
  5
6F
330
5
100
AcDbSymbolTableRecord
100
AcDbLinetypeTableRecord
  2
PHANTOM
 70
     0
  3
Phantom ______  __  __  ______  __  __  ______
 72
    65
 73
     6
 40
0.5
 49
0.25
 74
     0
 49
-0.05
 74
     0
 49
0.05
 74
     0
 49
-0.05
 74
     0
 49
0.05
 74
     0
 49
-0.05
 74
     0
  0
LTYPE
  5
70
330
5
100
AcDbSymbolTableRecord
100
AcDbLinetypeTableRecord
  2
CENTER
 70
     0
  3
Center ____ _ ____ _ ____ _ ____ _ ____ _ ____
 72
    65
 73
     4
 40
0.4
 49
0.25
 74
     0
 49
-0.05
 74
     0
 49
0.05
 74
     0
 49
-0.05
 74
     0
  0
LTYPE
  5
71
330
5
100
AcDbSymbolTableRecord
100
AcDbLinetypeTableRecord
  2
CENTERX2
 70
     0
  3
Center (2x) ________  __  ________  __  _____
 72
    65
 73
     4
 40
0.8
 49
0.5
 74
     0
 49
-0.1
 74
     0
 49
0.1
 74
     0
 49
-0.1
 74
     0
  0
LTYPE
  5
72
330
5
100
AcDbSymbolTableRecord
100
AcDbLinetypeTableRecord
  2
DOT2
 70
     0
  3
Dot (.5x) ........................................
 72
    65
 73
     2
 40
0.025
 49
0.0
 74
     0
 49
-0.025
 74
     0
  0
ENDTAB
  0
TABLE
  2
LAYER
  5
2
330
0
100
AcDbSymbolTable
 70
     1
  0
LAYER
  5
10
330
2
100
AcDbSymbolTableRecord
100
AcDbLayerTableRecord
  2
0
 70
     0
 62
     7
  6
Continuous
370
    -3
390
F
  0
ENDTAB
  0
TABLE
  2
STYLE
  5
3
330
0
100
AcDbSymbolTable
 70
     4
  0
STYLE
  5
11
330
3
100
AcDbSymbolTableRecord
100
AcDbTextStyleTableRecord
  2
Standard
 70
     0
 40
0.0
 41
1.0
 50
0.0
 71
     0
 42
0.125
  3
txt
  4

  0
STYLE
  5
A6
330
3
100
AcDbSymbolTableRecord
100
AcDbTextStyleTableRecord
  2
SLDTEXTSTYLE0
 70
     0
 40
0.0
 41
0.75
 50
0.0
 71
     0
 42
0.125
  3
TXT
  4

  0
STYLE
  5
AA
330
3
100
AcDbSymbolTableRecord
100
AcDbTextStyleTableRecord
  2
SLDTEXTSTYLE1
 70
     0
 40
0.0
 41
0.6833333333
 50
0.0
 71
     0
 42
0.125
  3
TXT
  4

  0
STYLE
  5
1A0
330
3
100
AcDbSymbolTableRecord
100
AcDbTextStyleTableRecord
  2
SLDTEXTSTYLE2
 70
     0
 40
0.0
 41
0.6666666667
 50
0.0
 71
     0
 42
0.125
  3
TXT
  4

  0
ENDTAB
  0
TABLE
  2
VIEW
  5
6
330
0
100
AcDbSymbolTable
 70
     0
  0
ENDTAB
  0
TABLE
  2
UCS
  5
7
330
0
100
AcDbSymbolTable
 70
     0
  0
ENDTAB
  0
TABLE
  2
APPID
  5
9
330
0
100
AcDbSymbolTable
 70
     1
  0
APPID
  5
12
330
9
100
AcDbSymbolTableRecord
100
AcDbRegAppTableRecord
  2
ACAD
 70
     0
  0
ENDTAB
  0
TABLE
  2
DIMSTYLE
  5
A
330
0
100
AcDbSymbolTable
 70
     4
100
AcDbDimStyleTable
  0
DIMSTYLE
105
27
330
A
100
AcDbSymbolTableRecord
100
AcDbDimStyleTableRecord
  2
Standard
 70
     0
178
     0
340
11
  0
DIMSTYLE
105
166
102
{ACAD_REACTORS
330
165
330
17A
330
18E
330
272
102
}
330
A
100
AcDbSymbolTableRecord
100
AcDbDimStyleTableRecord
  2
SLDDIMSTYLE0
 70
     0
 41
0.13
 44
0.0
 45
0.000000001
 78
     4
 79
     1
140
0.125
147
0.03125
148
0.000000001
170
     1
173
     1
178
     0
271
     2
272
     2
276
     2
284
    12
340
A6
  0
DIMSTYLE
105
1A3
102
{ACAD_REACTORS
330
1A2
330
1B7
102
}
330
A
100
AcDbSymbolTableRecord
100
AcDbDimStyleTableRecord
  2
SLDDIMSTYLE1
 70
     0
 41
0.13
 44
0.0
 45
0.000000001
 78
    12
 79
     3
140
0.125
147
0.03125
148
0.000000001
170
     1
173
     1
178
     0
271
     2
272
     2
276
     2
284
    12
340
A6
  0
DIMSTYLE
105
1CC
102
{ACAD_REACTORS
330
1CB
102
}
330
A
100
AcDbSymbolTableRecord
100
AcDbDimStyleTableRecord
  2
SLDDIMSTYLE2
 70
     0
 41
0.13
 44
0.0
 45
0.000000001
 78
     4
 79
     1
140
0.125
141
0.0
147
0.03125
148
0.000000001
170
     1
172
     1
173
     1
178
     0
271
     2
272
     2
276
     2
284
    12
340
A6
341
1CD
343
1CD
  0
ENDTAB
  0
TABLE
  2
BLOCK_RECORD
  5
1
330
0
100
AcDbSymbolTable
 70
    17
  0
BLOCK_RECORD
  5
1F
330
1
100
AcDbSymbolTableRecord
100
AcDbBlockTableRecord
  2
*Model_Space
340
22
  0
BLOCK_RECORD
  5
1B
330
1
100
AcDbSymbolTableRecord
100
AcDbBlockTableRecord
  2
*Paper_Space
340
1E
  0
BLOCK_RECORD
  5
23
330
1
100
AcDbSymbolTableRecord
100
AcDbBlockTableRecord
  2
*Paper_Space0
340
26
  0
BLOCK_RECORD
  5
A3
330
1
100
AcDbSymbolTableRecord
100
AcDbBlockTableRecord
  2
SW_NOTE_0
340
0
102
{BLKREFS
331
B1
102
}
  0
BLOCK_RECORD
  5
B2
330
1
100
AcDbSymbolTableRecord
100
AcDbBlockTableRecord
  2
SW_NOTE_0_1
340
0
102
{BLKREFS
331
B9
102
}
  0
BLOCK_RECORD
  5
BA
330
1
100
AcDbSymbolTableRecord
100
AcDbBlockTableRecord
  2
SW_NOTE_0_2
340
0
102
{BLKREFS
331
BF
102
}
  0
BLOCK_RECORD
  5
C0
330
1
100
AcDbSymbolTableRecord
100
AcDbBlockTableRecord
  2
SW_NOTE_0_3
340
0
102
{BLKREFS
331
C5
102
}
  0
BLOCK_RECORD
  5
C6
330
1
100
AcDbSymbolTableRecord
100
AcDbBlockTableRecord
  2
SW_NOTE_0_4
340
0
102
{BLKREFS
331
CB
102
}
  0
BLOCK_RECORD
  5
167
330
1
100
AcDbSymbolTableRecord
100
AcDbBlockTableRecord
  2
_D
340
0
  0
BLOCK_RECORD
  5
17B
330
1
100
AcDbSymbolTableRecord
100
AcDbBlockTableRecord
  2
_D_1
340
0
  0
BLOCK_RECORD
  5
18F
330
1
100
AcDbSymbolTableRecord
100
AcDbBlockTableRecord
  2
_D_2
340
0
  0
BLOCK_RECORD
  5
1A4
330
1
100
AcDbSymbolTableRecord
100
AcDbBlockTableRecord
  2
_D_3
340
0
  0
BLOCK_RECORD
  5
1B8
330
1
100
AcDbSymbolTableRecord
100
AcDbBlockTableRecord
  2
_D_4
340
0
  0
BLOCK_RECORD
  5
1CD
330
1
100
AcDbSymbolTableRecord
100
AcDbBlockTableRecord
  2
_None
340
0
  0
BLOCK_RECORD
  5
1D0
330
1
100
AcDbSymbolTableRecord
100
AcDbBlockTableRecord
  2
_D_5
340
0
  0
BLOCK_RECORD
  5
1E0
330
1
100
AcDbSymbolTableRecord
100
AcDbBlockTableRecord
  2
SW_CENTERMARKSYMBOL_0
340
0
102
{BLKREFS
331
1EB
102
}
  0
BLOCK_RECORD
  5
1EC
330
1
100
AcDbSymbolTableRecord
100
AcDbBlockTableRecord
  2
SW_CENTERMARKSYMBOL_1
340
0
102
{BLKREFS
331
1F7
102
}
  0
BLOCK_RECORD
  5
1F8
330
1
100
AcDbSymbolTableRecord
100
AcDbBlockTableRecord
  2
SW_CENTERMARKSYMBOL_2
340
0
102
{BLKREFS
331
203
102
}
  0
BLOCK_RECORD
  5
273
330
1
100
AcDbSymbolTableRecord
100
AcDbBlockTableRecord
  2
_D_6
340
0
  0
ENDTAB
  0
ENDSEC
  0
SECTION
  2
BLOCKS
  0
BLOCK
  5
20
330
1F
100
AcDbEntity
  8
0
100
AcDbBlockBegin
  2
*Model_Space
 70
     0
 10
0.0
 20
0.0
 30
0.0
  3
*Model_Space
  1

  0
ENDBLK
  5
21
330
1F
100
AcDbEntity
  8
0
100
AcDbBlockEnd
  0
BLOCK
  5
1C
330
1B
100
AcDbEntity
 67
     1
  8
0
100
AcDbBlockBegin
  2
*Paper_Space
 70
     0
 10
0.0
 20
0.0
 30
0.0
  3
*Paper_Space
  1

  0
ENDBLK
  5
1D
330
1B
100
AcDbEntity
 67
     1
  8
0
100
AcDbBlockEnd
  0
BLOCK
  5
24
330
23
100
AcDbEntity
  8
0
100
AcDbBlockBegin
  2
*Paper_Space0
 70
     0
 10
0.0
 20
0.0
 30
0.0
  3
*Paper_Space0
  1

  0
ENDBLK
  5
25
330
23
100
AcDbEntity
  8
0
100
AcDbBlockEnd
  0
BLOCK
  5
A4
330
A3
100
AcDbEntity
  8
0
100
AcDbBlockBegin
  2
SW_NOTE_0
 70
     0
 10
0.0
 20
0.0
 30
0.0
  3
SW_NOTE_0
  1

  0
MTEXT
  5
A7
330
A3
100
AcDbEntity
  8
0
  6
Continuous
 62
     0
370
     0
100
AcDbMText
 10
0.0
 20
0.3222669349
 30
0.0
 40
0.25
 41
0.0
 71
     1
 72
     1
  1
NOTES:
  7
SLDTEXTSTYLE0
 73
     1
 44
1.0
  0
MTEXT
  5
A8
330
A3
100
AcDbEntity
  8
0
  6
Continuous
 62
     0
370
     0
100
AcDbMText
 10
0.3937007786
 20
-0.4231398941
 30
0.0
 40
0.25
 41
0.0
 71
     1
 72
     1
  1
MATERIAL: POLYCARBONATE.
  7
SLDTEXTSTYLE0
 73
     1
 44
1.0
  0
MTEXT
  5
A9
330
A3
100
AcDbEntity
  8
0
  6
Continuous
 62
     0
370
     0
100
AcDbMText
 10
0.0
 20
-0.4231398941
 30
0.0
 40
0.25
 41
0.0
 71
     1
 72
     1
  1
1.
  7
SLDTEXTSTYLE0
 73
     1
 44
1.0
  0
MTEXT
  5
AB
330
A3
100
AcDbEntity
  8
0
  6
Continuous
 62
     0
370
     0
100
AcDbMText
 10
0.4874507786
 20
-1.1685467231
 30
0.0
 40
0.25
 41
0.0
 71
     1
 72
     1
  1
QTY PER KIT - 2
  7
SLDTEXTSTYLE1
 73
     1
 44
1.0
  0
MTEXT
  5
AC
330
A3
100
AcDbEntity
  8
0
  6
Continuous
 62
     0
370
     0
100
AcDbMText
 10
0.0
 20
-1.1685467231
 30
0.0
 40
0.25
 41
0.0
 71
     1
 72
     1
  1
2.
  7
SLDTEXTSTYLE0
 73
     1
 44
1.0
  0
MTEXT
  5
AD
330
A3
100
AcDbEntity
  8
0
  6
Continuous
 62
     0
370
     0
100
AcDbMText
 10
0.3937007786
 20
-1.913953552
 30
0.0
 40
0.25
 41
0.0
 71
     1
 72
     1
  1
FITS: DPH-28714 & DPS-28714
  7
SLDTEXTSTYLE0
 73
     1
 44
1.0
  0
MTEXT
  5
AE
330
A3
100
AcDbEntity
  8
0
  6
Continuous
 62
     0
370
     0
100
AcDbMText
 10
0.0
 20
-1.913953552
 30
0.0
 40
0.25
 41
0.0
 71
     1
 72
     1
  1
3.
  7
SLDTEXTSTYLE0
 73
     1
 44
1.0
  0
MTEXT
  5
AF
330
A3
100
AcDbEntity
  8
0
  6
Continuous
 62
     0
370
     0
100
AcDbMText
 10
0.3937007786
 20
-2.659360381
 30
0.0
 40
0.25
 41
0.0
 71
     1
 72
     1
  1
SUPPLIED WITH DPX-103275X (X 4#10-32 X 3/4" LONG, PAN HEAD, EACH PHILLIPS, SS FOR DPH/S SERIES)
  7
SLDTEXTSTYLE0
 73
     1
 44
1.0
  0
MTEXT
  5
B0
330
A3
100
AcDbEntity
  8
0
  6
Continuous
 62
     0
370
     0
100
AcDbMText
 10
0.0
 20
-2.659360381
 30
0.0
 40
0.25
 41
0.0
 71
     1
 72
     1
  1
4.
  7
SLDTEXTSTYLE0
 73
     1
 44
1.0
  0
ENDBLK
  5
A5
330
A3
100
AcDbEntity
  8
0
100
AcDbBlockEnd
  0
BLOCK
  5
B3
330
B2
100
AcDbEntity
  8
0
100
AcDbBlockBegin
  2
SW_NOTE_0_1
 70
     0
 10
0.0
 20
0.0
 30
0.0
  3
SW_NOTE_0_1
  1

  0
MTEXT
  5
B5
330
B2
100
AcDbEntity
  8
0
  6
Continuous
 62
     0
370
     0
100
AcDbMText
 10
1.7024739583
 20
0.2685557791
 30
0.0
 40
0.2083333333
 41
0.0
 71
     2
 72
     1
  1
DRAWING FOR REFERENCE
  7
SLDTEXTSTYLE0
 73
     1
 44
1.0
  0
MTEXT
  5
B6
330
B2
100
AcDbEntity
  8
0
  6
Continuous
 62
     0
370
     0
100
AcDbMText
 10
1.6945168489
 20
-0.0485920805
 30
0.0
 40
0.2083333333
 41
0.0
 71
     2
 72
     1
  1
WE RESERVE THE RIGHT TO MAKE CHANGES TO OUR
  7
SLDTEXTSTYLE0
 73
     1
 44
1.0
  0
MTEXT
  5
B7
330
B2
100
AcDbEntity
  8
0
  6
Continuous
 62
     0
370
     0
100
AcDbMText
 10
1.6763360126
 20
-0.3657399401
 30
0.0
 40
0.2083333333
 41
0.0
 71
     2
 72
     1
  1
STANDARD PRODUCTS. PLEASE CONSULT WITH BUD INDUSTRIES
  7
SLDTEXTSTYLE0
 73
     1
 44
1.0
  0
MTEXT
  5
B8
330
B2
100
AcDbEntity
  8
0
  6
Continuous
 62
     0
370
     0
100
AcDbMText
 10
1.7117817199
 20
-0.6828877997
 30
0.0
 40
0.2083333333
 41
0.0
 71
     2
 72
     1
  1
PRIOR TO USING THIS DRAWING FOR DESIGN PURPOSE.
  7
SLDTEXTSTYLE0
 73
     1
 44
1.0
  0
ENDBLK
  5
B4
330
B2
100
AcDbEntity
  8
0
100
AcDbBlockEnd
  0
BLOCK
  5
BB
330
BA
100
AcDbEntity
  8
0
100
AcDbBlockBegin
  2
SW_NOTE_0_2
 70
     0
 10
0.0
 20
0.0
 30
0.0
  3
SW_NOTE_0_2
  1

  0
MTEXT
  5
BD
330
BA
100
AcDbEntity
  8
0
  6
Continuous
 62
     0
370
     0
100
AcDbMText
 10
0.189453125
 20
0.1611334675
 30
0.0
 40
0.125
 41
0.0
 71
     2
 72
     1
  1
PART
  7
SLDTEXTSTYLE0
 73
     1
 44
1.0
  0
MTEXT
  5
BE
330
BA
100
AcDbEntity
  8
0
  6
Continuous
 62
     0
370
     0
100
AcDbMText
 10
0.18777127
 20
-0.003236607
 30
0.0
 40
0.125
 41
0.0
 71
     2
 72
     1
  1
NAME
  7
SLDTEXTSTYLE0
 73
     1
 44
1.0
  0
ENDBLK
  5
BC
330
BA
100
AcDbEntity
  8
0
100
AcDbBlockEnd
  0
BLOCK
  5
C1
330
C0
100
AcDbEntity
  8
0
100
AcDbBlockBegin
  2
SW_NOTE_0_3
 70
     0
 10
0.0
 20
0.0
 30
0.0
  3
SW_NOTE_0_3
  1

  0
MTEXT
  5
C3
330
C0
100
AcDbEntity
  8
0
  6
Continuous
 62
     0
370
     0
100
AcDbMText
 10
0.189453125
 20
0.1611334675
 30
0.0
 40
0.125
 41
0.0
 71
     2
 72
     1
  1
PART
  7
SLDTEXTSTYLE0
 73
     1
 44
1.0
  0
MTEXT
  5
C4
330
C0
100
AcDbEntity
  8
0
  6
Continuous
 62
     0
370
     0
100
AcDbMText
 10
0.1950954881
 20
-0.003236607
 30
0.0
 40
0.125
 41
0.0
 71
     2
 72
     1
  1
No.
  7
SLDTEXTSTYLE0
 73
     1
 44
1.0
  0
ENDBLK
  5
C2
330
C0
100
AcDbEntity
  8
0
100
AcDbBlockEnd
  0
BLOCK
  5
C7
330
C6
100
AcDbEntity
  8
0
100
AcDbBlockBegin
  2
SW_NOTE_0_4
 70
     0
 10
0.0
 20
0.0
 30
0.0
  3
SW_NOTE_0_4
  1

  0
MTEXT
  5
C9
330
C6
100
AcDbEntity
  8
0
  6
Continuous
 62
     0
370
     0
100
AcDbMText
 10
0.3671875
 20
0.1611334675
 30
0.0
 40
0.125
 41
0.0
 71
     2
 72
     1
  1
REVISION
  7
SLDTEXTSTYLE0
 73
     1
 44
1.0
  0
MTEXT
  5
CA
330
C6
100
AcDbEntity
  8
0
  6
Continuous
 62
     0
370
     0
100
AcDbMText
 10
0.3534939236
 20
-0.003236607
 30
0.0
 40
0.125
 41
0.0
 71
     2
 72
     1
  1
DATE
  7
SLDTEXTSTYLE0
 73
     1
 44
1.0
  0
ENDBLK
  5
C8
330
C6
100
AcDbEntity
  8
0
100
AcDbBlockEnd
  0
BLOCK
  5
168
330
167
100
AcDbEntity
  8
0
100
AcDbBlockBegin
  2
_D
 70
     0
 10
0.0
 20
0.0
 30
0.0
  3
_D
  1

  0
SOLID
  5
16A
330
167
100
AcDbEntity
  8
0
  6
Continuous
 62
     7
370
    18
100
AcDbTrace
 10
14.2489041555
 20
14.7658750949
 30
0.0
 11
14.3789041555
 21
14.7458750949
 31
0.0
 12
14.3789041555
 22
14.7858750949
 32
0.0
 13
14.3789041555
 23
14.7858750949
 33
0.0
  0
SOLID
  5
16B
330
167
100
AcDbEntity
  8
0
  6
Continuous
 62
     7
370
    18
100
AcDbTrace
 10
17.2489041555
 20
14.7658750949
 30
0.0
 11
17.1189041555
 21
14.7858750949
 31
0.0
 12
17.1189041555
 22
14.7458750949
 32
0.0
 13
17.1189041555
 23
14.7458750949
 33
0.0
  0
LINE
  5
16C
330
167
100
AcDbEntity
  8
0
  6
Continuous
 62
     7
370
     0
100
AcDbLine
 10
15.5872722243
 20
14.7649202143
 30
0.0
 11
15.5491862872
 21
14.7649202143
 31
0.0
  0
LINE
  5
16D
330
167
100
AcDbEntity
  8
0
  6
Continuous
 62
     7
370
     0
100
AcDbLine
 10
15.5491862872
 20
14.7649202143
 30
0.0
 11
15.5491862872
 21
14.5664827083
 31
0.0
  0
LINE
  5
16E
330
167
100
AcDbEntity
  8
0
  6
Continuous
 62
     7
370
     0
100
AcDbLine
 10
15.5491862872
 20
14.5664827083
 30
0.0
 11
15.5872722243
 21
14.5664827083
 31
0.0
  0
LINE
  5
16F
330
167
100
AcDbEntity
  8
0
  6
Continuous
 62
     7
370
     0
100
AcDbLine
 10
15.9105361233
 20
14.7649202143
 30
0.0
 11
15.9486220604
 21
14.7649202143
 31
0.0
  0
LINE
  5
170
330
167
100
AcDbEntity
  8
0
  6
Continuous
 62
     7
370
     0
100
AcDbLine
 10
15.9486220604
 20
14.7649202143
 30
0.0
 11
15.9486220604
 21
14.5664827083
 31
0.0
  0
LINE
  5
171
330
167
100
AcDbEntity
  8
0
  6
Continuous
 62
     7
370
     0
100
AcDbLine
 10
15.9486220604
 20
14.5664827083
 30
0.0
 11
15.9105361233
 21
14.5664827083
 31
0.0
  0
LINE
  5
172
330
167
100
AcDbEntity
  8
0
  6
Continuous
 62
     7
370
     0
100
AcDbLine
 10
14.2489041555
 20
12.5636491191
 30
0.0
 11
14.2489041555
 21
14.8908750949
 31
0.0
  0
LINE
  5
173
330
167
100
AcDbEntity
  8
0
  6
Continuous
 62
     7
370
     0
100
AcDbLine
 10
17.2489041555
 20
13.4545704784
 30
0.0
 11
17.2489041555
 21
14.8908750949
 31
0.0
  0
LINE
  5
174
330
167
100
AcDbEntity
  8
0
  6
Continuous
 62
     7
370
     0
100
AcDbLine
 10
14.2489041555
 20
14.7658750949
 30
0.0
 11
15.4395429202
 21
14.7658750949
 31
0.0
  0
LINE
  5
175
330
167
100
AcDbEntity
  8
0
  6
Continuous
 62
     7
370
     0
100
AcDbLine
 10
17.2489041555
 20
14.7658750949
 30
0.0
 11
16.0582653907
 21
14.7658750949
 31
0.0
  0
MTEXT
  5
176
330
167
100
AcDbEntity
  8
0
  6
Continuous
 62
     7
370
    18
100
AcDbMText
 10
15.5117947944
 20
14.9533540418
 30
0.0
 40
0.125
 41
0.0
 71
     1
 72
     1
  1

  7
SLDTEXTSTYLE0
 73
     1
 44
1.0
  0
MTEXT
  5
177
330
167
100
AcDbEntity
  8
0
  6
Continuous
 62
     7
370
    18
100
AcDbMText
 10
15.5872722151
 20
14.9514443103
 30
0.0
 40
0.125
 41
0.0
 71
     1
 72
     1
  1
3.00
  7
SLDTEXTSTYLE0
 73
     1
 44
1.0
  0
MTEXT
  5
178
330
167
100
AcDbEntity
  8
0
  6
Continuous
 62
     7
370
    18
100
AcDbMText
 10
15.5872722243
 20
14.7276161895
 30
0.0
 40
0.125
 41
0.0
 71
     1
 72
     1
  1
76.2
  7
SLDTEXTSTYLE0
 73
     1
 44
1.0
  0
MTEXT
  5
179
330
167
100
AcDbEntity
  8
0
  6
Continuous
 62
     7
370
    18
100
AcDbMText
 10
16.03358297
 20
14.9533540418
 30
0.0
 40
0.125
 41
0.0
 71
     1
 72
     1
  1

  7
SLDTEXTSTYLE0
 73
     1
 44
1.0
  0
ENDBLK
  5
169
330
167
100
AcDbEntity
  8
0
100
AcDbBlockEnd
  0
BLOCK
  5
17C
330
17B
100
AcDbEntity
  8
0
100
AcDbBlockBegin
  2
_D_1
 70
     0
 10
0.0
 20
0.0
 30
0.0
  3
_D_1
  1

  0
SOLID
  5
17E
330
17B
100
AcDbEntity
  8
0
  6
Continuous
 62
     7
370
    18
100
AcDbTrace
 10
19.0599287618
 20
13.7545704784
 30
0.0
 11
19.0399287618
 21
13.6245704784
 31
0.0
 12
19.0799287618
 22
13.6245704784
 32
0.0
 13
19.0799287618
 23
13.6245704784
 33
0.0
  0
SOLID
  5
17F
330
17B
100
AcDbEntity
  8
0
  6
Continuous
 62
     7
370
    18
100
AcDbTrace
 10
19.0599287618
 20
4.2545704784
 30
0.0
 11
19.0799287618
 21
4.3845704784
 31
0.0
 12
19.0399287618
 22
4.3845704784
 32
0.0
 13
19.0399287618
 23
4.3845704784
 33
0.0
  0
LINE
  5
180
330
17B
100
AcDbEntity
  8
0
  6
Continuous
 62
     7
370
     0
100
AcDbLine
 10
18.8521162658
 20
9.0036155978
 30
0.0
 11
18.8140303286
 21
9.0036155978
 31
0.0
  0
LINE
  5
181
330
17B
100
AcDbEntity
  8
0
  6
Continuous
 62
     7
370
     0
100
AcDbLine
 10
18.8140303286
 20
9.0036155978
 30
0.0
 11
18.8140303286
 21
8.8051780918
 31
0.0
  0
LINE
  5
182
330
17B
100
AcDbEntity
  8
0
  6
Continuous
 62
     7
370
     0
100
AcDbLine
 10
18.8140303286
 20
8.8051780918
 30
0.0
 11
18.8521162658
 21
8.8051780918
 31
0.0
  0
LINE
  5
183
330
17B
100
AcDbEntity
  8
0
  6
Continuous
 62
     7
370
     0
100
AcDbLine
 10
19.2677412578
 20
9.0036155978
 30
0.0
 11
19.3058271949
 21
9.0036155978
 31
0.0
  0
LINE
  5
184
330
17B
100
AcDbEntity
  8
0
  6
Continuous
 62
     7
370
     0
100
AcDbLine
 10
19.3058271949
 20
9.0036155978
 30
0.0
 11
19.3058271949
 21
8.8051780918
 31
0.0
  0
LINE
  5
185
330
17B
100
AcDbEntity
  8
0
  6
Continuous
 62
     7
370
     0
100
AcDbLine
 10
19.3058271949
 20
8.8051780918
 30
0.0
 11
19.2677412578
 21
8.8051780918
 31
0.0
  0
LINE
  5
186
330
17B
100
AcDbEntity
  8
0
  6
Continuous
 62
     7
370
     0
100
AcDbLine
 10
16.9489041555
 20
13.7545704784
 30
0.0
 11
19.1849287618
 21
13.7545704784
 31
0.0
  0
LINE
  5
187
330
17B
100
AcDbEntity
  8
0
  6
Continuous
 62
     7
370
     0
100
AcDbLine
 10
16.9489041555
 20
4.2545704784
 30
0.0
 11
19.1849287618
 21
4.2545704784
 31
0.0
  0
LINE
  5
188
330
17B
100
AcDbEntity
  8
0
  6
Continuous
 62
     7
370
     0
100
AcDbLine
 10
19.0599287618
 20
13.7545704784
 30
0.0
 11
19.0599287618
 21
9.22935345
 31
0.0
  0
LINE
  5
189
330
17B
100
AcDbEntity
  8
0
  6
Continuous
 62
     7
370
     0
100
AcDbLine
 10
19.0599287618
 20
4.2545704784
 30
0.0
 11
19.0599287618
 21
8.7797875068
 31
0.0
  0
MTEXT
  5
18A
330
17B
100
AcDbEntity
  8
0
  6
Continuous
 62
     7
370
    18
100
AcDbMText
 10
18.7766388359
 20
9.1920494253
 30
0.0
 40
0.125
 41
0.0
 71
     1
 72
     1
  1

  7
SLDTEXTSTYLE0
 73
     1
 44
1.0
  0
MTEXT
  5
18B
330
17B
100
AcDbEntity
  8
0
  6
Continuous
 62
     7
370
    18
100
AcDbMText
 10
18.8982968031
 20
9.1901396938
 30
0.0
 40
0.125
 41
0.0
 71
     1
 72
     1
  1
9.50
  7
SLDTEXTSTYLE0
 73
     1
 44
1.0
  0
MTEXT
  5
18C
330
17B
100
AcDbEntity
  8
0
  6
Continuous
 62
     7
370
    18
100
AcDbMText
 10
18.8521162658
 20
8.966311573
 30
0.0
 40
0.125
 41
0.0
 71
     1
 72
     1
  1
241.3
  7
SLDTEXTSTYLE0
 73
     1
 44
1.0
  0
MTEXT
  5
18D
330
17B
100
AcDbEntity
  8
0
  6
Continuous
 62
     7
370
    18
100
AcDbMText
 10
19.3907881045
 20
9.1920494253
 30
0.0
 40
0.125
 41
0.0
 71
     1
 72
     1
  1

  7
SLDTEXTSTYLE0
 73
     1
 44
1.0
  0
ENDBLK
  5
17D
330
17B
100
AcDbEntity
  8
0
100
AcDbBlockEnd
  0
BLOCK
  5
190
330
18F
100
AcDbEntity
  8
0
100
AcDbBlockBegin
  2
_D_2
 70
     0
 10
0.0
 20
0.0
 30
0.0
  3
_D_2
  1

  0
SOLID
  5
192
330
18F
100
AcDbEntity
  8
0
  6
Continuous
 62
     7
370
    18
100
AcDbTrace
 10
17.2489041555
 20
14.29343415
 30
0.0
 11
17.1189041555
 21
14.31343415
 31
0.0
 12
17.1189041555
 22
14.27343415
 32
0.0
 13
17.1189041555
 23
14.27343415
 33
0.0
  0
SOLID
  5
193
330
18F
100
AcDbEntity
  8
0
  6
Continuous
 62
     7
370
    18
100
AcDbTrace
 10
16.7489041555
 20
14.29343415
 30
0.0
 11
16.8789041555
 21
14.27343415
 31
0.0
 12
16.8789041555
 22
14.31343415
 32
0.0
 13
16.8789041555
 23
14.31343415
 33
0.0
  0
LINE
  5
194
330
18F
100
AcDbEntity
  8
0
  6
Continuous
 62
     7
370
     0
100
AcDbLine
 10
15.6268404992
 20
14.2924792694
 30
0.0
 11
15.5887545621
 21
14.2924792694
 31
0.0
  0
LINE
  5
195
330
18F
100
AcDbEntity
  8
0
  6
Continuous
 62
     7
370
     0
100
AcDbLine
 10
15.5887545621
 20
14.2924792694
 30
0.0
 11
15.5887545621
 21
14.0940417634
 31
0.0
  0
LINE
  5
196
330
18F
100
AcDbEntity
  8
0
  6
Continuous
 62
     7
370
     0
100
AcDbLine
 10
15.5887545621
 20
14.0940417634
 30
0.0
 11
15.6268404992
 21
14.0940417634
 31
0.0
  0
LINE
  5
197
330
18F
100
AcDbEntity
  8
0
  6
Continuous
 62
     7
370
     0
100
AcDbLine
 10
15.9501043981
 20
14.2924792694
 30
0.0
 11
15.9881903352
 21
14.2924792694
 31
0.0
  0
LINE
  5
198
330
18F
100
AcDbEntity
  8
0
  6
Continuous
 62
     7
370
     0
100
AcDbLine
 10
15.9881903352
 20
14.2924792694
 30
0.0
 11
15.9881903352
 21
14.0940417634
 31
0.0
  0
LINE
  5
199
330
18F
100
AcDbEntity
  8
0
  6
Continuous
 62
     7
370
     0
100
AcDbLine
 10
15.9881903352
 20
14.0940417634
 30
0.0
 11
15.9501043981
 21
14.0940417634
 31
0.0
  0
LINE
  5
19A
330
18F
100
AcDbEntity
  8
0
  6
Continuous
 62
     7
370
     0
100
AcDbLine
 10
17.2489041555
 20
13.4545704784
 30
0.0
 11
17.2489041555
 21
14.41843415
 31
0.0
  0
LINE
  5
19B
330
18F
100
AcDbEntity
  8
0
  6
Continuous
 62
     7
370
     0
100
AcDbLine
 10
16.7489041555
 20
13.0050704784
 30
0.0
 11
16.7489041555
 21
14.41843415
 31
0.0
  0
LINE
  5
19C
330
18F
100
AcDbEntity
  8
0
  6
Continuous
 62
     7
370
     0
100
AcDbLine
 10
17.2489041555
 20
14.29343415
 30
0.0
 11
16.7489041555
 21
14.29343415
 31
0.0
  0
LINE
  5
19D
330
18F
100
AcDbEntity
  8
0
  6
Continuous
 62
     7
370
     0
100
AcDbLine
 10
16.7489041555
 20
14.29343415
 30
0.0
 11
16.3379378377
 21
14.29343415
 31
0.0
  0
MTEXT
  5
19E
330
18F
100
AcDbEntity
  8
0
  6
Continuous
 62
     7
370
    18
100
AcDbMText
 10
15.6730210548
 20
14.4790033654
 30
0.0
 40
0.125
 41
0.0
 71
     1
 72
     1
  1
.50
  7
SLDTEXTSTYLE0
 73
     1
 44
1.0
  0
MTEXT
  5
19F
330
18F
100
AcDbEntity
  8
0
  6
Continuous
 62
     7
370
    18
100
AcDbMText
 10
15.6268404992
 20
14.2551752447
 30
0.0
 40
0.125
 41
0.0
 71
     1
 72
     1
  1
12.7
  7
SLDTEXTSTYLE0
 73
     1
 44
1.0
  0
MTEXT
  5
1A1
330
18F
100
AcDbEntity
  8
0
  6
Continuous
 62
     7
370
    18
100
AcDbMText
 10
16.073151254
 20
14.4809130969
 30
0.0
 40
0.125
 41
0.0
 71
     1
 72
     1
  1
X 2
  7
SLDTEXTSTYLE2
 73
     1
 44
1.0
  0
ENDBLK
  5
191
330
18F
100
AcDbEntity
  8
0
100
AcDbBlockEnd
  0
BLOCK
  5
1A5
330
1A4
100
AcDbEntity
  8
0
100
AcDbBlockBegin
  2
_D_3
 70
     0
 10
0.0
 20
0.0
 30
0.0
  3
_D_3
  1

  0
SOLID
  5
1A7
330
1A4
100
AcDbEntity
  8
0
  6
Continuous
 62
     7
370
    18
100
AcDbTrace
 10
17.9640104345
 20
9.0045704784
 30
0.0
 11
17.9840104345
 21
9.1345704784
 31
0.0
 12
17.9440104345
 22
9.1345704784
 32
0.0
 13
17.9440104345
 23
9.1345704784
 33
0.0
  0
SOLID
  5
1A8
330
1A4
100
AcDbEntity
  8
0
  6
Continuous
 62
     7
370
    18
100
AcDbTrace
 10
17.9640104345
 20
12.7545704784
 30
0.0
 11
17.9440104345
 21
12.6245704784
 31
0.0
 12
17.9840104345
 22
12.6245704784
 32
0.0
 13
17.9840104345
 23
12.6245704784
 33
0.0
  0
LINE
  5
1A9
330
1A4
100
AcDbEntity
  8
0
  6
Continuous
 62
     7
370
     0
100
AcDbLine
 10
17.8023785033
 20
10.8786155978
 30
0.0
 11
17.7642925662
 21
10.8786155978
 31
0.0
  0
LINE
  5
1AA
330
1A4
100
AcDbEntity
  8
0
  6
Continuous
 62
     7
370
     0
100
AcDbLine
 10
17.7642925662
 20
10.8786155978
 30
0.0
 11
17.7642925662
 21
10.6801780918
 31
0.0
  0
LINE
  5
1AB
330
1A4
100
AcDbEntity
  8
0
  6
Continuous
 62
     7
370
     0
100
AcDbLine
 10
17.7642925662
 20
10.6801780918
 30
0.0
 11
17.8023785033
 21
10.6801780918
 31
0.0
  0
LINE
  5
1AC
330
1A4
100
AcDbEntity
  8
0
  6
Continuous
 62
     7
370
     0
100
AcDbLine
 10
18.1256424023
 20
10.8786155978
 30
0.0
 11
18.1637283394
 21
10.8786155978
 31
0.0
  0
LINE
  5
1AD
330
1A4
100
AcDbEntity
  8
0
  6
Continuous
 62
     7
370
     0
100
AcDbLine
 10
18.1637283394
 20
10.8786155978
 30
0.0
 11
18.1637283394
 21
10.6801780918
 31
0.0
  0
LINE
  5
1AE
330
1A4
100
AcDbEntity
  8
0
  6
Continuous
 62
     7
370
     0
100
AcDbLine
 10
18.1637283394
 20
10.6801780918
 30
0.0
 11
18.1256424023
 21
10.6801780918
 31
0.0
  0
LINE
  5
1AF
330
1A4
100
AcDbEntity
  8
0
  6
Continuous
 62
     7
370
     0
100
AcDbLine
 10
17.1989041555
 20
9.0045704784
 30
0.0
 11
18.0890104345
 21
9.0045704784
 31
0.0
  0
LINE
  5
1B0
330
1A4
100
AcDbEntity
  8
0
  6
Continuous
 62
     7
370
     0
100
AcDbLine
 10
16.9994041555
 20
12.7545704784
 30
0.0
 11
18.0890104345
 21
12.7545704784
 31
0.0
  0
LINE
  5
1B1
330
1A4
100
AcDbEntity
  8
0
  6
Continuous
 62
     7
370
     0
100
AcDbLine
 10
17.9640104345
 20
9.0045704784
 30
0.0
 11
17.9640104345
 21
10.6547875068
 31
0.0
  0
LINE
  5
1B2
330
1A4
100
AcDbEntity
  8
0
  6
Continuous
 62
     7
370
     0
100
AcDbLine
 10
17.9640104345
 20
12.7545704784
 30
0.0
 11
17.9640104345
 21
11.10435345
 31
0.0
  0
MTEXT
  5
1B3
330
1A4
100
AcDbEntity
  8
0
  6
Continuous
 62
     7
370
    18
100
AcDbMText
 10
17.7269010734
 20
11.0670494253
 30
0.0
 40
0.125
 41
0.0
 71
     1
 72
     1
  1

  7
SLDTEXTSTYLE0
 73
     1
 44
1.0
  0
MTEXT
  5
1B4
330
1A4
100
AcDbEntity
  8
0
  6
Continuous
 62
     7
370
    18
100
AcDbMText
 10
17.8023784942
 20
11.0651396938
 30
0.0
 40
0.125
 41
0.0
 71
     1
 72
     1
  1
3.75
  7
SLDTEXTSTYLE0
 73
     1
 44
1.0
  0
MTEXT
  5
1B5
330
1A4
100
AcDbEntity
  8
0
  6
Continuous
 62
     7
370
    18
100
AcDbMText
 10
17.8023785033
 20
10.841311573
 30
0.0
 40
0.125
 41
0.0
 71
     1
 72
     1
  1
95.3
  7
SLDTEXTSTYLE0
 73
     1
 44
1.0
  0
MTEXT
  5
1B6
330
1A4
100
AcDbEntity
  8
0
  6
Continuous
 62
     7
370
    18
100
AcDbMText
 10
18.248689249
 20
11.0670494253
 30
0.0
 40
0.125
 41
0.0
 71
     1
 72
     1
  1

  7
SLDTEXTSTYLE0
 73
     1
 44
1.0
  0
ENDBLK
  5
1A6
330
1A4
100
AcDbEntity
  8
0
100
AcDbBlockEnd
  0
BLOCK
  5
1B9
330
1B8
100
AcDbEntity
  8
0
100
AcDbBlockBegin
  2
_D_4
 70
     0
 10
0.0
 20
0.0
 30
0.0
  3
_D_4
  1

  0
SOLID
  5
1BB
330
1B8
100
AcDbEntity
  8
0
  6
Continuous
 62
     7
370
    18
100
AcDbTrace
 10
17.9640104345
 20
9.0045704784
 30
0.0
 11
17.9440104345
 21
8.8745704784
 31
0.0
 12
17.9840104345
 22
8.8745704784
 32
0.0
 13
17.9840104345
 23
8.8745704784
 33
0.0
  0
SOLID
  5
1BC
330
1B8
100
AcDbEntity
  8
0
  6
Continuous
 62
     7
370
    18
100
AcDbTrace
 10
17.9640104345
 20
5.2545704784
 30
0.0
 11
17.9840104345
 21
5.3845704784
 31
0.0
 12
17.9440104345
 22
5.3845704784
 32
0.0
 13
17.9440104345
 23
5.3845704784
 33
0.0
  0
LINE
  5
1BD
330
1B8
100
AcDbEntity
  8
0
  6
Continuous
 62
     7
370
     0
100
AcDbLine
 10
17.8023785033
 20
7.1286155978
 30
0.0
 11
17.7642925662
 21
7.1286155978
 31
0.0
  0
LINE
  5
1BE
330
1B8
100
AcDbEntity
  8
0
  6
Continuous
 62
     7
370
     0
100
AcDbLine
 10
17.7642925662
 20
7.1286155978
 30
0.0
 11
17.7642925662
 21
6.9301780918
 31
0.0
  0
LINE
  5
1BF
330
1B8
100
AcDbEntity
  8
0
  6
Continuous
 62
     7
370
     0
100
AcDbLine
 10
17.7642925662
 20
6.9301780918
 30
0.0
 11
17.8023785033
 21
6.9301780918
 31
0.0
  0
LINE
  5
1C0
330
1B8
100
AcDbEntity
  8
0
  6
Continuous
 62
     7
370
     0
100
AcDbLine
 10
18.1256424023
 20
7.1286155978
 30
0.0
 11
18.1637283394
 21
7.1286155978
 31
0.0
  0
LINE
  5
1C1
330
1B8
100
AcDbEntity
  8
0
  6
Continuous
 62
     7
370
     0
100
AcDbLine
 10
18.1637283394
 20
7.1286155978
 30
0.0
 11
18.1637283394
 21
6.9301780918
 31
0.0
  0
LINE
  5
1C2
330
1B8
100
AcDbEntity
  8
0
  6
Continuous
 62
     7
370
     0
100
AcDbLine
 10
18.1637283394
 20
6.9301780918
 30
0.0
 11
18.1256424023
 21
6.9301780918
 31
0.0
  0
LINE
  5
1C3
330
1B8
100
AcDbEntity
  8
0
  6
Continuous
 62
     7
370
     0
100
AcDbLine
 10
17.1989041555
 20
9.0045704784
 30
0.0
 11
18.0890104345
 21
9.0045704784
 31
0.0
  0
LINE
  5
1C4
330
1B8
100
AcDbEntity
  8
0
  6
Continuous
 62
     7
370
     0
100
AcDbLine
 10
16.9994041555
 20
5.2545704784
 30
0.0
 11
18.0890104345
 21
5.2545704784
 31
0.0
  0
LINE
  5
1C5
330
1B8
100
AcDbEntity
  8
0
  6
Continuous
 62
     7
370
     0
100
AcDbLine
 10
17.9640104345
 20
9.0045704784
 30
0.0
 11
17.9640104345
 21
7.35435345
 31
0.0
  0
LINE
  5
1C6
330
1B8
100
AcDbEntity
  8
0
  6
Continuous
 62
     7
370
     0
100
AcDbLine
 10
17.9640104345
 20
5.2545704784
 30
0.0
 11
17.9640104345
 21
6.9047875068
 31
0.0
  0
MTEXT
  5
1C7
330
1B8
100
AcDbEntity
  8
0
  6
Continuous
 62
     7
370
    18
100
AcDbMText
 10
17.7269010734
 20
7.3170494253
 30
0.0
 40
0.125
 41
0.0
 71
     1
 72
     1
  1

  7
SLDTEXTSTYLE0
 73
     1
 44
1.0
  0
MTEXT
  5
1C8
330
1B8
100
AcDbEntity
  8
0
  6
Continuous
 62
     7
370
    18
100
AcDbMText
 10
17.8023784942
 20
7.3151396938
 30
0.0
 40
0.125
 41
0.0
 71
     1
 72
     1
  1
3.75
  7
SLDTEXTSTYLE0
 73
     1
 44
1.0
  0
MTEXT
  5
1C9
330
1B8
100
AcDbEntity
  8
0
  6
Continuous
 62
     7
370
    18
100
AcDbMText
 10
17.8023785033
 20
7.091311573
 30
0.0
 40
0.125
 41
0.0
 71
     1
 72
     1
  1
95.3
  7
SLDTEXTSTYLE0
 73
     1
 44
1.0
  0
MTEXT
  5
1CA
330
1B8
100
AcDbEntity
  8
0
  6
Continuous
 62
     7
370
    18
100
AcDbMText
 10
18.248689249
 20
7.3170494253
 30
0.0
 40
0.125
 41
0.0
 71
     1
 72
     1
  1

  7
SLDTEXTSTYLE0
 73
     1
 44
1.0
  0
ENDBLK
  5
1BA
330
1B8
100
AcDbEntity
  8
0
100
AcDbBlockEnd
  0
BLOCK
  5
1CE
330
1CD
100
AcDbEntity
  8
0
100
AcDbBlockBegin
  2
_None
 70
     0
 10
0.0
 20
0.0
 30
0.0
  3
_None
  1

  0
ENDBLK
  5
1CF
330
1CD
100
AcDbEntity
  8
0
100
AcDbBlockEnd
  0
BLOCK
  5
1D1
330
1D0
100
AcDbEntity
  8
0
100
AcDbBlockBegin
  2
_D_5
 70
     0
 10
0.0
 20
0.0
 30
0.0
  3
_D_5
  1

  0
SOLID
  5
1D3
330
1D0
100
AcDbEntity
  8
0
  6
Continuous
 62
     7
370
    18
100
AcDbTrace
 10
16.8111446713
 20
12.8334778177
 30
0.0
 11
16.9073577443
 21
12.9231608405
 31
0.0
 12
16.8759518381
 22
12.9479331851
 32
0.0
 13
16.8759518381
 23
12.9479331851
 33
0.0
  0
LINE
  5
1D4
330
1D0
100
AcDbEntity
  8
0
  6
Continuous
 62
     7
370
     0
100
AcDbLine
 10
18.1819865731
 20
14.2924792877
 30
0.0
 11
18.143900636
 21
14.2924792877
 31
0.0
  0
LINE
  5
1D5
330
1D0
100
AcDbEntity
  8
0
  6
Continuous
 62
     7
370
     0
100
AcDbLine
 10
18.143900636
 20
14.2924792877
 30
0.0
 11
18.143900636
 21
14.0940417818
 31
0.0
  0
LINE
  5
1D6
330
1D0
100
AcDbEntity
  8
0
  6
Continuous
 62
     7
370
     0
100
AcDbLine
 10
18.143900636
 20
14.0940417818
 30
0.0
 11
18.1819865731
 21
14.0940417818
 31
0.0
  0
LINE
  5
1D7
330
1D0
100
AcDbEntity
  8
0
  6
Continuous
 62
     7
370
     0
100
AcDbLine
 10
18.4128893424
 20
14.2924792877
 30
0.0
 11
18.4509752795
 21
14.2924792877
 31
0.0
  0
LINE
  5
1D8
330
1D0
100
AcDbEntity
  8
0
  6
Continuous
 62
     7
370
     0
100
AcDbLine
 10
18.4509752795
 20
14.2924792877
 30
0.0
 11
18.4509752795
 21
14.0940417818
 31
0.0
  0
LINE
  5
1D9
330
1D0
100
AcDbEntity
  8
0
  6
Continuous
 62
     7
370
     0
100
AcDbLine
 10
18.4509752795
 20
14.0940417818
 30
0.0
 11
18.4128893424
 21
14.0940417818
 31
0.0
  0
LINE
  5
1DA
330
1D0
100
AcDbEntity
  8
0
  6
Continuous
 62
     7
370
     0
100
AcDbLine
 10
16.8111446713
 20
12.8334778177
 30
0.0
 11
17.9627287445
 21
14.29343415
 31
0.0
  0
LINE
  5
1DB
330
1D0
100
AcDbEntity
  8
0
  6
Continuous
 62
     7
370
     0
100
AcDbLine
 10
17.9627287445
 20
14.29343415
 30
0.0
 11
18.0877287445
 21
14.29343415
 31
0.0
  0
MTEXT
  5
1DC
330
1D0
100
AcDbEntity
  8
0
  6
Continuous
 62
     7
370
    18
100
AcDbMText
 10
18.0877287445
 20
14.4790033929
 30
0.0
 40
0.125
 41
0.0
 71
     1
 72
     1
  1
%%c
  7
SLDTEXTSTYLE0
 73
     1
 44
1.0
  0
MTEXT
  5
1DD
330
1D0
100
AcDbEntity
  8
0
  6
Continuous
 62
     7
370
    18
100
AcDbMText
 10
18.2762443651
 20
14.4790033929
 30
0.0
 40
0.125
 41
0.0
 71
     1
 72
     1
  1
.20
  7
SLDTEXTSTYLE0
 73
     1
 44
1.0
  0
MTEXT
  5
1DE
330
1D0
100
AcDbEntity
  8
0
  6
Continuous
 62
     7
370
    18
100
AcDbMText
 10
18.1819865731
 20
14.255175263
 30
0.0
 40
0.125
 41
0.0
 71
     1
 72
     1
  1
5.1
  7
SLDTEXTSTYLE0
 73
     1
 44
1.0
  0
MTEXT
  5
1DF
330
1D0
100
AcDbEntity
  8
0
  6
Continuous
 62
     7
370
    18
100
AcDbMText
 10
18.5540221527
 20
14.4809131152
 30
0.0
 40
0.125
 41
0.0
 71
     1
 72
     1
  1
X 2
  7
SLDTEXTSTYLE2
 73
     1
 44
1.0
  0
ENDBLK
  5
1D2
330
1D0
100
AcDbEntity
  8
0
100
AcDbBlockEnd
  0
BLOCK
  5
1E1
330
1E0
100
AcDbEntity
  8
0
100
AcDbBlockBegin
  2
SW_CENTERMARKSYMBOL_0
 70
     0
 10
0.0
 20
0.0
 30
0.0
  3
SW_CENTERMARKSYMBOL_0
  1

  0
LINE
  5
1E3
330
1E0
100
AcDbEntity
  8
0
  6
Continuous
 62
     0
370
    18
100
AcDbLine
 10
0.0
 20
0.0
 30
0.0
 11
0.0
 21
0.1
 31
0.0
  0
LINE
  5
1E4
330
1E0
100
AcDbEntity
  8
0
  6
Continuous
 62
     0
370
    18
100
AcDbLine
 10
0.0
 20
0.0
 30
0.0
 11
-0.1
 21
0.0
 31
0.0
  0
LINE
  5
1E5
330
1E0
100
AcDbEntity
  8
0
  6
Continuous
 62
     0
370
    18
100
AcDbLine
 10
0.0
 20
0.0
 30
0.0
 11
0.0
 21
-0.1
 31
0.0
  0
LINE
  5
1E6
330
1E0
100
AcDbEntity
  8
0
  6
Continuous
 62
     0
370
    18
100
AcDbLine
 10
0.0
 20
0.0
 30
0.0
 11
0.1
 21
0.0
 31
0.0
  0
LINE
  5
1E7
330
1E0
100
AcDbEntity
  8
0
  6
Continuous
 62
     0
370
    18
100
AcDbLine
 10
0.0
 20
0.2
 30
0.0
 11
0.0
 21
0.2005
 31
0.0
  0
LINE
  5
1E8
330
1E0
100
AcDbEntity
  8
0
  6
Continuous
 62
     0
370
    18
100
AcDbLine
 10
-0.2
 20
0.0
 30
0.0
 11
-0.2005
 21
0.0
 31
0.0
  0
LINE
  5
1E9
330
1E0
100
AcDbEntity
  8
0
  6
Continuous
 62
     0
370
    18
100
AcDbLine
 10
0.0
 20
-0.2
 30
0.0
 11
0.0
 21
-0.2005
 31
0.0
  0
LINE
  5
1EA
330
1E0
100
AcDbEntity
  8
0
  6
Continuous
 62
     0
370
    18
100
AcDbLine
 10
0.2
 20
0.0
 30
0.0
 11
0.2005
 21
0.0
 31
0.0
  0
ENDBLK
  5
1E2
330
1E0
100
AcDbEntity
  8
0
100
AcDbBlockEnd
  0
BLOCK
  5
1ED
330
1EC
100
AcDbEntity
  8
0
100
AcDbBlockBegin
  2
SW_CENTERMARKSYMBOL_1
 70
     0
 10
0.0
 20
0.0
 30
0.0
  3
SW_CENTERMARKSYMBOL_1
  1

  0
LINE
  5
1EF
330
1EC
100
AcDbEntity
  8
0
  6
Continuous
 62
     0
370
    18
100
AcDbLine
 10
0.0
 20
0.0
 30
0.0
 11
0.0
 21
0.1
 31
0.0
  0
LINE
  5
1F0
330
1EC
100
AcDbEntity
  8
0
  6
Continuous
 62
     0
370
    18
100
AcDbLine
 10
0.0
 20
0.0
 30
0.0
 11
-0.1
 21
0.0
 31
0.0
  0
LINE
  5
1F1
330
1EC
100
AcDbEntity
  8
0
  6
Continuous
 62
     0
370
    18
100
AcDbLine
 10
0.0
 20
0.0
 30
0.0
 11
0.0
 21
-0.1
 31
0.0
  0
LINE
  5
1F2
330
1EC
100
AcDbEntity
  8
0
  6
Continuous
 62
     0
370
    18
100
AcDbLine
 10
0.0
 20
0.0
 30
0.0
 11
0.1
 21
0.0
 31
0.0
  0
LINE
  5
1F3
330
1EC
100
AcDbEntity
  8
0
  6
Continuous
 62
     0
370
    18
100
AcDbLine
 10
0.0
 20
0.2
 30
0.0
 11
0.0
 21
0.2005
 31
0.0
  0
LINE
  5
1F4
330
1EC
100
AcDbEntity
  8
0
  6
Continuous
 62
     0
370
    18
100
AcDbLine
 10
-0.2
 20
0.0
 30
0.0
 11
-0.2005
 21
0.0
 31
0.0
  0
LINE
  5
1F5
330
1EC
100
AcDbEntity
  8
0
  6
Continuous
 62
     0
370
    18
100
AcDbLine
 10
0.0
 20
-0.2
 30
0.0
 11
0.0
 21
-0.2005
 31
0.0
  0
LINE
  5
1F6
330
1EC
100
AcDbEntity
  8
0
  6
Continuous
 62
     0
370
    18
100
AcDbLine
 10
0.2
 20
0.0
 30
0.0
 11
0.2005
 21
0.0
 31
0.0
  0
ENDBLK
  5
1EE
330
1EC
100
AcDbEntity
  8
0
100
AcDbBlockEnd
  0
BLOCK
  5
1F9
330
1F8
100
AcDbEntity
  8
0
100
AcDbBlockBegin
  2
SW_CENTERMARKSYMBOL_2
 70
     0
 10
0.0
 20
0.0
 30
0.0
  3
SW_CENTERMARKSYMBOL_2
  1

  0
LINE
  5
1FB
330
1F8
100
AcDbEntity
  8
0
  6
Continuous
 62
     0
370
    18
100
AcDbLine
 10
0.0
 20
0.0
 30
0.0
 11
0.0
 21
0.1
 31
0.0
  0
LINE
  5
1FC
330
1F8
100
AcDbEntity
  8
0
  6
Continuous
 62
     0
370
    18
100
AcDbLine
 10
0.0
 20
0.0
 30
0.0
 11
-0.1
 21
0.0
 31
0.0
  0
LINE
  5
1FD
330
1F8
100
AcDbEntity
  8
0
  6
Continuous
 62
     0
370
    18
100
AcDbLine
 10
0.0
 20
0.0
 30
0.0
 11
0.0
 21
-0.1
 31
0.0
  0
LINE
  5
1FE
330
1F8
100
AcDbEntity
  8
0
  6
Continuous
 62
     0
370
    18
100
AcDbLine
 10
0.0
 20
0.0
 30
0.0
 11
0.1
 21
0.0
 31
0.0
  0
LINE
  5
1FF
330
1F8
100
AcDbEntity
  8
0
  6
Continuous
 62
     0
370
    18
100
AcDbLine
 10
0.0
 20
0.2
 30
0.0
 11
0.0
 21
0.2005
 31
0.0
  0
LINE
  5
200
330
1F8
100
AcDbEntity
  8
0
  6
Continuous
 62
     0
370
    18
100
AcDbLine
 10
-0.2
 20
0.0
 30
0.0
 11
-0.2005
 21
0.0
 31
0.0
  0
LINE
  5
201
330
1F8
100
AcDbEntity
  8
0
  6
Continuous
 62
     0
370
    18
100
AcDbLine
 10
0.0
 20
-0.2
 30
0.0
 11
0.0
 21
-0.2005
 31
0.0
  0
LINE
  5
202
330
1F8
100
AcDbEntity
  8
0
  6
Continuous
 62
     0
370
    18
100
AcDbLine
 10
0.2
 20
0.0
 30
0.0
 11
0.2005
 21
0.0
 31
0.0
  0
ENDBLK
  5
1FA
330
1F8
100
AcDbEntity
  8
0
100
AcDbBlockEnd
  0
BLOCK
  5
274
330
273
100
AcDbEntity
  8
0
100
AcDbBlockBegin
  2
_D_6
 70
     0
 10
0.0
 20
0.0
 30
0.0
  3
_D_6
  1

  0
SOLID
  5
276
330
273
100
AcDbEntity
  8
0
  6
Continuous
 62
     7
370
    18
100
AcDbTrace
 10
7.5069289229
 20
15.4745365122
 30
0.0
 11
7.3769289229
 21
15.4945365122
 31
0.0
 12
7.3769289229
 22
15.4545365122
 32
0.0
 13
7.3769289229
 23
15.4545365122
 33
0.0
  0
SOLID
  5
277
330
273
100
AcDbEntity
  8
0
  6
Continuous
 62
     7
370
    18
100
AcDbTrace
 10
7.0069289229
 20
15.4745365122
 30
0.0
 11
7.1369289229
 21
15.4545365122
 31
0.0
 12
7.1369289229
 22
15.4945365122
 32
0.0
 13
7.1369289229
 23
15.4945365122
 33
0.0
  0
LINE
  5
278
330
273
100
AcDbEntity
  8
0
  6
Continuous
 62
     7
370
     0
100
AcDbLine
 10
6.0391910338
 20
15.4735816316
 30
0.0
 11
6.0011050967
 21
15.4735816316
 31
0.0
  0
LINE
  5
279
330
273
100
AcDbEntity
  8
0
  6
Continuous
 62
     7
370
     0
100
AcDbLine
 10
6.0011050967
 20
15.4735816316
 30
0.0
 11
6.0011050967
 21
15.2751441256
 31
0.0
  0
LINE
  5
27A
330
273
100
AcDbEntity
  8
0
  6
Continuous
 62
     7
370
     0
100
AcDbLine
 10
6.0011050967
 20
15.2751441256
 30
0.0
 11
6.0391910338
 21
15.2751441256
 31
0.0
  0
LINE
  5
27B
330
273
100
AcDbEntity
  8
0
  6
Continuous
 62
     7
370
     0
100
AcDbLine
 10
6.3624549328
 20
15.4735816316
 30
0.0
 11
6.4005408699
 21
15.4735816316
 31
0.0
  0
LINE
  5
27C
330
273
100
AcDbEntity
  8
0
  6
Continuous
 62
     7
370
     0
100
AcDbLine
 10
6.4005408699
 20
15.4735816316
 30
0.0
 11
6.4005408699
 21
15.2751441256
 31
0.0
  0
LINE
  5
27D
330
273
100
AcDbEntity
  8
0
  6
Continuous
 62
     7
370
     0
100
AcDbLine
 10
6.4005408699
 20
15.2751441256
 30
0.0
 11
6.3624549328
 21
15.2751441256
 31
0.0
  0
LINE
  5
27E
330
273
100
AcDbEntity
  8
0
  6
Continuous
 62
     7
370
     0
100
AcDbLine
 10
7.5069289229
 20
13.6882149549
 30
0.0
 11
7.5069289229
 21
15.5995365122
 31
0.0
  0
LINE
  5
27F
330
273
100
AcDbEntity
  8
0
  6
Continuous
 62
     7
370
     0
100
AcDbLine
 10
7.0069289229
 20
13.8045704784
 30
0.0
 11
7.0069289229
 21
15.5995365122
 31
0.0
  0
LINE
  5
280
330
273
100
AcDbEntity
  8
0
  6
Continuous
 62
     7
370
     0
100
AcDbLine
 10
7.5069289229
 20
15.4745365122
 30
0.0
 11
7.0069289229
 21
15.4745365122
 31
0.0
  0
LINE
  5
281
330
273
100
AcDbEntity
  8
0
  6
Continuous
 62
     7
370
     0
100
AcDbLine
 10
7.0069289229
 20
15.4745365122
 30
0.0
 11
6.5101842002
 21
15.4745365122
 31
0.0
  0
MTEXT
  5
282
330
273
100
AcDbEntity
  8
0
  6
Continuous
 62
     7
370
    18
100
AcDbMText
 10
5.9637136039
 20
15.6620154591
 30
0.0
 40
0.125
 41
0.0
 71
     1
 72
     1
  1

  7
SLDTEXTSTYLE0
 73
     1
 44
1.0
  0
MTEXT
  5
283
330
273
100
AcDbEntity
  8
0
  6
Continuous
 62
     7
370
    18
100
AcDbMText
 10
6.0853715895
 20
15.6601057276
 30
0.0
 40
0.125
 41
0.0
 71
     1
 72
     1
  1
.50
  7
SLDTEXTSTYLE0
 73
     1
 44
1.0
  0
MTEXT
  5
284
330
273
100
AcDbEntity
  8
0
  6
Continuous
 62
     7
370
    18
100
AcDbMText
 10
6.0391910338
 20
15.4362776069
 30
0.0
 40
0.125
 41
0.0
 71
     1
 72
     1
  1
12.7
  7
SLDTEXTSTYLE0
 73
     1
 44
1.0
  0
MTEXT
  5
285
330
273
100
AcDbEntity
  8
0
  6
Continuous
 62
     7
370
    18
100
AcDbMText
 10
6.4855017795
 20
15.6620154591
 30
0.0
 40
0.125
 41
0.0
 71
     1
 72
     1
  1

  7
SLDTEXTSTYLE0
 73
     1
 44
1.0
  0
ENDBLK
  5
275
330
273
100
AcDbEntity
  8
0
100
AcDbBlockEnd
  0
ENDSEC
  0
SECTION
  2
ENTITIES
  0
LINE
  5
73
330
1F
100
AcDbEntity
  8
0
  6
Continuous
 62
     7
370
    18
100
AcDbLine
 10
0.3132516046
 20
21.6547094286
 30
0.0
 11
29.6806766458
 21
21.6547094286
 31
0.0
  0
LINE
  5
74
330
1F
100
AcDbEntity
  8
0
  6
Continuous
 62
     7
370
    18
100
AcDbLine
 10
29.6806766458
 20
0.3290731707
 30
0.0
 11
29.6806766458
 21
21.6547094286
 31
0.0
  0
LINE
  5
75
330
1F
100
AcDbEntity
  8
0
  6
Continuous
 62
     7
370
    18
100
AcDbLine
 10
29.6806766458
 20
0.3290731707
 30
0.0
 11
0.3132516046
 21
0.3290731707
 31
0.0
  0
LINE
  5
76
330
1F
100
AcDbEntity
  8
0
  6
Continuous
 62
     7
370
    18
100
AcDbLine
 10
0.3132516046
 20
21.6547094286
 30
0.0
 11
0.3132516046
 21
0.3290731707
 31
0.0
  0
LINE
  5
77
330
1F
100
AcDbEntity
  8
0
  6
Continuous
 62
     7
370
    18
100
AcDbLine
 10
0.2512516046
 20
21.7112959898
 30
0.0
 11
29.736905992
 21
21.7112959898
 31
0.0
  0
LINE
  5
78
330
1F
100
AcDbEntity
  8
0
  6
Continuous
 62
     7
370
    18
100
AcDbLine
 10
29.736905992
 20
0.2670731707
 30
0.0
 11
0.2512516046
 21
0.2670731707
 31
0.0
  0
LINE
  5
79
330
1F
100
AcDbEntity
  8
0
  6
Continuous
 62
     7
370
    18
100
AcDbLine
 10
0.2512516046
 20
21.7112959898
 30
0.0
 11
0.2512516046
 21
0.2670731707
 31
0.0
  0
LINE
  5
7A
330
1F
100
AcDbEntity
  8
0
  6
Continuous
 62
     7
370
    18
100
AcDbLine
 10
29.736905992
 20
0.2670731707
 30
0.0
 11
29.736905992
 21
21.7112959898
 31
0.0
  0
LINE
  5
7B
330
1F
100
AcDbEntity
  8
0
  6
Continuous
 62
     7
370
    18
100
AcDbLine
 10
0.3132516046
 20
21.0474115071
 30
0.0
 11
29.6806766458
 21
21.0474115071
 31
0.0
  0
LINE
  5
7C
330
1F
100
AcDbEntity
  8
0
  6
Continuous
 62
     7
370
    18
100
AcDbLine
 10
1.8437192207
 20
21.6547094286
 30
0.0
 11
1.8437192207
 21
21.0474115071
 31
0.0
  0
LINE
  5
7D
330
1F
100
AcDbEntity
  8
0
  6
Continuous
 62
     7
370
    18
100
AcDbLine
 10
1.1108318837
 20
21.6547094286
 30
0.0
 11
1.1108318837
 21
21.0474115071
 31
0.0
  0
LINE
  5
7E
330
1F
100
AcDbEntity
  8
0
  6
Continuous
 62
     7
370
    18
100
AcDbLine
 10
26.4279502466
 20
21.6547094286
 30
0.0
 11
26.4279502466
 21
21.0474115071
 31
0.0
  0
LINE
  5
7F
330
1F
100
AcDbEntity
  8
0
  6
Continuous
 62
     7
370
    18
100
AcDbLine
 10
26.492176063
 20
21.6547094286
 30
0.0
 11
26.492176063
 21
21.0474115071
 31
0.0
  0
LINE
  5
80
330
1F
100
AcDbEntity
  8
0
  6
Continuous
 62
     7
370
    18
100
AcDbLine
 10
27.492176063
 20
21.6547094286
 30
0.0
 11
27.492176063
 21
21.0474115071
 31
0.0
  0
LINE
  5
81
330
1F
100
AcDbEntity
  8
0
  6
Continuous
 62
     7
370
    18
100
AcDbLine
 10
0.4348627823
 20
21.2300617377
 30
0.0
 11
0.4348627823
 21
21.4955964918
 31
0.0
  0
LINE
  5
82
330
1F
100
AcDbEntity
  8
0
  6
Continuous
 62
     7
370
    18
100
AcDbLine
 10
0.6197680095
 20
21.2466576598
 30
0.0
 11
0.6197680095
 21
21.4955964918
 31
0.0
  0
LINE
  5
83
330
1F
100
AcDbEntity
  8
0
  6
Continuous
 62
     7
370
    18
100
AcDbLine
 10
0.691418785
 20
21.2733855748
 30
0.0
 11
0.691418785
 21
21.4955964918
 31
0.0
  0
LINE
  5
84
330
1F
100
AcDbEntity
  8
0
  6
Continuous
 62
     7
370
    18
100
AcDbLine
 10
0.6683056316
 20
21.2733855748
 30
0.0
 11
0.6683056316
 21
21.4955964918
 31
0.0
  0
LINE
  5
85
330
1F
100
AcDbEntity
  8
0
  6
Continuous
 62
     7
370
    18
100
AcDbLine
 10
0.7942669867
 20
21.2300617377
 30
0.0
 11
0.7942669867
 21
21.4955964918
 31
0.0
  0
LINE
  5
86
330
1F
100
AcDbEntity
  8
0
  6
Continuous
 62
     7
370
    18
100
AcDbLine
 10
0.7399564071
 20
21.2466576598
 30
0.0
 11
0.7399564071
 21
21.4955964918
 31
0.0
  0
LINE
  5
87
330
1F
100
AcDbEntity
  8
0
  6
Continuous
 62
     7
370
    18
100
AcDbLine
 10
0.6363639316
 20
21.2300617377
 30
0.0
 11
0.723360485
 21
21.2300617377
 31
0.0
  0
LINE
  5
88
330
1F
100
AcDbEntity
  8
0
  6
Continuous
 62
     7
370
    18
100
AcDbLine
 10
0.4348627823
 20
21.2300617377
 30
0.0
 11
0.5203814499
 21
21.2300617377
 31
0.0
  0
LINE
  5
89
330
1F
100
AcDbEntity
  8
0
  6
Continuous
 62
     7
370
    18
100
AcDbLine
 10
0.5203814499
 20
21.3561907459
 30
0.0
 11
0.4475750167
 21
21.3561907459
 31
0.0
  0
LINE
  5
8A
330
1F
100
AcDbEntity
  8
0
  6
Continuous
 62
     7
370
    18
100
AcDbLine
 10
0.5203814499
 20
21.3694674836
 30
0.0
 11
0.4475750167
 21
21.3694674836
 31
0.0
  0
LINE
  5
8B
330
1F
100
AcDbEntity
  8
0
  6
Continuous
 62
     7
370
    18
100
AcDbLine
 10
0.4475750167
 20
21.3694674836
 30
0.0
 11
0.4475750167
 21
21.3628291147
 31
0.0
  0
LINE
  5
8C
330
1F
100
AcDbEntity
  8
0
  6
Continuous
 62
     7
370
    18
100
AcDbLine
 10
0.4475750167
 20
21.3561907459
 30
0.0
 11
0.4475750167
 21
21.3628291147
 31
0.0
  0
LINE
  5
8D
330
1F
100
AcDbEntity
  8
0
  6
Continuous
 62
     7
370
    18
100
AcDbLine
 10
0.7942669867
 20
21.2300617377
 30
0.0
 11
0.8272965087
 21
21.2300617377
 31
0.0
  0
LINE
  5
8E
330
1F
100
AcDbEntity
  8
0
  6
Continuous
 62
     7
370
    18
100
AcDbLine
 10
0.9202336726
 20
21.3229989016
 30
0.0
 11
0.9202336726
 21
21.4026593279
 31
0.0
  0
LINE
  5
8F
330
1F
100
AcDbEntity
  8
0
  6
Continuous
 62
     7
370
    18
100
AcDbLine
 10
0.8713952948
 20
21.3561907459
 30
0.0
 11
0.8713952948
 21
21.3694674836
 31
0.0
  0
LINE
  5
90
330
1F
100
AcDbEntity
  8
0
  6
Continuous
 62
     7
370
    18
100
AcDbLine
 10
0.8300977053
 20
21.3561907459
 30
0.0
 11
0.8300977053
 21
21.3694674836
 31
0.0
  0
LINE
  5
91
330
1F
100
AcDbEntity
  8
0
  6
Continuous
 62
     7
370
    18
100
AcDbLine
 10
0.8713952948
 20
21.3561907459
 30
0.0
 11
0.8300977053
 21
21.3561907459
 31
0.0
  0
LINE
  5
92
330
1F
100
AcDbEntity
  8
0
  6
Continuous
 62
     7
370
    18
100
AcDbLine
 10
0.8713952948
 20
21.3694674836
 30
0.0
 11
0.8300977053
 21
21.3694674836
 31
0.0
  0
LINE
  5
93
330
1F
100
AcDbEntity
  8
0
  6
Continuous
 62
     7
370
    18
100
AcDbLine
 10
0.691418785
 20
21.4955964918
 30
0.0
 11
0.7399564071
 21
21.4955964918
 31
0.0
  0
LINE
  5
94
330
1F
100
AcDbEntity
  8
0
  6
Continuous
 62
     7
370
    18
100
AcDbLine
 10
0.4348627823
 20
21.4955964918
 30
0.0
 11
0.5203814499
 21
21.4955964918
 31
0.0
  0
LINE
  5
95
330
1F
100
AcDbEntity
  8
0
  6
Continuous
 62
     7
370
    18
100
AcDbLine
 10
0.6197680095
 20
21.4955964918
 30
0.0
 11
0.6683056316
 21
21.4955964918
 31
0.0
  0
LINE
  5
96
330
1F
100
AcDbEntity
  8
0
  6
Continuous
 62
     7
370
    18
100
AcDbLine
 10
0.7942669867
 20
21.4955964918
 30
0.0
 11
0.8272965087
 21
21.4955964918
 31
0.0
  0
LINE
  5
97
330
1F
100
AcDbEntity
  8
0
  6
Continuous
 62
     7
370
    18
100
AcDbLine
 10
1.050100026
 20
21.6547094286
 30
0.0
 11
1.050100026
 21
21.0474115071
 31
0.0
  0
LINE
  5
98
330
1F
100
AcDbEntity
  8
0
  6
Continuous
 62
     7
370
    18
100
AcDbLine
 10
14.4831953769
 20
21.0474115071
 30
0.0
 11
14.4831953769
 21
21.6547094286
 31
0.0
  0
LINE
  5
99
330
1F
100
AcDbEntity
  8
0
  6
Continuous
 62
     7
370
    18
100
AcDbLine
 10
14.5451953769
 20
21.0474115071
 30
0.0
 11
14.5451953769
 21
21.6547094286
 31
0.0
  0
LINE
  5
9A
330
1F
100
AcDbEntity
  8
0
  6
Continuous
 62
     7
370
    18
100
AcDbLine
 10
15.2951953769
 20
21.0474115071
 30
0.0
 11
15.2951953769
 21
21.6547094286
 31
0.0
  0
ARC
  5
9B
330
1F
100
AcDbEntity
  8
0
  6
Continuous
 62
     7
370
    18
100
AcDbCircle
 10
0.5203814499
 20
21.4325319877
 30
0.0
 40
0.0630645040985804
100
AcDbArc
 50
270.0
 51
90.0
  0
ARC
  5
9C
330
1F
100
AcDbEntity
  8
0
  6
Continuous
 62
     7
370
    18
100
AcDbCircle
 10
0.8272965087
 20
21.4026593279
 30
0.0
 40
0.0929371639347458
100
AcDbArc
 50
0.0
 51
90.0
  0
ARC
  5
9D
330
1F
100
AcDbEntity
  8
0
  6
Continuous
 62
     7
370
    18
100
AcDbCircle
 10
0.5203814499
 20
21.2931262418
 30
0.0
 40
0.0630645040985769
100
AcDbArc
 50
270.0
 51
90.0
  0
ARC
  5
9E
330
1F
100
AcDbEntity
  8
0
  6
Continuous
 62
     7
370
    18
100
AcDbCircle
 10
0.6363639316
 20
21.2466576598
 30
0.0
 40
0.0165959221312093
100
AcDbArc
 50
180.0
 51
270.0
  0
ARC
  5
9F
330
1F
100
AcDbEntity
  8
0
  6
Continuous
 62
     7
370
    18
100
AcDbCircle
 10
0.6781420473
 20
21.2733855748
 30
0.0
 40
0.0132767377049623
100
AcDbArc
 50
277.4442840975
 51
0.0
  0
ARC
  5
A0
330
1F
100
AcDbEntity
  8
0
  6
Continuous
 62
     7
370
    18
100
AcDbCircle
 10
0.6815823693
 20
21.2733855748
 30
0.0
 40
0.0132767377049732
100
AcDbArc
 50
180.0
 51
262.5557159021
  0
ARC
  5
A1
330
1F
100
AcDbEntity
  8
0
  6
Continuous
 62
     7
370
    18
100
AcDbCircle
 10
0.8272965087
 20
21.3229989016
 30
0.0
 40
0.0929371639347458
100
AcDbArc
 50
270.0
 51
0.0
  0
ARC
  5
A2
330
1F
100
AcDbEntity
  8
0
  6
Continuous
 62
     7
370
    18
100
AcDbCircle
 10
0.723360485
 20
21.2466576598
 30
0.0
 40
0.0165959221312058
100
AcDbArc
 50
270.0
 51
0.0
  0
INSERT
  5
B1
330
1F
100
AcDbEntity
  8
0
  6
Continuous
 62
     7
370
     0
100
AcDbBlockReference
  2
SW_NOTE_0
 10
0.8348550376
 20
19.9841239768
 30
0.0
  0
INSERT
  5
B9
330
1F
100
AcDbEntity
  8
0
  6
Continuous
 62
     7
370
     0
100
AcDbBlockReference
  2
SW_NOTE_0_1
 10
3.2158291563
 20
1.6868927965
 30
0.0
  0
INSERT
  5
BF
330
1F
100
AcDbEntity
  8
0
  6
Continuous
 62
     7
370
     0
100
AcDbBlockReference
  2
SW_NOTE_0_2
 10
1.3110399819
 20
21.3576108566
 30
0.0
  0
INSERT
  5
C5
330
1F
100
AcDbEntity
  8
0
  6
Continuous
 62
     7
370
     0
100
AcDbBlockReference
  2
SW_NOTE_0_3
 10
14.7392714976
 20
21.3450943114
 30
0.0
  0
INSERT
  5
CB
330
1F
100
AcDbEntity
  8
0
  6
Continuous
 62
     7
370
     0
100
AcDbBlockReference
  2
SW_NOTE_0_4
 10
26.6314561413
 20
21.34680783
 30
0.0
  0
MTEXT
  5
CC
330
1F
100
AcDbEntity
  8
0
  6
Continuous
 62
     7
370
     0
100
AcDbMText
 10
27.9267364462
 20
21.466163024
 30
0.0
 40
0.25
 41
0.0
 71
     1
 72
     1
  1
2/22/21
  7
SLDTEXTSTYLE0
 73
     1
 44
1.0
  0
MTEXT
  5
CD
330
1F
100
AcDbEntity
  8
0
  6
Continuous
 62
     7
370
     0
100
AcDbMText
 10
20.8236626114
 20
21.466163024
 30
0.0
 40
0.25
 41
0.0
 71
     2
 72
     1
  1
DPX-1024KIT
  7
SLDTEXTSTYLE0
 73
     1
 44
1.0
  0
MTEXT
  5
CE
330
1F
100
AcDbEntity
  8
0
  6
Continuous
 62
     7
370
     0
100
AcDbMText
 10
8.037634736
 20
21.4750503312
 30
0.0
 40
0.25
 41
0.0
 71
     2
 72
     1
  1
10" FLANGE KIT
  7
SLDTEXTSTYLE0
 73
     1
 44
1.0
  0
CIRCLE
  5
CF
330
1F
100
AcDbEntity
  8
0
  6
Continuous
 62
     7
370
    25
100
AcDbCircle
 10
16.2609041555
 20
5.2545704784
 30
0.0
 40
0.1437061151203816
  0
CIRCLE
  5
D0
330
1F
100
AcDbEntity
  8
0
  6
Continuous
 62
     7
370
    25
100
AcDbCircle
 10
16.2609041555
 20
5.2545704784
 30
0.0
 40
0.1124989421592915
  0
CIRCLE
  5
D1
330
1F
100
AcDbEntity
  8
0
  6
Continuous
 62
     7
370
    25
100
AcDbCircle
 10
16.2609041555
 20
5.2545704784
 30
0.0
 40
0.1825010578410122
  0
CIRCLE
  5
D2
330
1F
100
AcDbEntity
  8
0
  6
Continuous
 62
     7
370
    25
100
AcDbCircle
 10
16.2609041555
 20
5.2545704784
 30
0.0
 40
0.1512938848799408
  0
CIRCLE
  5
D3
330
1F
100
AcDbEntity
  8
0
  6
Continuous
 62
     7
370
    25
100
AcDbCircle
 10
16.2609041555
 20
12.7545704784
 30
0.0
 40
0.1437061151203824
  0
CIRCLE
  5
D4
330
1F
100
AcDbEntity
  8
0
  6
Continuous
 62
     7
370
    25
100
AcDbCircle
 10
16.2609041555
 20
12.7545704784
 30
0.0
 40
0.1124989421592915
  0
CIRCLE
  5
D5
330
1F
100
AcDbEntity
  8
0
  6
Continuous
 62
     7
370
    25
100
AcDbCircle
 10
16.2609041555
 20
12.7545704784
 30
0.0
 40
0.1825010578410122
  0
CIRCLE
  5
D6
330
1F
100
AcDbEntity
  8
0
  6
Continuous
 62
     7
370
    25
100
AcDbCircle
 10
16.2609041555
 20
12.7545704784
 30
0.0
 40
0.1512938848799408
  0
CIRCLE
  5
D7
330
1F
100
AcDbEntity
  8
0
  6
Continuous
 62
     7
370
    25
100
AcDbCircle
 10
16.2609041555
 20
12.7545704784
 30
0.0
 40
0.1082449745207477
  0
CIRCLE
  5
D8
330
1F
100
AcDbEntity
  8
0
  6
Continuous
 62
     7
370
    25
100
AcDbCircle
 10
16.2609041555
 20
5.2545704784
 30
0.0
 40
0.1082449745207485
  0
CIRCLE
  5
D9
330
1F
100
AcDbEntity
  8
0
  6
Continuous
 62
     7
370
    25
100
AcDbCircle
 10
16.2609041555
 20
5.2545704784
 30
0.0
 40
0.1867550254795551
  0
CIRCLE
  5
DA
330
1F
100
AcDbEntity
  8
0
  6
Continuous
 62
     7
370
    25
100
AcDbCircle
 10
16.2609041555
 20
12.7545704784
 30
0.0
 40
0.186755025479556
  0
CIRCLE
  5
DB
330
1F
100
AcDbEntity
  8
0
  6
Continuous
 62
     7
370
    25
100
AcDbCircle
 10
16.2609041555
 20
12.7545704784
 30
0.0
 40
0.2017344685008737
  0
CIRCLE
  5
DC
330
1F
100
AcDbEntity
  8
0
  6
Continuous
 62
     7
370
    25
100
AcDbCircle
 10
16.2609041555
 20
12.7545704784
 30
0.0
 40
0.0932655314994282
  0
CIRCLE
  5
DD
330
1F
100
AcDbEntity
  8
0
  6
Continuous
 62
     7
370
    25
100
AcDbCircle
 10
16.2609041555
 20
5.2545704784
 30
0.0
 40
0.09326553149943
  0
CIRCLE
  5
DE
330
1F
100
AcDbEntity
  8
0
  6
Continuous
 62
     7
370
    25
100
AcDbCircle
 10
16.2609041555
 20
5.2545704784
 30
0.0
 40
0.2017344685008746
  0
CIRCLE
  5
DF
330
1F
100
AcDbEntity
  8
0
  6
Continuous
 62
     7
370
    25
100
AcDbCircle
 10
16.7489041555
 20
12.7545704784
 30
0.0
 40
0.1005000000000003
  0
CIRCLE
  5
E0
330
1F
100
AcDbEntity
  8
0
  6
Continuous
 62
     7
370
    25
100
AcDbCircle
 10
16.7489041555
 20
5.2545704784
 30
0.0
 40
0.1005000000000011
  0
LINE
  5
E1
330
1F
100
AcDbEntity
  8
0
  6
Continuous
 62
     7
370
    25
100
AcDbLine
 10
16.8989041487
 20
4.3709259267
 30
0.0
 11
16.38055666
 21
4.3709259267
 31
0.0
  0
SPLINE
  5
E2
330
1F
100
AcDbEntity
  8
0
  6
Continuous
 62
     7
370
    25
100
AcDbSpline
210
0.0
220
0.0
230
1.0
 70
     8
 71
     3
 72
     8
 73
     4
 74
     0
 42
0.000000001
 43
0.00000001
 40
0.0
 40
0.0
 40
0.0
 40
0.0
 40
1.0
 40
1.0
 40
1.0
 40
1.0
 10
16.3805566530473
 20
4.370926001906007
 30
0.0
 10
16.30343407262566
 20
4.370926001904936
 30
0.0
 10
16.22634732564327
 20
4.38107466467673
 30
0.0
 10
16.15185263342413
 20
4.401035457297676
 30
0.0
  0
LWPOLYLINE
  5
E3
330
1F
100
AcDbEntity
  8
0
  6
Continuous
 62
     7
370
    25
100
AcDbPolyline
 90
        3
 70
   128
 43
0.0
 10
16.1518526554
 20
4.4010353655
 10
16.015113675
 20
4.4376746223
 10
15.9076758628
 20
4.4664623164
  0
SPLINE
  5
E4
330
1F
100
AcDbEntity
  8
0
  6
Continuous
 62
     7
370
    25
100
AcDbSpline
210
0.0
220
0.0
230
1.0
 70
     8
 71
     3
 72
     8
 73
     4
 74
     0
 42
0.000000001
 43
0.00000001
 40
0.0
 40
0.0
 40
0.0
 40
0.0
 40
1.0
 40
1.0
 40
1.0
 40
1.0
 10
15.90767585366243
 20
4.466462428243699
 30
0.0
 10
15.90709922800512
 20
4.523747058657235
 30
0.0
 10
15.90683788028809
 20
4.581033226352464
 30
0.0
 10
15.90683788027342
 20
4.638320668367667
 30
0.0
  0
LINE
  5
E5
330
1F
100
AcDbEntity
  8
0
  6
Continuous
 62
     7
370
    25
100
AcDbLine
 10
15.9068378191
 20
13.3708201458
 30
0.0
 11
15.9068378191
 21
4.638320811
 31
0.0
  0
SPLINE
  5
E6
330
1F
100
AcDbEntity
  8
0
  6
Continuous
 62
     7
370
    25
100
AcDbSpline
210
0.0
220
0.0
230
1.0
 70
     8
 71
     3
 72
     8
 73
     4
 74
     0
 42
0.000000001
 43
0.00000001
 40
0.0
 40
0.0
 40
0.0
 40
0.0
 40
1.0
 40
1.0
 40
1.0
 40
1.0
 10
15.90767585366243
 20
13.54267852860945
 30
0.0
 10
15.90709922800512
 20
13.48539389819591
 30
0.0
 10
15.90683788028809
 20
13.42810773050068
 30
0.0
 10
15.90683788027342
 20
13.37082028848548
 30
0.0
  0
LWPOLYLINE
  5
E7
330
1F
100
AcDbEntity
  8
0
  6
Continuous
 62
     7
370
    25
100
AcDbPolyline
 90
        3
 70
   128
 43
0.0
 10
16.1518526554
 20
13.6081055913
 10
16.015113675
 20
13.5714663346
 10
15.9076758628
 20
13.5426786405
  0
SPLINE
  5
E8
330
1F
100
AcDbEntity
  8
0
  6
Continuous
 62
     7
370
    25
100
AcDbSpline
210
0.0
220
0.0
230
1.0
 70
     8
 71
     3
 72
    10
 73
     6
 74
     0
 42
0.000000001
 43
0.00000001
 40
0.0
 40
0.0
 40
0.0
 40
0.0
 40
0.5
 40
0.5
 40
1.0
 40
1.0
 40
1.0
 40
1.0
 10
16.3805566530473
 20
13.63821495494714
 30
0.0
 10
16.34200245114651
 20
13.63821495494713
 30
0.0
 10
16.30354269590991
 20
13.63568997753619
 30
0.0
 10
16.22689567440964
 20
13.62560107143293
 30
0.0
 10
16.18910682383109
 20
13.6180877297899
 30
0.0
 10
16.15185263342413
 20
13.60810549955547
 30
0.0
  0
LINE
  5
E9
330
1F
100
AcDbEntity
  8
0
  6
Continuous
 62
     7
370
    25
100
AcDbLine
 10
16.8989041487
 20
13.6382150302
 30
0.0
 11
16.38055666
 21
13.6382150302
 31
0.0
  0
SPLINE
  5
EA
330
1F
100
AcDbEntity
  8
0
  6
Continuous
 62
     7
370
    25
100
AcDbSpline
210
0.0
220
0.0
230
1.0
 70
     8
 71
     3
 72
    16
 73
    12
 74
     0
 42
0.000000001
 43
0.00000001
 40
0.0
 40
0.0
 40
0.0
 40
0.0
 40
0.25
 40
0.25
 40
0.5
 40
0.5
 40
0.75
 40
0.75
 40
0.875
 40
0.875
 40
1.0
 40
1.0
 40
1.0
 40
1.0
 10
17.13254863198047
 20
13.40457047842657
 30
0.0
 10
17.13254863198047
 20
13.43514453510796
 30
0.0
 10
17.12645419508786
 20
13.46575127125045
 30
0.0
 10
17.10307281531527
 20
13.52221342605877
 30
0.0
 10
17.085720099797
 20
13.54817379364207
 30
0.0
 10
17.04251139859175
 20
13.59139035068001
 30
0.0
 10
17.01654623697096
 20
13.60873348535438
 30
0.0
 10
16.97420092004643
 20
13.62627799957516
 30
0.0
 10
16.9595714358248
 20
13.63070900745753
 30
0.0
 10
16.92939893174416
 20
13.63671376544921
 30
0.0
 10
16.91420525563597
 20
13.63821495494713
 30
0.0
 10
16.8989041554599
 20
13.63821495494714
 30
0.0
  0
LINE
  5
EB
330
1F
100
AcDbEntity
  8
0
  6
Continuous
 62
     7
370
    25
100
AcDbLine
 10
17.1325486363
 20
9.0045704784
 30
0.0
 11
17.1325486363
 21
13.4045703959
 31
0.0
  0
LINE
  5
EC
330
1F
100
AcDbEntity
  8
0
  6
Continuous
 62
     7
370
    25
100
AcDbLine
 10
17.1325486363
 20
9.0045704784
 30
0.0
 11
17.1325486363
 21
4.6045705609
 31
0.0
  0
SPLINE
  5
ED
330
1F
100
AcDbEntity
  8
0
  6
Continuous
 62
     7
370
    25
100
AcDbSpline
210
0.0
220
0.0
230
1.0
 70
     8
 71
     3
 72
    14
 73
    10
 74
     0
 42
0.000000001
 43
0.00000001
 40
0.0
 40
0.0
 40
0.0
 40
0.0
 40
0.25
 40
0.25
 40
0.5
 40
0.5
 40
0.75
 40
0.75
 40
1.0
 40
1.0
 40
1.0
 40
1.0
 10
17.13254863198047
 20
4.604570478426574
 30
0.0
 10
17.13254863198046
 20
4.57398097385896
 30
0.0
 10
17.12646749159002
 20
4.543414530871337
 30
0.0
 10
17.10305951881311
 20
4.486902685525748
 30
0.0
 10
17.08574189614054
 20
4.460985031638227
 30
0.0
 10
17.04248960224821
 20
4.417732737745983
 30
0.0
 10
17.01657194836076
 20
4.400415115073399
 30
0.0
 10
16.96006010301511
 20
4.377007142296415
 30
0.0
 10
16.92949366002754
 20
4.370926001906006
 30
0.0
 10
16.8989041554599
 20
4.370926001906007
 30
0.0
  0
SPLINE
  5
EE
330
1F
100
AcDbEntity
  8
0
  6
Continuous
 62
     7
370
    25
100
AcDbSpline
210
0.0
220
0.0
230
1.0
 70
     8
 71
     3
 72
    14
 73
    10
 74
     0
 42
0.000000001
 43
0.00000001
 40
0.0
 40
0.0
 40
0.0
 40
0.0
 40
0.25
 40
0.25
 40
0.5
 40
0.5
 40
0.75
 40
0.75
 40
1.0
 40
1.0
 40
1.0
 40
1.0
 10
16.8989041554599
 20
4.276056196104333
 30
0.0
 10
16.94191432753538
 20
4.276056196104325
 30
0.0
 10
16.98489207402756
 20
4.284606543627278
 30
0.0
 10
17.06435018317232
 20
4.317519170075553
 30
0.0
 10
17.10079153026989
 20
4.341868499743184
 30
0.0
 10
17.16160613414329
 20
4.402683103616576
 30
0.0
 10
17.18595546381095
 20
4.439124450714228
 30
0.0
 10
17.21886809025917
 20
4.518582559858856
 30
0.0
 10
17.22741843778215
 20
4.561560306351149
 30
0.0
 10
17.22741843778215
 20
4.604570478426573
 30
0.0
  0
SPLINE
  5
EF
330
1F
100
AcDbEntity
  8
0
  6
Continuous
 62
     7
370
    25
100
AcDbSpline
210
0.0
220
0.0
230
1.0
 70
    24
 71
     3
 72
    22
 73
    18
 74
     0
 42
0.000000001
 43
0.00000001
 40
0.0
 40
0.0
 40
0.0
 40
0.0
 40
0.125
 40
0.125
 40
0.25
 40
0.25
 40
0.375
 40
0.375
 40
0.5
 40
0.5
 40
0.625
 40
0.625
 40
0.75
 40
0.75
 40
0.875
 40
0.875
 40
1.0
 40
1.0
 40
1.0
 40
1.0
 10
16.8989041554599
 20
4.370926001906007
 30
0.0
 10
16.89890415545992
 20
4.368421789854955
 30
0.0
 10
16.89890415545993
 20
4.365310539780911
 30
0.0
 10
16.89890415545996
 20
4.357678875114813
 30
0.0
 10
16.89890415545997
 20
4.353148959143129
 30
0.0
 10
16.89890415545999
 20
4.342840865755968
 30
0.0
 10
16.89890415546
 20
4.337060636467522
 30
0.0
 10
16.89890415546002
 20
4.325002976862937
 30
0.0
 10
16.89890415546002
 20
4.318741279133504
 30
0.0
 10
16.89890415546002
 20
4.306882553408295
 30
0.0
 10
16.89890415546002
 20
4.301307304523123
 30
0.0
 10
16.89890415546
 20
4.291760086406114
 30
0.0
 10
16.89890415545999
 20
4.287792953747587
 30
0.0
 10
16.89890415545997
 20
4.281703796749271
 30
0.0
 10
16.89890415545996
 20
4.279570718523782
 30
0.0
 10
16.89890415545993
 20
4.276818061793385
 30
0.0
 10
16.89890415545992
 20
4.276187256436656
 30
0.0
 10
16.8989041554599
 20
4.27605619610433
 30
0.0
  0
SPLINE
  5
F0
330
1F
100
AcDbEntity
  8
0
  6
Continuous
 62
     7
370
    25
100
AcDbSpline
210
0.0
220
0.0
230
1.0
 70
    24
 71
     3
 72
    22
 73
    18
 74
     0
 42
0.000000001
 43
0.00000001
 40
0.0
 40
0.0
 40
0.0
 40
0.0
 40
0.1249999999999999
 40
0.1249999999999999
 40
0.2499999999999998
 40
0.2499999999999998
 40
0.3749999999999997
 40
0.3749999999999997
 40
0.4999999999999997
 40
0.4999999999999997
 40
0.6249999999999997
 40
0.6249999999999997
 40
0.7499999999999998
 40
0.7499999999999998
 40
0.8749999999999999
 40
0.8749999999999999
 40
1.0
 40
1.0
 40
1.0
 40
1.0
 10
17.13254863198047
 20
4.604570478426574
 30
0.0
 10
17.13505284403152
 20
4.604570478426573
 30
0.0
 10
17.13816409410556
 20
4.604570478426575
 30
0.0
 10
17.14579575877167
 20
4.604570478426575
 30
0.0
 10
17.15032567474335
 20
4.604570478426574
 30
0.0
 10
17.16063376813051
 20
4.604570478426574
 30
0.0
 10
17.16641399741896
 20
4.604570478426574
 30
0.0
 10
17.17847165702354
 20
4.604570478426576
 30
0.0
 10
17.18473335475297
 20
4.604570478426574
 30
0.0
 10
17.19659208047819
 20
4.604570478426576
 30
0.0
 10
17.20216732936336
 20
4.604570478426574
 30
0.0
 10
17.21171454748037
 20
4.604570478426575
 30
0.0
 10
17.2156816801389
 20
4.604570478426574
 30
0.0
 10
17.22177083713721
 20
4.604570478426574
 30
0.0
 10
17.2239039153627
 20
4.604570478426575
 30
0.0
 10
17.22665657209309
 20
4.604570478426576
 30
0.0
 10
17.22728737744983
 20
4.604570478426573
 30
0.0
 10
17.22741843778216
 20
4.604570478426574
 30
0.0
  0
SPLINE
  5
F1
330
1F
100
AcDbEntity
  8
0
  6
Continuous
 62
     7
370
    25
100
AcDbSpline
210
0.0
220
0.0
230
1.0
 70
    24
 71
     3
 72
    22
 73
    18
 74
     0
 42
0.000000001
 43
0.00000001
 40
0.0
 40
0.0
 40
0.0
 40
0.0
 40
0.125
 40
0.125
 40
0.25
 40
0.25
 40
0.375
 40
0.375
 40
0.5
 40
0.5
 40
0.625
 40
0.625
 40
0.75
 40
0.75
 40
0.875
 40
0.875
 40
1.0
 40
1.0
 40
1.0
 40
1.0
 10
16.8989041554599
 20
13.63821495494714
 30
0.0
 10
16.8989041554599
 20
13.64071916699819
 30
0.0
 10
16.8989041554599
 20
13.64383041707224
 30
0.0
 10
16.8989041554599
 20
13.65146208173833
 30
0.0
 10
16.8989041554599
 20
13.65599199771002
 30
0.0
 10
16.8989041554599
 20
13.66630009109718
 30
0.0
 10
16.8989041554599
 20
13.67208032038562
 30
0.0
 10
16.8989041554599
 20
13.68413797999021
 30
0.0
 10
16.8989041554599
 20
13.69039967771964
 30
0.0
 10
16.8989041554599
 20
13.70225840344485
 30
0.0
 10
16.8989041554599
 20
13.70783365233002
 30
0.0
 10
16.8989041554599
 20
13.71738087044703
 30
0.0
 10
16.8989041554599
 20
13.72134800310556
 30
0.0
 10
16.8989041554599
 20
13.72743716010388
 30
0.0
 10
16.8989041554599
 20
13.72957023832937
 30
0.0
 10
16.8989041554599
 20
13.73232289505976
 30
0.0
 10
16.8989041554599
 20
13.73295370041649
 30
0.0
 10
16.8989041554599
 20
13.73308476074882
 30
0.0
  0
SPLINE
  5
F2
330
1F
100
AcDbEntity
  8
0
  6
Continuous
 62
     7
370
    25
100
AcDbSpline
210
0.0
220
0.0
230
1.0
 70
     8
 71
     3
 72
    14
 73
    10
 74
     0
 42
0.000000001
 43
0.00000001
 40
0.0
 40
0.0
 40
0.0
 40
0.0
 40
0.25
 40
0.25
 40
0.5
 40
0.5
 40
0.75
 40
0.75
 40
1.0
 40
1.0
 40
1.0
 40
1.0
 10
16.8989041554599
 20
13.73308476074882
 30
0.0
 10
16.94190657445752
 20
13.73308476074882
 30
0.0
 10
16.98489207383956
 20
13.72453441330375
 30
0.0
 10
17.06435018336031
 20
13.69162178669972
 30
0.0
 10
17.10079153012596
 20
13.66727245725391
 30
0.0
 10
17.16160613428724
 20
13.60645785309262
 30
0.0
 10
17.18595546373305
 20
13.57001650632698
 30
0.0
 10
17.21886809033708
 20
13.49055839680623
 30
0.0
 10
17.22741843778216
 20
13.44757289742419
 30
0.0
 10
17.22741843778216
 20
13.40457047842657
 30
0.0
  0
SPLINE
  5
F3
330
1F
100
AcDbEntity
  8
0
  6
Continuous
 62
     7
370
    25
100
AcDbSpline
210
0.0
220
0.0
230
1.0
 70
    24
 71
     3
 72
    22
 73
    18
 74
     0
 42
0.000000001
 43
0.00000001
 40
0.0
 40
0.0
 40
0.0
 40
0.0
 40
0.1249999999999999
 40
0.1249999999999999
 40
0.2499999999999999
 40
0.2499999999999999
 40
0.3749999999999998
 40
0.3749999999999998
 40
0.4999999999999998
 40
0.4999999999999998
 40
0.6249999999999998
 40
0.6249999999999998
 40
0.7499999999999999
 40
0.7499999999999999
 40
0.8749999999999999
 40
0.8749999999999999
 40
1.0
 40
1.0
 40
1.0
 40
1.0
 10
17.13254863198047
 20
13.40457047842657
 30
0.0
 10
17.13505284403152
 20
13.40457047842657
 30
0.0
 10
17.13816409410556
 20
13.40457047842657
 30
0.0
 10
17.14579575877167
 20
13.40457047842657
 30
0.0
 10
17.15032567474335
 20
13.40457047842657
 30
0.0
 10
17.16063376813051
 20
13.40457047842657
 30
0.0
 10
17.16641399741896
 20
13.40457047842657
 30
0.0
 10
17.17847165702354
 20
13.40457047842657
 30
0.0
 10
17.18473335475297
 20
13.40457047842657
 30
0.0
 10
17.19659208047819
 20
13.40457047842657
 30
0.0
 10
17.20216732936336
 20
13.40457047842657
 30
0.0
 10
17.21171454748037
 20
13.40457047842658
 30
0.0
 10
17.2156816801389
 20
13.40457047842657
 30
0.0
 10
17.22177083713721
 20
13.40457047842657
 30
0.0
 10
17.2239039153627
 20
13.40457047842657
 30
0.0
 10
17.22665657209309
 20
13.40457047842657
 30
0.0
 10
17.22728737744983
 20
13.40457047842657
 30
0.0
 10
17.22741843778216
 20
13.40457047842657
 30
0.0
  0
SPLINE
  5
F4
330
1F
100
AcDbEntity
  8
0
  6
Continuous
 62
     7
370
    25
100
AcDbSpline
210
0.0
220
0.0
230
1.0
 70
    24
 71
     3
 72
    22
 73
    18
 74
     0
 42
0.000000001
 43
0.00000001
 40
0.0
 40
0.0
 40
0.0
 40
0.0
 40
0.125
 40
0.125
 40
0.25
 40
0.25
 40
0.375
 40
0.375
 40
0.5
 40
0.5
 40
0.625
 40
0.625
 40
0.75
 40
0.75
 40
0.875
 40
0.875
 40
1.0
 40
1.0
 40
1.0
 40
1.0
 10
16.15185263342413
 20
4.401035457297676
 30
0.0
 10
16.15120449565234
 20
4.398616574203061
 30
0.0
 10
16.15039924487909
 20
4.3956113374045
 30
0.0
 10
16.14842402471766
 20
4.388239715405943
 30
0.0
 10
16.14725159619146
 20
4.383864152577973
 30
0.0
 10
16.14458366530416
 20
4.373907298955519
 30
0.0
 10
16.14308763187924
 20
4.368324026203937
 30
0.0
 10
16.13996687993421
 20
4.356677221387267
 30
0.0
 10
16.13834623330715
 20
4.350628885833993
 30
0.0
 10
16.13527696923882
 20
4.339174236389135
 30
0.0
 10
16.13383398864615
 20
4.333788959502957
 30
0.0
 10
16.13136298676973
 20
4.324567054954524
 30
0.0
 10
16.13033621728326
 20
4.320735099063332
 30
0.0
 10
16.12876022748349
 20
4.31485342505833
 30
0.0
 10
16.12820814621405
 20
4.31279302971083
 30
0.0
 10
16.1274957062276
 20
4.31013416748403
 30
0.0
 10
16.12733244178753
 20
4.309524856298599
 30
0.0
 10
16.12729852087748
 20
4.309398261738802
 30
0.0
  0
LWPOLYLINE
  5
F5
330
1F
100
AcDbEntity
  8
0
  6
Continuous
 62
     7
370
    25
100
AcDbPolyline
 90
        3
 70
   128
 43
0.0
 10
15.8012226125
 20
4.3967700548
 10
15.9838250498
 20
4.34784174
 10
16.127298519
 20
4.3093982108
  0
SPLINE
  5
F6
330
1F
100
AcDbEntity
  8
0
  6
Continuous
 62
     7
370
    25
100
AcDbSpline
210
0.0
220
0.0
230
1.0
 70
     8
 71
     3
 72
     8
 73
     4
 74
     0
 42
0.000000001
 43
0.00000001
 40
0.0
 40
0.0
 40
0.0
 40
0.0
 40
1.0
 40
1.0
 40
1.0
 40
1.0
 10
15.80122257194113
 20
4.396770048927503
 30
0.0
 10
15.80087548262087
 20
4.396962164202968
 30
0.0
 10
15.80059160659253
 20
4.39738696064203
 30
0.0
 10
15.80034733467394
 20
4.397931548159455
 30
0.0
  0
SPLINE
  5
F7
330
1F
100
AcDbEntity
  8
0
  6
Continuous
 62
     7
370
    25
100
AcDbSpline
210
0.0
220
0.0
230
1.0
 70
     8
 71
     3
 72
    36
 73
    32
 74
     0
 42
0.000000001
 43
0.00000001
 40
0.0
 40
0.0
 40
0.0
 40
0.0
 40
0.0078124999999995
 40
0.0078124999999995
 40
0.0156249999999991
 40
0.0156249999999991
 40
0.0312499999999982
 40
0.0312499999999982
 40
0.0624999999999985
 40
0.0624999999999985
 40
0.1249999999999967
 40
0.1249999999999967
 40
0.2499999999999973
 40
0.2499999999999973
 40
0.5000000000000013
 40
0.5000000000000013
 40
0.7500000000000053
 40
0.7500000000000053
 40
0.8750000000000092
 40
0.8750000000000092
 40
0.9375000000000081
 40
0.9375000000000081
 40
0.9687500000000053
 40
0.9687500000000053
 40
0.9843750000000071
 40
0.9843750000000071
 40
0.9921875000000053
 40
0.9921875000000053
 40
0.9960937500000027
 40
0.9960937500000027
 40
1.0
 40
1.0
 40
1.0
 40
1.0
 10
15.80034732624063
 20
4.397931553953584
 30
0.0
 10
15.80069148944977
 20
4.398100729209095
 30
0.0
 10
15.80101283403077
 20
4.398192797492835
 30
0.0
 10
15.80165252624168
 20
4.398374390122849
 30
0.0
 10
15.80196864787406
 20
4.39845566661649
 30
0.0
 10
15.80291008315643
 20
4.398684048887405
 30
0.0
 10
15.80352881945487
 20
4.398817107718552
 30
0.0
 10
15.80537695795307
 20
4.399212804074593
 30
0.0
 10
15.80659380745222
 20
4.399458821141614
 30
0.0
 10
15.81021862988616
 20
4.400216652956378
 30
0.0
 10
15.81259774630336
 20
4.400733823817446
 30
0.0
 10
15.81968674421226
 20
4.402401032677312
 30
0.0
 10
15.82434566501616
 20
4.403654129585226
 30
0.0
 10
15.83819791705349
 20
4.407884005294454
 30
0.0
 10
15.84716089933387
 20
4.411271340797139
 30
0.0
 10
15.86473858089613
 20
4.41945752966498
 30
0.0
 10
15.87334923860818
 20
4.424182125834442
 30
0.0
 10
15.88597762312163
 20
4.433414216086192
 30
0.0
 10
15.89011102988539
 20
4.436800749876935
 30
0.0
 10
15.89611272162107
 20
4.443094834197813
 30
0.0
 10
15.89806866536995
 20
4.445352365245271
 30
0.0
 10
15.90095031681195
 20
4.44952232198062
 30
0.0
 10
15.90189599362287
 20
4.45100298417687
 30
0.0
 10
15.90334491842505
 20
4.453786497425871
 30
0.0
 10
15.90382936503269
 20
4.454781780823759
 30
0.0
 10
15.90459591883335
 20
4.456634062465294
 30
0.0
 10
15.90485865219106
 20
4.457315834902308
 30
0.0
 10
15.90526758494526
 20
4.458473097076721
 30
0.0
 10
15.90540954995789
 20
4.458894231944439
 30
0.0
 10
15.90573347497324
 20
4.459926933800584
 30
0.0
 10
15.90588232972738
 20
4.460410644842803
 30
0.0
 10
15.90615621388232
 20
4.461400741436715
 30
0.0
  0
SPLINE
  5
F8
330
1F
100
AcDbEntity
  8
0
  6
Continuous
 62
     7
370
    25
100
AcDbSpline
210
0.0
220
0.0
230
1.0
 70
    24
 71
     3
 72
     8
 73
     4
 74
     0
 42
0.000000001
 43
0.00000001
 40
0.0
 40
0.0
 40
0.0
 40
0.0
 40
1.0
 40
1.0
 40
1.0
 40
1.0
 10
15.90615620607449
 20
4.461400745545432
 30
0.0
 10
15.90665601723006
 20
4.463065529866928
 30
0.0
 10
15.9071653815514
 20
4.464762134127672
 30
0.0
 10
15.90767585366243
 20
4.466462428243699
 30
0.0
  0
SPLINE
  5
F9
330
1F
100
AcDbEntity
  8
0
  6
Continuous
 62
     7
370
    25
100
AcDbSpline
210
0.0
220
0.0
230
1.0
 70
     8
 71
     3
 72
    26
 73
    22
 74
     0
 42
0.000000001
 43
0.00000001
 40
0.0
 40
0.0
 40
0.0
 40
0.0
 40
0.0110966401764675
 40
0.0241343458961102
 40
0.0393636209441601
 40
0.0569677917886383
 40
0.0770895666227938
 40
0.0998458121575815
 40
0.1253349734946013
 40
0.1809150082747761
 40
0.2504289721049767
 40
0.3034640005173635
 40
0.3751406634190479
 40
0.4994250344746546
 40
0.6239368386556636
 40
0.7492481351886147
 40
0.8744854377188928
 40
0.9072389794012541
 40
0.9372083612422418
 40
0.9683646548320783
 40
1.0
 40
1.0
 40
1.0
 40
1.0
 10
15.80034733467394
 20
13.61120940869369
 30
0.0
 10
15.80056856286128
 20
13.61111945415911
 30
0.0
 10
15.80104971729272
 20
13.61092380990841
 30
0.0
 10
15.80216466290087
 20
13.61063817509746
 30
0.0
 10
15.80360934419075
 20
13.61031045416576
 30
0.0
 10
15.80542949740174
 20
13.60992884925366
 30
0.0
 10
15.80761746105222
 20
13.60947485860459
 30
0.0
 10
15.81018301542729
 20
13.60893135739801
 30
0.0
 10
15.8141809226048
 20
13.6080487348844
 30
0.0
 10
15.82013943163621
 20
13.60662349137933
 30
0.0
 10
15.82727292147392
 20
13.60462976434002
 30
0.0
 10
15.83509145202697
 20
13.60216494233286
 30
0.0
 10
15.84507161349113
 20
13.5985784305243
 30
0.0
 10
15.85780437468593
 20
13.5931603018969
 30
0.0
 10
15.87224520461274
 20
13.58547525772588
 30
0.0
 10
15.88598904795348
 20
13.57611984505167
 30
0.0
 10
15.89543189920851
 20
13.56729399089376
 30
0.0
 10
15.9006090824074
 20
13.56021196369456
 30
0.0
 10
15.90290193140753
 20
13.55638250324524
 30
0.0
 10
15.90476389965167
 20
13.55227940776964
 30
0.0
 10
15.90568974942794
 20
13.54926095295261
 30
0.0
 10
15.90615620607449
 20
13.54774021130772
 30
0.0
  0
SPLINE
  5
FA
330
1F
100
AcDbEntity
  8
0
  6
Continuous
 62
     7
370
    25
100
AcDbSpline
210
0.0
220
0.0
230
1.0
 70
     8
 71
     3
 72
     9
 73
     5
 74
     0
 42
0.000000001
 43
0.00000001
 40
0.0
 40
0.0
 40
0.0
 40
0.0
 40
0.4676555139768394
 40
1.0
 40
1.0
 40
1.0
 40
1.0
 10
15.80122257194114
 20
13.61237090792565
 30
0.0
 10
15.80106774592932
 20
13.61225276579127
 30
0.0
 10
15.80073667742443
 20
13.61200013937964
 30
0.0
 10
15.80048259438107
 20
13.61148411266818
 30
0.0
 10
15.80034733467394
 20
13.61120940869369
 30
0.0
  0
LWPOLYLINE
  5
FB
330
1F
100
AcDbEntity
  8
0
  6
Continuous
 62
     7
370
    25
100
AcDbPolyline
 90
        3
 70
   128
 43
0.0
 10
15.8012226125
 20
13.6123709021
 10
15.9838250498
 20
13.6612992168
 10
16.127298519
 20
13.6997427461
  0
SPLINE
  5
FC
330
1F
100
AcDbEntity
  8
0
  6
Continuous
 62
     7
370
    25
100
AcDbSpline
210
0.0
220
0.0
230
1.0
 70
    24
 71
     3
 72
    22
 73
    18
 74
     0
 42
0.000000001
 43
0.00000001
 40
0.0
 40
0.0
 40
0.0
 40
0.0
 40
0.125
 40
0.125
 40
0.25
 40
0.25
 40
0.375
 40
0.375
 40
0.5
 40
0.5
 40
0.625
 40
0.625
 40
0.75
 40
0.75
 40
0.875
 40
0.875
 40
1.0
 40
1.0
 40
1.0
 40
1.0
 10
16.15185263342413
 20
13.60810549955547
 30
0.0
 10
16.15120449565234
 20
13.61052438265009
 30
0.0
 10
16.1503992448791
 20
13.61352961944865
 30
0.0
 10
16.14842402471768
 20
13.62090124144721
 30
0.0
 10
16.1472515961915
 20
13.62527680427518
 30
0.0
 10
16.1445836653042
 20
13.63523365789764
 30
0.0
 10
16.14308763187929
 20
13.64081693064922
 30
0.0
 10
16.13996687993426
 20
13.6524637354659
 30
0.0
 10
16.13834623330721
 20
13.65851207101917
 30
0.0
 10
16.13527696923888
 20
13.66996672046403
 30
0.0
 10
16.13383398864621
 20
13.67535199735021
 30
0.0
 10
16.13136298676978
 20
13.68457390189864
 30
0.0
 10
16.1303362172833
 20
13.68840585778983
 30
0.0
 10
16.12876022748352
 20
13.69428753179483
 30
0.0
 10
16.12820814621407
 20
13.69634792714232
 30
0.0
 10
16.12749570622761
 20
13.69900678936912
 30
0.0
 10
16.12733244178754
 20
13.69961610055455
 30
0.0
 10
16.12729852087748
 20
13.69974269511435
 30
0.0
  0
SPLINE
  5
FD
330
1F
100
AcDbEntity
  8
0
  6
Continuous
 62
     7
370
    25
100
AcDbSpline
210
0.0
220
0.0
230
1.0
 70
     8
 71
     3
 72
     8
 73
     4
 74
     0
 42
0.000000001
 43
0.00000001
 40
0.0
 40
0.0
 40
0.0
 40
0.0
 40
1.0
 40
1.0
 40
1.0
 40
1.0
 10
15.90615620607447
 20
13.54774021130777
 30
0.0
 10
15.90672536339922
 20
13.54581932702414
 30
0.0
 10
15.90722956618766
 20
13.54414085637021
 30
0.0
 10
15.90767585366242
 20
13.54267852860948
 30
0.0
  0
SPLINE
  5
FE
330
1F
100
AcDbEntity
  8
0
  6
Continuous
 62
     7
370
    25
100
AcDbSpline
210
0.0
220
0.0
230
1.0
 70
     8
 71
     3
 72
    15
 73
    11
 74
     0
 42
0.000000001
 43
0.00000001
 40
0.0
 40
0.0
 40
0.0
 40
0.0
 40
0.2010915453037508
 40
0.3817812725416793
 40
0.5408341809195301
 40
0.6775844101275639
 40
0.7917859469277356
 40
0.8834662264857507
 40
0.9527984499275296
 40
0.9999999999999999
 40
0.9999999999999999
 40
0.9999999999999999
 40
0.9999999999999999
 10
15.90615620558777
 20
4.46140074372835
 30
0.0
 10
15.90511918776566
 20
4.461737177206698
 30
0.0
 10
15.90315036315308
 20
4.462375911178802
 30
0.0
 10
15.90041151512145
 20
4.463340135177329
 30
0.0
 10
15.89805617619092
 20
4.464215546142685
 30
0.0
 10
15.89608815822045
 20
4.464987889145336
 30
0.0
 10
15.89449343260299
 20
4.465644401882328
 30
0.0
 10
15.89325064473709
 20
4.466177845175365
 30
0.0
 10
15.89233367659795
 20
4.46658507007902
 30
0.0
 10
15.89183265708412
 20
4.466812080053312
 30
0.0
 10
15.89162972108577
 20
4.466904029557266
 30
0.0
  0
SPLINE
  5
FF
330
1F
100
AcDbEntity
  8
0
  6
Continuous
 62
     7
370
    25
100
AcDbSpline
210
0.0
220
0.0
230
1.0
 70
     8
 71
     3
 72
     8
 73
     4
 74
     0
 42
0.000000001
 43
0.00000001
 40
0.0
 40
0.0
 40
0.0
 40
0.0
 40
1.0
 40
1.0
 40
1.0
 40
1.0
 10
15.90767585366243
 20
4.466462428243699
 30
0.0
 10
15.90201769746495
 20
4.466585237752613
 30
0.0
 10
15.896408593299
 20
4.46673963046855
 30
0.0
 10
15.89162969117024
 20
4.466904044100078
 30
0.0
  0
SPLINE
  5
100
330
1F
100
AcDbEntity
  8
0
  6
Continuous
 62
     7
370
    25
100
AcDbSpline
210
0.0
220
0.0
230
1.0
 70
     8
 71
     3
 72
     8
 73
     4
 74
     0
 42
0.000000001
 43
0.00000001
 40
0.0
 40
0.0
 40
0.0
 40
0.0
 40
1.0
 40
1.0
 40
1.0
 40
1.0
 10
15.90767585366243
 20
13.54267852860944
 30
0.0
 10
15.90210350645737
 20
13.54253378188613
 30
0.0
 10
15.89633262219708
 20
13.54239080888329
 30
0.0
 10
15.89162968926292
 20
13.54223691277212
 30
0.0
  0
SPLINE
  5
101
330
1F
100
AcDbEntity
  8
0
  6
Continuous
 62
     7
370
    25
100
AcDbSpline
210
0.0
220
0.0
230
1.0
 70
     8
 71
     3
 72
     8
 73
     4
 74
     0
 42
0.000000001
 43
0.00000001
 40
0.0
 40
0.0
 40
0.0
 40
0.0
 40
1.0
 40
1.0
 40
1.0
 40
1.0
 10
15.90615620607449
 20
13.54774021130772
 30
0.0
 10
15.90094444056973
 20
13.5460816454497
 30
0.0
 10
15.89591043752217
 20
13.5441714383905
 30
0.0
 10
15.89162969117024
 20
13.54223691275307
 30
0.0
  0
LINE
  5
102
330
1F
100
AcDbEntity
  8
0
  6
Continuous
 62
     7
370
    25
100
AcDbLine
 10
15.9068378191
 20
13.3708201458
 30
0.0
 11
15.8921416956
 21
13.3708201458
 31
0.0
  0
SPLINE
  5
103
330
1F
100
AcDbEntity
  8
0
  6
Continuous
 62
     7
370
    25
100
AcDbSpline
210
0.0
220
0.0
230
1.0
 70
     8
 71
     3
 72
     9
 73
     5
 74
     0
 42
0.000000001
 43
0.00000001
 40
0.0
 40
0.0
 40
0.0
 40
0.0
 40
0.476532831112212
 40
1.0
 40
1.0
 40
1.0
 40
1.0
 10
15.89214174706223
 20
13.37082028848548
 30
0.0
 10
15.89212052074059
 20
13.39804948022327
 30
0.0
 10
15.89207597748931
 20
13.45518970217658
 30
0.0
 10
15.89178303195644
 20
13.51232727128216
 30
0.0
 10
15.89162968458771
 20
13.54223691281898
 30
0.0
  0
SPLINE
  5
104
330
1F
100
AcDbEntity
  8
0
  6
Continuous
 62
     7
370
    25
100
AcDbSpline
210
0.0
220
0.0
230
1.0
 70
     8
 71
     3
 72
     8
 73
     4
 74
     0
 42
0.000000001
 43
0.00000001
 40
0.0
 40
0.0
 40
0.0
 40
0.0
 40
1.0
 40
1.0
 40
1.0
 40
1.0
 10
15.89214174707645
 20
4.638320668367809
 30
0.0
 10
15.89214172380171
 20
4.581190505773365
 30
0.0
 10
15.89196280370979
 20
4.524054413707757
 30
0.0
 10
15.89162968634958
 20
4.466904044116513
 30
0.0
  0
LINE
  5
105
330
1F
100
AcDbEntity
  8
0
  6
Continuous
 62
     7
370
    25
100
AcDbLine
 10
15.9068378191
 20
4.638320811
 30
0.0
 11
15.8921416956
 21
4.638320811
 31
0.0
  0
SPLINE
  5
106
330
1F
100
AcDbEntity
  8
0
  6
Continuous
 62
     7
370
    25
100
AcDbSpline
210
0.0
220
0.0
230
1.0
 70
     8
 71
     3
 72
     8
 73
     4
 74
     0
 42
0.000000001
 43
0.00000001
 40
0.0
 40
0.0
 40
0.0
 40
0.0
 40
1.0
 40
1.0
 40
1.0
 40
1.0
 10
16.12729852087748
 20
13.69974269511435
 30
0.0
 10
16.20978035677535
 20
13.72184363643342
 30
0.0
 10
16.29516517302574
 20
13.73308476074883
 30
0.0
 10
16.3805566530473
 20
13.73308476074882
 30
0.0
  0
SPLINE
  5
107
330
1F
100
AcDbEntity
  8
0
  6
Continuous
 62
     7
370
    25
100
AcDbSpline
210
0.0
220
0.0
230
1.0
 70
    24
 71
     3
 72
    22
 73
    18
 74
     0
 42
0.000000001
 43
0.00000001
 40
0.0
 40
0.0
 40
0.0
 40
0.0
 40
0.125
 40
0.125
 40
0.25
 40
0.25
 40
0.375
 40
0.375
 40
0.5
 40
0.5
 40
0.625
 40
0.625
 40
0.75
 40
0.75
 40
0.875
 40
0.875
 40
1.0
 40
1.0
 40
1.0
 40
1.0
 10
16.3805566530473
 20
13.63821495494714
 30
0.0
 10
16.3805566530473
 20
13.64071916699819
 30
0.0
 10
16.3805566530473
 20
13.64383041707224
 30
0.0
 10
16.3805566530473
 20
13.65146208173833
 30
0.0
 10
16.3805566530473
 20
13.65599199771002
 30
0.0
 10
16.3805566530473
 20
13.66630009109718
 30
0.0
 10
16.3805566530473
 20
13.67208032038563
 30
0.0
 10
16.3805566530473
 20
13.68413797999021
 30
0.0
 10
16.3805566530473
 20
13.69039967771965
 30
0.0
 10
16.3805566530473
 20
13.70225840344486
 30
0.0
 10
16.3805566530473
 20
13.70783365233003
 30
0.0
 10
16.3805566530473
 20
13.71738087044704
 30
0.0
 10
16.3805566530473
 20
13.72134800310557
 30
0.0
 10
16.3805566530473
 20
13.72743716010388
 30
0.0
 10
16.3805566530473
 20
13.72957023832937
 30
0.0
 10
16.3805566530473
 20
13.73232289505977
 30
0.0
 10
16.3805566530473
 20
13.7329537004165
 30
0.0
 10
16.3805566530473
 20
13.73308476074883
 30
0.0
  0
SPLINE
  5
108
330
1F
100
AcDbEntity
  8
0
  6
Continuous
 62
     7
370
    25
100
AcDbSpline
210
0.0
220
0.0
230
1.0
 70
     8
 71
     3
 72
     8
 73
     4
 74
     0
 42
0.000000001
 43
0.00000001
 40
0.0
 40
0.0
 40
0.0
 40
0.0
 40
1.0
 40
1.0
 40
1.0
 40
1.0
 10
16.12729852087748
 20
4.309398261738802
 30
0.0
 10
16.20979110950461
 20
4.287294439234605
 30
0.0
 10
16.29515404098126
 20
4.276056196104321
 30
0.0
 10
16.3805566530473
 20
4.276056196104321
 30
0.0
  0
SPLINE
  5
109
330
1F
100
AcDbEntity
  8
0
  6
Continuous
 62
     7
370
    25
100
AcDbSpline
210
0.0
220
0.0
230
1.0
 70
    24
 71
     3
 72
    22
 73
    18
 74
     0
 42
0.000000001
 43
0.00000001
 40
0.0
 40
0.0
 40
0.0
 40
0.0
 40
0.125
 40
0.125
 40
0.25
 40
0.25
 40
0.375
 40
0.375
 40
0.5
 40
0.5
 40
0.625
 40
0.625
 40
0.75
 40
0.75
 40
0.875
 40
0.875
 40
1.0
 40
1.0
 40
1.0
 40
1.0
 10
16.3805566530473
 20
4.370926001906007
 30
0.0
 10
16.3805566530473
 20
4.368421789854955
 30
0.0
 10
16.3805566530473
 20
4.365310539780911
 30
0.0
 10
16.3805566530473
 20
4.357678875114813
 30
0.0
 10
16.38055665304729
 20
4.353148959143128
 30
0.0
 10
16.38055665304729
 20
4.342840865755966
 30
0.0
 10
16.38055665304729
 20
4.337060636467521
 30
0.0
 10
16.38055665304729
 20
4.325002976862934
 30
0.0
 10
16.38055665304729
 20
4.318741279133503
 30
0.0
 10
16.38055665304729
 20
4.306882553408291
 30
0.0
 10
16.38055665304729
 20
4.30130730452312
 30
0.0
 10
16.38055665304729
 20
4.291760086406112
 30
0.0
 10
16.38055665304729
 20
4.28779295374758
 30
0.0
 10
16.38055665304729
 20
4.281703796749265
 30
0.0
 10
16.3805566530473
 20
4.279570718523775
 30
0.0
 10
16.3805566530473
 20
4.276818061793378
 30
0.0
 10
16.3805566530473
 20
4.276187256436647
 30
0.0
 10
16.3805566530473
 20
4.276056196104321
 30
0.0
  0
LINE
  5
10A
330
1F
100
AcDbEntity
  8
0
  6
Continuous
 62
     7
370
    25
100
AcDbLine
 10
15.8921416956
 20
4.638320811
 30
0.0
 11
15.8921416956
 21
13.3708201458
 31
0.0
  0
LINE
  5
10B
330
1F
100
AcDbEntity
  8
0
  6
Continuous
 62
     7
370
    25
100
AcDbLine
 10
17.2274184382
 20
13.4045703959
 30
0.0
 11
17.2274184382
 21
9.0045704784
 31
0.0
  0
SPLINE
  5
10C
330
1F
100
AcDbEntity
  8
0
  6
Continuous
 62
     7
370
    25
100
AcDbSpline
210
0.0
220
0.0
230
1.0
 70
    24
 71
     3
 72
    22
 73
    18
 74
     0
 42
0.000000001
 43
0.00000001
 40
0.0
 40
0.0
 40
0.0
 40
0.0
 40
0.1250000000000001
 40
0.1250000000000001
 40
0.2500000000000001
 40
0.2500000000000001
 40
0.3750000000000002
 40
0.3750000000000002
 40
0.5000000000000002
 40
0.5000000000000002
 40
0.6250000000000001
 40
0.6250000000000001
 40
0.7500000000000001
 40
0.7500000000000001
 40
0.875
 40
0.875
 40
1.0
 40
1.0
 40
1.0
 40
1.0
 10
17.22741843778216
 20
9.004570478426572
 30
0.0
 10
17.22728737744983
 20
9.004570478426572
 30
0.0
 10
17.22665657209309
 20
9.004570478426572
 30
0.0
 10
17.2239039153627
 20
9.004570478426574
 30
0.0
 10
17.22177083713721
 20
9.004570478426574
 30
0.0
 10
17.2156816801389
 20
9.004570478426574
 30
0.0
 10
17.21171454748037
 20
9.004570478426574
 30
0.0
 10
17.20216732936336
 20
9.004570478426574
 30
0.0
 10
17.19659208047819
 20
9.004570478426574
 30
0.0
 10
17.18473335475297
 20
9.004570478426572
 30
0.0
 10
17.17847165702354
 20
9.004570478426572
 30
0.0
 10
17.16641399741896
 20
9.004570478426572
 30
0.0
 10
17.16063376813051
 20
9.004570478426572
 30
0.0
 10
17.15032567474335
 20
9.004570478426572
 30
0.0
 10
17.14579575877167
 20
9.004570478426572
 30
0.0
 10
17.13816409410556
 20
9.004570478426572
 30
0.0
 10
17.13505284403152
 20
9.004570478426572
 30
0.0
 10
17.13254863198047
 20
9.004570478426572
 30
0.0
  0
LINE
  5
10D
330
1F
100
AcDbEntity
  8
0
  6
Continuous
 62
     7
370
    25
100
AcDbLine
 10
17.2274184382
 20
4.6045705609
 30
0.0
 11
17.2274184382
 21
9.0045704784
 31
0.0
  0
LINE
  5
10E
330
1F
100
AcDbEntity
  8
0
  6
Continuous
 62
     7
370
    25
100
AcDbLine
 10
16.38055666
 20
4.276056276
 30
0.0
 11
16.8989041487
 21
4.276056276
 31
0.0
  0
LINE
  5
10F
330
1F
100
AcDbEntity
  8
0
  6
Continuous
 62
     7
370
    25
100
AcDbLine
 10
16.38055666
 20
13.7330846809
 30
0.0
 11
16.8989041487
 21
13.7330846809
 31
0.0
  0
SPLINE
  5
110
330
1F
100
AcDbEntity
  8
0
  6
Continuous
 62
     7
370
    25
100
AcDbSpline
210
0.0
220
0.0
230
1.0
 70
     8
 71
     3
 72
    23
 73
    19
 74
     0
 42
0.000000001
 43
0.00000001
 40
0.0
 40
0.0
 40
0.0
 40
0.0
 40
0.0123966682362227
 40
0.0281658635092167
 40
0.0474242200198148
 40
0.0701915778203191
 40
0.0964409063459703
 40
0.126121788739071
 40
0.1775060219168384
 40
0.2514448113901104
 40
0.3221729751833232
 40
0.3760492686751125
 40
0.5009848268358319
 40
0.7503287298874858
 40
0.874577417174413
 40
0.9369462848043493
 40
0.9741409182181446
 40
1.0
 40
1.0
 40
1.0
 40
1.0
 10
15.89162968458771
 20
13.54223691281898
 30
0.0
 10
15.89142995869711
 20
13.54271064744883
 30
0.0
 10
15.89097617127076
 20
13.54378699672831
 30
0.0
 10
15.88992196553221
 20
13.54538900982485
 30
0.0
 10
15.88852886214175
 20
13.54721558647933
 30
0.0
 10
15.88674823673113
 20
13.54922281103504
 30
0.0
 10
15.88459120116116
 20
13.55139421348295
 30
0.0
 10
15.88152585264716
 20
13.55417430055688
 30
0.0
 10
15.87689029554541
 20
13.55785081226316
 30
0.0
 10
15.87079094923475
 20
13.56205891088764
 30
0.0
 10
15.86440909357122
 20
13.56588143034637
 30
0.0
 10
15.85621755208875
 20
13.5702746736025
 30
0.0
 10
15.84181173684905
 20
13.57689740127033
 30
0.0
 10
15.82443303267149
 20
13.58277086485257
 30
0.0
 10
15.80884202369038
 20
13.58606254198606
 30
0.0
 10
15.8007194634515
 20
13.58704180544214
 30
0.0
 10
15.79613098712729
 20
13.58733429552091
 30
0.0
 10
15.79380738127171
 20
13.58727219654078
 30
0.0
 10
15.79285444275474
 20
13.58724672900726
 30
0.0
  0
SPLINE
  5
111
330
1F
100
AcDbEntity
  8
0
  6
Continuous
 62
     7
370
    25
100
AcDbSpline
210
0.0
220
0.0
230
1.0
 70
     8
 71
     3
 72
    19
 73
    15
 74
     0
 42
0.000000001
 43
0.00000001
 40
0.0
 40
0.0
 40
0.0
 40
0.0
 40
0.1063241398945994
 40
0.210524705084994
 40
0.3116965172298967
 40
0.4090468485623951
 40
0.5019185500280555
 40
0.5898001743600697
 40
0.6723242712754853
 40
0.7492563915450412
 40
0.820477912110835
 40
0.8859656983145012
 40
0.9457710913108934
 40
1.0
 40
1.0
 40
1.0
 40
1.0
 10
15.80034732624063
 20
13.61120940289956
 30
0.0
 10
15.79985635676459
 20
13.61077957313722
 30
0.0
 10
15.79888422377344
 20
13.60992849845142
 30
0.0
 10
15.79758753017496
 20
13.608228372229
 30
0.0
 10
15.79644719539374
 20
13.60629828558041
 30
0.0
 10
15.79548117575782
 20
13.60417313395161
 30
0.0
 10
15.79468750516765
 20
13.60192996810964
 30
0.0
 10
15.79405938601101
 20
13.599632139387
 30
0.0
 10
15.79358340528324
 20
13.59733854492945
 30
0.0
 10
15.7932426461569
 20
13.59509810597748
 30
0.0
 10
15.79301740960132
 20
13.59294997682207
 30
0.0
 10
15.79288980070982
 20
13.59092280347412
 30
0.0
 10
15.79283500609503
 20
13.58903838755712
 30
0.0
 10
15.79284843281302
 20
13.58782408857754
 30
0.0
 10
15.79285481787658
 20
13.58724662979969
 30
0.0
  0
SPLINE
  5
112
330
1F
100
AcDbEntity
  8
0
  6
Continuous
 62
     7
370
    25
100
AcDbSpline
210
0.0
220
0.0
230
1.0
 70
     8
 71
     3
 72
    12
 73
     8
 74
     0
 42
0.000000001
 43
0.00000001
 40
0.0
 40
0.0
 40
0.0
 40
0.0
 40
0.5
 40
0.5
 40
0.75
 40
0.75
 40
1.0
 40
1.0
 40
1.0
 40
1.0
 10
15.80034733467394
 20
4.397931548159455
 30
0.0
 10
15.79795921567399
 20
4.399811198568622
 30
0.0
 10
15.79601072582058
 20
4.403066866859516
 30
0.0
 10
15.79405357524191
 20
4.409335212953642
 30
0.0
 10
15.79355568653446
 20
4.411688116567959
 30
0.0
 10
15.79293387031623
 20
4.416620587222857
 30
0.0
 10
15.79280150616944
 20
4.419199537131053
 30
0.0
 10
15.79285481790319
 20
4.421894328997754
 30
0.0
  0
SPLINE
  5
113
330
1F
100
AcDbEntity
  8
0
  6
Continuous
 62
     7
370
    25
100
AcDbSpline
210
0.0
220
0.0
230
1.0
 70
     8
 71
     3
 72
    24
 73
    20
 74
     0
 42
0.000000001
 43
0.00000001
 40
0.0
 40
0.0
 40
0.0
 40
0.0
 40
0.0312500000000007
 40
0.0312500000000007
 40
0.0625000000000013
 40
0.0625000000000013
 40
0.1249999999999987
 40
0.1249999999999987
 40
0.2499999999999978
 40
0.2499999999999978
 40
0.4999999999999958
 40
0.4999999999999958
 40
0.7499999999999939
 40
0.7499999999999939
 40
0.8749999999999942
 40
0.8749999999999942
 40
0.9374999999999971
 40
0.9374999999999971
 40
1.0
 40
1.0
 40
1.0
 40
1.0
 10
15.89162972108577
 20
4.466904029557265
 30
0.0
 10
15.89120505080806
 20
4.465677382813022
 30
0.0
 10
15.89045910729151
 20
4.464573831802872
 30
0.0
 10
15.88898700948139
 20
4.462515160441995
 30
0.0
 10
15.88819526625607
 20
4.461562475978451
 30
0.0
 10
15.8857375078982
 20
4.458816145772778
 30
0.0
 10
15.88397532837658
 20
4.457150199023009
 30
0.0
 10
15.87850542260517
 20
4.45241107133321
 30
0.0
 10
15.87462515846788
 20
4.449641020389687
 30
0.0
 10
15.86269625290328
 20
4.442001753766562
 30
0.0
 10
15.85443666399076
 20
4.437876562328849
 30
0.0
 10
15.83752790219613
 20
4.43079625726851
 30
0.0
 10
15.82886776495883
 20
4.42785903362596
 30
0.0
 10
15.8155207050098
 20
4.424489126466611
 30
0.0
 10
15.81103602769026
 20
4.423546039262043
 30
0.0
 10
15.80426179941333
 20
4.422522834068268
 30
0.0
 10
15.80199521167898
 20
4.42224527251048
 30
0.0
 10
15.79743609844802
 20
4.421879568111356
 30
0.0
 10
15.79514561116374
 20
4.421750061774722
 30
0.0
 10
15.79285481787663
 20
4.421894327053452
 30
0.0
  0
SPLINE
  5
114
330
1F
100
AcDbEntity
  8
0
  6
Continuous
 62
     7
370
    25
100
AcDbSpline
210
0.0
220
0.0
230
1.0
 70
     8
 71
     3
 72
    27
 73
    23
 74
     0
 42
0.000000001
 43
0.00000001
 40
0.0
 40
0.0
 40
0.0
 40
0.0
 40
0.0374678766537341
 40
0.063609562402799
 40
0.0710079075755481
 40
0.0763415753662697
 40
0.0822795740095923
 40
0.0857682360186989
 40
0.0890833666912928
 40
0.0947828799614634
 40
0.1066725128608694
 40
0.1264001116766675
 40
0.1655218380014211
 40
0.1896659199600397
 40
0.2213441164486721
 40
0.2523233103637538
 40
0.3650711835111612
 40
0.5026119502967707
 40
0.6332535388370183
 40
0.7873100447994599
 40
0.8884359617791594
 40
1.0
 40
1.0
 40
1.0
 40
1.0
 10
15.52473841678256
 20
13.37082028848548
 30
0.0
 10
15.52755141602072
 20
13.37186487439041
 30
0.0
 10
15.53232707096996
 20
13.37363827758906
 30
0.0
 10
15.53757890532774
 20
13.37584618255327
 30
0.0
 10
15.54036383765713
 20
13.37722916963438
 30
0.0
 10
15.5416613459575
 20
13.37799458298181
 30
0.0
 10
15.54260506789013
 20
13.37864930534154
 30
0.0
 10
15.54320625026828
 20
13.37967040518051
 30
0.0
 10
15.54241314631559
 20
13.3805069175592
 30
0.0
 10
15.54081719854291
 20
13.38092052572692
 30
0.0
 10
15.53787117504962
 20
13.38140237114854
 30
0.0
 10
15.53227595224391
 20
13.38196966766208
 30
0.0
 10
15.52573136459002
 20
13.38274440353033
 30
0.0
 10
15.51831169287221
 20
13.38386351296475
 30
0.0
 10
15.51165965573731
 20
13.38535120563402
 30
0.0
 10
15.4985714706133
 20
13.38920900292076
 30
0.0
 10
15.47941553228747
 20
13.39897011524759
 30
0.0
 10
15.4580298624379
 20
13.41639033566254
 30
0.0
 10
15.43741511964702
 20
13.43765911688548
 30
0.0
 10
15.4205446918283
 20
13.4581469384987
 30
0.0
 10
15.40570306200942
 20
13.4781838983429
 30
0.0
 10
15.39774326803436
 20
13.49010307638568
 30
0.0
 10
15.39356805083415
 20
13.49635514237287
 30
0.0
  0
SPLINE
  5
115
330
1F
100
AcDbEntity
  8
0
  6
Continuous
 62
     7
370
    25
100
AcDbSpline
210
0.0
220
0.0
230
1.0
 70
     8
 71
     3
 72
    19
 73
    15
 74
     0
 42
0.000000001
 43
0.00000001
 40
0.0
 40
0.0
 40
0.0
 40
0.0
 40
0.0569144359484848
 40
0.1252302036626089
 40
0.1877816273714754
 40
0.2502385732249394
 40
0.375056457883768
 40
0.4992717907692302
 40
0.6226458096677453
 40
0.7494181039718021
 40
0.8104830691341348
 40
0.8727216017523866
 40
0.9359537295758662
 40
1.0
 40
1.0
 40
1.0
 40
1.0
 10
15.79285444275474
 20
13.58724672900726
 30
0.0
 10
15.78576489467246
 20
13.58587836199796
 30
0.0
 10
15.77016559134242
 20
13.58286751112324
 30
0.0
 10
15.7465252751612
 20
13.57815778893371
 30
0.0
 10
15.7219956825153
 20
13.5732838568945
 30
0.0
 10
15.6900333586052
 20
13.56675887592255
 30
0.0
 10
15.64965198736804
 20
13.55805217029257
 30
0.0
 10
15.60039527418339
 20
13.54716845987014
 30
0.0
 10
15.54992832827292
 20
13.53537483004048
 30
0.0
 10
15.50724459409809
 20
13.52510877201886
 30
0.0
 10
15.47264243066135
 20
13.51654326817688
 30
0.0
 10
15.44671115487945
 20
13.51002440157069
 30
0.0
 10
15.42028113207428
 20
13.50329210147716
 30
0.0
 10
15.40251030765287
 20
13.49867728045319
 30
0.0
 10
15.39356805946132
 20
13.49635511047518
 30
0.0
  0
LINE
  5
116
330
1F
100
AcDbEntity
  8
0
  6
Continuous
 62
     7
370
    25
100
AcDbLine
 10
15.5247384598
 20
13.3708201458
 30
0.0
 11
15.8921416956
 21
13.3708201458
 31
0.0
  0
SPLINE
  5
117
330
1F
100
AcDbEntity
  8
0
  6
Continuous
 62
     7
370
    25
100
AcDbSpline
210
0.0
220
0.0
230
1.0
 70
     8
 71
     3
 72
    12
 73
     8
 74
     0
 42
0.000000001
 43
0.00000001
 40
0.0
 40
0.0
 40
0.0
 40
0.0
 40
0.25
 40
0.25
 40
0.5
 40
0.5
 40
1.0
 40
1.0
 40
1.0
 40
1.0
 10
15.79285507588534
 20
4.421894308625776
 30
0.0
 10
15.76137482011866
 20
4.42807284631543
 30
0.0
 10
15.72922862858414
 20
4.434300470362015
 30
0.0
 10
15.66419534460156
 20
4.447807303647927
 30
0.0
 10
15.6311224915952
 20
4.455055822843019
 30
0.0
 10
15.53127916067019
 20
4.477869402564573
 30
0.0
 10
15.46349222844241
 20
4.494540287375223
 30
0.0
 10
15.39356805083416
 20
4.512785814480274
 30
0.0
  0
SPLINE
  5
118
330
1F
100
AcDbEntity
  8
0
  6
Continuous
 62
     7
370
    25
100
AcDbSpline
210
0.0
220
0.0
230
1.0
 70
     8
 71
     3
 72
    22
 73
    18
 74
     0
 42
0.000000001
 43
0.00000001
 40
0.0
 40
0.0
 40
0.0
 40
0.0
 40
0.125
 40
0.125
 40
0.25
 40
0.25
 40
0.375
 40
0.375
 40
0.5
 40
0.5
 40
0.625
 40
0.625
 40
0.75
 40
0.75
 40
0.875
 40
0.875
 40
1.0
 40
1.0
 40
1.0
 40
1.0
 10
15.52473841678256
 20
4.638320668367667
 30
0.0
 10
15.53219204569763
 20
4.63559357888405
 30
0.0
 10
15.53735082033375
 20
4.633496795012493
 30
0.0
 10
15.5431434546689
 20
4.630398035540062
 30
0.0
 10
15.54375214349005
 20
4.629399007390614
 30
0.0
 10
15.54100470966423
 20
4.628065896665825
 30
0.0
 10
15.53773189464876
 20
4.627728578077616
 30
0.0
 10
15.52845239559946
 20
4.626757462980398
 30
0.0
 10
15.52245293993111
 20
4.626149371044536
 30
0.0
 10
15.50826618603993
 20
4.623030347484154
 30
0.0
 10
15.5001407243867
 20
4.620510553425368
 30
0.0
 10
15.48199633193884
 20
4.611215481810956
 30
0.0
 10
15.47193268021681
 20
4.604321554393447
 30
0.0
 10
15.45048693509415
 20
4.585386664838905
 30
0.0
 10
15.4391378268203
 20
4.573405866617805
 30
0.0
 10
15.41633020534012
 20
4.545750871583766
 30
0.0
 10
15.40487158527761
 20
4.530123348907121
 30
0.0
 10
15.39356795044526
 20
4.512785903474777
 30
0.0
  0
LINE
  5
119
330
1F
100
AcDbEntity
  8
0
  6
Continuous
 62
     7
370
    25
100
AcDbLine
 10
15.5247384598
 20
4.638320811
 30
0.0
 11
15.8921416956
 21
4.638320811
 31
0.0
  0
LINE
  5
11A
330
1F
100
AcDbEntity
  8
0
  6
Continuous
 62
     7
370
    25
100
AcDbLine
 10
15.5247384598
 20
4.638320811
 30
0.0
 11
15.5247384598
 21
13.3708201458
 31
0.0
  0
SPLINE
  5
11B
330
1F
100
AcDbEntity
  8
0
  6
Continuous
 62
     7
370
    25
100
AcDbSpline
210
0.0
220
0.0
230
1.0
 70
     8
 71
     3
 72
    10
 73
     6
 74
     0
 42
0.000000001
 43
0.00000001
 40
0.0
 40
0.0
 40
0.0
 40
0.0
 40
0.5
 40
0.5
 40
1.0
 40
1.0
 40
1.0
 40
1.0
 10
15.79880671338219
 20
13.61092483888055
 30
0.0
 10
15.79659688508297
 20
13.60904064797221
 30
0.0
 10
15.79488057388707
 20
13.60580798025574
 30
0.0
 10
15.79280985716946
 20
13.59755830823808
 30
0.0
 10
15.79245598353851
 20
13.59254839320287
 30
0.0
 10
15.79285481790319
 20
13.58724662785539
 30
0.0
  0
ARC
  5
11C
330
1F
100
AcDbEntity
  8
0
  6
Continuous
 62
     7
370
    25
100
AcDbCircle
 10
17.0459534828
 20
13.9405177566
 30
0.0
 40
1.711040055330659
100
AcDbArc
 50
194.6070023873
 51
195.0455196763
  0
SPLINE
  5
11D
330
1F
100
AcDbEntity
  8
0
  6
Continuous
 62
     7
370
    25
100
AcDbSpline
210
0.0
220
0.0
230
1.0
 70
     8
 71
     3
 72
    12
 73
     8
 74
     0
 42
0.000000001
 43
0.00000001
 40
0.0
 40
0.0
 40
0.0
 40
0.0
 40
0.4999999999999991
 40
0.4999999999999991
 40
0.7499999999999996
 40
0.7499999999999996
 40
1.0
 40
1.0
 40
1.0
 40
1.0
 10
15.39021702584271
 20
13.50901471891876
 30
0.0
 10
15.46290204436004
 20
13.52848383757554
 30
0.0
 10
15.53320732572427
 20
13.54660726251954
 30
0.0
 10
15.63613333424305
 20
13.57236065352991
 30
0.0
 10
15.67011597341511
 20
13.58072834751124
 30
0.0
 10
15.73654116558414
 20
13.59689157088647
 30
0.0
 10
15.769153622829
 20
13.60473781722741
 30
0.0
 10
15.80122257194114
 20
13.61237090792564
 30
0.0
  0
SPLINE
  5
11E
330
1F
100
AcDbEntity
  8
0
  6
Continuous
 62
     7
370
    25
100
AcDbSpline
210
0.0
220
0.0
230
1.0
 70
     8
 71
     3
 72
     8
 73
     4
 74
     0
 42
0.000000001
 43
0.00000001
 40
0.0
 40
0.0
 40
0.0
 40
0.0
 40
1.0
 40
1.0
 40
1.0
 40
1.0
 10
15.80122257194114
 20
13.61237090792564
 30
0.0
 10
15.8003689134221
 20
13.61205339545769
 30
0.0
 10
15.79956373595016
 20
13.61157030759886
 30
0.0
 10
15.79880671338219
 20
13.61092483888055
 30
0.0
  0
SPLINE
  5
11F
330
1F
100
AcDbEntity
  8
0
  6
Continuous
 62
     7
370
    25
100
AcDbSpline
210
0.0
220
0.0
230
1.0
 70
     8
 71
     3
 72
    12
 73
     8
 74
     0
 42
0.000000001
 43
0.00000001
 40
0.0
 40
0.0
 40
0.0
 40
0.0
 40
0.4999999999999991
 40
0.4999999999999991
 40
0.7499999999999996
 40
0.7499999999999996
 40
1.0
 40
1.0
 40
1.0
 40
1.0
 10
15.39021702584271
 20
4.500126237934385
 30
0.0
 10
15.46290204436004
 20
4.480657119277605
 30
0.0
 10
15.53320732572427
 20
4.462533694333604
 30
0.0
 10
15.63613333424305
 20
4.436780303323233
 30
0.0
 10
15.67011597341511
 20
4.428412609341911
 30
0.0
 10
15.73654116558414
 20
4.412249385966676
 30
0.0
 10
15.769153622829
 20
4.404403139625737
 30
0.0
 10
15.80122257194114
 20
4.396770048927503
 30
0.0
  0
ARC
  5
120
330
1F
100
AcDbEntity
  8
0
  6
Continuous
 62
     7
370
    25
100
AcDbCircle
 10
17.0459534828
 20
4.0686232002
 30
0.0
 40
1.711040055331226
100
AcDbArc
 50
164.9544803237
 51
165.3929976127
  0
SPLINE
  5
121
330
1F
100
AcDbEntity
  8
0
  6
Continuous
 62
     7
370
    25
100
AcDbSpline
210
0.0
220
0.0
230
1.0
 70
     8
 71
     3
 72
    13
 73
     9
 74
     0
 42
0.000000001
 43
0.00000001
 40
0.0
 40
0.0
 40
0.0
 40
0.0
 40
0.0968813536969171
 40
0.2234492400962156
 40
0.3799924243296882
 40
0.5650000204127142
 40
0.7741779479093457
 40
0.9999999999999999
 40
0.9999999999999999
 40
0.9999999999999999
 40
0.9999999999999999
 10
15.79880672378006
 20
4.398216146311119
 30
0.0
 10
15.79839163386557
 20
4.398606682444685
 30
0.0
 10
15.7974342615496
 20
4.399507423391681
 30
0.0
 10
15.79600166736936
 20
4.40157985249745
 30
0.0
 10
15.79453176282832
 20
4.40471573222322
 30
0.0
 10
15.79331128870862
 20
4.409194906437094
 30
0.0
 10
15.79257417666891
 20
4.415012944034757
 30
0.0
 10
15.79275908447708
 20
4.419542746785151
 30
0.0
 10
15.79285507588547
 20
4.421894308625753
 30
0.0
  0
SPLINE
  5
122
330
1F
100
AcDbEntity
  8
0
  6
Continuous
 62
     7
370
    25
100
AcDbSpline
210
0.0
220
0.0
230
1.0
 70
     8
 71
     3
 72
     8
 73
     4
 74
     0
 42
0.000000001
 43
0.00000001
 40
0.0
 40
0.0
 40
0.0
 40
0.0
 40
1.0
 40
1.0
 40
1.0
 40
1.0
 10
15.80122257194114
 20
4.396770048927503
 30
0.0
 10
15.80036766454527
 20
4.397087216178227
 30
0.0
 10
15.79955788027319
 20
4.39757201755407
 30
0.0
 10
15.79880671338219
 20
4.398216117972598
 30
0.0
  0
SPLINE
  5
123
330
1F
100
AcDbEntity
  8
0
  6
Continuous
 62
     7
370
    25
100
AcDbSpline
210
0.0
220
0.0
230
1.0
 70
     8
 71
     3
 72
     8
 73
     4
 74
     0
 42
0.000000001
 43
0.00000001
 40
0.0
 40
0.0
 40
0.0
 40
0.0
 40
1.0
 40
1.0
 40
1.0
 40
1.0
 10
15.80034733467394
 20
13.61120940869369
 30
0.0
 10
15.79983136406966
 20
13.61112378988878
 30
0.0
 10
15.79930786140066
 20
13.61106025558254
 30
0.0
 10
15.79880671338219
 20
13.61092483888055
 30
0.0
  0
SPLINE
  5
124
330
1F
100
AcDbEntity
  8
0
  6
Continuous
 62
     7
370
    25
100
AcDbSpline
210
0.0
220
0.0
230
1.0
 70
     8
 71
     3
 72
     8
 73
     4
 74
     0
 42
0.000000001
 43
0.00000001
 40
0.0
 40
0.0
 40
0.0
 40
0.0
 40
1.0
 40
1.0
 40
1.0
 40
1.0
 10
15.80034733467394
 20
4.397931548159455
 30
0.0
 10
15.79983136406984
 20
4.398017166964369
 30
0.0
 10
15.79930786140066
 20
4.398080701270605
 30
0.0
 10
15.79880671338219
 20
4.398216117972598
 30
0.0
  0
LINE
  5
125
330
1F
100
AcDbEntity
  8
0
  6
Continuous
 62
     7
370
    25
100
AcDbLine
 10
16.8989041487
 20
4.276056276
 30
0.0
 11
16.8989041487
 21
4.2545704442
 31
0.0
  0
LINE
  5
126
330
1F
100
AcDbEntity
  8
0
  6
Continuous
 62
     7
370
    25
100
AcDbLine
 10
16.8989041487
 20
4.2545704442
 30
0.0
 11
16.38055666
 21
4.2545704442
 31
0.0
  0
LINE
  5
127
330
1F
100
AcDbEntity
  8
0
  6
Continuous
 62
     7
370
    25
100
AcDbLine
 10
16.38055666
 20
4.276056276
 30
0.0
 11
16.38055666
 21
4.2545704442
 31
0.0
  0
LINE
  5
128
330
1F
100
AcDbEntity
  8
0
  6
Continuous
 62
     7
370
    25
100
AcDbLine
 10
17.2274184382
 20
4.6045705609
 30
0.0
 11
17.2489041555
 21
4.6045705609
 31
0.0
  0
LINE
  5
129
330
1F
100
AcDbEntity
  8
0
  6
Continuous
 62
     7
370
    25
100
AcDbLine
 10
17.2274184382
 20
13.4045703959
 30
0.0
 11
17.2489041555
 21
13.4045703959
 31
0.0
  0
LINE
  5
12A
330
1F
100
AcDbEntity
  8
0
  6
Continuous
 62
     7
370
    25
100
AcDbLine
 10
17.2489041555
 20
4.6045705609
 30
0.0
 11
17.2489041555
 21
13.4045703959
 31
0.0
  0
ARC
  5
12B
330
1F
100
AcDbEntity
  8
0
  6
Continuous
 62
     7
370
    25
100
AcDbCircle
 10
16.8989041555
 20
4.6045704784
 30
0.0
 40
0.3500000000000014
100
AcDbArc
 50
270.0
 51
0.0
  0
LINE
  5
12C
330
1F
100
AcDbEntity
  8
0
  6
Continuous
 62
     7
370
    25
100
AcDbLine
 10
16.8989041487
 20
13.7545705127
 30
0.0
 11
16.38055666
 21
13.7545705127
 31
0.0
  0
LINE
  5
12D
330
1F
100
AcDbEntity
  8
0
  6
Continuous
 62
     7
370
    25
100
AcDbLine
 10
16.8989041487
 20
13.7330846809
 30
0.0
 11
16.8989041487
 21
13.7545705127
 31
0.0
  0
LINE
  5
12E
330
1F
100
AcDbEntity
  8
0
  6
Continuous
 62
     7
370
    25
100
AcDbLine
 10
16.38055666
 20
13.7330846809
 30
0.0
 11
16.38055666
 21
13.7545705127
 31
0.0
  0
ARC
  5
12F
330
1F
100
AcDbEntity
  8
0
  6
Continuous
 62
     7
370
    25
100
AcDbCircle
 10
16.8989041555
 20
13.4045704784
 30
0.0
 40
0.3500000000000014
100
AcDbArc
 50
0.0
 51
90.0
  0
LINE
  5
130
330
1F
100
AcDbEntity
  8
0
  6
Continuous
 62
     7
370
    25
100
AcDbLine
 10
16.127298519
 20
13.6997427461
 30
0.0
 11
16.1217376433
 21
13.7204964263
 31
0.0
  0
SPLINE
  5
131
330
1F
100
AcDbEntity
  8
0
  6
Continuous
 62
     7
370
    25
100
AcDbSpline
210
0.0
220
0.0
230
1.0
 70
     8
 71
     3
 72
    15
 73
    11
 74
     0
 42
0.000000001
 43
0.00000001
 40
0.0
 40
0.0
 40
0.0
 40
0.0
 40
0.0625000000000006
 40
0.0625000000000006
 40
0.1250000000000013
 40
0.2500000000000013
 40
0.2500000000000013
 40
0.5000000000000009
 40
0.5000000000000009
 40
1.0
 40
1.0
 40
1.0
 40
1.0
 10
14.75253054645711
 20
13.33820313374808
 30
0.0
 10
14.76581779256454
 20
13.3417527276014
 30
0.0
 10
14.77910174682741
 20
13.34531632365973
 30
0.0
 10
14.80567177647497
 20
13.35243449336289
 30
0.0
 10
14.84552686215815
 20
13.3631115727021
 30
0.0
 10
14.8853820600504
 20
13.37378817441523
 30
0.0
 10
14.96509257142314
 20
13.39514088726386
 30
0.0
 10
15.01823306893254
 20
13.40937536695863
 30
0.0
 10
15.17765469039701
 20
13.45207826079841
 30
0.0
 10
15.28393581806643
 20
13.48054665923616
 30
0.0
 10
15.39021702584271
 20
13.50901471891876
 30
0.0
  0
LINE
  5
132
330
1F
100
AcDbEntity
  8
0
  6
Continuous
 62
     7
370
    25
100
AcDbLine
 10
14.7525305138
 20
13.3382030293
 30
0.0
 11
14.748676745
 21
13.3525858764
 31
0.0
  0
LINE
  5
133
330
1F
100
AcDbEntity
  8
0
  6
Continuous
 62
     7
370
    25
100
AcDbLine
 10
16.1217376433
 20
13.7204964263
 30
0.0
 11
14.748676745
 21
13.3525858764
 31
0.0
  0
ARC
  5
134
330
1F
100
AcDbEntity
  8
0
  6
Continuous
 62
     7
370
    25
100
AcDbCircle
 10
16.380556653
 20
12.7545704784
 30
0.0
 40
1.0
100
AcDbArc
 50
90.0
 51
105.0
  0
SPLINE
  5
135
330
1F
100
AcDbEntity
  8
0
  6
Continuous
 62
     7
370
    25
100
AcDbSpline
210
0.0
220
0.0
230
1.0
 70
     8
 71
     3
 72
    15
 73
    11
 74
     0
 42
0.000000001
 43
0.00000001
 40
0.0
 40
0.0
 40
0.0
 40
0.0
 40
0.0625000000000006
 40
0.0625000000000006
 40
0.1250000000000013
 40
0.2500000000000013
 40
0.2500000000000013
 40
0.5000000000000009
 40
0.5000000000000009
 40
1.0
 40
1.0
 40
1.0
 40
1.0
 10
14.75253054645711
 20
4.67093782310507
 30
0.0
 10
14.76581779256454
 20
4.667388229251747
 30
0.0
 10
14.77910174682741
 20
4.663824633193421
 30
0.0
 10
14.80567177647497
 20
4.656706463490258
 30
0.0
 10
14.84552686215815
 20
4.646029384151053
 30
0.0
 10
14.8853820600504
 20
4.63535278243792
 30
0.0
 10
14.96509257142314
 20
4.614000069589289
 30
0.0
 10
15.01823306893254
 20
4.599765589894512
 30
0.0
 10
15.17765469039701
 20
4.55706269605474
 30
0.0
 10
15.28393581806643
 20
4.528594297616991
 30
0.0
 10
15.39021702584271
 20
4.500126237934385
 30
0.0
  0
LINE
  5
136
330
1F
100
AcDbEntity
  8
0
  6
Continuous
 62
     7
370
    25
100
AcDbLine
 10
16.127298519
 20
4.3093982108
 30
0.0
 11
16.1217376433
 21
4.2886445305
 31
0.0
  0
LINE
  5
137
330
1F
100
AcDbEntity
  8
0
  6
Continuous
 62
     7
370
    25
100
AcDbLine
 10
16.1217376433
 20
4.2886445305
 30
0.0
 11
14.748676745
 21
4.6565550804
 31
0.0
  0
LINE
  5
138
330
1F
100
AcDbEntity
  8
0
  6
Continuous
 62
     7
370
    25
100
AcDbLine
 10
14.7525305138
 20
4.6709379276
 30
0.0
 11
14.748676745
 21
4.6565550804
 31
0.0
  0
ARC
  5
139
330
1F
100
AcDbEntity
  8
0
  6
Continuous
 62
     7
370
    25
100
AcDbCircle
 10
16.380556653
 20
5.2545704784
 30
0.0
 40
1.0
100
AcDbArc
 50
255.0
 51
270.0
  0
CIRCLE
  5
13A
330
1F
100
AcDbEntity
  8
0
  6
Continuous
 62
     7
370
    25
100
AcDbCircle
 10
14.8739041555
 20
12.7545704784
 30
0.0
 40
0.1659999999999986
  0
CIRCLE
  5
13B
330
1F
100
AcDbEntity
  8
0
  6
Continuous
 62
     7
370
    25
100
AcDbCircle
 10
14.8739041555
 20
5.2545704784
 30
0.0
 40
0.1659999999999995
  0
LINE
  5
13C
330
1F
100
AcDbEntity
  8
0
  6
Continuous
 62
     7
370
    25
100
AcDbLine
 10
14.7124041507
 20
8.6853247597
 30
0.0
 11
14.7124041507
 21
8.4160704935
 31
0.0
  0
ARC
  5
13D
330
1F
100
AcDbEntity
  8
0
  6
Continuous
 62
     7
370
    25
100
AcDbCircle
 10
14.8739041555
 20
8.4160704784
 30
0.0
 40
0.1615000000000002
100
AcDbArc
 50
180.0
 51
0.0
  0
LINE
  5
13E
330
1F
100
AcDbEntity
  8
0
  6
Continuous
 62
     7
370
    25
100
AcDbLine
 10
15.035404126
 20
8.6853247597
 30
0.0
 11
15.035404126
 21
8.4160704935
 31
0.0
  0
ARC
  5
13F
330
1F
100
AcDbEntity
  8
0
  6
Continuous
 62
     7
370
    25
100
AcDbCircle
 10
15.1154041555
 20
8.6853247424
 30
0.0
 40
0.0800000000000001
100
AcDbArc
 50
127.1064324652
 51
180.0
  0
ARC
  5
140
330
1F
100
AcDbEntity
  8
0
  6
Continuous
 62
     7
370
    25
100
AcDbCircle
 10
14.8739041555
 20
9.0045704784
 30
0.0
 40
0.3202999999999979
100
AcDbArc
 50
307.1064324656
 51
52.8935675348
  0
ARC
  5
141
330
1F
100
AcDbEntity
  8
0
  6
Continuous
 62
     7
370
    25
100
AcDbCircle
 10
15.1154041555
 20
9.3238162145
 30
0.0
 40
0.0800000000000013
100
AcDbArc
 50
180.0
 51
232.8935675348
  0
LINE
  5
142
330
1F
100
AcDbEntity
  8
0
  6
Continuous
 62
     7
370
    25
100
AcDbLine
 10
15.035404126
 20
9.3238161971
 30
0.0
 11
15.035404126
 21
9.5930704634
 31
0.0
  0
ARC
  5
143
330
1F
100
AcDbEntity
  8
0
  6
Continuous
 62
     7
370
    25
100
AcDbCircle
 10
14.8739041555
 20
9.5930704784
 30
0.0
 40
0.1615000000000002
100
AcDbArc
 50
0.0
 51
180.0
  0
LINE
  5
144
330
1F
100
AcDbEntity
  8
0
  6
Continuous
 62
     7
370
    25
100
AcDbLine
 10
14.7124041507
 20
9.3238161971
 30
0.0
 11
14.7124041507
 21
9.5930704634
 31
0.0
  0
ARC
  5
145
330
1F
100
AcDbEntity
  8
0
  6
Continuous
 62
     7
370
    25
100
AcDbCircle
 10
14.6324041555
 20
9.3238162145
 30
0.0
 40
0.0800000000000013
100
AcDbArc
 50
307.1064324652
 51
360.0
  0
ARC
  5
146
330
1F
100
AcDbEntity
  8
0
  6
Continuous
 62
     7
370
    25
100
AcDbCircle
 10
14.8739041555
 20
9.0045704784
 30
0.0
 40
0.320299999999999
100
AcDbArc
 50
127.1064324652
 51
232.8935675344
  0
ARC
  5
147
330
1F
100
AcDbEntity
  8
0
  6
Continuous
 62
     7
370
    25
100
AcDbCircle
 10
14.6324041555
 20
8.6853247424
 30
0.0
 40
0.0800000000000001
100
AcDbArc
 50
0.0
 51
52.8935675348
  0
SPLINE
  5
148
330
1F
100
AcDbEntity
  8
0
  6
Continuous
 62
     7
370
    25
100
AcDbSpline
210
0.0
220
0.0
230
1.0
 70
     8
 71
     3
 72
    73
 73
    69
 74
     0
 42
0.000000001
 43
0.00000001
 40
0.0
 40
0.0
 40
0.0
 40
0.0
 40
0.0312499999999926
 40
0.0468749999999892
 40
0.0546874999999875
 40
0.0585937499999866
 40
0.0585937499999866
 40
0.0624999999999856
 40
0.0624999999999856
 40
0.0937499999999817
 40
0.1093749999999793
 40
0.1171874999999781
 40
0.1210937499999775
 40
0.1210937499999775
 40
0.1249999999999769
 40
0.1249999999999769
 40
0.1874999999999706
 40
0.2187499999999679
 40
0.2343749999999665
 40
0.2421874999999648
 40
0.2460937499999641
 40
0.2460937499999641
 40
0.2499999999999634
 40
0.2499999999999634
 40
0.3124999999999666
 40
0.3437499999999685
 40
0.3437499999999685
 40
0.3749999999999702
 40
0.3749999999999702
 40
0.4374999999999755
 40
0.4687499999999789
 40
0.4843749999999797
 40
0.4921874999999818
 40
0.4921874999999818
 40
0.4999999999999839
 40
0.4999999999999839
 40
0.5625000000000001
 40
0.5937500000000082
 40
0.6093750000000122
 40
0.6171875000000137
 40
0.6210937500000142
 40
0.6210937500000142
 40
0.6250000000000149
 40
0.6250000000000149
 40
0.6875000000000115
 40
0.7187500000000114
 40
0.7343750000000108
 40
0.7421875000000099
 40
0.7460937500000101
 40
0.7460937500000101
 40
0.7500000000000102
 40
0.7500000000000102
 40
0.812500000000018
 40
0.8437500000000205
 40
0.8593750000000222
 40
0.8671875000000226
 40
0.8710937500000232
 40
0.8710937500000232
 40
0.8750000000000236
 40
0.8750000000000236
 40
0.9062500000000235
 40
0.9218750000000235
 40
0.9296875000000234
 40
0.9335937500000234
 40
0.9335937500000234
 40
0.9375000000000233
 40
0.9375000000000233
 40
1.0
 40
1.0
 40
1.0
 40
1.0
 10
14.97287258495549
 20
13.20209797164724
 30
0.0
 10
14.96512675015489
 20
13.19972989755998
 30
0.0
 10
14.95351409671602
 20
13.1958522422665
 30
0.0
 10
14.93997662557765
 20
13.19075876676631
 30
0.0
 10
14.93321054614354
 20
13.18806964293513
 30
0.0
 10
14.93031136698644
 20
13.18688664999009
 30
0.0
 10
14.92837870736433
 20
13.18609120773716
 30
0.0
 10
14.92733513709565
 20
13.18565773324093
 30
0.0
 10
14.91933504043014
 20
13.18230848952126
 30
0.0
 10
14.90861004637614
 20
13.17754132122337
 30
0.0
 10
14.89599570593816
 20
13.17145198236713
 30
0.0
 10
14.88966307387543
 20
13.16827540231184
 30
0.0
 10
14.88694363259631
 20
13.16688574429661
 30
0.0
 10
14.88512945927482
 20
13.16595302416134
 30
0.0
 10
14.88414604606643
 20
13.16544412162639
 30
0.0
 10
14.86999220619059
 20
13.15807904523097
 30
0.0
 10
14.85023645616221
 20
13.14689226482699
 30
0.0
 10
14.82758382886095
 20
13.13246022641
 30
0.0
 10
14.81635645214327
 20
13.12489900854841
 30
0.0
 10
14.81076749801767
 20
13.12103209995434
 30
0.0
 10
14.80837753215668
 20
13.11935636062904
 30
0.0
 10
14.80678539940332
 20
13.11823509157108
 30
0.0
 10
14.80594506947123
 20
13.11764053598145
 30
0.0
 10
14.79319445593559
 20
13.10858161457102
 30
0.0
 10
14.77555889054736
 20
13.09521387076821
 30
0.0
 10
14.75847127632872
 20
13.08097810954208
 30
0.0
 10
14.74720130044287
 20
13.07129470929727
 30
0.0
 10
14.74156513639444
 20
13.06629989090296
 30
0.0
 10
14.7252116520518
 20
13.05136612792813
 30
0.0
 10
14.70939252842685
 20
13.0360317688277
 30
0.0
 10
14.69187201545368
 20
13.01744063999077
 30
0.0
 10
14.68334554178108
 20
13.00796981476736
 30
0.0
 10
14.67974143509582
 20
13.00387333378485
 30
0.0
 10
14.6773498298206
 20
13.00113400071055
 30
0.0
 10
14.67619648104102
 20
12.99980306907871
 30
0.0
 10
14.66520246153206
 20
12.98701478843629
 30
0.0
 10
14.65122789750177
 20
12.96967418093464
 30
0.0
 10
14.636121464601
 20
12.94893673055383
 30
0.0
 10
14.62886755443426
 20
12.9384413199562
 30
0.0
 10
14.6253154259218
 20
12.93316194330558
 30
0.0
 10
14.62380911939594
 20
12.93089256659421
 30
0.0
 10
14.62280847821541
 20
12.92937814062702
 30
0.0
 10
14.62234458910236
 20
12.92867309598561
 30
0.0
 10
14.61331066479133
 20
12.91487515537745
 30
0.0
 10
14.60144845713267
 20
12.89522815888145
 30
0.0
 10
14.58916945858291
 20
12.87201344883924
 30
0.0
 10
14.58342002023769
 20
12.86033279028559
 30
0.0
 10
14.58064281629751
 20
12.85447413512563
 30
0.0
 10
14.57947348215866
 20
12.85195935593925
 30
0.0
 10
14.57869856964859
 20
12.85028196382057
 30
0.0
 10
14.57835464018059
 20
12.84953320050168
 30
0.0
 10
14.57114633981915
 20
12.83372425804716
 30
0.0
 10
14.5621337462317
 20
12.81134728444382
 30
0.0
 10
14.55365575700445
 20
12.78513849867468
 30
0.0
 10
14.54992593821368
 20
12.7720085266488
 30
0.0
 10
14.54818832277401
 20
12.76543714585053
 30
0.0
 10
14.54747090771895
 20
12.76261946948299
 30
0.0
 10
14.54699869263251
 20
12.7607407140577
 30
0.0
 10
14.54678996999313
 20
12.75990066470469
 30
0.0
 10
14.54450036979832
 20
12.75054819912087
 30
0.0
 10
14.54181850162692
 20
12.7381337893377
 30
0.0
 10
14.53933878658157
 20
12.72374751383236
 30
0.0
 10
14.53826121184754
 20
12.71657867672345
 30
0.0
 10
14.53783416898766
 20
12.71351152524329
 30
0.0
 10
14.53755720149959
 20
12.71146791476336
 30
0.0
 10
14.5374329815643
 20
12.71052786734451
 30
0.0
 10
14.53503333083887
 20
12.69179680323094
 30
0.0
 10
14.53390408160873
 20
12.67420333725353
 30
0.0
 10
14.5339041554599
 20
12.65664564211146
 30
0.0
  0
LINE
  5
149
330
1F
100
AcDbEntity
  8
0
  6
Continuous
 62
     7
370
    25
100
AcDbLine
 10
15.5247384598
 20
13.3708201458
 30
0.0
 11
14.972872635
 21
13.2020979349
 31
0.0
  0
LINE
  5
14A
330
1F
100
AcDbEntity
  8
0
  6
Continuous
 62
     7
370
    25
100
AcDbLine
 10
15.5247384598
 20
4.638320811
 30
0.0
 11
14.972872635
 21
4.807043022
 31
0.0
  0
SPLINE
  5
14B
330
1F
100
AcDbEntity
  8
0
  6
Continuous
 62
     7
370
    25
100
AcDbSpline
210
0.0
220
0.0
230
1.0
 70
     8
 71
     3
 72
    15
 73
    11
 74
     0
 42
0.000000001
 43
0.00000001
 40
0.0
 40
0.0
 40
0.0
 40
0.0
 40
0.125
 40
0.25
 40
0.375
 40
0.5
 40
0.625
 40
0.75
 40
0.875
 40
1.0
 40
1.0
 40
1.0
 40
1.0
 10
14.97287258495549
 20
4.807042985205904
 30
0.0
 10
14.94071176857968
 20
4.816875533512748
 30
0.0
 10
14.88145414641286
 20
4.84248685693611
 30
0.0
 10
14.80372392663464
 20
4.89076346925199
 30
0.0
 10
14.73482062029422
 20
4.946659413775031
 30
0.0
 10
14.6736777531273
 20
5.009513138166626
 30
0.0
 10
14.62031825617352
 20
5.079841180714393
 30
0.0
 10
14.57592869094384
 20
5.158799412976829
 30
0.0
 10
14.54355111384645
 20
5.248187535652511
 30
0.0
 10
14.5339041554599
 20
5.316147452576949
 30
0.0
 10
14.5339041554599
 20
5.352495314741692
 30
0.0
  0
LINE
  5
14C
330
1F
100
AcDbEntity
  8
0
  6
Continuous
 62
     7
370
    25
100
AcDbLine
 10
14.5339040794
 20
5.3524953342
 30
0.0
 11
14.5339040794
 21
9.0045704784
 31
0.0
  0
LINE
  5
14D
330
1F
100
AcDbEntity
  8
0
  6
Continuous
 62
     7
370
    25
100
AcDbLine
 10
14.5339040794
 20
12.6566456227
 30
0.0
 11
14.5339040794
 21
9.0045704784
 31
0.0
  0
SPLINE
  5
14E
330
1F
100
AcDbEntity
  8
0
  6
Continuous
 62
     7
370
    25
100
AcDbSpline
210
0.0
220
0.0
230
1.0
 70
     8
 71
     3
 72
    14
 73
    10
 74
     0
 42
0.000000001
 43
0.00000001
 40
0.0
 40
0.0
 40
0.0
 40
0.0
 40
0.2500000000000001
 40
0.2500000000000001
 40
0.5000000000000001
 40
0.5000000000000001
 40
0.7500000000000002
 40
0.7500000000000002
 40
1.0
 40
1.0
 40
1.0
 40
1.0
 10
14.28202252390163
 20
12.51366146311472
 30
0.0
 10
14.2816936506642
 20
12.21041564492828
 30
0.0
 10
14.28191914858109
 20
11.91321953742603
 30
0.0
 10
14.28209044938304
 20
11.32290041616299
 30
0.0
 10
14.28204385546622
 20
11.02981018445044
 30
0.0
 10
14.28203868634468
 20
10.44726702155067
 30
0.0
 10
14.28207868258299
 20
10.15780928556662
 30
0.0
 10
14.28211682552941
 20
9.580419806173648
 30
0.0
 10
14.28211523750574
 20
9.292488986881068
 30
0.0
 10
14.28211365222956
 20
9.004570478426572
 30
0.0
  0
SPLINE
  5
14F
330
1F
100
AcDbEntity
  8
0
  6
Continuous
 62
     7
370
    25
100
AcDbSpline
210
0.0
220
0.0
230
1.0
 70
     8
 71
     3
 72
    26
 73
    22
 74
     0
 42
0.000000001
 43
0.00000001
 40
0.0
 40
0.0
 40
0.0
 40
0.0
 40
0.0153569632901289
 40
0.0315656960423948
 40
0.0486377290693743
 40
0.0665855209766804
 40
0.0854229964540792
 40
0.1051662520410745
 40
0.125832373118016
 40
0.1722160278025616
 40
0.2506651593526406
 40
0.3702348031037389
 40
0.5004904675936241
 40
0.6115351862132113
 40
0.7497095607412554
 40
0.8342951238873006
 40
0.8747007975309006
 40
0.9101917755479886
 40
0.9373374666759879
 40
0.9689053884626998
 40
1.0
 40
1.0
 40
1.0
 40
1.0
 10
14.75596414172452
 20
13.32400394446342
 30
0.0
 10
14.75098235321733
 20
13.32253575676672
 30
0.0
 10
14.74074246276537
 20
13.31951794877357
 30
0.0
 10
14.72510713383849
 20
13.31440320001688
 30
0.0
 10
14.70877196200191
 20
13.30862793996452
 30
0.0
 10
14.69177246969505
 20
13.30208280403535
 30
0.0
 10
14.67413732068751
 20
13.29469636387215
 30
0.0
 10
14.65590639497545
 20
13.28637638399679
 30
0.0
 10
14.62962253279174
 20
13.27330091875434
 30
0.0
 10
14.58685602517648
 20
13.24886255353772
 30
0.0
 10
14.51977224613772
 20
13.20012618324266
 30
0.0
 10
14.44251621244921
 20
13.11915898506788
 30
0.0
 10
14.37849398791204
 20
13.01423642373858
 30
0.0
 10
14.33093266323673
 20
12.89463683361652
 30
0.0
 10
14.30426101088368
 20
12.78454245173136
 30
0.0
 10
14.29174366865253
 20
12.69637729373603
 30
0.0
 10
14.28669241722968
 20
12.64233295271285
 30
0.0
 10
14.28436621456824
 20
12.60756005771148
 30
0.0
 10
14.28293638021151
 20
12.57573259225995
 30
0.0
 10
14.28212734841722
 20
12.54536898533119
 30
0.0
 10
14.2820572890131
 20
12.52417728127013
 30
0.0
 10
14.28202252390163
 20
12.51366146311472
 30
0.0
  0
SPLINE
  5
150
330
1F
100
AcDbEntity
  8
0
  6
Continuous
 62
     7
370
    25
100
AcDbSpline
210
0.0
220
0.0
230
1.0
 70
     8
 71
     3
 72
     9
 73
     5
 74
     0
 42
0.000000001
 43
0.00000001
 40
0.0
 40
0.0
 40
0.0
 40
0.0
 40
0.4977862607963798
 40
0.9999999999999999
 40
0.9999999999999999
 40
0.9999999999999999
 40
0.9999999999999999
 10
14.77033734872238
 20
13.32814656044832
 30
0.0
 10
14.7679527377456
 20
13.32745827019505
 30
0.0
 10
14.76316230626008
 20
13.32607556780354
 30
0.0
 10
14.75837060162597
 20
13.32469652081039
 30
0.0
 10
14.75596414172452
 20
13.32400394446342
 30
0.0
  0
SPLINE
  5
151
330
1F
100
AcDbEntity
  8
0
  6
Continuous
 62
     7
370
    25
100
AcDbSpline
210
0.0
220
0.0
230
1.0
 70
     8
 71
     3
 72
    10
 73
     6
 74
     0
 42
0.000000001
 43
0.00000001
 40
0.0
 40
0.0
 40
0.0
 40
0.0
 40
0.5
 40
0.5
 40
1.0
 40
1.0
 40
1.0
 40
1.0
 10
15.39356805083415
 20
13.49635514237287
 30
0.0
 10
15.2916750813248
 20
13.46882959369395
 30
0.0
 10
15.18947215431217
 20
13.4412233710563
 30
0.0
 10
14.98273794311719
 20
13.38537561901578
 30
0.0
 10
14.87811755605332
 20
13.35712140013905
 30
0.0
 10
14.77033734872238
 20
13.32814656044832
 30
0.0
  0
SPLINE
  5
152
330
1F
100
AcDbEntity
  8
0
  6
Continuous
 62
     7
370
    25
100
AcDbSpline
210
0.0
220
0.0
230
1.0
 70
    24
 71
     3
 72
     8
 73
     4
 74
     0
 42
0.000000001
 43
0.00000001
 40
0.0
 40
0.0
 40
0.0
 40
0.0
 40
1.0
 40
1.0
 40
1.0
 40
1.0
 10
14.28211365222952
 20
9.004570478426572
 30
0.0
 10
14.3967109382931
 20
9.004570478426572
 30
0.0
 10
14.50725230614287
 20
9.004570478426572
 30
0.0
 10
14.5339041554599
 20
9.004570478426572
 30
0.0
  0
SPLINE
  5
153
330
1F
100
AcDbEntity
  8
0
  6
Continuous
 62
     7
370
    25
100
AcDbSpline
210
0.0
220
0.0
230
1.0
 70
     8
 71
     3
 72
    16
 73
    12
 74
     0
 42
0.000000001
 43
0.00000001
 40
0.0
 40
0.0
 40
0.0
 40
0.0
 40
0.5000000000000016
 40
0.5000000000000016
 40
0.7500000000000014
 40
0.7500000000000014
 40
0.8750000000000016
 40
0.9375000000000014
 40
0.9687500000000013
 40
0.9687500000000013
 40
1.0
 40
1.0
 40
1.0
 40
1.0
 10
15.39356805083416
 20
4.512785814480274
 30
0.0
 10
15.289706779794
 20
4.540847850569306
 30
0.0
 10
15.18584013850613
 20
4.568904780125997
 30
0.0
 10
15.03004313053346
 20
4.610980751857076
 30
0.0
 10
14.97811113558695
 20
4.625001825093491
 30
0.0
 10
14.90020858565826
 20
4.646009088718015
 30
0.0
 10
14.86125618142144
 20
4.656506742879447
 30
0.0
 10
14.81580885017409
 20
4.668740653183658
 30
0.0
 10
14.79633072149419
 20
4.673980602753806
 30
0.0
 10
14.78334513739345
 20
4.677473171027813
 30
0.0
 10
14.77688623884944
 20
4.67917354277091
 30
0.0
 10
14.77033728816956
 20
4.680994172372007
 30
0.0
  0
SPLINE
  5
154
330
1F
100
AcDbEntity
  8
0
  6
Continuous
 62
     7
370
    25
100
AcDbSpline
210
0.0
220
0.0
230
1.0
 70
     8
 71
     3
 72
     9
 73
     5
 74
     0
 42
0.000000001
 43
0.00000001
 40
0.0
 40
0.0
 40
0.0
 40
0.0
 40
0.3250515270899784
 40
1.0
 40
1.0
 40
1.0
 40
1.0
 10
14.77033728816956
 20
4.680994172372008
 30
0.0
 10
14.76877954103171
 20
4.681441484241182
 30
0.0
 10
14.76398723271125
 20
4.68281761027627
 30
0.0
 10
14.75919718029084
 20
4.684202370554551
 30
0.0
 10
14.75596414172452
 20
4.685137012389723
 30
0.0
  0
SPLINE
  5
155
330
1F
100
AcDbEntity
  8
0
  6
Continuous
 62
     7
370
    25
100
AcDbSpline
210
0.0
220
0.0
230
1.0
 70
     8
 71
     3
 72
    28
 73
    24
 74
     0
 42
0.000000001
 43
0.00000001
 40
0.0
 40
0.0
 40
0.0
 40
0.0
 40
0.1250000000000026
 40
0.1250000000000026
 40
0.250000000000005
 40
0.250000000000005
 40
0.312500000000005
 40
0.312500000000005
 40
0.3750000000000052
 40
0.3750000000000052
 40
0.5000000000000057
 40
0.5000000000000057
 40
0.5625000000000051
 40
0.5625000000000051
 40
0.6250000000000047
 40
0.6250000000000047
 40
0.7500000000000036
 40
0.7500000000000036
 40
0.8750000000000027
 40
0.8750000000000027
 40
0.9375000000000013
 40
0.9375000000000013
 40
1.0
 40
1.0
 40
1.0
 40
1.0
 10
14.75596414169629
 20
4.685137012397849
 30
0.0
 10
14.71461471426558
 20
4.697031049947352
 30
0.0
 10
14.67473995446058
 20
4.712632452642973
 30
0.0
 10
14.59843712798411
 20
4.752434429908148
 30
0.0
 10
14.56317640147991
 20
4.776080314500063
 30
0.0
 10
14.51475669041738
 20
4.817132208650407
 30
0.0
 10
14.4993619092445
 20
4.831742146937109
 30
0.0
 10
14.47006576440863
 20
4.862874139089907
 30
0.0
 10
14.45625287945886
 20
4.879329332422479
 30
0.0
 10
14.41794200202088
 20
4.930165000822863
 30
0.0
 10
14.39620258010315
 20
4.966348340321803
 30
0.0
 10
14.36833069565993
 20
5.023590294373779
 30
0.0
 10
14.35983204187857
 20
5.043186823256723
 30
0.0
 10
14.34454302293691
 20
5.082565411107398
 30
0.0
 10
14.33770536349363
 20
5.102437110233317
 30
0.0
 10
14.31928361728773
 20
5.162532085369151
 30
0.0
 10
14.30977572803958
 20
5.203238873373471
 30
0.0
 10
14.29510848131966
 20
5.28565167524808
 30
0.0
 10
14.28995461708195
 20
5.327496117112033
 30
0.0
 10
14.28500042573963
 20
5.390436847517354
 30
0.0
 10
14.28381551931721
 20
5.411439099886887
 30
0.0
 10
14.28230734374648
 20
5.453477246207179
 30
0.0
 10
14.28203410830631
 20
5.474567333822621
 30
0.0
 10
14.28202252390163
 20
5.495479493738428
 30
0.0
  0
SPLINE
  5
156
330
1F
100
AcDbEntity
  8
0
  6
Continuous
 62
     7
370
    25
100
AcDbSpline
210
0.0
220
0.0
230
1.0
 70
     8
 71
     3
 72
    12
 73
     8
 74
     0
 42
0.000000001
 43
0.00000001
 40
0.0
 40
0.0
 40
0.0
 40
0.0
 40
0.2500000000000001
 40
0.2500000000000001
 40
0.5000000000000002
 40
0.5000000000000002
 40
1.0
 40
1.0
 40
1.0
 40
1.0
 10
14.28202252390163
 20
5.495479493733034
 30
0.0
 10
14.28186052692003
 20
5.787916165041487
 30
0.0
 10
14.28197690725125
 20
6.080345295931195
 30
0.0
 10
14.2820771383517
 20
6.665185190362425
 30
0.0
 10
14.28205578845809
 20
6.957606847643703
 30
0.0
 10
14.2820587371795
 20
7.834879641064072
 30
0.0
 10
14.28210935333949
 20
8.419724186511854
 30
0.0
 10
14.28211365228785
 20
9.004570478426574
 30
0.0
  0
ARC
  5
157
330
1F
100
AcDbEntity
  8
0
  6
Continuous
 62
     7
370
    25
100
AcDbCircle
 10
14.9775495498
 20
13.3851033616
 30
0.0
 40
0.2298547535778852
100
AcDbArc
 50
191.7735029881
 51
195.4155703665
  0
ARC
  5
158
330
1F
100
AcDbEntity
  8
0
  6
Continuous
 62
     7
370
    25
100
AcDbCircle
 10
14.9775495498
 20
4.6240375953
 30
0.0
 40
0.229854753577866
100
AcDbArc
 50
164.5844296335
 51
168.2264970119
  0
ARC
  5
159
330
1F
100
AcDbEntity
  8
0
  6
Continuous
 62
     7
370
    25
100
AcDbCircle
 10
14.2792948387
 20
15.1403938072
 30
0.0
 40
9.644914590492327
100
AcDbArc
 50
269.9069994391
 51
270.0162039316
  0
SPLINE
  5
15A
330
1F
100
AcDbEntity
  8
0
  6
Continuous
 62
     7
370
    25
100
AcDbSpline
210
0.0
220
0.0
230
1.0
 70
     8
 71
     3
 72
    30
 73
    26
 74
     0
 42
0.000000001
 43
0.00000001
 40
0.0
 40
0.0
 40
0.0
 40
0.0
 40
0.0624999999999989
 40
0.0624999999999989
 40
0.1249999999999978
 40
0.1249999999999978
 40
0.2499999999999957
 40
0.2499999999999957
 40
0.3749999999999935
 40
0.3749999999999935
 40
0.4374999999999925
 40
0.4374999999999925
 40
0.4999999999999913
 40
0.4999999999999913
 40
0.6249999999999878
 40
0.6249999999999878
 40
0.6562499999999886
 40
0.6562499999999886
 40
0.6874999999999893
 40
0.6874999999999893
 40
0.7499999999999919
 40
0.7499999999999919
 40
0.8749999999999959
 40
0.8749999999999959
 40
1.0
 40
1.0
 40
1.0
 40
1.0
 10
14.26363952623744
 20
5.495491837782527
 30
0.0
 10
14.26363902708536
 20
5.474261756227067
 30
0.0
 10
14.26400677300943
 20
5.453030833294813
 30
0.0
 10
14.2655470992339
 20
5.410565174193825
 30
0.0
 10
14.26672191514376
 20
5.389330450310537
 30
0.0
 10
14.27161550003783
 20
5.325617201182919
 30
0.0
 10
14.27670055297159
 20
5.283185048469985
 30
0.0
 10
14.2913431019312
 20
5.199390158903837
 30
0.0
 10
14.3008994715421
 20
5.157909422408228
 30
0.0
 10
14.31958538981056
 20
5.096499298871096
 30
0.0
 10
14.32654377851618
 20
5.076164965398419
 30
0.0
 10
14.34215963286092
 20
5.035817847301013
 30
0.0
 10
14.35086587596827
 20
5.015712742268447
 30
0.0
 10
14.37951180689243
 20
4.956926018075818
 30
0.0
 10
14.40197284399932
 20
4.919649142446108
 30
0.0
 10
14.4350998090026
 20
4.876049421174707
 30
0.0
 10
14.44197893318879
 20
4.867480184177746
 30
0.0
 10
14.45627040384734
 20
4.850663922304621
 30
0.0
 10
14.46370674800369
 20
4.842393585044588
 30
0.0
 10
14.48657589529156
 20
4.818383884228733
 30
0.0
 10
14.50261567673321
 20
4.803379590071646
 30
0.0
 10
14.55304352403079
 20
4.761386297171589
 30
0.0
 10
14.58976065962083
 20
4.737394049352082
 30
0.0
 10
14.66888798528341
 20
4.697552190314613
 30
0.0
 10
14.71006970262282
 20
4.682282404895716
 30
0.0
 10
14.75253054645773
 20
4.670937823104897
 30
0.0
  0
ARC
  5
15B
330
1F
100
AcDbEntity
  8
0
  6
Continuous
 62
     7
370
    25
100
AcDbCircle
 10
14.2792948387
 20
2.8687471485
 30
0.0
 40
9.64491459161684
100
AcDbArc
 50
89.9837960684
 51
90.0930005609
  0
SPLINE
  5
15C
330
1F
100
AcDbEntity
  8
0
  6
Continuous
 62
     7
370
    25
100
AcDbSpline
210
0.0
220
0.0
230
1.0
 70
     8
 71
     3
 72
    22
 73
    18
 74
     0
 42
0.000000001
 43
0.00000001
 40
0.0
 40
0.0
 40
0.0
 40
0.0
 40
0.013241026202458
 40
0.0313356211948701
 40
0.0626715815561476
 40
0.1253169692495762
 40
0.2502713386497555
 40
0.386652075174532
 40
0.4995323213002618
 40
0.6335494096506035
 40
0.7493171218573705
 40
0.8166228921563053
 40
0.8741482502304054
 40
0.9043228312818914
 40
0.935333435291226
 40
0.9672152486711862
 40
1.0
 40
1.0
 40
1.0
 40
1.0
 10
14.26363952623743
 20
12.51364911907062
 30
0.0
 10
14.2636496157574
 20
12.5182327288786
 30
0.0
 10
14.26367349316469
 20
12.52908009512135
 30
0.0
 10
14.26396026869262
 20
12.5507734721667
 30
0.0
 10
14.26501600946503
 20
12.58955823375491
 30
0.0
 10
14.26930698720022
 20
12.66524210533187
 30
0.0
 10
14.28295125102771
 20
12.77673049814821
 30
0.0
 10
14.31347618439299
 20
12.90307479239861
 30
0.0
 10
14.36295535918636
 20
13.02663843766729
 30
0.0
 10
14.42992060453024
 20
13.13400242168858
 30
0.0
 10
14.50732111992771
 20
13.21303796072608
 30
0.0
 10
14.57492883540433
 20
13.26200288219415
 30
0.0
 10
14.62173016675687
 20
13.28844568055772
 30
0.0
 10
14.65894975475941
 20
13.30589548256591
 30
0.0
 10
14.68880332714479
 20
13.31803211981199
 30
0.0
 10
14.72006104787834
 20
13.32903738153832
 30
0.0
 10
14.74160709790906
 20
13.33511957449863
 30
0.0
 10
14.75253054645711
 20
13.33820313374808
 30
0.0
  0
LWPOLYLINE
  5
15D
330
1F
100
AcDbEntity
  8
0
  6
Continuous
 62
     7
370
    25
100
AcDbPolyline
 90
        5
 70
   128
 43
0.0
 10
14.2636360282
 20
9.0045704784
 10
14.2636374948
 20
10.1976572491
 10
14.2636383748
 20
10.9696545109
 10
14.2636404281
 20
11.7416518461
 10
14.2636395482
 20
12.5136490346
  0
LINE
  5
15E
330
1F
100
AcDbEntity
  8
0
  6
Continuous
 62
     7
370
    25
100
AcDbLine
 10
14.2821137614
 20
9.00457032
 30
0.0
 11
14.2636360282
 21
9.00457032
 31
0.0
  0
LWPOLYLINE
  5
15F
330
1F
100
AcDbEntity
  8
0
  6
Continuous
 62
     7
370
    25
100
AcDbPolyline
 90
        5
 70
   128
 43
0.0
 10
14.2636360282
 20
9.0045704784
 10
14.2636374948
 20
7.8114837077
 10
14.2636383748
 20
7.0394864459
 10
14.2636404281
 20
6.2674891108
 10
14.2636395482
 20
5.4954919223
  0
SPLINE
  5
160
330
1F
100
AcDbEntity
  8
0
  6
Continuous
 62
     7
370
    25
100
AcDbSpline
210
0.0
220
0.0
230
1.0
 70
     8
 71
     3
 72
     8
 73
     4
 74
     0
 42
0.000000001
 43
0.00000001
 40
0.0
 40
0.0
 40
0.0
 40
0.0
 40
1.0
 40
1.0
 40
1.0
 40
1.0
 10
14.74867673532903
 20
4.656555204113676
 30
0.0
 10
14.47968363757608
 20
4.728631687132322
 30
0.0
 10
14.24890415554916
 20
4.959411169500795
 30
0.0
 10
14.2489041554599
 20
5.495491837782527
 30
0.0
  0
LINE
  5
161
330
1F
100
AcDbEntity
  8
0
  6
Continuous
 62
     7
370
    25
100
AcDbLine
 10
14.2636395482
 20
5.4954919223
 30
0.0
 11
14.2489041184
 21
5.4954919223
 31
0.0
  0
LINE
  5
162
330
1F
100
AcDbEntity
  8
0
  6
Continuous
 62
     7
370
    25
100
AcDbLine
 10
14.2636395482
 20
12.5136490346
 30
0.0
 11
14.2489041184
 21
12.5136490346
 31
0.0
  0
SPLINE
  5
163
330
1F
100
AcDbEntity
  8
0
  6
Continuous
 62
     7
370
    25
100
AcDbSpline
210
0.0
220
0.0
230
1.0
 70
     8
 71
     3
 72
     8
 73
     4
 74
     0
 42
0.000000001
 43
0.00000001
 40
0.0
 40
0.0
 40
0.0
 40
0.0
 40
1.0
 40
1.0
 40
1.0
 40
1.0
 10
14.74867673532903
 20
13.35258575273947
 30
0.0
 10
14.47968363757608
 20
13.28050926972083
 30
0.0
 10
14.24890415554916
 20
13.04972978735235
 30
0.0
 10
14.2489041554599
 20
12.51364911907062
 30
0.0
  0
LINE
  5
164
330
1F
100
AcDbEntity
  8
0
  6
Continuous
 62
     7
370
    25
100
AcDbLine
 10
14.2489041184
 20
12.5136490346
 30
0.0
 11
14.2489041184
 21
5.4954919223
 31
0.0
  0
DIMENSION
  5
165
330
1F
100
AcDbEntity
  8
0
  6
Continuous
 62
     7
370
    18
100
AcDbDimension
  2
_D
 10
17.2489041555
 20
14.7658750949
 30
0.0
 11
15.7489041555
 21
14.7658750949
 31
0.0
 70
   160
  1
<>
 71
     2
 42
-1.0
  3
SLDDIMSTYLE0
100
AcDbAlignedDimension
 13
14.2489041555
 23
12.5136491191
 33
0.0
 14
17.2489041555
 24
13.4045704784
 34
0.0
100
AcDbRotatedDimension
  0
DIMENSION
  5
17A
330
1F
100
AcDbEntity
  8
0
  6
Continuous
 62
     7
370
    18
100
AcDbDimension
  2
_D_1
 10
19.0599287618
 20
4.2545704784
 30
0.0
 11
19.0599287618
 21
9.0045704784
 31
0.0
 70
   160
  1
<>
 71
     2
 42
-1.0
  3
SLDDIMSTYLE0
100
AcDbAlignedDimension
 13
16.8989041555
 23
13.7545704784
 33
0.0
 14
16.8989041555
 24
4.2545704784
 34
0.0
 50
90.0
100
AcDbRotatedDimension
  0
DIMENSION
  5
18E
330
1F
100
AcDbEntity
  8
0
  6
Continuous
 62
     7
370
    18
100
AcDbDimension
  2
_D_2
 10
16.7489041555
 20
14.29343415
 30
0.0
 11
15.9316147942
 21
14.29343415
 31
0.0
 70
   160
  1
<> X 2
 71
     2
 42
-1.0
  3
SLDDIMSTYLE0
100
AcDbAlignedDimension
 13
17.2489041555
 23
13.4045704784
 33
0.0
 14
16.7489041555
 24
12.9550704784
 34
0.0
100
AcDbRotatedDimension
  0
DIMENSION
  5
1A2
330
1F
100
AcDbEntity
  8
0
  6
Continuous
 62
     7
370
    18
100
AcDbDimension
  2
_D_3
 10
17.9640104345
 20
12.7545704784
 30
0.0
 11
17.9640104345
 21
10.8795704784
 31
0.0
 70
   160
  1
<>
 71
     2
 42
-1.0
  3
SLDDIMSTYLE1
100
AcDbAlignedDimension
 13
17.1489041555
 23
9.0045704784
 33
0.0
 14
16.9494041555
 24
12.7545704784
 34
0.0
 50
90.0
100
AcDbRotatedDimension
  0
DIMENSION
  5
1B7
330
1F
100
AcDbEntity
  8
0
  6
Continuous
 62
     7
370
    18
100
AcDbDimension
  2
_D_4
 10
17.9640104345
 20
5.2545704784
 30
0.0
 11
17.9640104345
 21
7.1295704784
 31
0.0
 70
   160
  1
<>
 71
     2
 42
-1.0
  3
SLDDIMSTYLE1
100
AcDbAlignedDimension
 13
17.1489041555
 23
9.0045704784
 33
0.0
 14
16.9494041555
 24
5.2545704784
 34
0.0
 50
90.0
100
AcDbRotatedDimension
  0
DIMENSION
  5
1CB
330
1F
100
AcDbEntity
  8
0
  6
Continuous
 62
     7
370
    18
100
AcDbDimension
  2
_D_5
 10
16.6866636397
 20
12.6756631391
 30
0.0
 11
18.440580285
 21
14.29343415
 31
0.0
 70
   163
  1
<> X 2
 71
     1
 42
-1.0
  3
SLDDIMSTYLE2
100
AcDbDiametricDimension
 15
16.8111446713
 25
12.8334778177
 35
0.0
 40
0.0
  0
INSERT
  5
1EB
330
1F
100
AcDbEntity
  8
0
  6
Continuous
 62
     7
370
    18
100
AcDbBlockReference
  2
SW_CENTERMARKSYMBOL_0
 10
16.7489041555
 20
12.7545704784
 30
0.0
  0
INSERT
  5
1F7
330
1F
100
AcDbEntity
  8
0
  6
Continuous
 62
     7
370
    18
100
AcDbBlockReference
  2
SW_CENTERMARKSYMBOL_1
 10
16.7489041555
 20
5.2545704784
 30
0.0
  0
INSERT
  5
203
330
1F
100
AcDbEntity
  8
0
  6
Continuous
 62
     7
370
    18
100
AcDbBlockReference
  2
SW_CENTERMARKSYMBOL_2
 10
16.7489041555
 20
12.7545704784
 30
0.0
  0
LINE
  5
204
330
1F
100
AcDbEntity
  8
0
  6
CENTERX2
 62
     7
370
    18
100
AcDbLine
 10
17.1489041555
 20
9.0045704784
 30
0.0
 11
16.130556653
 21
9.0045704784
 31
0.0
  0
ARC
  5
205
330
1F
100
AcDbEntity
  8
0
  6
Continuous
 62
     7
370
    25
100
AcDbCircle
 10
7.5219289229
 20
12.5528360099
 30
0.0
 40
0.0150000000000006
100
AcDbArc
 50
93.0
 51
180.0
  0
ARC
  5
206
330
1F
100
AcDbEntity
  8
0
  6
Continuous
 62
     7
370
    25
100
AcDbCircle
 10
7.5219289229
 20
12.9563049469
 30
0.0
 40
0.0150000000000006
100
AcDbArc
 50
180.0
 51
267.0
  0
ARC
  5
207
330
1F
100
AcDbEntity
  8
0
  6
Continuous
 62
     7
370
    25
100
AcDbCircle
 10
7.5219289229
 20
5.0528360099
 30
0.0
 40
0.0150000000000006
100
AcDbArc
 50
93.0
 51
180.0
  0
ARC
  5
208
330
1F
100
AcDbEntity
  8
0
  6
Continuous
 62
     7
370
    25
100
AcDbCircle
 10
7.5219289229
 20
5.4563049469
 30
0.0
 40
0.0150000000000006
100
AcDbArc
 50
180.0
 51
267.0
  0
LINE
  5
209
330
1F
100
AcDbEntity
  8
0
  6
Continuous
 62
     7
370
    25
100
AcDbLine
 10
7.5211438693
 20
5.0678153962
 30
0.0
 11
7.6023144249
 21
5.0720695603
 31
0.0
  0
LINE
  5
20A
330
1F
100
AcDbEntity
  8
0
  6
Continuous
 62
     7
370
    25
100
AcDbLine
 10
7.6023144249
 20
5.4370714505
 30
0.0
 11
7.5211438693
 21
5.4413256147
 31
0.0
  0
LINE
  5
20B
330
1F
100
AcDbEntity
  8
0
  6
Continuous
 62
     7
370
    25
100
AcDbLine
 10
7.5211438693
 20
12.5678153422
 30
0.0
 11
7.6023144249
 21
12.5720695064
 31
0.0
  0
LINE
  5
20C
330
1F
100
AcDbEntity
  8
0
  6
Continuous
 62
     7
370
    25
100
AcDbLine
 10
7.6023144249
 20
12.9370713965
 30
0.0
 11
7.5211438693
 21
12.9413255607
 31
0.0
  0
ARC
  5
20D
330
1F
100
AcDbEntity
  8
0
  6
Continuous
 62
     7
370
    25
100
AcDbCircle
 10
7.6006789229
 20
5.4058643633
 30
0.0
 40
0.0312500000000009
100
AcDbArc
 50
0.0
 51
87.0
  0
ARC
  5
20E
330
1F
100
AcDbEntity
  8
0
  6
Continuous
 62
     7
370
    25
100
AcDbCircle
 10
7.6006789229
 20
5.1032765935
 30
0.0
 40
0.0312500000000009
100
AcDbArc
 50
273.0
 51
0.0
  0
ARC
  5
20F
330
1F
100
AcDbEntity
  8
0
  6
Continuous
 62
     7
370
    25
100
AcDbCircle
 10
7.6006789229
 20
12.9058643633
 30
0.0
 40
0.0312500000000009
100
AcDbArc
 50
0.0
 51
87.0
  0
ARC
  5
210
330
1F
100
AcDbEntity
  8
0
  6
Continuous
 62
     7
370
    25
100
AcDbCircle
 10
7.6006789229
 20
12.6032765935
 30
0.0
 40
0.0312500000000009
100
AcDbArc
 50
273.0
 51
0.0
  0
LINE
  5
211
330
1F
100
AcDbEntity
  8
0
  6
Continuous
 62
     7
370
    25
100
AcDbLine
 10
7.0069289229
 20
12.5136490346
 30
0.0
 11
7.0069289229
 21
5.4954919223
 31
0.0
  0
LINE
  5
212
330
1F
100
AcDbEntity
  8
0
  6
Continuous
 62
     7
370
    25
100
AcDbLine
 10
7.2880965465
 20
12.5136490346
 30
0.0
 11
7.0069289229
 21
12.5136490346
 31
0.0
  0
LWPOLYLINE
  5
213
330
1F
100
AcDbEntity
  8
0
  6
Continuous
 62
     7
370
    25
100
AcDbPolyline
 90
        5
 70
   128
 43
0.0
 10
7.2880295206
 20
9.0045704784
 10
7.2880594952
 20
10.1976572491
 10
7.2880724751
 20
10.9696545109
 10
7.2881160713
 20
11.7416518461
 10
7.2880965465
 20
12.5136490346
  0
LWPOLYLINE
  5
214
330
1F
100
AcDbEntity
  8
0
  6
Continuous
 62
     7
370
    25
100
AcDbPolyline
 90
        5
 70
   128
 43
0.0
 10
7.2880295206
 20
9.0045704784
 10
7.2880594952
 20
7.8114837077
 10
7.2880724751
 20
7.0394864459
 10
7.2881160713
 20
6.2674891108
 10
7.2880965465
 20
5.4954919223
  0
LINE
  5
215
330
1F
100
AcDbEntity
  8
0
  6
Continuous
 62
     7
370
    25
100
AcDbLine
 10
7.2880965465
 20
5.4954919223
 30
0.0
 11
7.0069289229
 21
5.4954919223
 31
0.0
  0
LINE
  5
216
330
1F
100
AcDbEntity
  8
0
  6
Continuous
 62
     7
370
    25
100
AcDbLine
 10
7.2910467124
 20
13.3382030293
 30
0.0
 11
7.0069289229
 21
13.3525858764
 31
0.0
  0
SPLINE
  5
217
330
1F
100
AcDbEntity
  8
0
  6
Continuous
 62
     7
370
    25
100
AcDbSpline
210
0.0
220
0.0
230
1.0
 70
     8
 71
     3
 72
    22
 73
    18
 74
     0
 42
0.000000001
 43
0.00000001
 40
0.0
 40
0.0
 40
0.0
 40
0.0
 40
0.013241026202458
 40
0.0313356211948701
 40
0.0626715815561476
 40
0.1253169692495762
 40
0.2502713386497555
 40
0.386652075174532
 40
0.4995323213002618
 40
0.6335494096506035
 40
0.7493171218573705
 40
0.8166228921563053
 40
0.8741482502304054
 40
0.9043228312818914
 40
0.935333435291226
 40
0.9672152486711862
 40
1.0
 40
1.0
 40
1.0
 40
1.0
 10
7.288096546837346
 20
12.51364911907062
 30
0.0
 10
7.288096907493975
 20
12.5182327288786
 30
0.0
 10
7.288097761007847
 20
12.52908009512135
 30
0.0
 10
7.288128215127122
 20
12.5507734721667
 30
0.0
 10
7.2881721563559
 20
12.58955823375491
 30
0.0
 10
7.288060939124733
 20
12.66524210533187
 30
0.0
 10
7.287795780011879
 20
12.77673049814821
 30
0.0
 10
7.287545379586567
 20
12.90307479239861
 30
0.0
 10
7.28746325607778
 20
13.02663843766729
 30
0.0
 10
7.287640454927874
 20
13.13400242168858
 30
0.0
 10
7.288179111870695
 20
13.21303796072609
 30
0.0
 10
7.288818427740336
 20
13.26200288219415
 30
0.0
 10
7.289324167363347
 20
13.28844568055772
 30
0.0
 10
7.289784734094717
 20
13.30589548256591
 30
0.0
 10
7.290169515772169
 20
13.31803211981199
 30
0.0
 10
7.290589516975033
 20
13.32903738153832
 30
0.0
 10
7.290892907525472
 20
13.33511957449863
 30
0.0
 10
7.291046720918783
 20
13.33820313374808
 30
0.0
  0
SPLINE
  5
218
330
1F
100
AcDbEntity
  8
0
  6
Continuous
 62
     7
370
    25
100
AcDbSpline
210
0.0
220
0.0
230
1.0
 70
    24
 71
     3
 72
     8
 73
     4
 74
     0
 42
0.000000001
 43
0.00000001
 40
0.0
 40
0.0
 40
0.0
 40
0.0
 40
1.0
 40
1.0
 40
1.0
 40
1.0
 10
7.006928922886908
 20
13.35258575273947
 30
0.0
 10
7.006928922886739
 20
13.28050926972083
 30
0.0
 10
7.006928922886739
 20
13.04972978735236
 30
0.0
 10
7.006928922886908
 20
12.51364911907062
 30
0.0
  0
SPLINE
  5
219
330
1F
100
AcDbEntity
  8
0
  6
Continuous
 62
     7
370
    25
100
AcDbSpline
210
0.0
220
0.0
230
1.0
 70
     8
 71
     3
 72
    30
 73
    26
 74
     0
 42
0.000000001
 43
0.00000001
 40
0.0
 40
0.0
 40
0.0
 40
0.0
 40
0.0624999999999989
 40
0.0624999999999989
 40
0.1249999999999978
 40
0.1249999999999978
 40
0.2499999999999957
 40
0.2499999999999957
 40
0.3749999999999935
 40
0.3749999999999935
 40
0.4374999999999925
 40
0.4374999999999925
 40
0.4999999999999913
 40
0.4999999999999913
 40
0.6249999999999878
 40
0.6249999999999878
 40
0.6562499999999886
 40
0.6562499999999886
 40
0.6874999999999893
 40
0.6874999999999893
 40
0.7499999999999919
 40
0.7499999999999919
 40
0.8749999999999959
 40
0.8749999999999959
 40
1.0
 40
1.0
 40
1.0
 40
1.0
 10
7.288096546837349
 20
5.495491837782529
 30
0.0
 10
7.288087022375473
 20
5.47426175622707
 30
0.0
 10
7.288153087251971
 20
5.453030833294815
 30
0.0
 10
7.288148242409241
 20
5.410565174193827
 30
0.0
 10
7.288123326739518
 20
5.389330450310539
 30
0.0
 10
7.28802401383952
 20
5.325617201182922
 30
0.0
 10
7.287919467856635
 20
5.283185048469987
 30
0.0
 10
7.287729227070053
 20
5.19939015890384
 30
0.0
 10
7.287643210435002
 20
5.15790942240823
 30
0.0
 10
7.287550911384811
 20
5.096499298871098
 30
0.0
 10
7.287527733563691
 20
5.076164965398422
 30
0.0
 10
7.287500544332903
 20
5.035817847301016
 30
0.0
 10
7.287496649853404
 20
5.01571274226845
 30
0.0
 10
7.287513485538598
 20
4.95692601807582
 30
0.0
 10
7.287576620983955
 20
4.91964914244611
 30
0.0
 10
7.287736621811665
 20
4.876049421174709
 30
0.0
 10
7.287770573122105
 20
4.867480184177747
 30
0.0
 10
7.28784622347991
 20
4.850663922304624
 30
0.0
 10
7.287888722064777
 20
4.842393585044591
 30
0.0
 10
7.288035683335361
 20
4.818383884228735
 30
0.0
 10
7.288162044687327
 20
4.803379590071648
 30
0.0
 10
7.28860632753679
 20
4.761386297171592
 30
0.0
 10
7.288951578779478
 20
4.737394049352084
 30
0.0
 10
7.289895478570498
 20
4.697552190314615
 30
0.0
 10
7.290442793930282
 20
4.682282404895719
 30
0.0
 10
7.291046720918783
 20
4.670937823104898
 30
0.0
  0
LINE
  5
21A
330
1F
100
AcDbEntity
  8
0
  6
Continuous
 62
     7
370
    25
100
AcDbLine
 10
7.2910467124
 20
4.6709379276
 30
0.0
 11
7.0069289229
 21
4.6565550804
 31
0.0
  0
SPLINE
  5
21B
330
1F
100
AcDbEntity
  8
0
  6
Continuous
 62
     7
370
    25
100
AcDbSpline
210
0.0
220
0.0
230
1.0
 70
    24
 71
     3
 72
     8
 73
     4
 74
     0
 42
0.000000001
 43
0.00000001
 40
0.0
 40
0.0
 40
0.0
 40
0.0
 40
1.0
 40
1.0
 40
1.0
 40
1.0
 10
7.006928922886908
 20
4.656555204113678
 30
0.0
 10
7.006928922886739
 20
4.728631687132324
 30
0.0
 10
7.006928922886739
 20
4.959411169500798
 30
0.0
 10
7.006928922886908
 20
5.495491837782529
 30
0.0
  0
LWPOLYLINE
  5
21C
330
1F
100
AcDbEntity
  8
0
  6
Continuous
 62
     7
370
    25
100
AcDbPolyline
 90
        9
 70
   128
 43
0.0
 10
7.2880965465
 20
12.5136490346
 10
7.2922701916
 20
12.5136510879
 10
7.2963309597
 20
12.5136528479
 10
7.3001991017
 20
12.5136546079
 10
7.3037986084
 20
12.5136563678
 10
7.3070587508
 20
12.5136578345
 10
7.3099154544
 20
12.5136593011
 10
7.3123126384
 20
12.5136604745
 10
7.3142031499
 20
12.5136613544
  0
SPLINE
  5
21D
330
1F
100
AcDbEntity
  8
0
  6
Continuous
 62
     7
370
    25
100
AcDbSpline
210
0.0
220
0.0
230
1.0
 70
     8
 71
     3
 72
    14
 73
    10
 74
     0
 42
0.000000001
 43
0.00000001
 40
0.0
 40
0.0
 40
0.0
 40
0.0
 40
0.2500000000000001
 40
0.2500000000000001
 40
0.5000000000000001
 40
0.5000000000000001
 40
0.7500000000000002
 40
0.7500000000000002
 40
1.0
 40
1.0
 40
1.0
 40
1.0
 10
7.314203148873631
 20
12.51366146311473
 30
0.0
 10
7.314200846628626
 20
12.21041564492828
 30
0.0
 10
7.314198544378453
 20
11.91321953742603
 30
0.0
 10
7.314193939867778
 20
11.322900416163
 30
0.0
 10
7.314191637607276
 20
11.02981018445044
 30
0.0
 10
7.314187033075956
 20
10.44726702155067
 30
0.0
 10
7.314184730805136
 20
10.15780928556662
 30
0.0
 10
7.314180126253185
 20
9.58041980617365
 30
0.0
 10
7.314177823972058
 20
9.29248898688107
 30
0.0
 10
7.314175521685779
 20
9.004570478426576
 30
0.0
  0
LINE
  5
21E
330
1F
100
AcDbEntity
  8
0
  6
Continuous
 62
     7
370
    25
100
AcDbLine
 10
7.3141755219
 20
9.00457032
 30
0.0
 11
7.2880295206
 21
9.00457032
 31
0.0
  0
LWPOLYLINE
  5
21F
330
1F
100
AcDbEntity
  8
0
  6
Continuous
 62
     7
370
    25
100
AcDbPolyline
 90
        9
 70
   128
 43
0.0
 10
7.2880965465
 20
5.4954919223
 10
7.2922701916
 20
5.495489869
 10
7.2963309597
 20
5.495488109
 10
7.3001991017
 20
5.495486349
 10
7.3037986084
 20
5.495484589
 10
7.3070587508
 20
5.4954831224
 10
7.3099154544
 20
5.4954816557
 10
7.3123126384
 20
5.4954804824
 10
7.3142031499
 20
5.4954796024
  0
SPLINE
  5
220
330
1F
100
AcDbEntity
  8
0
  6
Continuous
 62
     7
370
    25
100
AcDbSpline
210
0.0
220
0.0
230
1.0
 70
     8
 71
     3
 72
    12
 73
     8
 74
     0
 42
0.000000001
 43
0.00000001
 40
0.0
 40
0.0
 40
0.0
 40
0.0
 40
0.2500000000000001
 40
0.2500000000000001
 40
0.5000000000000002
 40
0.5000000000000002
 40
1.0
 40
1.0
 40
1.0
 40
1.0
 10
7.314203148873628
 20
5.495479493733037
 30
0.0
 10
7.314265822348964
 20
5.787916165041489
 30
0.0
 10
7.314227068264916
 20
6.080345295931196
 30
0.0
 10
7.314188869254798
 20
6.665185190362427
 30
0.0
 10
7.314195851302412
 20
6.957606847643706
 30
0.0
 10
7.314195854659491
 20
7.834879641064074
 30
0.0
 10
7.314177083571306
 20
8.419724186511855
 30
0.0
 10
7.314175521709924
 20
9.004570478426576
 30
0.0
  0
SPLINE
  5
221
330
1F
100
AcDbEntity
  8
0
  6
Continuous
 62
     7
370
    25
100
AcDbSpline
210
0.0
220
0.0
230
1.0
 70
     8
 71
     3
 72
    26
 73
    22
 74
     0
 42
0.000000001
 43
0.00000001
 40
0.0
 40
0.0
 40
0.0
 40
0.0
 40
0.0153569632901289
 40
0.0315656960423948
 40
0.0486377290693743
 40
0.0665855209766804
 40
0.0854229964540792
 40
0.1051662520410745
 40
0.125832373118016
 40
0.1722160278025616
 40
0.2506651593526406
 40
0.3702348031037389
 40
0.5004904675936241
 40
0.6115351862132113
 40
0.7497095607412554
 40
0.8342951238873006
 40
0.8747007975309006
 40
0.9101917755479886
 40
0.9373374666759879
 40
0.9689053884626998
 40
1.0
 40
1.0
 40
1.0
 40
1.0
 10
7.315246786656937
 20
13.32400394446342
 30
0.0
 10
7.315230781056115
 20
13.32253575676672
 30
0.0
 10
7.315197882108524
 20
13.31951794877357
 30
0.0
 10
7.315142655059659
 20
13.31440320001688
 30
0.0
 10
7.315081545687232
 20
13.30862793996452
 30
0.0
 10
7.31501421029053
 20
13.30208280403535
 30
0.0
 10
7.314940576549455
 20
13.29469636387216
 30
0.0
 10
7.31486133634523
 20
13.28637638399679
 30
0.0
 10
7.314738556283194
 20
13.27330091875434
 30
0.0
 10
7.314557801568037
 20
13.24886255353773
 30
0.0
 10
7.314263146604563
 20
13.20012618324266
 30
0.0
 10
7.313985828067628
 20
13.11915898506788
 30
0.0
 10
7.313895305719887
 20
13.01423642373859
 30
0.0
 10
7.313936700852756
 20
12.89463683361652
 30
0.0
 10
7.314033853348731
 20
12.78454245173137
 30
0.0
 10
7.314127407756642
 20
12.69637729373603
 30
0.0
 10
7.314182499510653
 20
12.64233295271285
 30
0.0
 10
7.314206795632929
 20
12.60756005771148
 30
0.0
 10
7.314223522687143
 20
12.57573259225995
 30
0.0
 10
7.314224971623631
 20
12.54536898533119
 30
0.0
 10
7.31421038640134
 20
12.52417728127013
 30
0.0
 10
7.314203148873631
 20
12.51366146311473
 30
0.0
  0
ARC
  5
222
330
1F
100
AcDbEntity
  8
0
  6
Continuous
 62
     7
370
    25
100
AcDbCircle
 10
7.2895622947
 20
13.3079511171
 30
0.0
 40
0.0302883093830893
100
AcDbArc
 50
32.0051995234
 51
87.1908318918
  0
SPLINE
  5
223
330
1F
100
AcDbEntity
  8
0
  6
Continuous
 62
     7
370
    25
100
AcDbSpline
210
0.0
220
0.0
230
1.0
 70
     8
 71
     3
 72
    28
 73
    24
 74
     0
 42
0.000000001
 43
0.00000001
 40
0.0
 40
0.0
 40
0.0
 40
0.0
 40
0.1250000000000026
 40
0.1250000000000026
 40
0.250000000000005
 40
0.250000000000005
 40
0.312500000000005
 40
0.312500000000005
 40
0.3750000000000052
 40
0.3750000000000052
 40
0.5000000000000057
 40
0.5000000000000057
 40
0.5625000000000051
 40
0.5625000000000051
 40
0.6250000000000047
 40
0.6250000000000047
 40
0.7500000000000036
 40
0.7500000000000036
 40
0.8750000000000027
 40
0.8750000000000027
 40
0.9375000000000013
 40
0.9375000000000013
 40
1.0
 40
1.0
 40
1.0
 40
1.0
 10
7.315246786656848
 20
4.685137012397851
 30
0.0
 10
7.315117230672965
 20
4.697031049947355
 30
0.0
 10
7.314950273180233
 20
4.712632452642976
 30
0.0
 10
7.314593581916478
 20
4.75243442990815
 30
0.0
 10
7.314459292703094
 20
4.776080314500065
 30
0.0
 10
7.314247206007365
 20
4.817132208650409
 30
0.0
 10
7.31418168258879
 20
4.831742146937112
 30
0.0
 10
7.314087696902135
 20
4.862874139089909
 30
0.0
 10
7.314058292083428
 20
4.879329332422481
 30
0.0
 10
7.313961456273142
 20
4.930165000822865
 30
0.0
 10
7.313921772843992
 20
4.966348340321804
 30
0.0
 10
7.313912207387008
 20
5.023590294373781
 30
0.0
 10
7.3139121723998
 20
5.043186823256725
 30
0.0
 10
7.313922256091351
 20
5.0825654111074
 30
0.0
 10
7.313932269523462
 20
5.102437110233319
 30
0.0
 10
7.313974495988655
 20
5.162532085369153
 30
0.0
 10
7.314013961541645
 20
5.203238873373474
 30
0.0
 10
7.314099564100077
 20
5.285651675248082
 30
0.0
 10
7.314149355573975
 20
5.327496117112035
 30
0.0
 10
7.31419929930198
 20
5.390436847517356
 30
0.0
 10
7.314214901669438
 20
5.41143909988689
 30
0.0
 10
7.314226832343262
 20
5.45347724620718
 30
0.0
 10
7.314198667087584
 20
5.474567333822622
 30
0.0
 10
7.314203148873629
 20
5.495479493738431
 30
0.0
  0
ARC
  5
224
330
1F
100
AcDbEntity
  8
0
  6
Continuous
 62
     7
370
    25
100
AcDbCircle
 10
7.2895622947
 20
4.7011898397
 30
0.0
 40
0.0302883093830966
100
AcDbArc
 50
272.8091681082
 51
327.9948004766
  0
SPLINE
  5
225
330
1F
100
AcDbEntity
  8
0
  6
Continuous
 62
     7
370
    25
100
AcDbSpline
210
0.0
220
0.0
230
1.0
 70
     8
 71
     3
 72
     9
 73
     5
 74
     0
 42
0.000000001
 43
0.00000001
 40
0.0
 40
0.0
 40
0.0
 40
0.0
 40
0.4977862607963798
 40
0.9999999999999999
 40
0.9999999999999999
 40
0.9999999999999999
 40
0.9999999999999999
 10
7.315187212152728
 20
13.32814656044832
 30
0.0
 10
7.315210251474111
 20
13.32745827019506
 30
0.0
 10
7.315256535036351
 20
13.32607556780355
 30
0.0
 10
7.315250045693882
 20
13.32469652081039
 30
0.0
 10
7.315246786656937
 20
13.32400394446342
 30
0.0
  0
SPLINE
  5
226
330
1F
100
AcDbEntity
  8
0
  6
Continuous
 62
     7
370
    25
100
AcDbSpline
210
0.0
220
0.0
230
1.0
 70
     8
 71
     3
 72
    10
 73
     6
 74
     0
 42
0.000000001
 43
0.00000001
 40
0.0
 40
0.0
 40
0.0
 40
0.0
 40
0.5
 40
0.5
 40
1.0
 40
1.0
 40
1.0
 40
1.0
 10
7.315320427277518
 20
13.49635514237287
 30
0.0
 10
7.315298225861925
 20
13.46882959369395
 30
0.0
 10
7.315276023890786
 20
13.4412233710563
 30
0.0
 10
7.315231618846243
 20
13.38537561901578
 30
0.0
 10
7.315209415772841
 20
13.35712140013905
 30
0.0
 10
7.315187212152729
 20
13.32814656044832
 30
0.0
  0
SPLINE
  5
227
330
1F
100
AcDbEntity
  8
0
  6
Continuous
 62
     7
370
    25
100
AcDbSpline
210
0.0
220
0.0
230
1.0
 70
     8
 71
     3
 72
    27
 73
    23
 74
     0
 42
0.000000001
 43
0.00000001
 40
0.0
 40
0.0
 40
0.0
 40
0.0
 40
0.0374678766537341
 40
0.063609562402799
 40
0.0710079075755481
 40
0.0763415753662697
 40
0.0822795740095923
 40
0.0857682360186989
 40
0.0890833666912928
 40
0.0947828799614634
 40
0.1066725128608694
 40
0.1264001116766675
 40
0.1655218380014211
 40
0.1896659199600397
 40
0.2213441164486721
 40
0.2523233103637538
 40
0.3650711835111612
 40
0.5026119502967707
 40
0.6332535388370183
 40
0.7873100447994599
 40
0.8884359617791594
 40
1.0
 40
1.0
 40
1.0
 40
1.0
 10
7.406928922886908
 20
13.37082028848548
 30
0.0
 10
7.406927416471554
 20
13.37186487439041
 30
0.0
 10
7.406924859016205
 20
13.37363827758906
 30
0.0
 10
7.406892154257
 20
13.37584618255327
 30
0.0
 10
7.406844653112163
 20
13.37722916963438
 30
0.0
 10
7.406804259723462
 20
13.37799458298181
 30
0.0
 10
7.406761576343488
 20
13.37864930534154
 30
0.0
 10
7.406637142843948
 20
13.37967040518051
 30
0.0
 10
7.406438381657253
 20
13.3805069175592
 30
0.0
 10
7.406241200123146
 20
13.38092052572692
 30
0.0
 10
7.405909358221735
 20
13.38140237114854
 30
0.0
 10
7.405269835071503
 20
13.38196966766208
 30
0.0
 10
7.40435592465927
 20
13.38274440353033
 30
0.0
 10
7.403099244146327
 20
13.38386351296476
 30
0.0
 10
7.401681210783695
 20
13.38535120563402
 30
0.0
 10
7.398269664913188
 20
13.38920900292077
 30
0.0
 10
7.390574815688957
 20
13.39897011524759
 30
0.0
 10
7.377206163756078
 20
13.41639033566254
 30
0.0
 10
7.360804809338531
 20
13.43765911688548
 30
0.0
 10
7.344915725429938
 20
13.4581469384987
 30
0.0
 10
7.329368717909735
 20
13.4781838983429
 30
0.0
 10
7.320153934542895
 20
13.49010307638568
 30
0.0
 10
7.315320427277516
 20
13.49635514237287
 30
0.0
  0
LINE
  5
228
330
1F
100
AcDbEntity
  8
0
  6
Continuous
 62
     7
370
    25
100
AcDbLine
 10
7.4069289254
 20
13.3708201458
 30
0.0
 11
7.4069289254
 21
13.2020979349
 31
0.0
  0
SPLINE
  5
229
330
1F
100
AcDbEntity
  8
0
  6
Continuous
 62
     7
370
    25
100
AcDbSpline
210
0.0
220
0.0
230
1.0
 70
    24
 71
     3
 72
    73
 73
    69
 74
     0
 42
0.000000001
 43
0.00000001
 40
0.0
 40
0.0
 40
0.0
 40
0.0
 40
0.0312499999999926
 40
0.0468749999999892
 40
0.0546874999999875
 40
0.0585937499999866
 40
0.0585937499999866
 40
0.0624999999999856
 40
0.0624999999999856
 40
0.0937499999999817
 40
0.1093749999999793
 40
0.1171874999999781
 40
0.1210937499999775
 40
0.1210937499999775
 40
0.1249999999999769
 40
0.1249999999999769
 40
0.1874999999999706
 40
0.2187499999999679
 40
0.2343749999999665
 40
0.2421874999999648
 40
0.2460937499999641
 40
0.2460937499999641
 40
0.2499999999999634
 40
0.2499999999999634
 40
0.3124999999999666
 40
0.3437499999999685
 40
0.3437499999999685
 40
0.3749999999999702
 40
0.3749999999999702
 40
0.4374999999999755
 40
0.4687499999999789
 40
0.4843749999999797
 40
0.4921874999999818
 40
0.4921874999999818
 40
0.4999999999999839
 40
0.4999999999999839
 40
0.5625000000000001
 40
0.5937500000000082
 40
0.6093750000000122
 40
0.6171875000000137
 40
0.6210937500000142
 40
0.6210937500000142
 40
0.6250000000000149
 40
0.6250000000000149
 40
0.6875000000000115
 40
0.7187500000000114
 40
0.7343750000000108
 40
0.7421875000000099
 40
0.7460937500000101
 40
0.7460937500000101
 40
0.7500000000000102
 40
0.7500000000000102
 40
0.812500000000018
 40
0.8437500000000205
 40
0.8593750000000222
 40
0.8671875000000226
 40
0.8710937500000232
 40
0.8710937500000232
 40
0.8750000000000236
 40
0.8750000000000236
 40
0.9062500000000235
 40
0.9218750000000235
 40
0.9296875000000234
 40
0.9335937500000234
 40
0.9335937500000234
 40
0.9375000000000233
 40
0.9375000000000233
 40
1.0
 40
1.0
 40
1.0
 40
1.0
 10
7.406928922886908
 20
13.20209797164724
 30
0.0
 10
7.406928922886908
 20
13.19972989755998
 30
0.0
 10
7.406928922886908
 20
13.1958522422665
 30
0.0
 10
7.406928922886908
 20
13.19075876676632
 30
0.0
 10
7.406928922886908
 20
13.18806964293513
 30
0.0
 10
7.406928922886908
 20
13.18688664999009
 30
0.0
 10
7.406928922886908
 20
13.18609120773716
 30
0.0
 10
7.406928922886908
 20
13.18565773324094
 30
0.0
 10
7.406928922886908
 20
13.18230848952127
 30
0.0
 10
7.406928922886908
 20
13.17754132122337
 30
0.0
 10
7.406928922886908
 20
13.17145198236714
 30
0.0
 10
7.406928922886908
 20
13.16827540231184
 30
0.0
 10
7.406928922886908
 20
13.16688574429661
 30
0.0
 10
7.406928922886908
 20
13.16595302416135
 30
0.0
 10
7.406928922886908
 20
13.16544412162639
 30
0.0
 10
7.406928922886908
 20
13.15807904523097
 30
0.0
 10
7.406928922886908
 20
13.14689226482699
 30
0.0
 10
7.406928922886908
 20
13.13246022641
 30
0.0
 10
7.406928922886908
 20
13.12489900854841
 30
0.0
 10
7.406928922886908
 20
13.12103209995435
 30
0.0
 10
7.406928922886908
 20
13.11935636062905
 30
0.0
 10
7.406928922886908
 20
13.11823509157108
 30
0.0
 10
7.406928922886908
 20
13.11764053598145
 30
0.0
 10
7.406928922886908
 20
13.10858161457103
 30
0.0
 10
7.406928922886908
 20
13.09521387076821
 30
0.0
 10
7.406928922886908
 20
13.08097810954208
 30
0.0
 10
7.406928922886908
 20
13.07129470929728
 30
0.0
 10
7.406928922886908
 20
13.06629989090297
 30
0.0
 10
7.406928922886908
 20
13.05136612792813
 30
0.0
 10
7.406928922886908
 20
13.0360317688277
 30
0.0
 10
7.406928922886908
 20
13.01744063999078
 30
0.0
 10
7.406928922886908
 20
13.00796981476736
 30
0.0
 10
7.406928922886908
 20
13.00387333378485
 30
0.0
 10
7.406928922886908
 20
13.00113400071055
 30
0.0
 10
7.406928922886908
 20
12.99980306907871
 30
0.0
 10
7.406928922886908
 20
12.9870147884363
 30
0.0
 10
7.406928922886908
 20
12.96967418093464
 30
0.0
 10
7.406928922886908
 20
12.94893673055383
 30
0.0
 10
7.406928922886908
 20
12.9384413199562
 30
0.0
 10
7.406928922886908
 20
12.93316194330558
 30
0.0
 10
7.406928922886908
 20
12.93089256659421
 30
0.0
 10
7.406928922886908
 20
12.92937814062703
 30
0.0
 10
7.406928922886908
 20
12.92867309598561
 30
0.0
 10
7.406928922886908
 20
12.91487515537746
 30
0.0
 10
7.406928922886908
 20
12.89522815888146
 30
0.0
 10
7.406928922886908
 20
12.87201344883924
 30
0.0
 10
7.406928922886908
 20
12.86033279028559
 30
0.0
 10
7.406928922886908
 20
12.85447413512563
 30
0.0
 10
7.406928922886908
 20
12.85195935593925
 30
0.0
 10
7.406928922886908
 20
12.85028196382057
 30
0.0
 10
7.406928922886908
 20
12.84953320050168
 30
0.0
 10
7.406928922886908
 20
12.83372425804716
 30
0.0
 10
7.406928922886908
 20
12.81134728444382
 30
0.0
 10
7.406928922886908
 20
12.78513849867468
 30
0.0
 10
7.406928922886908
 20
12.7720085266488
 30
0.0
 10
7.406928922886908
 20
12.76543714585053
 30
0.0
 10
7.406928922886908
 20
12.76261946948299
 30
0.0
 10
7.406928922886908
 20
12.7607407140577
 30
0.0
 10
7.406928922886908
 20
12.75990066470469
 30
0.0
 10
7.406928922886908
 20
12.75054819912087
 30
0.0
 10
7.406928922886908
 20
12.7381337893377
 30
0.0
 10
7.406928922886908
 20
12.72374751383236
 30
0.0
 10
7.406928922886908
 20
12.71657867672345
 30
0.0
 10
7.406928922886908
 20
12.71351152524329
 30
0.0
 10
7.406928922886908
 20
12.71146791476337
 30
0.0
 10
7.406928922886908
 20
12.71052786734451
 30
0.0
 10
7.406928922886908
 20
12.69179680323094
 30
0.0
 10
7.406928922886908
 20
12.67420333725353
 30
0.0
 10
7.406928922886908
 20
12.65664564211146
 30
0.0
  0
LINE
  5
22A
330
1F
100
AcDbEntity
  8
0
  6
Continuous
 62
     7
370
    25
100
AcDbLine
 10
7.4069289254
 20
12.6566456227
 30
0.0
 11
7.4069289254
 21
9.0045704784
 31
0.0
  0
SPLINE
  5
22B
330
1F
100
AcDbEntity
  8
0
  6
Continuous
 62
     7
370
    25
100
AcDbSpline
210
0.0
220
0.0
230
1.0
 70
    24
 71
     3
 72
     8
 73
     4
 74
     0
 42
0.000000001
 43
0.00000001
 40
0.0
 40
0.0
 40
0.0
 40
0.0
 40
1.0
 40
1.0
 40
1.0
 40
1.0
 10
7.314175521685762
 20
9.004570478426576
 30
0.0
 10
7.361646877936327
 20
9.004570478426576
 30
0.0
 10
7.406928922886908
 20
9.004570478426576
 30
0.0
 10
7.406928922886908
 20
9.004570478426576
 30
0.0
  0
SPLINE
  5
22C
330
1F
100
AcDbEntity
  8
0
  6
Continuous
 62
     7
370
    25
100
AcDbSpline
210
0.0
220
0.0
230
1.0
 70
    24
 71
     3
 72
    15
 73
    11
 74
     0
 42
0.000000001
 43
0.00000001
 40
0.0
 40
0.0
 40
0.0
 40
0.0
 40
0.125
 40
0.25
 40
0.375
 40
0.5
 40
0.625
 40
0.75
 40
0.875
 40
1.0
 40
1.0
 40
1.0
 40
1.0
 10
7.406928922886908
 20
4.807042985205907
 30
0.0
 10
7.406928922886908
 20
4.816875533512751
 30
0.0
 10
7.406928922886908
 20
4.842486856936111
 30
0.0
 10
7.406928922886908
 20
4.890763469251993
 30
0.0
 10
7.406928922886908
 20
4.946659413775033
 30
0.0
 10
7.406928922886908
 20
5.009513138166628
 30
0.0
 10
7.406928922886908
 20
5.079841180714395
 30
0.0
 10
7.406928922886908
 20
5.158799412976832
 30
0.0
 10
7.406928922886908
 20
5.248187535652514
 30
0.0
 10
7.406928922886908
 20
5.316147452576952
 30
0.0
 10
7.406928922886908
 20
5.352495314741695
 30
0.0
  0
LINE
  5
22D
330
1F
100
AcDbEntity
  8
0
  6
Continuous
 62
     7
370
    25
100
AcDbLine
 10
7.4069289254
 20
4.638320811
 30
0.0
 11
7.4069289254
 21
4.807043022
 31
0.0
  0
SPLINE
  5
22E
330
1F
100
AcDbEntity
  8
0
  6
Continuous
 62
     7
370
    25
100
AcDbSpline
210
0.0
220
0.0
230
1.0
 70
     8
 71
     3
 72
    22
 73
    18
 74
     0
 42
0.000000001
 43
0.00000001
 40
0.0
 40
0.0
 40
0.0
 40
0.0
 40
0.125
 40
0.125
 40
0.25
 40
0.25
 40
0.375
 40
0.375
 40
0.5
 40
0.5
 40
0.625
 40
0.625
 40
0.75
 40
0.75
 40
0.875
 40
0.875
 40
1.0
 40
1.0
 40
1.0
 40
1.0
 10
7.406928922886908
 20
4.63832066836767
 30
0.0
 10
7.406928922886908
 20
4.635593578884053
 30
0.0
 10
7.406909010517703
 20
4.633496795012495
 30
0.0
 10
7.406778014983818
 20
4.630398035540065
 30
0.0
 10
7.406667870616562
 20
4.629399007390616
 30
0.0
 10
7.406233110007867
 20
4.628065896665828
 30
0.0
 10
7.405918578100142
 20
4.627728578077619
 30
0.0
 10
7.404769256789752
 20
4.626757462980401
 30
0.0
 10
7.403955816202841
 20
4.626149371044538
 30
0.0
 10
7.40095196995755
 20
4.623030347484156
 30
0.0
 10
7.39877214205783
 20
4.62051055342537
 30
0.0
 10
7.391392481949589
 20
4.611215481810959
 30
0.0
 10
7.386096665125894
 20
4.604321554393449
 30
0.0
 10
7.371528983801023
 20
4.585386664838907
 30
0.0
 10
7.362285388310956
 20
4.573405866617808
 30
0.0
 10
7.340854718708557
 20
4.545750871583769
 30
0.0
 10
7.328700043984144
 20
4.530123348907122
 30
0.0
 10
7.315320396770147
 20
4.512785903474779
 30
0.0
  0
SPLINE
  5
22F
330
1F
100
AcDbEntity
  8
0
  6
Continuous
 62
     7
370
    25
100
AcDbSpline
210
0.0
220
0.0
230
1.0
 70
     8
 71
     3
 72
    16
 73
    12
 74
     0
 42
0.000000001
 43
0.00000001
 40
0.0
 40
0.0
 40
0.0
 40
0.0
 40
0.5000000000000016
 40
0.5000000000000016
 40
0.7500000000000014
 40
0.7500000000000014
 40
0.8750000000000016
 40
0.9375000000000014
 40
0.9687500000000013
 40
0.9687500000000013
 40
1.0
 40
1.0
 40
1.0
 40
1.0
 10
7.315320427277518
 20
4.512785814480276
 30
0.0
 10
7.315300924463374
 20
4.540847850569308
 30
0.0
 10
7.315278429964342
 20
4.568904780125998
 30
0.0
 10
7.315238674512122
 20
4.610980751857078
 30
0.0
 10
7.315224274224087
 20
4.625001825093494
 30
0.0
 10
7.31520363842788
 20
4.646009088718017
 30
0.0
 10
7.31519356891049
 20
4.656506742879449
 30
0.0
 10
7.315182880835359
 20
4.66874065318366
 30
0.0
 10
7.315178589656899
 20
4.673980602753809
 30
0.0
 10
7.315175799938689
 20
4.677473171027816
 30
0.0
 10
7.315157777319758
 20
4.679173542770912
 30
0.0
 10
7.315187591943087
 20
4.680994172372008
 30
0.0
  0
SPLINE
  5
230
330
1F
100
AcDbEntity
  8
0
  6
Continuous
 62
     7
370
    25
100
AcDbSpline
210
0.0
220
0.0
230
1.0
 70
     8
 71
     3
 72
     9
 73
     5
 74
     0
 42
0.000000001
 43
0.00000001
 40
0.0
 40
0.0
 40
0.0
 40
0.0
 40
0.3250515270899784
 40
1.0
 40
1.0
 40
1.0
 40
1.0
 10
7.315187591943088
 20
4.680994172372011
 30
0.0
 10
7.315202063545676
 20
4.681441484241184
 30
0.0
 10
7.315246584495071
 20
4.682817610276271
 30
0.0
 10
7.315246705192435
 20
4.684202370554552
 30
0.0
 10
7.315246786656935
 20
4.685137012389726
 30
0.0
  0
LINE
  5
231
330
1F
100
AcDbEntity
  8
0
  6
Continuous
 62
     7
370
    25
100
AcDbLine
 10
7.4069289254
 20
5.3524953342
 30
0.0
 11
7.4069289254
 21
9.0045704784
 31
0.0
  0
LINE
  5
232
330
1F
100
AcDbEntity
  8
0
  6
Continuous
 62
     7
370
    25
100
AcDbLine
 10
7.4169008235
 20
13.6997427461
 30
0.0
 11
7.0069289229
 21
13.7204964263
 31
0.0
  0
LINE
  5
233
330
1F
100
AcDbEntity
  8
0
  6
Continuous
 62
     7
370
    25
100
AcDbLine
 10
7.4169008235
 20
13.6123709021
 30
0.0
 11
7.4169008235
 21
13.6997427461
 31
0.0
  0
SPLINE
  5
234
330
1F
100
AcDbEntity
  8
0
  6
Continuous
 62
     7
370
    25
100
AcDbSpline
210
0.0
220
0.0
230
1.0
 70
     8
 71
     3
 72
    12
 73
     8
 74
     0
 42
0.000000001
 43
0.00000001
 40
0.0
 40
0.0
 40
0.0
 40
0.0
 40
0.4999999999999991
 40
0.4999999999999991
 40
0.7499999999999996
 40
0.7499999999999996
 40
1.0
 40
1.0
 40
1.0
 40
1.0
 10
7.292078707474547
 20
13.50901471891877
 30
0.0
 10
7.292203546960857
 20
13.52848383757554
 30
0.0
 10
7.305378338634423
 20
13.54660726251955
 30
0.0
 10
7.339024979910505
 20
13.57236065352992
 30
0.0
 10
7.352625680174498
 20
13.58072834751124
 30
0.0
 10
7.382766814474275
 20
13.59689157088647
 30
0.0
 10
7.399211568940347
 20
13.60473781722741
 30
0.0
 10
7.416900838729954
 20
13.61237090792565
 30
0.0
  0
SPLINE
  5
235
330
1F
100
AcDbEntity
  8
0
  6
Continuous
 62
     7
370
    25
100
AcDbSpline
210
0.0
220
0.0
230
1.0
 70
     8
 71
     3
 72
    15
 73
    11
 74
     0
 42
0.000000001
 43
0.00000001
 40
0.0
 40
0.0
 40
0.0
 40
0.0
 40
0.0625000000000006
 40
0.0625000000000006
 40
0.1250000000000013
 40
0.2500000000000013
 40
0.2500000000000013
 40
0.5000000000000009
 40
0.5000000000000009
 40
1.0
 40
1.0
 40
1.0
 40
1.0
 10
7.291046720918783
 20
13.33820313374808
 30
0.0
 10
7.291244172021501
 20
13.3417527276014
 30
0.0
 10
7.291167292028777
 20
13.34531632365973
 30
0.0
 10
7.291190299100327
 20
13.35243449336289
 30
0.0
 10
7.291228242626109
 20
13.3631115727021
 30
0.0
 10
7.29127554341163
 20
13.37378817441523
 30
0.0
 10
7.291379757640362
 20
13.39514088726386
 30
0.0
 10
7.291462212206044
 20
13.40937536695864
 30
0.0
 10
7.29172026204525
 20
13.45207826079841
 30
0.0
 10
7.291896165161786
 20
13.48054665923616
 30
0.0
 10
7.292078707474547
 20
13.50901471891877
 30
0.0
  0
LINE
  5
236
330
1F
100
AcDbEntity
  8
0
  6
Continuous
 62
     7
370
    25
100
AcDbLine
 10
7.0069289229
 20
13.7204964263
 30
0.0
 11
7.0069289229
 21
13.3525858764
 31
0.0
  0
SPLINE
  5
237
330
1F
100
AcDbEntity
  8
0
  6
Continuous
 62
     7
370
    25
100
AcDbSpline
210
0.0
220
0.0
230
1.0
 70
     8
 71
     3
 72
    15
 73
    11
 74
     0
 42
0.000000001
 43
0.00000001
 40
0.0
 40
0.0
 40
0.0
 40
0.0
 40
0.0625000000000006
 40
0.0625000000000006
 40
0.1250000000000013
 40
0.2500000000000013
 40
0.2500000000000013
 40
0.5000000000000009
 40
0.5000000000000009
 40
1.0
 40
1.0
 40
1.0
 40
1.0
 10
7.291046720918783
 20
4.670937823105072
 30
0.0
 10
7.291244172021501
 20
4.667388229251749
 30
0.0
 10
7.291167292028777
 20
4.663824633193424
 30
0.0
 10
7.291190299100327
 20
4.65670646349026
 30
0.0
 10
7.291228242626109
 20
4.646029384151055
 30
0.0
 10
7.29127554341163
 20
4.635352782437922
 30
0.0
 10
7.291379757640362
 20
4.614000069589292
 30
0.0
 10
7.291462212206044
 20
4.599765589894514
 30
0.0
 10
7.29172026204525
 20
4.557062696054742
 30
0.0
 10
7.291896165161786
 20
4.528594297616993
 30
0.0
 10
7.292078707474547
 20
4.500126237934387
 30
0.0
  0
SPLINE
  5
238
330
1F
100
AcDbEntity
  8
0
  6
Continuous
 62
     7
370
    25
100
AcDbSpline
210
0.0
220
0.0
230
1.0
 70
     8
 71
     3
 72
    12
 73
     8
 74
     0
 42
0.000000001
 43
0.00000001
 40
0.0
 40
0.0
 40
0.0
 40
0.0
 40
0.4999999999999991
 40
0.4999999999999991
 40
0.7499999999999996
 40
0.7499999999999996
 40
1.0
 40
1.0
 40
1.0
 40
1.0
 10
7.292078707474547
 20
4.500126237934387
 30
0.0
 10
7.292203546960857
 20
4.480657119277607
 30
0.0
 10
7.305378338634423
 20
4.462533694333606
 30
0.0
 10
7.339024979910505
 20
4.436780303323235
 30
0.0
 10
7.352625680174498
 20
4.428412609341913
 30
0.0
 10
7.382766814474275
 20
4.412249385966677
 30
0.0
 10
7.399211568940347
 20
4.40440313962574
 30
0.0
 10
7.416900838729954
 20
4.396770048927505
 30
0.0
  0
LINE
  5
239
330
1F
100
AcDbEntity
  8
0
  6
Continuous
 62
     7
370
    25
100
AcDbLine
 10
7.4169008235
 20
4.3967700548
 30
0.0
 11
7.4169008235
 21
4.3093982108
 31
0.0
  0
LINE
  5
23A
330
1F
100
AcDbEntity
  8
0
  6
Continuous
 62
     7
370
    25
100
AcDbLine
 10
7.4169008235
 20
4.3093982108
 30
0.0
 11
7.0069289229
 21
4.2886445305
 31
0.0
  0
LINE
  5
23B
330
1F
100
AcDbEntity
  8
0
  6
Continuous
 62
     7
370
    25
100
AcDbLine
 10
7.0069289229
 20
4.2886445305
 30
0.0
 11
7.0069289229
 21
4.6565550804
 31
0.0
  0
ARC
  5
23C
330
1F
100
AcDbEntity
  8
0
  6
Continuous
 62
     7
370
    25
100
AcDbCircle
 10
7.2906840699
 20
13.4787895941
 30
0.0
 40
0.0302571935009477
100
AcDbArc
 50
35.4885100885
 51
87.3581533601
  0
ARC
  5
23D
330
1F
100
AcDbEntity
  8
0
  6
Continuous
 62
     7
370
    25
100
AcDbCircle
 10
7.2906840699
 20
4.5303513628
 30
0.0
 40
0.0302571935009546
100
AcDbArc
 50
272.6418466399
 51
324.5114899115
  0
SPLINE
  5
23E
330
1F
100
AcDbEntity
  8
0
  6
Continuous
 62
     7
370
    25
100
AcDbSpline
210
0.0
220
0.0
230
1.0
 70
     8
 71
     3
 72
    10
 73
     6
 74
     0
 42
0.000000001
 43
0.00000001
 40
0.0
 40
0.0
 40
0.0
 40
0.0
 40
0.5
 40
0.5
 40
1.0
 40
1.0
 40
1.0
 40
1.0
 10
7.421716188476863
 20
13.61092483888055
 30
0.0
 10
7.426310430715832
 20
13.60904064797221
 30
0.0
 10
7.4304759951608
 20
13.60580798025574
 30
0.0
 10
7.436970203325561
 20
13.59755830823808
 30
0.0
 10
7.439295500858679
 20
13.59254839320288
 30
0.0
 10
7.440371133815485
 20
13.58724662785539
 30
0.0
  0
SPLINE
  5
23F
330
1F
100
AcDbEntity
  8
0
  6
Continuous
 62
     7
370
    25
100
AcDbSpline
210
0.0
220
0.0
230
1.0
 70
     8
 71
     3
 72
    19
 73
    15
 74
     0
 42
0.000000001
 43
0.00000001
 40
0.0
 40
0.0
 40
0.0
 40
0.0
 40
0.0569144359484848
 40
0.1252302036626089
 40
0.1877816273714754
 40
0.2502385732249394
 40
0.375056457883768
 40
0.4992717907692302
 40
0.6226458096677453
 40
0.7494181039718021
 40
0.8104830691341348
 40
0.8727216017523866
 40
0.9359537295758662
 40
1.0
 40
1.0
 40
1.0
 40
1.0
 10
7.440371771651906
 20
13.58724672900726
 30
0.0
 10
7.43646329184416
 20
13.58587836199796
 30
0.0
 10
7.427863369624457
 20
13.58286751112324
 30
0.0
 10
7.415499615586959
 20
13.57815778893371
 30
0.0
 10
7.403156928462155
 20
13.5732838568945
 30
0.0
 10
7.387833948933679
 20
13.56675887592255
 30
0.0
 10
7.370105951656199
 20
13.55805217029257
 30
0.0
 10
7.351537603190458
 20
13.54716845987014
 30
0.0
 10
7.336213332713087
 20
13.53537483004048
 30
0.0
 10
7.326593322892673
 20
13.52510877201886
 30
0.0
 10
7.320993355866296
 20
13.51654326817689
 30
0.0
 10
7.317915871674065
 20
13.51002440157069
 30
0.0
 10
7.315851121773613
 20
13.50329210147716
 30
0.0
 10
7.315498045850902
 20
13.49867728045319
 30
0.0
 10
7.315320378655702
 20
13.49635511047518
 30
0.0
  0
SPLINE
  5
240
330
1F
100
AcDbEntity
  8
0
  6
Continuous
 62
     7
370
    25
100
AcDbSpline
210
0.0
220
0.0
230
1.0
 70
     8
 71
     3
 72
     8
 73
     4
 74
     0
 42
0.000000001
 43
0.00000001
 40
0.0
 40
0.0
 40
0.0
 40
0.0
 40
1.0
 40
1.0
 40
1.0
 40
1.0
 10
7.416900838729954
 20
13.61237090792565
 30
0.0
 10
7.418537054028484
 20
13.61205339545769
 30
0.0
 10
7.420142335404733
 20
13.61157030759886
 30
0.0
 10
7.421716188476863
 20
13.61092483888055
 30
0.0
  0
SPLINE
  5
241
330
1F
100
AcDbEntity
  8
0
  6
Continuous
 62
     7
370
    25
100
AcDbSpline
210
0.0
220
0.0
230
1.0
 70
     8
 71
     3
 72
    12
 73
     8
 74
     0
 42
0.000000001
 43
0.00000001
 40
0.0
 40
0.0
 40
0.0
 40
0.0
 40
0.25
 40
0.25
 40
0.5
 40
0.5
 40
1.0
 40
1.0
 40
1.0
 40
1.0
 10
7.440370656618925
 20
4.421894308625779
 30
0.0
 10
7.422822334390942
 20
4.428072846315431
 30
0.0
 10
7.406271208609772
 20
4.434300470362017
 30
0.0
 10
7.376054216418241
 20
4.447807303647929
 30
0.0
 10
7.362472062173501
 20
4.455055822843022
 30
0.0
 10
7.328896809950062
 20
4.477869402564576
 30
0.0
 10
7.315758121793127
 20
4.494540287375225
 30
0.0
 10
7.315320427277515
 20
4.512785814480276
 30
0.0
  0
SPLINE
  5
242
330
1F
100
AcDbEntity
  8
0
  6
Continuous
 62
     7
370
    25
100
AcDbSpline
210
0.0
220
0.0
230
1.0
 70
     8
 71
     3
 72
    13
 73
     9
 74
     0
 42
0.000000001
 43
0.00000001
 40
0.0
 40
0.0
 40
0.0
 40
0.0
 40
0.0968813536969171
 40
0.2234492400962156
 40
0.3799924243296882
 40
0.5650000204127142
 40
0.7741779479093457
 40
0.9999999999999999
 40
0.9999999999999999
 40
0.9999999999999999
 40
0.9999999999999999
 10
7.421716181855905
 20
4.398216146311122
 30
0.0
 10
7.422587101011402
 20
4.398606682444687
 30
0.0
 10
7.424595807703199
 20
4.399507423391683
 30
0.0
 10
7.427824563802253
 20
4.401579852497453
 30
0.0
 10
7.43149731629493
 20
4.404715732223222
 30
0.0
 10
7.435204912287307
 20
4.409194906437096
 30
0.0
 10
7.438531668466943
 20
4.41501294403476
 30
0.0
 10
7.439742221036707
 20
4.419542746785153
 30
0.0
 10
7.440370656618996
 20
4.421894308625754
 30
0.0
  0
SPLINE
  5
243
330
1F
100
AcDbEntity
  8
0
  6
Continuous
 62
     7
370
    25
100
AcDbSpline
210
0.0
220
0.0
230
1.0
 70
     8
 71
     3
 72
     8
 73
     4
 74
     0
 42
0.000000001
 43
0.00000001
 40
0.0
 40
0.0
 40
0.0
 40
0.0
 40
1.0
 40
1.0
 40
1.0
 40
1.0
 10
7.416900838729954
 20
4.396770048927505
 30
0.0
 10
7.418524523687442
 20
4.39708721617823
 30
0.0
 10
7.420138996753692
 20
4.397572017554071
 30
0.0
 10
7.421716188476863
 20
4.398216117972599
 30
0.0
  0
SPLINE
  5
244
330
1F
100
AcDbEntity
  8
0
  6
Continuous
 62
     7
370
    25
100
AcDbSpline
210
0.0
220
0.0
230
1.0
 70
     8
 71
     3
 72
    23
 73
    19
 74
     0
 42
0.000000001
 43
0.00000001
 40
0.0
 40
0.0
 40
0.0
 40
0.0
 40
0.0123966682362227
 40
0.0281658635092167
 40
0.0474242200198148
 40
0.0701915778203191
 40
0.0964409063459703
 40
0.126121788739071
 40
0.1775060219168384
 40
0.2514448113901104
 40
0.3221729751833232
 40
0.3760492686751125
 40
0.5009848268358319
 40
0.7503287298874858
 40
0.874577417174413
 40
0.9369462848043493
 40
0.9741409182181446
 40
1.0
 40
1.0
 40
1.0
 40
1.0
 10
7.502280245205436
 20
13.54223691281898
 30
0.0
 10
7.502150771412259
 20
13.54271064744883
 30
0.0
 10
7.501856600340067
 20
13.54378699672831
 30
0.0
 10
7.501177424015859
 20
13.54538900982486
 30
0.0
 10
7.500280713056263
 20
13.54721558647934
 30
0.0
 10
7.49913565779753
 20
13.54922281103504
 30
0.0
 10
7.497749553747492
 20
13.55139421348296
 30
0.0
 10
7.495781528081342
 20
13.55417430055688
 30
0.0
 10
7.492810574588732
 20
13.55785081226316
 30
0.0
 10
7.488911027097421
 20
13.56205891088764
 30
0.0
 10
7.484844661492442
 20
13.56588143034637
 30
0.0
 10
7.479641111627067
 20
13.5702746736025
 30
0.0
 10
7.470531035722411
 20
13.57689740127033
 30
0.0
 10
7.459624609248375
 20
13.58277086485258
 30
0.0
 10
7.449975002006333
 20
13.58606254198606
 30
0.0
 10
7.445037324253121
 20
13.58704180544215
 30
0.0
 10
7.442286369006658
 20
13.58733429552091
 30
0.0
 10
7.440928606340037
 20
13.58727219654079
 30
0.0
 10
7.440371771651906
 20
13.58724672900726
 30
0.0
  0
SPLINE
  5
245
330
1F
100
AcDbEntity
  8
0
  6
Continuous
 62
     7
370
    25
100
AcDbSpline
210
0.0
220
0.0
230
1.0
 70
     8
 71
     3
 72
     9
 73
     5
 74
     0
 42
0.000000001
 43
0.00000001
 40
0.0
 40
0.0
 40
0.0
 40
0.0
 40
0.476532831112212
 40
1.0
 40
1.0
 40
1.0
 40
1.0
 10
7.503082769040753
 20
13.37082028848549
 30
0.0
 10
7.503057456796389
 20
13.39804948022327
 30
0.0
 10
7.503004339271823
 20
13.45518970217658
 30
0.0
 10
7.502529045756361
 20
13.51232727128216
 30
0.0
 10
7.502280245205432
 20
13.54223691281899
 30
0.0
  0
LINE
  5
246
330
1F
100
AcDbEntity
  8
0
  6
Continuous
 62
     7
370
    25
100
AcDbLine
 10
7.4069289254
 20
13.3708201458
 30
0.0
 11
7.5030827746
 21
13.3708201458
 31
0.0
  0
SPLINE
  5
247
330
1F
100
AcDbEntity
  8
0
  6
Continuous
 62
     7
370
    25
100
AcDbSpline
210
0.0
220
0.0
230
1.0
 70
     8
 71
     3
 72
     8
 73
     4
 74
     0
 42
0.000000001
 43
0.00000001
 40
0.0
 40
0.0
 40
0.0
 40
0.0
 40
1.0
 40
1.0
 40
1.0
 40
1.0
 10
7.503082769040513
 20
4.638320668367812
 30
0.0
 10
7.503082755962168
 20
4.581190505773367
 30
0.0
 10
7.502853914367185
 20
4.524054413707759
 30
0.0
 10
7.502280235973156
 20
4.466904044116514
 30
0.0
  0
SPLINE
  5
248
330
1F
100
AcDbEntity
  8
0
  6
Continuous
 62
     7
370
    25
100
AcDbSpline
210
0.0
220
0.0
230
1.0
 70
     8
 71
     3
 72
    24
 73
    20
 74
     0
 42
0.000000001
 43
0.00000001
 40
0.0
 40
0.0
 40
0.0
 40
0.0
 40
0.0312500000000007
 40
0.0312500000000007
 40
0.0625000000000013
 40
0.0625000000000013
 40
0.1249999999999987
 40
0.1249999999999987
 40
0.2499999999999978
 40
0.2499999999999978
 40
0.4999999999999958
 40
0.4999999999999958
 40
0.7499999999999939
 40
0.7499999999999939
 40
0.8749999999999942
 40
0.8749999999999942
 40
0.9374999999999971
 40
0.9374999999999971
 40
1.0
 40
1.0
 40
1.0
 40
1.0
 10
7.502280253634276
 20
4.466904029557266
 30
0.0
 10
7.502003776026123
 20
4.465677382813023
 30
0.0
 10
7.501523677980537
 20
4.464573831802875
 30
0.0
 10
7.500575672474843
 20
4.462515160441997
 30
0.0
 10
7.500066289382375
 20
4.461562475978454
 30
0.0
 10
7.498485792515141
 20
4.45881614577278
 30
0.0
 10
7.497353729335313
 20
4.457150199023011
 30
0.0
 10
7.493844078027113
 20
4.452411071333213
 30
0.0
 10
7.491360182064824
 20
4.449641020389689
 30
0.0
 10
7.483747907797626
 20
4.442001753766564
 30
0.0
 10
7.478507646366086
 20
4.437876562328851
 30
0.0
 10
7.467842927154334
 20
4.430796257268512
 30
0.0
 10
7.462406349680505
 20
4.427859033625961
 30
0.0
 10
7.454108773380383
 20
4.424489126466614
 30
0.0
 10
7.451333781760312
 20
4.423546039262046
 30
0.0
 10
7.447190003084954
 20
4.42252283406827
 30
0.0
 10
7.445811193451472
 20
4.422245272510482
 30
0.0
 10
7.443066922097081
 20
4.421879568111358
 30
0.0
 10
7.441695710537406
 20
4.421750061774724
 30
0.0
 10
7.440371133488799
 20
4.421894327053455
 30
0.0
  0
LINE
  5
249
330
1F
100
AcDbEntity
  8
0
  6
Continuous
 62
     7
370
    25
100
AcDbLine
 10
7.4069289254
 20
4.638320811
 30
0.0
 11
7.5030827746
 21
4.638320811
 31
0.0
  0
LINE
  5
24A
330
1F
100
AcDbEntity
  8
0
  6
Continuous
 62
     7
370
    25
100
AcDbLine
 10
7.5030827746
 20
4.638320811
 30
0.0
 11
7.5030827746
 21
13.3708201458
 31
0.0
  0
SPLINE
  5
24B
330
1F
100
AcDbEntity
  8
0
  6
Continuous
 62
     7
370
    25
100
AcDbSpline
210
0.0
220
0.0
230
1.0
 70
     8
 71
     3
 72
    19
 73
    15
 74
     0
 42
0.000000001
 43
0.00000001
 40
0.0
 40
0.0
 40
0.0
 40
0.0
 40
0.1063241398945994
 40
0.210524705084994
 40
0.3116965172298967
 40
0.4090468485623951
 40
0.5019185500280555
 40
0.5898001743600697
 40
0.6723242712754853
 40
0.7492563915450412
 40
0.820477912110835
 40
0.8859656983145012
 40
0.9457710913108934
 40
1.0
 40
1.0
 40
1.0
 40
1.0
 10
7.422306760668421
 20
13.61120940289956
 30
0.0
 10
7.423256766975928
 20
13.61077957313722
 30
0.0
 10
7.425137805448609
 20
13.60992849845143
 30
0.0
 10
7.427763230431899
 20
13.608228372229
 30
0.0
 10
7.430161406250076
 20
13.60629828558042
 30
0.0
 10
7.432293502120356
 20
13.60417313395161
 30
0.0
 10
7.434147004981737
 20
13.60192996810964
 30
0.0
 10
7.435720776859079
 20
13.599632139387
 30
0.0
 10
7.437026268870215
 20
13.59733854492945
 30
0.0
 10
7.438083195447231
 20
13.59509810597748
 30
0.0
 10
7.438918204239862
 20
13.59294997682207
 30
0.0
 10
7.439557003772677
 20
13.59092280347412
 30
0.0
 10
7.440038795444973
 20
13.58903838755712
 30
0.0
 10
7.440264025527437
 20
13.58782408857754
 30
0.0
 10
7.440371133488772
 20
13.58724662979969
 30
0.0
  0
SPLINE
  5
24C
330
1F
100
AcDbEntity
  8
0
  6
Continuous
 62
     7
370
    25
100
AcDbSpline
210
0.0
220
0.0
230
1.0
 70
     8
 71
     3
 72
    26
 73
    22
 74
     0
 42
0.000000001
 43
0.00000001
 40
0.0
 40
0.0
 40
0.0
 40
0.0
 40
0.0110966401764675
 40
0.0241343458961102
 40
0.0393636209441601
 40
0.0569677917886383
 40
0.0770895666227938
 40
0.0998458121575815
 40
0.1253349734946013
 40
0.1809150082747761
 40
0.2504289721049767
 40
0.3034640005173635
 40
0.3751406634190479
 40
0.4994250344746546
 40
0.6239368386556636
 40
0.7492481351886147
 40
0.8744854377188928
 40
0.9072389794012541
 40
0.9372083612422418
 40
0.9683646548320783
 40
1.0
 40
1.0
 40
1.0
 40
1.0
 10
7.422306744723659
 20
13.6112094086937
 30
0.0
 10
7.422828906921009
 20
13.61111945415911
 30
0.0
 10
7.423964569868024
 20
13.61092380990841
 30
0.0
 10
7.425651508111581
 20
13.61063817509747
 30
0.0
 10
7.427500829410855
 20
13.61031045416576
 30
0.0
 10
7.429510061306387
 20
13.60992884925366
 30
0.0
 10
7.431694325140008
 20
13.60947485860459
 30
0.0
 10
7.434060634239684
 20
13.60893135739801
 30
0.0
 10
7.437525657327031
 20
13.6080487348844
 30
0.0
 10
7.442322472549226
 20
13.60662349137933
 30
0.0
 10
7.447785365566568
 20
13.60462976434003
 30
0.0
 10
7.453570813381157
 20
13.60216494233286
 30
0.0
 10
7.460852934840222
 20
13.5985784305243
 30
0.0
 10
7.469960643627524
 20
13.5931603018969
 30
0.0
 10
7.480297808419538
 20
13.58547525772588
 30
0.0
 10
7.490280444411887
 20
13.57611984505167
 30
0.0
 10
7.497407415047147
 20
13.56729399089377
 30
0.0
 10
7.501597938878813
 20
13.56021196369456
 30
0.0
 10
7.503507807848685
 20
13.55638250324524
 30
0.0
 10
7.505200844287756
 20
13.55227940776964
 30
0.0
 10
7.505965599112995
 20
13.54926095295262
 30
0.0
 10
7.506350893769161
 20
13.54774021130772
 30
0.0
  0
SPLINE
  5
24D
330
1F
100
AcDbEntity
  8
0
  6
Continuous
 62
     7
370
    25
100
AcDbSpline
210
0.0
220
0.0
230
1.0
 70
     8
 71
     3
 72
     8
 73
     4
 74
     0
 42
0.000000001
 43
0.00000001
 40
0.0
 40
0.0
 40
0.0
 40
0.0
 40
1.0
 40
1.0
 40
1.0
 40
1.0
 10
7.506350893769161
 20
13.54774021130772
 30
0.0
 10
7.506401919097589
 20
13.5460816454497
 30
0.0
 10
7.504976444938159
 20
13.5441714383905
 30
0.0
 10
7.502280234802153
 20
13.54223691275307
 30
0.0
  0
SPLINE
  5
24E
330
1F
100
AcDbEntity
  8
0
  6
Continuous
 62
     7
370
    25
100
AcDbSpline
210
0.0
220
0.0
230
1.0
 70
     8
 71
     3
 72
    36
 73
    32
 74
     0
 42
0.000000001
 43
0.00000001
 40
0.0
 40
0.0
 40
0.0
 40
0.0
 40
0.0078124999999995
 40
0.0078124999999995
 40
0.0156249999999991
 40
0.0156249999999991
 40
0.0312499999999982
 40
0.0312499999999982
 40
0.0624999999999985
 40
0.0624999999999985
 40
0.1249999999999967
 40
0.1249999999999967
 40
0.2499999999999973
 40
0.2499999999999973
 40
0.5000000000000013
 40
0.5000000000000013
 40
0.7500000000000053
 40
0.7500000000000053
 40
0.8750000000000092
 40
0.8750000000000092
 40
0.9375000000000081
 40
0.9375000000000081
 40
0.9687500000000053
 40
0.9687500000000053
 40
0.9843750000000071
 40
0.9843750000000071
 40
0.9921875000000053
 40
0.9921875000000053
 40
0.9960937500000027
 40
0.9960937500000027
 40
1.0
 40
1.0
 40
1.0
 40
1.0
 10
7.422306760668425
 20
4.397931553953587
 30
0.0
 10
7.423272064488907
 20
4.398100729209097
 30
0.0
 10
7.423820051177271
 20
4.398192797492837
 30
0.0
 10
7.424881380226296
 20
4.398374390122852
 30
0.0
 10
7.425351918116801
 20
4.398455666616493
 30
0.0
 10
7.42665695933119
 20
4.398684048887407
 30
0.0
 10
7.427392107046972
 20
4.398817107718554
 30
0.0
 10
7.429499006481157
 20
4.399212804074596
 30
0.0
 10
7.430700131618125
 20
4.399458821141617
 30
0.0
 10
7.434152846826595
 20
4.40021665295638
 30
0.0
 10
7.436171179685363
 20
4.400733823817448
 30
0.0
 10
7.44202100501461
 20
4.402401032677314
 30
0.0
 10
7.445565991901765
 20
4.403654129585228
 30
0.0
 10
7.45593537126258
 20
4.407884005294456
 30
0.0
 10
7.46233926721914
 20
4.411271340797142
 30
0.0
 10
7.474928532233832
 20
4.419457529664982
 30
0.0
 10
7.481069751433375
 20
4.424182125834444
 30
0.0
 10
7.49031766192169
 20
4.433414216086193
 30
0.0
 10
7.49338192138388
 20
4.436800749876937
 30
0.0
 10
7.497999842038359
 20
4.443094834197815
 30
0.0
 10
7.499531951879908
 20
4.445352365245273
 30
0.0
 10
7.501882297474125
 20
4.449522321980622
 30
0.0
 10
7.502668786456422
 20
4.451002984176871
 30
0.0
 10
7.503913120170407
 20
4.453786497425873
 30
0.0
 10
7.504336758647579
 20
4.454781780823761
 30
0.0
 10
7.505014304522803
 20
4.456634062465296
 30
0.0
 10
7.505247189796629
 20
4.45731583490231
 30
0.0
 10
7.505610387506346
 20
4.458473097076722
 30
0.0
 10
7.505735720319281
 20
4.45889423194444
 30
0.0
 10
7.506012408879616
 20
4.459926933800586
 30
0.0
 10
7.506144197027755
 20
4.460410644842805
 30
0.0
 10
7.506350903104309
 20
4.461400741436718
 30
0.0
  0
SPLINE
  5
24F
330
1F
100
AcDbEntity
  8
0
  6
Continuous
 62
     7
370
    25
100
AcDbSpline
210
0.0
220
0.0
230
1.0
 70
     8
 71
     3
 72
    12
 73
     8
 74
     0
 42
0.000000001
 43
0.00000001
 40
0.0
 40
0.0
 40
0.0
 40
0.0
 40
0.5
 40
0.5
 40
0.75
 40
0.75
 40
1.0
 40
1.0
 40
1.0
 40
1.0
 10
7.422306744723658
 20
4.397931548159458
 30
0.0
 10
7.426884086900775
 20
4.399811198568624
 30
0.0
 10
7.43097179846577
 20
4.403066866859518
 30
0.0
 10
7.435692301412526
 20
4.409335212953644
 30
0.0
 10
7.437048614969651
 20
4.411688116567961
 30
0.0
 10
7.439151268952603
 20
4.416620587222859
 30
0.0
 10
7.439912292243108
 20
4.419199537131055
 30
0.0
 10
7.440371133815485
 20
4.421894328997757
 30
0.0
  0
SPLINE
  5
250
330
1F
100
AcDbEntity
  8
0
  6
Continuous
 62
     7
370
    25
100
AcDbSpline
210
0.0
220
0.0
230
1.0
 70
     8
 71
     3
 72
    15
 73
    11
 74
     0
 42
0.000000001
 43
0.00000001
 40
0.0
 40
0.0
 40
0.0
 40
0.0
 40
0.2010915453037508
 40
0.3817812725416793
 40
0.5408341809195301
 40
0.6775844101275639
 40
0.7917859469277356
 40
0.8834662264857507
 40
0.9527984499275296
 40
0.9999999999999999
 40
0.9999999999999999
 40
0.9999999999999999
 40
0.9999999999999999
 10
7.506350903117884
 20
4.461400743728353
 30
0.0
 10
7.506327577938469
 20
4.4617371772067
 30
0.0
 10
7.506283294044454
 20
4.462375911178803
 30
0.0
 10
7.505839491692376
 20
4.463340135177331
 30
0.0
 10
7.505238694677308
 20
4.464215546142687
 30
0.0
 10
7.504550236435851
 20
4.464987889145339
 30
0.0
 10
7.503860693787352
 20
4.465644401882329
 30
0.0
 10
7.503231838820768
 20
4.466177845175367
 30
0.0
 10
7.502715662337491
 20
4.466585070079023
 30
0.0
 10
7.502405773071723
 20
4.466812080053313
 30
0.0
 10
7.502280253634276
 20
4.466904029557268
 30
0.0
  0
SPLINE
  5
251
330
1F
100
AcDbEntity
  8
0
  6
Continuous
 62
     7
370
    25
100
AcDbSpline
210
0.0
220
0.0
230
1.0
 70
     8
 71
     3
 72
     8
 73
     4
 74
     0
 42
0.000000001
 43
0.00000001
 40
0.0
 40
0.0
 40
0.0
 40
0.0
 40
1.0
 40
1.0
 40
1.0
 40
1.0
 10
7.422306744723657
 20
13.61120940869369
 30
0.0
 10
7.422112408983285
 20
13.61112378988879
 30
0.0
 10
7.421923542004316
 20
13.61106025558254
 30
0.0
 10
7.421716188476863
 20
13.61092483888055
 30
0.0
  0
SPLINE
  5
252
330
1F
100
AcDbEntity
  8
0
  6
Continuous
 62
     7
370
    25
100
AcDbSpline
210
0.0
220
0.0
230
1.0
 70
     8
 71
     3
 72
     8
 73
     4
 74
     0
 42
0.000000001
 43
0.00000001
 40
0.0
 40
0.0
 40
0.0
 40
0.0
 40
1.0
 40
1.0
 40
1.0
 40
1.0
 10
7.422306744723657
 20
4.397931548159458
 30
0.0
 10
7.422112408983244
 20
4.398017166964371
 30
0.0
 10
7.421923542004315
 20
4.398080701270607
 30
0.0
 10
7.421716188476863
 20
4.398216117972599
 30
0.0
  0
SPLINE
  5
253
330
1F
100
AcDbEntity
  8
0
  6
Continuous
 62
     7
370
    25
100
AcDbSpline
210
0.0
220
0.0
230
1.0
 70
     8
 71
     3
 72
    22
 73
    18
 74
     0
 42
0.000000001
 43
0.00000001
 40
0.0
 40
0.0
 40
0.0
 40
0.0
 40
0.125
 40
0.125
 40
0.25
 40
0.25
 40
0.375
 40
0.375
 40
0.5
 40
0.5
 40
0.625
 40
0.625
 40
0.75
 40
0.75
 40
0.875
 40
0.875
 40
1.0
 40
1.0
 40
1.0
 40
1.0
 10
7.506928922886908
 20
4.401035457297678
 30
0.0
 10
7.506928922886908
 20
4.398616574203063
 30
0.0
 10
7.506460305554145
 20
4.395611337404502
 30
0.0
 10
7.504103829823685
 20
4.388239715405945
 30
0.0
 10
7.502205227113243
 20
4.383864152577976
 30
0.0
 10
7.496647937967754
 20
4.373907298955522
 30
0.0
 10
7.492978290011352
 20
4.36832402620394
 30
0.0
 10
7.484049884970997
 20
4.356677221387269
 30
0.0
 10
7.478795146587871
 20
4.350628885833995
 30
0.0
 10
7.467541636068256
 20
4.339174236389137
 30
0.0
 10
7.461563531536027
 20
4.33378895950296
 30
0.0
 10
7.44998967315038
 20
4.324567054954525
 30
0.0
 10
7.444409420000158
 20
4.320735099063334
 30
0.0
 10
7.434406299538278
 20
4.314853425058332
 30
0.0
 10
7.429981956847375
 20
4.312793029710833
 30
0.0
 10
7.422484079523182
 20
4.310134167484032
 30
0.0
 10
7.419401618845458
 20
4.309524856298601
 30
0.0
 10
7.416900838729988
 20
4.309398261738804
 30
0.0
  0
SPLINE
  5
254
330
1F
100
AcDbEntity
  8
0
  6
Continuous
 62
     7
370
    25
100
AcDbSpline
210
0.0
220
0.0
230
1.0
 70
     8
 71
     3
 72
     8
 73
     4
 74
     0
 42
0.000000001
 43
0.00000001
 40
0.0
 40
0.0
 40
0.0
 40
0.0
 40
1.0
 40
1.0
 40
1.0
 40
1.0
 10
7.416900838729972
 20
4.396770048927505
 30
0.0
 10
7.418727586230214
 20
4.39696216420297
 30
0.0
 10
7.420537714887064
 20
4.397386960642033
 30
0.0
 10
7.42230674472366
 20
4.397931548159458
 30
0.0
  0
SPLINE
  5
255
330
1F
100
AcDbEntity
  8
0
  6
Continuous
 62
     7
370
    25
100
AcDbSpline
210
0.0
220
0.0
230
1.0
 70
     8
 71
     3
 72
     8
 73
     4
 74
     0
 42
0.000000001
 43
0.00000001
 40
0.0
 40
0.0
 40
0.0
 40
0.0
 40
1.0
 40
1.0
 40
1.0
 40
1.0
 10
7.506350893769161
 20
4.461400745545435
 30
0.0
 10
7.506701094311691
 20
4.46306552986693
 30
0.0
 10
7.506928922886908
 20
4.464762134127674
 30
0.0
 10
7.506928922886908
 20
4.466462428243702
 30
0.0
  0
LINE
  5
256
330
1F
100
AcDbEntity
  8
0
  6
Continuous
 62
     7
370
    25
100
AcDbLine
 10
7.5069289168
 20
4.4010353655
 30
0.0
 11
7.5069289168
 21
4.4664623164
 31
0.0
  0
SPLINE
  5
257
330
1F
100
AcDbEntity
  8
0
  6
Continuous
 62
     7
370
    25
100
AcDbSpline
210
0.0
220
0.0
230
1.0
 70
     8
 71
     3
 72
     9
 73
     5
 74
     0
 42
0.000000001
 43
0.00000001
 40
0.0
 40
0.0
 40
0.0
 40
0.0
 40
0.4676555139768394
 40
1.0
 40
1.0
 40
1.0
 40
1.0
 10
7.416900838729936
 20
13.61237090792565
 30
0.0
 10
7.417753859869856
 20
13.61225276579128
 30
0.0
 10
7.419577897252984
 20
13.61200013937964
 30
0.0
 10
7.421358728845073
 20
13.61148411266818
 30
0.0
 10
7.422306744723659
 20
13.6112094086937
 30
0.0
  0
SPLINE
  5
258
330
1F
100
AcDbEntity
  8
0
  6
Continuous
 62
     7
370
    25
100
AcDbSpline
210
0.0
220
0.0
230
1.0
 70
     8
 71
     3
 72
    22
 73
    18
 74
     0
 42
0.000000001
 43
0.00000001
 40
0.0
 40
0.0
 40
0.0
 40
0.0
 40
0.125
 40
0.125
 40
0.25
 40
0.25
 40
0.375
 40
0.375
 40
0.5
 40
0.5
 40
0.625
 40
0.625
 40
0.75
 40
0.75
 40
0.875
 40
0.875
 40
1.0
 40
1.0
 40
1.0
 40
1.0
 10
7.506928922886908
 20
13.60810549955547
 30
0.0
 10
7.506928922886908
 20
13.61052438265009
 30
0.0
 10
7.506460305554145
 20
13.61352961944865
 30
0.0
 10
7.504103829823685
 20
13.62090124144722
 30
0.0
 10
7.502205227113243
 20
13.62527680427518
 30
0.0
 10
7.496647937967754
 20
13.63523365789764
 30
0.0
 10
7.492978290011352
 20
13.64081693064922
 30
0.0
 10
7.484049884970997
 20
13.6524637354659
 30
0.0
 10
7.478795146587871
 20
13.65851207101917
 30
0.0
 10
7.467541636068256
 20
13.66996672046403
 30
0.0
 10
7.461563531536027
 20
13.67535199735021
 30
0.0
 10
7.44998967315038
 20
13.68457390189864
 30
0.0
 10
7.444409420000158
 20
13.68840585778983
 30
0.0
 10
7.434406299538278
 20
13.69428753179483
 30
0.0
 10
7.429981956847375
 20
13.69634792714233
 30
0.0
 10
7.422484079523182
 20
13.69900678936912
 30
0.0
 10
7.419401618845458
 20
13.69961610055455
 30
0.0
 10
7.416900838729988
 20
13.69974269511435
 30
0.0
  0
LINE
  5
259
330
1F
100
AcDbEntity
  8
0
  6
Continuous
 62
     7
370
    25
100
AcDbLine
 10
7.5069289168
 20
13.6081055913
 30
0.0
 11
7.5069289168
 21
13.5426786405
 31
0.0
  0
SPLINE
  5
25A
330
1F
100
AcDbEntity
  8
0
  6
Continuous
 62
     7
370
    25
100
AcDbSpline
210
0.0
220
0.0
230
1.0
 70
     8
 71
     3
 72
     8
 73
     4
 74
     0
 42
0.000000001
 43
0.00000001
 40
0.0
 40
0.0
 40
0.0
 40
0.0
 40
1.0
 40
1.0
 40
1.0
 40
1.0
 10
7.506350893769151
 20
13.54774021130777
 30
0.0
 10
7.506754573527085
 20
13.54581932702414
 30
0.0
 10
7.506928922886888
 20
13.54414085637022
 30
0.0
 10
7.506928922886908
 20
13.54267852860948
 30
0.0
  0
SPLINE
  5
25B
330
1F
100
AcDbEntity
  8
0
  6
Continuous
 62
     7
370
    25
100
AcDbSpline
210
0.0
220
0.0
230
1.0
 70
    24
 71
     3
 72
     8
 73
     4
 74
     0
 42
0.000000001
 43
0.00000001
 40
0.0
 40
0.0
 40
0.0
 40
0.0
 40
1.0
 40
1.0
 40
1.0
 40
1.0
 10
7.506928922886908
 20
13.54267852860945
 30
0.0
 10
7.506928922886908
 20
13.48539389819591
 30
0.0
 10
7.506928922886908
 20
13.42810773050068
 30
0.0
 10
7.506928922886908
 20
13.37082028848548
 30
0.0
  0
LINE
  5
25C
330
1F
100
AcDbEntity
  8
0
  6
Continuous
 62
     7
370
    25
100
AcDbLine
 10
7.5069289168
 20
13.3708201458
 30
0.0
 11
7.5030827746
 21
13.3708201458
 31
0.0
  0
SPLINE
  5
25D
330
1F
100
AcDbEntity
  8
0
  6
Continuous
 62
     7
370
    25
100
AcDbSpline
210
0.0
220
0.0
230
1.0
 70
     8
 71
     3
 72
     8
 73
     4
 74
     0
 42
0.000000001
 43
0.00000001
 40
0.0
 40
0.0
 40
0.0
 40
0.0
 40
1.0
 40
1.0
 40
1.0
 40
1.0
 10
7.506928922886908
 20
13.54267852860944
 30
0.0
 10
7.506928922750606
 20
13.54253378188613
 30
0.0
 10
7.505254864643359
 20
13.5423908088833
 30
0.0
 10
7.502280237816239
 20
13.54223691277212
 30
0.0
  0
LINE
  5
25E
330
1F
100
AcDbEntity
  8
0
  6
Continuous
 62
     7
370
    25
100
AcDbLine
 10
7.5069289168
 20
4.638320811
 30
0.0
 11
7.5030827746
 21
4.638320811
 31
0.0
  0
SPLINE
  5
25F
330
1F
100
AcDbEntity
  8
0
  6
Continuous
 62
     7
370
    25
100
AcDbSpline
210
0.0
220
0.0
230
1.0
 70
    24
 71
     3
 72
     8
 73
     4
 74
     0
 42
0.000000001
 43
0.00000001
 40
0.0
 40
0.0
 40
0.0
 40
0.0
 40
1.0
 40
1.0
 40
1.0
 40
1.0
 10
7.506928922886908
 20
4.466462428243702
 30
0.0
 10
7.506928922886908
 20
4.523747058657237
 30
0.0
 10
7.506928922886908
 20
4.581033226352465
 30
0.0
 10
7.506928922886908
 20
4.63832066836767
 30
0.0
  0
SPLINE
  5
260
330
1F
100
AcDbEntity
  8
0
  6
Continuous
 62
     7
370
    25
100
AcDbSpline
210
0.0
220
0.0
230
1.0
 70
     8
 71
     3
 72
     8
 73
     4
 74
     0
 42
0.000000001
 43
0.00000001
 40
0.0
 40
0.0
 40
0.0
 40
0.0
 40
1.0
 40
1.0
 40
1.0
 40
1.0
 10
7.506928922886908
 20
4.466462428243702
 30
0.0
 10
7.506928922886908
 20
4.466585237752616
 30
0.0
 10
7.50530286600809
 20
4.466739630468552
 30
0.0
 10
7.502280234802153
 20
4.46690404410008
 30
0.0
  0
LINE
  5
261
330
1F
100
AcDbEntity
  8
0
  6
Continuous
 62
     7
370
    25
100
AcDbLine
 10
7.5069289168
 20
13.3708201458
 30
0.0
 11
7.5069289168
 21
4.638320811
 31
0.0
  0
LINE
  5
262
330
1F
100
AcDbEntity
  8
0
  6
Continuous
 62
     7
370
    25
100
AcDbLine
 10
7.6319289428
 20
5.1032766398
 30
0.0
 11
7.6319289428
 21
5.405864371
 31
0.0
  0
LINE
  5
263
330
1F
100
AcDbEntity
  8
0
  6
Continuous
 62
     7
370
    25
100
AcDbLine
 10
7.6319289428
 20
12.905864317
 30
0.0
 11
7.6319289428
 21
12.6032765859
 31
0.0
  0
LINE
  5
264
330
1F
100
AcDbEntity
  8
0
  6
Continuous
 62
     7
370
    25
100
AcDbLine
 10
7.4169008235
 20
13.7330846809
 30
0.0
 11
7.0069289229
 21
13.7545705127
 31
0.0
  0
SPLINE
  5
265
330
1F
100
AcDbEntity
  8
0
  6
Continuous
 62
     7
370
    25
100
AcDbSpline
210
0.0
220
0.0
230
1.0
 70
    24
 71
     3
 72
     8
 73
     4
 74
     0
 42
0.000000001
 43
0.00000001
 40
0.0
 40
0.0
 40
0.0
 40
0.0
 40
1.0
 40
1.0
 40
1.0
 40
1.0
 10
7.416900838729988
 20
13.69974269511435
 30
0.0
 10
7.416900838729988
 20
13.72184363643342
 30
0.0
 10
7.416900838729988
 20
13.73308476074883
 30
0.0
 10
7.416900838729988
 20
13.73308476074883
 30
0.0
  0
LINE
  5
266
330
1F
100
AcDbEntity
  8
0
  6
Continuous
 62
     7
370
    25
100
AcDbLine
 10
7.0069289229
 20
13.7204964263
 30
0.0
 11
7.0069289229
 21
13.7545705127
 31
0.0
  0
SPLINE
  5
267
330
1F
100
AcDbEntity
  8
0
  6
Continuous
 62
     7
370
    25
100
AcDbSpline
210
0.0
220
0.0
230
1.0
 70
    24
 71
     3
 72
     8
 73
     4
 74
     0
 42
0.000000001
 43
0.00000001
 40
0.0
 40
0.0
 40
0.0
 40
0.0
 40
1.0
 40
1.0
 40
1.0
 40
1.0
 10
7.416900838729988
 20
4.309398261738804
 30
0.0
 10
7.416900838729929
 20
4.287294439234607
 30
0.0
 10
7.416900838729904
 20
4.276056196104324
 30
0.0
 10
7.416900838729988
 20
4.276056196104324
 30
0.0
  0
LINE
  5
268
330
1F
100
AcDbEntity
  8
0
  6
Continuous
 62
     7
370
    25
100
AcDbLine
 10
7.4169008235
 20
4.276056276
 30
0.0
 11
7.0069289229
 21
4.2545704442
 31
0.0
  0
LINE
  5
269
330
1F
100
AcDbEntity
  8
0
  6
Continuous
 62
     7
370
    25
100
AcDbLine
 10
7.0069289229
 20
4.2886445305
 30
0.0
 11
7.0069289229
 21
4.2545704442
 31
0.0
  0
SPLINE
  5
26A
330
1F
100
AcDbEntity
  8
0
  6
Continuous
 62
     7
370
    25
100
AcDbSpline
210
0.0
220
0.0
230
1.0
 70
     8
 71
     3
 72
    22
 73
    18
 74
     0
 42
0.000000001
 43
0.00000001
 40
0.0
 40
0.0
 40
0.0
 40
0.0
 40
0.125
 40
0.125
 40
0.25
 40
0.25
 40
0.375
 40
0.375
 40
0.5
 40
0.5
 40
0.625
 40
0.625
 40
0.75
 40
0.75
 40
0.875
 40
0.875
 40
1.0
 40
1.0
 40
1.0
 40
1.0
 10
7.506928922886908
 20
13.63821495494714
 30
0.0
 10
7.506928922886908
 20
13.6407191669982
 30
0.0
 10
7.506460305554145
 20
13.64383041707224
 30
0.0
 10
7.504103829823685
 20
13.65146208173834
 30
0.0
 10
7.502205227113243
 20
13.65599199771002
 30
0.0
 10
7.496647937967754
 20
13.66630009109718
 30
0.0
 10
7.492978290011352
 20
13.67208032038563
 30
0.0
 10
7.484049884970997
 20
13.68413797999021
 30
0.0
 10
7.478795146587871
 20
13.69039967771965
 30
0.0
 10
7.467541636068256
 20
13.70225840344486
 30
0.0
 10
7.461563531536027
 20
13.70783365233003
 30
0.0
 10
7.44998967315038
 20
13.71738087044704
 30
0.0
 10
7.444409420000158
 20
13.72134800310557
 30
0.0
 10
7.434406299538278
 20
13.72743716010388
 30
0.0
 10
7.429981956847375
 20
13.72957023832937
 30
0.0
 10
7.422484079523182
 20
13.73232289505977
 30
0.0
 10
7.419401618845458
 20
13.7329537004165
 30
0.0
 10
7.416900838729988
 20
13.73308476074883
 30
0.0
  0
SPLINE
  5
26B
330
1F
100
AcDbEntity
  8
0
  6
Continuous
 62
     7
370
    25
100
AcDbSpline
210
0.0
220
0.0
230
1.0
 70
    24
 71
     3
 72
    10
 73
     6
 74
     0
 42
0.000000001
 43
0.00000001
 40
0.0
 40
0.0
 40
0.0
 40
0.0
 40
0.5
 40
0.5
 40
1.0
 40
1.0
 40
1.0
 40
1.0
 10
7.506928922886908
 20
13.63821495494714
 30
0.0
 10
7.506928922886908
 20
13.63821495494713
 30
0.0
 10
7.506928922886908
 20
13.63568997753619
 30
0.0
 10
7.506928922886908
 20
13.62560107143293
 30
0.0
 10
7.506928922886908
 20
13.6180877297899
 30
0.0
 10
7.506928922886908
 20
13.60810549955547
 30
0.0
  0
SPLINE
  5
26C
330
1F
100
AcDbEntity
  8
0
  6
Continuous
 62
     7
370
    25
100
AcDbSpline
210
0.0
220
0.0
230
1.0
 70
     8
 71
     3
 72
    22
 73
    18
 74
     0
 42
0.000000001
 43
0.00000001
 40
0.0
 40
0.0
 40
0.0
 40
0.0
 40
0.125
 40
0.125
 40
0.25
 40
0.25
 40
0.375
 40
0.375
 40
0.5
 40
0.5
 40
0.625
 40
0.625
 40
0.75
 40
0.75
 40
0.875
 40
0.875
 40
1.0
 40
1.0
 40
1.0
 40
1.0
 10
7.506928922886908
 20
4.370926001906009
 30
0.0
 10
7.506928922886908
 20
4.368421789854957
 30
0.0
 10
7.506460305554145
 20
4.365310539780913
 30
0.0
 10
7.504103829823685
 20
4.357678875114815
 30
0.0
 10
7.502205227113243
 20
4.35314895914313
 30
0.0
 10
7.496647937967754
 20
4.342840865755969
 30
0.0
 10
7.492978290011352
 20
4.337060636467523
 30
0.0
 10
7.484049884970997
 20
4.325002976862937
 30
0.0
 10
7.478795146587871
 20
4.318741279133505
 30
0.0
 10
7.467541636068256
 20
4.306882553408293
 30
0.0
 10
7.461563531536027
 20
4.301307304523122
 30
0.0
 10
7.44998967315038
 20
4.291760086406113
 30
0.0
 10
7.444409420000158
 20
4.287792953747582
 30
0.0
 10
7.434406299538278
 20
4.281703796749267
 30
0.0
 10
7.429981956847375
 20
4.279570718523777
 30
0.0
 10
7.422484079523182
 20
4.276818061793381
 30
0.0
 10
7.419401618845458
 20
4.276187256436649
 30
0.0
 10
7.416900838729988
 20
4.276056196104324
 30
0.0
  0
SPLINE
  5
26D
330
1F
100
AcDbEntity
  8
0
  6
Continuous
 62
     7
370
    25
100
AcDbSpline
210
0.0
220
0.0
230
1.0
 70
    24
 71
     3
 72
     8
 73
     4
 74
     0
 42
0.000000001
 43
0.00000001
 40
0.0
 40
0.0
 40
0.0
 40
0.0
 40
1.0
 40
1.0
 40
1.0
 40
1.0
 10
7.506928922886908
 20
4.370926001906009
 30
0.0
 10
7.506928922886908
 20
4.370926001904938
 30
0.0
 10
7.506928922886908
 20
4.381074664676733
 30
0.0
 10
7.506928922886908
 20
4.401035457297678
 30
0.0
  0
LINE
  5
26E
330
1F
100
AcDbEntity
  8
0
  6
Continuous
 62
     8
370
    25
100
AcDbLine
 10
7.5211438693
 20
12.9413255607
 30
0.0
 11
7.5211438693
 21
12.5678153422
 31
0.0
  0
LINE
  5
26F
330
1F
100
AcDbEntity
  8
0
  6
Continuous
 62
     8
370
    25
100
AcDbLine
 10
7.5211438693
 20
5.0678153962
 30
0.0
 11
7.5211438693
 21
5.4413256147
 31
0.0
  0
LINE
  5
270
330
1F
100
AcDbEntity
  8
0
  6
Continuous
 62
     8
370
    25
100
AcDbLine
 10
7.6023144249
 20
5.4370714505
 30
0.0
 11
7.6023144249
 21
5.0720695603
 31
0.0
  0
LINE
  5
271
330
1F
100
AcDbEntity
  8
0
  6
Continuous
 62
     8
370
    25
100
AcDbLine
 10
7.6023144249
 20
12.5720695064
 30
0.0
 11
7.6023144249
 21
12.9370713965
 31
0.0
  0
DIMENSION
  5
272
330
1F
100
AcDbEntity
  8
0
  6
Continuous
 62
     7
370
    18
100
AcDbDimension
  2
_D_6
 10
7.0069289229
 20
15.4745365122
 30
0.0
 11
6.2008229649
 21
15.4745365122
 31
0.0
 70
   160
  1
<>
 71
     2
 42
-1.0
  3
SLDDIMSTYLE0
100
AcDbAlignedDimension
 13
7.5069289229
 23
13.6382149549
 33
0.0
 14
7.0069289229
 24
13.7545704784
 34
0.0
 50
0.0
100
AcDbRotatedDimension
  0
SPLINE
  5
286
330
1F
100
AcDbEntity
  8
0
  6
Continuous
 62
     7
370
    25
100
AcDbSpline
210
0.0
220
0.0
230
1.0
 70
     8
 71
     3
 72
     9
 73
     5
 74
     0
 42
0.000000001
 43
0.00000001
 40
0.0
 40
0.0
 40
0.0
 40
0.0
 40
0.4965286065679267
 40
1.0
 40
1.0
 40
1.0
 40
1.0
 10
27.17225066236466
 20
16.14007214427821
 30
0.0
 10
27.16547914184936
 20
16.15244890982501
 30
0.0
 10
27.15184141700185
 20
16.17737550092787
 30
0.0
 10
27.11939267792998
 20
16.19738465735045
 30
0.0
 10
27.10305566605435
 20
16.20745869521593
 30
0.0
  0
LINE
  5
287
330
1F
100
AcDbEntity
  8
0
  6
Continuous
 62
     7
370
    25
100
AcDbLine
 10
27.307023387
 20
15.8037310201
 30
0.0
 11
27.1724143201
 21
16.1396733789
 31
0.0
  0
SPLINE
  5
288
330
1F
100
AcDbEntity
  8
0
  6
Continuous
 62
     7
370
    25
100
AcDbSpline
210
0.0
220
0.0
230
1.0
 70
     8
 71
     3
 72
    18
 73
    14
 74
     0
 42
0.000000001
 43
0.00000001
 40
0.0
 40
0.0
 40
0.0
 40
0.0
 40
0.0757311789434876
 40
0.1575797199676435
 40
0.2433303879004168
 40
0.3366124201286678
 40
0.4363508557173388
 40
0.5376215786114397
 40
0.6378227853845481
 40
0.7370663765228713
 40
0.8358774877763272
 40
0.9348118812350052
 40
1.0
 40
1.0
 40
1.0
 40
1.0
 10
26.12587128066916
 20
16.12069557293762
 30
0.0
 10
26.12315831716445
 20
16.12626065320823
 30
0.0
 10
26.11751324421933
 20
16.13784034604907
 30
0.0
 10
26.10272771428629
 20
16.15147288567861
 30
0.0
 10
26.08402711191847
 20
16.16227706380977
 30
0.0
 10
26.0608986423062
 20
16.16972478877932
 30
0.0
 10
26.03358657623469
 20
16.17357749201532
 30
0.0
 10
26.0030298351615
 20
16.17350785342726
 30
0.0
 10
25.97077174214589
 20
16.16959189137258
 30
0.0
 10
25.93806658803432
 20
16.16213586724162
 30
0.0
 10
25.90599734537889
 20
16.15142609622367
 30
0.0
 10
25.8788313208039
 20
16.13950680792513
 30
0.0
 10
25.86343632041729
 20
16.13075774232058
 30
0.0
 10
25.85732155224812
 20
16.12728268506009
 30
0.0
  0
SPLINE
  5
289
330
1F
100
AcDbEntity
  8
0
  6
Continuous
 62
     7
370
    25
100
AcDbSpline
210
0.0
220
0.0
230
1.0
 70
     8
 71
     3
 72
    14
 73
    10
 74
     0
 42
0.000000001
 43
0.00000001
 40
0.0
 40
0.0
 40
0.0
 40
0.0
 40
0.0911982179872557
 40
0.2659434918174678
 40
0.4442310691236285
 40
0.627047097834778
 40
0.7770455088602104
 40
0.9169814447961886
 40
1.0
 40
1.0
 40
1.0
 40
1.0
 10
25.85732155224812
 20
16.12728268506009
 30
0.0
 10
25.8525818430022
 20
16.12433715420291
 30
0.0
 10
25.83876035772673
 20
16.11574767977343
 30
0.0
 10
25.8185495208366
 20
16.09983181374766
 30
0.0
 10
25.79883099792097
 20
16.07907897572246
 30
0.0
 10
25.78525464238383
 20
16.05760314035533
 30
0.0
 10
25.77843851318908
 20
16.03629010005514
 30
0.0
 10
25.77674207959165
 20
16.01841537989524
 30
0.0
 10
25.77993126248012
 20
16.00837582190541
 30
0.0
 10
25.78111877547584
 20
16.00463752717566
 30
0.0
  0
LINE
  5
28A
330
1F
100
AcDbEntity
  8
0
  6
Continuous
 62
     7
370
    25
100
AcDbLine
 10
26.1528658947
 20
16.0539972448
 30
0.0
 11
26.1262344222
 21
16.1204613703
 31
0.0
  0
LINE
  5
28B
330
1F
100
AcDbEntity
  8
0
  6
Continuous
 62
     7
370
    25
100
AcDbLine
 10
25.7800914766
 20
16.0051080835
 30
0.0
 11
25.7986547496
 21
15.9359551552
 31
0.0
  0
SPLINE
  5
28C
330
1F
100
AcDbEntity
  8
0
  6
Continuous
 62
     7
370
    25
100
AcDbSpline
210
0.0
220
0.0
230
1.0
 70
     8
 71
     3
 72
    23
 73
    19
 74
     0
 42
0.000000001
 43
0.00000001
 40
0.0
 40
0.0
 40
0.0
 40
0.0
 40
0.061030548908202
 40
0.1220993369507194
 40
0.1869932571221271
 40
0.2511291299978755
 40
0.3168617213847257
 40
0.38462970271784
 40
0.4538733791758481
 40
0.5239275093781235
 40
0.59418267079195
 40
0.6639021800061065
 40
0.7324481711649137
 40
0.799183534080898
 40
0.8637458797229804
 40
0.9271169770103852
 40
0.9924108275729018
 40
1.0
 40
1.0
 40
1.0
 40
1.0
 10
26.06106290845847
 20
16.0943069934779
 30
0.0
 10
26.0611561561687
 20
16.09419480458251
 30
0.0
 10
26.06134271001419
 20
16.09397035649894
 30
0.0
 10
26.06007192825985
 20
16.0881871590107
 30
0.0
 10
26.05414456625158
 20
16.07833470289241
 30
0.0
 10
26.04282278453619
 20
16.06617184273749
 30
0.0
 10
26.02666111865888
 20
16.05340908782214
 30
0.0
 10
26.0061731190996
 20
16.04099277475661
 30
0.0
 10
25.98233249423051
 20
16.02987318886856
 30
0.0
 10
25.95649373530497
 20
16.02087614787466
 30
0.0
 10
25.93023538287724
 20
16.014617189557
 30
0.0
 10
25.90522977649528
 20
16.01144213468608
 30
0.0
 10
25.88314082667793
 20
16.01136260788287
 30
0.0
 10
25.86551455066923
 20
16.01398255211194
 30
0.0
 10
25.85358965026936
 20
16.01827336889992
 30
0.0
 10
25.84813797643741
 20
16.02252430732306
 30
0.0
 10
25.84774948138537
 20
16.02316592219208
 30
0.0
 10
25.84772642318338
 20
16.02355175498512
 30
0.0
 10
25.84772402217608
 20
16.02359193102989
 30
0.0
  0
LINE
  5
28D
330
1F
100
AcDbEntity
  8
0
  6
Continuous
 62
     7
370
    25
100
AcDbLine
 10
27.1030556661
 20
16.2074586952
 30
0.0
 11
24.7460185649
 21
17.4095072931
 31
0.0
  0
LINE
  5
28E
330
1F
100
AcDbEntity
  8
0
  6
Continuous
 62
     7
370
    25
100
AcDbLine
 10
23.1817161349
 20
16.2635561968
 30
0.0
 11
23.2635978281
 21
16.0402026796
 31
0.0
  0
SPLINE
  5
28F
330
1F
100
AcDbEntity
  8
0
  6
Continuous
 62
     7
370
    25
100
AcDbSpline
210
0.0
220
0.0
230
1.0
 70
     8
 71
     3
 72
    12
 73
     8
 74
     0
 42
0.000000001
 43
0.00000001
 40
0.0
 40
0.0
 40
0.0
 40
0.0
 40
0.0496792305031222
 40
0.3485451065413594
 40
0.6464027522401822
 40
0.9430581493258856
 40
1.0
 40
1.0
 40
1.0
 40
1.0
 10
23.12342952862876
 20
16.11342395191776
 30
0.0
 10
23.12572136088351
 20
16.11361134285511
 30
0.0
 10
23.14180065416796
 20
16.11492606117023
 30
0.0
 10
23.16950514022901
 20
16.11416722654722
 30
0.0
 10
23.20487388747217
 20
16.11070483403219
 30
0.0
 10
23.22880608779184
 20
16.10629543614923
 30
0.0
 10
23.23931887600763
 20
16.10243383050716
 30
0.0
 10
23.24101181230887
 20
16.10181197337103
 30
0.0
  0
SPLINE
  5
290
330
1F
100
AcDbEntity
  8
0
  6
Continuous
 62
     7
370
    25
100
AcDbSpline
210
0.0
220
0.0
230
1.0
 70
     8
 71
     3
 72
    10
 73
     6
 74
     0
 42
0.000000001
 43
0.00000001
 40
0.0
 40
0.0
 40
0.0
 40
0.0
 40
0.2224832185346546
 40
0.6466042677028884
 40
1.0
 40
1.0
 40
1.0
 40
1.0
 10
23.02299887784392
 20
16.09953934109465
 30
0.0
 10
23.03065162484116
 20
16.10116224471596
 30
0.0
 10
23.05289284780017
 20
16.10587889891809
 30
0.0
 10
23.08696775232559
 20
16.11115478966274
 30
0.0
 10
23.11203568871568
 20
16.11271486766318
 30
0.0
 10
23.12342952862876
 20
16.11342395191776
 30
0.0
  0
LINE
  5
291
330
1F
100
AcDbEntity
  8
0
  6
Continuous
 62
     7
370
    25
100
AcDbLine
 10
22.6533644874
 20
16.1026558863
 30
0.0
 11
22.606448624
 21
16.2587516243
 31
0.0
  0
SPLINE
  5
292
330
1F
100
AcDbEntity
  8
0
  6
Continuous
 62
     7
370
    25
100
AcDbSpline
210
0.0
220
0.0
230
1.0
 70
     8
 71
     3
 72
    11
 73
     7
 74
     0
 42
0.000000001
 43
0.00000001
 40
0.0
 40
0.0
 40
0.0
 40
0.0
 40
0.1994915055600677
 40
0.5418651093604424
 40
0.8987934051258092
 40
0.9999999999999999
 40
0.9999999999999999
 40
0.9999999999999999
 40
0.9999999999999999
 10
22.97208266209856
 20
16.10241360042819
 30
0.0
 10
22.97488516114544
 20
16.10121129513778
 30
0.0
 10
22.98249739730684
 20
16.09794555564756
 30
0.0
 10
22.99750643545951
 20
16.09620649683191
 30
0.0
 10
23.01239545274825
 20
16.09732671843017
 30
0.0
 10
23.02108030649578
 20
16.09913899173489
 30
0.0
 10
23.02299887784392
 20
16.09953934109465
 30
0.0
  0
LINE
  5
293
330
1F
100
AcDbEntity
  8
0
  6
Continuous
 62
     7
370
    25
100
AcDbLine
 10
22.8278457741
 20
16.1759719457
 30
0.0
 11
22.9720826621
 21
16.1024136004
 31
0.0
  0
SPLINE
  5
294
330
1F
100
AcDbEntity
  8
0
  6
Continuous
 62
     7
370
    25
100
AcDbSpline
210
0.0
220
0.0
230
1.0
 70
     8
 71
     3
 72
    14
 73
    10
 74
     0
 42
0.000000001
 43
0.00000001
 40
0.0
 40
0.0
 40
0.0
 40
0.0
 40
0.1228273639251366
 40
0.2854529074515475
 40
0.4475983985122932
 40
0.608861532429283
 40
0.7687877379177177
 40
0.9270077742803964
 40
1.0
 40
1.0
 40
1.0
 40
1.0
 10
22.66119377141654
 20
16.16917401500404
 30
0.0
 10
22.66913363062515
 20
16.17180537928412
 30
0.0
 10
22.68758600006
 20
16.17792071515316
 30
0.0
 10
22.7169341241297
 20
16.18407140265269
 30
0.0
 10
22.747629648698
 20
16.18785868945497
 30
0.0
 10
22.77599872054241
 20
16.18823298001693
 30
0.0
 10
22.80076223072805
 20
16.18539847440586
 30
0.0
 10
22.81763797699541
 20
16.1807652573264
 30
0.0
 10
22.8253964682823
 20
16.17712207497702
 30
0.0
 10
22.82784577413726
 20
16.17597194571489
 30
0.0
  0
SPLINE
  5
295
330
1F
100
AcDbEntity
  8
0
  6
Continuous
 62
     7
370
    25
100
AcDbSpline
210
0.0
220
0.0
230
1.0
 70
     8
 71
     3
 72
     9
 73
     5
 74
     0
 42
0.000000001
 43
0.00000001
 40
0.0
 40
0.0
 40
0.0
 40
0.0
 40
0.6984230277272279
 40
1.0
 40
1.0
 40
1.0
 40
1.0
 10
22.63623903124634
 20
16.15963502955112
 30
0.0
 10
22.64189479858119
 20
16.1621784699098
 30
0.0
 10
22.64999270931769
 20
16.16582016020024
 30
0.0
 10
22.65859847166403
 20
16.16839692275462
 30
0.0
 10
22.66119377141654
 20
16.16917401500404
 30
0.0
  0
LINE
  5
296
330
1F
100
AcDbEntity
  8
0
  6
Continuous
 62
     7
370
    25
100
AcDbLine
 10
24.7460185649
 20
17.4095072931
 30
0.0
 11
22.3889814637
 21
18.6115558911
 31
0.0
  0
SPLINE
  5
297
330
1F
100
AcDbEntity
  8
0
  6
Continuous
 62
     7
370
    25
100
AcDbSpline
210
0.0
220
0.0
230
1.0
 70
     8
 71
     3
 72
    14
 73
    10
 74
     0
 42
0.000000001
 43
0.00000001
 40
0.0
 40
0.0
 40
0.0
 40
0.0
 40
0.1535607066102901
 40
0.2995604962278949
 40
0.4365481154147905
 40
0.5652993775249204
 40
0.7258314813033556
 40
0.8704680668690212
 40
1.0
 40
1.0
 40
1.0
 40
1.0
 10
20.50835729184094
 20
17.30550318255829
 30
0.0
 10
20.49234159551956
 20
17.29095509207546
 30
0.0
 10
20.46109877277296
 20
17.26257522003394
 30
0.0
 10
20.42430036663669
 20
17.21973039922322
 30
0.0
 10
20.39657997379261
 20
17.17894302886446
 30
0.0
 10
20.37591360427842
 20
17.13663017657604
 30
0.0
 10
20.36430943394936
 20
17.09422372464678
 30
0.0
 10
20.36195844571865
 20
17.05273906841801
 30
0.0
 10
20.36717132609729
 20
17.02775930404831
 30
0.0
 10
20.3696341707588
 20
17.01595752176001
 30
0.0
  0
LINE
  5
298
330
1F
100
AcDbEntity
  8
0
  6
Continuous
 62
     7
370
    25
100
AcDbLine
 10
20.3696521187
 20
17.0158917412
 30
0.0
 11
20.4338249045
 21
16.7768388376
 31
0.0
  0
SPLINE
  5
299
330
1F
100
AcDbEntity
  8
0
  6
Continuous
 62
     7
370
    25
100
AcDbSpline
210
0.0
220
0.0
230
1.0
 70
     8
 71
     3
 72
    25
 73
    21
 74
     0
 42
0.000000001
 43
0.00000001
 40
0.0
 40
0.0
 40
0.0
 40
0.0
 40
0.0065717601365866
 40
0.0589349116892747
 40
0.1109823311272142
 40
0.1661269126305919
 40
0.2261807545477675
 40
0.289815955048874
 40
0.3538445225004156
 40
0.4171581387872307
 40
0.4799249974686384
 40
0.5424876715246182
 40
0.6051767644596819
 40
0.6682761038849597
 40
0.7322285580354582
 40
0.7975552369984595
 40
0.8577376109070804
 40
0.9131913585687171
 40
0.9647108581965927
 40
1.0
 40
1.0
 40
1.0
 40
1.0
 10
22.10816630355347
 20
18.16940349999651
 30
0.0
 10
22.10796437211835
 20
18.17022262822183
 30
0.0
 10
22.10615347046505
 20
18.17756849122017
 30
0.0
 10
22.09696414090832
 20
18.18923676345095
 30
0.0
 10
22.08182638263308
 20
18.20289488634411
 30
0.0
 10
22.06204724683819
 20
18.21295399384003
 30
0.0
 10
22.0381197906278
 20
18.21974594238202
 30
0.0
 10
22.0100329076638
 20
18.22282435779463
 30
0.0
 10
21.97901959513714
 20
18.22197314915364
 30
0.0
 10
21.94658450779014
 20
18.21732672854379
 30
0.0
 10
21.91392869214182
 20
18.20919656519752
 30
0.0
 10
21.88205272363617
 20
18.19791059023727
 30
0.0
 10
21.85192999940656
 20
18.18381611603041
 30
0.0
 10
21.82447930012873
 20
18.16725792168332
 30
0.0
 10
21.80052947599925
 20
18.14851200572722
 30
0.0
 10
21.78158807981209
 20
18.12842564764475
 30
0.0
 10
21.76831153109071
 20
18.10775014126514
 30
0.0
 10
21.76113529307942
 20
18.08728942590289
 30
0.0
 10
21.75907382975733
 20
18.06878547282525
 30
0.0
 10
21.76197667065727
 20
18.05797089471973
 30
0.0
 10
21.76315672327027
 20
18.05357459068804
 30
0.0
  0
LINE
  5
29A
330
1F
100
AcDbEntity
  8
0
  6
Continuous
 62
     7
370
    25
100
AcDbLine
 10
22.1351889713
 20
18.1029437422
 30
0.0
 11
22.1085574987
 21
18.1694078677
 31
0.0
  0
LINE
  5
29B
330
1F
100
AcDbEntity
  8
0
  6
Continuous
 62
     7
370
    25
100
AcDbLine
 10
21.7624145532
 20
18.0540545809
 30
0.0
 11
21.7809778262
 21
17.9849016527
 31
0.0
  0
SPLINE
  5
29C
330
1F
100
AcDbEntity
  8
0
  6
Continuous
 62
     7
370
    25
100
AcDbSpline
210
0.0
220
0.0
230
1.0
 70
     8
 71
     3
 72
    13
 73
     9
 74
     0
 42
0.000000001
 43
0.00000001
 40
0.0
 40
0.0
 40
0.0
 40
0.0
 40
0.1523914513210387
 40
0.3247246448129579
 40
0.5086808202442501
 40
0.6884005201766386
 40
0.8718495249036862
 40
1.0
 40
1.0
 40
1.0
 40
1.0
 10
22.04338971893362
 20
18.14332354767336
 30
0.0
 10
22.04346000523106
 20
18.14325472764904
 30
0.0
 10
22.04360977539713
 20
18.14310808190376
 30
0.0
 10
22.0428163130366
 20
18.13822605778264
 30
0.0
 10
22.03754527752097
 20
18.12870333104571
 30
0.0
 10
22.02677205002034
 20
18.11667259224757
 30
0.0
 10
22.01302507098554
 20
18.10528711189457
 30
0.0
 10
22.00214698224574
 20
18.09844943127533
 30
0.0
 10
21.99767318710034
 20
18.0956373212538
 30
0.0
  0
SPLINE
  5
29D
330
1F
100
AcDbEntity
  8
0
  6
Continuous
 62
     7
370
    25
100
AcDbSpline
210
0.0
220
0.0
230
1.0
 70
     8
 71
     3
 72
    17
 73
    13
 74
     0
 42
0.000000001
 43
0.00000001
 40
0.0
 40
0.0
 40
0.0
 40
0.0
 40
0.0562741723009134
 40
0.1643836712017812
 40
0.273413960735619
 40
0.3826775628768106
 40
0.4910023405940502
 40
0.5974144716298918
 40
0.7009286791280072
 40
0.8010773618788597
 40
0.899714974119778
 40
0.9999999999999999
 40
0.9999999999999999
 40
0.9999999999999999
 40
0.9999999999999999
 10
21.99767318710034
 20
18.0956373212538
 30
0.0
 10
21.99392189013476
 20
18.093488284138
 30
0.0
 10
21.98296389747567
 20
18.08721068650837
 30
0.0
 10
21.96242646717144
 20
18.07794709181886
 30
0.0
 10
21.93650671967513
 20
18.06915232360355
 30
0.0
 10
21.91027880499513
 20
18.06315797454608
 30
0.0
 10
21.88546615006545
 20
18.06025970499784
 30
0.0
 10
21.86371081604941
 20
18.06044164099987
 30
0.0
 10
21.8465408886407
 20
18.06325869579681
 30
0.0
 10
21.83517450128182
 20
18.06763643169102
 30
0.0
 10
21.83026993023086
 20
18.07168639228744
 30
0.0
 10
21.83012970343531
 20
18.07218245746617
 30
0.0
 10
21.83005900938081
 20
18.07243254418208
 30
0.0
  0
SPLINE
  5
29E
330
1F
100
AcDbEntity
  8
0
  6
Continuous
 62
     7
370
    25
100
AcDbSpline
210
0.0
220
0.0
230
1.0
 70
     8
 71
     3
 72
    12
 73
     8
 74
     0
 42
0.000000001
 43
0.00000001
 40
0.0
 40
0.0
 40
0.0
 40
0.0
 40
0.2995213986441058
 40
0.5407890989881116
 40
0.7240045770553352
 40
0.8573949226418031
 40
1.0
 40
1.0
 40
1.0
 40
1.0
 10
21.15859520021575
 20
17.98053095955333
 30
0.0
 10
21.14808174254025
 20
17.96050180456821
 30
0.0
 10
21.12909958190225
 20
17.92433895033832
 30
0.0
 10
21.10215087558844
 20
17.87749659351928
 30
0.0
 10
21.08060938714758
 20
17.84241294482626
 30
0.0
 10
21.06236063991239
 20
17.8142899044799
 30
0.0
 10
21.05092465939896
 20
17.79810166625324
 30
0.0
 10
21.04501576109773
 20
17.78973730665635
 30
0.0
  0
SPLINE
  5
29F
330
1F
100
AcDbEntity
  8
0
  6
Continuous
 62
     7
370
    25
100
AcDbSpline
210
0.0
220
0.0
230
1.0
 70
     8
 71
     3
 72
     9
 73
     5
 74
     0
 42
0.000000001
 43
0.00000001
 40
0.0
 40
0.0
 40
0.0
 40
0.0
 40
0.241911470826126
 40
1.0
 40
1.0
 40
1.0
 40
1.0
 10
20.98910111664975
 20
17.7199951197197
 30
0.0
 10
20.98417658765342
 20
17.71423128102758
 30
0.0
 10
20.96381984731565
 20
17.69040504958662
 30
0.0
 10
20.94169422861932
 20
17.67104436509223
 30
0.0
 10
20.92492105088477
 20
17.65636725226007
 30
0.0
  0
LINE
  5
2A0
330
1F
100
AcDbEntity
  8
0
  6
Continuous
 62
     7
370
    25
100
AcDbLine
 10
21.3989054669
 20
18.2045289187
 30
0.0
 11
21.233050759
 21
18.0652115061
 31
0.0
  0
SPLINE
  5
2A1
330
1F
100
AcDbEntity
  8
0
  6
Continuous
 62
     7
370
    25
100
AcDbSpline
210
0.0
220
0.0
230
1.0
 70
     8
 71
     3
 72
    13
 73
     9
 74
     0
 42
0.000000001
 43
0.00000001
 40
0.0
 40
0.0
 40
0.0
 40
0.0
 40
0.240218163625794
 40
0.4337557851764776
 40
0.6618410118262087
 40
0.758645407156857
 40
0.8670959031028397
 40
1.0
 40
1.0
 40
1.0
 40
1.0
 10
21.22459134006998
 20
18.05763460038449
 30
0.0
 10
21.2184543096604
 20
18.05197033805845
 30
0.0
 10
21.20737283104204
 20
18.04174252465919
 30
0.0
 10
21.19199634527781
 20
18.02447211182808
 30
0.0
 10
21.18036253511185
 20
18.01056710855792
 30
0.0
 10
21.17111857615279
 20
17.9984302773799
 30
0.0
 10
21.16408549249304
 20
17.98878692281827
 30
0.0
 10
21.1595788864813
 20
17.98159425767229
 30
0.0
 10
21.15709728298245
 20
17.97763355133458
 30
0.0
  0
LINE
  5
2A2
330
1F
100
AcDbEntity
  8
0
  6
Continuous
 62
     7
370
    25
100
AcDbLine
 10
21.229410688
 20
18.0622475838
 30
0.0
 11
21.2245913401
 21
18.0576346004
 31
0.0
  0
SPLINE
  5
2A3
330
1F
100
AcDbEntity
  8
0
  6
Continuous
 62
     7
370
    25
100
AcDbSpline
210
0.0
220
0.0
230
1.0
 70
     8
 71
     3
 72
     9
 73
     5
 74
     0
 42
0.000000001
 43
0.00000001
 40
0.0
 40
0.0
 40
0.0
 40
0.0
 40
0.4989972097107234
 40
1.0
 40
1.0
 40
1.0
 40
1.0
 10
21.57379235966744
 20
18.3275848956832
 30
0.0
 10
21.54231692926987
 20
18.30802980309772
 30
0.0
 10
21.47923956173145
 20
18.26884102166783
 30
0.0
 10
21.42571927825376
 20
18.22599493012818
 30
0.0
 10
21.39890546689437
 20
18.20452891871383
 30
0.0
  0
LINE
  5
2A4
330
1F
100
AcDbEntity
  8
0
  6
Continuous
 62
     7
370
    25
100
AcDbLine
 10
21.9869806317
 20
18.5742200182
 30
0.0
 11
21.5737923597
 21
18.3275848957
 31
0.0
  0
SPLINE
  5
2A5
330
1F
100
AcDbEntity
  8
0
  6
Continuous
 62
     7
370
    25
100
AcDbSpline
210
0.0
220
0.0
230
1.0
 70
     8
 71
     3
 72
    19
 73
    15
 74
     0
 42
0.000000001
 43
0.00000001
 40
0.0
 40
0.0
 40
0.0
 40
0.0
 40
0.0939775826872259
 40
0.1716696308535121
 40
0.257511773122013
 40
0.3112155296187126
 40
0.3611630412885585
 40
0.4158674655773689
 40
0.5027884933031656
 40
0.6275239084879408
 40
0.7052338715266036
 40
0.7931683429915455
 40
0.8913910848226088
 40
1.0
 40
1.0
 40
1.0
 40
1.0
 10
22.38898146368512
 20
18.61155589105967
 30
0.0
 10
22.37817965606769
 20
18.61667442198626
 30
0.0
 10
22.35844790437531
 20
18.62602448494335
 30
0.0
 10
22.32449689929221
 20
18.6361826912921
 30
0.0
 10
22.29443018491174
 20
18.64215740231979
 30
0.0
 10
22.26720846289824
 20
18.64504409726171
 30
0.0
 10
22.24493810076832
 20
18.64593468616385
 30
0.0
 10
22.21863248712541
 20
18.64554283526195
 30
0.0
 10
22.18247458307544
 20
18.64258177685099
 30
0.0
 10
22.14185903879846
 20
18.63534190838894
 30
0.0
 10
22.10109271228865
 20
18.62450372312556
 30
0.0
 10
22.06459844341131
 20
18.6120996487216
 30
0.0
 10
22.02510022642743
 20
18.59551043321772
 30
0.0
 10
22.00010553761019
 20
18.5815504920662
 30
0.0
 10
21.98698063169926
 20
18.5742200181613
 30
0.0
  0
SPLINE
  5
2A6
330
1F
100
AcDbEntity
  8
0
  6
Continuous
 62
     7
370
    25
100
AcDbSpline
210
0.0
220
0.0
230
1.0
 70
     8
 71
     3
 72
    15
 73
    11
 74
     0
 42
0.000000001
 43
0.00000001
 40
0.0
 40
0.0
 40
0.0
 40
0.0
 40
0.125
 40
0.25
 40
0.375
 40
0.5
 40
0.625
 40
0.75
 40
0.875
 40
1.0
 40
1.0
 40
1.0
 40
1.0
 10
25.22137937462836
 20
15.1620133663423
 30
0.0
 10
25.19047595062127
 20
15.14939709772653
 30
0.0
 10
25.12952042143597
 20
15.12819853612089
 30
0.0
 10
25.04169832948047
 20
15.10440251586263
 30
0.0
 10
24.95683079787306
 20
15.08688797997941
 30
0.0
 10
24.87442209936957
 20
15.07496675755111
 30
0.0
 10
24.7942138083687
 20
15.0687908739811
 30
0.0
 10
24.7165325747923
 20
15.06924068343509
 30
0.0
 10
24.64283921883022
 20
15.07825529336515
 30
0.0
 10
24.59874391167202
 20
15.09223133493373
 30
0.0
 10
24.57927271592711
 20
15.10216131165461
 30
0.0
  0
LINE
  5
2A7
330
1F
100
AcDbEntity
  8
0
  6
Continuous
 62
     7
370
    25
100
AcDbLine
 10
25.7516688492
 20
15.3785031927
 30
0.0
 11
25.2213793942
 21
15.1620134023
 31
0.0
  0
SPLINE
  5
2A8
330
1F
100
AcDbEntity
  8
0
  6
Continuous
 62
     7
370
    25
100
AcDbSpline
210
0.0
220
0.0
230
1.0
 70
     8
 71
     3
 72
    22
 73
    18
 74
     0
 42
0.000000001
 43
0.00000001
 40
0.0
 40
0.0
 40
0.0
 40
0.0
 40
0.125
 40
0.125
 40
0.25
 40
0.25
 40
0.375
 40
0.375
 40
0.5
 40
0.5
 40
0.625
 40
0.625
 40
0.75
 40
0.75
 40
0.875
 40
0.875
 40
1.0
 40
1.0
 40
1.0
 40
1.0
 10
25.75166889205526
 20
15.37850313118035
 30
0.0
 10
25.75907124890253
 20
15.38130462388822
 30
0.0
 10
25.76431221698342
 20
15.38316974845357
 30
0.0
 10
25.77062614907787
 20
15.384969867013
 30
0.0
 10
25.77167720824604
 20
15.38489447454075
 30
0.0
 10
25.77032242229583
 20
15.38285954148574
 30
0.0
 10
25.76798190771724
 20
15.3809471864343
 30
0.0
 10
25.76142541204787
 20
15.37530571905465
 30
0.0
 10
25.75719547509587
 20
15.37160491692036
 30
0.0
 10
25.74839459010411
 20
15.36149126834852
 30
0.0
 10
25.74387473400575
 20
15.35511426671482
 30
0.0
 10
25.73644672638626
 20
15.33777190592081
 30
0.0
 10
25.73359322893271
 20
15.3266726063888
 30
0.0
 10
25.73070027082488
 20
15.29911639376543
 30
0.0
 10
25.73064699809289
 20
15.28271524583953
 30
0.0
 10
25.733251856637
 20
15.24639100520804
 30
0.0
 10
25.73587587291526
 20
15.22650770002502
 30
0.0
 10
25.73988071603787
 20
15.20520686841547
 30
0.0
  0
SPLINE
  5
2A9
330
1F
100
AcDbEntity
  8
0
  6
Continuous
 62
     7
370
    25
100
AcDbSpline
210
0.0
220
0.0
230
1.0
 70
     8
 71
     3
 72
    16
 73
    12
 74
     0
 42
0.000000001
 43
0.00000001
 40
0.0
 40
0.0
 40
0.0
 40
0.0
 40
0.5000000000000016
 40
0.5000000000000016
 40
0.7500000000000014
 40
0.7500000000000014
 40
0.8750000000000016
 40
0.9375000000000014
 40
0.9687500000000013
 40
0.9687500000000013
 40
1.0
 40
1.0
 40
1.0
 40
1.0
 10
25.73988083523417
 20
15.2052069173744
 30
0.0
 10
25.64206318768501
 20
15.16343868805865
 30
0.0
 10
25.54424482841813
 20
15.12166400727381
 30
0.0
 10
25.39752636729781
 20
15.05899578970994
 30
0.0
 10
25.34862308247162
 20
15.03810442470161
 30
0.0
 10
25.27527729560015
 20
15.0067593639409
 30
0.0
 10
25.23860663495879
 20
14.99108487084667
 30
0.0
 10
25.19582877581575
 20
14.97279383963081
 30
0.0
 10
25.17749645820647
 20
14.96495387279919
 30
0.0
 10
25.16527515364768
 20
14.95972700933667
 30
0.0
 10
25.15922074632172
 20
14.95710326000506
 30
0.0
 10
25.15301680698147
 20
14.9545095105757
 30
0.0
  0
SPLINE
  5
2AA
330
1F
100
AcDbEntity
  8
0
  6
Continuous
 62
     7
370
    25
100
AcDbSpline
210
0.0
220
0.0
230
1.0
 70
     8
 71
     3
 72
     9
 73
     5
 74
     0
 42
0.000000001
 43
0.00000001
 40
0.0
 40
0.0
 40
0.0
 40
0.0
 40
0.3250515270899784
 40
1.0
 40
1.0
 40
1.0
 40
1.0
 10
25.15301680698147
 20
14.9545095105757
 30
0.0
 10
25.15153143359087
 20
14.95390261961119
 30
0.0
 10
25.14696177842297
 20
14.95203555881024
 30
0.0
 10
25.1424016667665
 20
14.95013480962457
 30
0.0
 10
25.13932382636765
 20
14.94885190186432
 30
0.0
  0
SPLINE
  5
2AB
330
1F
100
AcDbEntity
  8
0
  6
Continuous
 62
     7
370
    25
100
AcDbSpline
210
0.0
220
0.0
230
1.0
 70
     8
 71
     3
 72
    28
 73
    24
 74
     0
 42
0.000000001
 43
0.00000001
 40
0.0
 40
0.0
 40
0.0
 40
0.0
 40
0.1250000000000026
 40
0.1250000000000026
 40
0.250000000000005
 40
0.250000000000005
 40
0.312500000000005
 40
0.312500000000005
 40
0.3750000000000052
 40
0.3750000000000052
 40
0.5000000000000057
 40
0.5000000000000057
 40
0.5625000000000051
 40
0.5625000000000051
 40
0.6250000000000047
 40
0.6250000000000047
 40
0.7500000000000036
 40
0.7500000000000036
 40
0.8750000000000027
 40
0.8750000000000027
 40
0.9375000000000013
 40
0.9375000000000013
 40
1.0
 40
1.0
 40
1.0
 40
1.0
 10
25.13932382634082
 20
14.94885190185303
 30
0.0
 10
25.10002769781801
 20
14.93231846620991
 30
0.0
 10
25.05993148643762
 20
14.9174682491484
 30
0.0
 10
24.97788636564804
 20
14.89173797789173
 30
0.0
 10
24.93714966782343
 20
14.88130817304294
 30
0.0
 10
24.87662104669138
 20
14.86930734210783
 30
0.0
 10
24.85654132013602
 20
14.86591889568567
 30
0.0
 10
24.81653768151822
 20
14.86040594751864
 30
0.0
 10
24.79672037728544
 20
14.85830449103008
 30
0.0
 10
24.73897658735024
 20
14.85388276039785
 30
0.0
 10
24.70227552224494
 20
14.8533907706998
 30
0.0
 10
24.6493968256612
 20
14.85575913486712
 30
0.0
 10
24.63212466766338
 20
14.85706898975159
 30
0.0
 10
24.59883985736374
 20
14.86056069541218
 30
0.0
 10
24.58274151552181
 20
14.86274444413798
 30
0.0
 10
24.53585300445687
 20
14.87043200765343
 30
0.0
 10
24.50645679297746
 20
14.87706185425588
 30
0.0
 10
24.45059356353048
 20
14.89266918308622
 30
0.0
 10
24.42405575164679
 20
14.90169015189024
 30
0.0
 10
24.38637598550346
 20
14.91656961000117
 30
0.0
 10
24.37417641667456
 20
14.92175652904644
 30
0.0
 10
24.35045146107594
 20
14.93253341977783
 30
0.0
 10
24.33894375072057
 20
14.93814152564126
 30
0.0
 10
24.32773082741046
 20
14.94385281358241
 30
0.0
  0
SPLINE
  5
2AC
330
1F
100
AcDbEntity
  8
0
  6
Continuous
 62
     7
370
    25
100
AcDbSpline
210
0.0
220
0.0
230
1.0
 70
     8
 71
     3
 72
    12
 73
     8
 74
     0
 42
0.000000001
 43
0.00000001
 40
0.0
 40
0.0
 40
0.0
 40
0.0
 40
0.2500000000000001
 40
0.2500000000000001
 40
0.5000000000000002
 40
0.5000000000000002
 40
1.0
 40
1.0
 40
1.0
 40
1.0
 10
24.32773082741335
 20
14.94385281358094
 30
0.0
 10
24.17092875708498
 20
15.0237197445643
 30
0.0
 10
24.0143808870761
 20
15.10363227244154
 30
0.0
 10
23.7011783914032
 20
15.26342211562323
 30
0.0
 10
23.54451199383704
 20
15.34330530572518
 30
0.0
 10
23.0745678523302
 20
15.58297138226873
 30
0.0
 10
22.76131790289179
 20
15.74275513137466
 30
0.0
 10
22.44802530249296
 20
15.90253170706877
 30
0.0
  0
SPLINE
  5
2AD
330
1F
100
AcDbEntity
  8
0
  6
Continuous
 62
     7
370
    25
100
AcDbSpline
210
0.0
220
0.0
230
1.0
 70
     8
 71
     3
 72
     8
 73
     4
 74
     0
 42
0.000000001
 43
0.00000001
 40
0.0
 40
0.0
 40
0.0
 40
0.0
 40
1.0
 40
1.0
 40
1.0
 40
1.0
 10
22.44802530245319
 20
15.90253170702081
 30
0.0
 10
22.5261475723293
 20
15.99674644514023
 30
0.0
 10
22.60164673816088
 20
16.08720097391399
 30
0.0
 10
22.62289162080508
 20
16.09988220082109
 30
0.0
  0
LINE
  5
2AE
330
1F
100
AcDbEntity
  8
0
  6
Continuous
 62
     7
370
    25
100
AcDbLine
 10
24.5792726442
 20
15.1021612829
 30
0.0
 11
22.6228915595
 21
16.0998821667
 31
0.0
  0
SPLINE
  5
2AF
330
1F
100
AcDbEntity
  8
0
  6
Continuous
 62
     7
370
    25
100
AcDbSpline
210
0.0
220
0.0
230
1.0
 70
     8
 71
     3
 72
    15
 73
    11
 74
     0
 42
0.000000001
 43
0.00000001
 40
0.0
 40
0.0
 40
0.0
 40
0.0
 40
0.0625000000000006
 40
0.0625000000000006
 40
0.1250000000000013
 40
0.2500000000000013
 40
0.2500000000000013
 40
0.5000000000000009
 40
0.5000000000000009
 40
1.0
 40
1.0
 40
1.0
 40
1.0
 10
25.15093567525206
 20
14.92310671648934
 30
0.0
 10
25.16337375500631
 20
14.92862428043565
 30
0.0
 10
25.17589314421601
 20
14.93390709982793
 30
0.0
 10
25.20087953034964
 20
14.94462399781953
 30
0.0
 10
25.23835809207892
 20
14.96070228235561
 30
0.0
 10
25.27583388032495
 20
14.97678857384994
 30
0.0
 10
25.35078260793175
 20
15.00896938246698
 30
0.0
 10
25.40074458045091
 20
15.0304343608258
 30
0.0
 10
25.55062733139031
 20
15.09483844029699
 30
0.0
 10
25.65054801858761
 20
15.13777780483821
 30
0.0
 10
25.7504667383959
 20
15.18072285070297
 30
0.0
  0
SPLINE
  5
2B0
330
1F
100
AcDbEntity
  8
0
  6
Continuous
 62
     7
370
    25
100
AcDbSpline
210
0.0
220
0.0
230
1.0
 70
     8
 71
     3
 72
    12
 73
     8
 74
     0
 42
0.000000001
 43
0.00000001
 40
0.0
 40
0.0
 40
0.0
 40
0.0
 40
0.4999999999999991
 40
0.4999999999999991
 40
0.7499999999999996
 40
0.7499999999999996
 40
1.0
 40
1.0
 40
1.0
 40
1.0
 10
25.7504667383959
 20
15.18072285070297
 30
0.0
 10
25.81880049326609
 20
15.21009268493065
 30
0.0
 10
25.88088051658758
 20
15.24960818798128
 30
0.0
 10
25.96734691442962
 20
15.31967589357687
 30
0.0
 10
25.99512850007079
 20
15.34492998054568
 30
0.0
 10
26.04833847308496
 20
15.39731942451894
 30
0.0
 10
26.07395612184694
 20
15.42444177586017
 30
0.0
 10
26.09867960069566
 20
15.45240422296765
 30
0.0
  0
LWPOLYLINE
  5
2B1
330
1F
100
AcDbEntity
  8
0
  6
Continuous
 62
     7
370
    25
100
AcDbPolyline
 90
        3
 70
   128
 43
0.0
 10
26.0986796341
 20
15.4524042312
 10
26.2704472104
 20
15.525921502
 10
26.4054074704
 20
15.5836851718
  0
LINE
  5
2B2
330
1F
100
AcDbEntity
  8
0
  6
Continuous
 62
     7
370
    25
100
AcDbLine
 10
26.4054074704
 20
15.5836851718
 30
0.0
 11
26.526316419
 21
15.2326148078
 31
0.0
  0
LINE
  5
2B3
330
1F
100
AcDbEntity
  8
0
  6
Continuous
 62
     7
370
    25
100
AcDbLine
 10
25.1509355956
 20
14.9231067224
 30
0.0
 11
25.234727748
 21
14.6798087001
 31
0.0
  0
LINE
  5
2B4
330
1F
100
AcDbEntity
  8
0
  6
Continuous
 62
     7
370
    25
100
AcDbLine
 10
26.526316419
 20
15.2326148078
 30
0.0
 11
25.234727748
 21
14.6798087001
 31
0.0
  0
SPLINE
  5
2B5
330
1F
100
AcDbEntity
  8
0
  6
Continuous
 62
     7
370
    25
100
AcDbSpline
210
0.0
220
0.0
230
1.0
 70
     8
 71
     3
 72
     8
 73
     4
 74
     0
 42
0.000000001
 43
0.00000001
 40
0.0
 40
0.0
 40
0.0
 40
0.0
 40
1.0
 40
1.0
 40
1.0
 40
1.0
 10
26.01774579009259
 20
15.63370633243355
 30
0.0
 10
26.04834984685553
 20
15.61809875744023
 30
0.0
 10
26.07887823161663
 20
15.60221313080823
 30
0.0
 10
26.10938742659206
 20
15.58596193614361
 30
0.0
  0
SPLINE
  5
2B6
330
1F
100
AcDbEntity
  8
0
  6
Continuous
 62
     7
370
    25
100
AcDbSpline
210
0.0
220
0.0
230
1.0
 70
     8
 71
     3
 72
    24
 73
    20
 74
     0
 42
0.000000001
 43
0.00000001
 40
0.0
 40
0.0
 40
0.0
 40
0.0
 40
0.0312500000000007
 40
0.0312500000000007
 40
0.0625000000000013
 40
0.0625000000000013
 40
0.1249999999999987
 40
0.1249999999999987
 40
0.2499999999999978
 40
0.2499999999999978
 40
0.4999999999999958
 40
0.4999999999999958
 40
0.7499999999999939
 40
0.7499999999999939
 40
0.8749999999999942
 40
0.8749999999999942
 40
0.9374999999999971
 40
0.9374999999999971
 40
1.0
 40
1.0
 40
1.0
 40
1.0
 10
26.10938745715979
 20
15.58596196345945
 30
0.0
 10
26.10978307481926
 20
15.5851936422477
 30
0.0
 10
26.10991338764356
 20
15.58413584905374
 30
0.0
 10
26.11010687846412
 20
15.58208042065128
 30
0.0
 10
26.1101280246483
 20
15.581017567547
 30
0.0
 10
26.11008041321726
 20
15.57777649730107
 30
0.0
 10
26.10988357474763
 20
15.57553645419295
 30
0.0
 10
26.1090399148642
 20
15.56870489620342
 30
0.0
 10
26.10812279412939
 20
15.56402522089301
 30
0.0
 10
26.10482712392308
 20
15.54989813172338
 30
0.0
 10
26.10191302844512
 20
15.54046006972101
 30
0.0
 10
26.09519881045631
 20
15.52156423821546
 30
0.0
 10
26.09138374120711
 20
15.51209600657192
 30
0.0
 10
26.0848615040489
 20
15.49788756048362
 30
0.0
 10
26.08256500663314
 20
15.49317604368835
 30
0.0
 10
26.07886773093925
 20
15.48620888042788
 30
0.0
 10
26.0775938182762
 20
15.48390184060835
 30
0.0
 10
26.07492012860111
 20
15.47933832680153
 30
0.0
 10
26.07354573631126
 20
15.47706671528482
 30
0.0
 10
26.07201145025892
 20
15.47490873914032
 30
0.0
  0
SPLINE
  5
2B7
330
1F
100
AcDbEntity
  8
0
  6
Continuous
 62
     7
370
    25
100
AcDbSpline
210
0.0
220
0.0
230
1.0
 70
     8
 71
     3
 72
    12
 73
     8
 74
     0
 42
0.000000001
 43
0.00000001
 40
0.0
 40
0.0
 40
0.0
 40
0.0
 40
0.25
 40
0.25
 40
0.5
 40
0.5
 40
1.0
 40
1.0
 40
1.0
 40
1.0
 10
26.07201179865878
 20
15.47490845818488
 30
0.0
 10
26.04849750243816
 20
15.44694658239129
 30
0.0
 10
26.02414824299814
 20
15.41951495791868
 30
0.0
 10
25.97349193362894
 20
15.36699867093884
 30
0.0
 10
25.94702992605794
 20
15.34188722440773
 30
0.0
 10
25.86457574899373
 20
15.27254283778526
 30
0.0
 10
25.8052712199415
 20
15.233858951963
 30
0.0
 10
25.73988083523417
 20
15.2052069173744
 30
0.0
  0
ARC
  5
2B8
330
1F
100
AcDbEntity
  8
0
  6
Continuous
 62
     7
370
    25
100
AcDbCircle
 10
25.3075183562
 20
16.1078864658
 30
0.0
 40
0.8539728447048108
100
AcDbArc
 50
301.3388979929
 51
326.27112088
  0
SPLINE
  5
2B9
330
1F
100
AcDbEntity
  8
0
  6
Continuous
 62
     7
370
    25
100
AcDbSpline
210
0.0
220
0.0
230
1.0
 70
     8
 71
     3
 72
    30
 73
    26
 74
     0
 42
0.000000001
 43
0.00000001
 40
0.0
 40
0.0
 40
0.0
 40
0.0
 40
0.0624999999999989
 40
0.0624999999999989
 40
0.1249999999999978
 40
0.1249999999999978
 40
0.2499999999999957
 40
0.2499999999999957
 40
0.3749999999999935
 40
0.3749999999999935
 40
0.4374999999999925
 40
0.4374999999999925
 40
0.4999999999999913
 40
0.4999999999999913
 40
0.6249999999999878
 40
0.6249999999999878
 40
0.6562499999999886
 40
0.6562499999999886
 40
0.6874999999999893
 40
0.6874999999999893
 40
0.7499999999999919
 40
0.7499999999999919
 40
0.8749999999999959
 40
0.8749999999999959
 40
1.0
 40
1.0
 40
1.0
 40
1.0
 10
24.32034432732119
 20
14.91328308785828
 30
0.0
 10
24.33171933100236
 20
14.90747498061006
 30
0.0
 10
24.34336726284685
 20
14.90190505437619
 30
0.0
 10
24.3673448867856
 20
14.89103259188615
 30
0.0
 10
24.37966353975127
 20
14.88576957577691
 30
0.0
 10
24.417722580641
 20
14.87060895906599
 30
0.0
 10
24.4445356276224
 20
14.86134891351888
 30
0.0
 10
24.50114869448655
 20
14.8452647745392
 30
0.0
 10
24.53101111740069
 20
14.83840763942063
 30
0.0
 10
24.57882867002969
 20
14.83044461965329
 30
0.0
 10
24.59527474481186
 20
14.82818092074831
 30
0.0
 10
24.62934368218798
 20
14.82456583022416
 30
0.0
 10
24.64705484913603
 20
14.82321252391311
 30
0.0
 10
24.70137605104019
 20
14.82079651715389
 30
0.0
 10
24.73923159697354
 20
14.82135271951203
 30
0.0
 10
24.7889493303156
 20
14.8253375086354
 30
0.0
 10
24.79901385668757
 20
14.82629799778679
 30
0.0
 10
24.81939319026489
 20
14.82856719230035
 30
0.0
 10
24.82973939210284
 20
14.82988161568174
 30
0.0
 10
24.86078980186014
 20
14.83432658075321
 30
0.0
 10
24.88157797718184
 20
14.83796505300503
 30
0.0
 10
24.94414694088617
 20
14.85085831888583
 30
0.0
 10
24.98617134661655
 20
14.86206284796003
 30
0.0
 10
25.07032570866549
 20
14.88961708223105
 30
0.0
 10
25.11118011253856
 20
14.90549775478527
 30
0.0
 10
25.15093567525265
 20
14.92310671648959
 30
0.0
  0
LINE
  5
2BA
330
1F
100
AcDbEntity
  8
0
  6
Continuous
 62
     7
370
    25
100
AcDbLine
 10
24.3203442996
 20
14.9132831211
 30
0.0
 11
24.3869356867
 21
14.6712032522
 31
0.0
  0
SPLINE
  5
2BB
330
1F
100
AcDbEntity
  8
0
  6
Continuous
 62
     7
370
    25
100
AcDbSpline
210
0.0
220
0.0
230
1.0
 70
     8
 71
     3
 72
     8
 73
     4
 74
     0
 42
0.000000001
 43
0.00000001
 40
0.0
 40
0.0
 40
0.0
 40
0.0
 40
1.0
 40
1.0
 40
1.0
 40
1.0
 10
25.23472767400722
 20
14.67980872929163
 30
0.0
 10
24.98169560590572
 20
14.57150979877261
 30
0.0
 10
24.67410895428721
 20
14.52474983138185
 30
0.0
 10
24.38693576147466
 20
14.67120324674058
 30
0.0
  0
ARC
  5
2BC
330
1F
100
AcDbEntity
  8
0
  6
Continuous
 62
     7
370
    25
100
AcDbCircle
 10
24.3542642138
 20
14.9212643978
 30
0.0
 40
0.0348462531132894
100
AcDbArc
 50
139.5915750022
 51
193.2407127683
  0
ARC
  5
2BD
330
1F
100
AcDbEntity
  8
0
  6
Continuous
 62
     7
370
    25
100
AcDbCircle
 10
24.9715747601
 20
14.8577016371
 30
0.0
 40
0.1909139453097695
100
AcDbArc
 50
20.0347102852
 51
28.5184698827
  0
LWPOLYLINE
  5
2BE
330
1F
100
AcDbEntity
  8
0
  6
Continuous
 62
     7
370
    25
100
AcDbPolyline
 90
       31
 70
   128
 43
0.0
 10
20.7961514294
 20
17.3314809831
 10
20.7705830606
 20
17.3140682159
 10
20.7500188158
 20
17.2954343828
 10
20.735357095
 20
17.2763940333
 10
20.7272386804
 20
17.2577790904
 10
20.7260186959
 20
17.2404033282
 10
20.7317502748
 20
17.225026186
 10
20.7441827647
 20
17.2123195193
 10
20.7627731305
 20
17.2028387508
 10
20.786708675
 20
17.1969983421
 10
20.8149431804
 20
17.1950533625
 10
20.8462430111
 20
17.1970889176
 10
20.8792401369
 20
17.2030161435
 10
20.9124920662
 20
17.2125758046
 10
20.9445457916
 20
17.2253501993
 10
20.9740005555
 20
17.2407809714
 10
20.9995687672
 20
17.2581938186
 10
21.0201331691
 20
17.2768275716
 10
21.0347950068
 20
17.2958679909
 10
21.0429133045
 20
17.3144828641
 10
21.044133289
 20
17.3318586262
 10
21.0384018271
 20
17.3472358382
 10
21.0259692202
 20
17.3599424351
 10
21.0073788545
 20
17.3694232036
 10
20.9834434268
 20
17.3752636821
 10
20.9552088045
 20
17.3772085919
 10
20.9239089738
 20
17.3751730368
 10
20.890911965
 20
17.3692458807
 10
20.8576599187
 20
17.3596861498
 10
20.8256060362
 20
17.3469118353
 10
20.7961514294
 20
17.3314809831
  0
LWPOLYLINE
  5
2BF
330
1F
100
AcDbEntity
  8
0
  6
Continuous
 62
     7
370
    25
100
AcDbPolyline
 90
       31
 70
   128
 43
0.0
 10
24.8138283529
 20
15.2825344856
 10
24.8432831168
 20
15.2979652577
 10
24.8753368421
 20
15.3107396524
 10
24.9085888884
 20
15.3202993833
 10
24.9415858972
 20
15.3262265394
 10
24.972885728
 20
15.3282620945
 10
25.0011203503
 20
15.3263171847
 10
25.0250557779
 20
15.3204767062
 10
25.0436461436
 20
15.3109959377
 10
25.0560787505
 20
15.2982893408
 10
25.0618102125
 20
15.2829121288
 10
25.060590228
 20
15.2655363666
 10
25.0524719303
 20
15.2469214935
 10
25.0378100926
 20
15.2278810742
 10
25.0172458478
 20
15.2092472411
 10
24.9916774789
 20
15.1918344739
 10
24.9622228722
 20
15.1764036217
 10
24.9301689897
 20
15.1636293072
 10
24.8969170603
 20
15.1540696461
 10
24.8639199346
 20
15.1481424202
 10
24.8326201038
 20
15.146106865
 10
24.8043855984
 20
15.1480518447
 10
24.7804500539
 20
15.1538922534
 10
24.7618596882
 20
15.1633730219
 10
24.7494271982
 20
15.1760796886
 10
24.7436956193
 20
15.1914568308
 10
24.7449156038
 20
15.2088325929
 10
24.7530340185
 20
15.2274475359
 10
24.7676957392
 20
15.2464878854
 10
24.7882601412
 20
15.2651216384
 10
24.8138283529
 20
15.2825344856
  0
LINE
  5
2C0
330
1F
100
AcDbEntity
  8
0
  6
Continuous
 62
     7
370
    25
100
AcDbLine
 10
22.9361954335
 20
16.0975987023
 30
0.0
 11
23.0804323215
 21
16.024040357
 31
0.0
  0
LWPOLYLINE
  5
2C1
330
1F
100
AcDbEntity
  8
0
  6
Continuous
 62
     7
370
    25
100
AcDbPolyline
 90
       16
 70
   128
 43
0.0
 10
23.3379040071
 20
16.1777271023
 10
23.3530780564
 20
16.1668746748
 10
23.3619626576
 20
16.1531381798
 10
23.3641692636
 20
16.1371178376
 10
23.3596017304
 20
16.1195139855
 10
23.3484594594
 20
16.1010958418
 10
23.3312294566
 20
16.0826684153
 10
23.3086648274
 20
16.0650371445
 10
23.2817516874
 20
16.0489724931
 10
23.2516662727
 20
16.0351765649
 10
23.2197236166
 20
16.0242524692
 10
23.1873194279
 20
16.0166774104
 10
23.1558702368
 20
16.0127826145
 10
23.1267506078
 20
16.0127383751
 10
23.1012326869
 20
16.016546319
 10
23.0804323215
 20
16.024040357
  0
LINE
  5
2C2
330
1F
100
AcDbEntity
  8
0
  6
Continuous
 62
     7
370
    25
100
AcDbLine
 10
23.1936671192
 20
16.2512854476
 30
0.0
 11
23.3379040071
 21
16.1777271023
 31
0.0
  0
ARC
  5
2C3
330
1F
100
AcDbEntity
  8
0
  6
Continuous
 62
     7
370
    25
100
AcDbCircle
 10
23.2021132805
 20
16.2710682544
 30
0.0
 40
0.0215103949009537
100
AcDbArc
 50
143.6562074257
 51
246.8802055931
  0
LWPOLYLINE
  5
2C4
330
1F
100
AcDbEntity
  8
0
  6
Continuous
 62
     7
370
    25
100
AcDbPolyline
 90
       13
 70
   128
 43
0.0
 10
23.1847871832
 20
16.2838159382
 10
23.1966927912
 20
16.3102716511
 10
23.2014448541
 20
16.3355788183
 10
23.1989310762
 20
16.3591395208
 10
23.1892106871
 20
16.3803969951
 10
23.1725134657
 20
16.398849072
 10
23.1492339351
 20
16.4140598069
 10
23.1199220583
 20
16.42566979
 10
23.085270429
 20
16.4334047486
 10
23.0460977214
 20
16.4370819171
 10
23.0033293318
 20
16.4366143454
 10
22.9579759071
 20
16.4320131781
 10
22.9111089871
 20
16.4233871362
  0
ARC
  5
2C5
330
1F
100
AcDbEntity
  8
0
  6
Continuous
 62
     7
370
    25
100
AcDbCircle
 10
22.884869246
 20
16.5138567968
 30
0.0
 40
0.0941981077403026
100
AcDbArc
 50
249.3395870973
 51
286.1742266884
  0
LINE
  5
2C6
330
1F
100
AcDbEntity
  8
0
  6
Continuous
 62
     7
370
    25
100
AcDbLine
 10
22.8516334749
 20
16.4257167547
 30
0.0
 11
22.7073965869
 21
16.4992751
 31
0.0
  0
LWPOLYLINE
  5
2C7
330
1F
100
AcDbEntity
  8
0
  6
Continuous
 62
     7
370
    25
100
AcDbPolyline
 90
       16
 70
   128
 43
0.0
 10
22.7073965869
 20
16.4992751
 10
22.6865961045
 20
16.5067690682
 10
22.6610784175
 20
16.5105771517
 10
22.6319585546
 20
16.5105327727
 10
22.6005094805
 20
16.5066380466
 10
22.5681054087
 20
16.4990630576
 10
22.5361626357
 20
16.4881388921
 10
22.5060773379
 20
16.4743430337
 10
22.4791641978
 20
16.4582783822
 10
22.4565994518
 20
16.4406470417
 10
22.4393695658
 20
16.4222196849
 10
22.4282271779
 20
16.4038014715
 10
22.4236595279
 20
16.3861975496
 10
22.4258663676
 20
16.370177347
 10
22.434750735
 20
16.3564407125
 10
22.4499249012
 20
16.3455883547
  0
LINE
  5
2C8
330
1F
100
AcDbEntity
  8
0
  6
Continuous
 62
     7
370
    25
100
AcDbLine
 10
22.5941617892
 20
16.2720300094
 30
0.0
 11
22.4499249012
 21
16.3455883547
 31
0.0
  0
ARC
  5
2C9
330
1F
100
AcDbEntity
  8
0
  6
Continuous
 62
     7
370
    25
100
AcDbCircle
 10
22.5857157764
 20
16.2522472431
 30
0.0
 40
0.0215102992758812
100
AcDbArc
 50
323.6558859208
 51
66.8805270981
  0
LWPOLYLINE
  5
2CA
330
1F
100
AcDbEntity
  8
0
  6
Continuous
 62
     7
370
    25
100
AcDbPolyline
 90
       13
 70
   128
 43
0.0
 10
22.6030417251
 20
16.2394995188
 10
22.5911360002
 20
16.2130437361
 10
22.5863841712
 20
16.1877367084
 10
22.588897949
 20
16.164176006
 10
22.5986182213
 20
16.1429184619
 10
22.6153155596
 20
16.1244664548
 10
22.6385949733
 20
16.1092556501
 10
22.667906967
 20
16.0976457368
 10
22.7025584794
 20
16.0899107084
 10
22.7417313039
 20
16.0862336097
 10
22.7844996935
 20
16.0867011814
 10
22.8298528843
 20
16.0913022091
 10
22.8767199213
 20
16.0999283208
  0
ARC
  5
2CB
330
1F
100
AcDbEntity
  8
0
  6
Continuous
 62
     7
370
    25
100
AcDbCircle
 10
22.902959692
 20
16.0094594185
 30
0.0
 40
0.0941973877098066
100
AcDbArc
 50
69.3394412602
 51
106.1743725255
  0
SPLINE
  5
2CC
330
1F
100
AcDbEntity
  8
0
  6
Continuous
 62
     7
370
    25
100
AcDbSpline
210
0.0
220
0.0
230
1.0
 70
     8
 71
     3
 72
    73
 73
    69
 74
     0
 42
0.000000001
 43
0.00000001
 40
0.0
 40
0.0
 40
0.0
 40
0.0
 40
0.0312499999999926
 40
0.0468749999999892
 40
0.0546874999999875
 40
0.0585937499999866
 40
0.0585937499999866
 40
0.0624999999999856
 40
0.0624999999999856
 40
0.0937499999999817
 40
0.1093749999999793
 40
0.1171874999999781
 40
0.1210937499999775
 40
0.1210937499999775
 40
0.1249999999999769
 40
0.1249999999999769
 40
0.1874999999999706
 40
0.2187499999999679
 40
0.2343749999999665
 40
0.2421874999999648
 40
0.2460937499999641
 40
0.2460937499999641
 40
0.2499999999999634
 40
0.2499999999999634
 40
0.3124999999999666
 40
0.3437499999999685
 40
0.3437499999999685
 40
0.3749999999999702
 40
0.3749999999999702
 40
0.4374999999999755
 40
0.4687499999999789
 40
0.4843749999999797
 40
0.4921874999999818
 40
0.4921874999999818
 40
0.4999999999999839
 40
0.4999999999999839
 40
0.5625000000000001
 40
0.5937500000000082
 40
0.6093750000000122
 40
0.6171875000000137
 40
0.6210937500000142
 40
0.6210937500000142
 40
0.6250000000000149
 40
0.6250000000000149
 40
0.6875000000000115
 40
0.7187500000000114
 40
0.7343750000000108
 40
0.7421875000000099
 40
0.7460937500000101
 40
0.7460937500000101
 40
0.7500000000000102
 40
0.7500000000000102
 40
0.812500000000018
 40
0.8437500000000205
 40
0.8593750000000222
 40
0.8671875000000226
 40
0.8710937500000232
 40
0.8710937500000232
 40
0.8750000000000236
 40
0.8750000000000236
 40
0.9062500000000235
 40
0.9218750000000235
 40
0.9296875000000234
 40
0.9335937500000234
 40
0.9335937500000234
 40
0.9375000000000233
 40
0.9375000000000233
 40
1.0
 40
1.0
 40
1.0
 40
1.0
 10
20.72423018358808
 20
17.45548251751458
 30
0.0
 10
20.71932433132509
 20
17.45115002785905
 30
0.0
 10
20.71214480524972
 20
17.44456525888658
 30
0.0
 10
20.70408225994011
 20
17.4367324882378
 30
0.0
 10
20.70012937939655
 20
17.43277846786819
 30
0.0
 10
20.69845208604457
 20
17.43107582305723
 30
0.0
 10
20.69733762343426
 20
17.42993893437159
 30
0.0
 10
20.69673797448229
 20
17.4293239706506
 30
0.0
 10
20.69215504648599
 20
17.42460245201097
 30
0.0
 10
20.68615960025849
 20
17.41819703199053
 30
0.0
 10
20.67936638075298
 20
17.41053143375675
 30
0.0
 10
20.67602013794021
 20
17.40665048258738
 30
0.0
 10
20.67459682679329
 20
17.40497689950354
 30
0.0
 10
20.67365035112106
 20
17.40385888449278
 30
0.0
 10
20.67313906099299
 20
17.40325193772406
 30
0.0
 10
20.66580206659806
 20
17.39450530725968
 30
0.0
 10
20.65604689345879
 20
17.38204916744226
 30
0.0
 10
20.64572099717046
 20
17.36732808196523
 30
0.0
 10
20.6408218337865
 20
17.35992030863753
 30
0.0
 10
20.63843819828456
 20
17.35620461432639
 30
0.0
 10
20.63743077153875
 20
17.3546096436972
 30
0.0
 10
20.63676229400296
 20
17.35354576767548
 30
0.0
 10
20.636410942785
 20
17.35298350161306
 30
0.0
 10
20.63109987289862
 20
17.34444179444749
 30
0.0
 10
20.62420307495984
 20
17.33239863687112
 30
0.0
 10
20.61820805163698
 20
17.32037906398669
 30
0.0
 10
20.61441176378082
 20
17.31237125643973
 30
0.0
 10
20.61259470631537
 20
17.30832496224313
 30
0.0
 10
20.60755878975918
 20
17.29646400688398
 30
0.0
 10
20.60316342147939
 20
17.28474786590352
 30
0.0
 10
20.59915645130327
 20
17.27133245992238
 30
0.0
 10
20.59743320608613
 20
17.26468811322249
 30
0.0
 10
20.59675472382255
 20
17.2618541124134
 30
0.0
 10
20.59631574706925
 20
17.25996779550689
 30
0.0
 10
20.5961093498561
 20
17.25905541914041
 30
0.0
 10
20.59419628819754
 20
17.25033068332418
 30
0.0
 10
20.59234599409941
 20
17.23894411021478
 30
0.0
 10
20.5914131135165
 20
17.22609098888363
 30
0.0
 10
20.59125312219127
 20
17.21977223170884
 30
0.0
 10
20.59124973877021
 20
17.21663980399414
 30
0.0
 10
20.59126470564152
 20
17.21530311016056
 30
0.0
 10
20.5912783317577
 20
17.21441326431307
 30
0.0
 10
20.59128623922153
 20
17.21399992788386
 30
0.0
 10
20.59147648546212
 20
17.20593199383272
 30
0.0
 10
20.59254551571783
 20
17.19492041281466
 30
0.0
 10
20.59519350050653
 20
17.18273584446186
 30
0.0
 10
20.59686768860678
 20
17.17680912932751
 30
0.0
 10
20.5977923315834
 20
17.17388716402086
 30
0.0
 10
20.59820736762904
 20
17.17264376294526
 30
0.0
 10
20.59848822732264
 20
17.17181679995489
 30
0.0
 10
20.59861517741093
 20
17.17144859794068
 30
0.0
 10
20.60133795011201
 20
17.16369992337657
 30
0.0
 10
20.60614090404588
 20
17.15329840807433
 30
0.0
 10
20.6134226694837
 20
17.14210443932669
 30
0.0
 10
20.61748313199802
 20
17.13674273806244
 30
0.0
 10
20.61961825820403
 20
17.13412070820771
 30
0.0
 10
20.62055578978136
 20
17.13300958557942
 30
0.0
 10
20.62118580583047
 20
17.13227163814995
 30
0.0
 10
20.62146943383968
 20
17.13194283025655
 30
0.0
 10
20.62465435866595
 20
17.12829838778884
 30
0.0
 10
20.62916685016543
 20
17.12363079882254
 30
0.0
 10
20.63489679244426
 20
17.11852069676214
 30
0.0
 10
20.63787810579936
 20
17.11604950033201
 30
0.0
 10
20.63918074199777
 20
17.11500838499054
 30
0.0
 10
20.64005470623556
 20
17.11431830117242
 30
0.0
 10
20.64045926153911
 20
17.11400238178546
 30
0.0
 10
20.64858048611139
 20
17.10774340989864
 30
0.0
 10
20.65710498053319
 20
17.10239969194478
 30
0.0
 10
20.66651052568305
 20
17.09760308998756
 30
0.0
  0
LINE
  5
2CD
330
1F
100
AcDbEntity
  8
0
  6
Continuous
 62
     7
370
    25
100
AcDbLine
 10
21.0737540074
 20
17.7641597333
 30
0.0
 11
20.7242302425
 21
17.4554825334
 31
0.0
  0
LINE
  5
2CE
330
1F
100
AcDbEntity
  8
0
  6
Continuous
 62
     7
370
    25
100
AcDbLine
 10
25.7516688492
 20
15.3785031927
 30
0.0
 11
21.0737540074
 21
17.7641597333
 31
0.0
  0
LINE
  5
2CF
330
1F
100
AcDbEntity
  8
0
  6
Continuous
 62
     7
370
    25
100
AcDbLine
 10
20.6665104747
 20
17.0976030506
 30
0.0
 11
22.6228915595
 21
16.0998821667
 31
0.0
  0
ARC
  5
2D0
330
1F
100
AcDbEntity
  8
0
  6
Continuous
 62
     7
370
    25
100
AcDbCircle
 10
25.5747952682
 20
15.1193002352
 30
0.0
 40
0.1860999697530231
100
AcDbArc
 50
19.2719257255
 51
27.4914298013
  0
SPLINE
  5
2D1
330
1F
100
AcDbEntity
  8
0
  6
Continuous
 62
     7
370
    25
100
AcDbSpline
210
0.0
220
0.0
230
1.0
 70
     8
 71
     3
 72
    13
 73
     9
 74
     0
 42
0.000000001
 43
0.00000001
 40
0.0
 40
0.0
 40
0.0
 40
0.0
 40
0.0968813536969171
 40
0.2234492400962156
 40
0.3799924243296882
 40
0.5650000204127142
 40
0.7741779479093457
 40
0.9999999999999999
 40
0.9999999999999999
 40
0.9999999999999999
 40
0.9999999999999999
 10
26.09463758047795
 20
15.45567564112651
 30
0.0
 10
26.09385484438271
 20
15.45631295574175
 30
0.0
 10
26.09204952499975
 20
15.4577828718922
 30
0.0
 10
26.0888978084915
 20
15.4603667847819
 30
0.0
 10
26.08502296694365
 20
15.46359467280796
 30
0.0
 10
26.08061765519668
 20
15.46733735160552
 30
0.0
 10
26.07598653536784
 20
15.47135738806544
 30
0.0
 10
26.07337008145985
 20
15.47369495454396
 30
0.0
 10
26.07201179865887
 20
15.47490845818499
 30
0.0
  0
SPLINE
  5
2D2
330
1F
100
AcDbEntity
  8
0
  6
Continuous
 62
     7
370
    25
100
AcDbSpline
210
0.0
220
0.0
230
1.0
 70
     8
 71
     3
 72
     8
 73
     4
 74
     0
 42
0.000000001
 43
0.00000001
 40
0.0
 40
0.0
 40
0.0
 40
0.0
 40
1.0
 40
1.0
 40
1.0
 40
1.0
 10
26.09867960069566
 20
15.45240422296765
 30
0.0
 10
26.09737584615662
 20
15.45344156958114
 30
0.0
 10
26.09602082703227
 20
15.45453848114392
 30
0.0
 10
26.09463758552551
 20
15.45567563397263
 30
0.0
  0
SPLINE
  5
2D3
330
1F
100
AcDbEntity
  8
0
  6
Continuous
 62
     7
370
    25
100
AcDbSpline
210
0.0
220
0.0
230
1.0
 70
     8
 71
     3
 72
    22
 73
    18
 74
     0
 42
0.000000001
 43
0.00000001
 40
0.0
 40
0.0
 40
0.0
 40
0.0
 40
0.125
 40
0.125
 40
0.25
 40
0.25
 40
0.375
 40
0.375
 40
0.5
 40
0.5
 40
0.625
 40
0.625
 40
0.75
 40
0.75
 40
0.875
 40
0.875
 40
1.0
 40
1.0
 40
1.0
 40
1.0
 10
26.35080787817571
 20
15.69567039913619
 30
0.0
 10
26.35158700280613
 20
15.69470118683737
 30
0.0
 10
26.35268555613456
 20
15.69310524602405
 30
0.0
 10
26.35571651119735
 20
15.68818142300469
 30
0.0
 10
26.35765486257623
 20
15.68484088073095
 30
0.0
 10
26.36241031637742
 20
15.67620516999035
 30
0.0
 10
26.36523111122905
 20
15.67090004306346
 30
0.0
 10
26.37147014180238
 20
15.65876879040436
 30
0.0
 10
26.37488236304425
 20
15.65195211351189
 30
0.0
 10
26.38170730832215
 20
15.63795396353789
 30
0.0
 10
26.38510749802342
 20
15.63079819872078
 30
0.0
 10
26.39130252753399
 20
15.61742685308016
 30
0.0
 10
26.39409154384029
 20
15.6112261034444
 30
0.0
 10
26.39877305141101
 20
15.60050634755429
 30
0.0
 10
26.40066939288501
 20
15.59598182960073
 30
0.0
 10
26.40361483249746
 20
15.588647903208
 30
0.0
 10
26.40466991052316
 20
15.58582668703963
 30
0.0
 10
26.40540744039894
 20
15.58368519934423
 30
0.0
  0
SPLINE
  5
2D4
330
1F
100
AcDbEntity
  8
0
  6
Continuous
 62
     7
370
    25
100
AcDbSpline
210
0.0
220
0.0
230
1.0
 70
     8
 71
     3
 72
     8
 73
     4
 74
     0
 42
0.000000001
 43
0.00000001
 40
0.0
 40
0.0
 40
0.0
 40
0.0
 40
1.0
 40
1.0
 40
1.0
 40
1.0
 10
26.09867960069566
 20
15.45240422296766
 30
0.0
 10
26.09779105411246
 20
15.45381880067972
 30
0.0
 10
26.09683288170716
 20
15.45531312867771
 30
0.0
 10
26.09585355858232
 20
15.45682466635528
 30
0.0
  0
SPLINE
  5
2D5
330
1F
100
AcDbEntity
  8
0
  6
Continuous
 62
     7
370
    25
100
AcDbSpline
210
0.0
220
0.0
230
1.0
 70
     8
 71
     3
 72
    36
 73
    32
 74
     0
 42
0.000000001
 43
0.00000001
 40
0.0
 40
0.0
 40
0.0
 40
0.0
 40
0.0078124999999995
 40
0.0078124999999995
 40
0.0156249999999991
 40
0.0156249999999991
 40
0.0312499999999982
 40
0.0312499999999982
 40
0.0624999999999985
 40
0.0624999999999985
 40
0.1249999999999967
 40
0.1249999999999967
 40
0.2499999999999973
 40
0.2499999999999973
 40
0.5000000000000013
 40
0.5000000000000013
 40
0.7500000000000053
 40
0.7500000000000053
 40
0.8750000000000092
 40
0.8750000000000092
 40
0.9375000000000081
 40
0.9375000000000081
 40
0.9687500000000053
 40
0.9687500000000053
 40
0.9843750000000071
 40
0.9843750000000071
 40
0.9921875000000053
 40
0.9921875000000053
 40
0.9960937500000027
 40
0.9960937500000027
 40
1.0
 40
1.0
 40
1.0
 40
1.0
 10
26.09585354431361
 20
15.45682467725607
 30
0.0
 10
26.09576831256962
 20
15.45784168794976
 30
0.0
 10
26.09582246756818
 20
15.45847788060498
 30
0.0
 10
26.09593940379275
 20
15.45971918075554
 30
0.0
 10
26.09601675485928
 20
15.46028518940891
 30
0.0
 10
26.09628125183621
 20
15.46188659881985
 30
0.0
 10
26.09649836149547
 20
15.46283196678663
 30
0.0
 10
26.09717257733444
 20
15.46558089304649
 30
0.0
 10
26.09767611988976
 20
15.46723128665719
 30
0.0
 10
26.0991976204784
 20
15.47204967207505
 30
0.0
 10
26.10025469585849
 20
15.47501038353242
 30
0.0
 10
26.10338256676172
 20
15.48372958530038
 30
0.0
 10
26.10543735715527
 20
15.48925245157581
 30
0.0
 10
26.11132438488877
 20
15.50566832979258
 30
0.0
 10
26.11487023029159
 20
15.51621234674073
 30
0.0
 10
26.12098904405085
 20
15.53733758240504
 30
0.0
 10
26.12361087041481
 20
15.54785968032491
 30
0.0
 10
26.12615514139413
 20
15.5641222012972
 30
0.0
 10
26.12678210715102
 20
15.56957595283258
 30
0.0
 10
26.12690791241433
 20
15.57801190547916
 30
0.0
 10
26.12683084063804
 20
15.58084021697594
 30
0.0
 10
26.12623923438004
 20
15.58531553223723
 30
0.0
 10
26.12598075441008
 20
15.58682754110139
 30
0.0
 10
26.12529793970159
 20
15.58931770869946
 30
0.0
 10
26.12503290924709
 20
15.5901742983046
 30
0.0
 10
26.12446292587812
 20
15.59161152109369
 30
0.0
 10
26.12424225340232
 20
15.59211749013691
 30
0.0
 10
26.12384709811241
 20
15.5929318697512
 30
0.0
 10
26.12369974473029
 20
15.59321925301011
 30
0.0
 10
26.12332765601377
 20
15.59388683058404
 30
0.0
 10
26.12315047462659
 20
15.59419998436459
 30
0.0
 10
26.12278081839796
 20
15.5947736040643
 30
0.0
  0
SPLINE
  5
2D6
330
1F
100
AcDbEntity
  8
0
  6
Continuous
 62
     7
370
    25
100
AcDbSpline
210
0.0
220
0.0
230
1.0
 70
     8
 71
     3
 72
     8
 73
     4
 74
     0
 42
0.000000001
 43
0.00000001
 40
0.0
 40
0.0
 40
0.0
 40
0.0
 40
1.0
 40
1.0
 40
1.0
 40
1.0
 10
26.12278081257403
 20
15.59477359366712
 30
0.0
 10
26.12218984535113
 20
15.59575899939243
 30
0.0
 10
26.12162354218027
 20
15.59665533520401
 30
0.0
 10
26.12111962178621
 20
15.59736273136644
 30
0.0
  0
LWPOLYLINE
  5
2D7
330
1F
100
AcDbEntity
  8
0
  6
Continuous
 62
     7
370
    25
100
AcDbPolyline
 90
        3
 70
   128
 43
0.0
 10
26.3508079465
 20
15.6956703794
 10
26.2221824539
 20
15.640618135
 10
26.1211196907
 20
15.5973627001
  0
SPLINE
  5
2D8
330
1F
100
AcDbEntity
  8
0
  6
Continuous
 62
     7
370
    25
100
AcDbSpline
210
0.0
220
0.0
230
1.0
 70
     8
 71
     3
 72
    12
 73
     8
 74
     0
 42
0.000000001
 43
0.00000001
 40
0.0
 40
0.0
 40
0.0
 40
0.0
 40
0.5
 40
0.5
 40
0.75
 40
0.75
 40
1.0
 40
1.0
 40
1.0
 40
1.0
 10
26.09585355858232
 20
15.45682466635528
 30
0.0
 10
26.09166770238674
 20
15.46002874258736
 30
0.0
 10
26.08723158484331
 20
15.46340856431011
 30
0.0
 10
26.08099839658875
 20
15.46813634890858
 30
0.0
 10
26.07896320034778
 20
15.46967618303689
 30
0.0
 10
26.07523942804654
 20
15.47248574416959
 30
0.0
 10
26.07354036665673
 20
15.47376356386453
 30
0.0
 10
26.07201144914753
 20
15.47490873995725
 30
0.0
  0
SPLINE
  5
2D9
330
1F
100
AcDbEntity
  8
0
  6
Continuous
 62
     7
370
    25
100
AcDbSpline
210
0.0
220
0.0
230
1.0
 70
     8
 71
     3
 72
    15
 73
    11
 74
     0
 42
0.000000001
 43
0.00000001
 40
0.0
 40
0.0
 40
0.0
 40
0.0
 40
0.2010915453037508
 40
0.3817812725416793
 40
0.5408341809195301
 40
0.6775844101275639
 40
0.7917859469277356
 40
0.8834662264857507
 40
0.9527984499275296
 40
0.9999999999999999
 40
0.9999999999999999
 40
0.9999999999999999
 40
0.9999999999999999
 10
26.12278081055476
 20
15.59477360075507
 30
0.0
 10
26.12178045125873
 20
15.5943525872401
 30
0.0
 10
26.11988122449381
 20
15.59355327429404
 30
0.0
 10
26.11730514182858
 20
15.59214248261329
 30
0.0
 10
26.1151260815168
 20
15.59075865096327
 30
0.0
 10
26.11333540101542
 20
15.58945766454771
 30
0.0
 10
26.11190463283941
 20
15.58830174389861
 30
0.0
 10
26.11080342203685
 20
15.58733039478766
 30
0.0
 10
26.10999815071791
 20
15.58657379633261
 30
0.0
 10
26.10956350764133
 20
15.58613834238225
 30
0.0
 10
26.10938745715979
 20
15.58596196345945
 30
0.0
  0
LWPOLYLINE
  5
2DA
330
1F
100
AcDbEntity
  8
0
  6
Continuous
 62
     7
370
    25
100
AcDbPolyline
 90
       24
 70
   128
 43
0.0
 10
22.2979889979
 20
18.2893357776
 10
22.32159912
 20
18.3012190516
 10
22.3474510081
 20
18.3101847309
 10
22.3736274809
 20
18.3155677871
 10
22.3981868986
 20
18.3169691416
 10
22.4193079895
 20
18.314284717
 10
22.4354241336
 20
18.3077137581
 10
22.4453403115
 20
18.2977434146
 10
22.4483208754
 20
18.285113297
 10
22.4441449492
 20
18.2707600154
 10
22.4331219867
 20
18.2557481973
 10
22.4160697732
 20
18.2411910894
 10
22.3942528188
 20
18.2281683887
 10
22.369289223
 20
18.2176459505
 10
22.3430305484
 20
18.2104040849
 10
22.3174240595
 20
18.2069800236
 10
22.2943690626
 20
18.2076275643
 10
22.2755753176
 20
18.2122988226
 10
22.2624368539
 20
18.2206471809
 10
22.2559278467
 20
18.2320536659
 10
22.2565312441
 20
18.245672181
 10
22.2642020464
 20
18.2604928125
 10
22.2783716505
 20
18.2754162567
 10
22.2979889979
 20
18.2893357776
  0
LWPOLYLINE
  5
2DB
330
1F
100
AcDbEntity
  8
0
  6
Continuous
 62
     7
370
    25
100
AcDbPolyline
 90
       24
 70
   128
 43
0.0
 10
26.423339634
 20
16.1854775288
 10
26.4429569814
 20
16.1993970496
 10
26.4571265855
 20
16.2143204938
 10
26.4647973878
 20
16.2291411254
 10
26.4654007852
 20
16.2427596405
 10
26.4588917488
 20
16.2541661081
 10
26.4457533143
 20
16.2625144838
 10
26.4269595401
 20
16.2671857247
 10
26.4039045724
 20
16.2678332828
 10
26.3782980835
 20
16.2644092215
 10
26.352039409
 20
16.2571673559
 10
26.3270758131
 20
16.2466449177
 10
26.3052588587
 20
16.233622217
 10
26.2882066452
 20
16.2190651091
 10
26.2771836828
 20
16.204053291
 10
26.2730077565
 20
16.1897000094
 10
26.2759882912
 20
16.1770698743
 10
26.2859044983
 20
16.1670995483
 10
26.3020206132
 20
16.1605285719
 10
26.3231417334
 20
16.1578441648
 10
26.347701151
 20
16.1592455193
 10
26.3738776238
 20
16.1646285755
 10
26.3997295119
 20
16.1735942548
 10
26.423339634
 20
16.1854775288
  0
LINE
  5
2DC
330
1F
100
AcDbEntity
  8
0
  6
Continuous
 62
     7
370
    25
100
AcDbLine
 10
26.9624314653
 20
16.0428995604
 30
0.0
 11
26.5492431933
 21
15.7962644379
 31
0.0
  0
SPLINE
  5
2DD
330
1F
100
AcDbEntity
  8
0
  6
Continuous
 62
     7
370
    25
100
AcDbSpline
210
0.0
220
0.0
230
1.0
 70
     8
 71
     3
 72
     8
 73
     4
 74
     0
 42
0.000000001
 43
0.00000001
 40
0.0
 40
0.0
 40
0.0
 40
0.0
 40
1.0
 40
1.0
 40
1.0
 40
1.0
 10
26.54924314571452
 20
15.79626446019324
 30
0.0
 10
26.48776672992175
 20
15.75956873486621
 30
0.0
 10
26.42088233809324
 20
15.7256626017542
 30
0.0
 10
26.35080787817571
 20
15.69567039913619
 30
0.0
  0
SPLINE
  5
2DE
330
1F
100
AcDbEntity
  8
0
  6
Continuous
 62
     7
370
    25
100
AcDbSpline
210
0.0
220
0.0
230
1.0
 70
     8
 71
     3
 72
     8
 73
     4
 74
     0
 42
0.000000001
 43
0.00000001
 40
0.0
 40
0.0
 40
0.0
 40
0.0
 40
1.0
 40
1.0
 40
1.0
 40
1.0
 10
26.12111962178621
 20
15.59736273136644
 30
0.0
 10
26.08997315989116
 20
15.61273811937705
 30
0.0
 10
26.05907719073987
 20
15.62826393988284
 30
0.0
 10
26.02838886600231
 20
15.64391446047681
 30
0.0
  0
LINE
  5
2DF
330
1F
100
AcDbEntity
  8
0
  6
Continuous
 62
     7
370
    25
100
AcDbLine
 10
21.3504739007
 20
18.0295710059
 30
0.0
 11
26.0283887425
 21
15.6439144653
 31
0.0
  0
SPLINE
  5
2E0
330
1F
100
AcDbEntity
  8
0
  6
Continuous
 62
     7
370
    25
100
AcDbSpline
210
0.0
220
0.0
230
1.0
 70
     8
 71
     3
 72
     8
 73
     4
 74
     0
 42
0.000000001
 43
0.00000001
 40
0.0
 40
0.0
 40
0.0
 40
0.0
 40
1.0
 40
1.0
 40
1.0
 40
1.0
 10
21.25907905631173
 20
18.07692024101724
 30
0.0
 10
21.28930623157316
 20
18.06099612404499
 30
0.0
 10
21.31978554659201
 20
18.04522159961912
 30
0.0
 10
21.35047387130618
 20
18.02957107901119
 30
0.0
  0
LWPOLYLINE
  5
2E1
330
1F
100
AcDbEntity
  8
0
  6
Continuous
 62
     7
370
    25
100
AcDbPolyline
 90
        3
 70
   128
 43
0.0
 10
21.4186701005
 20
18.210976303
 10
21.3292991939
 20
18.1359048913
 10
21.2590790053
 20
18.0769202709
  0
SPLINE
  5
2E2
330
1F
100
AcDbEntity
  8
0
  6
Continuous
 62
     7
370
    25
100
AcDbSpline
210
0.0
220
0.0
230
1.0
 70
     8
 71
     3
 72
    10
 73
     6
 74
     0
 42
0.000000001
 43
0.00000001
 40
0.0
 40
0.0
 40
0.0
 40
0.0
 40
0.5
 40
0.5
 40
1.0
 40
1.0
 40
1.0
 40
1.0
 10
21.58484671405135
 20
18.32802171051818
 30
0.0
 10
21.55411415643107
 20
18.3096772205464
 30
0.0
 10
21.52480949051112
 20
18.2906878634578
 30
0.0
 10
21.46911668384607
 20
18.25146219681228
 30
0.0
 10
21.44301903162184
 20
18.2314292776003
 30
0.0
 10
21.41867013050591
 20
18.21097627249912
 30
0.0
  0
LINE
  5
2E3
330
1F
100
AcDbEntity
  8
0
  6
Continuous
 62
     7
370
    25
100
AcDbLine
 10
21.998034953
 20
18.5746568518
 30
0.0
 11
21.584846681
 21
18.3280217293
 31
0.0
  0
SPLINE
  5
2E4
330
1F
100
AcDbEntity
  8
0
  6
Continuous
 62
     7
370
    25
100
AcDbSpline
210
0.0
220
0.0
230
1.0
 70
     8
 71
     3
 72
    16
 73
    12
 74
     0
 42
0.000000001
 43
0.00000001
 40
0.0
 40
0.0
 40
0.0
 40
0.0
 40
0.25
 40
0.25
 40
0.5
 40
0.5
 40
0.75
 40
0.75
 40
0.875
 40
0.875
 40
1.0
 40
1.0
 40
1.0
 40
1.0
 10
22.30944015978346
 20
18.62199730511178
 30
0.0
 10
22.29306193540094
 20
18.63034991935174
 30
0.0
 10
22.27180817070848
 20
18.63581166497228
 30
0.0
 10
22.22292403803748
 20
18.64011161948731
 30
0.0
 10
22.19518502086447
 20
18.63894720437271
 30
0.0
 10
22.13759155203632
 20
18.63019451043069
 30
0.0
 10
22.1076034976959
 20
18.62257803737324
 30
0.0
 10
22.06445051824504
 20
18.60722273163344
 30
0.0
 10
22.05041532790705
 20
18.6014723907442
 30
0.0
 10
22.02314734936208
 20
18.58875645676829
 30
0.0
 10
22.01023190216256
 20
18.58193726202757
 30
0.0
 10
21.99803499703598
 20
18.57465683953409
 30
0.0
  0
LINE
  5
2E5
330
1F
100
AcDbEntity
  8
0
  6
Continuous
 62
     7
370
    25
100
AcDbLine
 10
24.6664773103
 20
17.4199486816
 30
0.0
 11
22.3094402091
 21
18.6219972796
 31
0.0
  0
LINE
  5
2E6
330
1F
100
AcDbEntity
  8
0
  6
Continuous
 62
     7
370
    25
100
AcDbLine
 10
24.6664773103
 20
17.4199486816
 30
0.0
 11
27.0235144115
 21
16.2179000837
 31
0.0
  0
SPLINE
  5
2E7
330
1F
100
AcDbEntity
  8
0
  6
Continuous
 62
     7
370
    25
100
AcDbSpline
210
0.0
220
0.0
230
1.0
 70
     8
 71
     3
 72
    14
 73
    10
 74
     0
 42
0.000000001
 43
0.00000001
 40
0.0
 40
0.0
 40
0.0
 40
0.0
 40
0.25
 40
0.25
 40
0.5
 40
0.5
 40
0.75
 40
0.75
 40
1.0
 40
1.0
 40
1.0
 40
1.0
 10
27.02351445054999
 20
16.21790006418693
 30
0.0
 10
27.03990095021469
 20
16.20954322969462
 30
0.0
 10
27.05142766076259
 20
16.19829922566031
 30
0.0
 10
27.06304140166704
 20
16.17172283580361
 30
0.0
 10
27.06312090874084
 20
16.15640241274305
 30
0.0
 10
27.0518132123113
 20
16.12400630354436
 30
0.0
 10
27.04043045774728
 20
16.10694336344358
 30
0.0
 10
27.00792281826071
 20
16.0736595488569
 30
0.0
 10
26.9868151188121
 20
16.05745439340991
 30
0.0
 10
26.96243142869914
 20
16.04289958920914
 30
0.0
  0
SPLINE
  5
2E8
330
1F
100
AcDbEntity
  8
0
  6
Continuous
 62
     7
370
    25
100
AcDbSpline
210
0.0
220
0.0
230
1.0
 70
     8
 71
     3
 72
     8
 73
     4
 74
     0
 42
0.000000001
 43
0.00000001
 40
0.0
 40
0.0
 40
0.0
 40
0.0
 40
1.0
 40
1.0
 40
1.0
 40
1.0
 10
26.40540744039894
 20
15.58368519934423
 30
0.0
 10
26.48300523190634
 20
15.61689742371744
 30
0.0
 10
26.55707046334992
 20
15.65444378584573
 30
0.0
 10
26.62514710783593
 20
15.69507923628622
 30
0.0
  0
SPLINE
  5
2E9
330
1F
100
AcDbEntity
  8
0
  6
Continuous
 62
     7
370
    25
100
AcDbSpline
210
0.0
220
0.0
230
1.0
 70
     8
 71
     3
 72
    22
 73
    18
 74
     0
 42
0.000000001
 43
0.00000001
 40
0.0
 40
0.0
 40
0.0
 40
0.0
 40
0.125
 40
0.125
 40
0.25
 40
0.25
 40
0.375
 40
0.375
 40
0.5
 40
0.5
 40
0.625
 40
0.625
 40
0.75
 40
0.75
 40
0.875
 40
0.875
 40
1.0
 40
1.0
 40
1.0
 40
1.0
 10
26.54924314571452
 20
15.79626446019324
 30
0.0
 10
26.55058462772003
 20
15.79558032732021
 30
0.0
 10
26.55238185767378
 20
15.79433857112325
 30
0.0
 10
26.55712661445211
 20
15.79028353658363
 30
0.0
 10
26.56008222459473
 20
15.78745867981005
 30
0.0
 10
26.567152511254
 20
15.7799964421156
 30
0.0
 10
26.57127134097798
 20
15.77534933631986
 30
0.0
 10
26.58021809504544
 20
15.76459072727331
 30
0.0
 10
26.58503647192705
 20
15.75848688186505
 30
0.0
 10
26.59452446719223
 20
15.74583872887668
 30
0.0
 10
26.59917666042379
 20
15.73931765022767
 30
0.0
 10
26.60751565714248
 20
15.72703315961494
 30
0.0
 10
26.61119555100346
 20
15.72128402824362
 30
0.0
 10
26.61724446767382
 20
15.711257461806
 30
0.0
 10
26.61961982300418
 20
15.7069757734145
 30
0.0
 10
26.6231834118715
 20
15.6999552093825
 30
0.0
 10
26.62438014644918
 20
15.69720580407728
 30
0.0
 10
26.62514710783593
 20
15.69507923628622
 30
0.0
  0
SPLINE
  5
2EA
330
1F
100
AcDbEntity
  8
0
  6
Continuous
 62
     7
370
    25
100
AcDbSpline
210
0.0
220
0.0
230
1.0
 70
     8
 71
     3
 72
     8
 73
     4
 74
     0
 42
0.000000001
 43
0.00000001
 40
0.0
 40
0.0
 40
0.0
 40
0.0
 40
1.0
 40
1.0
 40
1.0
 40
1.0
 10
26.09585355858233
 20
15.45682466635528
 30
0.0
 10
26.09545054458534
 20
15.45644007933166
 30
0.0
 10
26.09505183335777
 20
15.45605044727269
 30
0.0
 10
26.09463758552551
 20
15.45567563397263
 30
0.0
  0
LINE
  5
2EB
330
1F
100
AcDbEntity
  8
0
  6
Continuous
 62
     7
370
    25
100
AcDbLine
 10
26.6251470749
 20
15.6950792487
 30
0.0
 11
26.7508809486
 21
15.3464547886
 31
0.0
  0
ARC
  5
2EC
330
1F
100
AcDbEntity
  8
0
  6
Continuous
 62
     7
370
    25
100
AcDbCircle
 10
25.785652053
 20
16.9720856704
 30
0.0
 40
1.89059318330541
100
AcDbArc
 50
293.0642399657
 51
300.6999977178
  0
SPLINE
  5
2ED
330
1F
100
AcDbEntity
  8
0
  6
Continuous
 62
     7
370
    25
100
AcDbSpline
210
0.0
220
0.0
230
1.0
 70
     8
 71
     3
 72
     8
 73
     4
 74
     0
 42
0.000000001
 43
0.00000001
 40
0.0
 40
0.0
 40
0.0
 40
0.0
 40
1.0
 40
1.0
 40
1.0
 40
1.0
 10
26.12111962178621
 20
15.59736273136644
 30
0.0
 10
26.11654357038279
 20
15.59470407252247
 30
0.0
 10
26.11244274386517
 20
15.59071792581359
 30
0.0
 10
26.1093874307698
 20
15.58596193745383
 30
0.0
  0
ARC
  5
2EE
330
1F
100
AcDbEntity
  8
0
  6
Continuous
 62
     7
370
    25
100
AcDbCircle
 10
26.0461547461
 20
15.6147391317
 30
0.0
 40
0.034158907716524
100
AcDbArc
 50
121.3388725584
 51
146.2710832201
  0
ARC
  5
2EF
330
1F
100
AcDbEntity
  8
0
  6
Continuous
 62
     7
370
    25
100
AcDbCircle
 10
20.6296035144
 20
18.4935430064
 30
0.0
 40
0.8539728447049741
100
AcDbArc
 50
301.3388979929
 51
326.27112088
  0
LINE
  5
2F0
330
1F
100
AcDbEntity
  8
0
  6
Continuous
 62
     7
370
    25
100
AcDbLine
 10
26.017745671
 20
15.6337063516
 30
0.0
 11
21.3398308292
 21
18.0193628921
 31
0.0
  0
LINE
  5
2F1
330
1F
100
AcDbEntity
  8
0
  6
Continuous
 62
     7
370
    25
100
AcDbLine
 10
24.7405043702
 20
14.9572802831
 30
0.0
 11
24.8101405558
 21
14.7641659686
 31
0.0
  0
LINE
  5
2F2
330
1F
100
AcDbEntity
  8
0
  6
Continuous
 62
     7
370
    25
100
AcDbLine
 10
26.6251470749
 20
15.6950792487
 30
0.0
 11
27.0383353469
 21
15.9417143712
 31
0.0
  0
SPLINE
  5
2F3
330
1F
100
AcDbEntity
  8
0
  6
Continuous
 62
     7
370
    25
100
AcDbSpline
210
0.0
220
0.0
230
1.0
 70
     8
 71
     3
 72
    22
 73
    18
 74
     0
 42
0.000000001
 43
0.00000001
 40
0.0
 40
0.0
 40
0.0
 40
0.0
 40
0.125
 40
0.125
 40
0.25
 40
0.25
 40
0.375
 40
0.375
 40
0.5
 40
0.5
 40
0.625
 40
0.625
 40
0.75
 40
0.75
 40
0.875
 40
0.875
 40
1.0
 40
1.0
 40
1.0
 40
1.0
 10
26.96243142869914
 20
16.04289958920914
 30
0.0
 10
26.96377291070467
 20
16.04221545633612
 30
0.0
 10
26.96557014065842
 20
16.04097370013917
 30
0.0
 10
26.97031489743678
 20
16.03691866559956
 30
0.0
 10
26.97327050757941
 20
16.03409380882599
 30
0.0
 10
26.9803407942387
 20
16.02663157113155
 30
0.0
 10
26.98445962396269
 20
16.02198446533581
 30
0.0
 10
26.99340637803016
 20
16.01122585628928
 30
0.0
 10
26.99822475491177
 20
16.00512201088102
 30
0.0
 10
27.00771275017695
 20
15.99247385789264
 30
0.0
 10
27.01236494340851
 20
15.98595277924363
 30
0.0
 10
27.02070394012718
 20
15.9736682886309
 30
0.0
 10
27.02438383398816
 20
15.96791915725958
 30
0.0
 10
27.0304327506585
 20
15.95789259082194
 30
0.0
 10
27.03280810598885
 20
15.95361090243044
 30
0.0
 10
27.03637169485614
 20
15.94659033839842
 30
0.0
 10
27.03756842943381
 20
15.94384093309319
 30
0.0
 10
27.03833539082055
 20
15.94171436530213
 30
0.0
  0
LINE
  5
2F4
330
1F
100
AcDbEntity
  8
0
  6
Continuous
 62
     7
370
    25
100
AcDbLine
 10
27.0383353469
 20
15.9417143712
 30
0.0
 11
27.1640692207
 21
15.5930899111
 31
0.0
  0
LINE
  5
2F5
330
1F
100
AcDbEntity
  8
0
  6
Continuous
 62
     7
370
    25
100
AcDbLine
 10
27.1640692207
 20
15.5930899111
 30
0.0
 11
26.7508809486
 21
15.3464547886
 31
0.0
  0
ARC
  5
2F6
330
1F
100
AcDbEntity
  8
0
  6
Continuous
 62
     7
370
    25
100
AcDbCircle
 10
21.3682399043
 20
18.0003956723
 30
0.0
 40
0.034158907716675
100
AcDbArc
 50
121.3388725585
 51
146.2710832201
  0
SPLINE
  5
2F7
330
1F
100
AcDbEntity
  8
0
  6
Continuous
 62
     7
370
    25
100
AcDbSpline
210
0.0
220
0.0
230
1.0
 70
     8
 71
     3
 72
    10
 73
     6
 74
     0
 42
0.000000001
 43
0.00000001
 40
0.0
 40
0.0
 40
0.0
 40
0.0
 40
0.5
 40
0.5
 40
1.0
 40
1.0
 40
1.0
 40
1.0
 10
24.71783427827725
 20
14.95307990599625
 30
0.0
 10
24.70235954597268
 20
14.93585356359295
 30
0.0
 10
24.68726052066525
 20
14.91820938466334
 30
0.0
 10
24.65698588420735
 20
14.88300620052421
 30
0.0
 10
24.64186478416781
 20
14.86538657165475
 30
0.0
 10
24.62670086486294
 20
14.84781456354622
 30
0.0
  0
LINE
  5
2F8
330
1F
100
AcDbEntity
  8
0
  6
Continuous
 62
     7
370
    25
100
AcDbLine
 10
24.6267009097
 20
14.8478145333
 30
0.0
 11
24.6752851875
 21
14.6956108024
 31
0.0
  0
LINE
  5
2F9
330
1F
100
AcDbEntity
  8
0
  6
Continuous
 62
     7
370
    25
100
AcDbLine
 10
24.7800570737
 20
14.7581499129
 30
0.0
 11
24.7178342263
 21
14.9530799187
 31
0.0
  0
LINE
  5
2FA
330
1F
100
AcDbEntity
  8
0
  6
Continuous
 62
     7
370
    25
100
AcDbLine
 10
24.6752851875
 20
14.6956108024
 30
0.0
 11
24.7800570737
 21
14.7581499129
 31
0.0
  0
SPLINE
  5
2FB
330
1F
100
AcDbEntity
  8
0
  6
Continuous
 62
     7
370
    25
100
AcDbSpline
210
0.0
220
0.0
230
1.0
 70
     8
 71
     3
 72
    17
 73
    13
 74
     0
 42
0.000000001
 43
0.00000001
 40
0.0
 40
0.0
 40
0.0
 40
0.0
 40
0.1073075799218328
 40
0.2129756341177539
 40
0.3170099279853296
 40
0.4194162682041932
 40
0.5202005114487036
 40
0.6193685737608197
 40
0.7169264406415365
 40
0.812880177925138
 40
0.9072359435066488
 40
1.0
 40
1.0
 40
1.0
 40
1.0
 10
24.74050429149536
 20
14.95728031924197
 30
0.0
 10
24.73985077533415
 20
14.95745767076076
 30
0.0
 10
24.73855372792201
 20
14.95780966408877
 30
0.0
 10
24.73632224195329
 20
14.9580470667011
 30
0.0
 10
24.73396950757776
 20
14.95807139474934
 30
0.0
 10
24.73152665911108
 20
14.95787364353637
 30
0.0
 10
24.7290534855186
 20
14.95747353837232
 30
0.0
 10
24.72659894369262
 20
14.9568871136665
 30
0.0
 10
24.72420848954248
 20
14.95613533902619
 30
0.0
 10
24.72192782440235
 20
14.95523716145077
 30
0.0
 10
24.71977725575821
 20
14.95422437004112
 30
0.0
 10
24.71847825417801
 20
14.95345922447595
 30
0.0
 10
24.71783427827725
 20
14.95307990599625
 30
0.0
  0
ARC
  5
2FC
330
1F
100
AcDbEntity
  8
0
  6
Continuous
 62
     7
370
    25
100
AcDbCircle
 10
24.8030040784
 20
14.7216274133
 30
0.0
 40
0.0431330267807281
100
AcDbArc
 50
80.4764640751
 51
122.1410543983
  0
LWPOLYLINE
  5
2FD
330
1F
100
AcDbEntity
  8
0
  6
Continuous
 62
     7
370
    25
100
AcDbPolyline
 90
       10
 70
   128
 43
0.0
 10
27.307023387
 20
15.8037310201
 10
27.3082464614
 20
15.8004707782
 10
27.3126480753
 20
15.7771096742
 10
27.3102081405
 20
15.7519490232
 10
27.3009765377
 20
15.7255009076
 10
27.2851411316
 20
15.6983037678
 10
27.2630242764
 20
15.6709112721
 10
27.2350761901
 20
15.643881057
 10
27.2018658293
 20
15.617763366
 10
27.1640692207
 20
15.5930899111
  0
LWPOLYLINE
  5
2FE
330
1F
100
AcDbEntity
  8
0
  6
Continuous
 62
     7
370
    25
100
AcDbPolyline
 90
        5
 70
   128
 43
0.0
 10
22.440580963
 20
15.8718806454
 10
23.0796987435
 20
15.5459636064
 10
23.4932472427
 20
15.3350707306
 10
23.9067881863
 20
15.1242039896
 10
24.3203442996
 20
14.9132831211
  0
ARC
  5
2FF
330
1F
100
AcDbEntity
  8
0
  6
Continuous
 62
     7
370
    25
100
AcDbCircle
 10
22.47450688
 20
15.8798704184
 30
0.0
 40
0.0348539704190859
100
AcDbArc
 50
139.4449488298
 51
193.2521491748
  0
LINE
  5
300
330
1F
100
AcDbEntity
  8
0
  6
Continuous
 62
     7
370
    25
100
AcDbLine
 10
20.5607858892
 20
16.8305935927
 30
0.0
 11
20.6273772762
 21
16.5885137238
 31
0.0
  0
LWPOLYLINE
  5
301
330
1F
100
AcDbEntity
  8
0
  6
Continuous
 62
     7
370
    25
100
AcDbPolyline
 90
        5
 70
   128
 43
0.0
 10
22.440580963
 20
15.8718806454
 10
21.8014488179
 20
16.1978492004
 10
21.3878944889
 20
16.4087646171
 10
20.9743325257
 20
16.6197062087
 10
20.5607858892
 20
16.8305935927
  0
LINE
  5
302
330
1F
100
AcDbEntity
  8
0
  6
Continuous
 62
     7
370
    25
100
AcDbLine
 10
20.6273772762
 20
16.5885137238
 30
0.0
 11
24.3869356867
 21
14.6712032522
 31
0.0
  0
LWPOLYLINE
  5
303
330
1F
100
AcDbEntity
  8
0
  6
Continuous
 62
     7
370
    25
100
AcDbPolyline
 90
       30
 70
   128
 43
0.0
 10
25.8646317965
 20
16.126575895
 10
25.8924521558
 20
16.1410846493
 10
25.9227613058
 20
16.152982406
 10
25.9541419002
 20
16.1617127338
 10
25.9851269091
 20
16.1668674761
 10
26.0142673704
 20
16.16820545
 10
26.0402006777
 20
16.1656643357
 10
26.0617141659
 20
16.159362802
 10
26.0778019953
 20
16.1495954999
 10
26.0877118667
 20
16.1368192043
 10
26.0909803618
 20
16.1216312962
 10
26.0874547304
 20
16.1047418937
 10
26.0772998613
 20
16.0869407924
 10
26.0609904887
 20
16.0690602879
 10
26.0392892806
 20
16.0519365291
 10
26.0132108813
 20
16.0363701405
 10
25.9839747838
 20
16.0230890465
 10
25.9529479271
 20
16.0127142071
 10
25.9215812258
 20
16.0057307773
 10
25.891341244
 20
16.0024652365
 10
25.8636421442
 20
16.0030703367
 10
25.8397788333
 20
16.0075177216
 10
25.8208673239
 20
16.0155995482
 10
25.8077918486
 20
16.0269377941
 10
25.8011637912
 20
16.0410023541
 10
25.8012929757
 20
16.0571356474
 10
25.8081735715
 20
16.0745831634
 10
25.821483815
 20
16.0925291258
 10
25.8406011949
 20
16.110134429
 10
25.8646317965
 20
16.126575895
  0
LINE
  5
304
330
1F
100
AcDbEntity
  8
0
  6
Continuous
 62
     7
370
    25
100
AcDbLine
 10
25.7998370573
 20
15.9322491468
 30
0.0
 11
25.7986547496
 21
15.9359551552
 31
0.0
  0
LWPOLYLINE
  5
305
330
1F
100
AcDbEntity
  8
0
  6
Continuous
 62
     7
370
    25
100
AcDbPolyline
 90
        3
 70
   128
 43
0.0
 10
26.1519415959
 20
16.0561311786
 10
26.1523650698
 20
16.0551935757
 10
26.1528658947
 20
16.0539972448
  0
LWPOLYLINE
  5
306
330
1F
100
AcDbEntity
  8
0
  6
Continuous
 62
     7
370
    25
100
AcDbPolyline
 90
       29
 70
   128
 43
0.0
 10
25.8686965387
 20
16.124502946
 10
25.8451364512
 20
16.108303373
 10
25.8266178466
 20
16.0909474727
 10
25.8140695432
 20
16.0733055205
 10
25.8081207476
 20
16.056262188
 10
25.809069498
 20
16.0406721383
 10
25.8168685724
 20
16.0273170027
 10
25.8311266694
 20
16.0168666034
 10
25.8511286543
 20
16.009844947
 10
25.8758720302
 20
16.0066039897
 10
25.9041156333
 20
16.0073064386
 10
25.9344434539
 20
16.0119168854
 10
25.965334637
 20
16.0202042827
 10
25.9952401137
 20
16.0317530731
 10
26.0226603548
 20
16.0459840337
 10
26.0462205007
 20
16.0621836416
 10
26.0647390468
 20
16.079539507
 10
26.0772873503
 20
16.0971814592
 10
26.0832361459
 20
16.1142247917
 10
26.0822873955
 20
16.1298148414
 10
26.0744883211
 20
16.143169977
 10
26.0602304397
 20
16.1536203311
 10
26.0402282392
 20
16.1606420327
 10
26.0154848633
 20
16.16388299
 10
25.9872412602
 20
16.1631805411
 10
25.9569134396
 20
16.1585700943
 10
25.9260222565
 20
16.150282697
 10
25.8961168383
 20
16.1387339415
 10
25.8686965387
 20
16.124502946
  0
SPLINE
  5
307
330
1F
100
AcDbEntity
  8
0
  6
Continuous
 62
     7
370
    25
100
AcDbSpline
210
0.0
220
0.0
230
1.0
 70
     8
 71
     3
 72
    14
 73
    10
 74
     0
 42
0.000000001
 43
0.00000001
 40
0.0
 40
0.0
 40
0.0
 40
0.0
 40
0.2500000000000001
 40
0.2500000000000001
 40
0.5000000000000001
 40
0.5000000000000001
 40
0.7500000000000002
 40
0.7500000000000002
 40
1.0
 40
1.0
 40
1.0
 40
1.0
 10
20.5681591013016
 20
16.86117007595583
 30
0.0
 10
20.73034342060828
 20
16.77816707500611
 30
0.0
 10
20.88972887249853
 20
16.69708058742319
 30
0.0
 10
21.20609490744694
 20
16.53588727060763
 30
0.0
 10
21.36306399018824
 20
16.45579301487747
 30
0.0
 10
21.67512385121436
 20
16.29664006818988
 30
0.0
 10
21.8302160646421
 20
16.21757938487397
 30
0.0
 10
22.13954967279109
 20
16.05985499608069
 30
0.0
 10
22.29379078392441
 20
15.98119166928269
 30
0.0
 10
22.44802530245322
 20
15.90253170702084
 30
0.0
  0
SPLINE
  5
308
330
1F
100
AcDbEntity
  8
0
  6
Continuous
 62
     7
370
    25
100
AcDbSpline
210
0.0
220
0.0
230
1.0
 70
     8
 71
     3
 72
    26
 73
    22
 74
     0
 42
0.000000001
 43
0.00000001
 40
0.0
 40
0.0
 40
0.0
 40
0.0
 40
0.0153569632901289
 40
0.0315656960423948
 40
0.0486377290693743
 40
0.0665855209766804
 40
0.0854229964540792
 40
0.1051662520410745
 40
0.125832373118016
 40
0.1722160278025616
 40
0.2506651593526406
 40
0.3702348031037389
 40
0.5004904675936241
 40
0.6115351862132113
 40
0.7497095607412554
 40
0.8342951238873006
 40
0.8747007975309006
 40
0.9101917755479886
 40
0.9373374666759879
 40
0.9689053884626998
 40
1.0
 40
1.0
 40
1.0
 40
1.0
 10
20.51156695070382
 20
17.30892873778651
 30
0.0
 10
20.50838679068722
 20
17.3061438712374
 30
0.0
 10
20.50185008401198
 20
17.30041967633331
 30
0.0
 10
20.49214206460104
 20
17.29153673918179
 30
0.0
 10
20.4822316505636
 20
17.28213544464146
 30
0.0
 10
20.47220583906148
 20
17.27220252968553
 30
0.0
 10
20.46212576235605
 20
17.2617320586529
 30
0.0
 10
20.45207242670914
 20
17.25071838722876
 30
0.0
 10
20.43815948387205
 20
17.23453747899552
 30
0.0
 10
20.41721094286325
 20
17.20736122413982
 30
0.0
 10
20.38992641092948
 20
17.16188129144473
 30
0.0
 10
20.37179422050161
 20
17.10277055596891
 30
0.0
 10
20.37699165432216
 20
17.04356833995524
 30
0.0
 10
20.40313608702951
 20
16.98829902044799
 30
0.0
 10
20.44082483886547
 20
16.94561259487473
 30
0.0
 10
20.47805009045878
 20
16.91564883658083
 30
0.0
 10
20.50295928425114
 20
16.89852692926433
 30
0.0
 10
20.51972573949838
 20
16.88794070357224
 30
0.0
 10
20.53563098417721
 20
16.87857932150642
 30
0.0
 10
20.55125116868578
 20
16.86990046627687
 30
0.0
 10
20.56255157563126
 20
16.86406551497547
 30
0.0
 10
20.5681591013016
 20
16.86117007595583
 30
0.0
  0
SPLINE
  5
309
330
1F
100
AcDbEntity
  8
0
  6
Continuous
 62
     7
370
    25
100
AcDbSpline
210
0.0
220
0.0
230
1.0
 70
     8
 71
     3
 72
     9
 73
     5
 74
     0
 42
0.000000001
 43
0.00000001
 40
0.0
 40
0.0
 40
0.0
 40
0.0
 40
0.4977862607963798
 40
0.9999999999999999
 40
0.9999999999999999
 40
0.9999999999999999
 40
0.9999999999999999
 10
20.5208216473181
 20
17.3168495852784
 30
0.0
 10
20.51928310315
 20
17.31554618849712
 30
0.0
 10
20.51619233048456
 20
17.31292780208525
 30
0.0
 10
20.51311328809529
 20
17.31026568803691
 30
0.0
 10
20.51156695070382
 20
17.30892873778651
 30
0.0
  0
SPLINE
  5
30A
330
1F
100
AcDbEntity
  8
0
  6
Continuous
 62
     7
370
    25
100
AcDbSpline
210
0.0
220
0.0
230
1.0
 70
     8
 71
     3
 72
    10
 73
     6
 74
     0
 42
0.000000001
 43
0.00000001
 40
0.0
 40
0.0
 40
0.0
 40
0.0
 40
0.5
 40
0.5
 40
1.0
 40
1.0
 40
1.0
 40
1.0
 10
20.92747024342311
 20
17.65945398951572
 30
0.0
 10
20.86100005986884
 20
17.60343391065124
 30
0.0
 10
20.79432601753152
 20
17.54724431077055
 30
0.0
 10
20.65946226672024
 20
17.43358369226942
 30
0.0
 10
20.59120832964829
 20
17.37606681089811
 30
0.0
 10
20.5208216473181
 20
17.3168495852784
 30
0.0
  0
SPLINE
  5
30B
330
1F
100
AcDbEntity
  8
0
  6
Continuous
 62
     7
370
    25
100
AcDbSpline
210
0.0
220
0.0
230
1.0
 70
     8
 71
     3
 72
    27
 73
    23
 74
     0
 42
0.000000001
 43
0.00000001
 40
0.0
 40
0.0
 40
0.0
 40
0.0
 40
0.0374678766537341
 40
0.063609562402799
 40
0.0710079075755481
 40
0.0763415753662697
 40
0.0822795740095923
 40
0.0857682360186989
 40
0.0890833666912928
 40
0.0947828799614634
 40
0.1066725128608694
 40
0.1264001116766675
 40
0.1655218380014211
 40
0.1896659199600397
 40
0.2213441164486721
 40
0.2523233103637538
 40
0.3650711835111612
 40
0.5026119502967707
 40
0.6332535388370183
 40
0.7873100447994599
 40
0.8884359617791594
 40
1.0
 40
1.0
 40
1.0
 40
1.0
 10
21.07375389735914
 20
17.76415974971473
 30
0.0
 10
21.07543705746762
 20
17.76578231797826
 30
0.0
 10
21.07829457402623
 20
17.76853696719859
 30
0.0
 10
21.08130730669549
 20
17.77161168583167
 30
0.0
 10
21.08279963052578
 20
17.77327489472333
 30
0.0
 10
21.08343513786584
 20
17.77406759746221
 30
0.0
 10
21.08384856699451
 20
17.77465981044765
 30
0.0
 10
21.08381546085332
 20
17.77512078454319
 30
0.0
 10
21.08279052327198
 20
17.77480577349188
 30
0.0
 10
21.08135172354226
 20
17.77399454725197
 30
0.0
 10
21.07883770762387
 20
17.77244700084657
 30
0.0
 10
21.07425189513891
 20
17.76940504733879
 30
0.0
 10
21.06887464426089
 20
17.76573864720611
 30
0.0
 10
21.06271086426408
 20
17.76146338238293
 30
0.0
 10
21.05700649456648
 20
17.75751916224818
 30
0.0
 10
21.04545748338504
 20
17.7494933868512
 30
0.0
 10
21.02710275035018
 20
17.73661222349044
 30
0.0
 10
21.00444853448801
 20
17.7200189938038
 30
0.0
 10
20.98119216304189
 20
17.70230850486494
 30
0.0
 10
20.96119610895369
 20
17.68659452816587
 30
0.0
 10
20.9429634773568
 20
17.67200869344713
 30
0.0
 10
20.93280090326944
 20
17.66377360777077
 30
0.0
 10
20.92747024342311
 20
17.65945398951572
 30
0.0
  0
ARC
  5
30C
330
1F
100
AcDbEntity
  8
0
  6
Continuous
 62
     7
370
    25
100
AcDbCircle
 10
20.5946955229
 20
16.8385937789
 30
0.0
 40
0.0348405831350671
100
AcDbArc
 50
139.6099358448
 51
193.2748552508
  0
LINE
  5
30D
330
1F
100
AcDbEntity
  8
0
  6
Continuous
 62
     7
370
    25
100
AcDbLine
 10
22.9111089871
 20
16.4233871362
 30
0.0
 11
23.019026701
 21
16.1062774645
 31
0.0
  0
ARC
  5
30E
330
1F
100
AcDbEntity
  8
0
  6
Continuous
 62
     7
370
    25
100
AcDbCircle
 10
22.9960971072
 20
16.1853345904
 30
0.0
 40
0.0823152198957039
100
AcDbArc
 50
249.3395865238
 51
286.1741828166
  0
LINE
  5
30F
330
1F
100
AcDbEntity
  8
0
  6
Continuous
 62
     7
370
    25
100
AcDbLine
 10
22.967053956
 20
16.1083132246
 30
0.0
 11
22.8516334749
 21
16.4257167547
 31
0.0
  0
LINE
  5
310
330
1F
100
AcDbEntity
  8
0
  6
Continuous
 62
     7
370
    25
100
AcDbLine
 10
22.822817068
 20
16.1818715699
 30
0.0
 11
22.967053956
 21
16.1083132246
 31
0.0
  0
LINE
  5
311
330
1F
100
AcDbEntity
  8
0
  6
Continuous
 62
     7
370
    25
100
AcDbLine
 10
22.7073965869
 20
16.4992751
 30
0.0
 11
22.822817068
 21
16.1818715699
 31
0.0
  0
ARC
  5
312
330
1F
100
AcDbEntity
  8
0
  6
Continuous
 62
     7
370
    25
100
AcDbCircle
 10
20.5167876024
 20
17.300820367
 30
0.0
 40
0.0096436172177421
100
AcDbArc
 50
122.7750952168
 51
150.8946715174
  0
SPLINE
  5
313
330
1F
100
AcDbEntity
  8
0
  6
Continuous
 62
     7
370
    25
100
AcDbSpline
210
0.0
220
0.0
230
1.0
 70
     8
 71
     3
 72
    11
 73
     7
 74
     0
 42
0.000000001
 43
0.00000001
 40
0.0
 40
0.0
 40
0.0
 40
0.0
 40
0.1576878100451068
 40
0.4055574273928599
 40
0.6844321411176443
 40
1.0
 40
1.0
 40
1.0
 40
1.0
 10
20.43560319694508
 20
16.77743435480178
 30
0.0
 10
20.43917180758224
 20
16.76481184470105
 30
0.0
 10
20.44834992064601
 20
16.73234799906691
 30
0.0
 10
20.485706657233
 20
16.68546095717821
 30
0.0
 10
20.54479491861005
 20
16.6340575360616
 30
0.0
 10
20.59873987069108
 20
16.60430712881236
 30
0.0
 10
20.62737727623736
 20
16.58851372378192
 30
0.0
  0
LWPOLYLINE
  5
314
330
1F
100
AcDbEntity
  8
0
  6
Continuous
 62
     7
370
    25
100
AcDbPolyline
 90
       30
 70
   128
 43
0.0
 10
22.0090481735
 20
18.0928575822
 10
22.0330787751
 20
18.1092990482
 10
22.0521962135
 20
18.1269043862
 10
22.0655063985
 20
18.1448503137
 10
22.0723870527
 20
18.1622978646
 10
22.0725161789
 20
18.178431123
 10
22.0658881799
 20
18.192495718
 10
22.0528127046
 20
18.2038339638
 10
22.0339011367
 20
18.2119157556
 10
22.0100378843
 20
18.2163631753
 10
21.982338726
 20
18.2169682406
 10
21.9520987443
 20
18.2137026999
 10
21.920732043
 20
18.20671927
 10
21.8897051862
 20
18.1963444307
 10
21.8604690888
 20
18.1830633366
 10
21.8343906895
 20
18.167496948
 10
21.8126894814
 20
18.1503731893
 10
21.7963801088
 20
18.1324926848
 10
21.7862252397
 20
18.1146915834
 10
21.7826996083
 20
18.097802181
 10
21.7859681618
 20
18.0826143078
 10
21.7958779747
 20
18.0698379773
 10
21.8119658626
 20
18.0600707101
 10
21.8334793507
 20
18.0537691763
 10
21.8594125996
 20
18.0512280272
 10
21.8885531193
 20
18.0525660359
 10
21.9195380699
 20
18.0577207434
 10
21.9509187227
 20
18.0664511061
 10
21.9812278143
 20
18.0783488278
 10
22.0090481735
 20
18.0928575822
  0
LINE
  5
315
330
1F
100
AcDbEntity
  8
0
  6
Continuous
 62
     7
370
    25
100
AcDbLine
 10
21.7809778262
 20
17.9849016527
 30
0.0
 11
21.7814636282
 21
17.9832312655
 31
0.0
  0
LWPOLYLINE
  5
316
330
1F
100
AcDbEntity
  8
0
  6
Continuous
 62
     7
370
    25
100
AcDbPolyline
 90
       29
 70
   128
 43
0.0
 10
22.0049834314
 20
18.0949305311
 10
21.9775631902
 20
18.0806995705
 10
21.9476577136
 20
18.0691507802
 10
21.9167665304
 20
18.0608633828
 10
21.8864387098
 20
18.056252936
 10
21.8581951067
 20
18.0555504871
 10
21.8334517309
 20
18.0587914444
 10
21.8134495888
 20
18.0658131809
 10
21.7991916489
 20
18.0762635001
 10
21.7913925745
 20
18.0896186357
 10
21.7904438241
 20
18.1052086854
 10
21.7963926197
 20
18.122252018
 10
21.8089409232
 20
18.1398939701
 10
21.8274595278
 20
18.1572498704
 10
21.8510196152
 20
18.1734494434
 10
21.8784399148
 20
18.1876804389
 10
21.908345333
 20
18.1992291944
 10
21.9392365162
 20
18.2075165917
 10
21.9695643367
 20
18.2121270385
 10
21.9978079398
 20
18.2128294874
 10
22.0225513157
 20
18.2095885301
 10
22.0425533591
 20
18.2025669086
 10
22.0568113977
 20
18.1921164744
 10
22.064610472
 20
18.1787613388
 10
22.0655592224
 20
18.1631712891
 10
22.0596104268
 20
18.1461279566
 10
22.0470621234
 20
18.1284860044
 10
22.0285435773
 20
18.111130139
 10
22.0049834314
 20
18.0949305311
  0
SPLINE
  5
317
330
1F
100
AcDbEntity
  8
0
  6
Continuous
 62
     7
370
    25
100
AcDbSpline
210
0.0
220
0.0
230
1.0
 70
     8
 71
     3
 72
    19
 73
    15
 74
     0
 42
0.000000001
 43
0.00000001
 40
0.0
 40
0.0
 40
0.0
 40
0.0
 40
0.0569144359484848
 40
0.1252302036626089
 40
0.1877816273714754
 40
0.2502385732249394
 40
0.375056457883768
 40
0.4992717907692302
 40
0.6226458096677453
 40
0.7494181039718021
 40
0.8104830691341348
 40
0.8727216017523866
 40
0.9359537295758662
 40
1.0
 40
1.0
 40
1.0
 40
1.0
 10
21.16222095936235
 20
17.9788180057362
 30
0.0
 10
21.15839167618867
 20
17.97180323457348
 30
0.0
 10
21.14996601222964
 20
17.95636846469981
 30
0.0
 10
21.13708937467756
 20
17.93349684755051
 30
0.0
 10
21.12358596778354
 20
17.91017485532989
 30
0.0
 10
21.10587254093914
 20
17.88037358095517
 30
0.0
 10
21.08328687389159
 20
17.84395970328379
 30
0.0
 10
21.0550267751213
 20
17.80202553263727
 30
0.0
 10
21.02538555609502
 20
17.76197913020579
 30
0.0
 10
20.99954094251806
 20
17.73082239733021
 30
0.0
 10
20.97810734668959
 20
17.70733647307575
 30
0.0
 10
20.96178637708159
 20
17.69064428146173
 30
0.0
 10
20.94490001500773
 20
17.674503163089
 30
0.0
 10
20.93330491516944
 20
17.66449169681448
 30
0.0
 10
20.92747028093408
 20
17.65945394425641
 30
0.0
  0
SPLINE
  5
318
330
1F
100
AcDbEntity
  8
0
  6
Continuous
 62
     7
370
    25
100
AcDbSpline
210
0.0
220
0.0
230
1.0
 70
     8
 71
     3
 72
    23
 73
    19
 74
     0
 42
0.000000001
 43
0.00000001
 40
0.0
 40
0.0
 40
0.0
 40
0.0
 40
0.0123966682362227
 40
0.0281658635092167
 40
0.0474242200198148
 40
0.0701915778203191
 40
0.0964409063459703
 40
0.126121788739071
 40
0.1775060219168384
 40
0.2514448113901104
 40
0.3221729751833232
 40
0.3760492686751125
 40
0.5009848268358319
 40
0.7503287298874858
 40
0.874577417174413
 40
0.9369462848043493
 40
0.9741409182181446
 40
1.0
 40
1.0
 40
1.0
 40
1.0
 10
21.24781999574053
 20
18.06527816008323
 30
0.0
 10
21.24744308728684
 20
18.06520430351997
 30
0.0
 10
21.2465867320259
 20
18.06503649763532
 30
0.0
 10
21.245077442769
 20
18.06440473262429
 30
0.0
 10
21.24323832117122
 20
18.0634911971516
 30
0.0
 10
21.24106271669244
 20
18.0622349995485
 30
0.0
 10
21.23856627707509
 20
18.06064302683282
 30
0.0
 10
21.23518186295735
 20
18.05829864540757
 30
0.0
 10
21.23034501902019
 20
18.05461354710759
 30
0.0
 10
21.2243153044464
 20
18.04960084269325
 30
0.0
 10
21.21831342326756
 20
18.04420891257583
 30
0.0
 10
21.21088009929299
 20
18.03716109635207
 30
0.0
 10
21.1983873177737
 20
18.02449951437292
 30
0.0
 10
21.18442663193815
 20
18.00871687862107
 30
0.0
 10
21.1729238342363
 20
17.99413027777477
 30
0.0
 10
21.16730025690384
 20
17.98640488948243
 30
0.0
 10
21.16425243500117
 20
17.98200163041787
 30
0.0
 10
21.1628117865151
 20
17.97974391982061
 30
0.0
 10
21.16222095936235
 20
17.9788180057362
 30
0.0
  0
SPLINE
  5
319
330
1F
100
AcDbEntity
  8
0
  6
Continuous
 62
     7
370
    25
100
AcDbSpline
210
0.0
220
0.0
230
1.0
 70
     8
 71
     3
 72
     9
 73
     5
 74
     0
 42
0.000000001
 43
0.00000001
 40
0.0
 40
0.0
 40
0.0
 40
0.0
 40
0.476532831112212
 40
1.0
 40
1.0
 40
1.0
 40
1.0
 10
21.33983079538514
 20
18.01936295096132
 30
0.0
 10
21.32523451488036
 20
18.0267705100904
 30
0.0
 10
21.29460434723647
 20
18.04231520847308
 30
0.0
 10
21.26389521713417
 20
18.05738803188477
 30
0.0
 10
21.24781999574052
 20
18.06527816008322
 30
0.0
  0
SPLINE
  5
31A
330
1F
100
AcDbEntity
  8
0
  6
Continuous
 62
     7
370
    25
100
AcDbSpline
210
0.0
220
0.0
230
1.0
 70
     8
 71
     3
 72
     8
 73
     4
 74
     0
 42
0.000000001
 43
0.00000001
 40
0.0
 40
0.0
 40
0.0
 40
0.0
 40
1.0
 40
1.0
 40
1.0
 40
1.0
 10
21.25907905631173
 20
18.07692024101724
 30
0.0
 10
21.25471473279482
 20
18.07422931641523
 30
0.0
 10
21.2506576169124
 20
18.07004482370739
 30
0.0
 10
21.2478200015511
 20
18.06527815611724
 30
0.0
  0
LINE
  5
31B
330
1F
100
AcDbEntity
  8
0
  6
Continuous
 62
     7
370
    25
100
AcDbLine
 10
21.2252022431
 20
18.05700235
 30
0.0
 11
21.2334350507
 21
18.0647876255
 31
0.0
  0
SPLINE
  5
31C
330
1F
100
AcDbEntity
  8
0
  6
Continuous
 62
     7
370
    25
100
AcDbSpline
210
0.0
220
0.0
230
1.0
 70
     8
 71
     3
 72
     8
 73
     4
 74
     0
 42
0.000000001
 43
0.00000001
 40
0.0
 40
0.0
 40
0.0
 40
0.0
 40
1.0
 40
1.0
 40
1.0
 40
1.0
 10
21.25531725885499
 20
18.07709673454731
 30
0.0
 10
21.25668747693085
 20
18.07718026780465
 30
0.0
 10
21.25793995421315
 20
18.07710739031364
 30
0.0
 10
21.2590790563117
 20
18.07692024101724
 30
0.0
  0
SPLINE
  5
31D
330
1F
100
AcDbEntity
  8
0
  6
Continuous
 62
     7
370
    25
100
AcDbSpline
210
0.0
220
0.0
230
1.0
 70
     8
 71
     3
 72
     8
 73
     4
 74
     0
 42
0.000000001
 43
0.00000001
 40
0.0
 40
0.0
 40
0.0
 40
0.0
 40
1.0
 40
1.0
 40
1.0
 40
1.0
 10
21.25531725885503
 20
18.07709673454731
 30
0.0
 10
21.25203708612588
 20
18.0742064734251
 30
0.0
 10
21.249444788409
 20
18.07009762791694
 30
0.0
 10
21.24782000392144
 20
18.06527815449965
 30
0.0
  0
LWPOLYLINE
  5
31E
330
1F
100
AcDbEntity
  8
0
  6
Continuous
 62
     8
370
    25
100
AcDbPolyline
 90
       23
 70
   128
 43
0.0
 10
22.1267492098
 20
18.1240069544
 10
22.137378941
 20
18.1168514658
 10
22.1501371703
 20
18.1023670421
 10
22.1561255635
 20
18.0852557049
 10
22.1551277492
 20
18.0661358522
 10
22.1471796645
 20
18.0456985658
 10
22.1325686217
 20
18.0246825307
 10
22.1118227971
 20
18.0038472365
 10
22.0856918787
 20
17.9839457728
 10
22.0551203763
 20
17.9656974179
 10
22.0212132109
 20
17.9497617072
 10
21.9851958476
 20
17.9367146365
 10
21.9483701434
 20
17.9270276986
 10
21.9120669152
 20
17.9210510503
 10
21.8775983029
 20
17.9190007319
 10
21.8462101757
 20
17.9209507807
 10
21.8190369443
 20
17.9268307836
 10
21.7970605861
 20
17.936428203
 10
21.7810756976
 20
17.9493960415
 10
21.7716596357
 20
17.9652658046
 10
21.7691531046
 20
17.9834637416
 10
21.7736463222
 20
18.0033323299
 10
21.7750948626
 20
18.0068170572
  0
LWPOLYLINE
  5
31F
330
1F
100
AcDbEntity
  8
0
  6
Continuous
 62
     8
370
    25
100
AcDbPolyline
 90
       10
 70
   128
 43
0.0
 10
26.0885725234
 20
15.9256254754
 10
26.1170525853
 20
15.9447872112
 10
26.1405976828
 20
15.965248168
 10
26.1583565029
 20
15.986269038
 10
26.1696872915
 20
16.0070900206
 10
26.174180509
 20
16.0269586089
 10
26.171673978
 20
16.0451565459
 10
26.162257916
 20
16.061026309
 10
26.146273086
 20
16.0739941824
 10
26.1444261332
 20
16.0750604569
  0
LWPOLYLINE
  5
320
330
1F
100
AcDbEntity
  8
0
  6
Continuous
 62
     8
370
    25
100
AcDbPolyline
 90
       14
 70
   128
 43
0.0
 10
25.792771786
 20
15.9578705598
 10
25.7882058645
 20
15.9442864983
 10
25.7872080501
 20
15.9251666456
 10
25.7931964433
 20
15.9080553084
 10
25.8059547312
 20
15.8935709196
 10
25.8250217724
 20
15.8822369075
 10
25.8497081899
 20
15.8744630757
 10
25.8791221379
 20
15.870530198
 10
25.9122001712
 20
15.870580616
 10
25.9477471516
 20
15.8746123166
 10
25.9844780218
 20
15.8824796921
 10
26.0210652657
 20
15.893898388
 10
26.0561864246
 20
15.9084557516
 10
26.0885725234
 20
15.9256254754
  0
SPLINE
  5
321
330
1F
100
AcDbEntity
  8
0
  6
Continuous
 62
     8
370
    25
100
AcDbSpline
210
0.0
220
0.0
230
1.0
 70
     8
 71
     3
 72
    11
 73
     7
 74
     0
 42
0.000000001
 43
0.00000001
 40
0.0
 40
0.0
 40
0.0
 40
0.0
 40
0.2419223920559657
 40
0.4901537028403044
 40
0.7453800010893835
 40
1.0
 40
1.0
 40
1.0
 40
1.0
 10
24.92554906420336
 20
14.96165307779629
 30
0.0
 10
24.90916130840739
 20
14.95734979296729
 30
0.0
 10
24.87595843240912
 20
14.94863100106304
 30
0.0
 10
24.82731070774083
 20
14.94416681024513
 30
0.0
 10
24.78069855984544
 20
14.9459198894211
 30
0.0
 10
24.75389180736905
 20
14.9534964885282
 30
0.0
 10
24.74050437016619
 20
14.95728028310932
 30
0.0
  0
LWPOLYLINE
  5
322
330
1F
100
AcDbEntity
  8
0
  6
Continuous
 62
     8
370
    25
100
AcDbPolyline
 90
       17
 70
   128
 43
0.0
 10
24.8101405558
 20
14.7641659686
 10
24.8446189019
 20
14.7575490735
 10
24.8834996129
 20
14.7551196135
 10
24.9257482609
 20
14.7569421108
 10
24.9702416071
 20
14.762968244
 10
25.0157956207
 20
14.7730375705
 10
25.061199257
 20
14.7868825581
 10
25.1052442001
 20
14.8041345102
 10
25.1467593781
 20
14.8243349507
 10
25.1846402396
 20
14.846946316
 10
25.2178794843
 20
14.8713673409
 10
25.2455926655
 20
14.8969483416
 10
25.2670428762
 20
14.9230089077
 10
25.2816596399
 20
14.9488559612
 10
25.2890538474
 20
14.973801891
 10
25.289029168
 20
14.9971831914
 10
25.2878561317
 20
15.0027230872
  0
SPLINE
  5
323
330
1F
100
AcDbEntity
  8
0
  6
Continuous
 62
     8
370
    25
100
AcDbSpline
210
0.0
220
0.0
230
1.0
 70
     8
 71
     3
 72
    11
 73
     7
 74
     0
 42
0.000000001
 43
0.00000001
 40
0.0
 40
0.0
 40
0.0
 40
0.0
 40
0.3249387603125561
 40
0.647536248247863
 40
0.9711957218901741
 40
1.0
 40
1.0
 40
1.0
 40
1.0
 10
24.74050437016619
 20
14.95728028310932
 30
0.0
 10
24.74000943843634
 20
14.95852887120166
 30
0.0
 10
24.73902314109471
 20
14.96101705096866
 30
0.0
 10
24.73667839985211
 20
14.96362144786542
 30
0.0
 10
24.73481209858496
 20
14.965074023453
 30
0.0
 10
24.73368035174245
 20
14.96528626827977
 30
0.0
 10
24.73358786237116
 20
14.96530361349324
 30
0.0
  0
ARC
  5
324
330
1F
100
AcDbEntity
  8
0
  6
Continuous
 62
     8
370
    25
100
AcDbCircle
 10
24.8198381212
 20
14.7672267955
 30
0.0
 40
0.0101691413718668
100
AcDbArc
 50
197.5171751665
 51
237.8321972575
  0
SPLINE
  5
325
330
1F
100
AcDbEntity
  8
0
  6
Continuous
 62
     8
370
    25
100
AcDbSpline
210
0.0
220
0.0
230
1.0
 70
     8
 71
     3
 72
    12
 73
     8
 74
     0
 42
0.000000001
 43
0.00000001
 40
0.0
 40
0.0
 40
0.0
 40
0.0
 40
0.2232765167826892
 40
0.4463318685217967
 40
0.6689365709966901
 40
0.8914022366783964
 40
0.9999999999999999
 40
0.9999999999999999
 40
0.9999999999999999
 40
0.9999999999999999
 10
24.62670090969255
 20
14.84781453327581
 30
0.0
 10
24.62600574951825
 20
14.84860948478953
 30
0.0
 10
24.62461611775586
 20
14.85019860038312
 30
0.0
 10
24.62319493801998
 20
14.85218344986913
 30
0.0
 10
24.6224019042296
 20
14.85371916142861
 30
0.0
 10
24.62217116455139
 20
14.85467760145576
 30
0.0
 10
24.62245474714085
 20
14.85489942824389
 30
0.0
 10
24.62254776990397
 20
14.85497219343306
 30
0.0
  0
SPLINE
  5
326
330
1F
100
AcDbEntity
  8
0
  6
Continuous
 62
     8
370
    25
100
AcDbSpline
210
0.0
220
0.0
230
1.0
 70
     8
 71
     3
 72
    12
 73
     8
 74
     0
 42
0.000000001
 43
0.00000001
 40
0.0
 40
0.0
 40
0.0
 40
0.0
 40
0.22601858886747
 40
0.4526812845854571
 40
0.6782017377964671
 40
0.9044591132953891
 40
1.0
 40
1.0
 40
1.0
 40
1.0
 10
24.71783422627998
 20
14.9530799186902
 30
0.0
 10
24.71715181623997
 20
14.95391466404655
 30
0.0
 10
24.7157850514306
 20
14.95558653361314
 30
0.0
 10
24.71437186038018
 20
14.95760744663182
 30
0.0
 10
24.71355406738699
 20
14.95911310248844
 30
0.0
 10
24.71329111174959
 20
14.95997757907887
 30
0.0
 10
24.71352687631326
 20
14.96010710284443
 30
0.0
 10
24.71359687406686
 20
14.96014555804095
 30
0.0
  0
SPLINE
  5
327
330
1F
100
AcDbEntity
  8
0
  6
Continuous
 62
     8
370
    25
100
AcDbSpline
210
0.0
220
0.0
230
1.0
 70
     8
 71
     3
 72
    12
 73
     8
 74
     0
 42
0.000000001
 43
0.00000001
 40
0.0
 40
0.0
 40
0.0
 40
0.0
 40
0.2022035582553946
 40
0.4044165942559198
 40
0.6066282838484528
 40
0.8088281198619126
 40
1.0
 40
1.0
 40
1.0
 40
1.0
 10
24.62670090969255
 20
14.84781453327581
 30
0.0
 10
24.62554607809771
 20
14.84711934685258
 30
0.0
 10
24.62323636077841
 20
14.84572894142113
 30
0.0
 10
24.62063233201071
 20
14.84337062870561
 30
0.0
 10
24.6188794780736
 20
14.84096623413444
 30
0.0
 10
24.61801378034278
 20
14.83862705795627
 30
0.0
 10
24.61826421737296
 20
14.83724502069825
 30
0.0
 10
24.61838592545707
 20
14.83657337438972
 30
0.0
  0
SPLINE
  5
328
330
1F
100
AcDbEntity
  8
0
  6
Continuous
 62
     8
370
    25
100
AcDbSpline
210
0.0
220
0.0
230
1.0
 70
     8
 71
     3
 72
    12
 73
     8
 74
     0
 42
0.000000001
 43
0.00000001
 40
0.0
 40
0.0
 40
0.0
 40
0.0
 40
0.1919643169281218
 40
0.3938364315956168
 40
0.5956605570443789
 40
0.7978254057321164
 40
1.0
 40
1.0
 40
1.0
 40
1.0
 10
24.66507484451515
 20
14.68124301495079
 30
0.0
 10
24.66492629401209
 20
14.68207455107927
 30
0.0
 10
24.66462152591262
 20
14.68378054116546
 30
0.0
 10
24.66568806926964
 20
14.68672776084821
 30
0.0
 10
24.66783445500936
 20
14.68979567690929
 30
0.0
 10
24.67103305068602
 20
14.69284994491676
 30
0.0
 10
24.6738677857875
 20
14.69469050179328
 30
0.0
 10
24.6752851875003
 20
14.69561080241253
 30
0.0
  0
SPLINE
  5
329
330
1F
100
AcDbEntity
  8
0
  6
Continuous
 62
     8
370
    25
100
AcDbSpline
210
0.0
220
0.0
230
1.0
 70
     8
 71
     3
 72
    13
 73
     9
 74
     0
 42
0.000000001
 43
0.00000001
 40
0.0
 40
0.0
 40
0.0
 40
0.0
 40
0.1677855720830566
 40
0.335571239893081
 40
0.5033567188103033
 40
0.671142325045918
 40
0.8389278673681465
 40
1.0
 40
1.0
 40
1.0
 40
1.0
 10
27.03833534688318
 20
15.94171437118317
 30
0.0
 10
27.05482041775275
 20
15.95227911284307
 30
0.0
 10
27.08779056889717
 20
15.9734086021904
 30
0.0
 10
27.12675300797883
 20
16.0082521592552
 30
0.0
 10
27.15610807915432
 20
16.04376344878889
 30
0.0
 10
27.17379132070987
 20
16.07878037284873
 30
0.0
 10
27.18039500141889
 20
16.11184267078129
 30
0.0
 10
27.17468060457607
 20
16.13096461742282
 30
0.0
 10
27.17188173395125
 20
16.14033040986192
 30
0.0
  0
SPLINE
  5
32A
330
1F
100
AcDbEntity
  8
0
  6
Continuous
 62
     8
370
    25
100
AcDbSpline
210
0.0
220
0.0
230
1.0
 70
     8
 71
     3
 72
    12
 73
     8
 74
     0
 42
0.000000001
 43
0.00000001
 40
0.0
 40
0.0
 40
0.0
 40
0.0
 40
0.076598184671553
 40
0.1877654212173976
 40
0.3379198166569374
 40
0.7953877634942961
 40
1.0
 40
1.0
 40
1.0
 40
1.0
 10
27.02351441145854
 20
16.21790008371921
 30
0.0
 10
27.02563180834303
 20
16.21888833032106
 30
0.0
 10
27.03082219137373
 20
16.2213108229723
 30
0.0
 10
27.04047888481532
 20
16.22261736717031
 30
0.0
 10
27.06039640358618
 20
16.22251335630145
 30
0.0
 10
27.0826384846916
 20
16.21845907718752
 30
0.0
 10
27.09776438448056
 20
16.20913507381433
 30
0.0
 10
27.10243896055584
 20
16.20625354189211
 30
0.0
  0
LWPOLYLINE
  5
32B
330
1F
100
AcDbEntity
  8
0
  6
Continuous
 62
     8
370
    25
100
AcDbPolyline
 90
        7
 70
   128
 43
0.0
 10
24.6750249046
 20
14.6872863929
 10
24.6750391127
 20
14.6872973774
 10
24.6757438497
 20
14.6881931501
 10
24.6761288192
 20
14.6895290953
 10
24.676179957
 20
14.691255441
 10
24.6758952832
 20
14.6933080718
 10
24.6752851875
 20
14.6956108024
  0
LWPOLYLINE
  5
32C
330
1F
100
AcDbEntity
  8
0
  6
Continuous
 62
     8
370
    25
100
AcDbPolyline
 90
        7
 70
   128
 43
0.0
 10
24.7796032571
 20
14.749694716
 10
24.7798109989
 20
14.7498364879
 10
24.780515736
 20
14.7507322606
 10
24.7809007054
 20
14.7520682057
 10
24.7809518433
 20
14.7537945514
 10
24.7806671695
 20
14.7558471823
 10
24.7800570737
 20
14.7581499129
  0
LWPOLYLINE
  5
32D
330
1F
100
AcDbEntity
  8
0
  6
Continuous
 62
     8
370
    25
100
AcDbPolyline
 90
        7
 70
   128
 43
0.0
 10
26.0516934601
 20
16.0106264834
 10
26.0781960897
 20
16.0285252584
 10
26.0999231707
 20
16.0476523079
 10
26.1160396419
 20
16.0672724585
 10
26.1259263872
 20
16.0866317702
 10
26.1292034733
 20
16.1049861895
 10
26.1261517876
 20
16.1206659831
  0
LWPOLYLINE
  5
32E
330
1F
100
AcDbEntity
  8
0
  6
Continuous
 62
     8
370
    25
100
AcDbPolyline
 90
       12
 70
   128
 43
0.0
 10
25.7802073332
 20
16.0046853649
 10
25.7821141314
 20
15.9993383896
 10
25.7921755955
 20
15.9850439014
 10
25.808453249
 20
15.9736485186
 10
25.8303212869
 20
15.9655902514
 10
25.8569396111
 20
15.961178675
 10
25.8872852053
 20
15.9605833938
 10
25.9201917916
 20
15.9638272749
 10
25.9543950226
 20
15.9707855949
 10
25.9885803902
 20
15.9811909822
 10
26.0214340709
 20
15.9946435914
 10
26.0516934601
 20
16.0106264834
  0
LWPOLYLINE
  5
32F
330
1F
100
AcDbEntity
  8
0
  6
Continuous
 62
     8
370
    25
100
AcDbPolyline
 90
       12
 70
   128
 43
0.0
 10
26.0765876696
 20
15.941602093
 10
26.045622745
 20
15.9252467622
 10
26.0120032604
 20
15.9114805314
 10
25.9770211442
 20
15.9008326253
 10
25.9420207206
 20
15.8937120511
 10
25.9083470578
 20
15.8903925947
 10
25.8772941502
 20
15.891001718
 10
25.8500553036
 20
15.8955161638
 10
25.827677556
 20
15.9037622298
 10
25.8110205481
 20
15.9154232213
 10
25.8007246403
 20
15.9300508581
 10
25.7998370573
 20
15.9322491468
  0
LWPOLYLINE
  5
330
330
1F
100
AcDbEntity
  8
0
  6
Continuous
 62
     8
370
    25
100
AcDbPolyline
 90
        7
 70
   128
 43
0.0
 10
26.1528658947
 20
16.0539972448
 10
26.1559042683
 20
16.0381613167
 10
26.1525508667
 20
16.0193790457
 10
26.1424336124
 20
15.9995685457
 10
26.1259413949
 20
15.9794910429
 10
26.1037078395
 20
15.9599181829
 10
26.0765876696
 20
15.941602093
  0
LWPOLYLINE
  5
331
330
1F
100
AcDbEntity
  8
0
  6
Continuous
 62
     8
370
    25
100
AcDbPolyline
 90
       15
 70
   128
 43
0.0
 10
25.847629362
 20
16.0237316453
 10
25.8471289256
 20
16.0251365763
 10
25.8464189029
 20
16.0388308376
 10
25.8524643597
 20
16.0538855804
 10
25.8648849431
 20
16.0693550902
 10
25.882900712
 20
16.0842671558
 10
25.905379438
 20
16.0976848729
 10
25.9309087259
 20
16.1087651724
 10
25.9578846313
 20
16.116811717
 10
25.9846117502
 20
16.1213191659
 10
26.0094111744
 20
16.1220040458
 10
26.0307243865
 20
16.1188234572
 10
26.0472123819
 20
16.111977193
 10
26.0578390648
 20
16.1018954244
 10
26.0611944867
 20
16.0942109163
  0
SPLINE
  5
332
330
1F
100
AcDbEntity
  8
0
  6
Continuous
 62
     8
370
    25
100
AcDbSpline
210
0.0
220
0.0
230
1.0
 70
     8
 71
     3
 72
    11
 73
     7
 74
     0
 42
0.000000001
 43
0.00000001
 40
0.0
 40
0.0
 40
0.0
 40
0.0
 40
0.4369402091150758
 40
0.8309371643348389
 40
0.9300714040445521
 40
1.0
 40
1.0
 40
1.0
 40
1.0
 10
24.74591798104285
 20
17.40927095236152
 30
0.0
 10
24.73522607664612
 20
17.41407573036407
 30
0.0
 10
24.71489308706212
 20
17.42321306431825
 30
0.0
 10
24.68910379631913
 20
17.42563087608219
 30
0.0
 10
24.67306526345424
 20
17.4230939490108
 30
0.0
 10
24.66840493718923
 20
17.4208689829656
 30
0.0
 10
24.66647731027393
 20
17.41994868164108
 30
0.0
  0
ARC
  5
333
330
1F
100
AcDbEntity
  8
0
  6
Continuous
 62
     8
370
    25
100
AcDbCircle
 10
26.0249742083
 20
15.8473245551
 30
0.0
 40
0.2047001005565881
100
AcDbArc
 50
90.6364043834
 51
126.3353500658
  0
LINE
  5
334
330
1F
100
AcDbEntity
  8
0
  6
Continuous
 62
     8
370
    25
100
AcDbLine
 10
23.3379040071
 20
16.1777271023
 30
0.0
 11
23.3593112916
 21
16.1188575239
 31
0.0
  0
LINE
  5
335
330
1F
100
AcDbEntity
  8
0
  6
Continuous
 62
     8
370
    25
100
AcDbLine
 10
23.2694531487
 20
16.0428758892
 30
0.0
 11
23.1936671192
 21
16.2512854476
 31
0.0
  0
LINE
  5
336
330
1F
100
AcDbEntity
  8
0
  6
Continuous
 62
     8
370
    25
100
AcDbLine
 10
22.6433633501
 20
16.1069288483
 30
0.0
 11
22.6030417251
 21
16.2394995188
 31
0.0
  0
ARC
  5
337
330
1F
100
AcDbEntity
  8
0
  6
Continuous
 62
     8
370
    25
100
AcDbCircle
 10
23.1306937714
 20
15.7009030663
 30
0.0
 40
0.4204734680919405
100
AcDbArc
 50
75.0670019663
 51
105.4010980218
  0
LWPOLYLINE
  5
338
330
1F
100
AcDbEntity
  8
0
  6
Continuous
 62
     8
370
    25
100
AcDbPolyline
 90
        7
 70
   128
 43
0.0
 10
23.019026701
 20
16.1062774645
 10
23.0198453002
 20
16.1040568174
 10
23.0206593036
 20
16.1022122672
 10
23.021438514
 20
16.100812372
 10
23.022154001
 20
16.0999091885
 10
23.0227789882
 20
16.0995361767
 10
23.0229875492
 20
16.0995369865
  0
ARC
  5
339
330
1F
100
AcDbEntity
  8
0
  6
Continuous
 62
     8
370
    25
100
AcDbCircle
 10
22.7460059663
 20
15.9478326275
 30
0.0
 40
0.2463212777735673
100
AcDbArc
 50
71.830269963
 51
117.0555110669
  0
ARC
  5
33A
330
1F
100
AcDbEntity
  8
0
  6
Continuous
 62
     8
370
    25
100
AcDbCircle
 10
22.9769305713
 20
16.111639051
 30
0.0
 40
0.0104215474077931
100
AcDbArc
 50
198.6103074907
 51
242.3251718053
  0
ARC
  5
33B
330
1F
100
AcDbEntity
  8
0
  6
Continuous
 62
     8
370
    25
100
AcDbCircle
 10
22.8326946425
 20
16.1851980011
 30
0.0
 40
0.0104226494473457
100
AcDbArc
 50
198.6117754075
 51
242.2752695469
  0
SPLINE
  5
33C
330
1F
100
AcDbEntity
  8
0
  6
Continuous
 62
     8
370
    25
100
AcDbSpline
210
0.0
220
0.0
230
1.0
 70
     8
 71
     3
 72
    12
 73
     8
 74
     0
 42
0.000000001
 43
0.00000001
 40
0.0
 40
0.0
 40
0.0
 40
0.0
 40
0.0766309325934783
 40
0.1878456963228804
 40
0.3380642870751379
 40
0.7957278145867723
 40
1.0
 40
1.0
 40
1.0
 40
1.0
 10
22.30944020908931
 20
18.62199727956295
 30
0.0
 10
22.31155760561811
 20
18.62298552545221
 30
0.0
 10
22.3167479877769
 20
18.62540801635665
 30
0.0
 10
22.3264046911888
 20
18.62671458052931
 30
0.0
 10
22.3463221157684
 20
18.62661038095651
 30
0.0
 10
22.36855337653485
 20
18.62256000200412
 30
0.0
 10
22.38366992798552
 20
18.61324284808457
 30
0.0
 10
22.38833486891626
 20
18.61036759093223
 30
0.0
  0
SPLINE
  5
33D
330
1F
100
AcDbEntity
  8
0
  6
Continuous
 62
     8
370
    25
100
AcDbSpline
210
0.0
220
0.0
230
1.0
 70
     8
 71
     3
 72
    12
 73
     8
 74
     0
 42
0.000000001
 43
0.00000001
 40
0.0
 40
0.0
 40
0.0
 40
0.0
 40
0.2331059200654617
 40
0.4667297074735865
 40
0.7002854969195565
 40
0.9374218596314434
 40
1.0
 40
1.0
 40
1.0
 40
1.0
 10
20.56078588921158
 20
16.83059359267349
 30
0.0
 10
20.53868933858386
 20
16.84262710141871
 30
0.0
 10
20.49444714770447
 20
16.86672085251246
 30
0.0
 10
20.43890528639202
 20
16.90853457077445
 30
0.0
 10
20.39530764085448
 20
16.95645089310499
 30
0.0
 10
20.37269705682919
 20
16.99743072160202
 30
0.0
 10
20.36843497768209
 20
17.02321660881464
 30
0.0
 10
20.36754508752199
 20
17.02860050866912
 30
0.0
  0
LWPOLYLINE
  5
33E
330
1F
100
AcDbEntity
  8
0
  6
Continuous
 62
     8
370
    25
100
AcDbPolyline
 90
       18
 70
   128
 43
0.0
 10
22.108534961
 20
18.1694638129
 10
22.1115263927
 20
18.1539327671
 10
22.1082494638
 20
18.1355782676
 10
22.0983627184
 20
18.1162189559
 10
22.0822460902
 20
18.0965988854
 10
22.0605190091
 20
18.077471836
 10
22.0340165367
 20
18.0595729808
 10
22.0037569904
 20
18.0435901689
 10
21.9709033096
 20
18.0301375597
 10
21.9367180992
 20
18.0197320923
 10
21.9025148681
 20
18.0127737723
 10
21.8696081247
 20
18.0095299713
 10
21.8392626877
 20
18.0101251724
 10
21.8126443634
 20
18.0145367488
 10
21.7907761684
 20
18.0225950961
 10
21.7744986721
 20
18.0339903988
 10
21.764437208
 20
18.048284887
 10
21.7625230161
 20
18.0536584085
  0
LWPOLYLINE
  5
33F
330
1F
100
AcDbEntity
  8
0
  6
Continuous
 62
     8
370
    25
100
AcDbPolyline
 90
       18
 70
   128
 43
0.0
 10
21.7814636282
 20
17.9832312655
 10
21.7830475597
 20
17.9789974357
 10
21.7933436246
 20
17.9643697187
 10
21.8100004754
 20
17.9527088074
 10
21.8323783801
 20
17.9444626612
 10
21.8596170696
 20
17.9399482956
 10
21.8906701343
 20
17.9393390921
 10
21.9243437972
 20
17.9426585485
 10
21.9593442208
 20
17.9497791227
 10
21.994326337
 20
17.9604270288
 10
22.0279458216
 20
17.9741932596
 10
22.0589107461
 20
17.9905485904
 10
22.0860309161
 20
18.0088646803
 10
22.1082644714
 20
18.0284375403
 10
22.1247566889
 20
18.0485150431
 10
22.1348739433
 20
18.0683255432
 10
22.1382273448
 20
18.0871078142
 10
22.1351889713
 20
18.1029437422
  0
LWPOLYLINE
  5
340
330
1F
100
AcDbEntity
  8
0
  6
Continuous
 62
     8
370
    25
100
AcDbPolyline
 90
        6
 70
   128
 43
0.0
 10
21.8759879784
 20
18.140164842
 10
21.8555797961
 20
18.1258873641
 10
21.8402406257
 20
18.1105759145
 10
21.8309342381
 20
18.0951924219
 10
21.8282453518
 20
18.0807037085
 10
21.8301378551
 20
18.0722160674
  0
LWPOLYLINE
  5
341
330
1F
100
AcDbEntity
  8
0
  6
Continuous
 62
     8
370
    25
100
AcDbPolyline
 90
       10
 70
   128
 43
0.0
 10
22.0434097249
 20
18.1435727434
 10
22.0430531137
 20
18.1447788012
 10
22.0356324892
 20
18.1562519776
 10
22.0219674139
 20
18.1647832636
 10
22.0029165135
 20
18.1698365548
 10
21.979676965
 20
18.1710943536
 10
21.9537089332
 20
18.1684775415
 10
21.9266439486
 20
18.1621506943
 10
21.9001827756
 20
18.152511211
 10
21.8759879784
 20
18.140164842
  0
ARC
  5
342
330
1F
100
AcDbEntity
  8
0
  6
Continuous
 62
     8
370
    25
100
AcDbCircle
 10
22.0072945727
 20
17.8963029705
 30
0.0
 40
0.2046691932965471
100
AcDbArc
 50
90.6590255672
 51
126.4179397258
  0
SPLINE
  5
343
330
1F
100
AcDbEntity
  8
0
  6
Continuous
 62
     8
370
    25
100
AcDbSpline
210
0.0
220
0.0
230
1.0
 70
     8
 71
     3
 72
     9
 73
     5
 74
     0
 42
0.000000001
 43
0.00000001
 40
0.0
 40
0.0
 40
0.0
 40
0.0
 40
0.4865789631937134
 40
1.0
 40
1.0
 40
1.0
 40
1.0
 10
21.15721931779312
 20
17.97773523734962
 30
0.0
 10
21.15760730229431
 20
17.97817313416324
 30
0.0
 10
21.15840467441796
 20
17.97907308431881
 30
0.0
 10
21.16092664446207
 20
17.9789042789898
 30
0.0
 10
21.16222147693692
 20
17.97881761078277
 30
0.0
  0
LINE
  5
344
330
1F
100
AcDbEntity
  8
0
  6
Continuous
 62
     8
370
    25
100
AcDbLine
 10
21.2160935662
 20
18.0483888632
 30
0.0
 11
21.2252022431
 21
18.05700235
 31
0.0
  0
SPLINE
  5
345
330
1F
100
AcDbEntity
  8
0
  6
Continuous
 62
     8
370
    25
100
AcDbSpline
210
0.0
220
0.0
230
1.0
 70
     8
 71
     3
 72
    10
 73
     6
 74
     0
 42
0.000000001
 43
0.00000001
 40
0.0
 40
0.0
 40
0.0
 40
0.0
 40
0.1898079698435016
 40
0.8155312774897958
 40
0.9999999999999999
 40
0.9999999999999999
 40
0.9999999999999999
 40
0.9999999999999999
 10
21.23343505066457
 20
18.06478762552851
 30
0.0
 10
21.2347958328914
 20
18.06612381068049
 30
0.0
 10
21.24064258668549
 20
18.07186488037771
 30
0.0
 10
21.24837030029162
 20
18.07608091896977
 30
0.0
 10
21.25402886212925
 20
18.0769084063509
 30
0.0
 10
21.25531723282975
 20
18.0770968129686
 30
0.0
  0
SPLINE
  5
346
330
1F
100
AcDbEntity
  8
0
  6
Continuous
 62
     8
370
    25
100
AcDbSpline
210
0.0
220
0.0
230
1.0
 70
     8
 71
     3
 72
    11
 73
     7
 74
     0
 42
0.000000001
 43
0.00000001
 40
0.0
 40
0.0
 40
0.0
 40
0.0
 40
0.217975811186754
 40
0.5343250065627305
 40
0.9616174533663308
 40
0.9999999999999999
 40
0.9999999999999999
 40
0.9999999999999999
 40
0.9999999999999999
 10
21.41867010051199
 20
18.21097630295613
 30
0.0
 10
21.41688797713406
 20
18.21111334496143
 30
0.0
 10
21.41251945073461
 20
18.21144927659525
 30
0.0
 10
21.40627887668731
 20
18.20903107384716
 30
0.0
 10
21.40120739401645
 20
18.20699921627451
 30
0.0
 10
21.39918724004244
 20
18.2046026465733
 30
0.0
 10
21.39902073195159
 20
18.20440511299385
 30
0.0
  0
SPLINE
  5
347
330
1F
100
AcDbEntity
  8
0
  6
Continuous
 62
     8
370
    25
100
AcDbSpline
210
0.0
220
0.0
230
1.0
 70
     8
 71
     3
 72
     9
 73
     5
 74
     0
 42
0.000000001
 43
0.00000001
 40
0.0
 40
0.0
 40
0.0
 40
0.0
 40
0.4832455729190537
 40
1.0
 40
1.0
 40
1.0
 40
1.0
 10
21.15768956442744
 20
17.97852401984808
 30
0.0
 10
21.15799850090501
 20
17.97884182236346
 30
0.0
 10
21.158637795903
 20
17.97949946421926
 30
0.0
 10
21.16100052580175
 20
17.9790499165375
 30
0.0
 10
21.16222147693692
 20
17.97881761078277
 30
0.0
  0
SPLINE
  5
348
330
1F
100
AcDbEntity
  8
0
  6
Continuous
 62
     8
370
    25
100
AcDbSpline
210
0.0
220
0.0
230
1.0
 70
     8
 71
     3
 72
    10
 73
     6
 74
     0
 42
0.000000001
 43
0.00000001
 40
0.0
 40
0.0
 40
0.0
 40
0.0
 40
0.2862155390394879
 40
0.7016104538492781
 40
1.0
 40
1.0
 40
1.0
 40
1.0
 10
21.58484668099534
 20
18.32802172933301
 30
0.0
 10
21.58355480505167
 20
18.3284862468097
 30
0.0
 10
21.58038798304684
 20
18.32962493522171
 30
0.0
 10
21.5768238161825
 20
18.32907573563839
 30
0.0
 10
21.57477343597929
 20
18.32787501456384
 30
0.0
 10
21.5739162976529
 20
18.32737306665648
 30
0.0
  0
SPLINE
  5
349
330
1F
100
AcDbEntity
  8
0
  6
Continuous
 62
     8
370
    25
100
AcDbSpline
210
0.0
220
0.0
230
1.0
 70
     8
 71
     3
 72
    10
 73
     6
 74
     0
 42
0.000000001
 43
0.00000001
 40
0.0
 40
0.0
 40
0.0
 40
0.0
 40
0.2862151576285041
 40
0.7016095188828038
 40
1.0
 40
1.0
 40
1.0
 40
1.0
 10
21.99803495302716
 20
18.57465685181111
 30
0.0
 10
21.99674307773822
 20
18.57512136816745
 30
0.0
 10
21.99357625733835
 20
18.57626005383312
 30
0.0
 10
21.99001207118933
 20
18.57571087838972
 30
0.0
 10
21.98796171897138
 20
18.57451010070332
 30
0.0
 10
21.98710459011622
 20
18.57400812782537
 30
0.0
  0
ENDSEC
  0
SECTION
  2
OBJECTS
  0
DICTIONARY
  5
C
330
0
100
AcDbDictionary
281
     1
  3
ACAD_GROUP
350
D
  3
ACAD_LAYOUT
350
1A
  3
ACAD_MLINESTYLE
350
17
  3
ACAD_PLOTSETTINGS
350
19
  3
ACAD_PLOTSTYLENAME
350
E
  3
ACAD_SCALELIST
350
47
  0
DICTIONARY
  5
D
102
{ACAD_REACTORS
330
C
102
}
330
C
100
AcDbDictionary
281
     1
  0
DICTIONARY
  5
1A
102
{ACAD_REACTORS
330
C
102
}
330
C
100
AcDbDictionary
281
     1
  3
Layout1
350
1E
  3
Layout2
350
26
  3
Model
350
22
  0
DICTIONARY
  5
17
102
{ACAD_REACTORS
330
C
102
}
330
C
100
AcDbDictionary
281
     1
  3
Standard
350
18
  0
DICTIONARY
  5
19
102
{ACAD_REACTORS
330
C
102
}
330
C
100
AcDbDictionary
281
     1
  0
ACDBDICTIONARYWDFLT
  5
E
102
{ACAD_REACTORS
330
C
102
}
330
C
100
AcDbDictionary
281
     1
  3
Normal
350
F
100
AcDbDictionaryWithDefault
340
F
  0
DICTIONARY
  5
47
102
{ACAD_REACTORS
330
C
102
}
330
C
100
AcDbDictionary
281
     1
  3
A0
350
48
  3
A1
350
49
  3
A2
350
4A
  3
A3
350
4B
  3
A4
350
4C
  3
A5
350
4D
  3
A6
350
4E
  3
A7
350
4F
  3
A8
350
50
  3
A9
350
51
  3
B0
350
52
  3
B1
350
53
  3
B2
350
54
  3
B3
350
55
  3
B4
350
56
  3
B5
350
57
  3
B6
350
58
  3
B7
350
59
  3
B8
350
5A
  3
B9
350
5B
  3
C0
350
5C
  3
C1
350
5D
  3
C2
350
5E
  3
C3
350
5F
  3
C4
350
60
  3
C5
350
61
  3
C6
350
62
  3
C7
350
63
  3
C8
350
64
  3
C9
350
65
  3
D0
350
66
  3
D1
350
67
  3
D2
350
68
  0
LAYOUT
  5
1E
102
{ACAD_REACTORS
330
1A
102
}
330
1A
100
AcDbPlotSettings
  1

  2
none_device
  4

  6

 40
0.0
 41
0.0
 42
0.0
 43
0.0
 44
0.0
 45
0.0
 46
0.0
 47
0.0
 48
0.0
 49
0.0
140
0.0
141
0.0
142
1.0
143
1.0
 70
   688
 72
     0
 73
     0
 74
     5
  7

 75
    16
147
1.0
148
0.0
149
0.0
100
AcDbLayout
  1
Layout1
 70
     1
 71
     1
 10
0.0
 20
0.0
 11
12.0
 21
9.0
 12
0.0
 22
0.0
 32
0.0
 14
1.0000000000E+20
 24
1.0000000000E+20
 34
1.0000000000E+20
 15
-1.0000000000E+20
 25
-1.0000000000E+20
 35
-1.0000000000E+20
146
0.0
 13
0.0
 23
0.0
 33
0.0
 16
1.0
 26
0.0
 36
0.0
 17
0.0
 27
1.0
 37
0.0
 76
     0
330
1B
  0
LAYOUT
  5
26
102
{ACAD_REACTORS
330
1A
102
}
330
1A
100
AcDbPlotSettings
  1

  2
none_device
  4

  6

 40
0.0
 41
0.0
 42
0.0
 43
0.0
 44
0.0
 45
0.0
 46
0.0
 47
0.0
 48
0.0
 49
0.0
140
0.0
141
0.0
142
1.0
143
1.0
 70
   688
 72
     0
 73
     0
 74
     5
  7

 75
    16
147
1.0
148
0.0
149
0.0
100
AcDbLayout
  1
Layout2
 70
     1
 71
     2
 10
0.0
 20
0.0
 11
0.0
 21
0.0
 12
0.0
 22
0.0
 32
0.0
 14
0.0
 24
0.0
 34
0.0
 15
0.0
 25
0.0
 35
0.0
146
0.0
 13
0.0
 23
0.0
 33
0.0
 16
1.0
 26
0.0
 36
0.0
 17
0.0
 27
1.0
 37
0.0
 76
     0
330
23
  0
LAYOUT
  5
22
102
{ACAD_REACTORS
330
1A
102
}
330
1A
100
AcDbPlotSettings
  1

  2
none_device
  4
Letter_(8.50_x_11.00_Inches)
  6

 40
6.35
 41
6.35
 42
6.35000508
 43
6.35000508
 44
215.9
 45
279.4
 46
0.0
 47
0.0
 48
0.0
 49
0.0
140
0.0
141
0.0
142
1.0
143
1.0
 70
  1712
 72
     0
 73
     0
 74
     0
  7

 75
     0
147
1.0
148
0.0
149
0.0
100
AcDbLayout
  1
Model
 70
     1
 71
     0
 10
0.0
 20
0.0
 11
30.0
 21
22.0
 12
0.0
 22
0.0
 32
0.0
 14
0.0
 24
0.0
 34
0.0
 15
30.0
 25
22.0
 35
0.0
146
0.0
 13
0.0
 23
0.0
 33
0.0
 16
1.0
 26
0.0
 36
0.0
 17
0.0
 27
1.0
 37
0.0
 76
     0
330
1F
331
29
  0
MLINESTYLE
  5
18
102
{ACAD_REACTORS
330
17
102
}
330
17
100
AcDbMlineStyle
  2
Standard
 70
     0
  3

 62
   256
 51
90.0
 52
90.0
 71
     2
 49
0.5
 62
   256
  6
BYLAYER
 49
-0.5
 62
   256
  6
BYLAYER
  0
ACDBPLACEHOLDER
  5
F
102
{ACAD_REACTORS
330
E
102
}
330
E
  0
SCALE
  5
48
102
{ACAD_REACTORS
330
47
102
}
330
47
100
AcDbScale
 70
     0
300
1:1
140
1.0
141
1.0
290
     1
  0
SCALE
  5
49
102
{ACAD_REACTORS
330
47
102
}
330
47
100
AcDbScale
 70
     0
300
1:2
140
1.0
141
2.0
290
     0
  0
SCALE
  5
4A
102
{ACAD_REACTORS
330
47
102
}
330
47
100
AcDbScale
 70
     0
300
1:4
140
1.0
141
4.0
290
     0
  0
SCALE
  5
4B
102
{ACAD_REACTORS
330
47
102
}
330
47
100
AcDbScale
 70
     0
300
1:5
140
1.0
141
5.0
290
     0
  0
SCALE
  5
4C
102
{ACAD_REACTORS
330
47
102
}
330
47
100
AcDbScale
 70
     0
300
1:8
140
1.0
141
8.0
290
     0
  0
SCALE
  5
4D
102
{ACAD_REACTORS
330
47
102
}
330
47
100
AcDbScale
 70
     0
300
1:10
140
1.0
141
10.0
290
     0
  0
SCALE
  5
4E
102
{ACAD_REACTORS
330
47
102
}
330
47
100
AcDbScale
 70
     0
300
1:16
140
1.0
141
16.0
290
     0
  0
SCALE
  5
4F
102
{ACAD_REACTORS
330
47
102
}
330
47
100
AcDbScale
 70
     0
300
1:20
140
1.0
141
20.0
290
     0
  0
SCALE
  5
50
102
{ACAD_REACTORS
330
47
102
}
330
47
100
AcDbScale
 70
     0
300
1:30
140
1.0
141
30.0
290
     0
  0
SCALE
  5
51
102
{ACAD_REACTORS
330
47
102
}
330
47
100
AcDbScale
 70
     0
300
1:40
140
1.0
141
40.0
290
     0
  0
SCALE
  5
52
102
{ACAD_REACTORS
330
47
102
}
330
47
100
AcDbScale
 70
     0
300
1:50
140
1.0
141
50.0
290
     0
  0
SCALE
  5
53
102
{ACAD_REACTORS
330
47
102
}
330
47
100
AcDbScale
 70
     0
300
1:100
140
1.0
141
100.0
290
     0
  0
SCALE
  5
54
102
{ACAD_REACTORS
330
47
102
}
330
47
100
AcDbScale
 70
     0
300
2:1
140
2.0
141
1.0
290
     0
  0
SCALE
  5
55
102
{ACAD_REACTORS
330
47
102
}
330
47
100
AcDbScale
 70
     0
300
4:1
140
4.0
141
1.0
290
     0
  0
SCALE
  5
56
102
{ACAD_REACTORS
330
47
102
}
330
47
100
AcDbScale
 70
     0
300
8:1
140
8.0
141
1.0
290
     0
  0
SCALE
  5
57
102
{ACAD_REACTORS
330
47
102
}
330
47
100
AcDbScale
 70
     0
300
10:1
140
10.0
141
1.0
290
     0
  0
SCALE
  5
58
102
{ACAD_REACTORS
330
47
102
}
330
47
100
AcDbScale
 70
     0
300
100:1
140
100.0
141
1.0
290
     0
  0
SCALE
  5
59
102
{ACAD_REACTORS
330
47
102
}
330
47
100
AcDbScale
 70
     0
300
1/128" = 1'-0"
140
0.0078125
141
12.0
290
     0
  0
SCALE
  5
5A
102
{ACAD_REACTORS
330
47
102
}
330
47
100
AcDbScale
 70
     0
300
1/64" = 1'-0"
140
0.015625
141
12.0
290
     0
  0
SCALE
  5
5B
102
{ACAD_REACTORS
330
47
102
}
330
47
100
AcDbScale
 70
     0
300
1/32" = 1'-0"
140
0.03125
141
12.0
290
     0
  0
SCALE
  5
5C
102
{ACAD_REACTORS
330
47
102
}
330
47
100
AcDbScale
 70
     0
300
1/16" = 1'-0"
140
0.0625
141
12.0
290
     0
  0
SCALE
  5
5D
102
{ACAD_REACTORS
330
47
102
}
330
47
100
AcDbScale
 70
     0
300
3/32" = 1'-0"
140
0.09375
141
12.0
290
     0
  0
SCALE
  5
5E
102
{ACAD_REACTORS
330
47
102
}
330
47
100
AcDbScale
 70
     0
300
1/8" = 1'-0"
140
0.125
141
12.0
290
     0
  0
SCALE
  5
5F
102
{ACAD_REACTORS
330
47
102
}
330
47
100
AcDbScale
 70
     0
300
3/16" = 1'-0"
140
0.1875
141
12.0
290
     0
  0
SCALE
  5
60
102
{ACAD_REACTORS
330
47
102
}
330
47
100
AcDbScale
 70
     0
300
1/4" = 1'-0"
140
0.25
141
12.0
290
     0
  0
SCALE
  5
61
102
{ACAD_REACTORS
330
47
102
}
330
47
100
AcDbScale
 70
     0
300
3/8" = 1'-0"
140
0.375
141
12.0
290
     0
  0
SCALE
  5
62
102
{ACAD_REACTORS
330
47
102
}
330
47
100
AcDbScale
 70
     0
300
1/2" = 1'-0"
140
0.5
141
12.0
290
     0
  0
SCALE
  5
63
102
{ACAD_REACTORS
330
47
102
}
330
47
100
AcDbScale
 70
     0
300
3/4" = 1'-0"
140
0.75
141
12.0
290
     0
  0
SCALE
  5
64
102
{ACAD_REACTORS
330
47
102
}
330
47
100
AcDbScale
 70
     0
300
1" = 1'-0"
140
1.0
141
12.0
290
     0
  0
SCALE
  5
65
102
{ACAD_REACTORS
330
47
102
}
330
47
100
AcDbScale
 70
     0
300
1-1/2" = 1'-0"
140
1.5
141
12.0
290
     0
  0
SCALE
  5
66
102
{ACAD_REACTORS
330
47
102
}
330
47
100
AcDbScale
 70
     0
300
3" = 1'-0"
140
3.0
141
12.0
290
     0
  0
SCALE
  5
67
102
{ACAD_REACTORS
330
47
102
}
330
47
100
AcDbScale
 70
     0
300
6" = 1'-0"
140
6.0
141
12.0
290
     0
  0
SCALE
  5
68
102
{ACAD_REACTORS
330
47
102
}
330
47
100
AcDbScale
 70
     0
300
1'-0" = 1'-0"
140
12.0
141
12.0
290
     0
  0
ENDSEC
  0
EOF
