  0
SECTION
  2
HEADER
  9
$ACADVER
  1
AC1015
  9
$ACADMAINTVER
 70
     6
  9
$DWGCODEPAGE
  3
ANSI_1252
  9
$INSBASE
 10
0.0
 20
0.0
 30
0.0
  9
$EXTMIN
 10
0.0
 20
0.0
 30
0.0
  9
$EXTMAX
 10
30.0
 20
22.0
 30
0.0
  9
$LIMMIN
 10
0.0
 20
0.0
  9
$LIMMAX
 10
30.0
 20
22.0
  9
$ORTHOMODE
 70
     0
  9
$REGENMODE
 70
     1
  9
$FILLMODE
 70
     1
  9
$QTEXTMODE
 70
     0
  9
$MIRRTEXT
 70
     1
  9
$LTSCALE
 40
1.0
  9
$ATTMODE
 70
     1
  9
$TEXTSIZE
 40
0.125
  9
$TRACEWID
 40
0.05
  9
$TEXTSTYLE
  7
Standard
  9
$CLAYER
  8
0
  9
$CELTYPE
  6
ByLayer
  9
$CECOLOR
 62
   256
  9
$CELTSCALE
 40
1.0
  9
$DISPSILH
 70
     0
  9
$DIMSCALE
 40
1.0
  9
$DIMASZ
 40
0.13
  9
$DIMEXO
 40
0.05
  9
$DIMDLI
 40
0.38
  9
$DIMRND
 40
0.0
  9
$DIMDLE
 40
0.0
  9
$DIMEXE
 40
0.125
  9
$DIMTP
 40
0.0
  9
$DIMTM
 40
0.0
  9
$DIMTXT
 40
0.1377952756
  9
$DIMCEN
 40
0.09
  9
$DIMTSZ
 40
0.0
  9
$DIMTOL
 70
     0
  9
$DIMLIM
 70
     0
  9
$DIMTIH
 70
     1
  9
$DIMTOH
 70
     1
  9
$DIMSE1
 70
     0
  9
$DIMSE2
 70
     0
  9
$DIMTAD
 70
     1
  9
$DIMZIN
 70
     1
  9
$DIMBLK
  1

  9
$DIMASO
 70
     1
  9
$DIMSHO
 70
     1
  9
$DIMPOST
  1

  9
$DIMAPOST
  1

  9
$DIMALT
 70
     0
  9
$DIMALTD
 70
     2
  9
$DIMALTF
 40
25.4
  9
$DIMLFAC
 40
0.5
  9
$DIMTOFL
 70
     0
  9
$DIMTVP
 40
0.0
  9
$DIMTIX
 70
     0
  9
$DIMSOXD
 70
     0
  9
$DIMSAH
 70
     0
  9
$DIMBLK1
  1

  9
$DIMBLK2
  1

  9
$DIMSTYLE
  2
Standard
  9
$DIMCLRD
 70
     0
  9
$DIMCLRE
 70
     0
  9
$DIMCLRT
 70
     0
  9
$DIMTFAC
 40
1.0
  9
$DIMGAP
 40
0.06
  9
$DIMJUST
 70
     0
  9
$DIMSD1
 70
     0
  9
$DIMSD2
 70
     0
  9
$DIMTOLJ
 70
     1
  9
$DIMTZIN
 70
     1
  9
$DIMALTZ
 70
     0
  9
$DIMALTTZ
 70
     0
  9
$DIMUPT
 70
     0
  9
$DIMDEC
 70
     2
  9
$DIMTDEC
 70
     2
  9
$DIMALTU
 70
     2
  9
$DIMALTTD
 70
     2
  9
$DIMTXSTY
  7
Standard
  9
$DIMAUNIT
 70
     0
  9
$DIMADEC
 70
     2
  9
$DIMALTRND
 40
0.0
  9
$DIMAZIN
 70
     0
  9
$DIMDSEP
 70
    46
  9
$DIMATFIT
 70
     3
  9
$DIMFRAC
 70
     0
  9
$DIMLDRBLK
  1

  9
$DIMLUNIT
 70
     2
  9
$DIMLWD
 70
    -2
  9
$DIMLWE
 70
    -2
  9
$DIMTMOVE
 70
     0
  9
$LUNITS
 70
     2
  9
$LUPREC
 70
     3
  9
$SKETCHINC
 40
0.1
  9
$FILLETRAD
 40
0.5
  9
$AUNITS
 70
     0
  9
$AUPREC
 70
     2
  9
$MENU
  1
.
  9
$ELEVATION
 40
0.0
  9
$PELEVATION
 40
0.0
  9
$THICKNESS
 40
0.0
  9
$LIMCHECK
 70
     0
  9
$CHAMFERA
 40
0.0
  9
$CHAMFERB
 40
0.0
  9
$CHAMFERC
 40
0.0
  9
$CHAMFERD
 40
0.0
  9
$SKPOLY
 70
     0
  9
$TDCREATE
 40
2459269.37114603
  9
$TDUCREATE
 40
2459269.579479363
  9
$TDUPDATE
 40
2459269.371147847
  9
$TDUUPDATE
 40
2459269.579481181
  9
$TDINDWG
 40
0.0000000116
  9
$TDUSRTIMER
 40
0.0000000116
  9
$USRTIMER
 70
     1
  9
$ANGBASE
 50
0.0
  9
$ANGDIR
 70
     0
  9
$PDMODE
 70
     0
  9
$PDSIZE
 40
-1.0
  9
$PLINEWID
 40
0.0
  9
$SPLFRAME
 70
     0
  9
$SPLINETYPE
 70
     6
  9
$SPLINESEGS
 70
     8
  9
$HANDSEED
  5
327
  9
$SURFTAB1
 70
     6
  9
$SURFTAB2
 70
     6
  9
$SURFTYPE
 70
     6
  9
$SURFU
 70
     6
  9
$SURFV
 70
     6
  9
$UCSBASE
  2

  9
$UCSNAME
  2

  9
$UCSORG
 10
0.0
 20
0.0
 30
0.0
  9
$UCSXDIR
 10
1.0
 20
0.0
 30
0.0
  9
$UCSYDIR
 10
0.0
 20
1.0
 30
0.0
  9
$UCSORTHOREF
  2

  9
$UCSORTHOVIEW
 70
     0
  9
$UCSORGTOP
 10
0.0
 20
0.0
 30
0.0
  9
$UCSORGBOTTOM
 10
0.0
 20
0.0
 30
0.0
  9
$UCSORGLEFT
 10
0.0
 20
0.0
 30
0.0
  9
$UCSORGRIGHT
 10
0.0
 20
0.0
 30
0.0
  9
$UCSORGFRONT
 10
0.0
 20
0.0
 30
0.0
  9
$UCSORGBACK
 10
0.0
 20
0.0
 30
0.0
  9
$PUCSBASE
  2

  9
$PUCSNAME
  2

  9
$PUCSORG
 10
0.0
 20
0.0
 30
0.0
  9
$PUCSXDIR
 10
1.0
 20
0.0
 30
0.0
  9
$PUCSYDIR
 10
0.0
 20
1.0
 30
0.0
  9
$PUCSORTHOREF
  2

  9
$PUCSORTHOVIEW
 70
     0
  9
$PUCSORGTOP
 10
0.0
 20
0.0
 30
0.0
  9
$PUCSORGBOTTOM
 10
0.0
 20
0.0
 30
0.0
  9
$PUCSORGLEFT
 10
0.0
 20
0.0
 30
0.0
  9
$PUCSORGRIGHT
 10
0.0
 20
0.0
 30
0.0
  9
$PUCSORGFRONT
 10
0.0
 20
0.0
 30
0.0
  9
$PUCSORGBACK
 10
0.0
 20
0.0
 30
0.0
  9
$USERI1
 70
     0
  9
$USERI2
 70
     0
  9
$USERI3
 70
     0
  9
$USERI4
 70
     0
  9
$USERI5
 70
     0
  9
$USERR1
 40
0.0
  9
$USERR2
 40
0.0
  9
$USERR3
 40
0.0
  9
$USERR4
 40
0.0
  9
$USERR5
 40
0.0
  9
$WORLDVIEW
 70
     1
  9
$SHADEDGE
 70
     3
  9
$SHADEDIF
 70
    70
  9
$TILEMODE
 70
     1
  9
$MAXACTVP
 70
    64
  9
$PINSBASE
 10
0.0
 20
0.0
 30
0.0
  9
$PLIMCHECK
 70
     0
  9
$PEXTMIN
 10
1.0000000000E+20
 20
1.0000000000E+20
 30
1.0000000000E+20
  9
$PEXTMAX
 10
-1.0000000000E+20
 20
-1.0000000000E+20
 30
-1.0000000000E+20
  9
$PLIMMIN
 10
0.0
 20
0.0
  9
$PLIMMAX
 10
12.0
 20
9.0
  9
$UNITMODE
 70
     0
  9
$VISRETAIN
 70
     1
  9
$PLINEGEN
 70
     0
  9
$PSLTSCALE
 70
     1
  9
$TREEDEPTH
 70
  3020
  9
$CMLSTYLE
  2
Standard
  9
$CMLJUST
 70
     0
  9
$CMLSCALE
 40
1.0
  9
$PROXYGRAPHICS
 70
     1
  9
$MEASUREMENT
 70
     0
  9
$CELWEIGHT
370
    -1
  9
$ENDCAPS
280
     0
  9
$JOINSTYLE
280
     0
  9
$LWDISPLAY
290
     1
  9
$INSUNITS
 70
     1
  9
$HYPERLINKBASE
  1

  9
$STYLESHEET
  1

  9
$XEDIT
290
     1
  9
$CEPSNTYPE
380
     0
  9
$PSTYLEMODE
290
     1
  9
$FINGERPRINTGUID
  2
{cebe343f-c27a-470c-8bec-1a8c7127d864}
  9
$VERSIONGUID
  2
{FAEB1C32-E019-11D5-929B-00C0DF256EC4}
  9
$EXTNAMES
290
     1
  9
$PSVPSCALE
 40
0.0
  9
$OLESTARTUP
290
     0
  0
ENDSEC
  0
SECTION
  2
CLASSES
  0
CLASS
  1
ACDBDICTIONARYWDFLT
  2
AcDbDictionaryWithDefault
  3
ObjectDBX Classes
 90
        0
280
     0
281
     0
  0
CLASS
  1
VISUALSTYLE
  2
AcDbVisualStyle
  3
ObjectDBX Classes
 90
     4095
280
     0
281
     0
  0
CLASS
  1
MATERIAL
  2
AcDbMaterial
  3
ObjectDBX Classes
 90
     1153
280
     0
281
     0
  0
CLASS
  1
SCALE
  2
AcDbScale
  3
ObjectDBX Classes
 90
     1153
280
     0
281
     0
  0
CLASS
  1
TABLESTYLE
  2
AcDbTableStyle
  3
ObjectDBX Classes
 90
     4095
280
     0
281
     0
  0
CLASS
  1
MLEADERSTYLE
  2
AcDbMLeaderStyle
  3
ACDB_MLEADERSTYLE_CLASS
 90
     4095
280
     0
281
     0
  0
CLASS
  1
SUN
  2
AcDbSun
  3
SCENEOE
 90
     1153
280
     0
281
     0
  0
CLASS
  1
ACDBPLACEHOLDER
  2
AcDbPlaceHolder
  3
ObjectDBX Classes
 90
        0
280
     0
281
     0
  0
CLASS
  1
LAYOUT
  2
AcDbLayout
  3
ObjectDBX Classes
 90
        0
280
     0
281
     0
  0
ENDSEC
  0
SECTION
  2
TABLES
  0
TABLE
  2
VPORT
  5
8
330
0
100
AcDbSymbolTable
 70
     1
  0
VPORT
  5
29
330
8
100
AcDbSymbolTableRecord
100
AcDbViewportTableRecord
  2
*Active
 70
     0
 10
0.0
 20
0.0
 11
1.0
 21
1.0
 12
15.0
 22
11.0
 13
0.0
 23
0.0
 14
0.5
 24
0.5
 15
0.5
 25
0.5
 16
0.0
 26
0.0
 36
1.0
 17
0.0
 27
0.0
 37
0.0
 40
22.0
 41
1.3636363636
 42
50.0
 43
0.0
 44
0.0
 50
0.0
 51
0.0
 71
     0
 72
  2000
 73
     1
 74
     3
 75
     0
 76
     0
 77
     0
 78
     0
281
     0
 65
     1
110
0.0
120
0.0
130
0.0
111
1.0
121
0.0
131
0.0
112
0.0
122
1.0
132
0.0
 79
     0
146
0.0
  0
ENDTAB
  0
TABLE
  2
LTYPE
  5
5
330
0
100
AcDbSymbolTable
 70
     6
  0
LTYPE
  5
14
330
5
100
AcDbSymbolTableRecord
100
AcDbLinetypeTableRecord
  2
ByBlock
 70
     0
  3

 72
    65
 73
     0
 40
0.0
  0
LTYPE
  5
15
330
5
100
AcDbSymbolTableRecord
100
AcDbLinetypeTableRecord
  2
ByLayer
 70
     0
  3

 72
    65
 73
     0
 40
0.0
  0
LTYPE
  5
16
330
5
100
AcDbSymbolTableRecord
100
AcDbLinetypeTableRecord
  2
Continuous
 70
     0
  3
Solid line
 72
    65
 73
     0
 40
0.0
  0
LTYPE
  5
6E
330
5
100
AcDbSymbolTableRecord
100
AcDbLinetypeTableRecord
  2
HIDDEN
 70
     0
  3
Hidden __ __ __ __ __ __ __ __ __ __ __ __ __ __
 72
    65
 73
     2
 40
0.075
 49
0.05
 74
     0
 49
-0.025
 74
     0
  0
LTYPE
  5
6F
330
5
100
AcDbSymbolTableRecord
100
AcDbLinetypeTableRecord
  2
PHANTOM
 70
     0
  3
Phantom ______  __  __  ______  __  __  ______
 72
    65
 73
     6
 40
0.5
 49
0.25
 74
     0
 49
-0.05
 74
     0
 49
0.05
 74
     0
 49
-0.05
 74
     0
 49
0.05
 74
     0
 49
-0.05
 74
     0
  0
LTYPE
  5
70
330
5
100
AcDbSymbolTableRecord
100
AcDbLinetypeTableRecord
  2
CENTER
 70
     0
  3
Center ____ _ ____ _ ____ _ ____ _ ____ _ ____
 72
    65
 73
     4
 40
0.4
 49
0.25
 74
     0
 49
-0.05
 74
     0
 49
0.05
 74
     0
 49
-0.05
 74
     0
  0
LTYPE
  5
71
330
5
100
AcDbSymbolTableRecord
100
AcDbLinetypeTableRecord
  2
CENTERX2
 70
     0
  3
Center (2x) ________  __  ________  __  _____
 72
    65
 73
     4
 40
0.8
 49
0.5
 74
     0
 49
-0.1
 74
     0
 49
0.1
 74
     0
 49
-0.1
 74
     0
  0
LTYPE
  5
72
330
5
100
AcDbSymbolTableRecord
100
AcDbLinetypeTableRecord
  2
DOT2
 70
     0
  3
Dot (.5x) ........................................
 72
    65
 73
     2
 40
0.025
 49
0.0
 74
     0
 49
-0.025
 74
     0
  0
ENDTAB
  0
TABLE
  2
LAYER
  5
2
330
0
100
AcDbSymbolTable
 70
     1
  0
LAYER
  5
10
330
2
100
AcDbSymbolTableRecord
100
AcDbLayerTableRecord
  2
0
 70
     0
 62
     7
  6
Continuous
370
    -3
390
F
  0
ENDTAB
  0
TABLE
  2
STYLE
  5
3
330
0
100
AcDbSymbolTable
 70
     4
  0
STYLE
  5
11
330
3
100
AcDbSymbolTableRecord
100
AcDbTextStyleTableRecord
  2
Standard
 70
     0
 40
0.0
 41
1.0
 50
0.0
 71
     0
 42
0.125
  3
txt
  4

  0
STYLE
  5
A6
330
3
100
AcDbSymbolTableRecord
100
AcDbTextStyleTableRecord
  2
SLDTEXTSTYLE0
 70
     0
 40
0.0
 41
0.75
 50
0.0
 71
     0
 42
0.125
  3
TXT
  4

  0
STYLE
  5
AA
330
3
100
AcDbSymbolTableRecord
100
AcDbTextStyleTableRecord
  2
SLDTEXTSTYLE1
 70
     0
 40
0.0
 41
0.6833333333
 50
0.0
 71
     0
 42
0.125
  3
TXT
  4

  0
STYLE
  5
1C9
330
3
100
AcDbSymbolTableRecord
100
AcDbTextStyleTableRecord
  2
SLDTEXTSTYLE2
 70
     0
 40
0.0
 41
0.6666666667
 50
0.0
 71
     0
 42
0.125
  3
TXT
  4

  0
ENDTAB
  0
TABLE
  2
VIEW
  5
6
330
0
100
AcDbSymbolTable
 70
     0
  0
ENDTAB
  0
TABLE
  2
UCS
  5
7
330
0
100
AcDbSymbolTable
 70
     0
  0
ENDTAB
  0
TABLE
  2
APPID
  5
9
330
0
100
AcDbSymbolTable
 70
     1
  0
APPID
  5
12
330
9
100
AcDbSymbolTableRecord
100
AcDbRegAppTableRecord
  2
ACAD
 70
     0
  0
ENDTAB
  0
TABLE
  2
DIMSTYLE
  5
A
330
0
100
AcDbSymbolTable
 70
     4
100
AcDbDimStyleTable
  0
DIMSTYLE
105
27
330
A
100
AcDbSymbolTableRecord
100
AcDbDimStyleTableRecord
  2
Standard
 70
     0
178
     0
340
11
  0
DIMSTYLE
105
166
102
{ACAD_REACTORS
330
165
330
1B7
330
266
102
}
330
A
100
AcDbSymbolTableRecord
100
AcDbDimStyleTableRecord
  2
SLDDIMSTYLE0
 70
     0
 41
0.13
 44
0.0
 45
0.000000001
 78
     4
 79
     1
140
0.125
147
0.03125
148
0.000000001
170
     1
173
     1
178
     0
271
     2
272
     2
276
     2
284
    12
340
A6
  0
DIMSTYLE
105
17B
102
{ACAD_REACTORS
330
17A
330
18F
330
1A3
102
}
330
A
100
AcDbSymbolTableRecord
100
AcDbDimStyleTableRecord
  2
SLDDIMSTYLE1
 70
     0
 41
0.13
 44
0.0
 45
0.000000001
 78
    12
 79
     3
140
0.125
147
0.03125
148
0.000000001
170
     1
173
     1
178
     0
271
     2
272
     2
276
     2
284
    12
340
A6
  0
DIMSTYLE
105
1CC
102
{ACAD_REACTORS
330
1CB
102
}
330
A
100
AcDbSymbolTableRecord
100
AcDbDimStyleTableRecord
  2
SLDDIMSTYLE2
 70
     0
 41
0.13
 44
0.0
 45
0.000000001
 78
     4
 79
     1
140
0.125
141
0.0
147
0.03125
148
0.000000001
170
     1
172
     1
173
     1
178
     0
271
     2
272
     2
276
     2
284
    12
340
A6
341
1CD
343
1CD
  0
ENDTAB
  0
TABLE
  2
BLOCK_RECORD
  5
1
330
0
100
AcDbSymbolTable
 70
    16
  0
BLOCK_RECORD
  5
1F
330
1
100
AcDbSymbolTableRecord
100
AcDbBlockTableRecord
  2
*Model_Space
340
22
  0
BLOCK_RECORD
  5
1B
330
1
100
AcDbSymbolTableRecord
100
AcDbBlockTableRecord
  2
*Paper_Space
340
1E
  0
BLOCK_RECORD
  5
23
330
1
100
AcDbSymbolTableRecord
100
AcDbBlockTableRecord
  2
*Paper_Space0
340
26
  0
BLOCK_RECORD
  5
A3
330
1
100
AcDbSymbolTableRecord
100
AcDbBlockTableRecord
  2
SW_NOTE_0
340
0
102
{BLKREFS
331
B1
102
}
  0
BLOCK_RECORD
  5
B2
330
1
100
AcDbSymbolTableRecord
100
AcDbBlockTableRecord
  2
SW_NOTE_0_1
340
0
102
{BLKREFS
331
B9
102
}
  0
BLOCK_RECORD
  5
BA
330
1
100
AcDbSymbolTableRecord
100
AcDbBlockTableRecord
  2
SW_NOTE_0_2
340
0
102
{BLKREFS
331
BF
102
}
  0
BLOCK_RECORD
  5
C0
330
1
100
AcDbSymbolTableRecord
100
AcDbBlockTableRecord
  2
SW_NOTE_0_3
340
0
102
{BLKREFS
331
C5
102
}
  0
BLOCK_RECORD
  5
C6
330
1
100
AcDbSymbolTableRecord
100
AcDbBlockTableRecord
  2
SW_NOTE_0_4
340
0
102
{BLKREFS
331
CB
102
}
  0
BLOCK_RECORD
  5
167
330
1
100
AcDbSymbolTableRecord
100
AcDbBlockTableRecord
  2
_D
340
0
  0
BLOCK_RECORD
  5
17C
330
1
100
AcDbSymbolTableRecord
100
AcDbBlockTableRecord
  2
_D_1
340
0
  0
BLOCK_RECORD
  5
190
330
1
100
AcDbSymbolTableRecord
100
AcDbBlockTableRecord
  2
_D_2
340
0
  0
BLOCK_RECORD
  5
1A4
330
1
100
AcDbSymbolTableRecord
100
AcDbBlockTableRecord
  2
_D_3
340
0
  0
BLOCK_RECORD
  5
1B8
330
1
100
AcDbSymbolTableRecord
100
AcDbBlockTableRecord
  2
_D_4
340
0
  0
BLOCK_RECORD
  5
1CD
330
1
100
AcDbSymbolTableRecord
100
AcDbBlockTableRecord
  2
_None
340
0
  0
BLOCK_RECORD
  5
1D0
330
1
100
AcDbSymbolTableRecord
100
AcDbBlockTableRecord
  2
_D_5
340
0
  0
BLOCK_RECORD
  5
1E0
330
1
100
AcDbSymbolTableRecord
100
AcDbBlockTableRecord
  2
SW_CENTERMARKSYMBOL_0
340
0
102
{BLKREFS
331
1EB
102
}
  0
BLOCK_RECORD
  5
1EC
330
1
100
AcDbSymbolTableRecord
100
AcDbBlockTableRecord
  2
SW_CENTERMARKSYMBOL_1
340
0
102
{BLKREFS
331
1F7
102
}
  0
BLOCK_RECORD
  5
267
330
1
100
AcDbSymbolTableRecord
100
AcDbBlockTableRecord
  2
_D_6
340
0
  0
ENDTAB
  0
ENDSEC
  0
SECTION
  2
BLOCKS
  0
BLOCK
  5
20
330
1F
100
AcDbEntity
  8
0
100
AcDbBlockBegin
  2
*Model_Space
 70
     0
 10
0.0
 20
0.0
 30
0.0
  3
*Model_Space
  1

  0
ENDBLK
  5
21
330
1F
100
AcDbEntity
  8
0
100
AcDbBlockEnd
  0
BLOCK
  5
1C
330
1B
100
AcDbEntity
 67
     1
  8
0
100
AcDbBlockBegin
  2
*Paper_Space
 70
     0
 10
0.0
 20
0.0
 30
0.0
  3
*Paper_Space
  1

  0
ENDBLK
  5
1D
330
1B
100
AcDbEntity
 67
     1
  8
0
100
AcDbBlockEnd
  0
BLOCK
  5
24
330
23
100
AcDbEntity
  8
0
100
AcDbBlockBegin
  2
*Paper_Space0
 70
     0
 10
0.0
 20
0.0
 30
0.0
  3
*Paper_Space0
  1

  0
ENDBLK
  5
25
330
23
100
AcDbEntity
  8
0
100
AcDbBlockEnd
  0
BLOCK
  5
A4
330
A3
100
AcDbEntity
  8
0
100
AcDbBlockBegin
  2
SW_NOTE_0
 70
     0
 10
0.0
 20
0.0
 30
0.0
  3
SW_NOTE_0
  1

  0
MTEXT
  5
A7
330
A3
100
AcDbEntity
  8
0
  6
Continuous
 62
     0
370
     0
100
AcDbMText
 10
0.0
 20
0.3222669349
 30
0.0
 40
0.25
 41
0.0
 71
     1
 72
     1
  1
NOTES:
  7
SLDTEXTSTYLE0
 73
     1
 44
1.0
  0
MTEXT
  5
A8
330
A3
100
AcDbEntity
  8
0
  6
Continuous
 62
     0
370
     0
100
AcDbMText
 10
0.3937007786
 20
-0.4231398941
 30
0.0
 40
0.25
 41
0.0
 71
     1
 72
     1
  1
MATERIAL: POLYCARBONATE.
  7
SLDTEXTSTYLE0
 73
     1
 44
1.0
  0
MTEXT
  5
A9
330
A3
100
AcDbEntity
  8
0
  6
Continuous
 62
     0
370
     0
100
AcDbMText
 10
0.0
 20
-0.4231398941
 30
0.0
 40
0.25
 41
0.0
 71
     1
 72
     1
  1
1.
  7
SLDTEXTSTYLE0
 73
     1
 44
1.0
  0
MTEXT
  5
AB
330
A3
100
AcDbEntity
  8
0
  6
Continuous
 62
     0
370
     0
100
AcDbMText
 10
0.4874507786
 20
-1.1685467231
 30
0.0
 40
0.25
 41
0.0
 71
     1
 72
     1
  1
QTY PER KIT - 2
  7
SLDTEXTSTYLE1
 73
     1
 44
1.0
  0
MTEXT
  5
AC
330
A3
100
AcDbEntity
  8
0
  6
Continuous
 62
     0
370
     0
100
AcDbMText
 10
0.0
 20
-1.1685467231
 30
0.0
 40
0.25
 41
0.0
 71
     1
 72
     1
  1
2.
  7
SLDTEXTSTYLE0
 73
     1
 44
1.0
  0
MTEXT
  5
AD
330
A3
100
AcDbEntity
  8
0
  6
Continuous
 62
     0
370
     0
100
AcDbMText
 10
0.3937007786
 20
-1.913953552
 30
0.0
 40
0.25
 41
0.0
 71
     1
 72
     1
  1
FITS: DPH-28707 & DPS-28707
  7
SLDTEXTSTYLE0
 73
     1
 44
1.0
  0
MTEXT
  5
AE
330
A3
100
AcDbEntity
  8
0
  6
Continuous
 62
     0
370
     0
100
AcDbMText
 10
0.0
 20
-1.913953552
 30
0.0
 40
0.25
 41
0.0
 71
     1
 72
     1
  1
3.
  7
SLDTEXTSTYLE0
 73
     1
 44
1.0
  0
MTEXT
  5
AF
330
A3
100
AcDbEntity
  8
0
  6
Continuous
 62
     0
370
     0
100
AcDbMText
 10
0.3937007786
 20
-2.659360381
 30
0.0
 40
0.25
 41
0.0
 71
     1
 72
     1
  1
SUPPLIED WITH DPX-103275X (X 4#10-32 X 3/4" LONG, PAN HEAD, EACH PHILLIPS, SS FOR DPH/S SERIES)
  7
SLDTEXTSTYLE0
 73
     1
 44
1.0
  0
MTEXT
  5
B0
330
A3
100
AcDbEntity
  8
0
  6
Continuous
 62
     0
370
     0
100
AcDbMText
 10
0.0
 20
-2.659360381
 30
0.0
 40
0.25
 41
0.0
 71
     1
 72
     1
  1
4.
  7
SLDTEXTSTYLE0
 73
     1
 44
1.0
  0
ENDBLK
  5
A5
330
A3
100
AcDbEntity
  8
0
100
AcDbBlockEnd
  0
BLOCK
  5
B3
330
B2
100
AcDbEntity
  8
0
100
AcDbBlockBegin
  2
SW_NOTE_0_1
 70
     0
 10
0.0
 20
0.0
 30
0.0
  3
SW_NOTE_0_1
  1

  0
MTEXT
  5
B5
330
B2
100
AcDbEntity
  8
0
  6
Continuous
 62
     0
370
     0
100
AcDbMText
 10
1.7024739583
 20
0.2685557791
 30
0.0
 40
0.2083333333
 41
0.0
 71
     2
 72
     1
  1
DRAWING FOR REFERENCE
  7
SLDTEXTSTYLE0
 73
     1
 44
1.0
  0
MTEXT
  5
B6
330
B2
100
AcDbEntity
  8
0
  6
Continuous
 62
     0
370
     0
100
AcDbMText
 10
1.6945168489
 20
-0.0485920805
 30
0.0
 40
0.2083333333
 41
0.0
 71
     2
 72
     1
  1
WE RESERVE THE RIGHT TO MAKE CHANGES TO OUR
  7
SLDTEXTSTYLE0
 73
     1
 44
1.0
  0
MTEXT
  5
B7
330
B2
100
AcDbEntity
  8
0
  6
Continuous
 62
     0
370
     0
100
AcDbMText
 10
1.6763360126
 20
-0.3657399401
 30
0.0
 40
0.2083333333
 41
0.0
 71
     2
 72
     1
  1
STANDARD PRODUCTS. PLEASE CONSULT WITH BUD INDUSTRIES
  7
SLDTEXTSTYLE0
 73
     1
 44
1.0
  0
MTEXT
  5
B8
330
B2
100
AcDbEntity
  8
0
  6
Continuous
 62
     0
370
     0
100
AcDbMText
 10
1.7117817199
 20
-0.6828877997
 30
0.0
 40
0.2083333333
 41
0.0
 71
     2
 72
     1
  1
PRIOR TO USING THIS DRAWING FOR DESIGN PURPOSE.
  7
SLDTEXTSTYLE0
 73
     1
 44
1.0
  0
ENDBLK
  5
B4
330
B2
100
AcDbEntity
  8
0
100
AcDbBlockEnd
  0
BLOCK
  5
BB
330
BA
100
AcDbEntity
  8
0
100
AcDbBlockBegin
  2
SW_NOTE_0_2
 70
     0
 10
0.0
 20
0.0
 30
0.0
  3
SW_NOTE_0_2
  1

  0
MTEXT
  5
BD
330
BA
100
AcDbEntity
  8
0
  6
Continuous
 62
     0
370
     0
100
AcDbMText
 10
0.189453125
 20
0.1611334675
 30
0.0
 40
0.125
 41
0.0
 71
     2
 72
     1
  1
PART
  7
SLDTEXTSTYLE0
 73
     1
 44
1.0
  0
MTEXT
  5
BE
330
BA
100
AcDbEntity
  8
0
  6
Continuous
 62
     0
370
     0
100
AcDbMText
 10
0.18777127
 20
-0.003236607
 30
0.0
 40
0.125
 41
0.0
 71
     2
 72
     1
  1
NAME
  7
SLDTEXTSTYLE0
 73
     1
 44
1.0
  0
ENDBLK
  5
BC
330
BA
100
AcDbEntity
  8
0
100
AcDbBlockEnd
  0
BLOCK
  5
C1
330
C0
100
AcDbEntity
  8
0
100
AcDbBlockBegin
  2
SW_NOTE_0_3
 70
     0
 10
0.0
 20
0.0
 30
0.0
  3
SW_NOTE_0_3
  1

  0
MTEXT
  5
C3
330
C0
100
AcDbEntity
  8
0
  6
Continuous
 62
     0
370
     0
100
AcDbMText
 10
0.189453125
 20
0.1611334675
 30
0.0
 40
0.125
 41
0.0
 71
     2
 72
     1
  1
PART
  7
SLDTEXTSTYLE0
 73
     1
 44
1.0
  0
MTEXT
  5
C4
330
C0
100
AcDbEntity
  8
0
  6
Continuous
 62
     0
370
     0
100
AcDbMText
 10
0.1950954881
 20
-0.003236607
 30
0.0
 40
0.125
 41
0.0
 71
     2
 72
     1
  1
No.
  7
SLDTEXTSTYLE0
 73
     1
 44
1.0
  0
ENDBLK
  5
C2
330
C0
100
AcDbEntity
  8
0
100
AcDbBlockEnd
  0
BLOCK
  5
C7
330
C6
100
AcDbEntity
  8
0
100
AcDbBlockBegin
  2
SW_NOTE_0_4
 70
     0
 10
0.0
 20
0.0
 30
0.0
  3
SW_NOTE_0_4
  1

  0
MTEXT
  5
C9
330
C6
100
AcDbEntity
  8
0
  6
Continuous
 62
     0
370
     0
100
AcDbMText
 10
0.3671875
 20
0.1611334675
 30
0.0
 40
0.125
 41
0.0
 71
     2
 72
     1
  1
REVISION
  7
SLDTEXTSTYLE0
 73
     1
 44
1.0
  0
MTEXT
  5
CA
330
C6
100
AcDbEntity
  8
0
  6
Continuous
 62
     0
370
     0
100
AcDbMText
 10
0.3534939236
 20
-0.003236607
 30
0.0
 40
0.125
 41
0.0
 71
     2
 72
     1
  1
DATE
  7
SLDTEXTSTYLE0
 73
     1
 44
1.0
  0
ENDBLK
  5
C8
330
C6
100
AcDbEntity
  8
0
100
AcDbBlockEnd
  0
BLOCK
  5
168
330
167
100
AcDbEntity
  8
0
100
AcDbBlockBegin
  2
_D
 70
     0
 10
0.0
 20
0.0
 30
0.0
  3
_D
  1

  0
SOLID
  5
16A
330
167
100
AcDbEntity
  8
0
  6
Continuous
 62
     7
370
    18
100
AcDbTrace
 10
13.3167189643
 20
13.8673315188
 30
0.0
 11
13.4467189643
 21
13.8473315188
 31
0.0
 12
13.4467189643
 22
13.8873315188
 32
0.0
 13
13.4467189643
 23
13.8873315188
 33
0.0
  0
SOLID
  5
16B
330
167
100
AcDbEntity
  8
0
  6
Continuous
 62
     7
370
    18
100
AcDbTrace
 10
16.3167189643
 20
13.8673315188
 30
0.0
 11
16.1867189643
 21
13.8873315188
 31
0.0
 12
16.1867189643
 22
13.8473315188
 32
0.0
 13
16.1867189643
 23
13.8473315188
 33
0.0
  0
LINE
  5
16C
330
167
100
AcDbEntity
  8
0
  6
Continuous
 62
     7
370
     0
100
AcDbLine
 10
14.6550870331
 20
13.8663766382
 30
0.0
 11
14.617001096
 21
13.8663766382
 31
0.0
  0
LINE
  5
16D
330
167
100
AcDbEntity
  8
0
  6
Continuous
 62
     7
370
     0
100
AcDbLine
 10
14.617001096
 20
13.8663766382
 30
0.0
 11
14.617001096
 21
13.6679391322
 31
0.0
  0
LINE
  5
16E
330
167
100
AcDbEntity
  8
0
  6
Continuous
 62
     7
370
     0
100
AcDbLine
 10
14.617001096
 20
13.6679391322
 30
0.0
 11
14.6550870331
 21
13.6679391322
 31
0.0
  0
LINE
  5
16F
330
167
100
AcDbEntity
  8
0
  6
Continuous
 62
     7
370
     0
100
AcDbLine
 10
14.9783509321
 20
13.8663766382
 30
0.0
 11
15.0164368692
 21
13.8663766382
 31
0.0
  0
LINE
  5
170
330
167
100
AcDbEntity
  8
0
  6
Continuous
 62
     7
370
     0
100
AcDbLine
 10
15.0164368692
 20
13.8663766382
 30
0.0
 11
15.0164368692
 21
13.6679391322
 31
0.0
  0
LINE
  5
171
330
167
100
AcDbEntity
  8
0
  6
Continuous
 62
     7
370
     0
100
AcDbLine
 10
15.0164368692
 20
13.6679391322
 30
0.0
 11
14.9783509321
 21
13.6679391322
 31
0.0
  0
LINE
  5
172
330
167
100
AcDbEntity
  8
0
  6
Continuous
 62
     7
370
     0
100
AcDbLine
 10
13.3167189643
 20
11.5144274653
 30
0.0
 11
13.3167189643
 21
13.9923315188
 31
0.0
  0
LINE
  5
173
330
167
100
AcDbEntity
  8
0
  6
Continuous
 62
     7
370
     0
100
AcDbLine
 10
16.3167189643
 20
12.4053488247
 30
0.0
 11
16.3167189643
 21
13.9923315188
 31
0.0
  0
LINE
  5
174
330
167
100
AcDbEntity
  8
0
  6
Continuous
 62
     7
370
     0
100
AcDbLine
 10
13.3167189643
 20
13.8673315188
 30
0.0
 11
14.507357729
 21
13.8673315188
 31
0.0
  0
LINE
  5
175
330
167
100
AcDbEntity
  8
0
  6
Continuous
 62
     7
370
     0
100
AcDbLine
 10
16.3167189643
 20
13.8673315188
 30
0.0
 11
15.1260801995
 21
13.8673315188
 31
0.0
  0
MTEXT
  5
176
330
167
100
AcDbEntity
  8
0
  6
Continuous
 62
     7
370
    18
100
AcDbMText
 10
14.5796096032
 20
14.0548104657
 30
0.0
 40
0.125
 41
0.0
 71
     1
 72
     1
  1

  7
SLDTEXTSTYLE0
 73
     1
 44
1.0
  0
MTEXT
  5
177
330
167
100
AcDbEntity
  8
0
  6
Continuous
 62
     7
370
    18
100
AcDbMText
 10
14.655087024
 20
14.0529007342
 30
0.0
 40
0.125
 41
0.0
 71
     1
 72
     1
  1
3.00
  7
SLDTEXTSTYLE0
 73
     1
 44
1.0
  0
MTEXT
  5
178
330
167
100
AcDbEntity
  8
0
  6
Continuous
 62
     7
370
    18
100
AcDbMText
 10
14.6550870331
 20
13.8290726134
 30
0.0
 40
0.125
 41
0.0
 71
     1
 72
     1
  1
76.2
  7
SLDTEXTSTYLE0
 73
     1
 44
1.0
  0
MTEXT
  5
179
330
167
100
AcDbEntity
  8
0
  6
Continuous
 62
     7
370
    18
100
AcDbMText
 10
15.1013977788
 20
14.0548104657
 30
0.0
 40
0.125
 41
0.0
 71
     1
 72
     1
  1

  7
SLDTEXTSTYLE0
 73
     1
 44
1.0
  0
ENDBLK
  5
169
330
167
100
AcDbEntity
  8
0
100
AcDbBlockEnd
  0
BLOCK
  5
17D
330
17C
100
AcDbEntity
  8
0
100
AcDbBlockBegin
  2
_D_1
 70
     0
 10
0.0
 20
0.0
 30
0.0
  3
_D_1
  1

  0
SOLID
  5
17F
330
17C
100
AcDbEntity
  8
0
  6
Continuous
 62
     7
370
    18
100
AcDbTrace
 10
18.6001845155
 20
12.7053488247
 30
0.0
 11
18.5801845155
 21
12.5753488247
 31
0.0
 12
18.6201845155
 22
12.5753488247
 32
0.0
 13
18.6201845155
 23
12.5753488247
 33
0.0
  0
SOLID
  5
180
330
17C
100
AcDbEntity
  8
0
  6
Continuous
 62
     7
370
    18
100
AcDbTrace
 10
18.6001845155
 20
6.9553488247
 30
0.0
 11
18.6201845155
 21
7.0853488247
 31
0.0
 12
18.5801845155
 22
7.0853488247
 32
0.0
 13
18.5801845155
 23
7.0853488247
 33
0.0
  0
LINE
  5
181
330
17C
100
AcDbEntity
  8
0
  6
Continuous
 62
     7
370
     0
100
AcDbLine
 10
18.3923720195
 20
9.829393944
 30
0.0
 11
18.3542860824
 21
9.829393944
 31
0.0
  0
LINE
  5
182
330
17C
100
AcDbEntity
  8
0
  6
Continuous
 62
     7
370
     0
100
AcDbLine
 10
18.3542860824
 20
9.829393944
 30
0.0
 11
18.3542860824
 21
9.6309564381
 31
0.0
  0
LINE
  5
183
330
17C
100
AcDbEntity
  8
0
  6
Continuous
 62
     7
370
     0
100
AcDbLine
 10
18.3542860824
 20
9.6309564381
 30
0.0
 11
18.3923720195
 21
9.6309564381
 31
0.0
  0
LINE
  5
184
330
17C
100
AcDbEntity
  8
0
  6
Continuous
 62
     7
370
     0
100
AcDbLine
 10
18.8079970115
 20
9.829393944
 30
0.0
 11
18.8460829486
 21
9.829393944
 31
0.0
  0
LINE
  5
185
330
17C
100
AcDbEntity
  8
0
  6
Continuous
 62
     7
370
     0
100
AcDbLine
 10
18.8460829486
 20
9.829393944
 30
0.0
 11
18.8460829486
 21
9.6309564381
 31
0.0
  0
LINE
  5
186
330
17C
100
AcDbEntity
  8
0
  6
Continuous
 62
     7
370
     0
100
AcDbLine
 10
18.8460829486
 20
9.6309564381
 30
0.0
 11
18.8079970115
 21
9.6309564381
 31
0.0
  0
LINE
  5
187
330
17C
100
AcDbEntity
  8
0
  6
Continuous
 62
     7
370
     0
100
AcDbLine
 10
16.0167189643
 20
12.7053488247
 30
0.0
 11
18.7251845155
 21
12.7053488247
 31
0.0
  0
LINE
  5
188
330
17C
100
AcDbEntity
  8
0
  6
Continuous
 62
     7
370
     0
100
AcDbLine
 10
16.0167189643
 20
6.9553488247
 30
0.0
 11
18.7251845155
 21
6.9553488247
 31
0.0
  0
LINE
  5
189
330
17C
100
AcDbEntity
  8
0
  6
Continuous
 62
     7
370
     0
100
AcDbLine
 10
18.6001845155
 20
12.7053488247
 30
0.0
 11
18.6001845155
 21
10.0551317963
 31
0.0
  0
LINE
  5
18A
330
17C
100
AcDbEntity
  8
0
  6
Continuous
 62
     7
370
     0
100
AcDbLine
 10
18.6001845155
 20
6.9553488247
 30
0.0
 11
18.6001845155
 21
9.605565853
 31
0.0
  0
MTEXT
  5
18B
330
17C
100
AcDbEntity
  8
0
  6
Continuous
 62
     7
370
    18
100
AcDbMText
 10
18.3168945896
 20
10.0178277715
 30
0.0
 40
0.125
 41
0.0
 71
     1
 72
     1
  1

  7
SLDTEXTSTYLE0
 73
     1
 44
1.0
  0
MTEXT
  5
18C
330
17C
100
AcDbEntity
  8
0
  6
Continuous
 62
     7
370
    18
100
AcDbMText
 10
18.4385525568
 20
10.0159180401
 30
0.0
 40
0.125
 41
0.0
 71
     1
 72
     1
  1
5.75
  7
SLDTEXTSTYLE0
 73
     1
 44
1.0
  0
MTEXT
  5
18D
330
17C
100
AcDbEntity
  8
0
  6
Continuous
 62
     7
370
    18
100
AcDbMText
 10
18.3923720195
 20
9.7920899193
 30
0.0
 40
0.125
 41
0.0
 71
     1
 72
     1
  1
146.1
  7
SLDTEXTSTYLE0
 73
     1
 44
1.0
  0
MTEXT
  5
18E
330
17C
100
AcDbEntity
  8
0
  6
Continuous
 62
     7
370
    18
100
AcDbMText
 10
18.9310438582
 20
10.0178277715
 30
0.0
 40
0.125
 41
0.0
 71
     1
 72
     1
  1

  7
SLDTEXTSTYLE0
 73
     1
 44
1.0
  0
ENDBLK
  5
17E
330
17C
100
AcDbEntity
  8
0
100
AcDbBlockEnd
  0
BLOCK
  5
191
330
190
100
AcDbEntity
  8
0
100
AcDbBlockBegin
  2
_D_2
 70
     0
 10
0.0
 20
0.0
 30
0.0
  3
_D_2
  1

  0
SOLID
  5
193
330
190
100
AcDbEntity
  8
0
  6
Continuous
 62
     7
370
    18
100
AcDbTrace
 10
16.9466412084
 20
9.8303488247
 30
0.0
 11
16.9666412084
 21
9.9603488247
 31
0.0
 12
16.9266412084
 22
9.9603488247
 32
0.0
 13
16.9266412084
 23
9.9603488247
 33
0.0
  0
SOLID
  5
194
330
190
100
AcDbEntity
  8
0
  6
Continuous
 62
     7
370
    18
100
AcDbTrace
 10
16.9466412084
 20
11.5803488247
 30
0.0
 11
16.9266412084
 21
11.4503488247
 31
0.0
 12
16.9666412084
 22
11.4503488247
 32
0.0
 13
16.9666412084
 23
11.4503488247
 33
0.0
  0
LINE
  5
195
330
190
100
AcDbEntity
  8
0
  6
Continuous
 62
     7
370
     0
100
AcDbLine
 10
16.7850092772
 20
10.704393944
 30
0.0
 11
16.7469233401
 21
10.704393944
 31
0.0
  0
LINE
  5
196
330
190
100
AcDbEntity
  8
0
  6
Continuous
 62
     7
370
     0
100
AcDbLine
 10
16.7469233401
 20
10.704393944
 30
0.0
 11
16.7469233401
 21
10.5059564381
 31
0.0
  0
LINE
  5
197
330
190
100
AcDbEntity
  8
0
  6
Continuous
 62
     7
370
     0
100
AcDbLine
 10
16.7469233401
 20
10.5059564381
 30
0.0
 11
16.7850092772
 21
10.5059564381
 31
0.0
  0
LINE
  5
198
330
190
100
AcDbEntity
  8
0
  6
Continuous
 62
     7
370
     0
100
AcDbLine
 10
17.1082731762
 20
10.704393944
 30
0.0
 11
17.1463591133
 21
10.704393944
 31
0.0
  0
LINE
  5
199
330
190
100
AcDbEntity
  8
0
  6
Continuous
 62
     7
370
     0
100
AcDbLine
 10
17.1463591133
 20
10.704393944
 30
0.0
 11
17.1463591133
 21
10.5059564381
 31
0.0
  0
LINE
  5
19A
330
190
100
AcDbEntity
  8
0
  6
Continuous
 62
     7
370
     0
100
AcDbLine
 10
17.1463591133
 20
10.5059564381
 30
0.0
 11
17.1082731762
 21
10.5059564381
 31
0.0
  0
LINE
  5
19B
330
190
100
AcDbEntity
  8
0
  6
Continuous
 62
     7
370
     0
100
AcDbLine
 10
16.4785340372
 20
9.8303488247
 30
0.0
 11
17.0716412084
 21
9.8303488247
 31
0.0
  0
LINE
  5
19C
330
190
100
AcDbEntity
  8
0
  6
Continuous
 62
     7
370
     0
100
AcDbLine
 10
16.0672189643
 20
11.5803488247
 30
0.0
 11
17.0716412084
 21
11.5803488247
 31
0.0
  0
LINE
  5
19D
330
190
100
AcDbEntity
  8
0
  6
Continuous
 62
     7
370
     0
100
AcDbLine
 10
16.9466412084
 20
9.8303488247
 30
0.0
 11
16.9466412084
 21
10.480565853
 31
0.0
  0
LINE
  5
19E
330
190
100
AcDbEntity
  8
0
  6
Continuous
 62
     7
370
     0
100
AcDbLine
 10
16.9466412084
 20
11.5803488247
 30
0.0
 11
16.9466412084
 21
10.9301317963
 31
0.0
  0
MTEXT
  5
19F
330
190
100
AcDbEntity
  8
0
  6
Continuous
 62
     7
370
    18
100
AcDbMText
 10
16.7095318473
 20
10.8928277715
 30
0.0
 40
0.125
 41
0.0
 71
     1
 72
     1
  1

  7
SLDTEXTSTYLE0
 73
     1
 44
1.0
  0
MTEXT
  5
1A0
330
190
100
AcDbEntity
  8
0
  6
Continuous
 62
     7
370
    18
100
AcDbMText
 10
16.7850092681
 20
10.8909180401
 30
0.0
 40
0.125
 41
0.0
 71
     1
 72
     1
  1
1.75
  7
SLDTEXTSTYLE0
 73
     1
 44
1.0
  0
MTEXT
  5
1A1
330
190
100
AcDbEntity
  8
0
  6
Continuous
 62
     7
370
    18
100
AcDbMText
 10
16.7850092772
 20
10.6670899193
 30
0.0
 40
0.125
 41
0.0
 71
     1
 72
     1
  1
44.5
  7
SLDTEXTSTYLE0
 73
     1
 44
1.0
  0
MTEXT
  5
1A2
330
190
100
AcDbEntity
  8
0
  6
Continuous
 62
     7
370
    18
100
AcDbMText
 10
17.2313200229
 20
10.8928277715
 30
0.0
 40
0.125
 41
0.0
 71
     1
 72
     1
  1

  7
SLDTEXTSTYLE0
 73
     1
 44
1.0
  0
ENDBLK
  5
192
330
190
100
AcDbEntity
  8
0
100
AcDbBlockEnd
  0
BLOCK
  5
1A5
330
1A4
100
AcDbEntity
  8
0
100
AcDbBlockBegin
  2
_D_3
 70
     0
 10
0.0
 20
0.0
 30
0.0
  3
_D_3
  1

  0
SOLID
  5
1A7
330
1A4
100
AcDbEntity
  8
0
  6
Continuous
 62
     7
370
    18
100
AcDbTrace
 10
16.9466412084
 20
9.8303488247
 30
0.0
 11
16.9266412084
 21
9.7003488247
 31
0.0
 12
16.9666412084
 22
9.7003488247
 32
0.0
 13
16.9666412084
 23
9.7003488247
 33
0.0
  0
SOLID
  5
1A8
330
1A4
100
AcDbEntity
  8
0
  6
Continuous
 62
     7
370
    18
100
AcDbTrace
 10
16.9466412084
 20
8.0803488247
 30
0.0
 11
16.9666412084
 21
8.2103488247
 31
0.0
 12
16.9266412084
 22
8.2103488247
 32
0.0
 13
16.9266412084
 23
8.2103488247
 33
0.0
  0
LINE
  5
1A9
330
1A4
100
AcDbEntity
  8
0
  6
Continuous
 62
     7
370
     0
100
AcDbLine
 10
16.7850092772
 20
8.954393944
 30
0.0
 11
16.7469233401
 21
8.954393944
 31
0.0
  0
LINE
  5
1AA
330
1A4
100
AcDbEntity
  8
0
  6
Continuous
 62
     7
370
     0
100
AcDbLine
 10
16.7469233401
 20
8.954393944
 30
0.0
 11
16.7469233401
 21
8.7559564381
 31
0.0
  0
LINE
  5
1AB
330
1A4
100
AcDbEntity
  8
0
  6
Continuous
 62
     7
370
     0
100
AcDbLine
 10
16.7469233401
 20
8.7559564381
 30
0.0
 11
16.7850092772
 21
8.7559564381
 31
0.0
  0
LINE
  5
1AC
330
1A4
100
AcDbEntity
  8
0
  6
Continuous
 62
     7
370
     0
100
AcDbLine
 10
17.1082731762
 20
8.954393944
 30
0.0
 11
17.1463591133
 21
8.954393944
 31
0.0
  0
LINE
  5
1AD
330
1A4
100
AcDbEntity
  8
0
  6
Continuous
 62
     7
370
     0
100
AcDbLine
 10
17.1463591133
 20
8.954393944
 30
0.0
 11
17.1463591133
 21
8.7559564381
 31
0.0
  0
LINE
  5
1AE
330
1A4
100
AcDbEntity
  8
0
  6
Continuous
 62
     7
370
     0
100
AcDbLine
 10
17.1463591133
 20
8.7559564381
 30
0.0
 11
17.1082731762
 21
8.7559564381
 31
0.0
  0
LINE
  5
1AF
330
1A4
100
AcDbEntity
  8
0
  6
Continuous
 62
     7
370
     0
100
AcDbLine
 10
16.4785340372
 20
9.8303488247
 30
0.0
 11
17.0716412084
 21
9.8303488247
 31
0.0
  0
LINE
  5
1B0
330
1A4
100
AcDbEntity
  8
0
  6
Continuous
 62
     7
370
     0
100
AcDbLine
 10
16.0672189643
 20
8.0803488247
 30
0.0
 11
17.0716412084
 21
8.0803488247
 31
0.0
  0
LINE
  5
1B1
330
1A4
100
AcDbEntity
  8
0
  6
Continuous
 62
     7
370
     0
100
AcDbLine
 10
16.9466412084
 20
9.8303488247
 30
0.0
 11
16.9466412084
 21
9.1801317963
 31
0.0
  0
LINE
  5
1B2
330
1A4
100
AcDbEntity
  8
0
  6
Continuous
 62
     7
370
     0
100
AcDbLine
 10
16.9466412084
 20
8.0803488247
 30
0.0
 11
16.9466412084
 21
8.730565853
 31
0.0
  0
MTEXT
  5
1B3
330
1A4
100
AcDbEntity
  8
0
  6
Continuous
 62
     7
370
    18
100
AcDbMText
 10
16.7095318473
 20
9.1428277715
 30
0.0
 40
0.125
 41
0.0
 71
     1
 72
     1
  1

  7
SLDTEXTSTYLE0
 73
     1
 44
1.0
  0
MTEXT
  5
1B4
330
1A4
100
AcDbEntity
  8
0
  6
Continuous
 62
     7
370
    18
100
AcDbMText
 10
16.7850092681
 20
9.1409180401
 30
0.0
 40
0.125
 41
0.0
 71
     1
 72
     1
  1
1.75
  7
SLDTEXTSTYLE0
 73
     1
 44
1.0
  0
MTEXT
  5
1B5
330
1A4
100
AcDbEntity
  8
0
  6
Continuous
 62
     7
370
    18
100
AcDbMText
 10
16.7850092772
 20
8.9170899193
 30
0.0
 40
0.125
 41
0.0
 71
     1
 72
     1
  1
44.5
  7
SLDTEXTSTYLE0
 73
     1
 44
1.0
  0
MTEXT
  5
1B6
330
1A4
100
AcDbEntity
  8
0
  6
Continuous
 62
     7
370
    18
100
AcDbMText
 10
17.2313200229
 20
9.1428277715
 30
0.0
 40
0.125
 41
0.0
 71
     1
 72
     1
  1

  7
SLDTEXTSTYLE0
 73
     1
 44
1.0
  0
ENDBLK
  5
1A6
330
1A4
100
AcDbEntity
  8
0
100
AcDbBlockEnd
  0
BLOCK
  5
1B9
330
1B8
100
AcDbEntity
  8
0
100
AcDbBlockBegin
  2
_D_4
 70
     0
 10
0.0
 20
0.0
 30
0.0
  3
_D_4
  1

  0
SOLID
  5
1BB
330
1B8
100
AcDbEntity
  8
0
  6
Continuous
 62
     7
370
    18
100
AcDbTrace
 10
16.3167189643
 20
13.2442130382
 30
0.0
 11
16.1867189643
 21
13.2642130382
 31
0.0
 12
16.1867189643
 22
13.2242130382
 32
0.0
 13
16.1867189643
 23
13.2242130382
 33
0.0
  0
SOLID
  5
1BC
330
1B8
100
AcDbEntity
  8
0
  6
Continuous
 62
     7
370
    18
100
AcDbTrace
 10
15.8167189643
 20
13.2442130382
 30
0.0
 11
15.9467189643
 21
13.2242130382
 31
0.0
 12
15.9467189643
 22
13.2642130382
 32
0.0
 13
15.9467189643
 23
13.2642130382
 33
0.0
  0
LINE
  5
1BD
330
1B8
100
AcDbEntity
  8
0
  6
Continuous
 62
     7
370
     0
100
AcDbLine
 10
15.0510586814
 20
13.2432581576
 30
0.0
 11
15.0129727443
 21
13.2432581576
 31
0.0
  0
LINE
  5
1BE
330
1B8
100
AcDbEntity
  8
0
  6
Continuous
 62
     7
370
     0
100
AcDbLine
 10
15.0129727443
 20
13.2432581576
 30
0.0
 11
15.0129727443
 21
13.0448206516
 31
0.0
  0
LINE
  5
1BF
330
1B8
100
AcDbEntity
  8
0
  6
Continuous
 62
     7
370
     0
100
AcDbLine
 10
15.0129727443
 20
13.0448206516
 30
0.0
 11
15.0510586814
 21
13.0448206516
 31
0.0
  0
LINE
  5
1C0
330
1B8
100
AcDbEntity
  8
0
  6
Continuous
 62
     7
370
     0
100
AcDbLine
 10
15.3743225804
 20
13.2432581576
 30
0.0
 11
15.4124085175
 21
13.2432581576
 31
0.0
  0
LINE
  5
1C1
330
1B8
100
AcDbEntity
  8
0
  6
Continuous
 62
     7
370
     0
100
AcDbLine
 10
15.4124085175
 20
13.2432581576
 30
0.0
 11
15.4124085175
 21
13.0448206516
 31
0.0
  0
LINE
  5
1C2
330
1B8
100
AcDbEntity
  8
0
  6
Continuous
 62
     7
370
     0
100
AcDbLine
 10
15.4124085175
 20
13.0448206516
 30
0.0
 11
15.3743225804
 21
13.0448206516
 31
0.0
  0
LINE
  5
1C3
330
1B8
100
AcDbEntity
  8
0
  6
Continuous
 62
     7
370
     0
100
AcDbLine
 10
16.3167189643
 20
12.4053488247
 30
0.0
 11
16.3167189643
 21
13.3692130382
 31
0.0
  0
LINE
  5
1C4
330
1B8
100
AcDbEntity
  8
0
  6
Continuous
 62
     7
370
     0
100
AcDbLine
 10
15.8167189643
 20
11.8308488247
 30
0.0
 11
15.8167189643
 21
13.3692130382
 31
0.0
  0
LINE
  5
1C5
330
1B8
100
AcDbEntity
  8
0
  6
Continuous
 62
     7
370
     0
100
AcDbLine
 10
16.3167189643
 20
13.2442130382
 30
0.0
 11
15.8167189643
 21
13.2442130382
 31
0.0
  0
LINE
  5
1C6
330
1B8
100
AcDbEntity
  8
0
  6
Continuous
 62
     7
370
     0
100
AcDbLine
 10
15.8167189643
 20
13.2442130382
 30
0.0
 11
15.7621560199
 21
13.2442130382
 31
0.0
  0
MTEXT
  5
1C7
330
1B8
100
AcDbEntity
  8
0
  6
Continuous
 62
     7
370
    18
100
AcDbMText
 10
15.0972392371
 20
13.4297822536
 30
0.0
 40
0.125
 41
0.0
 71
     1
 72
     1
  1
.50
  7
SLDTEXTSTYLE0
 73
     1
 44
1.0
  0
MTEXT
  5
1C8
330
1B8
100
AcDbEntity
  8
0
  6
Continuous
 62
     7
370
    18
100
AcDbMText
 10
15.0510586814
 20
13.2059541329
 30
0.0
 40
0.125
 41
0.0
 71
     1
 72
     1
  1
12.7
  7
SLDTEXTSTYLE0
 73
     1
 44
1.0
  0
MTEXT
  5
1CA
330
1B8
100
AcDbEntity
  8
0
  6
Continuous
 62
     7
370
    18
100
AcDbMText
 10
15.4973694363
 20
13.4316919851
 30
0.0
 40
0.125
 41
0.0
 71
     1
 72
     1
  1
X 2
  7
SLDTEXTSTYLE2
 73
     1
 44
1.0
  0
ENDBLK
  5
1BA
330
1B8
100
AcDbEntity
  8
0
100
AcDbBlockEnd
  0
BLOCK
  5
1CE
330
1CD
100
AcDbEntity
  8
0
100
AcDbBlockBegin
  2
_None
 70
     0
 10
0.0
 20
0.0
 30
0.0
  3
_None
  1

  0
ENDBLK
  5
1CF
330
1CD
100
AcDbEntity
  8
0
100
AcDbBlockEnd
  0
BLOCK
  5
1D1
330
1D0
100
AcDbEntity
  8
0
100
AcDbBlockBegin
  2
_D_5
 70
     0
 10
0.0
 20
0.0
 30
0.0
  3
_D_5
  1

  0
SOLID
  5
1D3
330
1D0
100
AcDbEntity
  8
0
  6
Continuous
 62
     7
370
    18
100
AcDbTrace
 10
15.8649105548
 20
11.6685407778
 30
0.0
 11
15.9447985731
 21
11.7730295549
 31
0.0
 12
15.9096972982
 22
11.7922102875
 32
0.0
 13
15.9096972982
 23
11.7922102875
 33
0.0
  0
LINE
  5
1D4
330
1D0
100
AcDbEntity
  8
0
  6
Continuous
 62
     7
370
     0
100
AcDbLine
 10
16.9919224332
 20
13.3288011127
 30
0.0
 11
16.9538364961
 21
13.3288011127
 31
0.0
  0
LINE
  5
1D5
330
1D0
100
AcDbEntity
  8
0
  6
Continuous
 62
     7
370
     0
100
AcDbLine
 10
16.9538364961
 20
13.3288011127
 30
0.0
 11
16.9538364961
 21
13.1303636067
 31
0.0
  0
LINE
  5
1D6
330
1D0
100
AcDbEntity
  8
0
  6
Continuous
 62
     7
370
     0
100
AcDbLine
 10
16.9538364961
 20
13.1303636067
 30
0.0
 11
16.9919224332
 21
13.1303636067
 31
0.0
  0
LINE
  5
1D7
330
1D0
100
AcDbEntity
  8
0
  6
Continuous
 62
     7
370
     0
100
AcDbLine
 10
17.2228252024
 20
13.3288011127
 30
0.0
 11
17.2609111395
 21
13.3288011127
 31
0.0
  0
LINE
  5
1D8
330
1D0
100
AcDbEntity
  8
0
  6
Continuous
 62
     7
370
     0
100
AcDbLine
 10
17.2609111395
 20
13.3288011127
 30
0.0
 11
17.2609111395
 21
13.1303636067
 31
0.0
  0
LINE
  5
1D9
330
1D0
100
AcDbEntity
  8
0
  6
Continuous
 62
     7
370
     0
100
AcDbLine
 10
17.2609111395
 20
13.1303636067
 30
0.0
 11
17.2228252024
 21
13.1303636067
 31
0.0
  0
LINE
  5
1DA
330
1D0
100
AcDbEntity
  8
0
  6
Continuous
 62
     7
370
     0
100
AcDbLine
 10
15.8649105548
 20
11.6685407778
 30
0.0
 11
16.7726646045
 21
13.329755975
 31
0.0
  0
LINE
  5
1DB
330
1D0
100
AcDbEntity
  8
0
  6
Continuous
 62
     7
370
     0
100
AcDbLine
 10
16.7726646045
 20
13.329755975
 30
0.0
 11
16.8976646045
 21
13.329755975
 31
0.0
  0
MTEXT
  5
1DC
330
1D0
100
AcDbEntity
  8
0
  6
Continuous
 62
     7
370
    18
100
AcDbMText
 10
16.8976646045
 20
13.5153252179
 30
0.0
 40
0.125
 41
0.0
 71
     1
 72
     1
  1
%%c
  7
SLDTEXTSTYLE0
 73
     1
 44
1.0
  0
MTEXT
  5
1DD
330
1D0
100
AcDbEntity
  8
0
  6
Continuous
 62
     7
370
    18
100
AcDbMText
 10
17.0861802251
 20
13.5153252179
 30
0.0
 40
0.125
 41
0.0
 71
     1
 72
     1
  1
.20
  7
SLDTEXTSTYLE0
 73
     1
 44
1.0
  0
MTEXT
  5
1DE
330
1D0
100
AcDbEntity
  8
0
  6
Continuous
 62
     7
370
    18
100
AcDbMText
 10
16.9919224332
 20
13.291497088
 30
0.0
 40
0.125
 41
0.0
 71
     1
 72
     1
  1
5.1
  7
SLDTEXTSTYLE0
 73
     1
 44
1.0
  0
MTEXT
  5
1DF
330
1D0
100
AcDbEntity
  8
0
  6
Continuous
 62
     7
370
    18
100
AcDbMText
 10
17.3639580127
 20
13.5172349402
 30
0.0
 40
0.125
 41
0.0
 71
     1
 72
     1
  1
X 2
  7
SLDTEXTSTYLE2
 73
     1
 44
1.0
  0
ENDBLK
  5
1D2
330
1D0
100
AcDbEntity
  8
0
100
AcDbBlockEnd
  0
BLOCK
  5
1E1
330
1E0
100
AcDbEntity
  8
0
100
AcDbBlockBegin
  2
SW_CENTERMARKSYMBOL_0
 70
     0
 10
0.0
 20
0.0
 30
0.0
  3
SW_CENTERMARKSYMBOL_0
  1

  0
LINE
  5
1E3
330
1E0
100
AcDbEntity
  8
0
  6
Continuous
 62
     0
370
    18
100
AcDbLine
 10
0.0
 20
0.0
 30
0.0
 11
0.0
 21
0.1
 31
0.0
  0
LINE
  5
1E4
330
1E0
100
AcDbEntity
  8
0
  6
Continuous
 62
     0
370
    18
100
AcDbLine
 10
0.0
 20
0.0
 30
0.0
 11
-0.1
 21
0.0
 31
0.0
  0
LINE
  5
1E5
330
1E0
100
AcDbEntity
  8
0
  6
Continuous
 62
     0
370
    18
100
AcDbLine
 10
0.0
 20
0.0
 30
0.0
 11
0.0
 21
-0.1
 31
0.0
  0
LINE
  5
1E6
330
1E0
100
AcDbEntity
  8
0
  6
Continuous
 62
     0
370
    18
100
AcDbLine
 10
0.0
 20
0.0
 30
0.0
 11
0.1
 21
0.0
 31
0.0
  0
LINE
  5
1E7
330
1E0
100
AcDbEntity
  8
0
  6
Continuous
 62
     0
370
    18
100
AcDbLine
 10
0.0
 20
0.2
 30
0.0
 11
0.0
 21
0.2005
 31
0.0
  0
LINE
  5
1E8
330
1E0
100
AcDbEntity
  8
0
  6
Continuous
 62
     0
370
    18
100
AcDbLine
 10
-0.2
 20
0.0
 30
0.0
 11
-0.2005
 21
0.0
 31
0.0
  0
LINE
  5
1E9
330
1E0
100
AcDbEntity
  8
0
  6
Continuous
 62
     0
370
    18
100
AcDbLine
 10
0.0
 20
-0.2
 30
0.0
 11
0.0
 21
-0.2005
 31
0.0
  0
LINE
  5
1EA
330
1E0
100
AcDbEntity
  8
0
  6
Continuous
 62
     0
370
    18
100
AcDbLine
 10
0.2
 20
0.0
 30
0.0
 11
0.2005
 21
0.0
 31
0.0
  0
ENDBLK
  5
1E2
330
1E0
100
AcDbEntity
  8
0
100
AcDbBlockEnd
  0
BLOCK
  5
1ED
330
1EC
100
AcDbEntity
  8
0
100
AcDbBlockBegin
  2
SW_CENTERMARKSYMBOL_1
 70
     0
 10
0.0
 20
0.0
 30
0.0
  3
SW_CENTERMARKSYMBOL_1
  1

  0
LINE
  5
1EF
330
1EC
100
AcDbEntity
  8
0
  6
Continuous
 62
     0
370
    18
100
AcDbLine
 10
0.0
 20
0.0
 30
0.0
 11
0.0
 21
0.1
 31
0.0
  0
LINE
  5
1F0
330
1EC
100
AcDbEntity
  8
0
  6
Continuous
 62
     0
370
    18
100
AcDbLine
 10
0.0
 20
0.0
 30
0.0
 11
-0.1
 21
0.0
 31
0.0
  0
LINE
  5
1F1
330
1EC
100
AcDbEntity
  8
0
  6
Continuous
 62
     0
370
    18
100
AcDbLine
 10
0.0
 20
0.0
 30
0.0
 11
0.0
 21
-0.1
 31
0.0
  0
LINE
  5
1F2
330
1EC
100
AcDbEntity
  8
0
  6
Continuous
 62
     0
370
    18
100
AcDbLine
 10
0.0
 20
0.0
 30
0.0
 11
0.1
 21
0.0
 31
0.0
  0
LINE
  5
1F3
330
1EC
100
AcDbEntity
  8
0
  6
Continuous
 62
     0
370
    18
100
AcDbLine
 10
0.0
 20
0.2
 30
0.0
 11
0.0
 21
0.2005
 31
0.0
  0
LINE
  5
1F4
330
1EC
100
AcDbEntity
  8
0
  6
Continuous
 62
     0
370
    18
100
AcDbLine
 10
-0.2
 20
0.0
 30
0.0
 11
-0.2005
 21
0.0
 31
0.0
  0
LINE
  5
1F5
330
1EC
100
AcDbEntity
  8
0
  6
Continuous
 62
     0
370
    18
100
AcDbLine
 10
0.0
 20
-0.2
 30
0.0
 11
0.0
 21
-0.2005
 31
0.0
  0
LINE
  5
1F6
330
1EC
100
AcDbEntity
  8
0
  6
Continuous
 62
     0
370
    18
100
AcDbLine
 10
0.2
 20
0.0
 30
0.0
 11
0.2005
 21
0.0
 31
0.0
  0
ENDBLK
  5
1EE
330
1EC
100
AcDbEntity
  8
0
100
AcDbBlockEnd
  0
BLOCK
  5
268
330
267
100
AcDbEntity
  8
0
100
AcDbBlockBegin
  2
_D_6
 70
     0
 10
0.0
 20
0.0
 30
0.0
  3
_D_6
  1

  0
SOLID
  5
26A
330
267
100
AcDbEntity
  8
0
  6
Continuous
 62
     7
370
    18
100
AcDbTrace
 10
6.9199662492
 20
13.7166539831
 30
0.0
 11
7.0499662492
 21
13.6966539831
 31
0.0
 12
7.0499662492
 22
13.7366539831
 32
0.0
 13
7.0499662492
 23
13.7366539831
 33
0.0
  0
SOLID
  5
26B
330
267
100
AcDbEntity
  8
0
  6
Continuous
 62
     7
370
    18
100
AcDbTrace
 10
7.4199662492
 20
13.7166539831
 30
0.0
 11
7.2899662492
 21
13.7366539831
 31
0.0
 12
7.2899662492
 22
13.6966539831
 32
0.0
 13
7.2899662492
 23
13.6966539831
 33
0.0
  0
LINE
  5
26C
330
267
100
AcDbEntity
  8
0
  6
Continuous
 62
     7
370
     0
100
AcDbLine
 10
6.1568150216
 20
13.7156991025
 30
0.0
 11
6.1187290845
 21
13.7156991025
 31
0.0
  0
LINE
  5
26D
330
267
100
AcDbEntity
  8
0
  6
Continuous
 62
     7
370
     0
100
AcDbLine
 10
6.1187290845
 20
13.7156991025
 30
0.0
 11
6.1187290845
 21
13.5172615965
 31
0.0
  0
LINE
  5
26E
330
267
100
AcDbEntity
  8
0
  6
Continuous
 62
     7
370
     0
100
AcDbLine
 10
6.1187290845
 20
13.5172615965
 30
0.0
 11
6.1568150216
 21
13.5172615965
 31
0.0
  0
LINE
  5
26F
330
267
100
AcDbEntity
  8
0
  6
Continuous
 62
     7
370
     0
100
AcDbLine
 10
6.4800789205
 20
13.7156991025
 30
0.0
 11
6.5181648576
 21
13.7156991025
 31
0.0
  0
LINE
  5
270
330
267
100
AcDbEntity
  8
0
  6
Continuous
 62
     7
370
     0
100
AcDbLine
 10
6.5181648576
 20
13.7156991025
 30
0.0
 11
6.5181648576
 21
13.5172615965
 31
0.0
  0
LINE
  5
271
330
267
100
AcDbEntity
  8
0
  6
Continuous
 62
     7
370
     0
100
AcDbLine
 10
6.5181648576
 20
13.5172615965
 30
0.0
 11
6.4800789205
 21
13.5172615965
 31
0.0
  0
LINE
  5
272
330
267
100
AcDbEntity
  8
0
  6
Continuous
 62
     7
370
     0
100
AcDbLine
 10
6.9199662492
 20
12.7553488247
 30
0.0
 11
6.9199662492
 21
13.8416539831
 31
0.0
  0
LINE
  5
273
330
267
100
AcDbEntity
  8
0
  6
Continuous
 62
     7
370
     0
100
AcDbLine
 10
7.4199662492
 20
12.6389933012
 30
0.0
 11
7.4199662492
 21
13.8416539831
 31
0.0
  0
LINE
  5
274
330
267
100
AcDbEntity
  8
0
  6
Continuous
 62
     7
370
     0
100
AcDbLine
 10
6.9199662492
 20
13.7166539831
 30
0.0
 11
6.627808188
 21
13.7166539831
 31
0.0
  0
LINE
  5
275
330
267
100
AcDbEntity
  8
0
  6
Continuous
 62
     7
370
     0
100
AcDbLine
 10
7.4199662492
 20
13.7166539831
 30
0.0
 11
6.9199662492
 21
13.7166539831
 31
0.0
  0
MTEXT
  5
276
330
267
100
AcDbEntity
  8
0
  6
Continuous
 62
     7
370
    18
100
AcDbMText
 10
6.0813375917
 20
13.90413293
 30
0.0
 40
0.125
 41
0.0
 71
     1
 72
     1
  1

  7
SLDTEXTSTYLE0
 73
     1
 44
1.0
  0
MTEXT
  5
277
330
267
100
AcDbEntity
  8
0
  6
Continuous
 62
     7
370
    18
100
AcDbMText
 10
6.2029955773
 20
13.9022231985
 30
0.0
 40
0.125
 41
0.0
 71
     1
 72
     1
  1
.50
  7
SLDTEXTSTYLE0
 73
     1
 44
1.0
  0
MTEXT
  5
278
330
267
100
AcDbEntity
  8
0
  6
Continuous
 62
     7
370
    18
100
AcDbMText
 10
6.1568150216
 20
13.6783950777
 30
0.0
 40
0.125
 41
0.0
 71
     1
 72
     1
  1
12.7
  7
SLDTEXTSTYLE0
 73
     1
 44
1.0
  0
MTEXT
  5
279
330
267
100
AcDbEntity
  8
0
  6
Continuous
 62
     7
370
    18
100
AcDbMText
 10
6.6031257673
 20
13.90413293
 30
0.0
 40
0.125
 41
0.0
 71
     1
 72
     1
  1

  7
SLDTEXTSTYLE0
 73
     1
 44
1.0
  0
ENDBLK
  5
269
330
267
100
AcDbEntity
  8
0
100
AcDbBlockEnd
  0
ENDSEC
  0
SECTION
  2
ENTITIES
  0
LINE
  5
73
330
1F
100
AcDbEntity
  8
0
  6
Continuous
 62
     7
370
    18
100
AcDbLine
 10
0.3132516046
 20
21.6547094286
 30
0.0
 11
29.6806766458
 21
21.6547094286
 31
0.0
  0
LINE
  5
74
330
1F
100
AcDbEntity
  8
0
  6
Continuous
 62
     7
370
    18
100
AcDbLine
 10
29.6806766458
 20
0.3290731707
 30
0.0
 11
29.6806766458
 21
21.6547094286
 31
0.0
  0
LINE
  5
75
330
1F
100
AcDbEntity
  8
0
  6
Continuous
 62
     7
370
    18
100
AcDbLine
 10
29.6806766458
 20
0.3290731707
 30
0.0
 11
0.3132516046
 21
0.3290731707
 31
0.0
  0
LINE
  5
76
330
1F
100
AcDbEntity
  8
0
  6
Continuous
 62
     7
370
    18
100
AcDbLine
 10
0.3132516046
 20
21.6547094286
 30
0.0
 11
0.3132516046
 21
0.3290731707
 31
0.0
  0
LINE
  5
77
330
1F
100
AcDbEntity
  8
0
  6
Continuous
 62
     7
370
    18
100
AcDbLine
 10
0.2512516046
 20
21.7112959898
 30
0.0
 11
29.736905992
 21
21.7112959898
 31
0.0
  0
LINE
  5
78
330
1F
100
AcDbEntity
  8
0
  6
Continuous
 62
     7
370
    18
100
AcDbLine
 10
29.736905992
 20
0.2670731707
 30
0.0
 11
0.2512516046
 21
0.2670731707
 31
0.0
  0
LINE
  5
79
330
1F
100
AcDbEntity
  8
0
  6
Continuous
 62
     7
370
    18
100
AcDbLine
 10
0.2512516046
 20
21.7112959898
 30
0.0
 11
0.2512516046
 21
0.2670731707
 31
0.0
  0
LINE
  5
7A
330
1F
100
AcDbEntity
  8
0
  6
Continuous
 62
     7
370
    18
100
AcDbLine
 10
29.736905992
 20
0.2670731707
 30
0.0
 11
29.736905992
 21
21.7112959898
 31
0.0
  0
LINE
  5
7B
330
1F
100
AcDbEntity
  8
0
  6
Continuous
 62
     7
370
    18
100
AcDbLine
 10
0.3132516046
 20
21.0474115071
 30
0.0
 11
29.6806766458
 21
21.0474115071
 31
0.0
  0
LINE
  5
7C
330
1F
100
AcDbEntity
  8
0
  6
Continuous
 62
     7
370
    18
100
AcDbLine
 10
1.8437192207
 20
21.6547094286
 30
0.0
 11
1.8437192207
 21
21.0474115071
 31
0.0
  0
LINE
  5
7D
330
1F
100
AcDbEntity
  8
0
  6
Continuous
 62
     7
370
    18
100
AcDbLine
 10
1.1108318837
 20
21.6547094286
 30
0.0
 11
1.1108318837
 21
21.0474115071
 31
0.0
  0
LINE
  5
7E
330
1F
100
AcDbEntity
  8
0
  6
Continuous
 62
     7
370
    18
100
AcDbLine
 10
26.4279502466
 20
21.6547094286
 30
0.0
 11
26.4279502466
 21
21.0474115071
 31
0.0
  0
LINE
  5
7F
330
1F
100
AcDbEntity
  8
0
  6
Continuous
 62
     7
370
    18
100
AcDbLine
 10
26.492176063
 20
21.6547094286
 30
0.0
 11
26.492176063
 21
21.0474115071
 31
0.0
  0
LINE
  5
80
330
1F
100
AcDbEntity
  8
0
  6
Continuous
 62
     7
370
    18
100
AcDbLine
 10
27.492176063
 20
21.6547094286
 30
0.0
 11
27.492176063
 21
21.0474115071
 31
0.0
  0
LINE
  5
81
330
1F
100
AcDbEntity
  8
0
  6
Continuous
 62
     7
370
    18
100
AcDbLine
 10
0.4348627823
 20
21.2300617377
 30
0.0
 11
0.4348627823
 21
21.4955964918
 31
0.0
  0
LINE
  5
82
330
1F
100
AcDbEntity
  8
0
  6
Continuous
 62
     7
370
    18
100
AcDbLine
 10
0.6197680095
 20
21.2466576598
 30
0.0
 11
0.6197680095
 21
21.4955964918
 31
0.0
  0
LINE
  5
83
330
1F
100
AcDbEntity
  8
0
  6
Continuous
 62
     7
370
    18
100
AcDbLine
 10
0.691418785
 20
21.2733855748
 30
0.0
 11
0.691418785
 21
21.4955964918
 31
0.0
  0
LINE
  5
84
330
1F
100
AcDbEntity
  8
0
  6
Continuous
 62
     7
370
    18
100
AcDbLine
 10
0.6683056316
 20
21.2733855748
 30
0.0
 11
0.6683056316
 21
21.4955964918
 31
0.0
  0
LINE
  5
85
330
1F
100
AcDbEntity
  8
0
  6
Continuous
 62
     7
370
    18
100
AcDbLine
 10
0.7942669867
 20
21.2300617377
 30
0.0
 11
0.7942669867
 21
21.4955964918
 31
0.0
  0
LINE
  5
86
330
1F
100
AcDbEntity
  8
0
  6
Continuous
 62
     7
370
    18
100
AcDbLine
 10
0.7399564071
 20
21.2466576598
 30
0.0
 11
0.7399564071
 21
21.4955964918
 31
0.0
  0
LINE
  5
87
330
1F
100
AcDbEntity
  8
0
  6
Continuous
 62
     7
370
    18
100
AcDbLine
 10
0.6363639316
 20
21.2300617377
 30
0.0
 11
0.723360485
 21
21.2300617377
 31
0.0
  0
LINE
  5
88
330
1F
100
AcDbEntity
  8
0
  6
Continuous
 62
     7
370
    18
100
AcDbLine
 10
0.4348627823
 20
21.2300617377
 30
0.0
 11
0.5203814499
 21
21.2300617377
 31
0.0
  0
LINE
  5
89
330
1F
100
AcDbEntity
  8
0
  6
Continuous
 62
     7
370
    18
100
AcDbLine
 10
0.5203814499
 20
21.3561907459
 30
0.0
 11
0.4475750167
 21
21.3561907459
 31
0.0
  0
LINE
  5
8A
330
1F
100
AcDbEntity
  8
0
  6
Continuous
 62
     7
370
    18
100
AcDbLine
 10
0.5203814499
 20
21.3694674836
 30
0.0
 11
0.4475750167
 21
21.3694674836
 31
0.0
  0
LINE
  5
8B
330
1F
100
AcDbEntity
  8
0
  6
Continuous
 62
     7
370
    18
100
AcDbLine
 10
0.4475750167
 20
21.3694674836
 30
0.0
 11
0.4475750167
 21
21.3628291147
 31
0.0
  0
LINE
  5
8C
330
1F
100
AcDbEntity
  8
0
  6
Continuous
 62
     7
370
    18
100
AcDbLine
 10
0.4475750167
 20
21.3561907459
 30
0.0
 11
0.4475750167
 21
21.3628291147
 31
0.0
  0
LINE
  5
8D
330
1F
100
AcDbEntity
  8
0
  6
Continuous
 62
     7
370
    18
100
AcDbLine
 10
0.7942669867
 20
21.2300617377
 30
0.0
 11
0.8272965087
 21
21.2300617377
 31
0.0
  0
LINE
  5
8E
330
1F
100
AcDbEntity
  8
0
  6
Continuous
 62
     7
370
    18
100
AcDbLine
 10
0.9202336726
 20
21.3229989016
 30
0.0
 11
0.9202336726
 21
21.4026593279
 31
0.0
  0
LINE
  5
8F
330
1F
100
AcDbEntity
  8
0
  6
Continuous
 62
     7
370
    18
100
AcDbLine
 10
0.8713952948
 20
21.3561907459
 30
0.0
 11
0.8713952948
 21
21.3694674836
 31
0.0
  0
LINE
  5
90
330
1F
100
AcDbEntity
  8
0
  6
Continuous
 62
     7
370
    18
100
AcDbLine
 10
0.8300977053
 20
21.3561907459
 30
0.0
 11
0.8300977053
 21
21.3694674836
 31
0.0
  0
LINE
  5
91
330
1F
100
AcDbEntity
  8
0
  6
Continuous
 62
     7
370
    18
100
AcDbLine
 10
0.8713952948
 20
21.3561907459
 30
0.0
 11
0.8300977053
 21
21.3561907459
 31
0.0
  0
LINE
  5
92
330
1F
100
AcDbEntity
  8
0
  6
Continuous
 62
     7
370
    18
100
AcDbLine
 10
0.8713952948
 20
21.3694674836
 30
0.0
 11
0.8300977053
 21
21.3694674836
 31
0.0
  0
LINE
  5
93
330
1F
100
AcDbEntity
  8
0
  6
Continuous
 62
     7
370
    18
100
AcDbLine
 10
0.691418785
 20
21.4955964918
 30
0.0
 11
0.7399564071
 21
21.4955964918
 31
0.0
  0
LINE
  5
94
330
1F
100
AcDbEntity
  8
0
  6
Continuous
 62
     7
370
    18
100
AcDbLine
 10
0.4348627823
 20
21.4955964918
 30
0.0
 11
0.5203814499
 21
21.4955964918
 31
0.0
  0
LINE
  5
95
330
1F
100
AcDbEntity
  8
0
  6
Continuous
 62
     7
370
    18
100
AcDbLine
 10
0.6197680095
 20
21.4955964918
 30
0.0
 11
0.6683056316
 21
21.4955964918
 31
0.0
  0
LINE
  5
96
330
1F
100
AcDbEntity
  8
0
  6
Continuous
 62
     7
370
    18
100
AcDbLine
 10
0.7942669867
 20
21.4955964918
 30
0.0
 11
0.8272965087
 21
21.4955964918
 31
0.0
  0
LINE
  5
97
330
1F
100
AcDbEntity
  8
0
  6
Continuous
 62
     7
370
    18
100
AcDbLine
 10
1.050100026
 20
21.6547094286
 30
0.0
 11
1.050100026
 21
21.0474115071
 31
0.0
  0
LINE
  5
98
330
1F
100
AcDbEntity
  8
0
  6
Continuous
 62
     7
370
    18
100
AcDbLine
 10
14.4831953769
 20
21.0474115071
 30
0.0
 11
14.4831953769
 21
21.6547094286
 31
0.0
  0
LINE
  5
99
330
1F
100
AcDbEntity
  8
0
  6
Continuous
 62
     7
370
    18
100
AcDbLine
 10
14.5451953769
 20
21.0474115071
 30
0.0
 11
14.5451953769
 21
21.6547094286
 31
0.0
  0
LINE
  5
9A
330
1F
100
AcDbEntity
  8
0
  6
Continuous
 62
     7
370
    18
100
AcDbLine
 10
15.2951953769
 20
21.0474115071
 30
0.0
 11
15.2951953769
 21
21.6547094286
 31
0.0
  0
ARC
  5
9B
330
1F
100
AcDbEntity
  8
0
  6
Continuous
 62
     7
370
    18
100
AcDbCircle
 10
0.5203814499
 20
21.4325319877
 30
0.0
 40
0.0630645040985804
100
AcDbArc
 50
270.0
 51
90.0
  0
ARC
  5
9C
330
1F
100
AcDbEntity
  8
0
  6
Continuous
 62
     7
370
    18
100
AcDbCircle
 10
0.8272965087
 20
21.4026593279
 30
0.0
 40
0.0929371639347458
100
AcDbArc
 50
0.0
 51
90.0
  0
ARC
  5
9D
330
1F
100
AcDbEntity
  8
0
  6
Continuous
 62
     7
370
    18
100
AcDbCircle
 10
0.5203814499
 20
21.2931262418
 30
0.0
 40
0.0630645040985769
100
AcDbArc
 50
270.0
 51
90.0
  0
ARC
  5
9E
330
1F
100
AcDbEntity
  8
0
  6
Continuous
 62
     7
370
    18
100
AcDbCircle
 10
0.6363639316
 20
21.2466576598
 30
0.0
 40
0.0165959221312093
100
AcDbArc
 50
180.0
 51
270.0
  0
ARC
  5
9F
330
1F
100
AcDbEntity
  8
0
  6
Continuous
 62
     7
370
    18
100
AcDbCircle
 10
0.6781420473
 20
21.2733855748
 30
0.0
 40
0.0132767377049623
100
AcDbArc
 50
277.4442840975
 51
0.0
  0
ARC
  5
A0
330
1F
100
AcDbEntity
  8
0
  6
Continuous
 62
     7
370
    18
100
AcDbCircle
 10
0.6815823693
 20
21.2733855748
 30
0.0
 40
0.0132767377049732
100
AcDbArc
 50
180.0
 51
262.5557159021
  0
ARC
  5
A1
330
1F
100
AcDbEntity
  8
0
  6
Continuous
 62
     7
370
    18
100
AcDbCircle
 10
0.8272965087
 20
21.3229989016
 30
0.0
 40
0.0929371639347458
100
AcDbArc
 50
270.0
 51
0.0
  0
ARC
  5
A2
330
1F
100
AcDbEntity
  8
0
  6
Continuous
 62
     7
370
    18
100
AcDbCircle
 10
0.723360485
 20
21.2466576598
 30
0.0
 40
0.0165959221312058
100
AcDbArc
 50
270.0
 51
0.0
  0
INSERT
  5
B1
330
1F
100
AcDbEntity
  8
0
  6
Continuous
 62
     7
370
     0
100
AcDbBlockReference
  2
SW_NOTE_0
 10
0.8348550376
 20
19.9841239768
 30
0.0
  0
INSERT
  5
B9
330
1F
100
AcDbEntity
  8
0
  6
Continuous
 62
     7
370
     0
100
AcDbBlockReference
  2
SW_NOTE_0_1
 10
3.2158291563
 20
1.6868927965
 30
0.0
  0
INSERT
  5
BF
330
1F
100
AcDbEntity
  8
0
  6
Continuous
 62
     7
370
     0
100
AcDbBlockReference
  2
SW_NOTE_0_2
 10
1.3110399819
 20
21.3576108566
 30
0.0
  0
INSERT
  5
C5
330
1F
100
AcDbEntity
  8
0
  6
Continuous
 62
     7
370
     0
100
AcDbBlockReference
  2
SW_NOTE_0_3
 10
14.7392714976
 20
21.3450943114
 30
0.0
  0
INSERT
  5
CB
330
1F
100
AcDbEntity
  8
0
  6
Continuous
 62
     7
370
     0
100
AcDbBlockReference
  2
SW_NOTE_0_4
 10
26.6314561413
 20
21.34680783
 30
0.0
  0
MTEXT
  5
CC
330
1F
100
AcDbEntity
  8
0
  6
Continuous
 62
     7
370
     0
100
AcDbMText
 10
27.9267364462
 20
21.466163024
 30
0.0
 40
0.25
 41
0.0
 71
     1
 72
     1
  1
2/22/21
  7
SLDTEXTSTYLE0
 73
     1
 44
1.0
  0
MTEXT
  5
CD
330
1F
100
AcDbEntity
  8
0
  6
Continuous
 62
     7
370
     0
100
AcDbMText
 10
20.8261799544
 20
21.466163024
 30
0.0
 40
0.25
 41
0.0
 71
     2
 72
     1
  1
DPX-624KIT
  7
SLDTEXTSTYLE0
 73
     1
 44
1.0
  0
MTEXT
  5
CE
330
1F
100
AcDbEntity
  8
0
  6
Continuous
 62
     7
370
     0
100
AcDbMText
 10
8.0401520791
 20
21.4750503312
 30
0.0
 40
0.25
 41
0.0
 71
     2
 72
     1
  1
6" FLANGE KIT
  7
SLDTEXTSTYLE0
 73
     1
 44
1.0
  0
CIRCLE
  5
CF
330
1F
100
AcDbEntity
  8
0
  6
Continuous
 62
     7
370
    25
100
AcDbCircle
 10
15.3287189643
 20
11.5803488247
 30
0.0
 40
0.1437061151203789
  0
CIRCLE
  5
D0
330
1F
100
AcDbEntity
  8
0
  6
Continuous
 62
     7
370
    25
100
AcDbCircle
 10
15.3287189643
 20
11.5803488247
 30
0.0
 40
0.1512938848799372
  0
CIRCLE
  5
D1
330
1F
100
AcDbEntity
  8
0
  6
Continuous
 62
     7
370
    25
100
AcDbCircle
 10
15.3287189643
 20
11.5803488247
 30
0.0
 40
0.1825010578410158
  0
CIRCLE
  5
D2
330
1F
100
AcDbEntity
  8
0
  6
Continuous
 62
     7
370
    25
100
AcDbCircle
 10
15.3287189643
 20
8.0803488247
 30
0.0
 40
0.1825010578410158
  0
CIRCLE
  5
D3
330
1F
100
AcDbEntity
  8
0
  6
Continuous
 62
     7
370
    25
100
AcDbCircle
 10
15.3287189643
 20
8.0803488247
 30
0.0
 40
0.1512938848799372
  0
CIRCLE
  5
D4
330
1F
100
AcDbEntity
  8
0
  6
Continuous
 62
     7
370
    25
100
AcDbCircle
 10
15.3287189643
 20
8.0803488247
 30
0.0
 40
0.1437061151203771
  0
CIRCLE
  5
D5
330
1F
100
AcDbEntity
  8
0
  6
Continuous
 62
     7
370
    25
100
AcDbCircle
 10
15.3287189643
 20
8.0803488247
 30
0.0
 40
0.112498942159295
  0
CIRCLE
  5
D6
330
1F
100
AcDbEntity
  8
0
  6
Continuous
 62
     7
370
    25
100
AcDbCircle
 10
15.3287189643
 20
11.5803488247
 30
0.0
 40
0.112498942159295
  0
CIRCLE
  5
D7
330
1F
100
AcDbEntity
  8
0
  6
Continuous
 62
     7
370
    25
100
AcDbCircle
 10
15.3287189643
 20
11.5803488247
 30
0.0
 40
0.1082449745207512
  0
CIRCLE
  5
D8
330
1F
100
AcDbEntity
  8
0
  6
Continuous
 62
     7
370
    25
100
AcDbCircle
 10
15.3287189643
 20
8.0803488247
 30
0.0
 40
0.1082449745207521
  0
CIRCLE
  5
D9
330
1F
100
AcDbEntity
  8
0
  6
Continuous
 62
     7
370
    25
100
AcDbCircle
 10
15.3287189643
 20
8.0803488247
 30
0.0
 40
0.1867550254795631
  0
CIRCLE
  5
DA
330
1F
100
AcDbEntity
  8
0
  6
Continuous
 62
     7
370
    25
100
AcDbCircle
 10
15.3287189643
 20
11.5803488247
 30
0.0
 40
0.1867550254795631
  0
CIRCLE
  5
DB
330
1F
100
AcDbEntity
  8
0
  6
Continuous
 62
     7
370
    25
100
AcDbCircle
 10
15.3287189643
 20
8.0803488247
 30
0.0
 40
0.0932655314994335
  0
CIRCLE
  5
DC
330
1F
100
AcDbEntity
  8
0
  6
Continuous
 62
     7
370
    25
100
AcDbCircle
 10
15.3287189643
 20
11.5803488247
 30
0.0
 40
0.0932655314994335
  0
CIRCLE
  5
DD
330
1F
100
AcDbEntity
  8
0
  6
Continuous
 62
     7
370
    25
100
AcDbCircle
 10
15.3287189643
 20
11.5803488247
 30
0.0
 40
0.2017344685008808
  0
CIRCLE
  5
DE
330
1F
100
AcDbEntity
  8
0
  6
Continuous
 62
     7
370
    25
100
AcDbCircle
 10
15.3287189643
 20
8.0803488247
 30
0.0
 40
0.2017344685008826
  0
CIRCLE
  5
DF
330
1F
100
AcDbEntity
  8
0
  6
Continuous
 62
     7
370
    25
100
AcDbCircle
 10
15.8167189643
 20
11.5803488247
 30
0.0
 40
0.1005000000000003
  0
CIRCLE
  5
E0
330
1F
100
AcDbEntity
  8
0
  6
Continuous
 62
     7
370
    25
100
AcDbCircle
 10
15.8167189643
 20
8.0803488247
 30
0.0
 40
0.1005000000000003
  0
LINE
  5
E1
330
1F
100
AcDbEntity
  8
0
  6
Continuous
 62
     7
370
    25
100
AcDbLine
 10
15.9667189643
 20
7.0717043481
 30
0.0
 11
15.4483714619
 21
7.0717043481
 31
0.0
  0
SPLINE
  5
E2
330
1F
100
AcDbEntity
  8
0
  6
Continuous
 62
     7
370
    25
100
AcDbSpline
210
0.0
220
0.0
230
1.0
 70
     8
 71
     3
 72
     8
 73
     4
 74
     0
 42
0.000000001
 43
0.00000001
 40
0.0
 40
0.0
 40
0.0
 40
0.0
 40
1.0
 40
1.0
 40
1.0
 40
1.0
 10
15.4483714618728
 20
7.071704348136713
 30
0.0
 10
15.37124888144989
 20
7.07170434813778
 30
0.0
 10
15.29416213447045
 20
7.08185301090859
 30
0.0
 10
15.21966744224963
 20
7.101813803528379
 30
0.0
  0
LINE
  5
E3
330
1F
100
AcDbEntity
  8
0
  6
Continuous
 62
     7
370
    25
100
AcDbLine
 10
15.2196674422
 20
7.1018138035
 30
0.0
 11
14.9754906621
 21
7.1672407746
 31
0.0
  0
SPLINE
  5
E4
330
1F
100
AcDbEntity
  8
0
  6
Continuous
 62
     7
370
    25
100
AcDbSpline
210
0.0
220
0.0
230
1.0
 70
     8
 71
     3
 72
     8
 73
     4
 74
     0
 42
0.000000001
 43
0.00000001
 40
0.0
 40
0.0
 40
0.0
 40
0.0
 40
1.0
 40
1.0
 40
1.0
 40
1.0
 10
14.9754906621367
 20
7.167240774571036
 30
0.0
 10
14.97491403675547
 20
7.22452540495369
 30
0.0
 10
14.97465268911359
 20
7.281811572616485
 30
0.0
 10
14.97465268909891
 20
7.339099014598366
 30
0.0
  0
LINE
  5
E5
330
1F
100
AcDbEntity
  8
0
  6
Continuous
 62
     7
370
    25
100
AcDbLine
 10
14.9746526891
 20
12.3215986347
 30
0.0
 11
14.9746526891
 21
7.3390990146
 31
0.0
  0
SPLINE
  5
E6
330
1F
100
AcDbEntity
  8
0
  6
Continuous
 62
     7
370
    25
100
AcDbSpline
210
0.0
220
0.0
230
1.0
 70
     8
 71
     3
 72
     8
 73
     4
 74
     0
 42
0.000000001
 43
0.00000001
 40
0.0
 40
0.0
 40
0.0
 40
0.0
 40
1.0
 40
1.0
 40
1.0
 40
1.0
 10
14.9754906621367
 20
12.49345687474352
 30
0.0
 10
14.97491403675547
 20
12.43617224436086
 30
0.0
 10
14.97465268911359
 20
12.37888607669807
 30
0.0
 10
14.97465268909891
 20
12.32159863471619
 30
0.0
  0
LINE
  5
E7
330
1F
100
AcDbEntity
  8
0
  6
Continuous
 62
     7
370
    25
100
AcDbLine
 10
15.2196674422
 20
12.5588838458
 30
0.0
 11
14.9754906621
 21
12.4934568747
 31
0.0
  0
SPLINE
  5
E8
330
1F
100
AcDbEntity
  8
0
  6
Continuous
 62
     7
370
    25
100
AcDbSpline
210
0.0
220
0.0
230
1.0
 70
     8
 71
     3
 72
    10
 73
     6
 74
     0
 42
0.000000001
 43
0.00000001
 40
0.0
 40
0.0
 40
0.0
 40
0.0
 40
0.5
 40
0.5
 40
1.0
 40
1.0
 40
1.0
 40
1.0
 10
15.4483714618728
 20
12.58899330117784
 30
0.0
 10
15.40980312673103
 20
12.58899144084459
 30
0.0
 10
15.37134337143733
 20
12.58646646342571
 30
0.0
 10
15.29472461653354
 20
12.57638127800235
 30
0.0
 10
15.25693576595493
 20
12.56886793635973
 30
0.0
 10
15.21966744224963
 20
12.55888384578617
 30
0.0
  0
LINE
  5
E9
330
1F
100
AcDbEntity
  8
0
  6
Continuous
 62
     7
370
    25
100
AcDbLine
 10
15.9667189643
 20
12.5889933012
 30
0.0
 11
15.4483714619
 21
12.5889933012
 31
0.0
  0
SPLINE
  5
EA
330
1F
100
AcDbEntity
  8
0
  6
Continuous
 62
     7
370
    25
100
AcDbSpline
210
0.0
220
0.0
230
1.0
 70
     8
 71
     3
 72
    18
 73
    14
 74
     0
 42
0.000000001
 43
0.00000001
 40
0.0
 40
0.0
 40
0.0
 40
0.0
 40
0.125
 40
0.125
 40
0.25
 40
0.25
 40
0.5
 40
0.5
 40
0.75
 40
0.75
 40
0.875
 40
0.875
 40
1.0
 40
1.0
 40
1.0
 40
1.0
 10
16.20036344080597
 20
12.35534882465728
 30
0.0
 10
16.20036065967632
 20
12.37064984055863
 30
0.0
 10
16.19885790813847
 20
12.38585137287309
 30
0.0
 10
16.19286183648589
 20
12.41600833309061
 30
0.0
 10
16.18842365897065
 20
12.43064515618217
 30
0.0
 10
16.17088762413989
 20
12.47299177229159
 30
0.0
 10
16.15353490862251
 20
12.49895213987277
 30
0.0
 10
16.11032620741723
 20
12.54216869691073
 30
0.0
 10
16.08436104579278
 20
12.55951183158661
 30
0.0
 10
16.04201572887376
 20
12.5770563458051
 30
0.0
 10
16.02737225727074
 20
12.58149013737555
 30
0.0
 10
15.9972277279492
 20
12.5874893279926
 30
0.0
 10
15.98203405184101
 20
12.58899051749052
 30
0.0
 10
15.9667189642854
 20
12.58899330117784
 30
0.0
  0
LINE
  5
EB
330
1F
100
AcDbEntity
  8
0
  6
Continuous
 62
     7
370
    25
100
AcDbLine
 10
16.2003634408
 20
9.8303488247
 30
0.0
 11
16.2003634408
 21
12.3553488247
 31
0.0
  0
LINE
  5
EC
330
1F
100
AcDbEntity
  8
0
  6
Continuous
 62
     7
370
    25
100
AcDbLine
 10
16.2003634408
 20
9.8303488247
 30
0.0
 11
16.2003634408
 21
7.3053488247
 31
0.0
  0
SPLINE
  5
ED
330
1F
100
AcDbEntity
  8
0
  6
Continuous
 62
     7
370
    25
100
AcDbSpline
210
0.0
220
0.0
230
1.0
 70
     8
 71
     3
 72
    14
 73
    10
 74
     0
 42
0.000000001
 43
0.00000001
 40
0.0
 40
0.0
 40
0.0
 40
0.0
 40
0.25
 40
0.25
 40
0.5
 40
0.5
 40
0.75
 40
0.75
 40
1.0
 40
1.0
 40
1.0
 40
1.0
 10
16.20036344080597
 20
7.305348824657277
 30
0.0
 10
16.20036344080595
 20
7.274759320089662
 30
0.0
 10
16.19428230041552
 20
7.244192877102035
 30
0.0
 10
16.17087432763861
 20
7.187681031756445
 30
0.0
 10
16.15355670496604
 20
7.161763377868925
 30
0.0
 10
16.11030441107371
 20
7.118511083976681
 30
0.0
 10
16.08438675718627
 20
7.101193461304103
 30
0.0
 10
16.02787491184059
 20
7.077785488527122
 30
0.0
 10
15.99730846885305
 20
7.071704348136713
 30
0.0
 10
15.9667189642854
 20
7.071704348136713
 30
0.0
  0
SPLINE
  5
EE
330
1F
100
AcDbEntity
  8
0
  6
Continuous
 62
     7
370
    25
100
AcDbSpline
210
0.0
220
0.0
230
1.0
 70
     8
 71
     3
 72
    14
 73
    10
 74
     0
 42
0.000000001
 43
0.00000001
 40
0.0
 40
0.0
 40
0.0
 40
0.0
 40
0.25
 40
0.25
 40
0.5
 40
0.5
 40
0.75
 40
0.75
 40
1.0
 40
1.0
 40
1.0
 40
1.0
 10
15.9667189642854
 20
6.976834542335032
 30
0.0
 10
16.00972913636089
 20
6.976834542335029
 30
0.0
 10
16.05270688285304
 20
6.985384889857975
 30
0.0
 10
16.13216499199782
 20
7.018297516306266
 30
0.0
 10
16.16860633909539
 20
7.042646845973882
 30
0.0
 10
16.22942094296879
 20
7.103461449847286
 30
0.0
 10
16.25377027263644
 20
7.139902796944926
 30
0.0
 10
16.28668289908467
 20
7.219360906089561
 30
0.0
 10
16.29523324660764
 20
7.262338652581847
 30
0.0
 10
16.29523324660764
 20
7.305348824657277
 30
0.0
  0
SPLINE
  5
EF
330
1F
100
AcDbEntity
  8
0
  6
Continuous
 62
     7
370
    25
100
AcDbSpline
210
0.0
220
0.0
230
1.0
 70
    24
 71
     3
 72
    22
 73
    18
 74
     0
 42
0.000000001
 43
0.00000001
 40
0.0
 40
0.0
 40
0.0
 40
0.0
 40
0.125
 40
0.125
 40
0.25
 40
0.25
 40
0.375
 40
0.375
 40
0.5
 40
0.5
 40
0.625
 40
0.625
 40
0.75
 40
0.75
 40
0.875
 40
0.875
 40
1.0
 40
1.0
 40
1.0
 40
1.0
 10
15.9667189642854
 20
7.071704348136713
 30
0.0
 10
15.96671896428541
 20
7.06920013608566
 30
0.0
 10
15.96671896428543
 20
7.066088886011617
 30
0.0
 10
15.96671896428545
 20
7.058457221345519
 30
0.0
 10
15.96671896428547
 20
7.053927305373834
 30
0.0
 10
15.96671896428549
 20
7.043619211986672
 30
0.0
 10
15.9667189642855
 20
7.037838982698226
 30
0.0
 10
15.96671896428551
 20
7.025781323093639
 30
0.0
 10
15.96671896428552
 20
7.019519625364207
 30
0.0
 10
15.96671896428552
 20
7.007660899638998
 30
0.0
 10
15.96671896428551
 20
7.002085650753824
 30
0.0
 10
15.9667189642855
 20
6.992538432636817
 30
0.0
 10
15.96671896428549
 20
6.988571299978286
 30
0.0
 10
15.96671896428547
 20
6.982482142979972
 30
0.0
 10
15.96671896428545
 20
6.980349064754481
 30
0.0
 10
15.96671896428543
 20
6.977596408024086
 30
0.0
 10
15.96671896428541
 20
6.976965602667355
 30
0.0
 10
15.9667189642854
 20
6.976834542335028
 30
0.0
  0
SPLINE
  5
F0
330
1F
100
AcDbEntity
  8
0
  6
Continuous
 62
     7
370
    25
100
AcDbSpline
210
0.0
220
0.0
230
1.0
 70
    24
 71
     3
 72
    22
 73
    18
 74
     0
 42
0.000000001
 43
0.00000001
 40
0.0
 40
0.0
 40
0.0
 40
0.0
 40
0.125
 40
0.125
 40
0.25
 40
0.25
 40
0.375
 40
0.375
 40
0.5
 40
0.5
 40
0.625
 40
0.625
 40
0.75
 40
0.75
 40
0.875
 40
0.875
 40
1.0
 40
1.0
 40
1.0
 40
1.0
 10
16.20036344080597
 20
7.305348824657277
 30
0.0
 10
16.20286765285702
 20
7.30534882465727
 30
0.0
 10
16.20597890293106
 20
7.305348824657264
 30
0.0
 10
16.21361056759716
 20
7.305348824657253
 30
0.0
 10
16.21814048356885
 20
7.305348824657246
 30
0.0
 10
16.228448576956
 20
7.305348824657236
 30
0.0
 10
16.23422880624445
 20
7.305348824657234
 30
0.0
 10
16.24628646584904
 20
7.305348824657226
 30
0.0
 10
16.25254816357847
 20
7.305348824657225
 30
0.0
 10
16.26440688930368
 20
7.305348824657225
 30
0.0
 10
16.26998213818885
 20
7.305348824657226
 30
0.0
 10
16.27952935630586
 20
7.305348824657234
 30
0.0
 10
16.28349648896439
 20
7.305348824657236
 30
0.0
 10
16.28958564596271
 20
7.305348824657246
 30
0.0
 10
16.2917187241882
 20
7.305348824657253
 30
0.0
 10
16.29447138091859
 20
7.305348824657265
 30
0.0
 10
16.29510218627532
 20
7.30534882465727
 30
0.0
 10
16.29523324660765
 20
7.305348824657277
 30
0.0
  0
SPLINE
  5
F1
330
1F
100
AcDbEntity
  8
0
  6
Continuous
 62
     7
370
    25
100
AcDbSpline
210
0.0
220
0.0
230
1.0
 70
    24
 71
     3
 72
    22
 73
    18
 74
     0
 42
0.000000001
 43
0.00000001
 40
0.0
 40
0.0
 40
0.0
 40
0.0
 40
0.125
 40
0.125
 40
0.25
 40
0.25
 40
0.375
 40
0.375
 40
0.5
 40
0.5
 40
0.625
 40
0.625
 40
0.75
 40
0.75
 40
0.875
 40
0.875
 40
1.0
 40
1.0
 40
1.0
 40
1.0
 10
15.9667189642854
 20
12.58899330117784
 30
0.0
 10
15.9667189642854
 20
12.59149751322889
 30
0.0
 10
15.9667189642854
 20
12.59460876330293
 30
0.0
 10
15.9667189642854
 20
12.60224042796903
 30
0.0
 10
15.9667189642854
 20
12.60677034394072
 30
0.0
 10
15.9667189642854
 20
12.61707843732788
 30
0.0
 10
15.9667189642854
 20
12.62285866661633
 30
0.0
 10
15.9667189642854
 20
12.63491632622091
 30
0.0
 10
15.9667189642854
 20
12.64117802395034
 30
0.0
 10
15.9667189642854
 20
12.65303674967556
 30
0.0
 10
15.9667189642854
 20
12.65861199856073
 30
0.0
 10
15.9667189642854
 20
12.66815921667774
 30
0.0
 10
15.9667189642854
 20
12.67212634933627
 30
0.0
 10
15.9667189642854
 20
12.67821550633458
 30
0.0
 10
15.9667189642854
 20
12.68034858456007
 30
0.0
 10
15.9667189642854
 20
12.68310124129047
 30
0.0
 10
15.9667189642854
 20
12.6837320466472
 30
0.0
 10
15.9667189642854
 20
12.68386310697952
 30
0.0
  0
SPLINE
  5
F2
330
1F
100
AcDbEntity
  8
0
  6
Continuous
 62
     7
370
    25
100
AcDbSpline
210
0.0
220
0.0
230
1.0
 70
     8
 71
     3
 72
    14
 73
    10
 74
     0
 42
0.000000001
 43
0.00000001
 40
0.0
 40
0.0
 40
0.0
 40
0.0
 40
0.25
 40
0.25
 40
0.5
 40
0.5
 40
0.75
 40
0.75
 40
1.0
 40
1.0
 40
1.0
 40
1.0
 10
15.9667189642854
 20
12.68386310697953
 30
0.0
 10
16.00972138328302
 20
12.68386310697953
 30
0.0
 10
16.05270688266506
 20
12.67531275953445
 30
0.0
 10
16.13216499218581
 20
12.64240013293043
 30
0.0
 10
16.16860633895145
 20
12.61805080348461
 30
0.0
 10
16.22942094311274
 20
12.55723619932333
 30
0.0
 10
16.25377027255855
 20
12.52079485255769
 30
0.0
 10
16.28668289916257
 20
12.44133674303693
 30
0.0
 10
16.29523324660765
 20
12.3983512436549
 30
0.0
 10
16.29523324660765
 20
12.35534882465728
 30
0.0
  0
SPLINE
  5
F3
330
1F
100
AcDbEntity
  8
0
  6
Continuous
 62
     7
370
    25
100
AcDbSpline
210
0.0
220
0.0
230
1.0
 70
    24
 71
     3
 72
    22
 73
    18
 74
     0
 42
0.000000001
 43
0.00000001
 40
0.0
 40
0.0
 40
0.0
 40
0.0
 40
0.125
 40
0.125
 40
0.25
 40
0.25
 40
0.375
 40
0.375
 40
0.5
 40
0.5
 40
0.625
 40
0.625
 40
0.75
 40
0.75
 40
0.875
 40
0.875
 40
1.0
 40
1.0
 40
1.0
 40
1.0
 10
16.20036344080597
 20
12.35534882465728
 30
0.0
 10
16.20286765285702
 20
12.35534882465728
 30
0.0
 10
16.20597890293106
 20
12.35534882465728
 30
0.0
 10
16.21361056759716
 20
12.35534882465728
 30
0.0
 10
16.21814048356885
 20
12.35534882465728
 30
0.0
 10
16.228448576956
 20
12.35534882465728
 30
0.0
 10
16.23422880624445
 20
12.35534882465728
 30
0.0
 10
16.24628646584904
 20
12.35534882465728
 30
0.0
 10
16.25254816357847
 20
12.35534882465728
 30
0.0
 10
16.26440688930368
 20
12.35534882465728
 30
0.0
 10
16.26998213818885
 20
12.35534882465728
 30
0.0
 10
16.27952935630586
 20
12.35534882465728
 30
0.0
 10
16.28349648896439
 20
12.35534882465728
 30
0.0
 10
16.28958564596271
 20
12.35534882465728
 30
0.0
 10
16.2917187241882
 20
12.35534882465728
 30
0.0
 10
16.29447138091859
 20
12.35534882465728
 30
0.0
 10
16.29510218627532
 20
12.35534882465728
 30
0.0
 10
16.29523324660765
 20
12.35534882465728
 30
0.0
  0
SPLINE
  5
F4
330
1F
100
AcDbEntity
  8
0
  6
Continuous
 62
     7
370
    25
100
AcDbSpline
210
0.0
220
0.0
230
1.0
 70
     8
 71
     3
 72
    26
 73
    22
 74
     0
 42
0.000000001
 43
0.00000001
 40
0.0
 40
0.0
 40
0.0
 40
0.0
 40
0.0110966393019654
 40
0.0241343444183558
 40
0.0393636191672904
 40
0.0569677900194582
 40
0.0770895651578326
 40
0.0998458112784432
 40
0.1253349734675173
 40
0.1809150075701278
 40
0.2504289722674179
 40
0.3034639971272416
 40
0.3751406632587335
 40
0.4994250342388248
 40
0.623936838746924
 40
0.7492481354989388
 40
0.8744854380596007
 40
0.9072389801382086
 40
0.9372083620865991
 40
0.968364655530651
 40
1.0
 40
1.0
 40
1.0
 40
1.0
 10
14.86816212394398
 20
12.56198774968729
 30
0.0
 10
14.86838335218591
 20
12.56189779517281
 30
0.0
 10
14.86886450674457
 20
12.56170215096238
 30
0.0
 10
14.86997945263243
 20
12.56141651625589
 30
0.0
 10
14.87142413428461
 20
12.56108879545779
 30
0.0
 10
14.87324428795415
 20
12.56070719071422
 30
0.0
 10
14.87543225215593
 20
12.56025320026719
 30
0.0
 10
14.87799780717713
 20
12.559709699297
 30
0.0
 10
14.88199571525628
 20
12.55882707717375
 30
0.0
 10
14.88795422556534
 20
12.55740183426371
 30
0.0
 10
14.89508771667844
 20
12.55540810796906
 30
0.0
 10
14.90290624874257
 20
12.55294328670574
 30
0.0
 10
14.9128864120262
 20
12.54935677578411
 30
0.0
 10
14.92561917558377
 20
12.54393864804599
 30
0.0
 10
14.94006000789489
 20
12.53625360461515
 30
0.0
 10
14.95380385339586
 20
12.52689819228909
 30
0.0
 10
14.96324670612017
 20
12.51807233804741
 30
0.0
 10
14.96842389013947
 20
12.51099031055532
 30
0.0
 10
14.9707167394996
 20
12.50716084989327
 30
0.0
 10
14.97257870800126
 20
12.50305775418288
 30
0.0
 10
14.973504557866
 20
12.50003929917223
 30
0.0
 10
14.97397101455308
 20
12.49851855744291
 30
0.0
  0
SPLINE
  5
F5
330
1F
100
AcDbEntity
  8
0
  6
Continuous
 62
     7
370
    25
100
AcDbSpline
210
0.0
220
0.0
230
1.0
 70
     8
 71
     3
 72
     9
 73
     5
 74
     0
 42
0.000000001
 43
0.00000001
 40
0.0
 40
0.0
 40
0.0
 40
0.0
 40
0.4676583383060824
 40
1.0
 40
1.0
 40
1.0
 40
1.0
 10
14.86903736156168
 20
12.56314924901039
 30
0.0
 10
14.8688825328129
 20
12.56303110557831
 30
0.0
 10
14.86855146045494
 20
12.56277847791745
 30
0.0
 10
14.86829738101516
 20
12.56226245185752
 30
0.0
 10
14.86816212394398
 20
12.56198774968729
 30
0.0
  0
LINE
  5
F6
330
1F
100
AcDbEntity
  8
0
  6
Continuous
 62
     7
370
    25
100
AcDbLine
 10
14.8690373616
 20
12.563149249
 30
0.0
 11
15.1951133297
 21
12.6505210413
 31
0.0
  0
SPLINE
  5
F7
330
1F
100
AcDbEntity
  8
0
  6
Continuous
 62
     7
370
    25
100
AcDbSpline
210
0.0
220
0.0
230
1.0
 70
    24
 71
     3
 72
    22
 73
    18
 74
     0
 42
0.000000001
 43
0.00000001
 40
0.0
 40
0.0
 40
0.0
 40
0.0
 40
0.125
 40
0.125
 40
0.25
 40
0.25
 40
0.375
 40
0.375
 40
0.5
 40
0.5
 40
0.625
 40
0.625
 40
0.75
 40
0.75
 40
0.875
 40
0.875
 40
1.0
 40
1.0
 40
1.0
 40
1.0
 10
15.21966744224963
 20
12.55888384578617
 30
0.0
 10
15.21901930447784
 20
12.56130272888079
 30
0.0
 10
15.2182140537046
 20
12.56430796567935
 30
0.0
 10
15.21623883354318
 20
12.57167958767791
 30
0.0
 10
15.21506640501699
 20
12.57605515050588
 30
0.0
 10
15.2123984741297
 20
12.58601200412834
 30
0.0
 10
15.21090244070479
 20
12.59159527687993
 30
0.0
 10
15.20778168875976
 20
12.6032420816966
 30
0.0
 10
15.20616104213271
 20
12.60929041724987
 30
0.0
 10
15.20309177806437
 20
12.62074506669473
 30
0.0
 10
15.20164879747171
 20
12.62613034358091
 30
0.0
 10
15.19917779559528
 20
12.63535224812934
 30
0.0
 10
15.1981510261088
 20
12.63918420402053
 30
0.0
 10
15.19657503630902
 20
12.64506587802553
 30
0.0
 10
15.19602295503957
 20
12.64712627337303
 30
0.0
 10
15.19531051505311
 20
12.64978513559983
 30
0.0
 10
15.19514725061303
 20
12.65039444678525
 30
0.0
 10
15.19511332970297
 20
12.65052104134505
 30
0.0
  0
SPLINE
  5
F8
330
1F
100
AcDbEntity
  8
0
  6
Continuous
 62
     7
370
    25
100
AcDbSpline
210
0.0
220
0.0
230
1.0
 70
     8
 71
     3
 72
     8
 73
     4
 74
     0
 42
0.000000001
 43
0.00000001
 40
0.0
 40
0.0
 40
0.0
 40
0.0
 40
1.0
 40
1.0
 40
1.0
 40
1.0
 10
14.97397101455307
 20
12.49851855744296
 30
0.0
 10
14.97454017187639
 20
12.49659767315893
 30
0.0
 10
14.97504437466339
 20
12.4949192025046
 30
0.0
 10
14.97549066213671
 20
12.49345687474348
 30
0.0
  0
SPLINE
  5
F9
330
1F
100
AcDbEntity
  8
0
  6
Continuous
 62
     7
370
    25
100
AcDbSpline
210
0.0
220
0.0
230
1.0
 70
     8
 71
     3
 72
     8
 73
     4
 74
     0
 42
0.000000001
 43
0.00000001
 40
0.0
 40
0.0
 40
0.0
 40
0.0
 40
1.0
 40
1.0
 40
1.0
 40
1.0
 10
14.9754906621367
 20
12.49345687474352
 30
0.0
 10
14.96991831514947
 20
12.49331212799151
 30
0.0
 10
14.96414743112745
 20
12.49316915495895
 30
0.0
 10
14.9594444983078
 20
12.49301525882457
 30
0.0
  0
SPLINE
  5
FA
330
1F
100
AcDbEntity
  8
0
  6
Continuous
 62
     7
370
    25
100
AcDbSpline
210
0.0
220
0.0
230
1.0
 70
     8
 71
     3
 72
     8
 73
     4
 74
     0
 42
0.000000001
 43
0.00000001
 40
0.0
 40
0.0
 40
0.0
 40
0.0
 40
1.0
 40
1.0
 40
1.0
 40
1.0
 10
14.97397101455308
 20
12.49851855744291
 30
0.0
 10
14.96875924926824
 20
12.49685999153967
 30
0.0
 10
14.96372524643952
 20
12.49494978446024
 30
0.0
 10
14.95944450021512
 20
12.49301525880552
 30
0.0
  0
SPLINE
  5
FB
330
1F
100
AcDbEntity
  8
0
  6
Continuous
 62
     7
370
    25
100
AcDbSpline
210
0.0
220
0.0
230
1.0
 70
    24
 71
     3
 72
    22
 73
    18
 74
     0
 42
0.000000001
 43
0.00000001
 40
0.0
 40
0.0
 40
0.0
 40
0.0
 40
0.125
 40
0.125
 40
0.25
 40
0.25
 40
0.375
 40
0.375
 40
0.5
 40
0.5
 40
0.625
 40
0.625
 40
0.75
 40
0.75
 40
0.875
 40
0.875
 40
1.0
 40
1.0
 40
1.0
 40
1.0
 10
15.21966744224963
 20
7.101813803528379
 30
0.0
 10
15.21901930447784
 20
7.099394920433762
 30
0.0
 10
15.2182140537046
 20
7.096389683635201
 30
0.0
 10
15.21623883354318
 20
7.089018061636638
 30
0.0
 10
15.21506640501699
 20
7.084642498808668
 30
0.0
 10
15.2123984741297
 20
7.07468564518621
 30
0.0
 10
15.21090244070479
 20
7.069102372434629
 30
0.0
 10
15.20778168875976
 20
7.057455567617954
 30
0.0
 10
15.20616104213271
 20
7.051407232064681
 30
0.0
 10
15.20309177806437
 20
7.039952582619823
 30
0.0
 10
15.20164879747171
 20
7.034567305733646
 30
0.0
 10
15.19917779559528
 20
7.025345401185212
 30
0.0
 10
15.1981510261088
 20
7.021513445294024
 30
0.0
 10
15.19657503630902
 20
7.015631771289023
 30
0.0
 10
15.19602295503957
 20
7.013571375941527
 30
0.0
 10
15.19531051505311
 20
7.010912513714728
 30
0.0
 10
15.19514725061303
 20
7.0103032025293
 30
0.0
 10
15.19511332970297
 20
7.010176607969504
 30
0.0
  0
LINE
  5
FC
330
1F
100
AcDbEntity
  8
0
  6
Continuous
 62
     7
370
    25
100
AcDbLine
 10
14.8690373616
 20
7.0975484003
 30
0.0
 11
15.1951133297
 21
7.010176608
 31
0.0
  0
SPLINE
  5
FD
330
1F
100
AcDbEntity
  8
0
  6
Continuous
 62
     7
370
    25
100
AcDbSpline
210
0.0
220
0.0
230
1.0
 70
     8
 71
     3
 72
     8
 73
     4
 74
     0
 42
0.000000001
 43
0.00000001
 40
0.0
 40
0.0
 40
0.0
 40
0.0
 40
1.0
 40
1.0
 40
1.0
 40
1.0
 10
14.86903736156168
 20
7.097548400304162
 30
0.0
 10
14.86869027212395
 20
7.09774051561093
 30
0.0
 10
14.86840639597809
 20
7.09816531208019
 30
0.0
 10
14.86816212394398
 20
7.09870989962726
 30
0.0
  0
SPLINE
  5
FE
330
1F
100
AcDbEntity
  8
0
  6
Continuous
 62
     7
370
    25
100
AcDbSpline
210
0.0
220
0.0
230
1.0
 70
     8
 71
     3
 72
    36
 73
    32
 74
     0
 42
0.000000001
 43
0.00000001
 40
0.0
 40
0.0
 40
0.0
 40
0.0
 40
0.0078124999999988
 40
0.0078124999999988
 40
0.0156249999999975
 40
0.0156249999999975
 40
0.0312499999999973
 40
0.0312499999999973
 40
0.0624999999999961
 40
0.0624999999999961
 40
0.1249999999999948
 40
0.1249999999999948
 40
0.249999999999991
 40
0.249999999999991
 40
0.4999999999999912
 40
0.4999999999999912
 40
0.7499999999999915
 40
0.7499999999999915
 40
0.8749999999999946
 40
0.8749999999999946
 40
0.9374999999999993
 40
0.9374999999999993
 40
0.968750000000003
 40
0.968750000000003
 40
0.9843750000000039
 40
0.9843750000000039
 40
0.9921875000000039
 40
0.9921875000000039
 40
0.996093750000002
 40
0.996093750000002
 40
1.0
 40
1.0
 40
1.0
 40
1.0
 10
14.86816211551067
 20
7.098709905421383
 30
0.0
 10
14.86850627876713
 20
7.098879080628657
 30
0.0
 10
14.86882762340118
 20
7.098971148880909
 30
0.0
 10
14.869467315718
 20
7.099152741442984
 30
0.0
 10
14.8697834374041
 20
7.099234017903243
 30
0.0
 10
14.87072487284915
 20
7.09946240007532
 30
0.0
 10
14.87134360925803
 20
7.099595458841899
 30
0.0
 10
14.87319174808981
 20
7.099991155003108
 30
0.0
 10
14.87440859781463
 20
7.100237171940097
 30
0.0
 10
14.8780334209298
 20
7.100995003364868
 30
0.0
 10
14.88041253781022
 20
7.101512173967254
 30
0.0
 10
14.88750153711814
 20
7.103179382063844
 30
0.0
 10
14.89216045887854
 20
7.104432478486007
 30
0.0
 10
14.90601271363666
 20
7.108662352815081
 30
0.0
 10
14.91497569764719
 20
7.112049687553898
 30
0.0
 10
14.93255338247328
 20
7.120235875312937
 30
0.0
 10
14.94116404174001
 20
7.124960471140639
 30
0.0
 10
14.95379242844497
 20
7.134192561265226
 30
0.0
 10
14.95792583591919
 20
7.137579095084831
 30
0.0
 10
14.96392752863923
 20
7.143873179573091
 30
0.0
 10
14.96588347270623
 20
7.1461307106957
 30
0.0
 10
14.96876512461579
 20
7.150300667644881
 30
0.0
 10
14.96971080157975
 20
7.151781329920619
 30
0.0
 10
14.97115972661428
 20
7.154564843375353
 30
0.0
 10
14.9716441733029
 20
7.15556012686497
 30
0.0
 10
14.97241072719352
 20
7.157412408607563
 30
0.0
 10
14.97267346057454
 20
7.158094181067804
 30
0.0
 10
14.9730823933607
 20
7.159251443277296
 30
0.0
 10
14.973224358384
 20
7.15967257815851
 30
0.0
 10
14.97354828342245
 20
7.16070528005385
 30
0.0
 10
14.97369713818458
 20
7.161188991104266
 30
0.0
 10
14.97397102236092
 20
7.162179087762934
 30
0.0
  0
SPLINE
  5
FF
330
1F
100
AcDbEntity
  8
0
  6
Continuous
 62
     7
370
    25
100
AcDbSpline
210
0.0
220
0.0
230
1.0
 70
    24
 71
     3
 72
     8
 73
     4
 74
     0
 42
0.000000001
 43
0.00000001
 40
0.0
 40
0.0
 40
0.0
 40
0.0
 40
1.0
 40
1.0
 40
1.0
 40
1.0
 10
14.97397101455308
 20
7.162179091871643
 30
0.0
 10
14.97447082570723
 20
7.163843876193493
 30
0.0
 10
14.9749801900271
 20
7.165540480454523
 30
0.0
 10
14.97549066213668
 20
7.167240774570996
 30
0.0
  0
SPLINE
  5
100
330
1F
100
AcDbEntity
  8
0
  6
Continuous
 62
     7
370
    25
100
AcDbSpline
210
0.0
220
0.0
230
1.0
 70
     8
 71
     3
 72
    15
 73
    11
 74
     0
 42
0.000000001
 43
0.00000001
 40
0.0
 40
0.0
 40
0.0
 40
0.0
 40
0.2010776012674857
 40
0.3817572301701073
 40
0.5408040935389291
 40
0.6775523792675895
 40
0.7917560284872267
 40
0.8834423944908424
 40
0.9527846038508716
 40
1.0
 40
1.0
 40
1.0
 40
1.0
 10
14.97397101406637
 20
7.162179090054571
 30
0.0
 10
14.97293406798428
 20
7.162515499335862
 30
0.0
 10
14.97096536703679
 20
7.163154191435927
 30
0.0
 10
14.96822666524786
 20
7.164118355587649
 30
0.0
 10
14.96587140462231
 20
7.164993727516879
 30
0.0
 10
14.96390340110494
 20
7.16576605499408
 30
0.0
 10
14.96230863295925
 20
7.166422576819076
 30
0.0
 10
14.96106575296153
 20
7.166956054725025
 30
0.0
 10
14.96014864700672
 20
7.167363337939397
 30
0.0
 10
14.95964752547728
 20
7.167590398004831
 30
0.0
 10
14.95944453013066
 20
7.167682375966219
 30
0.0
  0
SPLINE
  5
101
330
1F
100
AcDbEntity
  8
0
  6
Continuous
 62
     7
370
    25
100
AcDbSpline
210
0.0
220
0.0
230
1.0
 70
     8
 71
     3
 72
     8
 73
     4
 74
     0
 42
0.000000001
 43
0.00000001
 40
0.0
 40
0.0
 40
0.0
 40
0.0
 40
1.0
 40
1.0
 40
1.0
 40
1.0
 10
14.97549066213668
 20
7.167240774570996
 30
0.0
 10
14.96983250616704
 20
7.167363584110656
 30
0.0
 10
14.9642234022202
 20
7.167517976854634
 30
0.0
 10
14.95944450021512
 20
7.167682390509029
 30
0.0
  0
SPLINE
  5
102
330
1F
100
AcDbEntity
  8
0
  6
Continuous
 62
     7
370
    25
100
AcDbSpline
210
0.0
220
0.0
230
1.0
 70
     8
 71
     3
 72
     9
 73
     5
 74
     0
 42
0.000000001
 43
0.00000001
 40
0.0
 40
0.0
 40
0.0
 40
0.0
 40
0.4765334069764322
 40
1.0
 40
1.0
 40
1.0
 40
1.0
 10
14.95995655588773
 20
12.32159863471619
 30
0.0
 10
14.95993532954736
 20
12.34882785933037
 30
0.0
 10
14.95989078631061
 20
12.40596808122363
 30
0.0
 10
14.95959784081387
 20
12.46310565026939
 30
0.0
 10
14.95944449363276
 20
12.49301525887143
 30
0.0
  0
LINE
  5
103
330
1F
100
AcDbEntity
  8
0
  6
Continuous
 62
     7
370
    25
100
AcDbLine
 10
14.9746526891
 20
12.3215986347
 30
0.0
 11
14.9599565559
 21
12.3215986347
 31
0.0
  0
SPLINE
  5
104
330
1F
100
AcDbEntity
  8
0
  6
Continuous
 62
     7
370
    25
100
AcDbSpline
210
0.0
220
0.0
230
1.0
 70
     8
 71
     3
 72
     8
 73
     4
 74
     0
 42
0.000000001
 43
0.00000001
 40
0.0
 40
0.0
 40
0.0
 40
0.0
 40
1.0
 40
1.0
 40
1.0
 40
1.0
 10
14.95995655590195
 20
7.339099014598513
 30
0.0
 10
14.95995653262196
 20
7.281968852045351
 30
0.0
 10
14.95977761259119
 20
7.224832760043276
 30
0.0
 10
14.95944449539422
 20
7.167682390525472
 30
0.0
  0
LINE
  5
105
330
1F
100
AcDbEntity
  8
0
  6
Continuous
 62
     7
370
    25
100
AcDbLine
 10
14.9746526891
 20
7.3390990146
 30
0.0
 11
14.9599565559
 21
7.3390990146
 31
0.0
  0
SPLINE
  5
106
330
1F
100
AcDbEntity
  8
0
  6
Continuous
 62
     7
370
    25
100
AcDbSpline
210
0.0
220
0.0
230
1.0
 70
     8
 71
     3
 72
     8
 73
     4
 74
     0
 42
0.000000001
 43
0.00000001
 40
0.0
 40
0.0
 40
0.0
 40
0.0
 40
1.0
 40
1.0
 40
1.0
 40
1.0
 10
15.19511332970298
 20
12.65052104134505
 30
0.0
 10
15.27759516560085
 20
12.67262198266412
 30
0.0
 10
15.36297998185124
 20
12.68386310697953
 30
0.0
 10
15.4483714618728
 20
12.68386310697953
 30
0.0
  0
SPLINE
  5
107
330
1F
100
AcDbEntity
  8
0
  6
Continuous
 62
     7
370
    25
100
AcDbSpline
210
0.0
220
0.0
230
1.0
 70
    24
 71
     3
 72
    22
 73
    18
 74
     0
 42
0.000000001
 43
0.00000001
 40
0.0
 40
0.0
 40
0.0
 40
0.0
 40
0.125
 40
0.125
 40
0.25
 40
0.25
 40
0.375
 40
0.375
 40
0.5
 40
0.5
 40
0.625
 40
0.625
 40
0.75
 40
0.75
 40
0.875
 40
0.875
 40
1.0
 40
1.0
 40
1.0
 40
1.0
 10
15.4483714618728
 20
12.58899330117784
 30
0.0
 10
15.4483714618728
 20
12.59149751322889
 30
0.0
 10
15.4483714618728
 20
12.59460876330293
 30
0.0
 10
15.4483714618728
 20
12.60224042796903
 30
0.0
 10
15.4483714618728
 20
12.60677034394072
 30
0.0
 10
15.4483714618728
 20
12.61707843732788
 30
0.0
 10
15.4483714618728
 20
12.62285866661633
 30
0.0
 10
15.4483714618728
 20
12.63491632622091
 30
0.0
 10
15.4483714618728
 20
12.64117802395034
 30
0.0
 10
15.4483714618728
 20
12.65303674967556
 30
0.0
 10
15.4483714618728
 20
12.65861199856073
 30
0.0
 10
15.4483714618728
 20
12.66815921667774
 30
0.0
 10
15.4483714618728
 20
12.67212634933627
 30
0.0
 10
15.4483714618728
 20
12.67821550633458
 30
0.0
 10
15.4483714618728
 20
12.68034858456007
 30
0.0
 10
15.4483714618728
 20
12.68310124129047
 30
0.0
 10
15.44837146187279
 20
12.6837320466472
 30
0.0
 10
15.44837146187279
 20
12.68386310697952
 30
0.0
  0
SPLINE
  5
108
330
1F
100
AcDbEntity
  8
0
  6
Continuous
 62
     7
370
    25
100
AcDbSpline
210
0.0
220
0.0
230
1.0
 70
     8
 71
     3
 72
     8
 73
     4
 74
     0
 42
0.000000001
 43
0.00000001
 40
0.0
 40
0.0
 40
0.0
 40
0.0
 40
1.0
 40
1.0
 40
1.0
 40
1.0
 10
15.19511332970297
 20
7.010176607969504
 30
0.0
 10
15.27760591833011
 20
6.988072785465316
 30
0.0
 10
15.36296884980675
 20
6.976834542335027
 30
0.0
 10
15.4483714618728
 20
6.976834542335027
 30
0.0
  0
SPLINE
  5
109
330
1F
100
AcDbEntity
  8
0
  6
Continuous
 62
     7
370
    25
100
AcDbSpline
210
0.0
220
0.0
230
1.0
 70
    24
 71
     3
 72
    22
 73
    18
 74
     0
 42
0.000000001
 43
0.00000001
 40
0.0
 40
0.0
 40
0.0
 40
0.0
 40
0.125
 40
0.125
 40
0.25
 40
0.25
 40
0.375
 40
0.375
 40
0.5
 40
0.5
 40
0.625
 40
0.625
 40
0.75
 40
0.75
 40
0.875
 40
0.875
 40
1.0
 40
1.0
 40
1.0
 40
1.0
 10
15.4483714618728
 20
7.071704348136713
 30
0.0
 10
15.4483714618728
 20
7.06920013608566
 30
0.0
 10
15.44837146187279
 20
7.066088886011617
 30
0.0
 10
15.44837146187279
 20
7.058457221345519
 30
0.0
 10
15.44837146187279
 20
7.053927305373834
 30
0.0
 10
15.44837146187279
 20
7.043619211986672
 30
0.0
 10
15.44837146187279
 20
7.037838982698226
 30
0.0
 10
15.44837146187279
 20
7.025781323093639
 30
0.0
 10
15.44837146187278
 20
7.019519625364207
 30
0.0
 10
15.44837146187278
 20
7.007660899638998
 30
0.0
 10
15.44837146187278
 20
7.002085650753824
 30
0.0
 10
15.44837146187279
 20
6.992538432636817
 30
0.0
 10
15.44837146187279
 20
6.988571299978286
 30
0.0
 10
15.44837146187279
 20
6.982482142979972
 30
0.0
 10
15.44837146187279
 20
6.980349064754481
 30
0.0
 10
15.44837146187279
 20
6.977596408024086
 30
0.0
 10
15.44837146187279
 20
6.976965602667355
 30
0.0
 10
15.44837146187279
 20
6.976834542335028
 30
0.0
  0
LINE
  5
10A
330
1F
100
AcDbEntity
  8
0
  6
Continuous
 62
     7
370
    25
100
AcDbLine
 10
15.4483714619
 20
6.9768345423
 30
0.0
 11
15.9667189643
 21
6.9768345423
 31
0.0
  0
SPLINE
  5
10B
330
1F
100
AcDbEntity
  8
0
  6
Continuous
 62
     7
370
    25
100
AcDbSpline
210
0.0
220
0.0
230
1.0
 70
    24
 71
     3
 72
    22
 73
    18
 74
     0
 42
0.000000001
 43
0.00000001
 40
0.0
 40
0.0
 40
0.0
 40
0.0
 40
0.1249999999999999
 40
0.1249999999999999
 40
0.2499999999999998
 40
0.2499999999999998
 40
0.3749999999999998
 40
0.3749999999999998
 40
0.4999999999999997
 40
0.4999999999999997
 40
0.6249999999999996
 40
0.6249999999999996
 40
0.7499999999999997
 40
0.7499999999999997
 40
0.8749999999999999
 40
0.8749999999999999
 40
1.0
 40
1.0
 40
1.0
 40
1.0
 10
16.29523324660765
 20
9.830348824657277
 30
0.0
 10
16.29510218627532
 20
9.830348824657277
 30
0.0
 10
16.29447138091859
 20
9.830348824657277
 30
0.0
 10
16.2917187241882
 20
9.830348824657277
 30
0.0
 10
16.2895856459627
 20
9.830348824657277
 30
0.0
 10
16.28349648896439
 20
9.830348824657277
 30
0.0
 10
16.27952935630586
 20
9.830348824657277
 30
0.0
 10
16.26998213818885
 20
9.830348824657277
 30
0.0
 10
16.26440688930368
 20
9.830348824657277
 30
0.0
 10
16.25254816357847
 20
9.830348824657277
 30
0.0
 10
16.24628646584904
 20
9.830348824657277
 30
0.0
 10
16.23422880624445
 20
9.830348824657277
 30
0.0
 10
16.228448576956
 20
9.830348824657277
 30
0.0
 10
16.21814048356884
 20
9.830348824657277
 30
0.0
 10
16.21361056759716
 20
9.830348824657277
 30
0.0
 10
16.20597890293106
 20
9.830348824657277
 30
0.0
 10
16.20286765285702
 20
9.830348824657277
 30
0.0
 10
16.20036344080597
 20
9.830348824657277
 30
0.0
  0
LINE
  5
10C
330
1F
100
AcDbEntity
  8
0
  6
Continuous
 62
     7
370
    25
100
AcDbLine
 10
16.2952332466
 20
7.3053488247
 30
0.0
 11
16.2952332466
 21
9.8303488247
 31
0.0
  0
LINE
  5
10D
330
1F
100
AcDbEntity
  8
0
  6
Continuous
 62
     7
370
    25
100
AcDbLine
 10
16.2952332466
 20
12.3553488247
 30
0.0
 11
16.2952332466
 21
9.8303488247
 31
0.0
  0
LINE
  5
10E
330
1F
100
AcDbEntity
  8
0
  6
Continuous
 62
     7
370
    25
100
AcDbLine
 10
15.4483714619
 20
12.683863107
 30
0.0
 11
15.9667189643
 21
12.683863107
 31
0.0
  0
LINE
  5
10F
330
1F
100
AcDbEntity
  8
0
  6
Continuous
 62
     7
370
    25
100
AcDbLine
 10
14.9599565559
 20
7.3390990146
 30
0.0
 11
14.9599565559
 21
12.3215986347
 31
0.0
  0
SPLINE
  5
110
330
1F
100
AcDbEntity
  8
0
  6
Continuous
 62
     7
370
    25
100
AcDbSpline
210
0.0
220
0.0
230
1.0
 70
     8
 71
     3
 72
    23
 73
    19
 74
     0
 42
0.000000001
 43
0.00000001
 40
0.0
 40
0.0
 40
0.0
 40
0.0
 40
0.0123966707807759
 40
0.0281658674369133
 40
0.047424224333179
 40
0.0701915816436775
 40
0.0964409088829327
 40
0.1261217892278748
 40
0.1775060695016125
 40
0.2514448118278962
 40
0.3221730618928674
 40
0.3760492693103858
 40
0.5009848282253714
 40
0.7503287300961128
 40
0.8745774170808646
 40
0.9369462847314182
 40
0.9741409116985609
 40
1.0
 40
1.0
 40
1.0
 40
1.0
 10
14.95944449363277
 20
12.49301525887142
 30
0.0
 10
14.95924476768072
 20
12.49348899363767
 30
0.0
 10
14.95879098014466
 20
12.49456534315622
 30
0.0
 10
14.95773677416799
 20
12.4961673564998
 30
0.0
 10
14.95634367052506
 20
12.49799393325893
 30
0.0
 10
14.95456304485922
 20
12.50000115780191
 30
0.0
 10
14.95240600904875
 20
12.50217256015153
 30
0.0
 10
14.94934065882
 20
12.50495264836097
 30
0.0
 10
14.94470510107688
 20
12.50862915996914
 30
0.0
 10
14.93860575105161
 20
12.51283726005501
 30
0.0
 10
14.93222389584706
 20
12.51665977823185
 30
0.0
 10
14.9240323529262
 20
12.52105302077698
 30
0.0
 10
14.90962653828201
 20
12.52767574622129
 30
0.0
 10
14.89224783103209
 20
12.53354920804425
 30
0.0
 10
14.87665681925498
 20
12.53684088332186
 30
0.0
 10
14.86853425779287
 20
12.53782014574977
 30
0.0
 10
14.86394578065944
 20
12.53811263534995
 30
0.0
 10
14.86162217441126
 20
12.53805053613087
 30
0.0
 10
14.86066923549413
 20
12.53802506849296
 30
0.0
  0
SPLINE
  5
111
330
1F
100
AcDbEntity
  8
0
  6
Continuous
 62
     7
370
    25
100
AcDbSpline
210
0.0
220
0.0
230
1.0
 70
     8
 71
     3
 72
    19
 73
    15
 74
     0
 42
0.000000001
 43
0.00000001
 40
0.0
 40
0.0
 40
0.0
 40
0.0
 40
0.1063190473582304
 40
0.210515244937012
 40
0.3116835589231044
 40
0.409031363934905
 40
0.5019015698444749
 40
0.589782748491947
 40
0.6723074360103495
 40
0.7492411457832736
 40
0.8204652026574104
 40
0.8859564133635827
 40
0.9457660606104102
 40
0.9999999999999999
 40
0.9999999999999999
 40
0.9999999999999999
 40
0.9999999999999999
 10
14.86816211551068
 20
12.56198774389317
 30
0.0
 10
14.86767116953791
 20
12.56155793646097
 30
0.0
 10
14.86669908020606
 20
12.56070690347006
 30
0.0
 10
14.86540243301053
 20
12.55900687215069
 30
0.0
 10
14.8642621240801
 20
12.55707688373479
 30
0.0
 10
14.86329611086067
 20
12.55495182285177
 30
0.0
 10
14.86250243100745
 20
12.55270872807717
 30
0.0
 10
14.86187429150138
 20
12.5504109421404
 30
0.0
 10
14.86139828428314
 20
12.54811735666134
 30
0.0
 10
14.86105749720256
 20
12.54587689038114
 30
0.0
 10
14.86083223518499
 20
12.5437286975387
 30
0.0
 10
14.86070460664499
 20
12.54170142572947
 30
0.0
 10
14.86064979965484
 20
12.53981687943253
 30
0.0
 10
14.86066322576888
 20
12.5386024816161
 30
0.0
 10
14.86066961061766
 20
12.53802496928495
 30
0.0
  0
SPLINE
  5
112
330
1F
100
AcDbEntity
  8
0
  6
Continuous
 62
     7
370
    25
100
AcDbSpline
210
0.0
220
0.0
230
1.0
 70
     8
 71
     3
 72
    12
 73
     8
 74
     0
 42
0.000000001
 43
0.00000001
 40
0.0
 40
0.0
 40
0.0
 40
0.0
 40
0.5
 40
0.5
 40
0.75
 40
0.75
 40
1.0
 40
1.0
 40
1.0
 40
1.0
 10
14.86816212394398
 20
7.09870989962726
 30
0.0
 10
14.86577400546147
 20
7.100589550105039
 30
0.0
 10
14.86382551625253
 20
7.103845218601422
 30
0.0
 10
14.86186836660038
 20
7.11011356500013
 30
0.0
 10
14.86137047823048
 20
7.112466468477812
 30
0.0
 10
14.86074866251654
 20
7.117398939847556
 30
0.0
 10
14.86061629865271
 20
7.119977890004596
 30
0.0
 10
14.86066961064427
 20
7.122672681973902
 30
0.0
  0
SPLINE
  5
113
330
1F
100
AcDbEntity
  8
0
  6
Continuous
 62
     7
370
    25
100
AcDbSpline
210
0.0
220
0.0
230
1.0
 70
     8
 71
     3
 72
    24
 73
    20
 74
     0
 42
0.000000001
 43
0.00000001
 40
0.0
 40
0.0
 40
0.0
 40
0.0
 40
0.0312500000000014
 40
0.0312500000000014
 40
0.0625000000000029
 40
0.0625000000000029
 40
0.1250000000000011
 40
0.1250000000000011
 40
0.2500000000000043
 40
0.2500000000000043
 40
0.500000000000004
 40
0.500000000000004
 40
0.7500000000000038
 40
0.7500000000000038
 40
0.8750000000000022
 40
0.8750000000000022
 40
0.9375000000000011
 40
0.9375000000000011
 40
1.0
 40
1.0
 40
1.0
 40
1.0
 10
14.95944453013066
 20
7.167682375966219
 30
0.0
 10
14.95901985981201
 20
7.166455729155794
 30
0.0
 10
14.95827391619693
 20
7.165352178082901
 30
0.0
 10
14.95680181813584
 20
7.163293506553012
 30
0.0
 10
14.95601007477866
 20
7.162340822028917
 30
0.0
 10
14.95355231601929
 20
7.159594491671006
 30
0.0
 10
14.95179013622017
 20
7.157928544867092
 30
0.0
 10
14.94632022959291
 20
7.153189417080514
 30
0.0
 10
14.94243996483766
 20
7.150419366155402
 30
0.0
 10
14.93051105738118
 20
7.142780099811558
 30
0.0
 10
14.9222514671416
 20
7.138654908832898
 30
0.0
 10
14.90534270259116
 20
7.131574605130312
 30
0.0
 10
14.8966825639034
 20
7.128637382384011
 30
0.0
 10
14.88333550166658
 20
7.125267476775093
 30
0.0
 10
14.87885082353703
 20
7.124324390111624
 30
0.0
 10
14.87207659407509
 20
7.123301185743983
 30
0.0
 10
14.86981000594809
 20
7.123023624463417
 30
0.0
 10
14.86525089194399
 20
7.122657920603356
 30
0.0
 10
14.86296040427145
 20
7.122528414540836
 30
0.0
 10
14.86066961061771
 20
7.122672680029599
 30
0.0
  0
LINE
  5
114
330
1F
100
AcDbEntity
  8
0
  6
Continuous
 62
     7
370
    25
100
AcDbLine
 10
14.5925532256
 20
12.3215986347
 30
0.0
 11
14.9599565559
 21
12.3215986347
 31
0.0
  0
SPLINE
  5
115
330
1F
100
AcDbEntity
  8
0
  6
Continuous
 62
     7
370
    25
100
AcDbSpline
210
0.0
220
0.0
230
1.0
 70
     8
 71
     3
 72
    27
 73
    23
 74
     0
 42
0.000000001
 43
0.00000001
 40
0.0
 40
0.0
 40
0.0
 40
0.0
 40
0.0374687510300911
 40
0.0636107317152553
 40
0.0710093297972105
 40
0.0763429860926148
 40
0.0822805541655099
 40
0.0857689987240816
 40
0.0890844188890069
 40
0.0947843975214064
 40
0.1066740576354621
 40
0.1264015631260465
 40
0.1655216573579864
 40
0.1896673320044242
 40
0.2213456404948779
 40
0.2523251388834559
 40
0.3650721229450644
 40
0.5026130257109163
 40
0.633254634990197
 40
0.7873109917123273
 40
0.8884366616972966
 40
1.0
 40
1.0
 40
1.0
 40
1.0
 10
14.59255322560806
 20
12.32159863471619
 30
0.0
 10
14.59536628672353
 20
12.32264324574839
 30
0.0
 10
14.6001420230637
 20
12.32441668282032
 30
0.0
 10
14.60539394416576
 20
12.32662464736674
 30
0.0
 10
14.60817890636645
 20
12.32800767339931
 30
0.0
 10
14.60947637631844
 20
12.3287731026241
 30
0.0
 10
14.61042006778456
 20
12.32942782377908
 30
0.0
 10
14.61102106242302
 20
12.33044898614032
 30
0.0
 10
14.61022779813175
 20
12.33128540955172
 30
0.0
 10
14.60863183486479
 20
12.33169903314293
 30
0.0
 10
14.605685754717
 20
12.33218087005027
 30
0.0
 10
14.6000906982268
 20
12.33274819968591
 30
0.0
 10
14.59354612695031
 20
12.33352296768493
 30
0.0
 10
14.58612647636299
 20
12.33464214904769
 30
0.0
 10
14.57947431495491
 20
12.33612993966419
 30
0.0
 10
14.56638624777782
 20
12.33998787831069
 30
0.0
 10
14.54723051687231
 20
12.34974914711719
 30
0.0
 10
14.52584498677786
 20
12.36716935312237
 30
0.0
 10
14.50523019834623
 20
12.38843804565655
 30
0.0
 10
14.48835966005093
 20
12.40892571686153
 30
0.0
 10
14.47351791275691
 20
12.42896247509245
 30
0.0
 10
14.46555805422917
 20
12.44088151657528
 30
0.0
 10
14.46138281077432
 20
12.4471334995428
 30
0.0
  0
SPLINE
  5
116
330
1F
100
AcDbEntity
  8
0
  6
Continuous
 62
     7
370
    25
100
AcDbSpline
210
0.0
220
0.0
230
1.0
 70
     8
 71
     3
 72
    19
 73
    15
 74
     0
 42
0.000000001
 43
0.00000001
 40
0.0
 40
0.0
 40
0.0
 40
0.0
 40
0.0569144452555559
 40
0.125230203910722
 40
0.1877816278007931
 40
0.2502385739556398
 40
0.3750566498582011
 40
0.4992717951637053
 40
0.6226460001477792
 40
0.7494181080548028
 40
0.8104831248986916
 40
0.8727216761870523
 40
0.9359537863544106
 40
1.0
 40
1.0
 40
1.0
 40
1.0
 10
14.86066923549413
 20
12.53802506849296
 30
0.0
 10
14.85357968549133
 20
12.53665670063596
 30
0.0
 10
14.83798038045552
 20
12.53364584838241
 30
0.0
 10
14.81434006132405
 20
12.52893612480382
 30
0.0
 10
14.78981046647805
 20
12.52406219106083
 30
0.0
 10
14.75784811344237
 20
12.51753720315782
 30
0.0
 10
14.7174667353448
 20
12.50883049805165
 30
0.0
 10
14.66820999161061
 20
12.49794678386863
 30
0.0
 10
14.61774306732958
 20
12.48615316446585
 30
0.0
 10
14.57505932424047
 20
12.47588711043128
 30
0.0
 10
14.54045717559766
 20
12.46732161391961
 30
0.0
 10
14.51452589141518
 20
12.46080274776154
 30
0.0
 10
14.48809587512622
 20
12.45407045199139
 30
0.0
 10
14.47032506014467
 20
12.44945563492982
 30
0.0
 10
14.46138281940117
 20
12.44713346764629
 30
0.0
  0
SPLINE
  5
117
330
1F
100
AcDbEntity
  8
0
  6
Continuous
 62
     7
370
    25
100
AcDbSpline
210
0.0
220
0.0
230
1.0
 70
     8
 71
     3
 72
    12
 73
     8
 74
     0
 42
0.000000001
 43
0.00000001
 40
0.0
 40
0.0
 40
0.0
 40
0.0
 40
0.2499999999999998
 40
0.2499999999999998
 40
0.4999999999999996
 40
0.4999999999999996
 40
1.0
 40
1.0
 40
1.0
 40
1.0
 10
14.8606698686256
 20
7.122672661604597
 30
0.0
 10
14.82918961105261
 20
7.128851200976855
 30
0.0
 10
14.79704341781101
 20
7.135078827804627
 30
0.0
 10
14.73201012659554
 20
7.148585663088848
 30
0.0
 10
14.69893726985125
 20
7.155834180547481
 30
0.0
 10
14.59909393016579
 20
7.178647751035931
 30
0.0
 10
14.53130699305868
 20
7.19531862679476
 30
0.0
 10
14.46138281077432
 20
7.213564149771752
 30
0.0
  0
SPLINE
  5
118
330
1F
100
AcDbEntity
  8
0
  6
Continuous
 62
     7
370
    25
100
AcDbSpline
210
0.0
220
0.0
230
1.0
 70
     8
 71
     3
 72
    22
 73
    18
 74
     0
 42
0.000000001
 43
0.00000001
 40
0.0
 40
0.0
 40
0.0
 40
0.0
 40
0.125
 40
0.125
 40
0.25
 40
0.25
 40
0.375
 40
0.375
 40
0.5
 40
0.5
 40
0.625
 40
0.625
 40
0.75
 40
0.75
 40
0.875
 40
0.875
 40
1.0
 40
1.0
 40
1.0
 40
1.0
 10
14.59255322560806
 20
7.339099014598366
 30
0.0
 10
14.60000686208775
 20
7.336371917053499
 30
0.0
 10
14.6051656421013
 20
7.334275121970725
 30
0.0
 10
14.61095828656063
 20
7.331176334423776
 30
0.0
 10
14.61156697994543
 20
7.330177289288236
 30
0.0
 10
14.60881956445625
 20
7.32884413744867
 30
0.0
 10
14.60554676359302
 20
7.328506794876788
 30
0.0
 10
14.59626731128208
 20
7.327535619237882
 30
0.0
 10
14.59026788865768
 20
7.326927490777974
 30
0.0
 10
14.57608121327135
 20
7.323808369503775
 30
0.0
 10
14.56795579593242
 20
7.321288511585046
 30
0.0
 10
14.5498114583978
 20
7.311993296293697
 30
0.0
 10
14.5397478146345
 20
7.305099288698956
 30
0.0
 10
14.51830203027248
 20
7.286164343661925
 30
0.0
 10
14.50695287580613
 20
7.27418357778677
 30
0.0
 10
14.48414512638468
 20
7.24652880091078
 30
0.0
 10
14.47268642174189
 20
7.230901462982735
 30
0.0
 10
14.46138271035658
 20
7.21356423878088
 30
0.0
  0
LINE
  5
119
330
1F
100
AcDbEntity
  8
0
  6
Continuous
 62
     7
370
    25
100
AcDbLine
 10
14.5925532256
 20
7.3390990146
 30
0.0
 11
14.9599565559
 21
7.3390990146
 31
0.0
  0
LINE
  5
11A
330
1F
100
AcDbEntity
  8
0
  6
Continuous
 62
     7
370
    25
100
AcDbLine
 10
14.5925532256
 20
7.3390990146
 30
0.0
 11
14.5925532256
 21
12.3215986347
 31
0.0
  0
ARC
  5
11B
330
1F
100
AcDbEntity
  8
0
  6
Continuous
 62
     7
370
    25
100
AcDbCircle
 10
16.119102028
 20
12.8927092066
 30
0.0
 40
1.716557809607303
100
AcDbArc
 50
194.6077445611
 51
195.0448530325
  0
SPLINE
  5
11C
330
1F
100
AcDbEntity
  8
0
  6
Continuous
 62
     7
370
    25
100
AcDbSpline
210
0.0
220
0.0
230
1.0
 70
     8
 71
     3
 72
    12
 73
     8
 74
     0
 42
0.000000001
 43
0.00000001
 40
0.0
 40
0.0
 40
0.0
 40
0.0
 40
0.5000000000000008
 40
0.5000000000000008
 40
0.7500000000000003
 40
0.7500000000000003
 40
1.0
 40
1.0
 40
1.0
 40
1.0
 10
14.45803179522098
 20
12.45979305345552
 30
0.0
 10
14.53071681652145
 20
12.47926217229676
 30
0.0
 10
14.60102209753079
 20
12.49738559641671
 30
0.0
 10
14.70394810840294
 20
12.52313898863776
 30
0.0
 10
14.73793074959865
 20
12.53150668361521
 30
0.0
 10
14.80435594936309
 20
12.54766990984855
 30
0.0
 10
14.83696840994632
 20
12.55551615742201
 30
0.0
 10
14.86903736156168
 20
12.56314924901039
 30
0.0
  0
SPLINE
  5
11D
330
1F
100
AcDbEntity
  8
0
  6
Continuous
 62
     7
370
    25
100
AcDbSpline
210
0.0
220
0.0
230
1.0
 70
     8
 71
     3
 72
     8
 73
     4
 74
     0
 42
0.000000001
 43
0.00000001
 40
0.0
 40
0.0
 40
0.0
 40
0.0
 40
1.0
 40
1.0
 40
1.0
 40
1.0
 10
14.86903736156168
 20
12.56314924901039
 30
0.0
 10
14.86818370323248
 20
12.562831736585
 30
0.0
 10
14.86737852595127
 20
12.56234864876181
 30
0.0
 10
14.86662150357387
 20
12.5617031800758
 30
0.0
  0
SPLINE
  5
11E
330
1F
100
AcDbEntity
  8
0
  6
Continuous
 62
     7
370
    25
100
AcDbSpline
210
0.0
220
0.0
230
1.0
 70
     8
 71
     3
 72
    10
 73
     6
 74
     0
 42
0.000000001
 43
0.00000001
 40
0.0
 40
0.0
 40
0.0
 40
0.0
 40
0.5
 40
0.5
 40
1.0
 40
1.0
 40
1.0
 40
1.0
 10
14.86662150357387
 20
12.5617031800758
 30
0.0
 10
14.86441167572445
 20
12.55981898917092
 30
0.0
 10
14.86269536495864
 20
12.55658632122365
 30
0.0
 10
14.86062464911439
 20
12.54833664854423
 30
0.0
 10
14.86027077591166
 20
12.54332673308398
 30
0.0
 10
14.86066961064427
 20
12.53802496734065
 30
0.0
  0
SPLINE
  5
11F
330
1F
100
AcDbEntity
  8
0
  6
Continuous
 62
     7
370
    25
100
AcDbSpline
210
0.0
220
0.0
230
1.0
 70
     8
 71
     3
 72
     8
 73
     4
 74
     0
 42
0.000000001
 43
0.00000001
 40
0.0
 40
0.0
 40
0.0
 40
0.0
 40
1.0
 40
1.0
 40
1.0
 40
1.0
 10
14.86903736156168
 20
7.097548400304162
 30
0.0
 10
14.8681824543555
 20
7.097865567511973
 30
0.0
 10
14.86737267027474
 20
7.098350368850839
 30
0.0
 10
14.86662150357387
 20
7.098994469238753
 30
0.0
  0
SPLINE
  5
120
330
1F
100
AcDbEntity
  8
0
  6
Continuous
 62
     7
370
    25
100
AcDbSpline
210
0.0
220
0.0
230
1.0
 70
     8
 71
     3
 72
    12
 73
     8
 74
     0
 42
0.000000001
 43
0.00000001
 40
0.0
 40
0.0
 40
0.0
 40
0.0
 40
0.5000000000000008
 40
0.5000000000000008
 40
0.7500000000000003
 40
0.7500000000000003
 40
1.0
 40
1.0
 40
1.0
 40
1.0
 10
14.45803179522098
 20
7.200904595859036
 30
0.0
 10
14.53071681652145
 20
7.181435477017791
 30
0.0
 10
14.60102209753079
 20
7.163312052897839
 30
0.0
 10
14.70394810840294
 20
7.137558660676792
 30
0.0
 10
14.73793074959865
 20
7.129190965699348
 30
0.0
 10
14.80435594936309
 20
7.113027739466008
 30
0.0
 10
14.83696840994632
 20
7.105181491892544
 30
0.0
 10
14.86903736156168
 20
7.097548400304162
 30
0.0
  0
ARC
  5
121
330
1F
100
AcDbEntity
  8
0
  6
Continuous
 62
     7
370
    25
100
AcDbCircle
 10
16.119102028
 20
6.7679884428
 30
0.0
 40
1.716557809610112
100
AcDbArc
 50
164.9551469675
 51
165.3922554389
  0
SPLINE
  5
122
330
1F
100
AcDbEntity
  8
0
  6
Continuous
 62
     7
370
    25
100
AcDbSpline
210
0.0
220
0.0
230
1.0
 70
     8
 71
     3
 72
    13
 73
     9
 74
     0
 42
0.000000001
 43
0.00000001
 40
0.0
 40
0.0
 40
0.0
 40
0.0
 40
0.0968878697009532
 40
0.2234598517762659
 40
0.3800044706214856
 40
0.5650106483111769
 40
0.7741843791490182
 40
1.0
 40
1.0
 40
1.0
 40
1.0
 10
14.86662151397167
 20
7.098994497577072
 30
0.0
 10
14.86620639570455
 20
7.099385062194591
 30
0.0
 10
14.86524897692006
 20
7.100285851032337
 30
0.0
 10
14.8638163526631
 20
7.102358379643895
 30
0.0
 10
14.86234646243936
 20
7.10549433401133
 30
0.0
 10
14.86112603340487
 20
7.109973520508899
 30
0.0
 10
14.86038896906417
 20
7.115791472857851
 30
0.0
 10
14.86057387735519
 20
7.120321166120116
 30
0.0
 10
14.86066986862573
 20
7.122672661604573
 30
0.0
  0
SPLINE
  5
123
330
1F
100
AcDbEntity
  8
0
  6
Continuous
 62
     7
370
    25
100
AcDbSpline
210
0.0
220
0.0
230
1.0
 70
     8
 71
     3
 72
     8
 73
     4
 74
     0
 42
0.000000001
 43
0.00000001
 40
0.0
 40
0.0
 40
0.0
 40
0.0
 40
1.0
 40
1.0
 40
1.0
 40
1.0
 10
14.86816212394398
 20
12.56198774968729
 30
0.0
 10
14.86764615365321
 20
12.56190213092774
 30
0.0
 10
14.86712265129295
 20
12.56183859668952
 30
0.0
 10
14.86662150357387
 20
12.5617031800758
 30
0.0
  0
SPLINE
  5
124
330
1F
100
AcDbEntity
  8
0
  6
Continuous
 62
     7
370
    25
100
AcDbSpline
210
0.0
220
0.0
230
1.0
 70
     8
 71
     3
 72
     8
 73
     4
 74
     0
 42
0.000000001
 43
0.00000001
 40
0.0
 40
0.0
 40
0.0
 40
0.0
 40
1.0
 40
1.0
 40
1.0
 40
1.0
 10
14.86816212394398
 20
7.09870989962726
 30
0.0
 10
14.86764615365327
 20
7.098795518386812
 30
0.0
 10
14.86712265129295
 20
7.098859052625037
 30
0.0
 10
14.86662150357387
 20
7.098994469238753
 30
0.0
  0
LINE
  5
125
330
1F
100
AcDbEntity
  8
0
  6
Continuous
 62
     7
370
    25
100
AcDbLine
 10
15.9667189643
 20
6.9768345423
 30
0.0
 11
15.9667189643
 21
6.9553488247
 31
0.0
  0
LINE
  5
126
330
1F
100
AcDbEntity
  8
0
  6
Continuous
 62
     7
370
    25
100
AcDbLine
 10
15.9667189643
 20
6.9553488247
 30
0.0
 11
15.4483714619
 21
6.9553488247
 31
0.0
  0
LINE
  5
127
330
1F
100
AcDbEntity
  8
0
  6
Continuous
 62
     7
370
    25
100
AcDbLine
 10
15.4483714619
 20
6.9768345423
 30
0.0
 11
15.4483714619
 21
6.9553488247
 31
0.0
  0
LINE
  5
128
330
1F
100
AcDbEntity
  8
0
  6
Continuous
 62
     7
370
    25
100
AcDbLine
 10
16.2952332466
 20
7.3053488247
 30
0.0
 11
16.3167189643
 21
7.3053488247
 31
0.0
  0
ARC
  5
129
330
1F
100
AcDbEntity
  8
0
  6
Continuous
 62
     7
370
    25
100
AcDbCircle
 10
15.9667189643
 20
7.3053488247
 30
0.0
 40
0.3500000000000005
100
AcDbArc
 50
270.0
 51
0.0
  0
LINE
  5
12A
330
1F
100
AcDbEntity
  8
0
  6
Continuous
 62
     7
370
    25
100
AcDbLine
 10
16.2952332466
 20
12.3553488247
 30
0.0
 11
16.3167189643
 21
12.3553488247
 31
0.0
  0
LINE
  5
12B
330
1F
100
AcDbEntity
  8
0
  6
Continuous
 62
     7
370
    25
100
AcDbLine
 10
16.3167189643
 20
7.3053488247
 30
0.0
 11
16.3167189643
 21
12.3553488247
 31
0.0
  0
ARC
  5
12C
330
1F
100
AcDbEntity
  8
0
  6
Continuous
 62
     7
370
    25
100
AcDbCircle
 10
15.9667189643
 20
12.3553488247
 30
0.0
 40
0.3499999999999996
100
AcDbArc
 50
0.0
 51
90.0
  0
LINE
  5
12D
330
1F
100
AcDbEntity
  8
0
  6
Continuous
 62
     7
370
    25
100
AcDbLine
 10
15.9667189643
 20
12.683863107
 30
0.0
 11
15.9667189643
 21
12.7053488247
 31
0.0
  0
LINE
  5
12E
330
1F
100
AcDbEntity
  8
0
  6
Continuous
 62
     7
370
    25
100
AcDbLine
 10
15.9667189643
 20
12.7053488247
 30
0.0
 11
15.4483714619
 21
12.7053488247
 31
0.0
  0
LINE
  5
12F
330
1F
100
AcDbEntity
  8
0
  6
Continuous
 62
     7
370
    25
100
AcDbLine
 10
15.4483714619
 20
12.683863107
 30
0.0
 11
15.4483714619
 21
12.7053488247
 31
0.0
  0
LINE
  5
130
330
1F
100
AcDbEntity
  8
0
  6
Continuous
 62
     7
370
    25
100
AcDbLine
 10
15.1951133297
 20
12.6505210413
 30
0.0
 11
15.1895524168
 21
12.6712746509
 31
0.0
  0
SPLINE
  5
131
330
1F
100
AcDbEntity
  8
0
  6
Continuous
 62
     7
370
    25
100
AcDbSpline
210
0.0
220
0.0
230
1.0
 70
     8
 71
     3
 72
    15
 73
    11
 74
     0
 42
0.000000001
 43
0.00000001
 40
0.0
 40
0.0
 40
0.0
 40
0.0
 40
0.0625000000000001
 40
0.0625000000000001
 40
0.1250000000000002
 40
0.2499999999999998
 40
0.2499999999999998
 40
0.5000000000000001
 40
0.5000000000000001
 40
1.0
 40
1.0
 40
1.0
 40
1.0
 10
13.82034535439561
 20
12.28898148328754
 30
0.0
 10
13.83363260183178
 20
12.29253107279218
 30
0.0
 10
13.84691655475375
 20
12.29609466823149
 30
0.0
 10
13.87348658319187
 20
12.30321283534709
 30
0.0
 10
13.91334166689191
 20
12.31388991158291
 30
0.0
 10
13.95319686244493
 20
12.32456651210902
 30
0.0
 10
14.03290736874616
 20
12.34591922403345
 30
0.0
 10
14.08604786239444
 20
12.36015370504329
 30
0.0
 10
14.24546947270893
 20
12.40285660091349
 30
0.0
 10
14.3517505939698
 20
12.43132499634104
 30
0.0
 10
14.45803179522098
 20
12.45979305345552
 30
0.0
  0
LINE
  5
132
330
1F
100
AcDbEntity
  8
0
  6
Continuous
 62
     7
370
    25
100
AcDbLine
 10
13.8203453544
 20
12.2889814833
 30
0.0
 11
13.8164915442
 21
12.303364099
 31
0.0
  0
LINE
  5
133
330
1F
100
AcDbEntity
  8
0
  6
Continuous
 62
     7
370
    25
100
AcDbLine
 10
15.1895524168
 20
12.6712746509
 30
0.0
 11
13.8164915442
 21
12.303364099
 31
0.0
  0
ARC
  5
134
330
1F
100
AcDbEntity
  8
0
  6
Continuous
 62
     7
370
    25
100
AcDbCircle
 10
15.4483714619
 20
11.7053488247
 30
0.0
 40
1.0
100
AcDbArc
 50
90.0
 51
105.0
  0
SPLINE
  5
135
330
1F
100
AcDbEntity
  8
0
  6
Continuous
 62
     7
370
    25
100
AcDbSpline
210
0.0
220
0.0
230
1.0
 70
     8
 71
     3
 72
    15
 73
    11
 74
     0
 42
0.000000001
 43
0.00000001
 40
0.0
 40
0.0
 40
0.0
 40
0.0
 40
0.0625000000000001
 40
0.0625000000000001
 40
0.1250000000000002
 40
0.2499999999999998
 40
0.2499999999999998
 40
0.5000000000000001
 40
0.5000000000000001
 40
1.0
 40
1.0
 40
1.0
 40
1.0
 10
13.82034535439561
 20
7.371716166027008
 30
0.0
 10
13.83363260183178
 20
7.368166576522375
 30
0.0
 10
13.84691655475375
 20
7.364602981083059
 30
0.0
 10
13.87348658319187
 20
7.357484813967462
 30
0.0
 10
13.91334166689191
 20
7.346807737731639
 30
0.0
 10
13.95319686244493
 20
7.336131137205529
 30
0.0
 10
14.03290736874616
 20
7.314778425281103
 30
0.0
 10
14.08604786239444
 20
7.300543944271261
 30
0.0
 10
14.24546947270893
 20
7.257841048401059
 30
0.0
 10
14.3517505939698
 20
7.229372652973515
 30
0.0
 10
14.45803179522098
 20
7.200904595859036
 30
0.0
  0
LINE
  5
136
330
1F
100
AcDbEntity
  8
0
  6
Continuous
 62
     7
370
    25
100
AcDbLine
 10
15.1951133297
 20
7.010176608
 30
0.0
 11
15.1895524168
 21
6.9894229984
 31
0.0
  0
LINE
  5
137
330
1F
100
AcDbEntity
  8
0
  6
Continuous
 62
     7
370
    25
100
AcDbLine
 10
15.1895524168
 20
6.9894229984
 30
0.0
 11
13.8164915442
 21
7.3573335503
 31
0.0
  0
LINE
  5
138
330
1F
100
AcDbEntity
  8
0
  6
Continuous
 62
     7
370
    25
100
AcDbLine
 10
13.8203453544
 20
7.371716166
 30
0.0
 11
13.8164915442
 21
7.3573335503
 31
0.0
  0
ARC
  5
139
330
1F
100
AcDbEntity
  8
0
  6
Continuous
 62
     7
370
    25
100
AcDbCircle
 10
15.4483714619
 20
7.9553488247
 30
0.0
 40
0.9999999999999991
100
AcDbArc
 50
255.0
 51
270.0
  0
CIRCLE
  5
13A
330
1F
100
AcDbEntity
  8
0
  6
Continuous
 62
     7
370
    25
100
AcDbCircle
 10
13.9417189643
 20
11.5803488247
 30
0.0
 40
0.1660000000000004
  0
CIRCLE
  5
13B
330
1F
100
AcDbEntity
  8
0
  6
Continuous
 62
     7
370
    25
100
AcDbCircle
 10
13.9417189643
 20
8.0803488247
 30
0.0
 40
0.1660000000000004
  0
LINE
  5
13C
330
1F
100
AcDbEntity
  8
0
  6
Continuous
 62
     7
370
    25
100
AcDbLine
 10
13.7802189643
 20
9.5111030886
 30
0.0
 11
13.7802189643
 21
9.2418488247
 31
0.0
  0
ARC
  5
13D
330
1F
100
AcDbEntity
  8
0
  6
Continuous
 62
     7
370
    25
100
AcDbCircle
 10
13.9417189643
 20
9.2418488247
 30
0.0
 40
0.1615000000000002
100
AcDbArc
 50
180.0
 51
0.0
  0
LINE
  5
13E
330
1F
100
AcDbEntity
  8
0
  6
Continuous
 62
     7
370
    25
100
AcDbLine
 10
14.1032189643
 20
9.5111030886
 30
0.0
 11
14.1032189643
 21
9.2418488247
 31
0.0
  0
ARC
  5
13F
330
1F
100
AcDbEntity
  8
0
  6
Continuous
 62
     7
370
    25
100
AcDbCircle
 10
14.1832189643
 20
9.5111030886
 30
0.0
 40
0.0799999999999989
100
AcDbArc
 50
127.1064324652
 51
180.0
  0
ARC
  5
140
330
1F
100
AcDbEntity
  8
0
  6
Continuous
 62
     7
370
    25
100
AcDbCircle
 10
13.9417189643
 20
9.8303488247
 30
0.0
 40
0.3203000000000004
100
AcDbArc
 50
307.1064324656
 51
52.8935675348
  0
ARC
  5
141
330
1F
100
AcDbEntity
  8
0
  6
Continuous
 62
     7
370
    25
100
AcDbCircle
 10
14.1832189643
 20
10.1495945607
 30
0.0
 40
0.0799999999999989
100
AcDbArc
 50
180.0
 51
232.8935675348
  0
LINE
  5
142
330
1F
100
AcDbEntity
  8
0
  6
Continuous
 62
     7
370
    25
100
AcDbLine
 10
14.1032189643
 20
10.1495945607
 30
0.0
 11
14.1032189643
 21
10.4188488247
 31
0.0
  0
ARC
  5
143
330
1F
100
AcDbEntity
  8
0
  6
Continuous
 62
     7
370
    25
100
AcDbCircle
 10
13.9417189643
 20
10.4188488247
 30
0.0
 40
0.1615000000000002
100
AcDbArc
 50
0.0
 51
180.0
  0
LINE
  5
144
330
1F
100
AcDbEntity
  8
0
  6
Continuous
 62
     7
370
    25
100
AcDbLine
 10
13.7802189643
 20
10.1495945607
 30
0.0
 11
13.7802189643
 21
10.4188488247
 31
0.0
  0
ARC
  5
145
330
1F
100
AcDbEntity
  8
0
  6
Continuous
 62
     7
370
    25
100
AcDbCircle
 10
13.7002189643
 20
10.1495945607
 30
0.0
 40
0.0799999999999989
100
AcDbArc
 50
307.1064324652
 51
360.0
  0
ARC
  5
146
330
1F
100
AcDbEntity
  8
0
  6
Continuous
 62
     7
370
    25
100
AcDbCircle
 10
13.9417189643
 20
9.8303488247
 30
0.0
 40
0.3203000000000004
100
AcDbArc
 50
127.1064324652
 51
232.8935675344
  0
ARC
  5
147
330
1F
100
AcDbEntity
  8
0
  6
Continuous
 62
     7
370
    25
100
AcDbCircle
 10
13.7002189643
 20
9.5111030886
 30
0.0
 40
0.0799999999999983
100
AcDbArc
 50
0.0
 51
52.8935675348
  0
SPLINE
  5
148
330
1F
100
AcDbEntity
  8
0
  6
Continuous
 62
     7
370
    25
100
AcDbSpline
210
0.0
220
0.0
230
1.0
 70
     8
 71
     3
 72
    73
 73
    69
 74
     0
 42
0.000000001
 43
0.00000001
 40
0.0
 40
0.0
 40
0.0
 40
0.0
 40
0.0312499999999747
 40
0.0468749999999617
 40
0.0546874999999559
 40
0.058593749999953
 40
0.058593749999953
 40
0.0624999999999501
 40
0.0624999999999501
 40
0.0937499999999318
 40
0.1093749999999234
 40
0.1171874999999199
 40
0.1210937499999189
 40
0.1210937499999189
 40
0.1249999999999178
 40
0.1249999999999178
 40
0.187499999999915
 40
0.2187499999999135
 40
0.2343749999999124
 40
0.2421874999999118
 40
0.246093749999912
 40
0.246093749999912
 40
0.2499999999999121
 40
0.2499999999999121
 40
0.3124999999999055
 40
0.3437499999999026
 40
0.3437499999999026
 40
0.3749999999998999
 40
0.3749999999998999
 40
0.4374999999998925
 40
0.4687499999998897
 40
0.4843749999998887
 40
0.4921874999998894
 40
0.4921874999998894
 40
0.4999999999998901
 40
0.4999999999998901
 40
0.5624999999998996
 40
0.5937499999999044
 40
0.6093749999999067
 40
0.617187499999908
 40
0.6210937499999083
 40
0.6210937499999083
 40
0.6249999999999087
 40
0.6249999999999087
 40
0.6874999999999225
 40
0.71874999999993
 40
0.7343749999999332
 40
0.7421874999999353
 40
0.7460937499999367
 40
0.7460937499999367
 40
0.7499999999999383
 40
0.7499999999999383
 40
0.8124999999999506
 40
0.8437499999999571
 40
0.8593749999999604
 40
0.867187499999962
 40
0.871093749999963
 40
0.871093749999963
 40
0.8749999999999641
 40
0.8749999999999641
 40
0.9062499999999738
 40
0.9218749999999781
 40
0.9296874999999798
 40
0.9335937499999811
 40
0.9335937499999811
 40
0.9374999999999826
 40
0.9374999999999826
 40
1.0
 40
1.0
 40
1.0
 40
1.0
 10
14.04068739378296
 20
12.15287631787855
 30
0.0
 10
14.0329372264478
 20
12.15050618085317
 30
0.0
 10
14.02132101878485
 20
12.14662674611641
 30
0.0
 10
14.00778455411168
 20
12.14153349562593
 30
0.0
 10
14.00102026617516
 20
12.13884505955628
 30
0.0
 10
13.99812213085953
 20
12.13766248463549
 30
0.0
 10
13.99619022847768
 20
12.13686734845856
 30
0.0
 10
13.99514912825254
 20
12.13643490313793
 30
0.0
 10
13.98713444452789
 20
12.13307952132987
 30
0.0
 10
13.97639163403859
 20
12.12830417519406
 30
0.0
 10
13.96375936546899
 20
12.12220530651679
 30
0.0
 10
13.95741848376784
 20
12.11902396429844
 30
0.0
 10
13.95469566002098
 20
12.11763226594492
 30
0.0
 10
13.95287926574134
 20
12.11669818571498
 30
0.0
 10
13.95189578179786
 20
12.11618912554849
 30
0.0
 10
13.937706255649
 20
12.10880361061567
 30
0.0
 10
13.91789968936633
 20
12.09758250756816
 30
0.0
 10
13.89518701407633
 20
12.08310085665087
 30
0.0
 10
13.8839294227746
 20
12.07551244018509
 30
0.0
 10
13.87832531370956
 20
12.07163133420042
 30
0.0
 10
13.87592884266436
 20
12.06994938211732
 30
0.0
 10
13.8743323708526
 20
12.06882394274041
 30
0.0
 10
13.87349027182582
 20
12.06822754122964
 30
0.0
 10
13.86069591104954
 20
12.05912837880649
 30
0.0
 10
13.8430031098659
 20
12.04570130393139
 30
0.0
 10
13.8258650473742
 20
12.03140243128679
 30
0.0
 10
13.81456294764461
 20
12.02167611668605
 30
0.0
 10
13.80891159710362
 20
12.01665943088406
 30
0.0
 10
13.79251408822974
 20
12.00165874671834
 30
0.0
 10
13.77665524138366
 20
11.98625506790122
 30
0.0
 10
13.75909591194523
 20
11.96757886864131
 30
0.0
 10
13.75055191186318
 20
11.95806445885137
 30
0.0
 10
13.74694069710741
 20
11.95394907390712
 30
0.0
 10
13.74454444272914
 20
11.95119708822238
 30
0.0
 10
13.7433881490889
 20
11.94985914689272
 30
0.0
 10
13.73238000114193
 20
11.93701940545124
 30
0.0
 10
13.71839329683512
 20
11.91961193516582
 30
0.0
 10
13.70328442114989
 20
11.89879954353018
 30
0.0
 10
13.69603221980878
 20
11.88826742863669
 30
0.0
 10
13.6924816782636
 20
11.88296989142103
 30
0.0
 10
13.69097620884254
 20
11.88069277266384
 30
0.0
 10
13.68997616061542
 20
11.87917319445576
 30
0.0
 10
13.68951170094664
 20
11.87846443637912
 30
0.0
 10
13.68049844582125
 20
11.86464226871121
 30
0.0
 10
13.66866810456002
 20
11.84496187092914
 30
0.0
 10
13.65643098462256
 20
11.82170959555806
 30
0.0
 10
13.65070366087065
 20
11.81001050504952
 30
0.0
 10
13.64793780804891
 20
11.80414272158949
 30
0.0
 10
13.64677340163693
 20
11.80162404906254
 30
0.0
 10
13.64600178826961
 20
11.79994406555858
 30
0.0
 10
13.64565803124288
 20
11.79919126852373
 30
0.0
 10
13.63850324159029
 20
11.7834069521562
 30
0.0
 10
13.6295637599257
 20
11.7610721943097
 30
0.0
 10
13.62116681087897
 20
11.73492569691047
 30
0.0
 10
13.61747644791276
 20
11.72183012823296
 30
0.0
 10
13.61575829431895
 20
11.71527676389972
 30
0.0
 10
13.61504916304074
 20
11.71246698347237
 30
0.0
 10
13.61458245780237
 20
11.71059353080679
 30
0.0
 10
13.61437503477033
 20
11.70975109116187
 30
0.0
 10
13.6121231556993
 20
11.70046838683649
 30
0.0
 10
13.60948562682313
 20
11.68814187462764
 30
0.0
 10
13.60704721876668
 20
11.67384919077778
 30
0.0
 10
13.6059876919799
 20
11.66672491061795
 30
0.0
 10
13.60556782562302
 20
11.66367637521342
 30
0.0
 10
13.60529551839659
 20
11.6616450688373
 30
0.0
 10
13.6051726644227
 20
11.66070490396283
 30
0.0
 10
13.60282585292276
 20
11.64218228772105
 30
0.0
 10
13.60172060964458
 20
11.62478517106774
 30
0.0
 10
13.6017189642854
 20
11.6074239883416
 30
0.0
  0
LINE
  5
149
330
1F
100
AcDbEntity
  8
0
  6
Continuous
 62
     7
370
    25
100
AcDbLine
 10
14.5925532256
 20
12.3215986347
 30
0.0
 11
14.0406873938
 21
12.1528763179
 31
0.0
  0
LINE
  5
14A
330
1F
100
AcDbEntity
  8
0
  6
Continuous
 62
     7
370
    25
100
AcDbLine
 10
14.5925532256
 20
7.3390990146
 30
0.0
 11
14.0406873938
 21
7.5078213314
 31
0.0
  0
SPLINE
  5
14B
330
1F
100
AcDbEntity
  8
0
  6
Continuous
 62
     7
370
    25
100
AcDbSpline
210
0.0
220
0.0
230
1.0
 70
     8
 71
     3
 72
    15
 73
    11
 74
     0
 42
0.000000001
 43
0.00000001
 40
0.0
 40
0.0
 40
0.0
 40
0.0
 40
0.125
 40
0.25
 40
0.375
 40
0.5
 40
0.625
 40
0.75
 40
0.875
 40
1.0
 40
1.0
 40
1.0
 40
1.0
 10
14.04068739378296
 20
7.507821331436004
 30
0.0
 10
14.00855347131494
 20
7.517645657450087
 30
0.0
 10
13.94922005003668
 20
7.543276751088526
 30
0.0
 10
13.8712665291023
 20
7.59172099796349
 30
0.0
 10
13.80214008044501
 20
7.647871729883158
 30
0.0
 10
13.740848024825
 20
7.711023101199565
 30
0.0
 10
13.68745829804103
 20
7.781627006290529
 30
0.0
 10
13.64320821716988
 20
7.860746809337403
 30
0.0
 10
13.61113219943254
 20
7.949995176170346
 30
0.0
 10
13.6017189642854
 20
8.01742540896795
 30
0.0
 10
13.6017189642854
 20
8.05327366097295
 30
0.0
  0
LINE
  5
14C
330
1F
100
AcDbEntity
  8
0
  6
Continuous
 62
     7
370
    25
100
AcDbLine
 10
13.6017189643
 20
8.053273661
 30
0.0
 11
13.6017189643
 21
9.8303488247
 31
0.0
  0
LINE
  5
14D
330
1F
100
AcDbEntity
  8
0
  6
Continuous
 62
     7
370
    25
100
AcDbLine
 10
13.6017189643
 20
11.6074239883
 30
0.0
 11
13.6017189643
 21
9.8303488247
 31
0.0
  0
SPLINE
  5
14E
330
1F
100
AcDbEntity
  8
0
  6
Continuous
 62
     7
370
    25
100
AcDbSpline
210
0.0
220
0.0
230
1.0
 70
     8
 71
     3
 72
    14
 73
    10
 74
     0
 42
0.000000001
 43
0.00000001
 40
0.0
 40
0.0
 40
0.0
 40
0.0
 40
0.2499999999999998
 40
0.2499999999999998
 40
0.4999999999999998
 40
0.4999999999999998
 40
0.7499999999999998
 40
0.7499999999999998
 40
1.0
 40
1.0
 40
1.0
 40
1.0
 10
13.34983882522805
 20
11.46443819909531
 30
0.0
 10
13.34969837580786
 20
11.31894671396218
 30
0.0
 10
13.34978981018174
 20
11.17818736768053
 30
0.0
 10
13.34986477566479
 20
10.90087738946842
 30
0.0
 10
13.34985451479421
 20
10.76436108958257
 30
0.0
 10
13.3498736414293
 20
10.49428193433002
 30
0.0
 10
13.34990182678926
 20
10.36071700735917
 30
0.0
 10
13.34992930036646
 20
10.09487635792183
 30
0.0
 10
13.34992888092941
 20
9.962601878168233
 30
0.0
 10
13.34992846105635
 20
9.830348824657277
 30
0.0
  0
SPLINE
  5
14F
330
1F
100
AcDbEntity
  8
0
  6
Continuous
 62
     7
370
    25
100
AcDbSpline
210
0.0
220
0.0
230
1.0
 70
     8
 71
     3
 72
    25
 73
    21
 74
     0
 42
0.000000001
 43
0.00000001
 40
0.0
 40
0.0
 40
0.0
 40
0.0
 40
0.0152522979032985
 40
0.0313957152120555
 40
0.0484421335433187
 40
0.0664043454053788
 40
0.0852966019990087
 40
0.1051353425036761
 40
0.1259380328870824
 40
0.1732485146810382
 40
0.2507267748705502
 40
0.3698435954055703
 40
0.5007135514090343
 40
0.6105738669775957
 40
0.7497306549502352
 40
0.8310294859250626
 40
0.8747181377581827
 40
0.9172465067696075
 40
0.959010748061986
 40
0.9999999999999999
 40
0.9999999999999999
 40
0.9999999999999999
 40
0.9999999999999999
 10
13.82377884488059
 20
12.27478207023025
 30
0.0
 10
13.81883089191631
 20
12.27332404211357
 30
0.0
 10
13.80864590057047
 20
12.27032280021463
 30
0.0
 10
13.79307219303896
 20
12.2652317885105
 30
0.0
 10
13.77675961103709
 20
12.25946954541891
 30
0.0
 10
13.75974420017596
 20
12.25292400322131
 30
0.0
 10
13.74205559893551
 20
12.24552027053193
 30
0.0
 10
13.72373501779164
 20
12.23716224932988
 30
0.0
 10
13.69710077073113
 20
12.22391017972067
 30
0.0
 10
13.654326764136
 20
12.19941479323171
 30
0.0
 10
13.58743363997428
 20
12.15071409920188
 30
0.0
 10
13.51034300290395
 20
12.06997814089008
 30
0.0
 10
13.44647720240906
 20
11.96535298391765
 30
0.0
 10
13.39879678223106
 20
11.8456606414428
 30
0.0
 10
13.3723560039032
 20
11.73671491053926
 30
0.0
 10
13.35968192036476
 20
11.64824327638141
 30
0.0
 10
13.35434474048513
 20
11.5918331458426
 30
0.0
 10
13.35157530177947
 20
11.54863552751341
 30
0.0
 10
13.3500088109367
 20
11.50628809635856
 30
0.0
 10
13.34989513226268
 20
11.47830079750598
 30
0.0
 10
13.34983882522805
 20
11.46443819909531
 30
0.0
  0
SPLINE
  5
150
330
1F
100
AcDbEntity
  8
0
  6
Continuous
 62
     7
370
    25
100
AcDbSpline
210
0.0
220
0.0
230
1.0
 70
     8
 71
     3
 72
     9
 73
     5
 74
     0
 42
0.000000001
 43
0.00000001
 40
0.0
 40
0.0
 40
0.0
 40
0.0
 40
0.4977278269078003
 40
0.9999999999999999
 40
0.9999999999999999
 40
0.9999999999999999
 40
0.9999999999999999
 10
13.83815220905992
 20
12.27892487957232
 30
0.0
 10
13.83576785361492
 20
12.2782366324235
 30
0.0
 10
13.83097737312318
 20
12.27685385430337
 30
0.0
 10
13.82618561276742
 20
12.27547475395775
 30
0.0
 10
13.82377884488059
 20
12.27478207023025
 30
0.0
  0
SPLINE
  5
151
330
1F
100
AcDbEntity
  8
0
  6
Continuous
 62
     7
370
    25
100
AcDbSpline
210
0.0
220
0.0
230
1.0
 70
     8
 71
     3
 72
    10
 73
     6
 74
     0
 42
0.000000001
 43
0.00000001
 40
0.0
 40
0.0
 40
0.0
 40
0.0
 40
0.5
 40
0.5
 40
1.0
 40
1.0
 40
1.0
 40
1.0
 10
14.46138281077432
 20
12.4471334995428
 30
0.0
 10
14.35951730146373
 20
12.41961535223261
 30
0.0
 10
14.25733741867841
 20
12.39201531961201
 30
0.0
 10
14.05061538099382
 20
12.33617102132289
 30
0.0
 10
13.94598332490623
 20
12.30791379911005
 30
0.0
 10
13.83815220905992
 20
12.27892487957232
 30
0.0
  0
SPLINE
  5
152
330
1F
100
AcDbEntity
  8
0
  6
Continuous
 62
     7
370
    25
100
AcDbSpline
210
0.0
220
0.0
230
1.0
 70
    24
 71
     3
 72
     8
 73
     4
 74
     0
 42
0.000000001
 43
0.00000001
 40
0.0
 40
0.0
 40
0.0
 40
0.0
 40
1.0
 40
1.0
 40
1.0
 40
1.0
 10
13.3499284610563
 20
9.830348824657277
 30
0.0
 10
13.46452574711942
 20
9.830348824657277
 30
0.0
 10
13.57506711496846
 20
9.830348824657277
 30
0.0
 10
13.6017189642854
 20
9.830348824657277
 30
0.0
  0
SPLINE
  5
153
330
1F
100
AcDbEntity
  8
0
  6
Continuous
 62
     7
370
    25
100
AcDbSpline
210
0.0
220
0.0
230
1.0
 70
     8
 71
     3
 72
    16
 73
    12
 74
     0
 42
0.000000001
 43
0.00000001
 40
0.0
 40
0.0
 40
0.0
 40
0.0
 40
0.4999999999999976
 40
0.4999999999999976
 40
0.749999999999997
 40
0.749999999999997
 40
0.8749999999999972
 40
0.9374999999999981
 40
0.9687499999999984
 40
0.9687499999999984
 40
1.0
 40
1.0
 40
1.0
 40
1.0
 10
14.46138281077432
 20
7.213564149771752
 30
0.0
 10
14.35752156251526
 20
7.241626198912591
 30
0.0
 10
14.25365496466611
 20
7.269683139909165
 30
0.0
 10
14.09785797193513
 20
7.311758984710096
 30
0.0
 10
14.04592597202891
 20
7.325780001053537
 30
0.0
 10
13.96802342221521
 20
7.346787253970835
 30
0.0
 10
13.92907101993404
 20
7.357284920968657
 30
0.0
 10
13.88362369997309
 20
7.369518900294882
 30
0.0
 10
13.86414557867537
 20
7.374758893527378
 30
0.0
 10
13.85116000013386
 20
7.378251494327989
 30
0.0
 10
13.84470111660392
 20
7.379951866562413
 30
0.0
 10
13.83815214849473
 20
7.381772545666881
 30
0.0
  0
SPLINE
  5
154
330
1F
100
AcDbEntity
  8
0
  6
Continuous
 62
     7
370
    25
100
AcDbSpline
210
0.0
220
0.0
230
1.0
 70
     8
 71
     3
 72
     9
 73
     5
 74
     0
 42
0.000000001
 43
0.00000001
 40
0.0
 40
0.0
 40
0.0
 40
0.0
 40
0.325009110981579
 40
1.0
 40
1.0
 40
1.0
 40
1.0
 10
13.83815214849473
 20
7.381772545666881
 30
0.0
 10
13.83659458757142
 20
7.382219819953447
 30
0.0
 10
13.83180222677079
 20
7.383596009947679
 30
0.0
 10
13.82701212197512
 20
7.384980834875285
 30
0.0
 10
13.8237788448806
 20
7.385915579084304
 30
0.0
  0
SPLINE
  5
155
330
1F
100
AcDbEntity
  8
0
  6
Continuous
 62
     7
370
    25
100
AcDbSpline
210
0.0
220
0.0
230
1.0
 70
     8
 71
     3
 72
    28
 73
    24
 74
     0
 42
0.000000001
 43
0.00000001
 40
0.0
 40
0.0
 40
0.0
 40
0.0
 40
0.125
 40
0.125
 40
0.2500000000000001
 40
0.2500000000000001
 40
0.3124999999999998
 40
0.3124999999999998
 40
0.3749999999999994
 40
0.3749999999999994
 40
0.4999999999999997
 40
0.4999999999999997
 40
0.5624999999999998
 40
0.5624999999999998
 40
0.625
 40
0.625
 40
0.7500000000000002
 40
0.7500000000000002
 40
0.8750000000000004
 40
0.8750000000000004
 40
0.9375000000000002
 40
0.9375000000000002
 40
1.0
 40
1.0
 40
1.0
 40
1.0
 10
13.82377884485158
 20
7.38591557909265
 30
0.0
 10
13.78249392787639
 20
7.397791450750083
 30
0.0
 10
13.74240490987427
 20
7.413480640320722
 30
0.0
 10
13.66620441305801
 20
7.453246970369305
 30
0.0
 10
13.63098236574868
 20
7.476859397404418
 30
0.0
 10
13.5825016497132
 20
7.517968101136838
 30
0.0
 10
13.56707433211092
 20
7.532611636352078
 30
0.0
 10
13.53769624845447
 20
7.563849955672652
 30
0.0
 10
13.52395722839941
 20
7.58023291736768
 30
0.0
 10
13.48568827948312
 20
7.631030602491673
 30
0.0
 10
13.46392907493759
 20
7.667243052819353
 30
0.0
 10
13.43601068205233
 20
7.724618653874736
 30
0.0
 10
13.42753886335986
 20
7.744174121037476
 30
0.0
 10
13.41228335821645
 20
7.783489521589181
 30
0.0
 10
13.40545745248206
 20
7.803334743267374
 30
0.0
 10
13.38706232581843
 20
7.863365132231113
 30
0.0
 10
13.37756080963355
 20
7.904046750171189
 30
0.0
 10
13.36290365689961
 20
7.98644186089558
 30
0.0
 10
13.3577534275201
 20
8.028300648958055
 30
0.0
 10
13.35280813151228
 20
8.09123124633501
 30
0.0
 10
13.35162566107062
 20
8.11223007335481
 30
0.0
 10
13.35012109165083
 20
8.154261886768689
 30
0.0
 10
13.34984846153264
 20
8.175348754259744
 30
0.0
 10
13.34983882522805
 20
8.196259450219237
 30
0.0
  0
SPLINE
  5
156
330
1F
100
AcDbEntity
  8
0
  6
Continuous
 62
     7
370
    25
100
AcDbSpline
210
0.0
220
0.0
230
1.0
 70
     8
 71
     3
 72
    12
 73
     8
 74
     0
 42
0.000000001
 43
0.00000001
 40
0.0
 40
0.0
 40
0.0
 40
0.0
 40
0.2499999999999999
 40
0.2499999999999999
 40
0.4999999999999999
 40
0.4999999999999999
 40
1.0
 40
1.0
 40
1.0
 40
1.0
 10
13.34983882522805
 20
8.196259450213846
 30
0.0
 10
13.34977606711512
 20
8.332443961203372
 30
0.0
 10
13.34982266298701
 20
8.468622748407595
 30
0.0
 10
13.34986973487628
 20
8.740964499353186
 30
0.0
 10
13.34986766212667
 20
8.877136278371296
 30
0.0
 10
13.34989071185075
 20
9.285658726168306
 30
0.0
 10
13.34992222312479
 20
9.55800259731025
 30
0.0
 10
13.34992845018007
 20
9.830348824664496
 30
0.0
  0
ARC
  5
157
330
1F
100
AcDbEntity
  8
0
  6
Continuous
 62
     7
370
    25
100
AcDbCircle
 10
14.0452998839
 20
12.3358618114
 30
0.0
 40
0.2297875225231845
100
AcDbArc
 50
191.7719018989
 51
195.4150679257
  0
ARC
  5
158
330
1F
100
AcDbEntity
  8
0
  6
Continuous
 62
     7
370
    25
100
AcDbCircle
 10
14.0452998839
 20
7.324835838
 30
0.0
 40
0.229787522522677
100
AcDbArc
 50
164.5849320743
 51
168.2280981011
  0
ARC
  5
159
330
1F
100
AcDbEntity
  8
0
  6
Continuous
 62
     7
370
    25
100
AcDbCircle
 10
13.3472392243
 20
0.1727264543
 30
0.0
 40
11.29171204399782
100
AcDbArc
 50
89.9868092488
 51
90.0800949805
  0
SPLINE
  5
15A
330
1F
100
AcDbEntity
  8
0
  6
Continuous
 62
     7
370
    25
100
AcDbSpline
210
0.0
220
0.0
230
1.0
 70
     8
 71
     3
 72
    22
 73
    18
 74
     0
 42
0.000000001
 43
0.00000001
 40
0.0
 40
0.0
 40
0.0
 40
0.0
 40
0.0132483757378221
 40
0.0313319082426087
 40
0.0626643372813228
 40
0.125299831354734
 40
0.2502482245366779
 40
0.3874031510729779
 40
0.4993123425739409
 40
0.6336398210924237
 40
0.7492595600404761
 40
0.8163557831763374
 40
0.8740375519337057
 40
0.904191063040647
 40
0.935213189996777
 40
0.96713892100918
 40
1.0
 40
1.0
 40
1.0
 40
1.0
 10
13.33145430661822
 20
11.46442746530133
 30
0.0
 10
13.33146441980858
 20
11.46901361519053
 30
0.0
 10
13.33148833712181
 20
11.47985968646441
 30
0.0
 10
13.33177516037576
 20
11.50155053506321
 30
0.0
 10
13.33283065445256
 20
11.5403267739534
 30
0.0
 10
13.33712105321992
 20
11.61600402285495
 30
0.0
 10
13.35079571655507
 20
11.72775228723423
 30
0.0
 10
13.38134599458588
 20
11.85402613168241
 30
0.0
 10
13.43088612393269
 20
11.97759736628297
 30
0.0
 10
13.49769164896221
 20
12.08473562841271
 30
0.0
 10
13.575081636536
 20
12.16375482786834
 30
0.0
 10
13.64261689830335
 20
12.21269834299448
 30
0.0
 10
13.68938760525439
 20
12.23914439207726
 30
0.0
 10
13.72664953751276
 20
12.25662346914394
 30
0.0
 10
13.75651160889013
 20
12.26877076515385
 30
0.0
 10
13.78781064515014
 20
12.2797962212494
 30
0.0
 10
13.80939657033614
 20
12.28589040139631
 30
0.0
 10
13.82034535439561
 20
12.28898148328754
 30
0.0
  0
ARC
  5
15B
330
1F
100
AcDbEntity
  8
0
  6
Continuous
 62
     7
370
    25
100
AcDbCircle
 10
13.3472392243
 20
19.487971195
 30
0.0
 40
11.29171204399782
100
AcDbArc
 50
269.9199050195
 51
270.0131907512
  0
SPLINE
  5
15C
330
1F
100
AcDbEntity
  8
0
  6
Continuous
 62
     7
370
    25
100
AcDbSpline
210
0.0
220
0.0
230
1.0
 70
     8
 71
     3
 72
    28
 73
    24
 74
     0
 42
0.000000001
 43
0.00000001
 40
0.0
 40
0.0
 40
0.0
 40
0.0
 40
0.0625000000000001
 40
0.0625000000000001
 40
0.1250000000000002
 40
0.1250000000000002
 40
0.2500000000000002
 40
0.2500000000000002
 40
0.3750000000000003
 40
0.3750000000000003
 40
0.4375000000000003
 40
0.4375000000000003
 40
0.5000000000000003
 40
0.5000000000000003
 40
0.6250000000000003
 40
0.6250000000000003
 40
0.6874999999999999
 40
0.6874999999999999
 40
0.7499999999999994
 40
0.7499999999999994
 40
0.8749999999999997
 40
0.8749999999999997
 40
1.0
 40
1.0
 40
1.0
 40
1.0
 10
13.33145430661822
 20
8.196270184013228
 30
0.0
 10
13.33145387263504
 20
8.175042243503652
 30
0.0
 10
13.33182158904401
 20
8.153813860354457
 30
0.0
 10
13.33336166524739
 20
8.111354148737524
 30
0.0
 10
13.33453624630508
 20
8.090122835284006
 30
0.0
 10
13.33942845308
 20
8.026421289043942
 30
0.0
 10
13.34451486328402
 20
7.983976209960543
 30
0.0
 10
13.35915199188024
 20
7.900203247844441
 30
0.0
 10
13.36870199379133
 20
7.858749476511566
 30
0.0
 10
13.38735883021988
 20
7.797408084481677
 30
0.0
 10
13.39430417539814
 20
7.777101386983607
 30
0.0
 10
13.40988306753189
 20
7.736819813789846
 30
0.0
 10
13.41856007741696
 20
7.716757088528527
 30
0.0
 10
13.4472485071163
 20
7.657833016462429
 30
0.0
 10
13.46972663247732
 20
7.620526764069027
 30
0.0
 10
13.509431210587
 20
7.568242495308347
 30
0.0
 10
13.52371125319237
 20
7.551383983798417
 30
0.0
 10
13.5542862939568
 20
7.519260415080256
 30
0.0
 10
13.57035911398702
 20
7.504220837363771
 30
0.0
 10
13.62084912454229
 20
7.462165667903378
 30
0.0
 10
13.65752540421827
 20
7.43820712335826
 30
0.0
 10
13.73654735317459
 20
7.398399263575701
 30
0.0
 10
13.77795139239177
 20
7.383042864132465
 30
0.0
 10
13.82034535439625
 20
7.371716166026836
 30
0.0
  0
LWPOLYLINE
  5
15D
330
1F
100
AcDbEntity
  8
0
  6
Continuous
 62
     7
370
    25
100
AcDbPolyline
 90
        5
 70
   128
 43
0.0
 10
13.3314508225
 20
9.8303488247
 10
13.3314521691
 20
9.2747620845
 10
13.3314533263
 20
8.9152647824
 10
13.331455334
 20
8.5557674815
 10
13.3314543066
 20
8.196270184
  0
SPLINE
  5
15E
330
1F
100
AcDbEntity
  8
0
  6
Continuous
 62
     7
370
    25
100
AcDbSpline
210
0.0
220
0.0
230
1.0
 70
     8
 71
     3
 72
    10
 73
     6
 74
     0
 42
0.000000001
 43
0.00000001
 40
0.0
 40
0.0
 40
0.0
 40
0.0
 40
0.5
 40
0.5
 40
1.0
 40
1.0
 40
1.0
 40
1.0
 10
13.34992845018524
 20
9.83034905045346
 30
0.0
 10
13.34499868292477
 20
9.830348981883466
 30
0.0
 10
13.34024724013362
 20
9.83034889822422
 30
0.0
 10
13.33357323381652
 20
9.830348735114413
 30
0.0
 10
13.33173008771554
 20
9.830348657604778
 30
0.0
 10
13.33145082295306
 20
9.8303485988683
 30
0.0
  0
LWPOLYLINE
  5
15F
330
1F
100
AcDbEntity
  8
0
  6
Continuous
 62
     7
370
    25
100
AcDbPolyline
 90
        5
 70
   128
 43
0.0
 10
13.3314508225
 20
9.8303488247
 10
13.3314521691
 20
10.3859355648
 10
13.3314533263
 20
10.7454328669
 10
13.331455334
 20
11.1049301679
 10
13.3314543066
 20
11.4644274653
  0
SPLINE
  5
160
330
1F
100
AcDbEntity
  8
0
  6
Continuous
 62
     7
370
    25
100
AcDbSpline
210
0.0
220
0.0
230
1.0
 70
     8
 71
     3
 72
     8
 73
     4
 74
     0
 42
0.000000001
 43
0.00000001
 40
0.0
 40
0.0
 40
0.0
 40
0.0
 40
1.0
 40
1.0
 40
1.0
 40
1.0
 10
13.81649154415452
 20
7.357333550344374
 30
0.0
 10
13.54749844640058
 20
7.429410033355571
 30
0.0
 10
13.31671896437466
 20
7.660189515733611
 30
0.0
 10
13.3167189642854
 20
8.196270184013228
 30
0.0
  0
LINE
  5
161
330
1F
100
AcDbEntity
  8
0
  6
Continuous
 62
     7
370
    25
100
AcDbLine
 10
13.3314543066
 20
8.196270184
 30
0.0
 11
13.3167189643
 21
8.196270184
 31
0.0
  0
LINE
  5
162
330
1F
100
AcDbEntity
  8
0
  6
Continuous
 62
     7
370
    25
100
AcDbLine
 10
13.3314543066
 20
11.4644274653
 30
0.0
 11
13.3167189643
 21
11.4644274653
 31
0.0
  0
SPLINE
  5
163
330
1F
100
AcDbEntity
  8
0
  6
Continuous
 62
     7
370
    25
100
AcDbSpline
210
0.0
220
0.0
230
1.0
 70
     8
 71
     3
 72
     8
 73
     4
 74
     0
 42
0.000000001
 43
0.00000001
 40
0.0
 40
0.0
 40
0.0
 40
0.0
 40
1.0
 40
1.0
 40
1.0
 40
1.0
 10
13.81649154415452
 20
12.30336409897018
 30
0.0
 10
13.54749844640058
 20
12.23128761595898
 30
0.0
 10
13.31671896437466
 20
12.00050813358094
 30
0.0
 10
13.3167189642854
 20
11.46442746530133
 30
0.0
  0
LINE
  5
164
330
1F
100
AcDbEntity
  8
0
  6
Continuous
 62
     7
370
    25
100
AcDbLine
 10
13.3167189643
 20
11.4644274653
 30
0.0
 11
13.3167189643
 21
8.196270184
 31
0.0
  0
DIMENSION
  5
165
330
1F
100
AcDbEntity
  8
0
  6
Continuous
 62
     7
370
    18
100
AcDbDimension
  2
_D
 10
16.3167189643
 20
13.8673315188
 30
0.0
 11
14.8167189643
 21
13.8673315188
 31
0.0
 70
   160
  1
<>
 71
     2
 42
-1.0
  3
SLDDIMSTYLE0
100
AcDbAlignedDimension
 13
13.3167189643
 23
11.4644274653
 33
0.0
 14
16.3167189643
 24
12.3553488247
 34
0.0
100
AcDbRotatedDimension
  0
DIMENSION
  5
17A
330
1F
100
AcDbEntity
  8
0
  6
Continuous
 62
     7
370
    18
100
AcDbDimension
  2
_D_1
 10
18.6001845155
 20
6.9553488247
 30
0.0
 11
18.6001845155
 21
9.8303488247
 31
0.0
 70
   160
  1
<>
 71
     2
 42
-1.0
  3
SLDDIMSTYLE1
100
AcDbAlignedDimension
 13
15.9667189643
 23
12.7053488247
 33
0.0
 14
15.9667189643
 24
6.9553488247
 34
0.0
 50
90.0
100
AcDbRotatedDimension
  0
DIMENSION
  5
18F
330
1F
100
AcDbEntity
  8
0
  6
Continuous
 62
     7
370
    18
100
AcDbDimension
  2
_D_2
 10
16.9466412084
 20
11.5803488247
 30
0.0
 11
16.9466412084
 21
10.7053488247
 31
0.0
 70
   160
  1
<>
 71
     2
 42
-1.0
  3
SLDDIMSTYLE1
100
AcDbAlignedDimension
 13
16.4285340372
 23
9.8303488247
 33
0.0
 14
16.0172189643
 24
11.5803488247
 34
0.0
 50
90.0
100
AcDbRotatedDimension
  0
DIMENSION
  5
1A3
330
1F
100
AcDbEntity
  8
0
  6
Continuous
 62
     7
370
    18
100
AcDbDimension
  2
_D_3
 10
16.9466412084
 20
8.0803488247
 30
0.0
 11
16.9466412084
 21
8.9553488247
 31
0.0
 70
   160
  1
<>
 71
     2
 42
-1.0
  3
SLDDIMSTYLE1
100
AcDbAlignedDimension
 13
16.4285340372
 23
9.8303488247
 33
0.0
 14
16.0172189643
 24
8.0803488247
 34
0.0
 50
90.0
100
AcDbRotatedDimension
  0
DIMENSION
  5
1B7
330
1F
100
AcDbEntity
  8
0
  6
Continuous
 62
     7
370
    18
100
AcDbDimension
  2
_D_4
 10
15.8167189643
 20
13.2442130382
 30
0.0
 11
15.3558329765
 21
13.2442130382
 31
0.0
 70
   160
  1
<> X 2
 71
     2
 42
-1.0
  3
SLDDIMSTYLE0
100
AcDbAlignedDimension
 13
16.3167189643
 23
12.3553488247
 33
0.0
 14
15.8167189643
 24
11.7808488247
 34
0.0
100
AcDbRotatedDimension
  0
DIMENSION
  5
1CB
330
1F
100
AcDbEntity
  8
0
  6
Continuous
 62
     7
370
    18
100
AcDbDimension
  2
_D_5
 10
15.7685273737
 20
11.4921568715
 30
0.0
 11
17.250516145
 21
13.329755975
 31
0.0
 70
   163
  1
<> X 2
 71
     1
 42
-1.0
  3
SLDDIMSTYLE2
100
AcDbDiametricDimension
 15
15.8649105548
 25
11.6685407778
 35
0.0
 40
0.0
  0
INSERT
  5
1EB
330
1F
100
AcDbEntity
  8
0
  6
Continuous
 62
     7
370
    18
100
AcDbBlockReference
  2
SW_CENTERMARKSYMBOL_0
 10
15.8167189643
 20
11.5803488247
 30
0.0
  0
INSERT
  5
1F7
330
1F
100
AcDbEntity
  8
0
  6
Continuous
 62
     7
370
    18
100
AcDbBlockReference
  2
SW_CENTERMARKSYMBOL_1
 10
15.8167189643
 20
8.0803488247
 30
0.0
  0
LINE
  5
1F8
330
1F
100
AcDbEntity
  8
0
  6
CENTERX2
 62
     7
370
    18
100
AcDbLine
 10
16.4285340372
 20
9.8303488247
 30
0.0
 11
13.0423687044
 21
9.8303488247
 31
0.0
  0
ARC
  5
1F9
330
1F
100
AcDbEntity
  8
0
  6
Continuous
 62
     7
370
    25
100
AcDbCircle
 10
7.4349662492
 20
7.8786143562
 30
0.0
 40
0.0150000000000008
100
AcDbArc
 50
93.0
 51
180.0
  0
ARC
  5
1FA
330
1F
100
AcDbEntity
  8
0
  6
Continuous
 62
     7
370
    25
100
AcDbCircle
 10
7.4349662492
 20
8.2820832932
 30
0.0
 40
0.0150000000000008
100
AcDbArc
 50
180.0
 51
267.0
  0
ARC
  5
1FB
330
1F
100
AcDbEntity
  8
0
  6
Continuous
 62
     7
370
    25
100
AcDbCircle
 10
7.4349662492
 20
11.3786143562
 30
0.0
 40
0.0150000000000006
100
AcDbArc
 50
93.0
 51
180.0
  0
ARC
  5
1FC
330
1F
100
AcDbEntity
  8
0
  6
Continuous
 62
     7
370
    25
100
AcDbCircle
 10
7.4349662492
 20
11.7820832932
 30
0.0
 40
0.0150000000000006
100
AcDbArc
 50
180.0
 51
267.0
  0
LINE
  5
1FD
330
1F
100
AcDbEntity
  8
0
  6
Continuous
 62
     7
370
    25
100
AcDbLine
 10
7.4341811957
 20
7.8935938649
 30
0.0
 11
7.5153517513
 21
7.8978477357
 31
0.0
  0
LINE
  5
1FE
330
1F
100
AcDbEntity
  8
0
  6
Continuous
 62
     7
370
    25
100
AcDbLine
 10
7.5153517513
 20
8.2628499192
 30
0.0
 11
7.4341811957
 21
8.2671037901
 31
0.0
  0
LINE
  5
1FF
330
1F
100
AcDbEntity
  8
0
  6
Continuous
 62
     7
370
    25
100
AcDbLine
 10
7.4341811957
 20
11.3935938593
 30
0.0
 11
7.5153517513
 21
11.3978477301
 31
0.0
  0
LINE
  5
200
330
1F
100
AcDbEntity
  8
0
  6
Continuous
 62
     7
370
    25
100
AcDbLine
 10
7.5153517513
 20
11.7628499136
 30
0.0
 11
7.4341811957
 21
11.7671037844
 31
0.0
  0
ARC
  5
201
330
1F
100
AcDbEntity
  8
0
  6
Continuous
 62
     7
370
    25
100
AcDbCircle
 10
7.5137162492
 20
8.2316427095
 30
0.0
 40
0.0312500000000009
100
AcDbArc
 50
0.0
 51
87.0
  0
ARC
  5
202
330
1F
100
AcDbEntity
  8
0
  6
Continuous
 62
     7
370
    25
100
AcDbCircle
 10
7.5137162492
 20
7.9290549398
 30
0.0
 40
0.0312500000000009
100
AcDbArc
 50
273.0
 51
0.0
  0
ARC
  5
203
330
1F
100
AcDbEntity
  8
0
  6
Continuous
 62
     7
370
    25
100
AcDbCircle
 10
7.5137162492
 20
11.7316427095
 30
0.0
 40
0.0312500000000009
100
AcDbArc
 50
0.0
 51
87.0
  0
ARC
  5
204
330
1F
100
AcDbEntity
  8
0
  6
Continuous
 62
     7
370
    25
100
AcDbCircle
 10
7.5137162492
 20
11.4290549398
 30
0.0
 40
0.0312500000000009
100
AcDbArc
 50
273.0
 51
0.0
  0
SPLINE
  5
205
330
1F
100
AcDbEntity
  8
0
  6
Continuous
 62
     7
370
    25
100
AcDbSpline
210
0.0
220
0.0
230
1.0
 70
     8
 71
     3
 72
    28
 73
    24
 74
     0
 42
0.000000001
 43
0.00000001
 40
0.0
 40
0.0
 40
0.0
 40
0.0
 40
0.0625000000000001
 40
0.0625000000000001
 40
0.1250000000000002
 40
0.1250000000000002
 40
0.2500000000000002
 40
0.2500000000000002
 40
0.3750000000000003
 40
0.3750000000000003
 40
0.4375000000000003
 40
0.4375000000000003
 40
0.5000000000000003
 40
0.5000000000000003
 40
0.6250000000000003
 40
0.6250000000000003
 40
0.6874999999999999
 40
0.6874999999999999
 40
0.7499999999999994
 40
0.7499999999999994
 40
0.8749999999999997
 40
0.8749999999999997
 40
1.0
 40
1.0
 40
1.0
 40
1.0
 10
7.201133330442022
 20
8.19627018401323
 30
0.0
 10
7.201125049476707
 20
8.175042243503654
 30
0.0
 10
7.201191926994887
 20
8.15381386035446
 30
0.0
 10
7.201190152485241
 20
8.111354148737526
 30
0.0
 10
7.201167207877438
 20
8.090122835284008
 30
0.0
 10
7.201073468436489
 20
8.026421289043943
 30
0.0
 10
7.200973074370313
 20
7.983976209960546
 30
0.0
 10
7.200785951402098
 20
7.900203247844443
 30
0.0
 10
7.200700493707167
 20
7.858749476511568
 30
0.0
 10
7.200606908880713
 20
7.797408084481679
 30
0.0
 10
7.200582919146723
 20
7.777101386983609
 30
0.0
 10
7.200553907656299
 20
7.736819813789848
 30
0.0
 10
7.200548969043153
 20
7.71675708852853
 30
0.0
 10
7.2005629640319
 20
7.657833016462431
 30
0.0
 10
7.200622527641208
 20
7.620526764069029
 30
0.0
 10
7.200811487953574
 20
7.568242495308349
 30
0.0
 10
7.200881513330003
 20
7.551383983798419
 30
0.0
 10
7.201075640883497
 20
7.519260415080258
 30
0.0
 10
7.201200923800811
 20
7.504220837363774
 30
0.0
 10
7.20164325026431
 20
7.46216566790338
 30
0.0
 10
7.201988367665832
 20
7.438207123358262
 30
0.0
 10
7.202930124122067
 20
7.398399263575703
 30
0.0
 10
7.203480741452752
 20
7.383042864132467
 30
0.0
 10
7.204083981916742
 20
7.371716166026838
 30
0.0
  0
LINE
  5
206
330
1F
100
AcDbEntity
  8
0
  6
Continuous
 62
     7
370
    25
100
AcDbLine
 10
7.2040839838
 20
7.371716187
 30
0.0
 11
6.9199662492
 21
7.3573336331
 31
0.0
  0
SPLINE
  5
207
330
1F
100
AcDbEntity
  8
0
  6
Continuous
 62
     7
370
    25
100
AcDbSpline
210
0.0
220
0.0
230
1.0
 70
    24
 71
     3
 72
     8
 73
     4
 74
     0
 42
0.000000001
 43
0.00000001
 40
0.0
 40
0.0
 40
0.0
 40
0.0
 40
1.0
 40
1.0
 40
1.0
 40
1.0
 10
6.919966249248965
 20
7.357333550344377
 30
0.0
 10
6.919966249248795
 20
7.429410033355572
 30
0.0
 10
6.919966249248795
 20
7.660189515733613
 30
0.0
 10
6.919966249248965
 20
8.19627018401323
 30
0.0
  0
LINE
  5
208
330
1F
100
AcDbEntity
  8
0
  6
Continuous
 62
     7
370
    25
100
AcDbLine
 10
7.2011333228
 20
8.1962701817
 30
0.0
 11
6.9199662492
 21
8.1962701817
 31
0.0
  0
LINE
  5
209
330
1F
100
AcDbEntity
  8
0
  6
Continuous
 62
     7
370
    25
100
AcDbLine
 10
7.2040839838
 20
12.2889814623
 30
0.0
 11
6.9199662492
 21
12.3033640162
 31
0.0
  0
SPLINE
  5
20A
330
1F
100
AcDbEntity
  8
0
  6
Continuous
 62
     7
370
    25
100
AcDbSpline
210
0.0
220
0.0
230
1.0
 70
     8
 71
     3
 72
    22
 73
    18
 74
     0
 42
0.000000001
 43
0.00000001
 40
0.0
 40
0.0
 40
0.0
 40
0.0
 40
0.0132483757378221
 40
0.0313319082426087
 40
0.0626643372813228
 40
0.125299831354734
 40
0.2502482245366779
 40
0.3874031510729779
 40
0.4993123425739409
 40
0.6336398210924237
 40
0.7492595600404761
 40
0.8163557831763374
 40
0.8740375519337057
 40
0.904191063040647
 40
0.935213189996777
 40
0.96713892100918
 40
1.0
 40
1.0
 40
1.0
 40
1.0
 10
7.201133330442019
 20
11.46442746530133
 30
0.0
 10
7.201133945131265
 20
11.46901361519053
 30
0.0
 10
7.201135398848113
 20
11.47985968646441
 30
0.0
 10
7.201166944574191
 20
11.50155053506321
 30
0.0
 10
7.201213132688473
 20
11.54032677395341
 30
0.0
 10
7.201108968099271
 20
11.61600402285495
 30
0.0
 10
7.200852692732735
 20
11.72775228723424
 30
0.0
 10
7.200601818344394
 20
11.85402613168241
 30
0.0
 10
7.200514510973584
 20
11.97759736628297
 30
0.0
 10
7.200685066926736
 20
12.08473562841271
 30
0.0
 10
7.201217296237145
 20
12.16375482786835
 30
0.0
 10
7.201854150813912
 20
12.21269834299448
 30
0.0
 10
7.202359303484344
 20
12.23914439207726
 30
0.0
 10
7.20282005271511
 20
12.25662346914394
 30
0.0
 10
7.203204976574469
 20
12.26877076515385
 30
0.0
 10
7.20362565699705
 20
12.2797962212494
 30
0.0
 10
7.203929743545133
 20
12.28589040139631
 30
0.0
 10
7.204083981916741
 20
12.28898148328754
 30
0.0
  0
LINE
  5
20B
330
1F
100
AcDbEntity
  8
0
  6
Continuous
 62
     7
370
    25
100
AcDbLine
 10
7.2011333228
 20
11.4644274676
 30
0.0
 11
6.9199662492
 21
11.4644274676
 31
0.0
  0
SPLINE
  5
20C
330
1F
100
AcDbEntity
  8
0
  6
Continuous
 62
     7
370
    25
100
AcDbSpline
210
0.0
220
0.0
230
1.0
 70
    24
 71
     3
 72
     8
 73
     4
 74
     0
 42
0.000000001
 43
0.00000001
 40
0.0
 40
0.0
 40
0.0
 40
0.0
 40
1.0
 40
1.0
 40
1.0
 40
1.0
 10
6.919966249248965
 20
12.30336409897018
 30
0.0
 10
6.919966249248795
 20
12.23128761595898
 30
0.0
 10
6.919966249248795
 20
12.00050813358094
 30
0.0
 10
6.919966249248965
 20
11.46442746530133
 30
0.0
  0
LINE
  5
20D
330
1F
100
AcDbEntity
  8
0
  6
Continuous
 62
     7
370
    25
100
AcDbLine
 10
6.9199662492
 20
11.4644274676
 30
0.0
 11
6.9199662492
 21
8.1962701817
 31
0.0
  0
LWPOLYLINE
  5
20E
330
1F
100
AcDbEntity
  8
0
  6
Continuous
 62
     7
370
    25
100
AcDbPolyline
 90
        5
 70
   128
 43
0.0
 10
7.201066847
 20
9.8303488247
 10
7.20109255
 20
10.3859355765
 10
7.2011146231
 20
10.7454328735
 10
7.2011529393
 20
11.1049302073
 10
7.2011333228
 20
11.4644274676
  0
LWPOLYLINE
  5
20F
330
1F
100
AcDbEntity
  8
0
  6
Continuous
 62
     7
370
    25
100
AcDbPolyline
 90
        5
 70
   128
 43
0.0
 10
7.201066847
 20
9.8303488247
 10
7.20109255
 20
9.2747620728
 10
7.2011146231
 20
8.9152647758
 10
7.2011529393
 20
8.5557674421
 10
7.2011333228
 20
8.1962701817
  0
LWPOLYLINE
  5
210
330
1F
100
AcDbEntity
  8
0
  6
Continuous
 62
     7
370
    25
100
AcDbPolyline
 90
        9
 70
   128
 43
0.0
 10
7.2011333228
 20
11.4644274676
 10
7.2053071696
 20
11.464429081
 10
7.2093681394
 20
11.4644306943
 10
7.2132364464
 20
11.4644323076
 10
7.2168360631
 20
11.4644337742
 10
7.2200962788
 20
11.4644350942
 10
7.2229530191
 20
11.4644364142
 10
7.2253501481
 20
11.4644374409
 10
7.2272405679
 20
11.4644381742
  0
SPLINE
  5
211
330
1F
100
AcDbEntity
  8
0
  6
Continuous
 62
     7
370
    25
100
AcDbSpline
210
0.0
220
0.0
230
1.0
 70
     8
 71
     3
 72
    14
 73
    10
 74
     0
 42
0.000000001
 43
0.00000001
 40
0.0
 40
0.0
 40
0.0
 40
0.0
 40
0.2499999999999998
 40
0.2499999999999998
 40
0.4999999999999998
 40
0.4999999999999998
 40
0.7499999999999998
 40
0.7499999999999998
 40
1.0
 40
1.0
 40
1.0
 40
1.0
 10
7.227240569242451
 20
11.46443819909532
 30
0.0
 10
7.227238259163735
 20
11.31894671396218
 30
0.0
 10
7.227235949079815
 20
11.17818736768053
 30
0.0
 10
7.227231328901576
 20
10.90087738946842
 30
0.0
 10
7.227229018807257
 20
10.76436108958257
 30
0.0
 10
7.227224398608231
 20
10.49428193433002
 30
0.0
 10
7.227222088503523
 20
10.36071700735917
 30
0.0
 10
7.227217468283728
 20
10.09487635792184
 30
0.0
 10
7.227215158168641
 20
9.962601878168234
 30
0.0
 10
7.227212848048369
 20
9.830348824657278
 30
0.0
  0
SPLINE
  5
212
330
1F
100
AcDbEntity
  8
0
  6
Continuous
 62
     7
370
    25
100
AcDbSpline
210
0.0
220
0.0
230
1.0
 70
     8
 71
     3
 72
    10
 73
     6
 74
     0
 42
0.000000001
 43
0.00000001
 40
0.0
 40
0.0
 40
0.0
 40
0.0
 40
0.5
 40
0.5
 40
1.0
 40
1.0
 40
1.0
 40
1.0
 10
7.227212852334423
 20
9.830349050453462
 30
0.0
 10
7.225170718373663
 20
9.830348981883468
 30
0.0
 10
7.221532680385758
 20
9.830348898224223
 30
0.0
 10
7.212088906672016
 20
9.830348735114416
 30
0.0
 10
7.206395547254329
 20
9.83034865760478
 30
0.0
 10
7.201066858150947
 20
9.830348598868301
 30
0.0
  0
LWPOLYLINE
  5
213
330
1F
100
AcDbEntity
  8
0
  6
Continuous
 62
     7
370
    25
100
AcDbPolyline
 90
        9
 70
   128
 43
0.0
 10
7.2011333228
 20
8.1962701817
 10
7.2053071696
 20
8.1962685684
 10
7.2093681394
 20
8.196266955
 10
7.2132364464
 20
8.1962653417
 10
7.2168360631
 20
8.1962638751
 10
7.2200962788
 20
8.1962625551
 10
7.2229530191
 20
8.1962612351
 10
7.2253501481
 20
8.1962602085
 10
7.2272405679
 20
8.1962594751
  0
SPLINE
  5
214
330
1F
100
AcDbEntity
  8
0
  6
Continuous
 62
     7
370
    25
100
AcDbSpline
210
0.0
220
0.0
230
1.0
 70
     8
 71
     3
 72
    12
 73
     8
 74
     0
 42
0.000000001
 43
0.00000001
 40
0.0
 40
0.0
 40
0.0
 40
0.0
 40
0.2499999999999999
 40
0.2499999999999999
 40
0.4999999999999999
 40
0.4999999999999999
 40
1.0
 40
1.0
 40
1.0
 40
1.0
 10
7.227240569242449
 20
8.196259450213848
 30
0.0
 10
7.227267139438841
 20
8.332443961203374
 30
0.0
 10
7.227253057076373
 20
8.468622748407599
 30
0.0
 10
7.22723444876559
 20
8.740964499353188
 30
0.0
 10
7.227234671557685
 20
8.877136278371298
 30
0.0
 10
7.227227251631064
 20
9.285658726168307
 30
0.0
 10
7.227215158713575
 20
9.558002597310251
 30
0.0
 10
7.227212852336335
 20
9.8303488246645
 30
0.0
  0
SPLINE
  5
215
330
1F
100
AcDbEntity
  8
0
  6
Continuous
 62
     7
370
    25
100
AcDbSpline
210
0.0
220
0.0
230
1.0
 70
     8
 71
     3
 72
    25
 73
    21
 74
     0
 42
0.000000001
 43
0.00000001
 40
0.0
 40
0.0
 40
0.0
 40
0.0
 40
0.0152522979032985
 40
0.0313957152120555
 40
0.0484421335433187
 40
0.0664043454053788
 40
0.0852966019990087
 40
0.1051353425036761
 40
0.1259380328870824
 40
0.1732485146810382
 40
0.2507267748705502
 40
0.3698435954055703
 40
0.5007135514090343
 40
0.6105738669775957
 40
0.7497306549502352
 40
0.8310294859250626
 40
0.8747181377581827
 40
0.9172465067696075
 40
0.959010748061986
 40
0.9999999999999999
 40
0.9999999999999999
 40
0.9999999999999999
 40
0.9999999999999999
 10
7.228284158070451
 20
12.27478207023025
 30
0.0
 10
7.228268251174709
 20
12.27332404211357
 30
0.0
 10
7.228235508018771
 20
12.27032280021463
 30
0.0
 10
7.228180441545911
 20
12.2652317885105
 30
0.0
 10
7.228119367019434
 20
12.25946954541891
 30
0.0
 10
7.228051934652685
 20
12.25292400322131
 30
0.0
 10
7.227978079770126
 20
12.24552027053193
 30
0.0
 10
7.227898470797187
 20
12.23716224932988
 30
0.0
 10
7.227774258555451
 20
12.22391017972067
 30
0.0
 10
7.227593025044185
 20
12.19941479323172
 30
0.0
 10
7.227299972384664
 20
12.15071409920188
 30
0.0
 10
7.227026974007752
 20
12.06997814089008
 30
0.0
 10
7.226939855283543
 20
11.96535298391765
 30
0.0
 10
7.226983384704426
 20
11.8456606414428
 30
0.0
 10
7.227079661372652
 20
11.73671491053926
 30
0.0
 10
7.227171202780394
 20
11.64824327638141
 30
0.0
 10
7.227226789067408
 20
11.5918331458426
 30
0.0
 10
7.227250202940977
 20
11.54863552751341
 30
0.0
 10
7.227257091132181
 20
11.50628809635856
 30
0.0
 10
7.227246042047339
 20
11.47830079750598
 30
0.0
 10
7.227240569242451
 20
11.46443819909532
 30
0.0
  0
ARC
  5
216
330
1F
100
AcDbEntity
  8
0
  6
Continuous
 62
     7
370
    25
100
AcDbCircle
 10
7.2025989262
 20
12.2587284595
 30
0.0
 40
0.0302894300814242
100
AcDbArc
 50
32.0059802837
 51
87.1897239612
  0
SPLINE
  5
217
330
1F
100
AcDbEntity
  8
0
  6
Continuous
 62
     7
370
    25
100
AcDbSpline
210
0.0
220
0.0
230
1.0
 70
     8
 71
     3
 72
    28
 73
    24
 74
     0
 42
0.000000001
 43
0.00000001
 40
0.0
 40
0.0
 40
0.0
 40
0.0
 40
0.125
 40
0.125
 40
0.2500000000000001
 40
0.2500000000000001
 40
0.3124999999999998
 40
0.3124999999999998
 40
0.3749999999999994
 40
0.3749999999999994
 40
0.4999999999999997
 40
0.4999999999999997
 40
0.5624999999999998
 40
0.5624999999999998
 40
0.625
 40
0.625
 40
0.7500000000000002
 40
0.7500000000000002
 40
0.8750000000000004
 40
0.8750000000000004
 40
0.9375000000000002
 40
0.9375000000000002
 40
1.0
 40
1.0
 40
1.0
 40
1.0
 10
7.22828415807036
 20
7.385915579092653
 30
0.0
 10
7.228154757028223
 20
7.397791450750086
 30
0.0
 10
7.227986533236346
 20
7.413480640320723
 30
0.0
 10
7.227630761977532
 20
7.453246970369307
 30
0.0
 10
7.227496081186644
 20
7.47685939740442
 30
0.0
 10
7.227284808616355
 20
7.517968101136841
 30
0.0
 10
7.227220092266123
 20
7.532611636352081
 30
0.0
 10
7.227127279272437
 20
7.563849955672655
 30
0.0
 10
7.227098248625436
 20
7.580232917367683
 30
0.0
 10
7.227002343737109
 20
7.631030602491674
 30
0.0
 10
7.226965437018476
 20
7.667243052819356
 30
0.0
 10
7.226956966605341
 20
7.724618653874739
 30
0.0
 10
7.226957430735843
 20
7.744174121037478
 30
0.0
 10
7.22696849985919
 20
7.783489521589184
 30
0.0
 10
7.22697900199602
 20
7.803334743267376
 30
0.0
 10
7.227022016321699
 20
7.863365132231116
 30
0.0
 10
7.227060930905408
 20
7.904046750171191
 30
0.0
 10
7.227145332202286
 20
7.986441860895582
 30
0.0
 10
7.22719296390099
 20
8.028300648958057
 30
0.0
 10
7.227240447380819
 20
8.091231246335012
 30
0.0
 10
7.227254987332773
 20
8.112230073354812
 30
0.0
 10
7.227265235859154
 20
8.15426188676869
 30
0.0
 10
7.227236489472607
 20
8.175348754259746
 30
0.0
 10
7.227240569242451
 20
8.19625945021924
 30
0.0
  0
ARC
  5
218
330
1F
100
AcDbEntity
  8
0
  6
Continuous
 62
     7
370
    25
100
AcDbCircle
 10
7.2025989262
 20
7.4019691898
 30
0.0
 40
0.0302894300814232
100
AcDbArc
 50
272.8102760388
 51
327.9940197163
  0
SPLINE
  5
219
330
1F
100
AcDbEntity
  8
0
  6
Continuous
 62
     7
370
    25
100
AcDbSpline
210
0.0
220
0.0
230
1.0
 70
     8
 71
     3
 72
     9
 73
     5
 74
     0
 42
0.000000001
 43
0.00000001
 40
0.0
 40
0.0
 40
0.0
 40
0.0
 40
0.4977278269078003
 40
0.9999999999999999
 40
0.9999999999999999
 40
0.9999999999999999
 40
0.9999999999999999
 10
7.228224562690404
 20
12.27892487957232
 30
0.0
 10
7.228247611110961
 20
12.2782366324235
 30
0.0
 10
7.228293918388379
 20
12.27685385430337
 30
0.0
 10
7.228287421351355
 20
12.27547475395776
 30
0.0
 10
7.228284158070451
 20
12.27478207023025
 30
0.0
  0
SPLINE
  5
21A
330
1F
100
AcDbEntity
  8
0
  6
Continuous
 62
     7
370
    25
100
AcDbSpline
210
0.0
220
0.0
230
1.0
 70
     8
 71
     3
 72
    10
 73
     6
 74
     0
 42
0.000000001
 43
0.00000001
 40
0.0
 40
0.0
 40
0.0
 40
0.0
 40
0.5
 40
0.5
 40
1.0
 40
1.0
 40
1.0
 40
1.0
 10
7.22835775783378
 20
12.4471334995428
 30
0.0
 10
7.228335559748094
 20
12.41961535223261
 30
0.0
 10
7.228313361107024
 20
12.39201531961201
 30
0.0
 10
7.228268962722955
 20
12.33617102132289
 30
0.0
 10
7.228246762979954
 20
12.30791379911005
 30
0.0
 10
7.228224562690404
 20
12.27892487957232
 30
0.0
  0
SPLINE
  5
21B
330
1F
100
AcDbEntity
  8
0
  6
Continuous
 62
     7
370
    25
100
AcDbSpline
210
0.0
220
0.0
230
1.0
 70
     8
 71
     3
 72
    27
 73
    23
 74
     0
 42
0.000000001
 43
0.00000001
 40
0.0
 40
0.0
 40
0.0
 40
0.0
 40
0.0374687510300911
 40
0.0636107317152553
 40
0.0710093297972105
 40
0.0763429860926148
 40
0.0822805541655099
 40
0.0857689987240816
 40
0.0890844188890069
 40
0.0947843975214064
 40
0.1066740576354621
 40
0.1264015631260465
 40
0.1655216573579864
 40
0.1896673320044242
 40
0.2213456404948779
 40
0.2523251388834559
 40
0.3650721229450644
 40
0.5026130257109163
 40
0.633254634990197
 40
0.7873109917123273
 40
0.8884366616972966
 40
1.0
 40
1.0
 40
1.0
 40
1.0
 10
7.319966249248965
 20
12.32159863471619
 30
0.0
 10
7.319964742839191
 20
12.32264324574839
 30
0.0
 10
7.319962185405987
 20
12.32441668282033
 30
0.0
 10
7.319929477860119
 20
12.32662464736674
 30
0.0
 10
7.319881973289794
 20
12.32800767339932
 30
0.0
 10
7.319841575217007
 20
12.3287731026241
 30
0.0
 10
7.3197988911246
 20
12.32942782377908
 30
0.0
 10
7.319674434292528
 20
12.33044898614033
 30
0.0
 10
7.31947567439447
 20
12.33128540955173
 30
0.0
 10
7.319278486150455
 20
12.33169903314293
 30
0.0
 10
7.318946636149414
 20
12.33218087005027
 30
0.0
 10
7.318307112381293
 20
12.33274819968592
 30
0.0
 10
7.317393189171876
 20
12.33352296768493
 30
0.0
 10
7.316136479249514
 20
12.33464214904769
 30
0.0
 10
7.314718382044637
 20
12.33612993966419
 30
0.0
 10
7.311306769937648
 20
12.33998787831069
 30
0.0
 10
7.303611843813365
 20
12.34974914711719
 30
0.0
 10
7.29024320675074
 20
12.36716935312237
 30
0.0
 10
7.273841888141232
 20
12.38843804565655
 30
0.0
 10
7.257952866946508
 20
12.40892571686153
 30
0.0
 10
7.242405948703584
 20
12.42896247509245
 30
0.0
 10
7.233191224999181
 20
12.44088151657528
 30
0.0
 10
7.22835775783378
 20
12.4471334995428
 30
0.0
  0
LINE
  5
21C
330
1F
100
AcDbEntity
  8
0
  6
Continuous
 62
     7
370
    25
100
AcDbLine
 10
7.3199662517
 20
12.3215985789
 30
0.0
 11
7.3199662517
 21
12.152876368
 31
0.0
  0
SPLINE
  5
21D
330
1F
100
AcDbEntity
  8
0
  6
Continuous
 62
     7
370
    25
100
AcDbSpline
210
0.0
220
0.0
230
1.0
 70
    24
 71
     3
 72
    73
 73
    69
 74
     0
 42
0.000000001
 43
0.00000001
 40
0.0
 40
0.0
 40
0.0
 40
0.0
 40
0.0312499999999747
 40
0.0468749999999617
 40
0.0546874999999559
 40
0.058593749999953
 40
0.058593749999953
 40
0.0624999999999501
 40
0.0624999999999501
 40
0.0937499999999318
 40
0.1093749999999234
 40
0.1171874999999199
 40
0.1210937499999189
 40
0.1210937499999189
 40
0.1249999999999178
 40
0.1249999999999178
 40
0.187499999999915
 40
0.2187499999999135
 40
0.2343749999999124
 40
0.2421874999999118
 40
0.246093749999912
 40
0.246093749999912
 40
0.2499999999999121
 40
0.2499999999999121
 40
0.3124999999999055
 40
0.3437499999999026
 40
0.3437499999999026
 40
0.3749999999998999
 40
0.3749999999998999
 40
0.4374999999998925
 40
0.4687499999998897
 40
0.4843749999998887
 40
0.4921874999998894
 40
0.4921874999998894
 40
0.4999999999998901
 40
0.4999999999998901
 40
0.5624999999998996
 40
0.5937499999999044
 40
0.6093749999999067
 40
0.617187499999908
 40
0.6210937499999083
 40
0.6210937499999083
 40
0.6249999999999087
 40
0.6249999999999087
 40
0.6874999999999225
 40
0.71874999999993
 40
0.7343749999999332
 40
0.7421874999999353
 40
0.7460937499999367
 40
0.7460937499999367
 40
0.7499999999999383
 40
0.7499999999999383
 40
0.8124999999999506
 40
0.8437499999999571
 40
0.8593749999999604
 40
0.867187499999962
 40
0.871093749999963
 40
0.871093749999963
 40
0.8749999999999641
 40
0.8749999999999641
 40
0.9062499999999738
 40
0.9218749999999781
 40
0.9296874999999798
 40
0.9335937499999811
 40
0.9335937499999811
 40
0.9374999999999826
 40
0.9374999999999826
 40
1.0
 40
1.0
 40
1.0
 40
1.0
 10
7.319966249248965
 20
12.15287631787855
 30
0.0
 10
7.319966249248965
 20
12.15050618085317
 30
0.0
 10
7.319966249248965
 20
12.14662674611641
 30
0.0
 10
7.319966249248965
 20
12.14153349562593
 30
0.0
 10
7.319966249248965
 20
12.13884505955628
 30
0.0
 10
7.319966249248965
 20
12.13766248463549
 30
0.0
 10
7.319966249248965
 20
12.13686734845856
 30
0.0
 10
7.319966249248965
 20
12.13643490313793
 30
0.0
 10
7.319966249248965
 20
12.13307952132987
 30
0.0
 10
7.319966249248965
 20
12.12830417519407
 30
0.0
 10
7.319966249248965
 20
12.12220530651679
 30
0.0
 10
7.319966249248965
 20
12.11902396429844
 30
0.0
 10
7.319966249248965
 20
12.11763226594493
 30
0.0
 10
7.319966249248965
 20
12.11669818571498
 30
0.0
 10
7.319966249248965
 20
12.11618912554849
 30
0.0
 10
7.319966249248965
 20
12.10880361061567
 30
0.0
 10
7.319966249248965
 20
12.09758250756816
 30
0.0
 10
7.319966249248965
 20
12.08310085665087
 30
0.0
 10
7.319966249248965
 20
12.07551244018509
 30
0.0
 10
7.319966249248965
 20
12.07163133420042
 30
0.0
 10
7.319966249248965
 20
12.06994938211732
 30
0.0
 10
7.319966249248965
 20
12.06882394274041
 30
0.0
 10
7.319966249248965
 20
12.06822754122964
 30
0.0
 10
7.319966249248965
 20
12.05912837880649
 30
0.0
 10
7.319966249248965
 20
12.04570130393139
 30
0.0
 10
7.319966249248965
 20
12.03140243128679
 30
0.0
 10
7.319966249248965
 20
12.02167611668606
 30
0.0
 10
7.319966249248965
 20
12.01665943088406
 30
0.0
 10
7.319966249248965
 20
12.00165874671834
 30
0.0
 10
7.319966249248965
 20
11.98625506790122
 30
0.0
 10
7.319966249248965
 20
11.96757886864131
 30
0.0
 10
7.319966249248965
 20
11.95806445885138
 30
0.0
 10
7.319966249248965
 20
11.95394907390712
 30
0.0
 10
7.319966249248965
 20
11.95119708822238
 30
0.0
 10
7.319966249248965
 20
11.94985914689273
 30
0.0
 10
7.319966249248965
 20
11.93701940545124
 30
0.0
 10
7.319966249248965
 20
11.91961193516583
 30
0.0
 10
7.319966249248965
 20
11.89879954353018
 30
0.0
 10
7.319966249248965
 20
11.88826742863669
 30
0.0
 10
7.319966249248965
 20
11.88296989142104
 30
0.0
 10
7.319966249248965
 20
11.88069277266384
 30
0.0
 10
7.319966249248965
 20
11.87917319445577
 30
0.0
 10
7.319966249248965
 20
11.87846443637912
 30
0.0
 10
7.319966249248965
 20
11.86464226871121
 30
0.0
 10
7.319966249248965
 20
11.84496187092915
 30
0.0
 10
7.319966249248965
 20
11.82170959555807
 30
0.0
 10
7.319966249248965
 20
11.81001050504952
 30
0.0
 10
7.319966249248965
 20
11.80414272158949
 30
0.0
 10
7.319966249248965
 20
11.80162404906254
 30
0.0
 10
7.319966249248965
 20
11.79994406555858
 30
0.0
 10
7.319966249248965
 20
11.79919126852373
 30
0.0
 10
7.319966249248965
 20
11.78340695215621
 30
0.0
 10
7.319966249248965
 20
11.7610721943097
 30
0.0
 10
7.319966249248965
 20
11.73492569691048
 30
0.0
 10
7.319966249248965
 20
11.72183012823296
 30
0.0
 10
7.319966249248965
 20
11.71527676389972
 30
0.0
 10
7.319966249248965
 20
11.71246698347237
 30
0.0
 10
7.319966249248965
 20
11.71059353080679
 30
0.0
 10
7.319966249248965
 20
11.70975109116188
 30
0.0
 10
7.319966249248965
 20
11.70046838683649
 30
0.0
 10
7.319966249248965
 20
11.68814187462765
 30
0.0
 10
7.319966249248965
 20
11.67384919077778
 30
0.0
 10
7.319966249248965
 20
11.66672491061796
 30
0.0
 10
7.319966249248965
 20
11.66367637521342
 30
0.0
 10
7.319966249248965
 20
11.6616450688373
 30
0.0
 10
7.319966249248965
 20
11.66070490396283
 30
0.0
 10
7.319966249248965
 20
11.64218228772105
 30
0.0
 10
7.319966249248965
 20
11.62478517106774
 30
0.0
 10
7.319966249248965
 20
11.6074239883416
 30
0.0
  0
LINE
  5
21E
330
1F
100
AcDbEntity
  8
0
  6
Continuous
 62
     7
370
    25
100
AcDbLine
 10
7.3199662517
 20
11.6074240557
 30
0.0
 11
7.3199662517
 21
9.8303488247
 31
0.0
  0
SPLINE
  5
21F
330
1F
100
AcDbEntity
  8
0
  6
Continuous
 62
     7
370
    25
100
AcDbSpline
210
0.0
220
0.0
230
1.0
 70
    24
 71
     3
 72
     8
 73
     4
 74
     0
 42
0.000000001
 43
0.00000001
 40
0.0
 40
0.0
 40
0.0
 40
0.0
 40
1.0
 40
1.0
 40
1.0
 40
1.0
 10
7.227212848048351
 20
9.830348824657278
 30
0.0
 10
7.27468420429872
 20
9.830348824657278
 30
0.0
 10
7.319966249248965
 20
9.830348824657278
 30
0.0
 10
7.319966249248965
 20
9.830348824657278
 30
0.0
  0
SPLINE
  5
220
330
1F
100
AcDbEntity
  8
0
  6
Continuous
 62
     7
370
    25
100
AcDbSpline
210
0.0
220
0.0
230
1.0
 70
    24
 71
     3
 72
    15
 73
    11
 74
     0
 42
0.000000001
 43
0.00000001
 40
0.0
 40
0.0
 40
0.0
 40
0.0
 40
0.125
 40
0.25
 40
0.375
 40
0.5
 40
0.625
 40
0.75
 40
0.875
 40
1.0
 40
1.0
 40
1.0
 40
1.0
 10
7.319966249248965
 20
7.507821331436006
 30
0.0
 10
7.319966249248965
 20
7.51764565745009
 30
0.0
 10
7.319966249248965
 20
7.543276751088529
 30
0.0
 10
7.319966249248965
 20
7.591720997963493
 30
0.0
 10
7.319966249248965
 20
7.64787172988316
 30
0.0
 10
7.319966249248965
 20
7.711023101199568
 30
0.0
 10
7.319966249248965
 20
7.781627006290532
 30
0.0
 10
7.319966249248965
 20
7.860746809337405
 30
0.0
 10
7.319966249248965
 20
7.949995176170349
 30
0.0
 10
7.319966249248965
 20
8.017425408967952
 30
0.0
 10
7.319966249248965
 20
8.053273660972952
 30
0.0
  0
LINE
  5
221
330
1F
100
AcDbEntity
  8
0
  6
Continuous
 62
     7
370
    25
100
AcDbLine
 10
7.3199662517
 20
7.3390990705
 30
0.0
 11
7.3199662517
 21
7.5078212814
 31
0.0
  0
SPLINE
  5
222
330
1F
100
AcDbEntity
  8
0
  6
Continuous
 62
     7
370
    25
100
AcDbSpline
210
0.0
220
0.0
230
1.0
 70
     8
 71
     3
 72
    22
 73
    18
 74
     0
 42
0.000000001
 43
0.00000001
 40
0.0
 40
0.0
 40
0.0
 40
0.0
 40
0.125
 40
0.125
 40
0.25
 40
0.25
 40
0.375
 40
0.375
 40
0.5
 40
0.5
 40
0.625
 40
0.625
 40
0.75
 40
0.75
 40
0.875
 40
0.875
 40
1.0
 40
1.0
 40
1.0
 40
1.0
 10
7.319966249248965
 20
7.339099014598368
 30
0.0
 10
7.319966249248965
 20
7.336371917053501
 30
0.0
 10
7.319946336580276
 20
7.334275121970727
 30
0.0
 10
7.319815338584068
 20
7.331176334423779
 30
0.0
 10
7.319705192031457
 20
7.330177289288238
 30
0.0
 10
7.319270423778045
 20
7.328844137448673
 30
0.0
 10
7.318955886543526
 20
7.328506794876791
 30
0.0
 10
7.317806548540218
 20
7.327535619237885
 30
0.0
 10
7.31699309676657
 20
7.326927490777976
 30
0.0
 10
7.313989213069489
 20
7.323808369503777
 30
0.0
 10
7.311809357280461
 20
7.321288511585049
 30
0.0
 10
7.304429620454324
 20
7.311993296293699
 30
0.0
 10
7.299133753407216
 20
7.305099288698957
 30
0.0
 10
7.284566021116623
 20
7.286164343661927
 30
0.0
 10
7.275322430849389
 20
7.274183577786772
 30
0.0
 10
7.253891857104026
 20
7.246528800910782
 30
0.0
 10
7.241737272049071
 20
7.230901462982738
 30
0.0
 10
7.228357727333643
 20
7.213564238780883
 30
0.0
  0
SPLINE
  5
223
330
1F
100
AcDbEntity
  8
0
  6
Continuous
 62
     7
370
    25
100
AcDbSpline
210
0.0
220
0.0
230
1.0
 70
     8
 71
     3
 72
    16
 73
    12
 74
     0
 42
0.000000001
 43
0.00000001
 40
0.0
 40
0.0
 40
0.0
 40
0.0
 40
0.4999999999999976
 40
0.4999999999999976
 40
0.749999999999997
 40
0.749999999999997
 40
0.8749999999999972
 40
0.9374999999999981
 40
0.9687499999999984
 40
0.9687499999999984
 40
1.0
 40
1.0
 40
1.0
 40
1.0
 10
7.22835775783378
 20
7.213564149771755
 30
0.0
 10
7.228338253702661
 20
7.241626198912593
 30
0.0
 10
7.228315750209046
 20
7.269683139909167
 30
0.0
 10
7.228276002164321
 20
7.311758984710098
 30
0.0
 10
7.228261609581175
 20
7.325780001053539
 30
0.0
 10
7.228240982958709
 20
7.346787253970837
 30
0.0
 10
7.228230917362502
 20
7.357284920968659
 30
0.0
 10
7.228220229519629
 20
7.369518900294883
 30
0.0
 10
7.228215937177088
 20
7.37475889352738
 30
0.0
 10
7.22821314636457
 20
7.378251494327991
 30
0.0
 10
7.228195116512566
 20
7.379951866562415
 30
0.0
 10
7.228224942554531
 20
7.381772545666884
 30
0.0
  0
SPLINE
  5
224
330
1F
100
AcDbEntity
  8
0
  6
Continuous
 62
     7
370
    25
100
AcDbSpline
210
0.0
220
0.0
230
1.0
 70
     8
 71
     3
 72
     9
 73
     5
 74
     0
 42
0.000000001
 43
0.00000001
 40
0.0
 40
0.0
 40
0.0
 40
0.0
 40
0.325009110981579
 40
1.0
 40
1.0
 40
1.0
 40
1.0
 10
7.228224942554531
 20
7.381772545666884
 30
0.0
 10
7.228239417871311
 20
7.382219819953449
 30
0.0
 10
7.228283956058981
 20
7.383596009947681
 30
0.0
 10
7.2282840766635
 20
7.384980834875288
 30
0.0
 10
7.228284158070452
 20
7.385915579084306
 30
0.0
  0
LINE
  5
225
330
1F
100
AcDbEntity
  8
0
  6
Continuous
 62
     7
370
    25
100
AcDbLine
 10
7.3199662517
 20
8.0532735936
 30
0.0
 11
7.3199662517
 21
9.8303488247
 31
0.0
  0
LINE
  5
226
330
1F
100
AcDbEntity
  8
0
  6
Continuous
 62
     7
370
    25
100
AcDbLine
 10
7.3299381499
 20
12.6505211791
 30
0.0
 11
6.9199662492
 21
12.671274566
 31
0.0
  0
LINE
  5
227
330
1F
100
AcDbEntity
  8
0
  6
Continuous
 62
     7
370
    25
100
AcDbLine
 10
7.3299381499
 20
12.5631493351
 30
0.0
 11
7.3299381499
 21
12.6505211791
 31
0.0
  0
SPLINE
  5
228
330
1F
100
AcDbEntity
  8
0
  6
Continuous
 62
     7
370
    25
100
AcDbSpline
210
0.0
220
0.0
230
1.0
 70
     8
 71
     3
 72
    12
 73
     8
 74
     0
 42
0.000000001
 43
0.00000001
 40
0.0
 40
0.0
 40
0.0
 40
0.0
 40
0.5000000000000008
 40
0.5000000000000008
 40
0.7500000000000003
 40
0.7500000000000003
 40
1.0
 40
1.0
 40
1.0
 40
1.0
 10
7.205116054554773
 20
12.45979305345552
 30
0.0
 10
7.205240904385987
 20
12.47926217229676
 30
0.0
 10
7.218415709494974
 20
12.49738559641671
 30
0.0
 10
7.252062340079238
 20
12.52313898863776
 30
0.0
 10
7.265663031977823
 20
12.53150668361521
 30
0.0
 10
7.295804151110239
 20
12.54766990984855
 30
0.0
 10
7.312248899346435
 20
12.55551615742201
 30
0.0
 10
7.329938165092059
 20
12.56314924901039
 30
0.0
  0
SPLINE
  5
229
330
1F
100
AcDbEntity
  8
0
  6
Continuous
 62
     7
370
    25
100
AcDbSpline
210
0.0
220
0.0
230
1.0
 70
     8
 71
     3
 72
    15
 73
    11
 74
     0
 42
0.000000001
 43
0.00000001
 40
0.0
 40
0.0
 40
0.0
 40
0.0
 40
0.0625000000000001
 40
0.0625000000000001
 40
0.1250000000000002
 40
0.2499999999999998
 40
0.2499999999999998
 40
0.5000000000000001
 40
0.5000000000000001
 40
1.0
 40
1.0
 40
1.0
 40
1.0
 10
7.204083981916741
 20
12.28898148328754
 30
0.0
 10
7.204281519732031
 20
12.29253107279218
 30
0.0
 10
7.204204644525952
 20
12.2960946682315
 30
0.0
 10
7.204227693315975
 20
12.30321283534709
 30
0.0
 10
7.204265684246325
 20
12.31388991158291
 30
0.0
 10
7.204312995357324
 20
12.32456651210903
 30
0.0
 10
7.20441720157414
 20
12.34591922403345
 30
0.0
 10
7.204499612833621
 20
12.3601537050433
 30
0.0
 10
7.204757570185147
 20
12.4028566009135
 30
0.0
 10
7.204933497133727
 20
12.43132499634104
 30
0.0
 10
7.205116054554773
 20
12.45979305345552
 30
0.0
  0
LINE
  5
22A
330
1F
100
AcDbEntity
  8
0
  6
Continuous
 62
     7
370
    25
100
AcDbLine
 10
6.9199662492
 20
12.671274566
 30
0.0
 11
6.9199662492
 21
12.3033640162
 31
0.0
  0
SPLINE
  5
22B
330
1F
100
AcDbEntity
  8
0
  6
Continuous
 62
     7
370
    25
100
AcDbSpline
210
0.0
220
0.0
230
1.0
 70
     8
 71
     3
 72
    15
 73
    11
 74
     0
 42
0.000000001
 43
0.00000001
 40
0.0
 40
0.0
 40
0.0
 40
0.0
 40
0.0625000000000001
 40
0.0625000000000001
 40
0.1250000000000002
 40
0.2499999999999998
 40
0.2499999999999998
 40
0.5000000000000001
 40
0.5000000000000001
 40
1.0
 40
1.0
 40
1.0
 40
1.0
 10
7.204083981916741
 20
7.371716166027011
 30
0.0
 10
7.204281519732031
 20
7.368166576522378
 30
0.0
 10
7.204204644525952
 20
7.364602981083062
 30
0.0
 10
7.204227693315975
 20
7.357484813967464
 30
0.0
 10
7.204265684246325
 20
7.346807737731641
 30
0.0
 10
7.204312995357324
 20
7.336131137205531
 30
0.0
 10
7.20441720157414
 20
7.314778425281106
 30
0.0
 10
7.204499612833621
 20
7.300543944271262
 30
0.0
 10
7.204757570185147
 20
7.257841048401061
 30
0.0
 10
7.204933497133727
 20
7.229372652973518
 30
0.0
 10
7.205116054554773
 20
7.200904595859038
 30
0.0
  0
SPLINE
  5
22C
330
1F
100
AcDbEntity
  8
0
  6
Continuous
 62
     7
370
    25
100
AcDbSpline
210
0.0
220
0.0
230
1.0
 70
     8
 71
     3
 72
    12
 73
     8
 74
     0
 42
0.000000001
 43
0.00000001
 40
0.0
 40
0.0
 40
0.0
 40
0.0
 40
0.5000000000000008
 40
0.5000000000000008
 40
0.7500000000000003
 40
0.7500000000000003
 40
1.0
 40
1.0
 40
1.0
 40
1.0
 10
7.205116054554773
 20
7.200904595859038
 30
0.0
 10
7.205240904385987
 20
7.181435477017794
 30
0.0
 10
7.218415709494974
 20
7.163312052897842
 30
0.0
 10
7.252062340079238
 20
7.137558660676794
 30
0.0
 10
7.265663031977824
 20
7.129190965699351
 30
0.0
 10
7.295804151110239
 20
7.11302773946601
 30
0.0
 10
7.312248899346435
 20
7.105181491892545
 30
0.0
 10
7.329938165092059
 20
7.097548400304164
 30
0.0
  0
LINE
  5
22D
330
1F
100
AcDbEntity
  8
0
  6
Continuous
 62
     7
370
    25
100
AcDbLine
 10
7.3299381499
 20
7.0975483142
 30
0.0
 11
7.3299381499
 21
7.0101764702
 31
0.0
  0
LINE
  5
22E
330
1F
100
AcDbEntity
  8
0
  6
Continuous
 62
     7
370
    25
100
AcDbLine
 10
7.3299381499
 20
7.0101764702
 30
0.0
 11
6.9199662492
 21
6.9894230833
 31
0.0
  0
LINE
  5
22F
330
1F
100
AcDbEntity
  8
0
  6
Continuous
 62
     7
370
    25
100
AcDbLine
 10
6.9199662492
 20
6.9894230833
 30
0.0
 11
6.9199662492
 21
7.3573336331
 31
0.0
  0
ARC
  5
230
330
1F
100
AcDbEntity
  8
0
  6
Continuous
 62
     7
370
    25
100
AcDbCircle
 10
7.2037209456
 20
12.4295672018
 30
0.0
 40
0.0302580395893852
100
AcDbArc
 50
35.489287207
 51
87.3573382721
  0
ARC
  5
231
330
1F
100
AcDbEntity
  8
0
  6
Continuous
 62
     7
370
    25
100
AcDbCircle
 10
7.2037209456
 20
7.2311304475
 30
0.0
 40
0.0302580395893864
100
AcDbArc
 50
272.6426617279
 51
324.510712793
  0
SPLINE
  5
232
330
1F
100
AcDbEntity
  8
0
  6
Continuous
 62
     7
370
    25
100
AcDbSpline
210
0.0
220
0.0
230
1.0
 70
     8
 71
     3
 72
     8
 73
     4
 74
     0
 42
0.000000001
 43
0.00000001
 40
0.0
 40
0.0
 40
0.0
 40
0.0
 40
1.0
 40
1.0
 40
1.0
 40
1.0
 10
7.329938165092059
 20
12.56314924901039
 30
0.0
 10
7.331574380543577
 20
12.56283173658501
 30
0.0
 10
7.333179662064246
 20
12.56234864876181
 30
0.0
 10
7.334753515272798
 20
12.5617031800758
 30
0.0
  0
SPLINE
  5
233
330
1F
100
AcDbEntity
  8
0
  6
Continuous
 62
     7
370
    25
100
AcDbSpline
210
0.0
220
0.0
230
1.0
 70
     8
 71
     3
 72
    10
 73
     6
 74
     0
 42
0.000000001
 43
0.00000001
 40
0.0
 40
0.0
 40
0.0
 40
0.0
 40
0.5
 40
0.5
 40
1.0
 40
1.0
 40
1.0
 40
1.0
 10
7.334753515272798
 20
12.5617031800758
 30
0.0
 10
7.339347758131418
 20
12.55981898917092
 30
0.0
 10
7.343513323180113
 20
12.55658632122365
 30
0.0
 10
7.350007532030561
 20
12.54833664854423
 30
0.0
 10
7.352332829669539
 20
12.54332673308398
 30
0.0
 10
7.353408462443787
 20
12.53802496734065
 30
0.0
  0
SPLINE
  5
234
330
1F
100
AcDbEntity
  8
0
  6
Continuous
 62
     7
370
    25
100
AcDbSpline
210
0.0
220
0.0
230
1.0
 70
     8
 71
     3
 72
    19
 73
    15
 74
     0
 42
0.000000001
 43
0.00000001
 40
0.0
 40
0.0
 40
0.0
 40
0.0
 40
0.0569144452555559
 40
0.125230203910722
 40
0.1877816278007931
 40
0.2502385739556398
 40
0.3750566498582011
 40
0.4992717951637053
 40
0.6226460001477792
 40
0.7494181080548028
 40
0.8104831248986916
 40
0.8727216761870523
 40
0.9359537863544106
 40
1.0
 40
1.0
 40
1.0
 40
1.0
 10
7.353409100283294
 20
12.53802506849296
 30
0.0
 10
7.349500620801117
 20
12.53665670063596
 30
0.0
 10
7.340900700687055
 20
12.53364584838241
 30
0.0
 10
7.328536950490317
 20
12.52893612480382
 30
0.0
 10
7.316194268875311
 20
12.52406219106083
 30
0.0
 10
7.300871284893803
 20
12.51753720315782
 30
0.0
 10
7.283143297239888
 20
12.50883049805166
 30
0.0
 10
7.264574947761514
 20
12.49794678386863
 30
0.0
 10
7.249250686716791
 20
12.48615316446585
 30
0.0
 10
7.239630671179753
 20
12.47588711043128
 30
0.0
 10
7.234030700717508
 20
12.46732161391961
 30
0.0
 10
7.230953211262826
 20
12.46080274776155
 30
0.0
 10
7.2288884572274
 20
12.4540704519914
 30
0.0
 10
7.228535378012226
 20
12.44945563492982
 30
0.0
 10
7.228357709213866
 20
12.44713346764629
 30
0.0
  0
SPLINE
  5
235
330
1F
100
AcDbEntity
  8
0
  6
Continuous
 62
     7
370
    25
100
AcDbSpline
210
0.0
220
0.0
230
1.0
 70
     8
 71
     3
 72
     8
 73
     4
 74
     0
 42
0.000000001
 43
0.00000001
 40
0.0
 40
0.0
 40
0.0
 40
0.0
 40
1.0
 40
1.0
 40
1.0
 40
1.0
 10
7.329938165092059
 20
7.097548400304164
 30
0.0
 10
7.331561850195465
 20
7.097865567511976
 30
0.0
 10
7.333176323407481
 20
7.098350368850841
 30
0.0
 10
7.334753515272798
 20
7.098994469238755
 30
0.0
  0
SPLINE
  5
236
330
1F
100
AcDbEntity
  8
0
  6
Continuous
 62
     7
370
    25
100
AcDbSpline
210
0.0
220
0.0
230
1.0
 70
     8
 71
     3
 72
    12
 73
     8
 74
     0
 42
0.000000001
 43
0.00000001
 40
0.0
 40
0.0
 40
0.0
 40
0.0
 40
0.2499999999999998
 40
0.2499999999999998
 40
0.4999999999999996
 40
0.4999999999999996
 40
1.0
 40
1.0
 40
1.0
 40
1.0
 10
7.353407985249732
 20
7.122672661604598
 30
0.0
 10
7.335859667696657
 20
7.128851200976857
 30
0.0
 10
7.319308549672265
 20
7.135078827804628
 30
0.0
 10
7.289091572574997
 20
7.14858566308885
 30
0.0
 10
7.275509424658094
 20
7.155834180547484
 30
0.0
 10
7.241934174577333
 20
7.178647751035934
 30
0.0
 10
7.22879546613388
 20
7.195318626794763
 30
0.0
 10
7.22835775783378
 20
7.213564149771755
 30
0.0
  0
SPLINE
  5
237
330
1F
100
AcDbEntity
  8
0
  6
Continuous
 62
     7
370
    25
100
AcDbSpline
210
0.0
220
0.0
230
1.0
 70
     8
 71
     3
 72
    13
 73
     9
 74
     0
 42
0.000000001
 43
0.00000001
 40
0.0
 40
0.0
 40
0.0
 40
0.0
 40
0.0968878697009532
 40
0.2234598517762659
 40
0.3800044706214856
 40
0.5650106483111769
 40
0.7741843791490182
 40
1.0
 40
1.0
 40
1.0
 40
1.0
 10
7.334753508651886
 20
7.098994497577074
 30
0.0
 10
7.335624485490241
 20
7.099385062194592
 30
0.0
 10
7.3376332855165
 20
7.100285851032339
 30
0.0
 10
7.340862131400805
 20
7.102358379643897
 30
0.0
 10
7.344534887896243
 20
7.105494334011332
 30
0.0
 10
7.348242412695494
 20
7.109973520508902
 30
0.0
 10
7.351569056843895
 20
7.115791472857853
 30
0.0
 10
7.352779571758777
 20
7.120321166120118
 30
0.0
 10
7.353407985249802
 20
7.122672661604574
 30
0.0
  0
LINE
  5
238
330
1F
100
AcDbEntity
  8
0
  6
Continuous
 62
     7
370
    25
100
AcDbLine
 10
7.3199662517
 20
12.3215985789
 30
0.0
 11
7.416120101
 21
12.3215985789
 31
0.0
  0
SPLINE
  5
239
330
1F
100
AcDbEntity
  8
0
  6
Continuous
 62
     7
370
    25
100
AcDbSpline
210
0.0
220
0.0
230
1.0
 70
     8
 71
     3
 72
    23
 73
    19
 74
     0
 42
0.000000001
 43
0.00000001
 40
0.0
 40
0.0
 40
0.0
 40
0.0
 40
0.0123966707807759
 40
0.0281658674369133
 40
0.047424224333179
 40
0.0701915816436775
 40
0.0964409088829327
 40
0.1261217892278748
 40
0.1775060695016125
 40
0.2514448118278962
 40
0.3221730618928674
 40
0.3760492693103858
 40
0.5009848282253714
 40
0.7503287300961128
 40
0.8745774170808646
 40
0.9369462847314182
 40
0.9741409116985609
 40
1.0
 40
1.0
 40
1.0
 40
1.0
 10
7.415317571926955
 20
12.49301525887142
 30
0.0
 10
7.415188098101907
 20
12.49348899363767
 30
0.0
 10
7.414893926976664
 20
12.49456534315622
 30
0.0
 10
7.414214750540268
 20
12.4961673564998
 30
0.0
 10
7.41331803947528
 20
12.49799393325893
 30
0.0
 10
7.412172984129483
 20
12.50000115780191
 30
0.0
 10
7.41078688002453
 20
12.50217256015153
 30
0.0
 10
7.408818853409519
 20
12.50495264836097
 30
0.0
 10
7.405847899756936
 20
12.50862915996914
 30
0.0
 10
7.401948350286708
 20
12.51283726005501
 30
0.0
 10
7.397881985455755
 20
12.51665977823185
 30
0.0
 10
7.392678435390895
 20
12.52105302077698
 30
0.0
 10
7.38356836131175
 20
12.52767574622129
 30
0.0
 10
7.372661935359301
 20
12.53354920804425
 30
0.0
 10
7.363012329162696
 20
12.53684088332186
 30
0.0
 10
7.358074652252861
 20
12.53782014574977
 30
0.0
 10
7.355323697443864
 20
12.53811263534995
 30
0.0
 10
7.353965935014052
 20
12.53805053613087
 30
0.0
 10
7.353409100283294
 20
12.53802506849296
 30
0.0
  0
SPLINE
  5
23A
330
1F
100
AcDbEntity
  8
0
  6
Continuous
 62
     7
370
    25
100
AcDbSpline
210
0.0
220
0.0
230
1.0
 70
     8
 71
     3
 72
     9
 73
     5
 74
     0
 42
0.000000001
 43
0.00000001
 40
0.0
 40
0.0
 40
0.0
 40
0.0
 40
0.4765334069764322
 40
1.0
 40
1.0
 40
1.0
 40
1.0
 10
7.416120095402809
 20
12.32159863471619
 30
0.0
 10
7.416094783114912
 20
12.34882785933037
 30
0.0
 10
7.416041665563179
 20
12.40596808122363
 30
0.0
 10
7.415566372150415
 20
12.46310565026939
 30
0.0
 10
7.415317571926949
 20
12.49301525887143
 30
0.0
  0
LINE
  5
23B
330
1F
100
AcDbEntity
  8
0
  6
Continuous
 62
     7
370
    25
100
AcDbLine
 10
7.3199662517
 20
7.3390990705
 30
0.0
 11
7.416120101
 21
7.3390990705
 31
0.0
  0
SPLINE
  5
23C
330
1F
100
AcDbEntity
  8
0
  6
Continuous
 62
     7
370
    25
100
AcDbSpline
210
0.0
220
0.0
230
1.0
 70
     8
 71
     3
 72
     8
 73
     4
 74
     0
 42
0.000000001
 43
0.00000001
 40
0.0
 40
0.0
 40
0.0
 40
0.0
 40
1.0
 40
1.0
 40
1.0
 40
1.0
 10
7.41612009540257
 20
7.339099014598514
 30
0.0
 10
7.416120082321275
 20
7.281968852045353
 30
0.0
 10
7.415891240783201
 20
7.224832760043278
 30
0.0
 10
7.415317562694798
 20
7.167682390525474
 30
0.0
  0
SPLINE
  5
23D
330
1F
100
AcDbEntity
  8
0
  6
Continuous
 62
     7
370
    25
100
AcDbSpline
210
0.0
220
0.0
230
1.0
 70
     8
 71
     3
 72
    24
 73
    20
 74
     0
 42
0.000000001
 43
0.00000001
 40
0.0
 40
0.0
 40
0.0
 40
0.0
 40
0.0312500000000014
 40
0.0312500000000014
 40
0.0625000000000029
 40
0.0625000000000029
 40
0.1250000000000011
 40
0.1250000000000011
 40
0.2500000000000043
 40
0.2500000000000043
 40
0.500000000000004
 40
0.500000000000004
 40
0.7500000000000038
 40
0.7500000000000038
 40
0.8750000000000022
 40
0.8750000000000022
 40
0.9375000000000011
 40
0.9375000000000011
 40
1.0
 40
1.0
 40
1.0
 40
1.0
 10
7.415317580356072
 20
7.167682375966222
 30
0.0
 10
7.415041102739009
 20
7.166455729155796
 30
0.0
 10
7.414561004658776
 20
7.165352178082903
 30
0.0
 10
7.413612999051383
 20
7.163293506553014
 30
0.0
 10
7.413103615907217
 20
7.162340822028919
 30
0.0
 10
7.411523118889167
 20
7.159594491671009
 30
0.0
 10
7.410391055613636
 20
7.157928544867094
 30
0.0
 10
7.406881404036337
 20
7.153189417080517
 30
0.0
 10
7.404397507907309
 20
7.150419366155404
 30
0.0
 10
7.396785233259331
 20
7.142780099811561
 30
0.0
 10
7.391544971716107
 20
7.138654908832899
 30
0.0
 10
7.380880252698714
 20
7.131574605130314
 30
0.0
 10
7.375443675519995
 20
7.128637382384014
 30
0.0
 10
7.36714610002149
 20
7.125267476775096
 30
0.0
 10
7.364371108706789
 20
7.124324390111627
 30
0.0
 10
7.360227330596789
 20
7.123301185743984
 30
0.0
 10
7.358848521168234
 20
7.12302362446342
 30
0.0
 10
7.356104250254615
 20
7.122657920603357
 30
0.0
 10
7.354733038931069
 20
7.122528414540839
 30
0.0
 10
7.3534084621171
 20
7.122672680029602
 30
0.0
  0
LINE
  5
23E
330
1F
100
AcDbEntity
  8
0
  6
Continuous
 62
     7
370
    25
100
AcDbLine
 10
7.416120101
 20
7.3390990705
 30
0.0
 11
7.416120101
 21
12.3215985789
 31
0.0
  0
SPLINE
  5
23F
330
1F
100
AcDbEntity
  8
0
  6
Continuous
 62
     7
370
    25
100
AcDbSpline
210
0.0
220
0.0
230
1.0
 70
     8
 71
     3
 72
    26
 73
    22
 74
     0
 42
0.000000001
 43
0.00000001
 40
0.0
 40
0.0
 40
0.0
 40
0.0
 40
0.0110966393019654
 40
0.0241343444183558
 40
0.0393636191672904
 40
0.0569677900194582
 40
0.0770895651578326
 40
0.0998458112784432
 40
0.1253349734675173
 40
0.1809150075701278
 40
0.2504289722674179
 40
0.3034639971272416
 40
0.3751406632587335
 40
0.4994250342388248
 40
0.623936838746924
 40
0.7492481354989388
 40
0.8744854380596007
 40
0.9072389801382086
 40
0.9372083620865991
 40
0.968364655530651
 40
1.0
 40
1.0
 40
1.0
 40
1.0
 10
7.335344071075043
 20
12.56198774968729
 30
0.0
 10
7.335866233254256
 20
12.56189779517281
 30
0.0
 10
7.337001896181783
 20
12.56170215096238
 30
0.0
 10
7.338688834349766
 20
12.56141651625589
 30
0.0
 10
7.340538155574025
 20
12.5610887954578
 30
0.0
 10
7.34254738738812
 20
12.56070719071422
 30
0.0
 10
7.344731651137489
 20
12.5602532002672
 30
0.0
 10
7.347097960149752
 20
12.55970969929701
 30
0.0
 10
7.350562983025261
 20
12.55882707717375
 30
0.0
 10
7.355359797938709
 20
12.55740183426371
 30
0.0
 10
7.360822690516852
 20
12.55540810796906
 30
0.0
 10
7.366608138055646
 20
12.55294328670575
 30
0.0
 10
7.373890259252276
 20
12.54935677578411
 30
0.0
 10
7.382997968023809
 20
12.54393864804599
 30
0.0
 10
7.393335133011579
 20
12.53625360461515
 30
0.0
 10
7.403317769459307
 20
12.52689819228909
 30
0.0
 10
7.410444740609597
 20
12.51807233804741
 30
0.0
 10
7.414635264817769
 20
12.51099031055532
 30
0.0
 10
7.416545133972088
 20
12.50716084989327
 30
0.0
 10
7.418238170565283
 20
12.50305775418288
 30
0.0
 10
7.419002925448975
 20
12.50003929917223
 30
0.0
 10
7.419388220131263
 20
12.49851855744292
 30
0.0
  0
SPLINE
  5
240
330
1F
100
AcDbEntity
  8
0
  6
Continuous
 62
     7
370
    25
100
AcDbSpline
210
0.0
220
0.0
230
1.0
 70
     8
 71
     3
 72
     8
 73
     4
 74
     0
 42
0.000000001
 43
0.00000001
 40
0.0
 40
0.0
 40
0.0
 40
0.0
 40
1.0
 40
1.0
 40
1.0
 40
1.0
 10
7.419388220131263
 20
12.49851855744291
 30
0.0
 10
7.419439245479987
 20
12.49685999153967
 30
0.0
 10
7.418013771451337
 20
12.49494978446024
 30
0.0
 10
7.415317561523947
 20
12.49301525880553
 30
0.0
  0
SPLINE
  5
241
330
1F
100
AcDbEntity
  8
0
  6
Continuous
 62
     7
370
    25
100
AcDbSpline
210
0.0
220
0.0
230
1.0
 70
     8
 71
     3
 72
    19
 73
    15
 74
     0
 42
0.000000001
 43
0.00000001
 40
0.0
 40
0.0
 40
0.0
 40
0.0
 40
0.1063190473582304
 40
0.210515244937012
 40
0.3116835589231044
 40
0.409031363934905
 40
0.5019015698444749
 40
0.589782748491947
 40
0.6723074360103495
 40
0.7492411457832736
 40
0.8204652026574104
 40
0.8859564133635827
 40
0.9457660606104102
 40
0.9999999999999999
 40
0.9999999999999999
 40
0.9999999999999999
 40
0.9999999999999999
 10
7.335344087019795
 20
12.56198774389317
 30
0.0
 10
7.336294048563802
 20
12.56155793646098
 30
0.0
 10
7.33817500397195
 20
12.56070690347006
 30
0.0
 10
7.340800330891655
 20
12.55900687215069
 30
0.0
 10
7.343198443691737
 20
12.5570768837348
 30
0.0
 10
7.345330511777591
 20
12.55495182285177
 30
0.0
 10
7.347184017957331
 20
12.55270872807718
 30
0.0
 10
7.348757817918486
 20
12.5504109421404
 30
0.0
 10
7.350063355200878
 20
12.54811735666134
 30
0.0
 10
7.351120336508369
 20
12.54587689038114
 30
0.0
 10
7.351955402545251
 20
12.5437286975387
 30
0.0
 10
7.352594255620522
 20
12.54170142572948
 30
0.0
 10
7.353076094085688
 20
12.53981687943253
 30
0.0
 10
7.3533013436676
 20
12.5386024816161
 30
0.0
 10
7.353408462117073
 20
12.53802496928495
 30
0.0
  0
SPLINE
  5
242
330
1F
100
AcDbEntity
  8
0
  6
Continuous
 62
     7
370
    25
100
AcDbSpline
210
0.0
220
0.0
230
1.0
 70
     8
 71
     3
 72
    15
 73
    11
 74
     0
 42
0.000000001
 43
0.00000001
 40
0.0
 40
0.0
 40
0.0
 40
0.0
 40
0.2010776012674857
 40
0.3817572301701073
 40
0.5408040935389291
 40
0.6775523792675895
 40
0.7917560284872267
 40
0.8834423944908424
 40
0.9527846038508716
 40
1.0
 40
1.0
 40
1.0
 40
1.0
 10
7.419388229479989
 20
7.162179090054573
 30
0.0
 10
7.419364908122344
 20
7.162515499335864
 30
0.0
 10
7.419320631202177
 20
7.16315419143593
 30
0.0
 10
7.41887688370864
 20
7.164118355587652
 30
0.0
 10
7.418276145145444
 20
7.16499372751688
 30
0.0
 10
7.417587731376022
 20
7.165766054994082
 30
0.0
 10
7.416898204245316
 20
7.166422576819079
 30
0.0
 10
7.416269326848866
 20
7.166956054725028
 30
0.0
 10
7.415753086546997
 20
7.1673633379394
 30
0.0
 10
7.415443135832994
 20
7.167590398004832
 30
0.0
 10
7.415317580356074
 20
7.167682375966222
 30
0.0
  0
SPLINE
  5
243
330
1F
100
AcDbEntity
  8
0
  6
Continuous
 62
     7
370
    25
100
AcDbSpline
210
0.0
220
0.0
230
1.0
 70
     8
 71
     3
 72
    36
 73
    32
 74
     0
 42
0.000000001
 43
0.00000001
 40
0.0
 40
0.0
 40
0.0
 40
0.0
 40
0.0078124999999988
 40
0.0078124999999988
 40
0.0156249999999975
 40
0.0156249999999975
 40
0.0312499999999973
 40
0.0312499999999973
 40
0.0624999999999961
 40
0.0624999999999961
 40
0.1249999999999948
 40
0.1249999999999948
 40
0.249999999999991
 40
0.249999999999991
 40
0.4999999999999912
 40
0.4999999999999912
 40
0.7499999999999915
 40
0.7499999999999915
 40
0.8749999999999946
 40
0.8749999999999946
 40
0.9374999999999993
 40
0.9374999999999993
 40
0.968750000000003
 40
0.968750000000003
 40
0.9843750000000039
 40
0.9843750000000039
 40
0.9921875000000039
 40
0.9921875000000039
 40
0.996093750000002
 40
0.996093750000002
 40
1.0
 40
1.0
 40
1.0
 40
1.0
 10
7.335344087019796
 20
7.098709905421385
 30
0.0
 10
7.336309390709954
 20
7.098879080628659
 30
0.0
 10
7.336857377359729
 20
7.098971148880911
 30
0.0
 10
7.337918706310764
 20
7.099152741442985
 30
0.0
 10
7.338389244157899
 20
7.099234017903245
 30
0.0
 10
7.339694285254265
 20
7.099462400075322
 30
0.0
 10
7.340429432905348
 20
7.099595458841902
 30
0.0
 10
7.342536332152969
 20
7.099991155003111
 30
0.0
 10
7.343737457184079
 20
7.100237171940099
 30
0.0
 10
7.347190172095847
 20
7.100995003364869
 30
0.0
 10
7.349208504794141
 20
7.101512173967256
 30
0.0
 10
7.35505832969717
 20
7.103179382063845
 30
0.0
 10
7.358603316393254
 20
7.104432478486009
 30
0.0
 10
7.368972695268513
 20
7.108662352815083
 30
0.0
 10
7.3753765911401
 20
7.112049687553901
 30
0.0
 10
7.387965856333436
 20
7.12023587531294
 30
0.0
 10
7.394107075813026
 20
7.124960471140641
 30
0.0
 10
7.403354986915171
 20
7.134192561265228
 30
0.0
 10
7.406419246619818
 20
7.137579095084833
 30
0.0
 10
7.411037167660061
 20
7.143873179573093
 30
0.0
 10
7.412569277636147
 20
7.146130710695702
 30
0.0
 10
7.41491962345618
 20
7.150300667644883
 30
0.0
 10
7.415706112516143
 20
7.151781329920622
 30
0.0
 10
7.416950446363093
 20
7.154564843375356
 30
0.0
 10
7.417374084890024
 20
7.155560126864971
 30
0.0
 10
7.418051630817026
 20
7.157412408607565
 30
0.0
 10
7.418284516102993
 20
7.158094181067806
 30
0.0
 10
7.418647713829913
 20
7.159251443277298
 30
0.0
 10
7.418773046648843
 20
7.159672578158513
 30
0.0
 10
7.419049735222953
 20
7.160705280053852
 30
0.0
 10
7.419181523376215
 20
7.161188991104268
 30
0.0
 10
7.419388229466414
 20
7.162179087762936
 30
0.0
  0
SPLINE
  5
244
330
1F
100
AcDbEntity
  8
0
  6
Continuous
 62
     7
370
    25
100
AcDbSpline
210
0.0
220
0.0
230
1.0
 70
     8
 71
     3
 72
    12
 73
     8
 74
     0
 42
0.000000001
 43
0.00000001
 40
0.0
 40
0.0
 40
0.0
 40
0.0
 40
0.5
 40
0.5
 40
0.75
 40
0.75
 40
1.0
 40
1.0
 40
1.0
 40
1.0
 10
7.335344071075039
 20
7.098709899627262
 30
0.0
 10
7.339921414022869
 20
7.100589550105042
 30
0.0
 10
7.344009126127614
 20
7.103845218601425
 30
0.0
 10
7.34872962961739
 20
7.110113565000133
 30
0.0
 10
7.350085943209064
 20
7.112466468477814
 30
0.0
 10
7.352188597584584
 20
7.117398939847559
 30
0.0
 10
7.352949620910327
 20
7.119977890004598
 30
0.0
 10
7.353408462443787
 20
7.122672681973904
 30
0.0
  0
SPLINE
  5
245
330
1F
100
AcDbEntity
  8
0
  6
Continuous
 62
     7
370
    25
100
AcDbSpline
210
0.0
220
0.0
230
1.0
 70
     8
 71
     3
 72
     8
 73
     4
 74
     0
 42
0.000000001
 43
0.00000001
 40
0.0
 40
0.0
 40
0.0
 40
0.0
 40
1.0
 40
1.0
 40
1.0
 40
1.0
 10
7.335344071075039
 20
12.56198774968729
 30
0.0
 10
7.335149735476953
 20
12.56190213092774
 30
0.0
 10
7.334960868647116
 20
12.56183859668952
 30
0.0
 10
7.334753515272798
 20
12.5617031800758
 30
0.0
  0
SPLINE
  5
246
330
1F
100
AcDbEntity
  8
0
  6
Continuous
 62
     7
370
    25
100
AcDbSpline
210
0.0
220
0.0
230
1.0
 70
     8
 71
     3
 72
     8
 73
     4
 74
     0
 42
0.000000001
 43
0.00000001
 40
0.0
 40
0.0
 40
0.0
 40
0.0
 40
1.0
 40
1.0
 40
1.0
 40
1.0
 10
7.335344071075039
 20
7.098709899627262
 30
0.0
 10
7.335149735476985
 20
7.098795518386813
 30
0.0
 10
7.334960868647116
 20
7.098859052625039
 30
0.0
 10
7.334753515272798
 20
7.098994469238755
 30
0.0
  0
SPLINE
  5
247
330
1F
100
AcDbEntity
  8
0
  6
Continuous
 62
     7
370
    25
100
AcDbSpline
210
0.0
220
0.0
230
1.0
 70
     8
 71
     3
 72
     9
 73
     5
 74
     0
 42
0.000000001
 43
0.00000001
 40
0.0
 40
0.0
 40
0.0
 40
0.0
 40
0.4676583383060824
 40
1.0
 40
1.0
 40
1.0
 40
1.0
 10
7.329938165092067
 20
12.56314924901039
 30
0.0
 10
7.330791190996152
 20
12.56303110557831
 30
0.0
 10
7.332615227550645
 20
12.56277847791746
 30
0.0
 10
7.334396059849743
 20
12.56226245185752
 30
0.0
 10
7.335344071075043
 20
12.56198774968729
 30
0.0
  0
SPLINE
  5
248
330
1F
100
AcDbEntity
  8
0
  6
Continuous
 62
     7
370
    25
100
AcDbSpline
210
0.0
220
0.0
230
1.0
 70
     8
 71
     3
 72
    22
 73
    18
 74
     0
 42
0.000000001
 43
0.00000001
 40
0.0
 40
0.0
 40
0.0
 40
0.0
 40
0.125
 40
0.125
 40
0.25
 40
0.25
 40
0.375
 40
0.375
 40
0.5
 40
0.5
 40
0.625
 40
0.625
 40
0.75
 40
0.75
 40
0.875
 40
0.875
 40
1.0
 40
1.0
 40
1.0
 40
1.0
 10
7.419966249248964
 20
12.55888384578618
 30
0.0
 10
7.419966249248964
 20
12.56130272888079
 30
0.0
 10
7.419497631916202
 20
12.56430796567935
 30
0.0
 10
7.417141156185742
 20
12.57167958767792
 30
0.0
 10
7.415242553475299
 20
12.57605515050589
 30
0.0
 10
7.409685264329811
 20
12.58601200412834
 30
0.0
 10
7.406015616373409
 20
12.59159527687993
 30
0.0
 10
7.397087211333053
 20
12.6032420816966
 30
0.0
 10
7.391832472949927
 20
12.60929041724987
 30
0.0
 10
7.380578962430312
 20
12.62074506669473
 30
0.0
 10
7.374600857898082
 20
12.62613034358091
 30
0.0
 10
7.363026999512437
 20
12.63535224812934
 30
0.0
 10
7.357446746362215
 20
12.63918420402053
 30
0.0
 10
7.347443625900334
 20
12.64506587802553
 30
0.0
 10
7.343019283209432
 20
12.64712627337303
 30
0.0
 10
7.335521405885238
 20
12.64978513559983
 30
0.0
 10
7.332438945207515
 20
12.65039444678525
 30
0.0
 10
7.329938165092044
 20
12.65052104134505
 30
0.0
  0
LINE
  5
249
330
1F
100
AcDbEntity
  8
0
  6
Continuous
 62
     7
370
    25
100
AcDbLine
 10
7.4199662432
 20
12.5588837311
 30
0.0
 11
7.4199662432
 21
12.4934567802
 31
0.0
  0
SPLINE
  5
24A
330
1F
100
AcDbEntity
  8
0
  6
Continuous
 62
     7
370
    25
100
AcDbSpline
210
0.0
220
0.0
230
1.0
 70
     8
 71
     3
 72
     8
 73
     4
 74
     0
 42
0.000000001
 43
0.00000001
 40
0.0
 40
0.0
 40
0.0
 40
0.0
 40
1.0
 40
1.0
 40
1.0
 40
1.0
 10
7.419388220131252
 20
12.49851855744296
 30
0.0
 10
7.419791899889179
 20
12.49659767315893
 30
0.0
 10
7.419966249248964
 20
12.4949192025046
 30
0.0
 10
7.419966249248964
 20
12.49345687474348
 30
0.0
  0
SPLINE
  5
24B
330
1F
100
AcDbEntity
  8
0
  6
Continuous
 62
     7
370
    25
100
AcDbSpline
210
0.0
220
0.0
230
1.0
 70
     8
 71
     3
 72
    22
 73
    18
 74
     0
 42
0.000000001
 43
0.00000001
 40
0.0
 40
0.0
 40
0.0
 40
0.0
 40
0.125
 40
0.125
 40
0.25
 40
0.25
 40
0.375
 40
0.375
 40
0.5
 40
0.5
 40
0.625
 40
0.625
 40
0.75
 40
0.75
 40
0.875
 40
0.875
 40
1.0
 40
1.0
 40
1.0
 40
1.0
 10
7.419966249248964
 20
7.101813803528381
 30
0.0
 10
7.419966249248964
 20
7.099394920433764
 30
0.0
 10
7.419497631916202
 20
7.096389683635204
 30
0.0
 10
7.417141156185742
 20
7.08901806163664
 30
0.0
 10
7.415242553475299
 20
7.08464249880867
 30
0.0
 10
7.409685264329811
 20
7.074685645186212
 30
0.0
 10
7.406015616373409
 20
7.069102372434631
 30
0.0
 10
7.397087211333053
 20
7.057455567617956
 30
0.0
 10
7.391832472949927
 20
7.051407232064683
 30
0.0
 10
7.380578962430312
 20
7.039952582619825
 30
0.0
 10
7.374600857898082
 20
7.034567305733648
 30
0.0
 10
7.363026999512437
 20
7.025345401185214
 30
0.0
 10
7.357446746362215
 20
7.021513445294025
 30
0.0
 10
7.347443625900334
 20
7.015631771289025
 30
0.0
 10
7.343019283209432
 20
7.013571375941528
 30
0.0
 10
7.335521405885238
 20
7.010912513714731
 30
0.0
 10
7.332438945207515
 20
7.010303202529302
 30
0.0
 10
7.329938165092044
 20
7.010176607969506
 30
0.0
  0
SPLINE
  5
24C
330
1F
100
AcDbEntity
  8
0
  6
Continuous
 62
     7
370
    25
100
AcDbSpline
210
0.0
220
0.0
230
1.0
 70
     8
 71
     3
 72
     8
 73
     4
 74
     0
 42
0.000000001
 43
0.00000001
 40
0.0
 40
0.0
 40
0.0
 40
0.0
 40
1.0
 40
1.0
 40
1.0
 40
1.0
 10
7.329938165092058
 20
7.097548400304164
 30
0.0
 10
7.331764912588257
 20
7.097740515610932
 30
0.0
 10
7.333575041241235
 20
7.098165312080193
 30
0.0
 10
7.335344071075042
 20
7.098709899627262
 30
0.0
  0
SPLINE
  5
24D
330
1F
100
AcDbEntity
  8
0
  6
Continuous
 62
     7
370
    25
100
AcDbSpline
210
0.0
220
0.0
230
1.0
 70
     8
 71
     3
 72
     8
 73
     4
 74
     0
 42
0.000000001
 43
0.00000001
 40
0.0
 40
0.0
 40
0.0
 40
0.0
 40
1.0
 40
1.0
 40
1.0
 40
1.0
 10
7.419388220131263
 20
7.162179091871645
 30
0.0
 10
7.419738420673776
 20
7.163843876193495
 30
0.0
 10
7.419966249248964
 20
7.165540480454525
 30
0.0
 10
7.419966249248964
 20
7.167240774570999
 30
0.0
  0
LINE
  5
24E
330
1F
100
AcDbEntity
  8
0
  6
Continuous
 62
     7
370
    25
100
AcDbLine
 10
7.4199662432
 20
7.1018139183
 30
0.0
 11
7.4199662432
 21
7.1672408691
 31
0.0
  0
SPLINE
  5
24F
330
1F
100
AcDbEntity
  8
0
  6
Continuous
 62
     7
370
    25
100
AcDbSpline
210
0.0
220
0.0
230
1.0
 70
     8
 71
     3
 72
     8
 73
     4
 74
     0
 42
0.000000001
 43
0.00000001
 40
0.0
 40
0.0
 40
0.0
 40
0.0
 40
1.0
 40
1.0
 40
1.0
 40
1.0
 10
7.419966249248964
 20
12.49345687474352
 30
0.0
 10
7.419966249112714
 20
12.49331212799151
 30
0.0
 10
7.418292191145609
 20
12.49316915495895
 30
0.0
 10
7.415317564538032
 20
12.49301525882457
 30
0.0
  0
SPLINE
  5
250
330
1F
100
AcDbEntity
  8
0
  6
Continuous
 62
     7
370
    25
100
AcDbSpline
210
0.0
220
0.0
230
1.0
 70
    24
 71
     3
 72
     8
 73
     4
 74
     0
 42
0.000000001
 43
0.00000001
 40
0.0
 40
0.0
 40
0.0
 40
0.0
 40
1.0
 40
1.0
 40
1.0
 40
1.0
 10
7.419966249248964
 20
12.49345687474352
 30
0.0
 10
7.419966249248964
 20
12.43617224436086
 30
0.0
 10
7.419966249248964
 20
12.37888607669807
 30
0.0
 10
7.419966249248964
 20
12.32159863471619
 30
0.0
  0
LINE
  5
251
330
1F
100
AcDbEntity
  8
0
  6
Continuous
 62
     7
370
    25
100
AcDbLine
 10
7.4199662432
 20
12.3215985789
 30
0.0
 11
7.416120101
 21
12.3215985789
 31
0.0
  0
SPLINE
  5
252
330
1F
100
AcDbEntity
  8
0
  6
Continuous
 62
     7
370
    25
100
AcDbSpline
210
0.0
220
0.0
230
1.0
 70
     8
 71
     3
 72
     8
 73
     4
 74
     0
 42
0.000000001
 43
0.00000001
 40
0.0
 40
0.0
 40
0.0
 40
0.0
 40
1.0
 40
1.0
 40
1.0
 40
1.0
 10
7.419966249248964
 20
7.167240774570999
 30
0.0
 10
7.419966249248964
 20
7.167363584110658
 30
0.0
 10
7.418340192502113
 20
7.167517976854636
 30
0.0
 10
7.415317561523947
 20
7.167682390509031
 30
0.0
  0
LINE
  5
253
330
1F
100
AcDbEntity
  8
0
  6
Continuous
 62
     7
370
    25
100
AcDbLine
 10
7.4199662432
 20
7.3390990705
 30
0.0
 11
7.416120101
 21
7.3390990705
 31
0.0
  0
SPLINE
  5
254
330
1F
100
AcDbEntity
  8
0
  6
Continuous
 62
     7
370
    25
100
AcDbSpline
210
0.0
220
0.0
230
1.0
 70
    24
 71
     3
 72
     8
 73
     4
 74
     0
 42
0.000000001
 43
0.00000001
 40
0.0
 40
0.0
 40
0.0
 40
0.0
 40
1.0
 40
1.0
 40
1.0
 40
1.0
 10
7.419966249248964
 20
7.167240774571038
 30
0.0
 10
7.419966249248964
 20
7.224525404953693
 30
0.0
 10
7.419966249248964
 20
7.281811572616487
 30
0.0
 10
7.419966249248964
 20
7.339099014598368
 30
0.0
  0
LINE
  5
255
330
1F
100
AcDbEntity
  8
0
  6
Continuous
 62
     7
370
    25
100
AcDbLine
 10
7.4199662432
 20
12.3215985789
 30
0.0
 11
7.4199662432
 21
7.3390990705
 31
0.0
  0
LINE
  5
256
330
1F
100
AcDbEntity
  8
0
  6
Continuous
 62
     7
370
    25
100
AcDbLine
 10
7.5449662692
 20
7.9290608285
 30
0.0
 11
7.5449662692
 21
8.231642693
 31
0.0
  0
LINE
  5
257
330
1F
100
AcDbEntity
  8
0
  6
Continuous
 62
     7
370
    25
100
AcDbLine
 10
7.5449662692
 20
11.7316368208
 30
0.0
 11
7.5449662692
 21
11.4290549563
 31
0.0
  0
LINE
  5
258
330
1F
100
AcDbEntity
  8
0
  6
Continuous
 62
     7
370
    25
100
AcDbLine
 10
7.3299381499
 20
12.683863114
 30
0.0
 11
6.9199662492
 21
12.7053489457
 31
0.0
  0
SPLINE
  5
259
330
1F
100
AcDbEntity
  8
0
  6
Continuous
 62
     7
370
    25
100
AcDbSpline
210
0.0
220
0.0
230
1.0
 70
    24
 71
     3
 72
     8
 73
     4
 74
     0
 42
0.000000001
 43
0.00000001
 40
0.0
 40
0.0
 40
0.0
 40
0.0
 40
1.0
 40
1.0
 40
1.0
 40
1.0
 10
7.329938165092044
 20
12.65052104134505
 30
0.0
 10
7.329938165092044
 20
12.67262198266413
 30
0.0
 10
7.329938165092044
 20
12.68386310697953
 30
0.0
 10
7.329938165092044
 20
12.68386310697953
 30
0.0
  0
LINE
  5
25A
330
1F
100
AcDbEntity
  8
0
  6
Continuous
 62
     7
370
    25
100
AcDbLine
 10
6.9199662492
 20
12.671274566
 30
0.0
 11
6.9199662492
 21
12.7053489457
 31
0.0
  0
SPLINE
  5
25B
330
1F
100
AcDbEntity
  8
0
  6
Continuous
 62
     7
370
    25
100
AcDbSpline
210
0.0
220
0.0
230
1.0
 70
    24
 71
     3
 72
     8
 73
     4
 74
     0
 42
0.000000001
 43
0.00000001
 40
0.0
 40
0.0
 40
0.0
 40
0.0
 40
1.0
 40
1.0
 40
1.0
 40
1.0
 10
7.329938165092044
 20
7.010176607969506
 30
0.0
 10
7.329938165092175
 20
6.988072785465318
 30
0.0
 10
7.329938165092073
 20
6.976834542335029
 30
0.0
 10
7.329938165092044
 20
6.976834542335029
 30
0.0
  0
LINE
  5
25C
330
1F
100
AcDbEntity
  8
0
  6
Continuous
 62
     7
370
    25
100
AcDbLine
 10
7.3299381499
 20
6.9768345354
 30
0.0
 11
6.9199662492
 21
6.9553487036
 31
0.0
  0
LINE
  5
25D
330
1F
100
AcDbEntity
  8
0
  6
Continuous
 62
     7
370
    25
100
AcDbLine
 10
6.9199662492
 20
6.9894230833
 30
0.0
 11
6.9199662492
 21
6.9553487036
 31
0.0
  0
SPLINE
  5
25E
330
1F
100
AcDbEntity
  8
0
  6
Continuous
 62
     7
370
    25
100
AcDbSpline
210
0.0
220
0.0
230
1.0
 70
     8
 71
     3
 72
    22
 73
    18
 74
     0
 42
0.000000001
 43
0.00000001
 40
0.0
 40
0.0
 40
0.0
 40
0.0
 40
0.125
 40
0.125
 40
0.25
 40
0.25
 40
0.375
 40
0.375
 40
0.5
 40
0.5
 40
0.625
 40
0.625
 40
0.75
 40
0.75
 40
0.875
 40
0.875
 40
1.0
 40
1.0
 40
1.0
 40
1.0
 10
7.419966249248964
 20
12.58899330117784
 30
0.0
 10
7.419966249248964
 20
12.59149751322889
 30
0.0
 10
7.419497631916202
 20
12.59460876330294
 30
0.0
 10
7.417141156185742
 20
12.60224042796904
 30
0.0
 10
7.415242553475299
 20
12.60677034394072
 30
0.0
 10
7.409685264329811
 20
12.61707843732788
 30
0.0
 10
7.406015616373409
 20
12.62285866661633
 30
0.0
 10
7.397087211333053
 20
12.63491632622092
 30
0.0
 10
7.391832472949927
 20
12.64117802395035
 30
0.0
 10
7.380578962430312
 20
12.65303674967556
 30
0.0
 10
7.374600857898082
 20
12.65861199856073
 30
0.0
 10
7.363026999512437
 20
12.66815921667774
 30
0.0
 10
7.357446746362215
 20
12.67212634933627
 30
0.0
 10
7.347443625900334
 20
12.67821550633458
 30
0.0
 10
7.343019283209432
 20
12.68034858456007
 30
0.0
 10
7.335521405885238
 20
12.68310124129047
 30
0.0
 10
7.332438945207515
 20
12.6837320466472
 30
0.0
 10
7.329938165092044
 20
12.68386310697953
 30
0.0
  0
SPLINE
  5
25F
330
1F
100
AcDbEntity
  8
0
  6
Continuous
 62
     7
370
    25
100
AcDbSpline
210
0.0
220
0.0
230
1.0
 70
    24
 71
     3
 72
    10
 73
     6
 74
     0
 42
0.000000001
 43
0.00000001
 40
0.0
 40
0.0
 40
0.0
 40
0.0
 40
0.5
 40
0.5
 40
1.0
 40
1.0
 40
1.0
 40
1.0
 10
7.419966249248964
 20
12.58899330117784
 30
0.0
 10
7.419966249248964
 20
12.58899144084459
 30
0.0
 10
7.419966249248964
 20
12.58646646342571
 30
0.0
 10
7.419966249248964
 20
12.57638127800235
 30
0.0
 10
7.419966249248964
 20
12.56886793635974
 30
0.0
 10
7.419966249248964
 20
12.55888384578618
 30
0.0
  0
SPLINE
  5
260
330
1F
100
AcDbEntity
  8
0
  6
Continuous
 62
     7
370
    25
100
AcDbSpline
210
0.0
220
0.0
230
1.0
 70
     8
 71
     3
 72
    22
 73
    18
 74
     0
 42
0.000000001
 43
0.00000001
 40
0.0
 40
0.0
 40
0.0
 40
0.0
 40
0.125
 40
0.125
 40
0.25
 40
0.25
 40
0.375
 40
0.375
 40
0.5
 40
0.5
 40
0.625
 40
0.625
 40
0.75
 40
0.75
 40
0.875
 40
0.875
 40
1.0
 40
1.0
 40
1.0
 40
1.0
 10
7.419966249248964
 20
7.071704348136715
 30
0.0
 10
7.419966249248964
 20
7.069200136085661
 30
0.0
 10
7.419497631916202
 20
7.066088886011619
 30
0.0
 10
7.417141156185742
 20
7.058457221345521
 30
0.0
 10
7.415242553475299
 20
7.053927305373837
 30
0.0
 10
7.409685264329811
 20
7.043619211986675
 30
0.0
 10
7.406015616373409
 20
7.037838982698227
 30
0.0
 10
7.397087211333053
 20
7.025781323093641
 30
0.0
 10
7.391832472949927
 20
7.01951962536421
 30
0.0
 10
7.380578962430312
 20
7.007660899638999
 30
0.0
 10
7.374600857898082
 20
7.002085650753827
 30
0.0
 10
7.363026999512437
 20
6.992538432636819
 30
0.0
 10
7.357446746362215
 20
6.988571299978288
 30
0.0
 10
7.347443625900334
 20
6.982482142979974
 30
0.0
 10
7.343019283209432
 20
6.980349064754484
 30
0.0
 10
7.335521405885238
 20
6.977596408024088
 30
0.0
 10
7.332438945207515
 20
6.976965602667358
 30
0.0
 10
7.329938165092044
 20
6.97683454233503
 30
0.0
  0
SPLINE
  5
261
330
1F
100
AcDbEntity
  8
0
  6
Continuous
 62
     7
370
    25
100
AcDbSpline
210
0.0
220
0.0
230
1.0
 70
    24
 71
     3
 72
     8
 73
     4
 74
     0
 42
0.000000001
 43
0.00000001
 40
0.0
 40
0.0
 40
0.0
 40
0.0
 40
1.0
 40
1.0
 40
1.0
 40
1.0
 10
7.419966249248964
 20
7.071704348136715
 30
0.0
 10
7.419966249248964
 20
7.071704348137782
 30
0.0
 10
7.419966249248964
 20
7.081853010908592
 30
0.0
 10
7.419966249248964
 20
7.101813803528381
 30
0.0
  0
LINE
  5
262
330
1F
100
AcDbEntity
  8
0
  6
Continuous
 62
     8
370
    25
100
AcDbLine
 10
7.4341811957
 20
7.8935938649
 30
0.0
 11
7.4341811957
 21
8.2671037901
 31
0.0
  0
LINE
  5
263
330
1F
100
AcDbEntity
  8
0
  6
Continuous
 62
     8
370
    25
100
AcDbLine
 10
7.4341811957
 20
11.7671037844
 30
0.0
 11
7.4341811957
 21
11.3935938593
 31
0.0
  0
LINE
  5
264
330
1F
100
AcDbEntity
  8
0
  6
Continuous
 62
     8
370
    25
100
AcDbLine
 10
7.5153517513
 20
8.2628499192
 30
0.0
 11
7.5153517513
 21
7.8978477357
 31
0.0
  0
LINE
  5
265
330
1F
100
AcDbEntity
  8
0
  6
Continuous
 62
     8
370
    25
100
AcDbLine
 10
7.5153517513
 20
11.3978477301
 30
0.0
 11
7.5153517513
 21
11.7628499136
 31
0.0
  0
DIMENSION
  5
266
330
1F
100
AcDbEntity
  8
0
  6
Continuous
 62
     7
370
    18
100
AcDbDimension
  2
_D_6
 10
7.4199662492
 20
13.7166539831
 30
0.0
 11
6.3184469527
 21
13.7166539831
 31
0.0
 70
   160
  1
<>
 71
     2
 42
-1.0
  3
SLDDIMSTYLE0
100
AcDbAlignedDimension
 13
6.9199662492
 23
12.7053488247
 33
0.0
 14
7.4199662492
 24
12.5889933012
 34
0.0
 50
0.0
100
AcDbRotatedDimension
  0
SPLINE
  5
27A
330
1F
100
AcDbEntity
  8
0
  6
Continuous
 62
     7
370
    25
100
AcDbSpline
210
0.0
220
0.0
230
1.0
 70
     8
 71
     3
 72
    11
 73
     7
 74
     0
 42
0.000000001
 43
0.00000001
 40
0.0
 40
0.0
 40
0.0
 40
0.0
 40
0.2474917569682446
 40
0.4965859896638484
 40
0.7474920764513296
 40
1.0
 40
1.0
 40
1.0
 40
1.0
 10
28.71975712393046
 20
16.70044481863476
 30
0.0
 10
28.71381894924885
 20
16.71287331717829
 30
0.0
 10
28.70190415100593
 20
16.73781078711618
 30
0.0
 10
28.67120603306336
 20
16.77347457055393
 30
0.0
 10
28.63168337331055
 20
16.8073203964338
 30
0.0
 10
28.59782315116865
 20
16.82676546409794
 30
0.0
 10
28.58083916937951
 20
16.83651893451855
 30
0.0
  0
LINE
  5
27B
330
1F
100
AcDbEntity
  8
0
  6
Continuous
 62
     7
370
    25
100
AcDbLine
 10
28.9887746112
 20
16.0290635843
 30
0.0
 11
28.7195561633
 21
16.7009484621
 31
0.0
  0
LINE
  5
27C
330
1F
100
AcDbEntity
  8
0
  6
Continuous
 62
     7
370
    25
100
AcDbLine
 10
28.5808391694
 20
16.8365189345
 30
0.0
 11
25.8756033502
 21
18.2161429217
 31
0.0
  0
SPLINE
  5
27D
330
1F
100
AcDbEntity
  8
0
  6
Continuous
 62
     7
370
    25
100
AcDbSpline
210
0.0
220
0.0
230
1.0
 70
     8
 71
     3
 72
    21
 73
    17
 74
     0
 42
0.000000001
 43
0.00000001
 40
0.0
 40
0.0
 40
0.0
 40
0.0
 40
0.0285912201703374
 40
0.0955014519592828
 40
0.1631083641632107
 40
0.2342770325628184
 40
0.3106291486034153
 40
0.391484691258012
 40
0.4742023279682621
 40
0.556397259820312
 40
0.6377627253863862
 40
0.7184936777447946
 40
0.7988879049940857
 40
0.8792446874198626
 40
0.9598017098807524
 40
1.0
 40
1.0
 40
1.0
 40
1.0
 10
26.49177096637094
 20
16.73175236578894
 30
0.0
 10
26.49022782787588
 20
16.73614525360367
 30
0.0
 10
26.48507337955315
 20
16.75081854009168
 30
0.0
 10
26.46841347074586
 20
16.77205200993749
 30
0.0
 10
26.44356546070577
 20
16.79442931347933
 30
0.0
 10
26.41255487897595
 20
16.81218821095941
 30
0.0
 10
26.37566672542326
 20
16.825593108824
 30
0.0
 10
26.33283218113926
 20
16.83415697776576
 30
0.0
 10
26.28518994616698
 20
16.83748850184443
 30
0.0
 10
26.23437519366393
 20
16.8355503892909
 30
0.0
 10
26.1819124698911
 20
16.82861605520122
 30
0.0
 10
26.12893548514982
 20
16.81701725152089
 30
0.0
 10
26.07646906659014
 20
16.80110747176141
 30
0.0
 10
26.02563378364941
 20
16.78119900634655
 30
0.0
 10
25.98534747932719
 20
16.76177103886269
 30
0.0
 10
25.96291565095881
 20
16.74878732112778
 30
0.0
 10
25.95544830956081
 20
16.74446516551257
 30
0.0
  0
SPLINE
  5
27E
330
1F
100
AcDbEntity
  8
0
  6
Continuous
 62
     7
370
    25
100
AcDbSpline
210
0.0
220
0.0
230
1.0
 70
     8
 71
     3
 72
    16
 73
    12
 74
     0
 42
0.000000001
 43
0.00000001
 40
0.0
 40
0.0
 40
0.0
 40
0.0
 40
0.0744546986401762
 40
0.2165729891233104
 40
0.3607802778286057
 40
0.5077873554110663
 40
0.6399308038250077
 40
0.7632736924448928
 40
0.879057026307161
 40
0.9907978299840061
 40
1.0
 40
1.0
 40
1.0
 40
1.0
 10
25.95544830956081
 20
16.74446516551257
 30
0.0
 10
25.94770491072853
 20
16.73968900310714
 30
0.0
 10
25.92518099938766
 20
16.72579615567677
 30
0.0
 10
25.89138171540961
 20
16.70056200105711
 30
0.0
 10
25.85654916741227
 20
16.66810547057776
 30
0.0
 10
25.82918531728469
 20
16.63423152573006
 30
0.0
 10
25.81000120861827
 20
16.60003839526133
 30
0.0
 10
25.79864568438258
 20
16.56655573376408
 30
0.0
 10
25.79575563953537
 20
16.53391388253957
 30
0.0
 10
25.79683523457301
 20
16.51112206161141
 30
0.0
 10
25.8010671799664
 20
16.50060339706993
 30
0.0
 10
25.80138917536489
 20
16.49980306500849
 30
0.0
  0
LINE
  5
27F
330
1F
100
AcDbEntity
  8
0
  6
Continuous
 62
     7
370
    25
100
AcDbLine
 10
26.5465371517
 20
16.5978942049
 30
0.0
 11
26.4932738923
 21
16.7308226162
 31
0.0
  0
LINE
  5
280
330
1F
100
AcDbEntity
  8
0
  6
Continuous
 62
     7
370
    25
100
AcDbLine
 10
25.8009880012
 20
16.5001160426
 30
0.0
 11
25.8381147043
 21
16.3618101059
 31
0.0
  0
SPLINE
  5
281
330
1F
100
AcDbEntity
  8
0
  6
Continuous
 62
     7
370
    25
100
AcDbSpline
210
0.0
220
0.0
230
1.0
 70
     8
 71
     3
 72
    26
 73
    22
 74
     0
 42
0.000000001
 43
0.00000001
 40
0.0
 40
0.0
 40
0.0
 40
0.0
 40
0.0341495060146272
 40
0.0854711731036145
 40
0.1344855030039635
 40
0.1863920917640196
 40
0.2383283043524709
 40
0.2914235767281017
 40
0.3459392142858925
 40
0.4016221494627694
 40
0.4581104745916451
 40
0.5150527008581838
 40
0.5721277565451884
 40
0.6289520537082803
 40
0.6851846302592142
 40
0.7404795268313642
 40
0.7944931742052469
 40
0.8470321066864919
 40
0.8984662928315934
 40
0.9502835221612722
 40
0.9999999999999999
 40
0.9999999999999999
 40
0.9999999999999999
 40
0.9999999999999999
 10
26.36296599941901
 20
16.67886907698614
 30
0.0
 10
26.36302341287707
 20
16.67877621179398
 30
0.0
 10
26.36316711028839
 20
16.67854378392489
 30
0.0
 10
26.3630291457052
 20
16.67403618587953
 30
0.0
 10
26.35897044823066
 20
16.66281219904038
 30
0.0
 10
26.34875467944755
 20
16.64668464428317
 30
0.0
 10
26.33148314064647
 20
16.62743821640181
 30
0.0
 10
26.3075985552012
 20
16.60690345336559
 30
0.0
 10
26.27753513030381
 20
16.58623764447303
 30
0.0
 10
26.24217481551181
 20
16.5665599920924
 30
0.0
 10
26.2027899949559
 20
16.5488987980076
 30
0.0
 10
26.16090401779326
 20
16.5341137707246
 30
0.0
 10
26.1182106991491
 20
16.52286801873784
 30
0.0
 10
26.07649027472079
 20
16.51559309835865
 30
0.0
 10
26.0375417799365
 20
16.51245004389011
 30
0.0
 10
26.0031030995365
 20
16.51327982048872
 30
0.0
 10
25.97478137551777
 20
16.51751610220416
 30
0.0
 10
25.95389311904377
 20
16.5240729931217
 30
0.0
 10
25.94123235256609
 20
16.53112725600904
 30
0.0
 10
25.93650689031403
 20
16.53607097406496
 30
0.0
 10
25.93637889800705
 20
16.53658188279978
 30
0.0
 10
25.936316225946
 20
16.53683205176829
 30
0.0
  0
LINE
  5
282
330
1F
100
AcDbEntity
  8
0
  6
Continuous
 62
     7
370
    25
100
AcDbLine
 10
22.7469984903
 20
15.9242407291
 30
0.0
 11
22.9107618766
 21
15.4775336946
 31
0.0
  0
SPLINE
  5
283
330
1F
100
AcDbEntity
  8
0
  6
Continuous
 62
     7
370
    25
100
AcDbSpline
210
0.0
220
0.0
230
1.0
 70
     8
 71
     3
 72
    15
 73
    11
 74
     0
 42
0.000000001
 43
0.00000001
 40
0.0
 40
0.0
 40
0.0
 40
0.0
 40
0.0749356000972815
 40
0.2177042647092927
 40
0.3603463500253405
 40
0.5027310069066935
 40
0.6447827904981437
 40
0.7864274621879989
 40
0.9276109166246341
 40
0.9999999999999999
 40
0.9999999999999999
 40
0.9999999999999999
 40
0.9999999999999999
 10
22.42956397611425
 20
15.59620701764039
 30
0.0
 10
22.44202261668707
 20
15.59888420366029
 30
0.0
 10
22.47821768527481
 20
15.60666201304858
 30
0.0
 10
22.53748164377095
 20
15.61631829092305
 30
0.0
 10
22.60599214802468
 20
15.62361351734321
 30
0.0
 10
22.67162551474155
 20
15.62638373462847
 30
0.0
 10
22.73361048583181
 20
15.62477616991685
 30
0.0
 10
22.79071084806412
 20
15.61862057577684
 30
0.0
 10
22.83512445204721
 20
15.61056417272274
 30
0.0
 10
22.85789220889957
 20
15.60319661360756
 30
0.0
 10
22.86560919848044
 20
15.60069942526806
 30
0.0
  0
LINE
  5
284
330
1F
100
AcDbEntity
  8
0
  6
Continuous
 62
     7
370
    25
100
AcDbLine
 10
21.6902951951
 20
15.602440108
 30
0.0
 11
21.5964634684
 21
15.9146315841
 31
0.0
  0
SPLINE
  5
285
330
1F
100
AcDbEntity
  8
0
  6
Continuous
 62
     7
370
    25
100
AcDbSpline
210
0.0
220
0.0
230
1.0
 70
     8
 71
     3
 72
    11
 73
     7
 74
     0
 42
0.000000001
 43
0.00000001
 40
0.0
 40
0.0
 40
0.0
 40
0.0
 40
0.163477930724556
 40
0.4419935953775044
 40
0.733203963283271
 40
1.0
 40
1.0
 40
1.0
 40
1.0
 10
22.32773154462352
 20
15.60195553630746
 30
0.0
 10
22.33229464812171
 20
15.59993298341976
 30
0.0
 10
22.34463186399117
 20
15.59446462803556
 30
0.0
 10
22.36833436139393
 20
15.5904469211399
 30
0.0
 10
22.39822926182327
 20
15.59037488436659
 30
0.0
 10
22.41942824279742
 20
15.59432051735248
 30
0.0
 10
22.42956397611425
 20
15.59620701764039
 30
0.0
  0
LINE
  5
286
330
1F
100
AcDbEntity
  8
0
  6
Continuous
 62
     7
370
    25
100
AcDbLine
 10
22.0392577687
 20
15.7490722269
 30
0.0
 11
22.3277315446
 21
15.6019555363
 31
0.0
  0
SPLINE
  5
287
330
1F
100
AcDbEntity
  8
0
  6
Continuous
 62
     7
370
    25
100
AcDbSpline
210
0.0
220
0.0
230
1.0
 70
     8
 71
     3
 72
    17
 73
    13
 74
     0
 42
0.000000001
 43
0.00000001
 40
0.0
 40
0.0
 40
0.0
 40
0.0
 40
0.0374121369419794
 40
0.1541030635130727
 40
0.270863879963621
 40
0.3874892889955486
 40
0.5037919713198916
 40
0.6195792003424948
 40
0.7346356770847102
 40
0.8487613234516724
 40
0.9618971491050279
 40
0.9999999999999999
 40
0.9999999999999999
 40
0.9999999999999999
 40
0.9999999999999999
 10
21.65595860146801
 20
15.71668354213323
 30
0.0
 10
21.66113209429446
 20
15.71898406434282
 30
0.0
 10
21.68244205300799
 20
15.7284600672968
 30
0.0
 10
21.72230051970616
 20
15.74186224673225
 30
0.0
 10
21.77401853276644
 20
15.75626253032944
 30
0.0
 10
21.82551476878152
 20
15.76635613177172
 30
0.0
 10
21.8752208824389
 20
15.77219935238438
 30
0.0
 10
21.92188719388027
 20
15.77364081651024
 30
0.0
 10
21.96427430735513
 20
15.77079935612687
 30
0.0
 10
22.00114347697433
 20
15.76393397100135
 30
0.0
 10
22.02514812608377
 20
15.75591851905941
 30
0.0
 10
22.03641836196284
 20
15.75044996610999
 30
0.0
 10
22.03925776870094
 20
15.74907222688085
 30
0.0
  0
LINE
  5
288
330
1F
100
AcDbEntity
  8
0
  6
Continuous
 62
     7
370
    25
100
AcDbLine
 10
25.8756033502
 20
18.2161429217
 30
0.0
 11
23.170367531
 21
19.5957669089
 31
0.0
  0
SPLINE
  5
289
330
1F
100
AcDbEntity
  8
0
  6
Continuous
 62
     7
370
    25
100
AcDbSpline
210
0.0
220
0.0
230
1.0
 70
     8
 71
     3
 72
    20
 73
    16
 74
     0
 42
0.000000001
 43
0.00000001
 40
0.0
 40
0.0
 40
0.0
 40
0.0
 40
0.1382910862893402
 40
0.2573220987792855
 40
0.3563351493397833
 40
0.4352718048864843
 40
0.4946051313346307
 40
0.5408202225029468
 40
0.5730654317797751
 40
0.6032963929949177
 40
0.6327536490032718
 40
0.6746832278923818
 40
0.755217175526705
 40
0.8635051296893571
 40
1.0
 40
1.0
 40
1.0
 40
1.0
 10
19.41161390896995
 20
16.98717050888106
 30
0.0
 10
19.38267625798312
 20
16.96108212870351
 30
0.0
 10
19.32883116004172
 20
16.91253874878534
 30
0.0
 10
19.26635118500923
 20
16.84330630802006
 30
0.0
 10
19.22157233030202
 20
16.7850610521689
 30
0.0
 10
19.19137980997951
 20
16.73821954949888
 30
0.0
 10
19.17129098513457
 20
16.70153791427806
 30
0.0
 10
19.15821124890279
 20
16.6737776942144
 30
0.0
 10
19.14916300693889
 20
16.65188786742114
 30
0.0
 10
19.14235492116856
 20
16.63333901819987
 30
0.0
 10
19.13573084710248
 20
16.61276681098873
 30
0.0
 10
19.12755080786612
 20
16.58225804073594
 30
0.0
 10
19.11967952349428
 20
16.53655039300097
 30
0.0
 10
19.11730161649584
 20
16.47354707489761
 30
0.0
 10
19.12652728339205
 20
16.42926584355092
 30
0.0
 10
19.13167166478088
 20
16.40457391125188
 30
0.0
  0
LINE
  5
28A
330
1F
100
AcDbEntity
  8
0
  6
Continuous
 62
     7
370
    25
100
AcDbLine
 10
19.1317475991
 20
16.4042936102
 30
0.0
 11
19.2600981607
 21
15.9261717669
 31
0.0
  0
SPLINE
  5
28B
330
1F
100
AcDbEntity
  8
0
  6
Continuous
 62
     7
370
    25
100
AcDbSpline
210
0.0
220
0.0
230
1.0
 70
     8
 71
     3
 72
    29
 73
    25
 74
     0
 42
0.000000001
 43
0.00000001
 40
0.0
 40
0.0
 40
0.0
 40
0.0
 40
0.0185086532671049
 40
0.0608019203177163
 40
0.1035619939583757
 40
0.1485940683453029
 40
0.1969076759908396
 40
0.2480524778137743
 40
0.3003463864504141
 40
0.3523033784918165
 40
0.4037362231510077
 40
0.4547706122910277
 40
0.5055941774368303
 40
0.5563968395868983
 40
0.6073276419171922
 40
0.6585712690404292
 40
0.7103630542474152
 40
0.762968376346806
 40
0.8165941334696176
 40
0.8648508804155469
 40
0.9099028701713819
 40
0.9521811082982378
 40
0.9929642242432026
 40
1.0
 40
1.0
 40
1.0
 40
1.0
 10
22.74189677955191
 20
18.64419068880447
 30
0.0
 10
22.74030348632243
 20
18.64868449271954
 30
0.0
 10
22.73506943246755
 20
18.66344687999995
 30
0.0
 10
22.71829113060479
 20
18.684726793972
 30
0.0
 10
22.69336255045177
 20
18.70704175767343
 30
0.0
 10
22.6622768667251
 20
18.72474411801318
 30
0.0
 10
22.62530766364236
 20
18.73808857914221
 30
0.0
 10
22.58240156426029
 20
18.74658528913371
 30
0.0
 10
22.53470738024854
 20
18.74984680243844
 30
0.0
 10
22.48386262935053
 20
18.7478413232927
 30
0.0
 10
22.43138700392616
 20
18.7408426770198
 30
0.0
 10
22.37840669583485
 20
18.72918740615197
 30
0.0
 10
22.32596708595162
 20
18.71321559284389
 30
0.0
 10
22.27511095813433
 20
18.69328443503315
 30
0.0
 10
22.22686374638642
 20
18.66976553116155
 30
0.0
 10
22.18219723906146
 20
18.64302046835252
 30
0.0
 10
22.14200363126848
 20
18.61334114463364
 30
0.0
 10
22.10714985442801
 20
18.58089788035061
 30
0.0
 10
22.07968071658107
 20
18.54705918863618
 30
0.0
 10
22.06038242888497
 20
18.51287325847514
 30
0.0
 10
22.04894272215762
 20
18.47939617100633
 30
0.0
 10
22.04584747531306
 20
18.446711360932
 30
0.0
 10
22.04714276416898
 20
18.42301143099443
 30
0.0
 10
22.05178256066744
 20
18.4116255127677
 30
0.0
 10
22.05246523160687
 20
18.40995025923133
 30
0.0
  0
LINE
  5
28C
330
1F
100
AcDbEntity
  8
0
  6
Continuous
 62
     7
370
    25
100
AcDbLine
 10
22.7967053355
 20
18.5102442799
 30
0.0
 11
22.7434420761
 21
18.6431726911
 31
0.0
  0
LINE
  5
28D
330
1F
100
AcDbEntity
  8
0
  6
Continuous
 62
     7
370
    25
100
AcDbLine
 10
22.0511561851
 20
18.4124661175
 30
0.0
 11
22.0882828881
 21
18.2741601808
 31
0.0
  0
SPLINE
  5
28E
330
1F
100
AcDbEntity
  8
0
  6
Continuous
 62
     7
370
    25
100
AcDbSpline
210
0.0
220
0.0
230
1.0
 70
     8
 71
     3
 72
    14
 73
    10
 74
     0
 42
0.000000001
 43
0.00000001
 40
0.0
 40
0.0
 40
0.0
 40
0.0
 40
0.1545507496233431
 40
0.2955073743669868
 40
0.4461461395049521
 40
0.5910803478679629
 40
0.7375849151617915
 40
0.8879753530335243
 40
1.0
 40
1.0
 40
1.0
 40
1.0
 10
22.61313105585768
 20
18.5912248906134
 30
0.0
 10
22.61326055235146
 20
18.59099584340284
 30
0.0
 10
22.6135081549607
 20
18.59055789573866
 30
0.0
 10
22.61232009814923
 20
18.58277907233405
 30
0.0
 10
22.60578168920599
 20
18.56897407238615
 30
0.0
 10
22.59221682839125
 20
18.5508586319515
 30
0.0
 10
22.57196996221127
 20
18.53091901159094
 30
0.0
 10
22.54797670063391
 20
18.5120546702157
 30
0.0
 10
22.529543062474
 20
18.50054493035593
 30
0.0
 10
22.52167376712291
 20
18.49563143788173
 30
0.0
  0
SPLINE
  5
28F
330
1F
100
AcDbEntity
  8
0
  6
Continuous
 62
     7
370
    25
100
AcDbSpline
210
0.0
220
0.0
230
1.0
 70
     8
 71
     3
 72
    20
 73
    16
 74
     0
 42
0.000000001
 43
0.00000001
 40
0.0
 40
0.0
 40
0.0
 40
0.0
 40
0.0457448368787361
 40
0.1334174018853731
 40
0.2217691664839291
 40
0.3104752734552237
 40
0.3989831334792079
 40
0.4867271173278101
 40
0.5731806271543927
 40
0.657795418264094
 40
0.7401583416199399
 40
0.820471664828874
 40
0.9006593032555128
 40
0.984190185873316
 40
1.0
 40
1.0
 40
1.0
 40
1.0
 10
22.52167376712291
 20
18.49563143788173
 30
0.0
 10
22.51559488891026
 20
18.4921224076133
 30
0.0
 10
22.497865497074
 20
18.48188812253336
 30
0.0
 10
22.46525542287618
 20
18.46637162943262
 30
0.0
 10
22.42398340159603
 20
18.45060758364258
 30
0.0
 10
22.38133611133721
 20
18.43823287811459
 30
0.0
 10
22.33913412913672
 20
18.42971938893652
 30
0.0
 10
22.2991534071341
 20
18.42532118093238
 30
0.0
 10
22.26316626739029
 20
18.42498199129886
 30
0.0
 10
22.23282608841273
 20
18.42827103792337
 30
0.0
 10
22.20956911930419
 20
18.43427559743816
 30
0.0
 10
22.19434448286741
 20
18.44142374000964
 30
0.0
 10
22.18732497550486
 20
18.44742782758008
 30
0.0
 10
22.18650918812651
 20
18.4488427308769
 30
0.0
 10
22.18644538462506
 20
18.44925927824195
 30
0.0
 10
22.18643523046336
 20
18.44932557067428
 30
0.0
  0
LINE
  5
290
330
1F
100
AcDbEntity
  8
0
  6
Continuous
 62
     7
370
    25
100
AcDbLine
 10
19.4148423116
 20
16.9898911801
 30
0.0
 11
19.411613909
 21
16.9871705089
 31
0.0
  0
SPLINE
  5
291
330
1F
100
AcDbEntity
  8
0
  6
Continuous
 62
     7
370
    25
100
AcDbSpline
210
0.0
220
0.0
230
1.0
 70
     8
 71
     3
 72
    16
 73
    12
 74
     0
 42
0.000000001
 43
0.00000001
 40
0.0
 40
0.0
 40
0.0
 40
0.0
 40
0.1495906443708945
 40
0.2731609055410894
 40
0.3752304664677988
 40
0.4712638388696044
 40
0.5445862753379666
 40
0.6222673299500538
 40
0.7244910505183904
 40
0.8526121954316347
 40
1.0
 40
1.0
 40
1.0
 40
1.0
 10
20.70959500401349
 20
18.33371704592212
 30
0.0
 10
20.69021117298354
 20
18.29674074189624
 30
0.0
 10
20.65481521049361
 20
18.22921993714438
 30
0.0
 10
20.60327646784286
 20
18.13924552739859
 30
0.0
 10
20.55753364494413
 20
18.06403358602378
 30
0.0
 10
20.51739384896361
 20
18.00245828056028
 30
0.0
 10
20.47958086854966
 20
17.94820633764852
 30
0.0
 10
20.4396013047939
 20
17.89441517849797
 30
0.0
 10
20.38919597908719
 20
17.83219552970616
 30
0.0
 10
20.32490809485576
 20
17.76072720048675
 30
0.0
 10
20.27523193960371
 20
17.71635602971371
 30
0.0
 10
20.24865690646677
 20
17.69261898066804
 30
0.0
  0
LINE
  5
292
330
1F
100
AcDbEntity
  8
0
  6
Continuous
 62
     7
370
    25
100
AcDbLine
 10
21.1902155374
 20
18.7817129642
 30
0.0
 11
20.8590250761
 21
18.5035138321
 31
0.0
  0
SPLINE
  5
293
330
1F
100
AcDbEntity
  8
0
  6
Continuous
 62
     7
370
    25
100
AcDbSpline
210
0.0
220
0.0
230
1.0
 70
     8
 71
     3
 72
    24
 73
    20
 74
     0
 42
0.000000001
 43
0.00000001
 40
0.0
 40
0.0
 40
0.0
 40
0.0
 40
0.2478149915541012
 40
0.3917846251257331
 40
0.4976795496991124
 40
0.6950272259508463
 40
0.8274011785407624
 40
0.905059487392181
 40
0.9480949745437404
 40
0.9717669281900194
 40
0.9853333962654581
 40
0.9944935838715566
 40
0.9951696529532766
 40
0.9954258647160965
 40
0.9956286060479491
 40
0.9957998995091926
 40
0.9967233512195243
 40
0.997483813214977
 40
0.9999999999999999
 40
0.9999999999999999
 40
0.9999999999999999
 40
0.9999999999999999
 10
20.85122597949752
 20
18.49715029440543
 30
0.0
 10
20.83765734951323
 20
18.48485238636739
 30
0.0
 10
20.81620594103092
 20
18.46540993351054
 30
0.0
 10
20.79109966820684
 20
18.43779764267295
 30
0.0
 10
20.76916361873939
 20
18.41331977327408
 30
0.0
 10
20.7486550886408
 20
18.38843644726063
 30
0.0
 10
20.73027602652476
 20
18.3638409958337
 30
0.0
 10
20.71943345249677
 20
18.34822937775951
 30
0.0
 10
20.71348080967263
 20
18.33917347310607
 30
0.0
 10
20.71026216483231
 20
18.33407454200053
 30
0.0
 10
20.70843763284519
 20
18.33109203453117
 30
0.0
 10
20.70756233927123
 20
18.32961461845794
 30
0.0
 10
20.7072113078401
 20
18.32900502712684
 30
0.0
 10
20.70716950470737
 20
18.32893217252577
 30
0.0
 10
20.70714530718267
 20
18.32889090840118
 30
0.0
 10
20.70709860812617
 20
18.32880796217717
 30
0.0
 10
20.70704398312394
 20
18.32871592267361
 30
0.0
 10
20.70689451361573
 20
18.32845547126646
 30
0.0
 10
20.70678233846235
 20
18.32826140485997
 30
0.0
 10
20.70669619751243
 20
18.32811237841248
 30
0.0
  0
SPLINE
  5
294
330
1F
100
AcDbEntity
  8
0
  6
Continuous
 62
     7
370
    25
100
AcDbSpline
210
0.0
220
0.0
230
1.0
 70
     8
 71
     3
 72
     9
 73
     5
 74
     0
 42
0.000000001
 43
0.00000001
 40
0.0
 40
0.0
 40
0.0
 40
0.0
 40
0.4989973329348658
 40
1.0
 40
1.0
 40
1.0
 40
1.0
 10
21.53998932291688
 20
19.02782491818186
 30
0.0
 10
21.4770386254188
 20
18.98871465831566
 30
0.0
 10
21.35088424874539
 20
18.91033696512006
 30
0.0
 10
21.24384332543457
 20
18.82464491160197
 30
0.0
 10
21.19021553737073
 20
18.78171296424312
 30
0.0
  0
LINE
  5
295
330
1F
100
AcDbEntity
  8
0
  6
Continuous
 62
     7
370
    25
100
AcDbLine
 10
22.366365867
 20
19.5210951631
 30
0.0
 11
21.5399893229
 21
19.0278249182
 31
0.0
  0
SPLINE
  5
296
330
1F
100
AcDbEntity
  8
0
  6
Continuous
 62
     7
370
    25
100
AcDbSpline
210
0.0
220
0.0
230
1.0
 70
     8
 71
     3
 72
    21
 73
    17
 74
     0
 42
0.000000001
 43
0.00000001
 40
0.0
 40
0.0
 40
0.0
 40
0.0
 40
0.0961621761472998
 40
0.1750700900317055
 40
0.2463958091502551
 40
0.2938520977699633
 40
0.3309045329436056
 40
0.3712289103575949
 40
0.4152295107101857
 40
0.4696056258283858
 40
0.5393513335485198
 40
0.6271729441420681
 40
0.7049561291323331
 40
0.792973456557592
 40
0.8912887484371607
 40
0.9999999999999999
 40
0.9999999999999999
 40
0.9999999999999999
 40
0.9999999999999999
 10
23.17036753095224
 20
19.59576690893478
 30
0.0
 10
23.14761623603171
 20
19.60653373304654
 30
0.0
 10
23.1061958833561
 20
19.62613550311998
 30
0.0
 10
23.04011185622539
 20
19.64542459438303
 30
0.0
 10
22.98533759043301
 20
19.65622643228663
 30
0.0
 10
22.9413151293154
 20
19.66138157341916
 30
0.0
 10
22.90658116739261
 20
19.66365311103288
 30
0.0
 10
22.87336383574996
 20
19.66441906556418
 30
0.0
 10
22.83566240410949
 20
19.66367883102194
 30
0.0
 10
22.79003140943038
 20
19.66063700017329
 30
0.0
 10
22.73167495468109
 20
19.65341133473077
 30
0.0
 10
22.66575218643942
 20
19.6405744178837
 30
0.0
 10
22.59458498585438
 20
19.62166338696655
 30
0.0
 10
22.52160308444648
 20
19.59685416695755
 30
0.0
 10
22.4426045881806
 20
19.56367606883414
 30
0.0
 10
22.39261551757771
 20
19.53575613697181
 30
0.0
 10
22.36636586698053
 20
19.52109516313806
 30
0.0
  0
SPLINE
  5
297
330
1F
100
AcDbEntity
  8
0
  6
Continuous
 62
     7
370
    25
100
AcDbSpline
210
0.0
220
0.0
230
1.0
 70
     8
 71
     3
 72
    15
 73
    11
 74
     0
 42
0.000000001
 43
0.00000001
 40
0.0
 40
0.0
 40
0.0
 40
0.0
 40
0.0625000000000001
 40
0.0625000000000001
 40
0.1250000000000002
 40
0.2499999999999998
 40
0.2499999999999998
 40
0.5000000000000001
 40
0.5000000000000001
 40
1.0
 40
1.0
 40
1.0
 40
1.0
 10
24.67659913330524
 20
14.26781491255917
 30
0.0
 10
24.70147524195422
 20
14.27885018908343
 30
0.0
 10
24.72651401490544
 20
14.28941583493387
 30
0.0
 10
24.77648675922552
 20
14.31084970093693
 30
0.0
 10
24.85144384978237
 20
14.34300634908218
 30
0.0
 10
24.92639541551967
 20
14.37517894775846
 30
0.0
 10
25.07629286612232
 20
14.43954054727472
 30
0.0
 10
25.17621683054545
 20
14.4824704271877
 30
0.0
 10
25.47598236836055
 20
14.61127841976254
 30
0.0
 10
25.67582371603332
 20
14.69715718424049
 30
0.0
 10
25.87566113407702
 20
14.78304729642617
 30
0.0
  0
SPLINE
  5
298
330
1F
100
AcDbEntity
  8
0
  6
Continuous
 62
     7
370
    25
100
AcDbSpline
210
0.0
220
0.0
230
1.0
 70
     8
 71
     3
 72
    12
 73
     8
 74
     0
 42
0.000000001
 43
0.00000001
 40
0.0
 40
0.0
 40
0.0
 40
0.0
 40
0.5000000000000008
 40
0.5000000000000008
 40
0.7500000000000003
 40
0.7500000000000003
 40
1.0
 40
1.0
 40
1.0
 40
1.0
 10
25.87566113407702
 20
14.78304729642617
 30
0.0
 10
26.01232864268759
 20
14.84178698472684
 30
0.0
 10
26.13648868039533
 20
14.92081801340583
 30
0.0
 10
26.30942148708614
 20
15.06095340829738
 30
0.0
 10
26.36498466732336
 20
15.11146156962876
 30
0.0
 10
26.47140463697451
 20
15.21624043788043
 30
0.0
 10
26.52263994461265
 20
15.27048513264942
 30
0.0
 10
26.57208690950797
 20
15.32641002199822
 30
0.0
  0
LWPOLYLINE
  5
299
330
1F
100
AcDbEntity
  8
0
  6
Continuous
 62
     7
370
    25
100
AcDbPolyline
 90
        3
 70
   128
 43
0.0
 10
26.5720871056
 20
15.3264100064
 10
26.9156219437
 20
15.4734447084
 10
27.1855427782
 20
15.5889718877
  0
LINE
  5
29A
330
1F
100
AcDbEntity
  8
0
  6
Continuous
 62
     7
370
    25
100
AcDbLine
 10
27.1855427782
 20
15.5889718877
 30
0.0
 11
27.427360361
 21
14.88683132
 31
0.0
  0
LINE
  5
29B
330
1F
100
AcDbEntity
  8
0
  6
Continuous
 62
     7
370
    25
100
AcDbLine
 10
24.6765990591
 20
14.2678148969
 30
0.0
 11
24.8441830189
 21
13.7812191045
 31
0.0
  0
LINE
  5
29C
330
1F
100
AcDbEntity
  8
0
  6
Continuous
 62
     7
370
    25
100
AcDbLine
 10
27.427360361
 20
14.88683132
 30
0.0
 11
24.8441830189
 21
13.7812191045
 31
0.0
  0
SPLINE
  5
29D
330
1F
100
AcDbEntity
  8
0
  6
Continuous
 62
     7
370
    25
100
AcDbSpline
210
0.0
220
0.0
230
1.0
 70
     8
 71
     3
 72
    15
 73
    11
 74
     0
 42
0.000000001
 43
0.00000001
 40
0.0
 40
0.0
 40
0.0
 40
0.0
 40
0.125
 40
0.25
 40
0.375
 40
0.5
 40
0.625
 40
0.75
 40
0.875
 40
1.0
 40
1.0
 40
1.0
 40
1.0
 10
24.81748649350801
 20
14.74562832421316
 30
0.0
 10
24.75573133036562
 20
14.72041688723981
 30
0.0
 10
24.63367824768325
 20
14.677958434182
 30
0.0
 10
24.4574984650461
 20
14.63024548877563
 30
0.0
 10
24.28713468248253
 20
14.59514328234143
 30
0.0
 10
24.12176054836181
 20
14.57132149668599
 30
0.0
 10
23.96100021863629
 20
14.55909168957005
 30
0.0
 10
23.80568702091623
 20
14.56021232466508
 30
0.0
 10
23.6589308023062
 20
14.57845215408157
 30
0.0
 10
23.57168029499787
 20
14.60633724125989
 30
0.0
 10
23.53327317610112
 20
14.62592421483653
 30
0.0
  0
LINE
  5
29E
330
1F
100
AcDbEntity
  8
0
  6
Continuous
 62
     7
370
    25
100
AcDbLine
 10
25.8780655358
 20
15.1786079296
 30
0.0
 11
24.8174866256
 21
14.7456283487
 31
0.0
  0
SPLINE
  5
29F
330
1F
100
AcDbEntity
  8
0
  6
Continuous
 62
     7
370
    25
100
AcDbSpline
210
0.0
220
0.0
230
1.0
 70
     8
 71
     3
 72
    22
 73
    18
 74
     0
 42
0.000000001
 43
0.00000001
 40
0.0
 40
0.0
 40
0.0
 40
0.0
 40
0.125
 40
0.125
 40
0.25
 40
0.25
 40
0.375
 40
0.375
 40
0.5
 40
0.5
 40
0.625
 40
0.625
 40
0.75
 40
0.75
 40
0.875
 40
0.875
 40
1.0
 40
1.0
 40
1.0
 40
1.0
 10
25.87806552835801
 20
15.17860785388771
 30
0.0
 10
25.89287026274913
 20
15.18421084209755
 30
0.0
 10
25.90335221966226
 20
15.18794108971912
 30
0.0
 10
25.91598013144221
 20
15.19154131701561
 30
0.0
 10
25.91808227647046
 20
15.1913905234789
 30
0.0
 10
25.91537278211272
 20
15.18732063957123
 30
0.0
 10
25.91069180418163
 20
15.18349592092472
 30
0.0
 10
25.89757896152061
 20
15.17221296965147
 30
0.0
 10
25.88911918566172
 20
15.16481135816676
 30
0.0
 10
25.87151766639263
 20
15.14458401971777
 30
0.0
 10
25.86247810880309
 20
15.13182997709523
 30
0.0
 10
25.84762237779177
 20
15.09714510098163
 30
0.0
 10
25.84191550945915
 20
15.07494638170561
 30
0.0
 10
25.83612961852852
 20
15.01983380358384
 30
0.0
 10
25.83602296185689
 20
14.98703149018068
 30
0.0
 10
25.8412321878299
 20
14.91438316664606
 30
0.0
 10
25.84647983764165
 20
14.87461672667093
 30
0.0
 10
25.85448910770494
 20
14.83201528286632
 30
0.0
  0
SPLINE
  5
2A0
330
1F
100
AcDbEntity
  8
0
  6
Continuous
 62
     7
370
    25
100
AcDbSpline
210
0.0
220
0.0
230
1.0
 70
     8
 71
     3
 72
    16
 73
    12
 74
     0
 42
0.000000001
 43
0.00000001
 40
0.0
 40
0.0
 40
0.0
 40
0.0
 40
0.4999999999999976
 40
0.4999999999999976
 40
0.749999999999997
 40
0.749999999999997
 40
0.8749999999999972
 40
0.9374999999999981
 40
0.9687499999999984
 40
0.9687499999999984
 40
1.0
 40
1.0
 40
1.0
 40
1.0
 10
25.85448934616321
 20
14.83201538079155
 30
0.0
 10
25.65885407413412
 20
14.74847894876824
 30
0.0
 10
25.4632174176082
 20
14.66492961974661
 30
0.0
 10
25.1697806515295
 20
14.53959314215634
 30
0.0
 10
25.07197413063071
 20
14.49781038921766
 30
0.0
 10
24.92528256343072
 20
14.4351202772947
 30
0.0
 10
24.85194122932815
 20
14.40377130653747
 30
0.0
 10
24.76638545495717
 20
14.36718929294712
 30
0.0
 10
24.72972078537735
 20
14.35150938821894
 30
0.0
 10
24.70527815088398
 20
14.34105568252648
 30
0.0
 10
24.69316936367235
 20
14.33580818632507
 30
0.0
 10
24.68076139780539
 20
14.33062071702117
 30
0.0
  0
SPLINE
  5
2A1
330
1F
100
AcDbEntity
  8
0
  6
Continuous
 62
     7
370
    25
100
AcDbSpline
210
0.0
220
0.0
230
1.0
 70
     8
 71
     3
 72
     9
 73
     5
 74
     0
 42
0.000000001
 43
0.00000001
 40
0.0
 40
0.0
 40
0.0
 40
0.0
 40
0.325009110981579
 40
1.0
 40
1.0
 40
1.0
 40
1.0
 10
24.68076139780539
 20
14.33062071702117
 30
0.0
 10
24.67779098609272
 20
14.32940709797362
 30
0.0
 10
24.66865151396008
 20
14.32567299020081
 30
0.0
 10
24.65953113793546
 20
14.32187147715631
 30
0.0
 10
24.65337496721442
 20
14.31930549048678
 30
0.0
  0
SPLINE
  5
2A2
330
1F
100
AcDbEntity
  8
0
  6
Continuous
 62
     7
370
    25
100
AcDbSpline
210
0.0
220
0.0
230
1.0
 70
     8
 71
     3
 72
    28
 73
    24
 74
     0
 42
0.000000001
 43
0.00000001
 40
0.0
 40
0.0
 40
0.0
 40
0.0
 40
0.125
 40
0.125
 40
0.2500000000000001
 40
0.2500000000000001
 40
0.3124999999999998
 40
0.3124999999999998
 40
0.3749999999999994
 40
0.3749999999999994
 40
0.4999999999999997
 40
0.4999999999999997
 40
0.5624999999999998
 40
0.5624999999999998
 40
0.625
 40
0.625
 40
0.7500000000000002
 40
0.7500000000000002
 40
0.8750000000000004
 40
0.8750000000000004
 40
0.9375000000000002
 40
0.9375000000000002
 40
1.0
 40
1.0
 40
1.0
 40
1.0
 10
24.65337496715926
 20
14.31930549046357
 30
0.0
 10
24.57490493228417
 20
14.28629034215978
 30
0.0
 10
24.49427758042517
 20
14.25643186361457
 30
0.0
 10
24.33038815719612
 20
14.20505076133213
 30
0.0
 10
24.24901248990543
 20
14.18420902407629
 30
0.0
 10
24.12779667200445
 20
14.16018170984098
 30
0.0
 10
24.0875489028079
 20
14.15339356102649
 30
0.0
 10
24.00729642412506
 20
14.14234974650204
 30
0.0
 10
23.96785675398906
 20
14.1381782842059
 30
0.0
 10
23.85247619455582
 20
14.12935552605784
 30
0.0
 10
23.77900978981184
 20
14.12837326974971
 30
0.0
 10
23.67303445347918
 20
14.13314059351095
 30
0.0
 10
23.63857663398318
 20
14.13576423913912
 30
0.0
 10
23.57212759135539
 20
14.1427466659778
 30
0.0
 10
23.53997774114724
 20
14.14711169876095
 30
0.0
 10
23.44631191462501
 20
14.16247818591098
 30
0.0
 10
23.38755692566797
 20
14.17572927002179
 30
0.0
 10
23.27586618246335
 20
14.20694185852137
 30
0.0
 10
23.22278218682789
 20
14.22499148235866
 30
0.0
 10
23.14744906319735
 20
14.25474921327046
 30
0.0
 10
23.12305807096864
 20
14.26512172147578
 30
0.0
 10
23.07562163117884
 20
14.28667266171734
 30
0.0
 10
23.05261094930547
 20
14.29788671834881
 30
0.0
 10
23.03019000091716
 20
14.30930967599206
 30
0.0
  0
SPLINE
  5
2A3
330
1F
100
AcDbEntity
  8
0
  6
Continuous
 62
     7
370
    25
100
AcDbSpline
210
0.0
220
0.0
230
1.0
 70
     8
 71
     3
 72
    12
 73
     8
 74
     0
 42
0.000000001
 43
0.00000001
 40
0.0
 40
0.0
 40
0.0
 40
0.0
 40
0.2499999999999999
 40
0.2499999999999999
 40
0.4999999999999999
 40
0.4999999999999999
 40
1.0
 40
1.0
 40
1.0
 40
1.0
 10
23.03019000092294
 20
14.30930967598912
 30
0.0
 10
22.88416971070265
 20
14.3837036561355
 30
0.0
 10
22.73835254343449
 20
14.45813059772941
 30
0.0
 10
22.44665631006424
 20
14.60694792576238
 30
0.0
 10
22.30076108993335
 20
14.68134864359829
 30
0.0
 10
21.86311897879235
 20
14.90456900996616
 30
0.0
 10
21.57139203577606
 20
15.05338358295454
 30
0.0
 10
21.27961680559797
 20
15.2021917463186
 30
0.0
  0
SPLINE
  5
2A4
330
1F
100
AcDbEntity
  8
0
  6
Continuous
 62
     7
370
    25
100
AcDbSpline
210
0.0
220
0.0
230
1.0
 70
     8
 71
     3
 72
     8
 73
     4
 74
     0
 42
0.000000001
 43
0.00000001
 40
0.0
 40
0.0
 40
0.0
 40
0.0
 40
1.0
 40
1.0
 40
1.0
 40
1.0
 10
21.27961682533454
 20
15.20219174949481
 30
0.0
 10
21.43586136508614
 20
15.39062122573288
 30
0.0
 10
21.58685969674833
 20
15.57153028327915
 30
0.0
 10
21.62934946203658
 20
15.59689273709325
 30
0.0
  0
LINE
  5
2A5
330
1F
100
AcDbEntity
  8
0
  6
Continuous
 62
     7
370
    25
100
AcDbLine
 10
23.5332731256
 20
14.6259241098
 30
0.0
 11
21.6293493393
 21
15.5968926689
 31
0.0
  0
SPLINE
  5
2A6
330
1F
100
AcDbEntity
  8
0
  6
Continuous
 62
     7
370
    25
100
AcDbSpline
210
0.0
220
0.0
230
1.0
 70
     8
 71
     3
 72
    12
 73
     8
 74
     0
 42
0.000000001
 43
0.00000001
 40
0.0
 40
0.0
 40
0.0
 40
0.0
 40
0.2499999999999998
 40
0.2499999999999998
 40
0.4999999999999996
 40
0.4999999999999996
 40
1.0
 40
1.0
 40
1.0
 40
1.0
 10
26.51875130742711
 20
15.37141850007035
 30
0.0
 10
26.47172270769845
 20
15.31549475550046
 30
0.0
 10
26.42302417879491
 20
15.26063151942037
 30
0.0
 10
26.32171153797351
 20
15.15559896490852
 30
0.0
 10
26.26878751520666
 20
15.10537607792113
 30
0.0
 10
26.1038791558101
 20
14.96668729487748
 30
0.0
 10
25.98527011092894
 20
14.88931947972303
 30
0.0
 10
25.85448934616321
 20
14.83201538079155
 30
0.0
  0
ARC
  5
2A7
330
1F
100
AcDbEntity
  8
0
  6
Continuous
 62
     7
370
    25
100
AcDbCircle
 10
24.9897645497
 20
16.6373744757
 30
0.0
 40
1.707945689409752
100
AcDbArc
 50
301.3388979929
 51
326.27112088
  0
SPLINE
  5
2A8
330
1F
100
AcDbEntity
  8
0
  6
Continuous
 62
     7
370
    25
100
AcDbSpline
210
0.0
220
0.0
230
1.0
 70
     8
 71
     3
 72
     8
 73
     4
 74
     0
 42
0.000000001
 43
0.00000001
 40
0.0
 40
0.0
 40
0.0
 40
0.0
 40
1.0
 40
1.0
 40
1.0
 40
1.0
 10
26.41021932443267
 20
15.6890142563941
 30
0.0
 10
26.47142743790758
 20
15.6577991064201
 30
0.0
 10
26.53248420742749
 20
15.62602785334416
 30
0.0
 10
26.59350259738963
 20
15.59352546472142
 30
0.0
  0
SPLINE
  5
2A9
330
1F
100
AcDbEntity
  8
0
  6
Continuous
 62
     7
370
    25
100
AcDbSpline
210
0.0
220
0.0
230
1.0
 70
     8
 71
     3
 72
    24
 73
    20
 74
     0
 42
0.000000001
 43
0.00000001
 40
0.0
 40
0.0
 40
0.0
 40
0.0
 40
0.0312500000000014
 40
0.0312500000000014
 40
0.0625000000000029
 40
0.0625000000000029
 40
0.1250000000000011
 40
0.1250000000000011
 40
0.2500000000000043
 40
0.2500000000000043
 40
0.500000000000004
 40
0.500000000000004
 40
0.7500000000000038
 40
0.7500000000000038
 40
0.8750000000000022
 40
0.8750000000000022
 40
0.9375000000000011
 40
0.9375000000000011
 40
1.0
 40
1.0
 40
1.0
 40
1.0
 10
26.59350265852539
 20
15.59352551935358
 30
0.0
 10
26.59429389385494
 20
15.59198887684009
 30
0.0
 10
26.594554519433
 20
15.58987329026619
 30
0.0
 10
26.59494150091175
 20
15.58576243296004
 30
0.0
 10
26.59498379316357
 20
15.58363672650646
 30
0.0
 10
26.59488856990855
 20
15.57715458529717
 30
0.0
 10
26.59449489263822
 20
15.57267449862726
 30
0.0
 10
26.59280757176055
 20
15.5590113813309
 30
0.0
 10
26.59097332937894
 20
15.54965202985329
 30
0.0
 10
26.58438198586314
 20
15.52139784922957
 30
0.0
 10
26.57855379236198
 20
15.50252172402605
 30
0.0
 10
26.56512535042792
 20
15.46473005945929
 30
0.0
 10
26.55749520849247
 20
15.4457935957751
 30
0.0
 10
26.54445072842092
 20
15.41737670360889
 30
0.0
 10
26.53985773154816
 20
15.40795367005378
 30
0.0
 10
26.53246317707105
 20
15.39401934380187
 30
0.0
 10
26.52991535070778
 20
15.38940526428328
 30
0.0
 10
26.52456796930185
 20
15.38027823696544
 30
0.0
 10
26.52181918367791
 20
15.37573501410715
 30
0.0
 10
26.51875061063297
 20
15.37141906197636
 30
0.0
  0
SPLINE
  5
2AA
330
1F
100
AcDbEntity
  8
0
  6
Continuous
 62
     7
370
    25
100
AcDbSpline
210
0.0
220
0.0
230
1.0
 70
     8
 71
     3
 72
    28
 73
    24
 74
     0
 42
0.000000001
 43
0.00000001
 40
0.0
 40
0.0
 40
0.0
 40
0.0
 40
0.0625000000000001
 40
0.0625000000000001
 40
0.1250000000000002
 40
0.1250000000000002
 40
0.2500000000000002
 40
0.2500000000000002
 40
0.3750000000000003
 40
0.3750000000000003
 40
0.4375000000000003
 40
0.4375000000000003
 40
0.5000000000000003
 40
0.5000000000000003
 40
0.6250000000000003
 40
0.6250000000000003
 40
0.6874999999999999
 40
0.6874999999999999
 40
0.7499999999999994
 40
0.7499999999999994
 40
0.8749999999999997
 40
0.8749999999999997
 40
1.0
 40
1.0
 40
1.0
 40
1.0
 10
23.01541665598202
 20
14.24816683263652
 30
0.0
 10
23.03816378045276
 20
14.23655392922959
 30
0.0
 10
23.06145642318559
 20
14.22541679518486
 30
0.0
 10
23.10940318956916
 20
14.20368001576911
 30
0.0
 10
23.13403536888598
 20
14.1931589192609
 30
0.0
 10
23.21013560965722
 20
14.16285208800078
 30
0.0
 10
23.26377540294387
 20
14.14433316810157
 30
0.0
 10
23.376967665265
 20
14.11217692612642
 30
0.0
 10
23.43665315796709
 20
14.09847226423152
 30
0.0
 10
23.53216897831617
 20
14.08255395379677
 30
0.0
 10
23.5650111769869
 20
14.07802788580708
 30
0.0
 10
23.63302091654164
 20
14.07079529657124
 30
0.0
 10
23.66835182227354
 20
14.06808227482566
 30
0.0
 10
23.77721071459582
 20
14.06321090920973
 30
0.0
 10
23.85298251346977
 20
14.06431755199263
 30
0.0
 10
23.97219267124771
 20
14.07384983354762
 30
0.0
 10
24.01298151904598
 20
14.07834485733523
 30
0.0
 10
24.09603423259277
 20
14.09021344040737
 30
0.0
 10
24.13770165812693
 20
14.09750074344672
 30
0.0
 10
24.26300607293279
 20
14.1233093513357
 30
0.0
 10
24.3469537153175
 20
14.14569772134114
 30
0.0
 10
24.51505921057483
 20
14.2007209040812
 30
0.0
 10
24.59721341205378
 20
14.2326520118305
 30
0.0
 10
24.67659913330645
 20
14.26781491255969
 30
0.0
  0
LINE
  5
2AB
330
1F
100
AcDbEntity
  8
0
  6
Continuous
 62
     7
370
    25
100
AcDbLine
 10
23.015416743
 20
14.2481668666
 30
0.0
 11
23.1485992106
 21
13.7640080484
 31
0.0
  0
SPLINE
  5
2AC
330
1F
100
AcDbEntity
  8
0
  6
Continuous
 62
     7
370
    25
100
AcDbSpline
210
0.0
220
0.0
230
1.0
 70
     8
 71
     3
 72
     8
 73
     4
 74
     0
 42
0.000000001
 43
0.00000001
 40
0.0
 40
0.0
 40
0.0
 40
0.0
 40
1.0
 40
1.0
 40
1.0
 40
1.0
 10
24.84418309226193
 20
13.78121905011026
 30
0.0
 10
24.33811895606534
 20
13.56462118906721
 30
0.0
 10
23.72294565281964
 20
13.47110125429187
 30
0.0
 10
23.14859926719681
 20
13.76400808500816
 30
0.0
  0
ARC
  5
2AD
330
1F
100
AcDbEntity
  8
0
  6
Continuous
 62
     7
370
    25
100
AcDbCircle
 10
23.0832544856
 20
14.2641321806
 30
0.0
 40
0.0696911082210142
100
AcDbArc
 50
139.5899599042
 51
193.2433147062
  0
ARC
  5
2AE
330
1F
100
AcDbEntity
  8
0
  6
Continuous
 62
     7
370
    25
100
AcDbCircle
 10
24.3179521624
 20
14.1370338868
 30
0.0
 40
0.3817476511353742
100
AcDbArc
 50
20.0344432754
 51
28.5200248859
  0
LWPOLYLINE
  5
2AF
330
1F
100
AcDbEntity
  8
0
  6
Continuous
 62
     7
370
    25
100
AcDbPolyline
 90
       38
 70
   128
 43
0.0
 10
20.1186300946
 20
16.9673188416
 10
20.0764629681
 20
16.9393173915
 10
20.0406252257
 20
16.909512059
 10
20.0121479864
 20
16.8787606113
 10
19.9918504377
 20
16.8479473706
 10
19.9803163716
 20
16.8179589463
 10
19.977878091
 20
16.7896582793
 10
19.9846051639
 20
16.7638593188
 10
20.0003043558
 20
16.741304023
 10
20.02452385
 20
16.722641572
 10
20.0565671659
 20
16.7084088464
 10
20.0955120565
 20
16.6990150964
 10
20.1402386125
 20
16.6947307145
 10
20.1894596939
 20
16.695678963
 10
20.2417599361
 20
16.7018326457
 10
20.2956339474
 20
16.7130142973
 10
20.3495324458
 20
16.7289026774
 10
20.4019046278
 20
16.7490406677
 10
20.4512441755
 20
16.7728488193
 10
20.4961312475
 20
16.7996422432
 10
20.5352746846
 20
16.8286502368
 10
20.5675484859
 20
16.8590380574
 10
20.5920239581
 20
16.8899316775
 10
20.6079971695
 20
16.9204423475
 10
20.6150086465
 20
16.9496922668
 10
20.6128568878
 20
16.9768400436
 10
20.6016032012
 20
17.0011046278
 10
20.5815716182
 20
17.0217878704
 10
20.5533386481
 20
17.0382950195
 10
20.5177161747
 20
17.0501509482
 10
20.4757289631
 20
17.0570147313
 10
20.4285852406
 20
17.0586886961
 10
20.3776410333
 20
17.0551249629
 10
20.3243620413
 20
17.0464259956
 10
20.2702806838
 20
17.0328419194
 10
20.2169533318
 20
17.0147636041
 10
20.1659137378
 20
16.9927112146
 10
20.1186300946
 20
16.9673188416
  0
LWPOLYLINE
  5
2B0
330
1F
100
AcDbEntity
  8
0
  6
Continuous
 62
     7
370
    25
100
AcDbPolyline
 90
       38
 70
   128
 43
0.0
 10
23.8684619108
 20
15.0549687667
 10
23.9157455539
 20
15.0803611397
 10
23.966785148
 20
15.1024135291
 10
24.0201125
 20
15.1204918445
 10
24.0741938575
 20
15.1340759206
 10
24.1274728495
 20
15.142774888
 10
24.1784170567
 20
15.1463386211
 10
24.2255607792
 20
15.1446646564
 10
24.2675479909
 20
15.1378008733
 10
24.3031704643
 20
15.1259449445
 10
24.3314034344
 20
15.1094377954
 10
24.3514350174
 20
15.0887545528
 10
24.362688704
 20
15.0644899687
 10
24.3648404626
 20
15.0373421918
 10
24.3578289857
 20
15.0080922725
 10
24.3418557743
 20
14.9775816026
 10
24.3173803021
 20
14.9466879824
 10
24.2851065007
 20
14.9163001619
 10
24.2459630637
 20
14.8872921682
 10
24.2010759917
 20
14.8604987444
 10
24.1517364439
 20
14.8366905928
 10
24.0993642619
 20
14.8165526025
 10
24.0454657635
 20
14.8006642224
 10
23.9915917522
 20
14.7894825708
 10
23.9392915101
 20
14.7833288881
 10
23.8900704287
 20
14.7823806396
 10
23.8453438727
 20
14.7866650215
 10
23.8063989821
 20
14.7960587715
 10
23.7743556661
 20
14.8102914971
 10
23.7501361719
 20
14.8289539481
 10
23.73443698
 20
14.8515092438
 10
23.7277099071
 20
14.8773082043
 10
23.7301481878
 20
14.9056088714
 10
23.7416822538
 20
14.9355972957
 10
23.7619798025
 20
14.9664105363
 10
23.7904570419
 20
14.997161984
 10
23.8262947843
 20
15.0269673165
 10
23.8684619108
 20
15.0549687667
  0
LINE
  5
2B1
330
1F
100
AcDbEntity
  8
0
  6
Continuous
 62
     7
370
    25
100
AcDbLine
 10
22.2559570874
 20
15.59232574
 30
0.0
 11
22.5444308633
 21
15.4452090494
 31
0.0
  0
LWPOLYLINE
  5
2B2
330
1F
100
AcDbEntity
  8
0
  6
Continuous
 62
     7
370
    25
100
AcDbPolyline
 90
       19
 70
   128
 43
0.0
 10
23.0593742347
 20
15.75258254
 10
23.0855086675
 20
15.7349247251
 10
23.1030259467
 20
15.713133845
 10
23.1113935776
 20
15.6878717545
 10
23.1103575524
 20
15.6599062288
 10
23.0999492945
 20
15.6300869758
 10
23.0804851393
 20
15.5993200191
 10
23.0525561238
 20
15.5685400364
 10
23.0170114365
 20
15.5386825649
 10
22.9749305292
 20
15.510654485
 10
22.9275924665
 20
15.4853077232
 10
22.8764351831
 20
15.4634121498
 10
22.8230134536
 20
15.4456332738
 10
22.7689500446
 20
15.4325110859
 10
22.7158880781
 20
15.4244444945
 10
22.6654395399
 20
15.4216785052
 10
22.6191375024
 20
15.4242972691
 10
22.5783882431
 20
15.4322208091
 10
22.5444308633
 20
15.4452090494
  0
LINE
  5
2B3
330
1F
100
AcDbEntity
  8
0
  6
Continuous
 62
     7
370
    25
100
AcDbLine
 10
22.7709004588
 20
15.8996992306
 30
0.0
 11
23.0593742347
 21
15.75258254
 31
0.0
  0
ARC
  5
2B4
330
1F
100
AcDbEntity
  8
0
  6
Continuous
 62
     7
370
    25
100
AcDbCircle
 10
22.7877927815
 20
15.9392648443
 30
0.0
 40
0.0430207898018979
100
AcDbArc
 50
143.6562074257
 51
246.8802055932
  0
LWPOLYLINE
  5
2B5
330
1F
100
AcDbEntity
  8
0
  6
Continuous
 62
     7
370
    25
100
AcDbPolyline
 90
       16
 70
   128
 43
0.0
 10
22.7531405868
 20
15.9647602118
 10
22.7733210069
 20
16.0072337523
 10
22.7843931275
 20
16.048393951
 10
22.7861897935
 20
16.087618198
 10
22.7786832968
 20
16.1243126693
 10
22.7619875946
 20
16.1579223257
 10
22.7363551375
 20
16.1879384825
 10
22.7021737026
 20
16.2139068954
 10
22.6599607795
 20
16.235434764
 10
22.610355113
 20
16.2521963395
 10
22.5541070784
 20
16.2639378326
 10
22.4920678857
 20
16.2704816256
 10
22.4251764839
 20
16.2717288097
 10
22.3544447025
 20
16.2676602923
 10
22.2809433244
 20
16.2583379468
 10
22.2057841946
 20
16.2439026078
  0
ARC
  5
2B6
330
1F
100
AcDbEntity
  8
0
  6
Continuous
 62
     7
370
    25
100
AcDbCircle
 10
22.1533047125
 20
16.4248419291
 30
0.0
 40
0.1883962154805599
100
AcDbArc
 50
249.3395870973
 51
286.1742266884
  0
LINE
  5
2B7
330
1F
100
AcDbEntity
  8
0
  6
Continuous
 62
     7
370
    25
100
AcDbLine
 10
22.0868331701
 20
16.2485618449
 30
0.0
 11
21.7983593942
 21
16.3956785355
 31
0.0
  0
LWPOLYLINE
  5
2B8
330
1F
100
AcDbEntity
  8
0
  6
Continuous
 62
     7
370
    25
100
AcDbPolyline
 90
       19
 70
   128
 43
0.0
 10
21.7983593942
 20
16.3956785355
 10
21.7644017806
 20
16.4086666362
 10
21.723652989
 20
16.4165904554
 10
21.6773507177
 20
16.4192090797
 10
21.6269021794
 20
16.4164430904
 10
21.573840213
 20
16.408376499
 10
21.5197770378
 20
16.3952544506
 10
21.4663550745
 20
16.3774754351
 10
21.4151980249
 20
16.3555800013
 10
21.3678597284
 20
16.3302330999
 10
21.3257790549
 20
16.3022051596
 10
21.2902341337
 20
16.2723475485
 10
21.2623053521
 20
16.2415677053
 10
21.2428409631
 20
16.2108006091
 10
21.2324327052
 20
16.1809813561
 10
21.23139668
 20
16.1530158304
 10
21.2397645447
 20
16.1277538795
 10
21.2572813562
 20
16.1059627202
 10
21.2834160229
 20
16.0883050449
  0
LINE
  5
2B9
330
1F
100
AcDbEntity
  8
0
  6
Continuous
 62
     7
370
    25
100
AcDbLine
 10
21.5718897988
 20
15.9411883543
 30
0.0
 11
21.2834160229
 21
16.0883050449
 31
0.0
  0
ARC
  5
2BA
330
1F
100
AcDbEntity
  8
0
  6
Continuous
 62
     7
370
    25
100
AcDbCircle
 10
21.5549977732
 20
15.9016228217
 30
0.0
 40
0.0430205985517595
100
AcDbArc
 50
323.6558859208
 51
66.8805270981
  0
LWPOLYLINE
  5
2BB
330
1F
100
AcDbEntity
  8
0
  6
Continuous
 62
     7
370
    25
100
AcDbPolyline
 90
       16
 70
   128
 43
0.0
 10
21.5896496707
 20
15.8761273731
 10
21.5694694845
 20
15.8336539722
 10
21.55839713
 20
15.7924936339
 10
21.5566004641
 20
15.7532693869
 10
21.5641069608
 20
15.7165749156
 10
21.580802663
 20
15.6829652592
 10
21.60643512
 20
15.6529491024
 10
21.6406163211
 20
15.6269805499
 10
21.6828292443
 20
15.6054526813
 10
21.7324351446
 20
15.5886912454
 10
21.7886831792
 20
15.5769497523
 10
21.8507223719
 20
15.5704059593
 10
21.9176137736
 20
15.5691587752
 10
21.9883455551
 20
15.5732272926
 10
22.061847167
 20
15.5825497776
 10
22.137006063
 20
15.5969849771
  0
ARC
  5
2BC
330
1F
100
AcDbEntity
  8
0
  6
Continuous
 62
     7
370
    25
100
AcDbCircle
 10
22.1894856045
 20
15.4160471725
 30
0.0
 40
0.1883947754196448
100
AcDbArc
 50
69.3394412602
 51
106.1743725255
  0
SPLINE
  5
2BD
330
1F
100
AcDbEntity
  8
0
  6
Continuous
 62
     7
370
    25
100
AcDbSpline
210
0.0
220
0.0
230
1.0
 70
     8
 71
     3
 72
    73
 73
    69
 74
     0
 42
0.000000001
 43
0.00000001
 40
0.0
 40
0.0
 40
0.0
 40
0.0
 40
0.0312499999999747
 40
0.0468749999999617
 40
0.0546874999999559
 40
0.058593749999953
 40
0.058593749999953
 40
0.0624999999999501
 40
0.0624999999999501
 40
0.0937499999999318
 40
0.1093749999999234
 40
0.1171874999999199
 40
0.1210937499999189
 40
0.1210937499999189
 40
0.1249999999999178
 40
0.1249999999999178
 40
0.187499999999915
 40
0.2187499999999135
 40
0.2343749999999124
 40
0.2421874999999118
 40
0.246093749999912
 40
0.246093749999912
 40
0.2499999999999121
 40
0.2499999999999121
 40
0.3124999999999055
 40
0.3437499999999026
 40
0.3437499999999026
 40
0.3749999999998999
 40
0.3749999999998999
 40
0.4374999999998925
 40
0.4687499999998897
 40
0.4843749999998887
 40
0.4921874999998894
 40
0.4921874999998894
 40
0.4999999999998901
 40
0.4999999999998901
 40
0.5624999999998996
 40
0.5937499999999044
 40
0.6093749999999067
 40
0.617187499999908
 40
0.6210937499999083
 40
0.6210937499999083
 40
0.6249999999999087
 40
0.6249999999999087
 40
0.6874999999999225
 40
0.71874999999993
 40
0.7343749999999332
 40
0.7421874999999353
 40
0.7460937499999367
 40
0.7460937499999367
 40
0.7499999999999383
 40
0.7499999999999383
 40
0.8124999999999506
 40
0.8437499999999571
 40
0.8593749999999604
 40
0.867187499999962
 40
0.871093749999963
 40
0.871093749999963
 40
0.8749999999999641
 40
0.8749999999999641
 40
0.9062499999999738
 40
0.9218749999999781
 40
0.9296874999999798
 40
0.9335937499999811
 40
0.9335937499999811
 40
0.9374999999999826
 40
0.9374999999999826
 40
1.0
 40
1.0
 40
1.0
 40
1.0
 10
19.840865063784
 20
17.28362011440651
 30
0.0
 10
19.83104866229764
 20
17.27494988500555
 30
0.0
 10
19.81668585027876
 20
17.26177599252468
 30
0.0
 10
19.80056212314773
 20
17.24611153194241
 30
0.0
 10
19.79265848130498
 20
17.23820557181262
 30
0.0
 10
19.78930511088439
 20
17.23480150393444
 30
0.0
 10
19.78707706497175
 20
17.23252861440428
 30
0.0
 10
19.78588060230106
 20
17.23130159983395
 30
0.0
 10
19.77669806708793
 20
17.22184132744203
 30
0.0
 10
19.76468753232078
 20
17.20900906465699
 30
0.0
 10
19.75108272141386
 20
17.19365560044843
 30
0.0
 10
19.74438218587411
 20
17.18588324560432
 30
0.0
 10
19.74153235705286
 20
17.18253174579831
 30
0.0
 10
19.7396373221203
 20
17.1802928591305
 30
0.0
 10
19.73861479797795
 20
17.17907881215247
 30
0.0
 10
19.72390581372516
 20
17.16154042409919
 30
0.0
 10
19.70435122614096
 20
17.13656103325759
 30
0.0
 10
19.68365685580183
 20
17.10703461182672
 30
0.0
 10
19.6738394994262
 20
17.0921754514157
 30
0.0
 10
19.66906327843688
 20
17.08472188378629
 30
0.0
 10
19.66704471026969
 20
17.08152235749714
 30
0.0
 10
19.66570530564388
 20
17.07938819771276
 30
0.0
 10
19.66500176050909
 20
17.07826097349566
 30
0.0
 10
19.65435299004562
 20
17.06111394126559
 30
0.0
 10
19.64053171203927
 20
17.03694074168855
 30
0.0
 10
19.62852885447539
 20
17.01281910511552
 30
0.0
 10
19.62093104286448
 20
16.99674947251217
 30
0.0
 10
19.6172961451514
 20
16.98863048429734
 30
0.0
 10
19.60722582390037
 20
16.96483011413579
 30
0.0
 10
19.59844602630841
 20
16.94132215542748
 30
0.0
 10
19.59046134552109
 20
16.91440792364427
 30
0.0
 10
19.58703360922827
 20
16.90107873776345
 30
0.0
 10
19.58568556598154
 20
16.89539364310255
 30
0.0
 10
19.58481375639327
 20
16.89160967190056
 30
0.0
 10
19.58440377717053
 20
16.88977828677809
 30
0.0
 10
19.5806102636599
 20
16.87228725278371
 30
0.0
 10
19.57696195628704
 20
16.84946602075409
 30
0.0
 10
19.57517259130771
 20
16.8237165066546
 30
0.0
 10
19.57489465722362
 20
16.81106056375528
 30
0.0
 10
19.57490987728297
 20
16.80478729584323
 30
0.0
 10
19.57494944025871
 20
16.80211047463898
 30
0.0
 10
19.57498315781879
 20
16.80032853209984
 30
0.0
 10
19.57500204163897
 20
16.79949928732069
 30
0.0
 10
19.57544144241153
 20
16.78336985112523
 30
0.0
 10
19.5776660914795
 20
16.76135876382902
 30
0.0
 10
19.58306907288181
 20
16.7370089545215
 30
0.0
 10
19.58647245295537
 20
16.72516649800225
 30
0.0
 10
19.58834961533526
 20
16.71932838177626
 30
0.0
 10
19.58919171471445
 20
16.71684414168661
 30
0.0
 10
19.58976147012645
 20
16.71519193934274
 30
0.0
 10
19.59001996686256
 20
16.71445349544814
 30
0.0
 10
19.59552443791185
 20
16.69902052356546
 30
0.0
 10
19.60520167547262
 20
16.67831013387392
 30
0.0
 10
19.61982767027563
 20
16.65603334937586
 30
0.0
 10
19.62797463875599
 20
16.64536629132901
 30
0.0
 10
19.63225661576589
 20
16.64015059585614
 30
0.0
 10
19.63413642579222
 20
16.63794054784288
 30
0.0
 10
19.63539956070356
 20
16.63647279362216
 30
0.0
 10
19.63597144953583
 20
16.63581510854733
 30
0.0
 10
19.64232669531374
 20
16.62860023637397
 30
0.0
 10
19.65132819457584
 20
16.61935527861726
 30
0.0
 10
19.66275366060849
 20
16.60922552023136
 30
0.0
 10
19.6686973228482
 20
16.6043246474543
 30
0.0
 10
19.6712940914988
 20
16.60225941763897
 30
0.0
 10
19.67303626722889
 20
16.60089040759141
 30
0.0
 10
19.6738476813624
 20
16.60025980451869
 30
0.0
 10
19.6899510425609
 20
16.58790603659434
 30
0.0
 10
19.70682793810142
 20
16.57734872771958
 30
0.0
 10
19.72542574797203
 20
16.56786125934997
 30
0.0
  0
LINE
  5
2BE
330
1F
100
AcDbEntity
  8
0
  6
Continuous
 62
     7
370
    25
100
AcDbLine
 10
20.5399126184
 20
17.9009745934
 30
0.0
 11
19.8408650886
 21
17.2836201936
 31
0.0
  0
LINE
  5
2BF
330
1F
100
AcDbEntity
  8
0
  6
Continuous
 62
     7
370
    25
100
AcDbLine
 10
25.8780655358
 20
15.1786079296
 30
0.0
 11
20.5399126184
 21
17.9009745934
 31
0.0
  0
LINE
  5
2C0
330
1F
100
AcDbEntity
  8
0
  6
Continuous
 62
     7
370
    25
100
AcDbLine
 10
19.7254255531
 20
16.5678612279
 30
0.0
 11
21.6293493393
 21
15.5968926689
 31
0.0
  0
ARC
  5
2C1
330
1F
100
AcDbEntity
  8
0
  6
Continuous
 62
     7
370
    25
100
AcDbCircle
 10
25.52428437
 20
14.660187309
 30
0.0
 40
0.3722368917292413
100
AcDbArc
 50
19.2723398833
 51
27.4910216333
  0
SPLINE
  5
2C2
330
1F
100
AcDbEntity
  8
0
  6
Continuous
 62
     7
370
    25
100
AcDbSpline
210
0.0
220
0.0
230
1.0
 70
     8
 71
     3
 72
     8
 73
     4
 74
     0
 42
0.000000001
 43
0.00000001
 40
0.0
 40
0.0
 40
0.0
 40
0.0
 40
1.0
 40
1.0
 40
1.0
 40
1.0
 10
26.57208690950797
 20
15.32641002199822
 30
0.0
 10
26.56947940069696
 20
15.32848471562627
 30
0.0
 10
26.56676936271167
 20
15.33067853915741
 30
0.0
 10
26.56400287995487
 20
15.33295284521673
 30
0.0
  0
SPLINE
  5
2C3
330
1F
100
AcDbEntity
  8
0
  6
Continuous
 62
     7
370
    25
100
AcDbSpline
210
0.0
220
0.0
230
1.0
 70
     8
 71
     3
 72
    13
 73
     9
 74
     0
 42
0.000000001
 43
0.00000001
 40
0.0
 40
0.0
 40
0.0
 40
0.0
 40
0.0968878697009532
 40
0.2234598517762659
 40
0.3800044706214856
 40
0.5650106483111769
 40
0.7741843791490182
 40
1.0
 40
1.0
 40
1.0
 40
1.0
 10
26.56400286985982
 20
15.3329528595244
 30
0.0
 10
26.56243728980837
 20
15.33422757378798
 30
0.0
 10
26.55882647364202
 20
15.33716754409878
 30
0.0
 10
26.55252283603614
 20
15.34233554575401
 30
0.0
 10
26.54477309356576
 20
15.34879138290688
 30
0.0
 10
26.53596256845936
 20
15.35627667107645
 30
0.0
 10
26.52670055860679
 20
15.36431655548282
 30
0.0
 10
26.52146778984645
 20
15.3689915661143
 30
0.0
 10
26.51875130742729
 20
15.37141850007058
 30
0.0
  0
SPLINE
  5
2C4
330
1F
100
AcDbEntity
  8
0
  6
Continuous
 62
     7
370
    25
100
AcDbSpline
210
0.0
220
0.0
230
1.0
 70
     8
 71
     3
 72
    22
 73
    18
 74
     0
 42
0.000000001
 43
0.00000001
 40
0.0
 40
0.0
 40
0.0
 40
0.0
 40
0.125
 40
0.125
 40
0.25
 40
0.25
 40
0.375
 40
0.375
 40
0.5
 40
0.5
 40
0.625
 40
0.625
 40
0.75
 40
0.75
 40
0.875
 40
0.875
 40
1.0
 40
1.0
 40
1.0
 40
1.0
 10
27.07634350059891
 20
15.81294238979938
 30
0.0
 10
27.07790174985976
 20
15.81100396520176
 30
0.0
 10
27.08009885651664
 20
15.80781208357512
 30
0.0
 10
27.08616076664225
 20
15.79796443753642
 30
0.0
 10
27.09003746940002
 20
15.79128335298893
 30
0.0
 10
27.09954837700242
 20
15.77401193150774
 30
0.0
 10
27.10518996670568
 20
15.76340167765397
 30
0.0
 10
27.11766802785235
 20
15.73913917233577
 30
0.0
 10
27.12449247033609
 20
15.72550581855083
 30
0.0
 10
27.1381423608919
 20
15.69750951860284
 30
0.0
 10
27.14494274029444
 20
15.68319798896862
 30
0.0
 10
27.15733279931556
 20
15.65645529768736
 30
0.0
 10
27.16291083192815
 20
15.64405379841584
 30
0.0
 10
27.17227384706957
 20
15.62261428663561
 30
0.0
 10
27.17606653001756
 20
15.61356525072848
 30
0.0
 10
27.18195740924243
 20
15.59889739794301
 30
0.0
 10
27.18406756529382
 20
15.59325496560628
 30
0.0
 10
27.18554262504536
 20
15.58897199021546
 30
0.0
  0
SPLINE
  5
2C5
330
1F
100
AcDbEntity
  8
0
  6
Continuous
 62
     7
370
    25
100
AcDbSpline
210
0.0
220
0.0
230
1.0
 70
     8
 71
     3
 72
     8
 73
     4
 74
     0
 42
0.000000001
 43
0.00000001
 40
0.0
 40
0.0
 40
0.0
 40
0.0
 40
1.0
 40
1.0
 40
1.0
 40
1.0
 10
26.57208690950798
 20
15.32641002199822
 30
0.0
 10
26.57030981612303
 20
15.3292391773209
 30
0.0
 10
26.56839347109486
 20
15.33222783321508
 30
0.0
 10
26.56643482463083
 20
15.33525090847182
 30
0.0
  0
SPLINE
  5
2C6
330
1F
100
AcDbEntity
  8
0
  6
Continuous
 62
     7
370
    25
100
AcDbSpline
210
0.0
220
0.0
230
1.0
 70
     8
 71
     3
 72
    36
 73
    32
 74
     0
 42
0.000000001
 43
0.00000001
 40
0.0
 40
0.0
 40
0.0
 40
0.0
 40
0.0078124999999988
 40
0.0078124999999988
 40
0.0156249999999975
 40
0.0156249999999975
 40
0.0312499999999973
 40
0.0312499999999973
 40
0.0624999999999961
 40
0.0624999999999961
 40
0.1249999999999948
 40
0.1249999999999948
 40
0.249999999999991
 40
0.249999999999991
 40
0.4999999999999912
 40
0.4999999999999912
 40
0.7499999999999915
 40
0.7499999999999915
 40
0.8749999999999946
 40
0.8749999999999946
 40
0.9374999999999993
 40
0.9374999999999993
 40
0.968750000000003
 40
0.968750000000003
 40
0.9843750000000039
 40
0.9843750000000039
 40
0.9921875000000039
 40
0.9921875000000039
 40
0.996093750000002
 40
0.996093750000002
 40
1.0
 40
1.0
 40
1.0
 40
1.0
 10
26.56643479609343
 20
15.33525093027338
 30
0.0
 10
26.56626433280518
 20
15.33728495146153
 30
0.0
 10
26.56637264294211
 20
15.33855733674072
 30
0.0
 10
26.56660651568748
 20
15.34103993694164
 30
0.0
 10
26.56676121796611
 20
15.34217195420873
 30
0.0
 10
26.56729021235098
 20
15.3453747729341
 30
0.0
 10
26.56772443195081
 20
15.34726550882928
 30
0.0
 10
26.56907286447326
 20
15.35276336124805
 30
0.0
 10
26.57007995014197
 20
15.35606414843613
 30
0.0
 10
26.57312295298847
 20
15.36570091921093
 30
0.0
 10
26.57523710485369
 20
15.37162234215682
 30
0.0
 10
26.58149284994582
 20
15.38906074589436
 30
0.0
 10
26.58560243288472
 20
15.40010647877055
 30
0.0
 10
26.59737649443858
 20
15.43293823622725
 30
0.0
 10
26.60446818886826
 20
15.45402627121057
 30
0.0
 10
26.61670582267854
 20
15.49627674533799
 30
0.0
 10
26.62194947809511
 20
15.51732094293872
 30
0.0
 10
26.62703802334176
 20
15.54984598792568
 30
0.0
 10
26.62829195582218
 20
15.56075349209371
 30
0.0
 10
26.62854356752384
 20
15.5776253990601
 30
0.0
 10
26.62838942432295
 20
15.58328202262241
 30
0.0
 10
26.6272062121974
 20
15.59223265408435
 30
0.0
 10
26.62668925237303
 20
15.59525667213159
 30
0.0
 10
26.62532362303198
 20
15.60023700788359
 30
0.0
 10
26.62479356212607
 20
15.60195018730424
 30
0.0
 10
26.62365359539443
 20
15.60482463310982
 30
0.0
 10
26.62321225044834
 20
15.60583657125145
 30
0.0
 10
26.62242193987231
 20
15.60746533055837
 30
0.0
 10
26.62212723310726
 20
15.60804009710375
 30
0.0
 10
26.6213830556614
 20
15.60937525231804
 30
0.0
 10
26.62102869288812
 20
15.61000155989978
 30
0.0
 10
26.620289380388
 20
15.61114879937776
 30
0.0
  0
SPLINE
  5
2C7
330
1F
100
AcDbEntity
  8
0
  6
Continuous
 62
     7
370
    25
100
AcDbSpline
210
0.0
220
0.0
230
1.0
 70
     8
 71
     3
 72
     8
 73
     4
 74
     0
 42
0.000000001
 43
0.00000001
 40
0.0
 40
0.0
 40
0.0
 40
0.0
 40
1.0
 40
1.0
 40
1.0
 40
1.0
 10
26.62028936874016
 20
15.6111487785834
 30
0.0
 10
26.61910743429173
 20
15.61311959003282
 30
0.0
 10
26.61797482794735
 20
15.61491226165469
 30
0.0
 10
26.61696698715645
 20
15.61632705397842
 30
0.0
  0
LWPOLYLINE
  5
2C8
330
1F
100
AcDbEntity
  8
0
  6
Continuous
 62
     7
370
    25
100
AcDbPolyline
 90
        3
 70
   128
 43
0.0
 10
27.076343416
 20
15.8129424633
 10
26.8190927452
 20
15.7028378142
 10
26.6169669043
 20
15.6163271045
  0
SPLINE
  5
2C9
330
1F
100
AcDbEntity
  8
0
  6
Continuous
 62
     7
370
    25
100
AcDbSpline
210
0.0
220
0.0
230
1.0
 70
     8
 71
     3
 72
    15
 73
    11
 74
     0
 42
0.000000001
 43
0.00000001
 40
0.0
 40
0.0
 40
0.0
 40
0.0
 40
0.2010776012674857
 40
0.3817572301701073
 40
0.5408040935389291
 40
0.6775523792675895
 40
0.7917560284872267
 40
0.8834423944908424
 40
0.9527846038508716
 40
1.0
 40
1.0
 40
1.0
 40
1.0
 10
26.62028936470161
 20
15.61114879275931
 30
0.0
 10
26.61828878427587
 20
15.61030682716806
 30
0.0
 10
26.61449056887422
 20
15.60870830774082
 30
0.0
 10
26.60933867024141
 20
15.60588692257583
 30
0.0
 10
26.60498068370718
 20
15.60311941020035
 30
0.0
 10
26.60139933759886
 20
15.60051751700142
 30
0.0
 10
26.59853771506245
 20
15.59820566614515
 30
0.0
 10
26.59633512199096
 20
15.59626286165596
 30
0.0
 10
26.59472433272877
 20
15.59474945874742
 30
0.0
 10
26.59385486451108
 20
15.5938783783887
 30
0.0
 10
26.59350265852539
 20
15.59352551935358
 30
0.0
  0
SPLINE
  5
2CA
330
1F
100
AcDbEntity
  8
0
  6
Continuous
 62
     7
370
    25
100
AcDbSpline
210
0.0
220
0.0
230
1.0
 70
     8
 71
     3
 72
    12
 73
     8
 74
     0
 42
0.000000001
 43
0.00000001
 40
0.0
 40
0.0
 40
0.0
 40
0.0
 40
0.5
 40
0.5
 40
0.75
 40
0.75
 40
1.0
 40
1.0
 40
1.0
 40
1.0
 10
26.56643482463083
 20
15.33525090847182
 30
0.0
 10
26.55806311256164
 20
15.34165906275457
 30
0.0
 10
26.54919087798128
 20
15.34841870782815
 30
0.0
 10
26.53672450232036
 20
15.35787427898118
 30
0.0
 10
26.5326541105037
 20
15.36095394754212
 30
0.0
 10
26.52520656572057
 20
15.36657307133442
 30
0.0
 10
26.52180844310581
 20
15.36912871118846
 30
0.0
 10
26.51875060841019
 20
15.37141906361023
 30
0.0
  0
LWPOLYLINE
  5
2CB
330
1F
100
AcDbEntity
  8
0
  6
Continuous
 62
     7
370
    25
100
AcDbPolyline
 90
       30
 70
   128
 43
0.0
 10
23.1223052316
 20
18.8830284307
 10
23.159265569
 20
18.9023039683
 10
23.1995324433
 20
18.9181105819
 10
23.2412230643
 20
18.9297091533
 10
23.2823877972
 20
18.9365573836
 10
23.321101995
 20
18.9383350395
 10
23.3555553399
 20
18.9349590183
 10
23.3841369422
 20
18.926587182
 10
23.4055103051
 20
18.9136109257
 10
23.4186759598
 20
18.8966370816
 10
23.4230182668
 20
18.8764593271
 10
23.4183344319
 20
18.854021065
 10
23.4048432187
 20
18.8303715756
 10
23.3831754622
 20
18.8066166978
 10
23.3543445411
 20
18.7838671136
 10
23.3196983583
 20
18.763186552
 10
23.2808570005
 20
18.7455420545
 10
23.2396367468
 20
18.7317586158
 10
23.1979648088
 20
18.722480814
 10
23.1577897471
 20
18.7181424704
 10
23.1209903473
 20
18.7189463472
 10
23.0892870184
 20
18.7248549171
 10
23.0641622324
 20
18.7355919212
 10
23.0467908824
 20
18.7506552397
 10
23.0379852971
 20
18.7693405976
 10
23.0381570402
 20
18.7907742461
 10
23.0472981793
 20
18.8139539613
 10
23.0649812401
 20
18.8377959777
 10
23.0903794673
 20
18.8611853469
 10
23.1223052316
 20
18.8830284307
  0
LWPOLYLINE
  5
2CC
330
1F
100
AcDbEntity
  8
0
  6
Continuous
 62
     7
370
    25
100
AcDbPolyline
 90
       30
 70
   128
 43
0.0
 10
27.0874844731
 20
16.860854853
 10
27.1194102374
 20
16.8826979368
 10
27.1448084646
 20
16.9060873059
 10
27.1624915253
 20
16.9299293223
 10
27.1716326645
 20
16.9531090376
 10
27.1718044076
 20
16.9745426861
 10
27.1629987638
 20
16.993228009
 10
27.1456274723
 20
17.0082913624
 10
27.1205026863
 20
17.0190283666
 10
27.0887993574
 20
17.0249369365
 10
27.0519998992
 20
17.0257407784
 10
27.0118248375
 20
17.0214024348
 10
26.9701528994
 20
17.012124633
 10
26.9289326457
 20
16.9983411942
 10
26.8900913464
 20
16.9806967317
 10
26.8554451636
 20
16.9600161701
 10
26.8266141841
 20
16.937266551
 10
26.8049464275
 20
16.9135116732
 10
26.7914552143
 20
16.8898621838
 10
26.7867713794
 20
16.8674239217
 10
26.7911137449
 20
16.8472462021
 10
26.8042793996
 20
16.8302723579
 10
26.8256527625
 20
16.8172961017
 10
26.8542343063
 20
16.8089242305
 10
26.8886877097
 20
16.8055482441
 10
26.9274019075
 20
16.8073259001
 10
26.9685666404
 20
16.8141741304
 10
27.0102572614
 20
16.8257727018
 10
27.0505241357
 20
16.8415793153
 10
27.0874844731
 20
16.860854853
  0
LINE
  5
2CD
330
1F
100
AcDbEntity
  8
0
  6
Continuous
 62
     7
370
    25
100
AcDbLine
 10
28.2995904536
 20
16.5074008251
 30
0.0
 11
27.4732139095
 21
16.0141305802
 31
0.0
  0
SPLINE
  5
2CE
330
1F
100
AcDbEntity
  8
0
  6
Continuous
 62
     7
370
    25
100
AcDbSpline
210
0.0
220
0.0
230
1.0
 70
     8
 71
     3
 72
     8
 73
     4
 74
     0
 42
0.000000001
 43
0.00000001
 40
0.0
 40
0.0
 40
0.0
 40
0.0
 40
1.0
 40
1.0
 40
1.0
 40
1.0
 10
27.47321403567653
 20
16.01413051191348
 30
0.0
 10
27.35026120408666
 20
15.94073906125939
 30
0.0
 10
27.21649242043543
 20
15.87292679503766
 30
0.0
 10
27.07634350059891
 20
15.81294238979938
 30
0.0
  0
SPLINE
  5
2CF
330
1F
100
AcDbEntity
  8
0
  6
Continuous
 62
     7
370
    25
100
AcDbSpline
210
0.0
220
0.0
230
1.0
 70
     8
 71
     3
 72
     8
 73
     4
 74
     0
 42
0.000000001
 43
0.00000001
 40
0.0
 40
0.0
 40
0.0
 40
0.0
 40
1.0
 40
1.0
 40
1.0
 40
1.0
 10
26.61696698715643
 20
15.61632705397846
 30
0.0
 10
26.55467406383956
 20
15.64707783024553
 30
0.0
 10
26.49288212569153
 20
15.67812947131088
 30
0.0
 10
26.43150547625211
 20
15.70943051248062
 30
0.0
  0
LINE
  5
2D0
330
1F
100
AcDbEntity
  8
0
  6
Continuous
 62
     7
370
    25
100
AcDbLine
 10
21.0933524049
 20
18.4317971386
 30
0.0
 11
26.4315053223
 21
15.7094304747
 31
0.0
  0
SPLINE
  5
2D1
330
1F
100
AcDbEntity
  8
0
  6
Continuous
 62
     7
370
    25
100
AcDbSpline
210
0.0
220
0.0
230
1.0
 70
     8
 71
     3
 72
     8
 73
     4
 74
     0
 42
0.000000001
 43
0.00000001
 40
0.0
 40
0.0
 40
0.0
 40
0.0
 40
1.0
 40
1.0
 40
1.0
 40
1.0
 10
20.91056280877237
 20
18.52649556102259
 30
0.0
 10
20.97101715970229
 20
18.49464732735769
 30
0.0
 10
21.03197578982504
 20
18.46309827859519
 30
0.0
 10
21.09335243921769
 20
18.43179723739752
 30
0.0
  0
LWPOLYLINE
  5
2D2
330
1F
100
AcDbEntity
  8
0
  6
Continuous
 62
     7
370
    25
100
AcDbPolyline
 90
        3
 70
   128
 43
0.0
 10
21.2297451189
 20
18.7946075725
 10
21.0510029914
 20
18.6444649094
 10
20.9105629285
 20
18.5264955083
  0
SPLINE
  5
2D3
330
1F
100
AcDbEntity
  8
0
  6
Continuous
 62
     7
370
    25
100
AcDbSpline
210
0.0
220
0.0
230
1.0
 70
     8
 71
     3
 72
    10
 73
     6
 74
     0
 42
0.000000001
 43
0.00000001
 40
0.0
 40
0.0
 40
0.0
 40
0.0
 40
0.5
 40
0.5
 40
1.0
 40
1.0
 40
1.0
 40
1.0
 10
21.56209812470804
 20
19.02869850041151
 30
0.0
 10
21.50061247064393
 20
18.9919950545225
 30
0.0
 10
21.4420031387215
 20
18.95401634028662
 30
0.0
 10
21.33065860320668
 20
18.87559393900278
 30
0.0
 10
21.2784632987577
 20
18.83552810057901
 30
0.0
 10
21.22974495761715
 20
18.79460762437338
 30
0.0
  0
LINE
  5
2D4
330
1F
100
AcDbEntity
  8
0
  6
Continuous
 62
     7
370
    25
100
AcDbLine
 10
22.3884748239
 20
19.5219686702
 30
0.0
 11
21.5620982798
 21
19.0286984252
 31
0.0
  0
SPLINE
  5
2D5
330
1F
100
AcDbEntity
  8
0
  6
Continuous
 62
     7
370
    25
100
AcDbSpline
210
0.0
220
0.0
230
1.0
 70
     8
 71
     3
 72
    18
 73
    14
 74
     0
 42
0.000000001
 43
0.00000001
 40
0.0
 40
0.0
 40
0.0
 40
0.0
 40
0.125
 40
0.125
 40
0.25
 40
0.25
 40
0.5
 40
0.5
 40
0.75
 40
0.75
 40
0.875
 40
0.875
 40
1.0
 40
1.0
 40
1.0
 40
1.0
 10
23.01128501617224
 20
19.61664968959871
 30
0.0
 10
22.99488737196807
 20
19.62500729986152
 30
0.0
 10
22.97620498164964
 20
19.63188315069154
 30
0.0
 10
22.93433615241451
 20
19.64265449718966
 30
0.0
 10
22.91157897168862
 20
19.64642838657706
 30
0.0
 10
22.83825277267663
 20
19.6528783183501
 30
0.0
 10
22.78277473833429
 20
19.65054948812057
 30
0.0
 10
22.66758780067794
 20
19.63304410023653
 30
0.0
 10
22.60761169198962
 20
19.61781115411896
 30
0.0
 10
22.52130573309914
 20
19.58710054264336
 30
0.0
 10
22.49321007062261
 20
19.57558807114946
 30
0.0
 10
22.43872467712631
 20
19.55017978262581
 30
0.0
 10
22.41289378272725
 20
19.53654139314438
 30
0.0
 10
22.38847469067728
 20
19.52196875844332
 30
0.0
  0
LINE
  5
2D6
330
1F
100
AcDbEntity
  8
0
  6
Continuous
 62
     7
370
    25
100
AcDbLine
 10
25.716520841
 20
18.2370256987
 30
0.0
 11
23.0112850218
 21
19.6166496859
 31
0.0
  0
LINE
  5
2D7
330
1F
100
AcDbEntity
  8
0
  6
Continuous
 62
     7
370
    25
100
AcDbLine
 10
25.716520841
 20
18.2370256987
 30
0.0
 11
28.4217566602
 21
16.8574017115
 31
0.0
  0
SPLINE
  5
2D8
330
1F
100
AcDbEntity
  8
0
  6
Continuous
 62
     7
370
    25
100
AcDbSpline
210
0.0
220
0.0
230
1.0
 70
     8
 71
     3
 72
    14
 73
    10
 74
     0
 42
0.000000001
 43
0.00000001
 40
0.0
 40
0.0
 40
0.0
 40
0.0
 40
0.25
 40
0.25
 40
0.5
 40
0.5
 40
0.75
 40
0.75
 40
1.0
 40
1.0
 40
1.0
 40
1.0
 10
28.42175664534747
 20
16.85740171990087
 30
0.0
 10
28.45452964467687
 20
16.84068805091626
 30
0.0
 10
28.47758306577268
 20
16.81820004284762
 30
0.0
 10
28.50081054758157
 20
16.76504726313422
 30
0.0
 10
28.50096956172917
 20
16.73440641701311
 30
0.0
 10
28.47835416887009
 20
16.66961419861573
 30
0.0
 10
28.45558865974207
 20
16.63548831841419
 30
0.0
 10
28.39057338076888
 20
16.5689206892408
 30
0.0
 10
28.3483579818717
 20
16.53651037834683
 30
0.0
 10
28.29959060164577
 20
16.50740076994529
 30
0.0
  0
SPLINE
  5
2D9
330
1F
100
AcDbEntity
  8
0
  6
Continuous
 62
     7
370
    25
100
AcDbSpline
210
0.0
220
0.0
230
1.0
 70
     8
 71
     3
 72
     8
 73
     4
 74
     0
 42
0.000000001
 43
0.00000001
 40
0.0
 40
0.0
 40
0.0
 40
0.0
 40
1.0
 40
1.0
 40
1.0
 40
1.0
 10
27.18554262504536
 20
15.58897199021546
 30
0.0
 10
27.34073820806006
 20
15.65539643896222
 30
0.0
 10
27.48886867094725
 20
15.73048916321864
 30
0.0
 10
27.62502195991935
 20
15.81176006409945
 30
0.0
  0
SPLINE
  5
2DA
330
1F
100
AcDbEntity
  8
0
  6
Continuous
 62
     7
370
    25
100
AcDbSpline
210
0.0
220
0.0
230
1.0
 70
     8
 71
     3
 72
    22
 73
    18
 74
     0
 42
0.000000001
 43
0.00000001
 40
0.0
 40
0.0
 40
0.0
 40
0.0
 40
0.125
 40
0.125
 40
0.25
 40
0.25
 40
0.375
 40
0.375
 40
0.5
 40
0.5
 40
0.625
 40
0.625
 40
0.75
 40
0.75
 40
0.875
 40
0.875
 40
1.0
 40
1.0
 40
1.0
 40
1.0
 10
27.47321403567653
 20
16.01413051191348
 30
0.0
 10
27.47589699968755
 20
16.01276224616743
 30
0.0
 10
27.47949145959504
 20
16.0102787337735
 30
0.0
 10
27.48898097315172
 20
16.00216866469428
 30
0.0
 10
27.49489219343695
 20
15.99651895114711
 30
0.0
 10
27.50903276675548
 20
15.9815944757582
 30
0.0
 10
27.51727042620345
 20
15.97230026416672
 30
0.0
 10
27.53516393433836
 20
15.95078304607363
 30
0.0
 10
27.54480068810159
 20
15.93857535525712
 30
0.0
 10
27.56377667863195
 20
15.91327904928036
 30
0.0
 10
27.57308106509506
 20
15.90023689198234
 30
0.0
 10
27.58975905853244
 20
15.87566791075689
 30
0.0
 10
27.59711884625441
 20
15.86416964801426
 30
0.0
 10
27.60921667959513
 20
15.84411651513901
 30
0.0
 10
27.61396739025585
 20
15.83555313835601
 30
0.0
 10
27.62109456799048
 20
15.821512010292
 30
0.0
 10
27.62348803714585
 20
15.81601319968156
 30
0.0
 10
27.62502195991935
 20
15.81176006409944
 30
0.0
  0
SPLINE
  5
2DB
330
1F
100
AcDbEntity
  8
0
  6
Continuous
 62
     7
370
    25
100
AcDbSpline
210
0.0
220
0.0
230
1.0
 70
     8
 71
     3
 72
     8
 73
     4
 74
     0
 42
0.000000001
 43
0.00000001
 40
0.0
 40
0.0
 40
0.0
 40
0.0
 40
1.0
 40
1.0
 40
1.0
 40
1.0
 10
26.56643482463083
 20
15.33525090847182
 30
0.0
 10
26.56562879710575
 20
15.33448173493605
 30
0.0
 10
26.56483137513285
 20
15.33370247132413
 30
0.0
 10
26.56400287995487
 20
15.33295284521673
 30
0.0
  0
LINE
  5
2DC
330
1F
100
AcDbEntity
  8
0
  6
Continuous
 62
     7
370
    25
100
AcDbLine
 10
27.625021987
 20
15.8117600415
 30
0.0
 11
27.8764897345
 21
15.1145111213
 31
0.0
  0
ARC
  5
2DD
330
1F
100
AcDbEntity
  8
0
  6
Continuous
 62
     7
370
    25
100
AcDbCircle
 10
25.9460411908
 20
18.3657591363
 30
0.0
 40
3.78116982366406
100
AcDbArc
 50
293.0641892246
 51
300.6999835898
  0
SPLINE
  5
2DE
330
1F
100
AcDbEntity
  8
0
  6
Continuous
 62
     7
370
    25
100
AcDbSpline
210
0.0
220
0.0
230
1.0
 70
     8
 71
     3
 72
     8
 73
     4
 74
     0
 42
0.000000001
 43
0.00000001
 40
0.0
 40
0.0
 40
0.0
 40
0.0
 40
1.0
 40
1.0
 40
1.0
 40
1.0
 10
26.61696698715645
 20
15.61632705397842
 30
0.0
 10
26.6078148846799
 20
15.61100973652409
 30
0.0
 10
26.59961323189041
 20
15.60303744355081
 30
0.0
 10
26.59350260574541
 20
15.59352546734234
 30
0.0
  0
ARC
  5
2DF
330
1F
100
AcDbEntity
  8
0
  6
Continuous
 62
     7
370
    25
100
AcDbCircle
 10
26.4670373295
 20
15.6510798075
 30
0.0
 40
0.0683178154331808
100
AcDbArc
 50
121.3388725585
 51
146.2710832201
  0
ARC
  5
2E0
330
1F
100
AcDbEntity
  8
0
  6
Continuous
 62
     7
370
    25
100
AcDbCircle
 10
19.6516116323
 20
19.3597411396
 30
0.0
 40
1.707945689409808
100
AcDbArc
 50
301.3388979929
 51
326.27112088
  0
LINE
  5
2E1
330
1F
100
AcDbEntity
  8
0
  6
Continuous
 62
     7
370
    25
100
AcDbLine
 10
26.4102191794
 20
15.6890142472
 30
0.0
 11
21.072066262
 21
18.4113809111
 31
0.0
  0
LINE
  5
2E2
330
1F
100
AcDbEntity
  8
0
  6
Continuous
 62
     7
370
    25
100
AcDbLine
 10
27.625021987
 20
15.8117600415
 30
0.0
 11
28.451398531
 21
16.3050302865
 31
0.0
  0
SPLINE
  5
2E3
330
1F
100
AcDbEntity
  8
0
  6
Continuous
 62
     7
370
    25
100
AcDbSpline
210
0.0
220
0.0
230
1.0
 70
     8
 71
     3
 72
    22
 73
    18
 74
     0
 42
0.000000001
 43
0.00000001
 40
0.0
 40
0.0
 40
0.0
 40
0.0
 40
0.125
 40
0.125
 40
0.25
 40
0.25
 40
0.375
 40
0.375
 40
0.5
 40
0.5
 40
0.625
 40
0.625
 40
0.75
 40
0.75
 40
0.875
 40
0.875
 40
1.0
 40
1.0
 40
1.0
 40
1.0
 10
28.29959060164577
 20
16.50740076994529
 30
0.0
 10
28.30227356565682
 20
16.50603250419925
 30
0.0
 10
28.30586802556433
 20
16.50354899180534
 30
0.0
 10
28.31535753912105
 20
16.49543892272614
 30
0.0
 10
28.32126875940631
 20
16.48978920917899
 30
0.0
 10
28.33540933272488
 20
16.47486473379011
 30
0.0
 10
28.34364699217287
 20
16.46557052219863
 30
0.0
 10
28.36154050030781
 20
16.44405330410556
 30
0.0
 10
28.37117725407104
 20
16.43184561328905
 30
0.0
 10
28.39015324460139
 20
16.40654930731229
 30
0.0
 10
28.39945763106451
 20
16.39350715001427
 30
0.0
 10
28.41613562450186
 20
16.36893816878881
 30
0.0
 10
28.4234954122238
 20
16.35743990604616
 30
0.0
 10
28.43559324556449
 20
16.33738677317089
 30
0.0
 10
28.4403439562252
 20
16.32882339638788
 30
0.0
 10
28.44747113395977
 20
16.31478226832384
 30
0.0
 10
28.44986460311512
 20
16.30928345771338
 30
0.0
 10
28.4513985258886
 20
16.30503032213126
 30
0.0
  0
LINE
  5
2E4
330
1F
100
AcDbEntity
  8
0
  6
Continuous
 62
     7
370
    25
100
AcDbLine
 10
28.451398531
 20
16.3050302865
 30
0.0
 11
28.7028662786
 21
15.6077813662
 31
0.0
  0
LINE
  5
2E5
330
1F
100
AcDbEntity
  8
0
  6
Continuous
 62
     7
370
    25
100
AcDbLine
 10
28.7028662786
 20
15.6077813662
 30
0.0
 11
27.8764897345
 21
15.1145111213
 31
0.0
  0
ARC
  5
2E6
330
1F
100
AcDbEntity
  8
0
  6
Continuous
 62
     7
370
    25
100
AcDbCircle
 10
21.1288844122
 20
18.3734464713
 30
0.0
 40
0.0683178154331415
100
AcDbArc
 50
121.3388725585
 51
146.2710832201
  0
LWPOLYLINE
  5
2E7
330
1F
100
AcDbEntity
  8
0
  6
Continuous
 62
     7
370
    25
100
AcDbPolyline
 90
       11
 70
   128
 43
0.0
 10
28.9887746112
 20
16.0290635843
 10
28.9962204988
 20
16.0050614758
 10
29.0001128941
 20
15.9644916285
 10
28.9942029885
 20
15.9215086177
 10
28.9785766374
 20
15.8767393997
 10
28.9534616081
 20
15.8308368507
 10
28.919224089
 20
15.7844703781
 10
28.8763636052
 20
15.7383159283
 10
28.8255050036
 20
15.6930466802
 10
28.7673902121
 20
15.6493225608
 10
28.7028662786
 20
15.6077813662
  0
LWPOLYLINE
  5
2E8
330
1F
100
AcDbEntity
  8
0
  6
Continuous
 62
     7
370
    25
100
AcDbPolyline
 90
        5
 70
   128
 43
0.0
 10
21.2647281463
 20
15.1408896263
 10
21.8599609855
 20
14.8373693231
 10
22.2451084899
 20
14.6409828732
 10
22.6302488531
 20
14.4446246798
 10
23.015416743
 20
14.2481668666
  0
SPLINE
  5
2E9
330
1F
100
AcDbEntity
  8
0
  6
Continuous
 62
     7
370
    25
100
AcDbSpline
210
0.0
220
0.0
230
1.0
 70
     8
 71
     3
 72
    10
 73
     6
 74
     0
 42
0.000000001
 43
0.00000001
 40
0.0
 40
0.0
 40
0.0
 40
0.0
 40
0.5
 40
0.5
 40
1.0
 40
1.0
 40
1.0
 40
1.0
 10
21.27961656370137
 20
15.20219186968819
 30
0.0
 10
21.27289528196036
 20
15.1940859341747
 30
0.0
 10
21.26734759459404
 20
15.18348119465348
 30
0.0
 10
21.26197006602229
 20
15.16133915540467
 30
0.0
 10
21.26220421478804
 20
15.15006533516115
 30
0.0
 10
21.26472835957657
 20
15.14088950826385
 30
0.0
  0
LINE
  5
2EA
330
1F
100
AcDbEntity
  8
0
  6
Continuous
 62
     7
370
    25
100
AcDbLine
 10
19.5139766885
 20
16.0338413925
 30
0.0
 11
19.6471591561
 21
15.5496825744
 31
0.0
  0
LWPOLYLINE
  5
2EB
330
1F
100
AcDbEntity
  8
0
  6
Continuous
 62
     7
370
    25
100
AcDbPolyline
 90
        5
 70
   128
 43
0.0
 10
21.2647281463
 20
15.1408896263
 10
20.6694713387
 20
15.4444986764
 10
20.2843020405
 20
15.6409606174
 10
19.8991255226
 20
15.837450855
 10
19.5139766885
 20
16.0338413925
  0
LINE
  5
2EC
330
1F
100
AcDbEntity
  8
0
  6
Continuous
 62
     7
370
    25
100
AcDbLine
 10
19.6471591561
 20
15.5496825744
 30
0.0
 11
23.1485992106
 21
13.7640080484
 31
0.0
  0
LWPOLYLINE
  5
2ED
330
1F
100
AcDbEntity
  8
0
  6
Continuous
 62
     7
370
    25
100
AcDbPolyline
 90
       36
 70
   128
 43
0.0
 10
25.9700687981
 20
16.7430515853
 10
26.0157416704
 20
16.7674308201
 10
26.0651565452
 20
16.7883693886
 10
26.1167249624
 20
16.8051946324
 10
26.1687894854
 20
16.8173656073
 10
26.2196767602
 20
16.8244911876
 10
26.2677513598
 20
16.8263422048
 10
26.3114678986
 20
16.8228594216
 10
26.3494214737
 20
16.8141545953
 10
26.3803921486
 20
16.8005074617
 10
26.4033845081
 20
16.7823568208
 10
26.4176593882
 20
16.7602859084
 10
26.4227584306
 20
16.73500418
 10
26.4185172044
 20
16.7073241834
 10
26.4050725964
 20
16.6781355327
 10
26.3828560498
 20
16.6483765219
 10
26.3525823967
 20
16.6190034565
 10
26.3152238924
 20
16.5909605447
 10
26.2719817507
 20
16.5651489919
 10
26.22424592
 20
16.5423984684
 10
26.1735500732
 20
16.523440243
 10
26.1215242651
 20
16.5088834456
 10
26.0698401568
 20
16.4991962859
 10
26.0201592363
 20
16.494689756
 10
25.9740781654
 20
16.4955090098
 10
25.9330781372
 20
16.5016274845
 10
25.8984766853
 20
16.5128485726
 10
25.8713861519
 20
16.5288117913
 10
25.8526770917
 20
16.5490038103
 10
25.8429511019
 20
16.5727758024
 10
25.842520323
 20
16.5993637328
 10
25.8513990814
 20
16.6279129378
 10
25.8693017313
 20
16.6575058836
 10
25.8956529707
 20
16.6871914566
 10
25.9296055462
 20
16.7160155332
 10
25.9700687981
 20
16.7430515853
  0
LWPOLYLINE
  5
2EE
330
1F
100
AcDbEntity
  8
0
  6
Continuous
 62
     7
370
    25
100
AcDbPolyline
 90
       35
 70
   128
 43
0.0
 10
25.9781981253
 20
16.7389057675
 10
25.9387220437
 20
16.7124403541
 10
25.9058331989
 20
16.6842023519
 10
25.8806517417
 20
16.6551534592
 10
25.8640351236
 20
16.6262825855
 10
25.8565492932
 20
16.5985731781
 10
25.8584491801
 20
16.5729687883
 10
25.8696700013
 20
16.5503412707
 10
25.8898296283
 20
16.5314612364
 10
25.9182416544
 20
16.5169715892
 10
25.9539384484
 20
16.5073658043
 10
25.9957044672
 20
16.50297094
 10
26.0421173125
 20
16.503936663
 10
26.0915965744
 20
16.5102301387
 10
26.1424574039
 20
16.5216370504
 10
26.1929672897
 20
16.5377688778
 10
26.2414067431
 20
16.5580763357
 10
26.2861260718
 20
16.5818677827
 10
26.3256021534
 20
16.6083331962
 10
26.3584909982
 20
16.6365711984
 10
26.3836725723
 20
16.6656201608
 10
26.4002890735
 20
16.6944909647
 10
26.4077749039
 20
16.7222003721
 10
26.405875017
 20
16.7478047619
 10
26.3946541958
 20
16.7704322795
 10
26.3744945688
 20
16.7893123139
 10
26.3460825427
 20
16.8038019611
 10
26.3103857487
 20
16.8134077459
 10
26.2686197299
 20
16.8178026102
 10
26.2222068846
 20
16.8168368873
 10
26.1727276227
 20
16.8105434116
 10
26.1218669101
 20
16.7991365697
 10
26.0713569074
 20
16.7830046724
 10
26.022917454
 20
16.7626972146
 10
25.9781981253
 20
16.7389057675
  0
SPLINE
  5
2EF
330
1F
100
AcDbEntity
  8
0
  6
Continuous
 62
     7
370
    25
100
AcDbSpline
210
0.0
220
0.0
230
1.0
 70
     8
 71
     3
 72
    14
 73
    10
 74
     0
 42
0.000000001
 43
0.00000001
 40
0.0
 40
0.0
 40
0.0
 40
0.0
 40
0.2499999999999998
 40
0.2499999999999998
 40
0.4999999999999998
 40
0.4999999999999998
 40
0.7499999999999998
 40
0.7499999999999998
 40
1.0
 40
1.0
 40
1.0
 40
1.0
 10
19.52872695143847
 20
16.09499592895166
 30
0.0
 10
19.68438106999497
 20
16.01536393943779
 30
0.0
 10
19.83533494838097
 20
15.93853818852571
 30
0.0
 10
20.13256154558557
 20
15.78708358518531
 30
0.0
 10
20.27880737886928
 20
15.71247939897758
 30
0.0
 10
20.5681979920209
 20
15.56492247672279
 30
0.0
 10
20.71134307484185
 20
15.49196746479391
 30
0.0
 10
20.99620594256756
 20
15.34673434474982
 30
0.0
 10
21.1379228621267
 20
15.27445719383747
 30
0.0
 10
21.2796168253346
 20
15.20219174949488
 30
0.0
  0
SPLINE
  5
2F0
330
1F
100
AcDbEntity
  8
0
  6
Continuous
 62
     7
370
    25
100
AcDbSpline
210
0.0
220
0.0
230
1.0
 70
     8
 71
     3
 72
    25
 73
    21
 74
     0
 42
0.000000001
 43
0.00000001
 40
0.0
 40
0.0
 40
0.0
 40
0.0
 40
0.0152522979032985
 40
0.0313957152120555
 40
0.0484421335433187
 40
0.0664043454053788
 40
0.0852966019990087
 40
0.1051353425036761
 40
0.1259380328870824
 40
0.1732485146810382
 40
0.2507267748705502
 40
0.3698435954055703
 40
0.5007135514090343
 40
0.6105738669775957
 40
0.7497306549502352
 40
0.8310294859250626
 40
0.8747181377581827
 40
0.9172465067696075
 40
0.959010748061986
 40
0.9999999999999999
 40
0.9999999999999999
 40
0.9999999999999999
 40
0.9999999999999999
 10
19.41553864064599
 20
16.99051240926266
 30
0.0
 10
19.40922132321882
 20
16.98498059086367
 30
0.0
 10
19.39621759747829
 20
16.97359375616106
 30
0.0
 10
19.37687427779867
 20
16.95589976014305
 30
0.0
 10
19.35707549807861
 20
16.93712583856588
 30
0.0
 10
19.33699898618928
 20
16.91724447610508
 30
0.0
 10
19.31677226654889
 20
16.89624284962606
 30
0.0
 10
19.29656362412459
 20
16.87410878695295
 30
0.0
 10
19.26836914517436
 20
16.84131464811589
 30
0.0
 10
19.22652146617233
 20
16.78692304601995
 30
0.0
 10
19.17221723852658
 20
16.69616678397058
 30
0.0
 10
19.13596638836429
 20
16.57823627773231
 30
0.0
 10
19.14629010552221
 20
16.46014889073406
 30
0.0
 10
19.19848728646491
 20
16.34944980811981
 30
0.0
 10
19.27300270727367
 20
16.26492280354578
 30
0.0
 10
19.34753279960323
 20
16.20467530855325
 30
0.0
 10
19.39942973039567
 20
16.16886759171322
 30
0.0
 10
19.44128258699979
 20
16.142668723837
 30
0.0
 10
19.48415158030739
 20
16.11805150389172
 30
0.0
 10
19.51396155153534
 20
16.10263298895471
 30
0.0
 10
19.52872695143847
 20
16.09499592895166
 30
0.0
  0
SPLINE
  5
2F1
330
1F
100
AcDbEntity
  8
0
  6
Continuous
 62
     7
370
    25
100
AcDbSpline
210
0.0
220
0.0
230
1.0
 70
     8
 71
     3
 72
     9
 73
     5
 74
     0
 42
0.000000001
 43
0.00000001
 40
0.0
 40
0.0
 40
0.0
 40
0.0
 40
0.4977278269078003
 40
0.9999999999999999
 40
0.9999999999999999
 40
0.9999999999999999
 40
0.9999999999999999
 10
19.43404808893494
 20
17.00635432456493
 30
0.0
 10
19.43097135672923
 20
17.003747812938
 30
0.0
 10
19.42478980118946
 20
16.99851099175578
 30
0.0
 10
19.41863168902498
 20
16.99318666861622
 30
0.0
 10
19.41553864064599
 20
16.99051240926266
 30
0.0
  0
SPLINE
  5
2F2
330
1F
100
AcDbEntity
  8
0
  6
Continuous
 62
     7
370
    25
100
AcDbSpline
210
0.0
220
0.0
230
1.0
 70
     8
 71
     3
 72
    10
 73
     6
 74
     0
 42
0.000000001
 43
0.00000001
 40
0.0
 40
0.0
 40
0.0
 40
0.0
 40
0.5
 40
0.5
 40
1.0
 40
1.0
 40
1.0
 40
1.0
 10
20.2473450914588
 20
17.69156302487642
 30
0.0
 10
20.11444057129052
 20
17.5795530484136
 30
0.0
 10
19.9811225912031
 20
17.46719916572315
 30
0.0
 10
19.711410793231
 20
17.23989141150382
 30
0.0
 10
19.57488753158217
 20
17.12484490886438
 30
0.0
 10
19.43404808893494
 20
17.00635432456493
 30
0.0
  0
SPLINE
  5
2F3
330
1F
100
AcDbEntity
  8
0
  6
Continuous
 62
     7
370
    25
100
AcDbSpline
210
0.0
220
0.0
230
1.0
 70
     8
 71
     3
 72
    27
 73
    23
 74
     0
 42
0.000000001
 43
0.00000001
 40
0.0
 40
0.0
 40
0.0
 40
0.0
 40
0.0374687510300911
 40
0.0636107317152553
 40
0.0710093297972105
 40
0.0763429860926148
 40
0.0822805541655099
 40
0.0857689987240816
 40
0.0890844188890069
 40
0.0947843975214064
 40
0.1066740576354621
 40
0.1264015631260465
 40
0.1655216573579864
 40
0.1896673320044242
 40
0.2213456404948779
 40
0.2523251388834559
 40
0.3650721229450644
 40
0.5026130257109163
 40
0.633254634990197
 40
0.7873109917123273
 40
0.8884366616972966
 40
1.0
 40
1.0
 40
1.0
 40
1.0
 10
20.53991249132359
 20
17.9009745788046
 30
0.0
 10
20.54327888326461
 20
17.90421978795391
 30
0.0
 10
20.54899400983599
 20
17.90972918239278
 30
0.0
 10
20.55501955118433
 20
17.91587873010193
 30
0.0
 10
20.55800420664423
 20
17.9192051918662
 30
0.0
 10
20.55927514578679
 20
17.9207905616938
 30
0.0
 10
20.56010195716058
 20
17.9219749568226
 30
0.0
 10
20.56003539159023
 20
17.92289672150392
 30
0.0
 10
20.55798535540719
 20
17.92226650036403
 30
0.0
 10
20.5551077184605
 20
17.92064403034713
 30
0.0
 10
20.55007960993754
 20
17.91754886542736
 30
0.0
 10
20.54090821497442
 20
17.91146513374538
 30
0.0
 10
20.53015371203476
 20
17.90413234522285
 30
0.0
 10
20.51782612505363
 20
17.89558182581017
 30
0.0
 10
20.50641711817163
 20
17.8876932140468
 30
0.0
 10
20.48331916930469
 20
17.87164174197726
 30
0.0
 10
20.4466099091169
 20
17.84587956955578
 30
0.0
 10
20.40130170734964
 20
17.81269326016748
 30
0.0
 10
20.35478896676068
 20
17.77727225027303
 30
0.0
 10
20.31479680865524
 20
17.7458442144253
 30
0.0
 10
20.27833152443312
 20
17.71667247231693
 30
0.0
 10
20.25800638640719
 20
17.70020226468102
 30
0.0
 10
20.2473450914588
 20
17.69156302487642
 30
0.0
  0
ARC
  5
2F4
330
1F
100
AcDbEntity
  8
0
  6
Continuous
 62
     7
370
    25
100
AcDbCircle
 10
19.5817975204
 20
16.0498393406
 30
0.0
 40
0.0696821324642177
100
AcDbArc
 50
139.6062809946
 51
193.2726196615
  0
LINE
  5
2F5
330
1F
100
AcDbEntity
  8
0
  6
Continuous
 62
     7
370
    25
100
AcDbLine
 10
22.2057841946
 20
16.2439026078
 30
0.0
 11
22.4216196225
 21
15.6096832645
 31
0.0
  0
ARC
  5
2F6
330
1F
100
AcDbEntity
  8
0
  6
Continuous
 62
     7
370
    25
100
AcDbCircle
 10
22.3757604348
 20
15.7677975163
 30
0.0
 40
0.1646304397914587
100
AcDbArc
 50
249.3395865238
 51
286.1741828166
  0
LINE
  5
2F7
330
1F
100
AcDbEntity
  8
0
  6
Continuous
 62
     7
370
    25
100
AcDbLine
 10
22.3176741324
 20
15.6137547846
 30
0.0
 11
22.0868331701
 21
16.2485618449
 31
0.0
  0
LINE
  5
2F8
330
1F
100
AcDbEntity
  8
0
  6
Continuous
 62
     7
370
    25
100
AcDbLine
 10
22.0292003565
 20
15.7608714752
 30
0.0
 11
22.3176741324
 21
15.6137547846
 31
0.0
  0
LINE
  5
2F9
330
1F
100
AcDbEntity
  8
0
  6
Continuous
 62
     7
370
    25
100
AcDbLine
 10
21.7983593942
 20
16.3956785355
 30
0.0
 11
22.0292003565
 21
15.7608714752
 31
0.0
  0
LWPOLYLINE
  5
2FA
330
1F
100
AcDbEntity
  8
0
  6
Continuous
 62
     7
370
    25
100
AcDbPolyline
 90
        3
 70
   128
 43
0.0
 10
19.4116128011
 20
16.9871694112
 10
19.4123367703
 20
16.9879373622
 10
19.4155384721
 20
16.9905123079
  0
SPLINE
  5
2FB
330
1F
100
AcDbEntity
  8
0
  6
Continuous
 62
     7
370
    25
100
AcDbSpline
210
0.0
220
0.0
230
1.0
 70
     8
 71
     3
 72
    12
 73
     8
 74
     0
 42
0.000000001
 43
0.00000001
 40
0.0
 40
0.0
 40
0.0
 40
0.0
 40
0.1110119077024744
 40
0.3027929425712168
 40
0.5129164873592418
 40
0.7443626616171026
 40
1.0
 40
1.0
 40
1.0
 40
1.0
 10
19.26265318638933
 20
15.92700655204729
 30
0.0
 10
19.26731647283507
 20
15.90913430147536
 30
0.0
 10
19.28003592117336
 20
15.8603864558339
 30
0.0
 10
19.32819651866711
 20
15.78701893617884
 30
0.0
 10
19.40554473237349
 20
15.70448510904119
 30
0.0
 10
19.51174945983723
 20
15.62351878237535
 30
0.0
 10
19.60055244737865
 20
15.57509628353042
 30
0.0
 10
19.64715915605672
 20
15.54968257437929
 30
0.0
  0
LWPOLYLINE
  5
2FC
330
1F
100
AcDbEntity
  8
0
  6
Continuous
 62
     7
370
    25
100
AcDbPolyline
 90
       36
 70
   128
 43
0.0
 10
22.5444235828
 20
18.4900720399
 10
22.5848868347
 20
18.5171080919
 10
22.6188394102
 20
18.5459321686
 10
22.6451906497
 20
18.5756177416
 10
22.6630932995
 20
18.6052106874
 10
22.6719720579
 20
18.6337598924
 10
22.6715412791
 20
18.6603478228
 10
22.6618152892
 20
18.6841198149
 10
22.6431063459
 20
18.7043119037
 10
22.6160156956
 20
18.7202750525
 10
22.5814143606
 20
18.7314962105
 10
22.5404142156
 20
18.7376146154
 10
22.4943331446
 20
18.7384338692
 10
22.4446522241
 20
18.7339273393
 10
22.3929681158
 20
18.7242401796
 10
22.3409423077
 20
18.7096833822
 10
22.2902465778
 20
18.6907252265
 10
22.2425106303
 20
18.6679746333
 10
22.1992684885
 20
18.6421630805
 10
22.1619101011
 20
18.6141202385
 10
22.1316363311
 20
18.5847471033
 10
22.1094197845
 20
18.5549880925
 10
22.0959751765
 20
18.5257994418
 10
22.0917339503
 20
18.4981194452
 10
22.0968329927
 20
18.4728377168
 10
22.1111079898
 20
18.4507668742
 10
22.1341002324
 20
18.4326161635
 10
22.1650710242
 20
18.4189690996
 10
22.2030244824
 20
18.4102642036
 10
22.2467410211
 20
18.4067814204
 10
22.2948156208
 20
18.4086324375
 10
22.3457028955
 20
18.4157580179
 10
22.3977674185
 20
18.4279289928
 10
22.4493358357
 20
18.4447542366
 10
22.4987507106
 20
18.4656928051
 10
22.5444235828
 20
18.4900720399
  0
LINE
  5
2FD
330
1F
100
AcDbEntity
  8
0
  6
Continuous
 62
     7
370
    25
100
AcDbLine
 10
22.0877067189
 20
18.2764330394
 30
0.0
 11
22.0882828881
 21
18.2741601808
 31
0.0
  0
LWPOLYLINE
  5
2FE
330
1F
100
AcDbEntity
  8
0
  6
Continuous
 62
     7
370
    25
100
AcDbPolyline
 90
       35
 70
   128
 43
0.0
 10
22.5362942556
 20
18.4942178577
 10
22.4915749269
 20
18.4704264106
 10
22.4431354735
 20
18.4501189527
 10
22.3926255877
 20
18.4339871253
 10
22.3417647582
 20
18.4225802136
 10
22.2922854964
 20
18.4162867379
 10
22.245872651
 20
18.415321015
 10
22.2041066323
 20
18.4197158793
 10
22.1684098382
 20
18.4293216641
 10
22.1399978121
 20
18.4438113113
 10
22.1198381852
 20
18.4626913456
 10
22.1086173639
 20
18.4853188633
 10
22.1067174771
 20
18.5109232531
 10
22.1142033074
 20
18.5386326604
 10
22.1308199255
 20
18.5675035341
 10
22.1560013828
 20
18.5965524268
 10
22.1888902275
 20
18.624790429
 10
22.2283663091
 20
18.6512558424
 10
22.2730856379
 20
18.6750472895
 10
22.3215250912
 20
18.6953547474
 10
22.372035094
 20
18.7114866446
 10
22.4228958065
 20
18.7228934865
 10
22.4723750684
 20
18.7291869622
 10
22.5187879138
 20
18.7301526851
 10
22.5605539325
 20
18.7257578208
 10
22.5962507266
 20
18.716152036
 10
22.6246627526
 20
18.7016623888
 10
22.6448223796
 20
18.6827823545
 10
22.6560432009
 20
18.6601548369
 10
22.6579430877
 20
18.634550447
 10
22.6504572573
 20
18.6068410397
 10
22.6338407562
 20
18.5779702358
 10
22.608659182
 20
18.5489212733
 10
22.5757703373
 20
18.5206832711
 10
22.5362942556
 20
18.4942178577
  0
SPLINE
  5
2FF
330
1F
100
AcDbEntity
  8
0
  6
Continuous
 62
     7
370
    25
100
AcDbSpline
210
0.0
220
0.0
230
1.0
 70
     8
 71
     3
 72
    19
 73
    15
 74
     0
 42
0.000000001
 43
0.00000001
 40
0.0
 40
0.0
 40
0.0
 40
0.0
 40
0.0569144452555559
 40
0.125230203910722
 40
0.1877816278007931
 40
0.2502385739556398
 40
0.3750566498582011
 40
0.4992717951637053
 40
0.6226460001477792
 40
0.7494181080548028
 40
0.8104831248986916
 40
0.8727216761870523
 40
0.9359537863544106
 40
1.0
 40
1.0
 40
1.0
 40
1.0
 10
20.71684659564664
 20
18.33029107564882
 30
0.0
 10
20.70918802696429
 20
18.31626153157697
 30
0.0
 10
20.69233669663071
 20
18.28539199297386
 30
0.0
 10
20.66658341617116
 20
18.23964876153086
 30
0.0
 10
20.63957659763077
 20
18.19300478327789
 30
0.0
 10
20.60414970741562
 20
18.13340219557905
 30
0.0
 10
20.55897835645956
 20
18.06057445008545
 30
0.0
 10
20.50245811480861
 20
17.97670607597289
 30
0.0
 10
20.44317569481153
 20
17.89661331316227
 30
0.0
 10
20.39148645235982
 20
17.83429983154786
 30
0.0
 10
20.34861927834916
 20
17.78732799537724
 30
0.0
 10
20.31597732819277
 20
17.7539435956006
 30
0.0
 10
20.28220461210569
 20
17.7216613605043
 30
0.0
 10
20.25901442506806
 20
17.70163843359814
 30
0.0
 10
20.24734516647791
 20
17.69156293436131
 30
0.0
  0
SPLINE
  5
300
330
1F
100
AcDbEntity
  8
0
  6
Continuous
 62
     7
370
    25
100
AcDbSpline
210
0.0
220
0.0
230
1.0
 70
     8
 71
     3
 72
    23
 73
    19
 74
     0
 42
0.000000001
 43
0.00000001
 40
0.0
 40
0.0
 40
0.0
 40
0.0
 40
0.0123966707807759
 40
0.0281658674369133
 40
0.047424224333179
 40
0.0701915816436775
 40
0.0964409088829327
 40
0.1261217892278748
 40
0.1775060695016125
 40
0.2514448118278962
 40
0.3221730618928674
 40
0.3760492693103858
 40
0.5009848282253714
 40
0.7503287300961128
 40
0.8745774170808646
 40
0.9369462847314182
 40
0.9741409116985609
 40
1.0
 40
1.0
 40
1.0
 40
1.0
 10
20.8880446884271
 20
18.50321140025419
 30
0.0
 10
20.88729087129339
 20
18.50306368709045
 30
0.0
 10
20.88557816037003
 20
18.50272807525866
 30
0.0
 10
20.88255958127447
 20
18.50146454495738
 30
0.0
 10
20.878881337623
 20
18.49963747365272
 30
0.0
 10
20.87453012832069
 20
18.49712507805111
 30
0.0
 10
20.8695372488385
 20
18.49394113224535
 30
0.0
 10
20.86276841718142
 20
18.4892523667969
 30
0.0
 10
20.85309472847887
 20
18.48188216926552
 30
0.0
 10
20.84103529294627
 20
18.47185675439149
 30
0.0
 10
20.82903153226239
 20
18.46107289518724
 30
0.0
 10
20.81416488289301
 20
18.44697726064891
 30
0.0
 10
20.78917932216886
 20
18.4216540990948
 30
0.0
 10
20.76125794719384
 20
18.39008882457827
 30
0.0
 10
20.73825234873841
 20
18.36091562095899
 30
0.0
 10
20.72700519275498
 20
18.34546484405868
 30
0.0
 10
20.72090954792849
 20
18.33665832562948
 30
0.0
 10
20.71802825045452
 20
18.33214290432676
 30
0.0
 10
20.71684659564664
 20
18.33029107564882
 30
0.0
  0
SPLINE
  5
301
330
1F
100
AcDbEntity
  8
0
  6
Continuous
 62
     7
370
    25
100
AcDbSpline
210
0.0
220
0.0
230
1.0
 70
     8
 71
     3
 72
     9
 73
     5
 74
     0
 42
0.000000001
 43
0.00000001
 40
0.0
 40
0.0
 40
0.0
 40
0.0
 40
0.4765334069764322
 40
1.0
 40
1.0
 40
1.0
 40
1.0
 10
21.07206628737561
 20
18.4113809812978
 30
0.0
 10
21.04287369113732
 20
18.42619611742854
 30
0.0
 10
20.98161335595217
 20
18.45728551412949
 30
0.0
 10
20.92019509581205
 20
18.48743116112628
 30
0.0
 10
20.88804468842708
 20
18.50321140025418
 30
0.0
  0
SPLINE
  5
302
330
1F
100
AcDbEntity
  8
0
  6
Continuous
 62
     7
370
    25
100
AcDbSpline
210
0.0
220
0.0
230
1.0
 70
     8
 71
     3
 72
     8
 73
     4
 74
     0
 42
0.000000001
 43
0.00000001
 40
0.0
 40
0.0
 40
0.0
 40
0.0
 40
1.0
 40
1.0
 40
1.0
 40
1.0
 10
20.91056280877237
 20
18.52649556102259
 30
0.0
 10
20.90183416211655
 20
18.52111371201029
 30
0.0
 10
20.89371993068533
 20
18.51274472703944
 30
0.0
 10
20.88804470004779
 20
18.50321139232252
 30
0.0
  0
LINE
  5
303
330
1F
100
AcDbEntity
  8
0
  6
Continuous
 62
     7
370
    25
100
AcDbLine
 10
20.8480381968
 20
18.4933196097
 30
0.0
 11
20.8594050634
 21
18.5030667084
 31
0.0
  0
SPLINE
  5
304
330
1F
100
AcDbEntity
  8
0
  6
Continuous
 62
     7
370
    25
100
AcDbSpline
210
0.0
220
0.0
230
1.0
 70
     8
 71
     3
 72
     8
 73
     4
 74
     0
 42
0.000000001
 43
0.00000001
 40
0.0
 40
0.0
 40
0.0
 40
0.0
 40
1.0
 40
1.0
 40
1.0
 40
1.0
 10
20.90303921386457
 20
18.52684854808755
 30
0.0
 10
20.90577965001444
 20
18.52701561460062
 30
0.0
 10
20.9082846045772
 20
18.52686985961699
 30
0.0
 10
20.91056280877243
 20
18.52649556102257
 30
0.0
  0
SPLINE
  5
305
330
1F
100
AcDbEntity
  8
0
  6
Continuous
 62
     7
370
    25
100
AcDbSpline
210
0.0
220
0.0
230
1.0
 70
     8
 71
     3
 72
     8
 73
     4
 74
     0
 42
0.000000001
 43
0.00000001
 40
0.0
 40
0.0
 40
0.0
 40
0.0
 40
1.0
 40
1.0
 40
1.0
 40
1.0
 10
20.90303921386463
 20
18.52684854808755
 30
0.0
 10
20.89647886879409
 20
18.52106802606162
 30
0.0
 10
20.89129427365802
 20
18.51285033546117
 30
0.0
 10
20.88804470478848
 20
18.50321138908734
 30
0.0
  0
LWPOLYLINE
  5
306
330
1F
100
AcDbEntity
  8
0
  6
Continuous
 62
     8
370
    25
100
AcDbPolyline
 90
       28
 70
   128
 43
0.0
 10
22.7798254982
 20
18.5523708643
 10
22.7962646512
 20
18.5417928221
 10
22.8193744195
 20
18.519630472
 10
22.8338731579
 20
18.4938138456
 10
22.839420561
 20
18.4649480653
 10
22.835886803
 20
18.4337096237
 10
22.8233548016
 20
18.4008308649
 10
22.8021179974
 20
18.3670824821
 10
22.772674496
 20
18.3332554119
 10
22.7357142472
 20
18.3001423973
 10
22.6921035593
 20
18.2685198738
 10
22.6428646121
 20
18.2391287836
 10
22.5891517796
 20
18.212658181
 10
22.5322236882
 20
18.1897285539
 10
22.4734148691
 20
18.1708771641
 10
22.4141038695
 20
18.1565459696
 10
22.3556805708
 20
18.1470709873
 10
22.299514467
 20
18.1426741416
 10
22.2469222922
 20
18.1434585514
 10
22.1991365721
 20
18.1494059332
 10
22.1572774048
 20
18.1603766289
 10
22.1223256987
 20
18.1761138064
 10
22.0951011022
 20
18.196248375
 10
22.0762415437
 20
18.2203085135
 10
22.0661890262
 20
18.2477301495
 10
22.0651791564
 20
18.2778707113
 10
22.0732357562
 20
18.3100236519
 10
22.0765169609
 20
18.3179909899
  0
LWPOLYLINE
  5
307
330
1F
100
AcDbEntity
  8
0
  6
Continuous
 62
     8
370
    25
100
AcDbPolyline
 90
       12
 70
   128
 43
0.0
 10
26.4179500946
 20
16.3411508263
 10
26.4645115405
 20
16.3717474493
 10
26.5049155164
 20
16.4042103935
 10
26.5382151314
 20
16.4377789554
 10
26.5636299056
 20
16.4716661859
 10
26.5805640289
 20
16.5050777897
 10
26.5886205118
 20
16.5372306606
 10
26.5876106421
 20
16.5673712224
 10
26.5775581245
 20
16.5947928584
 10
26.558698566
 20
16.6188529969
 10
26.5314739696
 20
16.6389875655
 10
26.5296573143
 20
16.6400207894
  0
LWPOLYLINE
  5
308
330
1F
100
AcDbEntity
  8
0
  6
Continuous
 62
     8
370
    25
100
AcDbPolyline
 90
       17
 70
   128
 43
0.0
 10
25.8263487771
 20
16.405640915
 10
25.8179128653
 20
16.3813917482
 10
25.8143791072
 20
16.3501533066
 10
25.8199265104
 20
16.3212875263
 10
25.8344252487
 20
16.2954708999
 10
25.857535017
 20
16.2733085498
 10
25.8887147238
 20
16.2553198381
 10
25.9272331051
 20
16.2419266129
 10
25.9721875473
 20
16.2334427027
 10
26.022524138
 20
16.2300669266
 10
26.0770633352
 20
16.2318784146
 10
26.1345266341
 20
16.2388347839
 10
26.193567011
 20
16.2507729188
 10
26.2528006752
 20
16.2674129646
 10
26.3108394662
 20
16.2883649699
 10
26.3663227657
 20
16.3131378465
 10
26.4179500946
 20
16.3411508263
  0
SPLINE
  5
309
330
1F
100
AcDbEntity
  8
0
  6
Continuous
 62
     8
370
    25
100
AcDbSpline
210
0.0
220
0.0
230
1.0
 70
     8
 71
     3
 72
    13
 73
     9
 74
     0
 42
0.000000001
 43
0.00000001
 40
0.0
 40
0.0
 40
0.0
 40
0.0
 40
0.1682045825737101
 40
0.3364089636199881
 40
0.5046133777004281
 40
0.6728179194171553
 40
0.8410223970609142
 40
0.9999999999999999
 40
0.9999999999999999
 40
0.9999999999999999
 40
0.9999999999999999
 10
28.45139853103716
 20
16.30503028645304
 30
0.0
 10
28.48436855914734
 20
16.32615986118238
 30
0.0
 10
28.550308575866
 20
16.36841898532554
 30
0.0
 10
28.62823323387728
 20
16.4381056329162
 30
0.0
 10
28.68694703701212
 20
16.50912929949958
 30
0.0
 10
28.72229895817886
 20
16.57915911942452
 30
0.0
 10
28.73549365296631
 20
16.64496684443675
 30
0.0
 10
28.72417556448491
 20
16.68292774424105
 30
0.0
 10
28.7186761111731
 20
16.70137292573004
 30
0.0
  0
SPLINE
  5
30A
330
1F
100
AcDbEntity
  8
0
  6
Continuous
 62
     8
370
    25
100
AcDbSpline
210
0.0
220
0.0
230
1.0
 70
     8
 71
     3
 72
    13
 73
     9
 74
     0
 42
0.000000001
 43
0.00000001
 40
0.0
 40
0.0
 40
0.0
 40
0.0
 40
0.07653290755164
 40
0.1876054071652516
 40
0.3376318407409615
 40
0.5569546219128518
 40
0.795521387006366
 40
1.0
 40
1.0
 40
1.0
 40
1.0
 10
28.42175666018789
 20
16.85740171152512
 30
0.0
 10
28.42599206714061
 20
16.85937956630648
 30
0.0
 10
28.4363743363016
 20
16.8642278892494
 30
0.0
 10
28.4556705351209
 20
16.86680281146044
 30
0.0
 10
28.4824266503982
 20
16.86690485313616
 30
0.0
 10
28.51526502426553
 20
16.86172059966265
 30
0.0
 10
28.54974409760885
 20
16.85195386136573
 30
0.0
 10
28.5709643922816
 20
16.84127146954199
 30
0.0
 10
28.58075818911734
 20
16.83634122814548
 30
0.0
  0
SPLINE
  5
30B
330
1F
100
AcDbEntity
  8
0
  6
Continuous
 62
     8
370
    25
100
AcDbSpline
210
0.0
220
0.0
230
1.0
 70
     8
 71
     3
 72
    13
 73
     9
 74
     0
 42
0.000000001
 43
0.00000001
 40
0.0
 40
0.0
 40
0.0
 40
0.0
 40
0.1983503285335616
 40
0.4369230678887933
 40
0.6571788167456518
 40
0.8312118704322086
 40
0.9301850293224784
 40
1.0
 40
1.0
 40
1.0
 40
1.0
 10
25.87549281733151
 20
18.21591530654598
 30
0.0
 10
25.86601090575921
 20
18.22073241777935
 30
0.0
 10
25.84512429607097
 20
18.23134347667703
 30
0.0
 10
25.81094622726469
 20
18.24113755669245
 30
0.0
 10
25.77680773847949
 20
18.24664012971546
 30
0.0
 10
25.7492824351431
 20
18.24645303449909
 30
0.0
 10
25.72969378478008
 20
18.24331090577853
 30
0.0
 10
25.72037522796501
 20
18.23886474250558
 30
0.0
 10
25.71652084097426
 20
18.23702569873323
 30
0.0
  0
LWPOLYLINE
  5
30C
330
1F
100
AcDbEntity
  8
0
  6
Continuous
 62
     8
370
    25
100
AcDbPolyline
 90
        9
 70
   128
 43
0.0
 10
26.3441922824
 20
16.511152682
 10
26.3883322862
 20
16.5403028848
 10
26.4262651203
 20
16.5712806983
 10
26.4570081087
 20
16.6032838828
 10
26.4797651854
 20
16.6354834867
 10
26.4939469716
 20
16.6670455714
 10
26.4991861986
 20
16.6971525919
 10
26.4953469437
 20
16.7250250856
 10
26.4929328818
 20
16.7316603839
  0
LWPOLYLINE
  5
30D
330
1F
100
AcDbEntity
  8
0
  6
Continuous
 62
     8
370
    25
100
AcDbPolyline
 90
       14
 70
   128
 43
0.0
 10
25.8010502924
 20
16.4998858941
 10
25.8072834392
 20
16.4838424817
 10
25.8244807896
 20
16.4606524284
 10
25.8500744295
 20
16.4413528548
 10
25.8834012569
 20
16.4264436906
 10
25.923598135
 20
16.4163110285
 10
25.9696241935
 20
16.4112173044
 10
26.0202874931
 20
16.4112944277
 10
26.074275342
 20
16.416540485
 10
26.1301900316
 20
16.426819503
 10
26.1865832111
 20
16.4418652698
 10
26.241994351
 20
16.461288119
 10
26.2949881642
 20
16.4845850909
 10
26.3441922824
 20
16.511152682
  0
LWPOLYLINE
  5
30E
330
1F
100
AcDbEntity
  8
0
  6
Continuous
 62
     8
370
    25
100
AcDbPolyline
 90
       14
 70
   128
 43
0.0
 10
26.393980387
 20
16.3731040616
 10
26.3436293748
 20
16.3459171048
 10
26.2894003664
 20
16.3220771157
 10
26.2326978013
 20
16.3022015235
 10
26.1749900321
 20
16.2868050238
 10
26.1177721594
 20
16.2762864399
 10
26.0625256005
 20
16.2709181545
 10
26.0106815442
 20
16.2708392541
 10
25.9635826623
 20
16.2760516331
 10
25.9224486646
 20
16.2864204777
 10
25.8883451228
 20
16.3016772254
 10
25.8621548483
 20
16.3214266553
 10
25.8445567996
 20
16.3451572574
 10
25.8381147043
 20
16.3618101059
  0
LWPOLYLINE
  5
30F
330
1F
100
AcDbEntity
  8
0
  6
Continuous
 62
     8
370
    25
100
AcDbPolyline
 90
        9
 70
   128
 43
0.0
 10
26.5465371517
 20
16.5978942049
 10
26.5486583817
 20
16.5919615904
 10
26.5525871512
 20
16.5634395031
 10
26.5472259215
 20
16.5326305532
 10
26.5327136115
 20
16.5003328628
 10
26.5094260437
 20
16.4673826493
 10
26.4779664263
 20
16.4346335856
 10
26.4391494344
 20
16.4029337318
 10
26.393980387
 20
16.3731040616
  0
LWPOLYLINE
  5
310
330
1F
100
AcDbEntity
  8
0
  6
Continuous
 62
     8
370
    25
100
AcDbPolyline
 90
       17
 70
   128
 43
0.0
 10
25.9361519718
 20
16.5371385686
 10
25.9330764731
 20
16.5488891557
 10
25.9347301149
 20
16.5724403508
 10
25.9457337672
 20
16.5976710364
 10
25.9656064922
 20
16.6234785788
 10
25.9934795941
 20
16.6487349962
 10
26.0281350087
 20
16.6723364846
 10
26.0680581833
 20
16.6932515054
 10
26.1115042069
 20
16.7105659992
 10
26.1565743106
 20
16.7235233095
 10
26.2012986039
 20
16.7315570451
 10
26.243722663
 20
16.7343161542
 10
26.281992079
 20
16.7316799101
 10
26.3144346073
 20
16.7237636382
 10
26.3396319862
 20
16.7109134061
 10
26.3564833347
 20
16.6936906441
 10
26.3631225482
 20
16.6786037728
  0
ARC
  5
311
330
1F
100
AcDbEntity
  8
0
  6
Continuous
 62
     8
370
    25
100
AcDbCircle
 10
26.2927363019
 20
16.1785432092
 30
0.0
 40
0.4154290607078088
100
AcDbArc
 50
90.8775637721
 51
125.9759261199
  0
LINE
  5
312
330
1F
100
AcDbEntity
  8
0
  6
Continuous
 62
     8
370
    25
100
AcDbLine
 10
23.0593742347
 20
15.75258254
 30
0.0
 11
23.1021888035
 21
15.6348433832
 31
0.0
  0
LINE
  5
313
330
1F
100
AcDbEntity
  8
0
  6
Continuous
 62
     8
370
    25
100
AcDbLine
 10
22.9224725179
 20
15.4828801139
 30
0.0
 11
22.7709004588
 21
15.8996992306
 31
0.0
  0
LINE
  5
314
330
1F
100
AcDbEntity
  8
0
  6
Continuous
 62
     8
370
    25
100
AcDbLine
 10
21.6702929207
 20
15.6109860321
 30
0.0
 11
21.5896496707
 21
15.8761273731
 31
0.0
  0
ARC
  5
315
330
1F
100
AcDbEntity
  8
0
  6
Continuous
 62
     8
370
    25
100
AcDbCircle
 10
22.6449042622
 20
14.8110523103
 30
0.0
 40
0.8292571563976454
100
AcDbArc
 50
74.8479446385
 51
105.6201553497
  0
LWPOLYLINE
  5
316
330
1F
100
AcDbEntity
  8
0
  6
Continuous
 62
     8
370
    25
100
AcDbPolyline
 90
        7
 70
   128
 43
0.0
 10
22.4216196225
 20
15.6096832645
 10
22.4232568208
 20
15.6052419703
 10
22.4248848276
 20
15.6015528699
 10
22.4264432485
 20
15.5987530794
 10
22.4278742224
 20
15.5969467124
 10
22.4291241968
 20
15.5962006888
 10
22.4295516754
 20
15.5962044027
  0
ARC
  5
317
330
1F
100
AcDbEntity
  8
0
  6
Continuous
 62
     8
370
    25
100
AcDbCircle
 10
21.8763379281
 20
15.2830151333
 30
0.0
 40
0.5017106791161647
100
AcDbArc
 50
72.2609408935
 51
116.6248401363
  0
ARC
  5
318
330
1F
100
AcDbEntity
  8
0
  6
Continuous
 62
     8
370
    25
100
AcDbCircle
 10
22.3374280859
 20
15.6204069411
 30
0.0
 40
0.0208439406807263
100
AcDbArc
 50
198.6109852712
 51
242.3189655943
  0
ARC
  5
319
330
1F
100
AcDbEntity
  8
0
  6
Continuous
 62
     8
370
    25
100
AcDbCircle
 10
22.0489555054
 20
15.7675243376
 30
0.0
 40
0.020845298894629
100
AcDbArc
 50
198.6117754074
 51
242.2752695469
  0
SPLINE
  5
31A
330
1F
100
AcDbEntity
  8
0
  6
Continuous
 62
     8
370
    25
100
AcDbSpline
210
0.0
220
0.0
230
1.0
 70
     8
 71
     3
 72
    13
 73
     9
 74
     0
 42
0.000000001
 43
0.00000001
 40
0.0
 40
0.0
 40
0.0
 40
0.0
 40
0.0765349368529804
 40
0.1876103815993402
 40
0.3376407931872866
 40
0.5569693897924074
 40
0.7955424805812551
 40
1.0
 40
1.0
 40
1.0
 40
1.0
 10
23.01128502176062
 20
19.61664968594135
 30
0.0
 10
23.01552042872241
 20
19.61862754074324
 30
0.0
 10
23.02590269790564
 20
19.62347586373649
 30
0.0
 10
23.04519889647066
 20
19.62605078537202
 30
0.0
 10
23.07195501335485
 20
19.62615283068473
 30
0.0
 10
23.10479337776204
 20
19.62096855579922
 30
0.0
 10
23.13927110962665
 20
19.61120229611459
 30
0.0
 10
23.16049015791092
 20
19.60052059576202
 30
0.0
 10
23.1702826956649
 20
19.59559101774429
 30
0.0
  0
SPLINE
  5
31B
330
1F
100
AcDbEntity
  8
0
  6
Continuous
 62
     8
370
    25
100
AcDbSpline
210
0.0
220
0.0
230
1.0
 70
     8
 71
     3
 72
    13
 73
     9
 74
     0
 42
0.000000001
 43
0.00000001
 40
0.0
 40
0.0
 40
0.0
 40
0.0
 40
0.244397791992911
 40
0.4893620501232265
 40
0.6524183368212209
 40
0.8163385169701872
 40
0.9827313276183814
 40
1.0
 40
1.0
 40
1.0
 40
1.0
 10
19.5139766884776
 20
16.0338413925243
 30
0.0
 10
19.46975732219692
 20
16.05789858232855
 30
0.0
 10
19.38121609781919
 20
16.10606872178364
 30
0.0
 10
19.28292886573581
 20
16.18053456430872
 30
0.0
 10
19.21113165233642
 20
16.2528436544102
 30
0.0
 10
19.16396300596359
 20
16.32159576143343
 30
0.0
 10
19.13796024959476
 20
16.37321974700373
 30
0.0
 10
19.13253602044989
 20
16.40321061440275
 30
0.0
 10
19.13202601021541
 20
16.40603048961562
 30
0.0
  0
LWPOLYLINE
  5
31C
330
1F
100
AcDbEntity
  8
0
  6
Continuous
 62
     8
370
    25
100
AcDbPolyline
 90
       22
 70
   128
 43
0.0
 10
22.7430822241
 20
18.6440559135
 10
22.7485688601
 20
18.6237649654
 10
22.7478666407
 20
18.5946809095
 10
22.7381246105
 20
18.5637459671
 10
22.7195950498
 20
18.5317613985
 10
22.6927578676
 20
18.499555631
 10
22.6583081935
 20
18.4679627643
 10
22.6171384529
 20
18.4378009128
 10
22.5703145252
 20
18.4098513655
 10
22.5190491227
 20
18.3848379994
 10
22.4646704584
 20
18.3634085768
 10
22.4085865544
 20
18.3461181371
 10
22.3522499261
 20
18.3334145262
 10
22.2971198585
 20
18.3256268357
 10
22.2446239577
 20
18.3229565419
 10
22.1961220589
 20
18.3254730067
 10
22.1528702759
 20
18.3331109772
 10
22.1159886967
 20
18.3456726967
 10
22.0864326994
 20
18.3628326972
 10
22.0649676839
 20
18.384146546
 10
22.0521495756
 20
18.4090623402
 10
22.0516368553
 20
18.4107504021
  0
LWPOLYLINE
  5
31D
330
1F
100
AcDbEntity
  8
0
  6
Continuous
 62
     8
370
    25
100
AcDbPolyline
 90
       22
 70
   128
 43
0.0
 10
22.0882828881
 20
18.2741601808
 10
22.0892993181
 20
18.2706771033
 10
22.1024160685
 20
18.2451805399
 10
22.1243814262
 20
18.2233697928
 10
22.154626455
 20
18.2058098703
 10
22.1923677174
 20
18.1929553101
 10
22.2366276655
 20
18.1851393921
 10
22.2862600741
 20
18.1825642738
 10
22.3399795429
 20
18.185296685
 10
22.3963947004
 20
18.1932660064
 10
22.4540444353
 20
18.2062657204
 10
22.511435702
 20
18.2239591061
 10
22.5670819694
 20
18.2458881017
 10
22.6195421212
 20
18.2714845228
 10
22.667457408
 20
18.3000855104
 10
22.7095870593
 20
18.3309504394
 10
22.7448397315
 20
18.3632796902
 10
22.7723023149
 20
18.3962361925
 10
22.7912637747
 20
18.4289662648
 10
22.8012329518
 20
18.4606222417
 10
22.8019514386
 20
18.490384247
 10
22.7967053355
 20
18.5102442799
  0
LWPOLYLINE
  5
31E
330
1F
100
AcDbEntity
  8
0
  6
Continuous
 62
     8
370
    25
100
AcDbPolyline
 90
        7
 70
   128
 43
0.0
 10
22.2783031925
 20
18.5846865595
 10
22.2436477779
 20
18.5610850712
 10
22.215774676
 20
18.5358286537
 10
22.1959019511
 20
18.5100211113
 10
22.1848982987
 20
18.4847904257
 10
22.183244657
 20
18.4612392306
 10
22.1865268924
 20
18.4489738968
  0
LWPOLYLINE
  5
31F
330
1F
100
AcDbEntity
  8
0
  6
Continuous
 62
     8
370
    25
100
AcDbPolyline
 90
       11
 70
   128
 43
0.0
 10
22.6130945709
 20
18.5916945809
 10
22.6066515185
 20
18.606040719
 10
22.58980017
 20
18.623263481
 10
22.5646027912
 20
18.6361137131
 10
22.5321602629
 20
18.6440299851
 10
22.4938908469
 20
18.6466662291
 10
22.4514667878
 20
18.64390712
 10
22.4067424944
 20
18.6358733844
 10
22.3616723907
 20
18.6229160741
 10
22.3182263671
 20
18.6056015803
 10
22.2783031925
 20
18.5846865595
  0
ARC
  5
320
330
1F
100
AcDbEntity
  8
0
  6
Continuous
 62
     8
370
    25
100
AcDbCircle
 10
22.541904839
 20
18.0940099459
 30
0.0
 40
0.4123013187631845
100
AcDbArc
 50
90.7714273146
 51
126.2951267597
  0
SPLINE
  5
321
330
1F
100
AcDbEntity
  8
0
  6
Continuous
 62
     8
370
    25
100
AcDbSpline
210
0.0
220
0.0
230
1.0
 70
     8
 71
     3
 72
     9
 73
     5
 74
     0
 42
0.000000001
 43
0.00000001
 40
0.0
 40
0.0
 40
0.0
 40
0.0
 40
0.4841174729024404
 40
1.0
 40
1.0
 40
1.0
 40
1.0
 10
20.70687442748138
 20
18.32814635358545
 30
0.0
 10
20.70764404414768
 20
18.32901258780772
 30
0.0
 10
20.709233775379
 20
18.33080189364929
 30
0.0
 10
20.71425644827135
 20
18.33046443658441
 30
0.0
 10
20.71684755745584
 20
18.33029034838099
 30
0.0
  0
SPLINE
  5
322
330
1F
100
AcDbEntity
  8
0
  6
Continuous
 62
     8
370
    25
100
AcDbSpline
210
0.0
220
0.0
230
1.0
 70
     8
 71
     3
 72
    12
 73
     8
 74
     0
 42
0.000000001
 43
0.00000001
 40
0.0
 40
0.0
 40
0.0
 40
0.0
 40
0.184188901051057
 40
0.4659079596275948
 40
0.8147014891353975
 40
0.887730197200191
 40
1.0
 40
1.0
 40
1.0
 40
1.0
 10
20.85940506337739
 20
18.5030667083958
 30
0.0
 10
20.86209204957671
 20
18.50546384667865
 30
0.0
 10
20.86888881230524
 20
18.51152743574367
 30
0.0
 10
20.88102801946641
 20
18.51922019342315
 30
0.0
 10
20.89137158673089
 20
18.52447109819711
 30
0.0
 10
20.89889200161781
 20
18.52645825507924
 30
0.0
 10
20.9014746142591
 20
18.52670132175007
 30
0.0
 10
20.9030393835095
 20
18.52684859248136
 30
0.0
  0
SPLINE
  5
323
330
1F
100
AcDbEntity
  8
0
  6
Continuous
 62
     8
370
    25
100
AcDbSpline
210
0.0
220
0.0
230
1.0
 70
     8
 71
     3
 72
    11
 73
     7
 74
     0
 42
0.000000001
 43
0.00000001
 40
0.0
 40
0.0
 40
0.0
 40
0.0
 40
0.2179251501164576
 40
0.5342008208717989
 40
0.9614009592544643
 40
0.9999999999999999
 40
0.9999999999999999
 40
0.9999999999999999
 40
0.9999999999999999
 10
21.22974511887397
 20
18.79460757245641
 30
0.0
 10
21.22618613374681
 20
18.79487580541006
 30
0.0
 10
21.2174619788001
 20
18.7955333259576
 30
0.0
 10
21.20483325115762
 20
18.79086089615399
 30
0.0
 10
21.19522013838301
 20
18.78620341017777
 30
0.0
 10
21.19070153270033
 20
18.78193770886536
 30
0.0
 10
21.19032709269985
 20
18.78158422610682
 30
0.0
  0
SPLINE
  5
324
330
1F
100
AcDbEntity
  8
0
  6
Continuous
 62
     8
370
    25
100
AcDbSpline
210
0.0
220
0.0
230
1.0
 70
     8
 71
     3
 72
     9
 73
     5
 74
     0
 42
0.000000001
 43
0.00000001
 40
0.0
 40
0.0
 40
0.0
 40
0.0
 40
0.4734625956454612
 40
1.0
 40
1.0
 40
1.0
 40
1.0
 10
20.70788593902551
 20
18.32975675470521
 30
0.0
 10
20.70848542484159
 20
18.33036445405341
 30
0.0
 10
20.7097515983928
 20
18.33164797539972
 30
0.0
 10
20.71440000009118
 20
18.33075862475894
 30
0.0
 10
20.71684755745584
 20
18.33029034838099
 30
0.0
  0
SPLINE
  5
325
330
1F
100
AcDbEntity
  8
0
  6
Continuous
 62
     8
370
    25
100
AcDbSpline
210
0.0
220
0.0
230
1.0
 70
     8
 71
     3
 72
    10
 73
     6
 74
     0
 42
0.000000001
 43
0.00000001
 40
0.0
 40
0.0
 40
0.0
 40
0.0
 40
0.28622616675837
 40
0.7016106264999505
 40
1.0
 40
1.0
 40
1.0
 40
1.0
 10
21.56209827984066
 20
19.02869842521016
 30
0.0
 10
21.55951440930227
 20
19.02962754359954
 30
0.0
 10
21.55318070806255
 20
19.03190504094595
 30
0.0
 10
21.54605251142951
 20
19.03080636322353
 30
0.0
 10
21.5419517956749
 20
19.02840498381153
 30
0.0
 10
21.54023751315579
 20
19.02740109985711
 30
0.0
  0
SPLINE
  5
326
330
1F
100
AcDbEntity
  8
0
  6
Continuous
 62
     8
370
    25
100
AcDbSpline
210
0.0
220
0.0
230
1.0
 70
     8
 71
     3
 72
    10
 73
     6
 74
     0
 42
0.000000001
 43
0.00000001
 40
0.0
 40
0.0
 40
0.0
 40
0.0
 40
0.2862230606052397
 40
0.7016030125558153
 40
1.0
 40
1.0
 40
1.0
 40
1.0
 10
22.38847482390431
 20
19.52196867016636
 30
0.0
 10
22.38589095144224
 20
19.52289779182556
 30
0.0
 10
22.3795572454871
 20
19.5251752971871
 30
0.0
 10
22.37242901420034
 20
19.52407653495632
 30
0.0
 10
22.36832816034839
 20
19.52167524871674
 30
0.0
 10
22.36661378381445
 20
19.52067138246619
 30
0.0
  0
ENDSEC
  0
SECTION
  2
OBJECTS
  0
DICTIONARY
  5
C
330
0
100
AcDbDictionary
281
     1
  3
ACAD_GROUP
350
D
  3
ACAD_LAYOUT
350
1A
  3
ACAD_MLINESTYLE
350
17
  3
ACAD_PLOTSETTINGS
350
19
  3
ACAD_PLOTSTYLENAME
350
E
  3
ACAD_SCALELIST
350
47
  0
DICTIONARY
  5
D
102
{ACAD_REACTORS
330
C
102
}
330
C
100
AcDbDictionary
281
     1
  0
DICTIONARY
  5
1A
102
{ACAD_REACTORS
330
C
102
}
330
C
100
AcDbDictionary
281
     1
  3
Layout1
350
1E
  3
Layout2
350
26
  3
Model
350
22
  0
DICTIONARY
  5
17
102
{ACAD_REACTORS
330
C
102
}
330
C
100
AcDbDictionary
281
     1
  3
Standard
350
18
  0
DICTIONARY
  5
19
102
{ACAD_REACTORS
330
C
102
}
330
C
100
AcDbDictionary
281
     1
  0
ACDBDICTIONARYWDFLT
  5
E
102
{ACAD_REACTORS
330
C
102
}
330
C
100
AcDbDictionary
281
     1
  3
Normal
350
F
100
AcDbDictionaryWithDefault
340
F
  0
DICTIONARY
  5
47
102
{ACAD_REACTORS
330
C
102
}
330
C
100
AcDbDictionary
281
     1
  3
A0
350
48
  3
A1
350
49
  3
A2
350
4A
  3
A3
350
4B
  3
A4
350
4C
  3
A5
350
4D
  3
A6
350
4E
  3
A7
350
4F
  3
A8
350
50
  3
A9
350
51
  3
B0
350
52
  3
B1
350
53
  3
B2
350
54
  3
B3
350
55
  3
B4
350
56
  3
B5
350
57
  3
B6
350
58
  3
B7
350
59
  3
B8
350
5A
  3
B9
350
5B
  3
C0
350
5C
  3
C1
350
5D
  3
C2
350
5E
  3
C3
350
5F
  3
C4
350
60
  3
C5
350
61
  3
C6
350
62
  3
C7
350
63
  3
C8
350
64
  3
C9
350
65
  3
D0
350
66
  3
D1
350
67
  3
D2
350
68
  0
LAYOUT
  5
1E
102
{ACAD_REACTORS
330
1A
102
}
330
1A
100
AcDbPlotSettings
  1

  2
none_device
  4

  6

 40
0.0
 41
0.0
 42
0.0
 43
0.0
 44
0.0
 45
0.0
 46
0.0
 47
0.0
 48
0.0
 49
0.0
140
0.0
141
0.0
142
1.0
143
1.0
 70
   688
 72
     0
 73
     0
 74
     5
  7

 75
    16
147
1.0
148
0.0
149
0.0
100
AcDbLayout
  1
Layout1
 70
     1
 71
     1
 10
0.0
 20
0.0
 11
12.0
 21
9.0
 12
0.0
 22
0.0
 32
0.0
 14
1.0000000000E+20
 24
1.0000000000E+20
 34
1.0000000000E+20
 15
-1.0000000000E+20
 25
-1.0000000000E+20
 35
-1.0000000000E+20
146
0.0
 13
0.0
 23
0.0
 33
0.0
 16
1.0
 26
0.0
 36
0.0
 17
0.0
 27
1.0
 37
0.0
 76
     0
330
1B
  0
LAYOUT
  5
26
102
{ACAD_REACTORS
330
1A
102
}
330
1A
100
AcDbPlotSettings
  1

  2
none_device
  4

  6

 40
0.0
 41
0.0
 42
0.0
 43
0.0
 44
0.0
 45
0.0
 46
0.0
 47
0.0
 48
0.0
 49
0.0
140
0.0
141
0.0
142
1.0
143
1.0
 70
   688
 72
     0
 73
     0
 74
     5
  7

 75
    16
147
1.0
148
0.0
149
0.0
100
AcDbLayout
  1
Layout2
 70
     1
 71
     2
 10
0.0
 20
0.0
 11
0.0
 21
0.0
 12
0.0
 22
0.0
 32
0.0
 14
0.0
 24
0.0
 34
0.0
 15
0.0
 25
0.0
 35
0.0
146
0.0
 13
0.0
 23
0.0
 33
0.0
 16
1.0
 26
0.0
 36
0.0
 17
0.0
 27
1.0
 37
0.0
 76
     0
330
23
  0
LAYOUT
  5
22
102
{ACAD_REACTORS
330
1A
102
}
330
1A
100
AcDbPlotSettings
  1

  2
none_device
  4
Letter_(8.50_x_11.00_Inches)
  6

 40
6.35
 41
6.35
 42
6.35000508
 43
6.35000508
 44
215.9
 45
279.4
 46
0.0
 47
0.0
 48
0.0
 49
0.0
140
0.0
141
0.0
142
1.0
143
1.0
 70
  1712
 72
     0
 73
     0
 74
     0
  7

 75
     0
147
1.0
148
0.0
149
0.0
100
AcDbLayout
  1
Model
 70
     1
 71
     0
 10
0.0
 20
0.0
 11
30.0
 21
22.0
 12
0.0
 22
0.0
 32
0.0
 14
0.0
 24
0.0
 34
0.0
 15
30.0
 25
22.0
 35
0.0
146
0.0
 13
0.0
 23
0.0
 33
0.0
 16
1.0
 26
0.0
 36
0.0
 17
0.0
 27
1.0
 37
0.0
 76
     0
330
1F
331
29
  0
MLINESTYLE
  5
18
102
{ACAD_REACTORS
330
17
102
}
330
17
100
AcDbMlineStyle
  2
Standard
 70
     0
  3

 62
   256
 51
90.0
 52
90.0
 71
     2
 49
0.5
 62
   256
  6
BYLAYER
 49
-0.5
 62
   256
  6
BYLAYER
  0
ACDBPLACEHOLDER
  5
F
102
{ACAD_REACTORS
330
E
102
}
330
E
  0
SCALE
  5
48
102
{ACAD_REACTORS
330
47
102
}
330
47
100
AcDbScale
 70
     0
300
1:1
140
1.0
141
1.0
290
     1
  0
SCALE
  5
49
102
{ACAD_REACTORS
330
47
102
}
330
47
100
AcDbScale
 70
     0
300
1:2
140
1.0
141
2.0
290
     0
  0
SCALE
  5
4A
102
{ACAD_REACTORS
330
47
102
}
330
47
100
AcDbScale
 70
     0
300
1:4
140
1.0
141
4.0
290
     0
  0
SCALE
  5
4B
102
{ACAD_REACTORS
330
47
102
}
330
47
100
AcDbScale
 70
     0
300
1:5
140
1.0
141
5.0
290
     0
  0
SCALE
  5
4C
102
{ACAD_REACTORS
330
47
102
}
330
47
100
AcDbScale
 70
     0
300
1:8
140
1.0
141
8.0
290
     0
  0
SCALE
  5
4D
102
{ACAD_REACTORS
330
47
102
}
330
47
100
AcDbScale
 70
     0
300
1:10
140
1.0
141
10.0
290
     0
  0
SCALE
  5
4E
102
{ACAD_REACTORS
330
47
102
}
330
47
100
AcDbScale
 70
     0
300
1:16
140
1.0
141
16.0
290
     0
  0
SCALE
  5
4F
102
{ACAD_REACTORS
330
47
102
}
330
47
100
AcDbScale
 70
     0
300
1:20
140
1.0
141
20.0
290
     0
  0
SCALE
  5
50
102
{ACAD_REACTORS
330
47
102
}
330
47
100
AcDbScale
 70
     0
300
1:30
140
1.0
141
30.0
290
     0
  0
SCALE
  5
51
102
{ACAD_REACTORS
330
47
102
}
330
47
100
AcDbScale
 70
     0
300
1:40
140
1.0
141
40.0
290
     0
  0
SCALE
  5
52
102
{ACAD_REACTORS
330
47
102
}
330
47
100
AcDbScale
 70
     0
300
1:50
140
1.0
141
50.0
290
     0
  0
SCALE
  5
53
102
{ACAD_REACTORS
330
47
102
}
330
47
100
AcDbScale
 70
     0
300
1:100
140
1.0
141
100.0
290
     0
  0
SCALE
  5
54
102
{ACAD_REACTORS
330
47
102
}
330
47
100
AcDbScale
 70
     0
300
2:1
140
2.0
141
1.0
290
     0
  0
SCALE
  5
55
102
{ACAD_REACTORS
330
47
102
}
330
47
100
AcDbScale
 70
     0
300
4:1
140
4.0
141
1.0
290
     0
  0
SCALE
  5
56
102
{ACAD_REACTORS
330
47
102
}
330
47
100
AcDbScale
 70
     0
300
8:1
140
8.0
141
1.0
290
     0
  0
SCALE
  5
57
102
{ACAD_REACTORS
330
47
102
}
330
47
100
AcDbScale
 70
     0
300
10:1
140
10.0
141
1.0
290
     0
  0
SCALE
  5
58
102
{ACAD_REACTORS
330
47
102
}
330
47
100
AcDbScale
 70
     0
300
100:1
140
100.0
141
1.0
290
     0
  0
SCALE
  5
59
102
{ACAD_REACTORS
330
47
102
}
330
47
100
AcDbScale
 70
     0
300
1/128" = 1'-0"
140
0.0078125
141
12.0
290
     0
  0
SCALE
  5
5A
102
{ACAD_REACTORS
330
47
102
}
330
47
100
AcDbScale
 70
     0
300
1/64" = 1'-0"
140
0.015625
141
12.0
290
     0
  0
SCALE
  5
5B
102
{ACAD_REACTORS
330
47
102
}
330
47
100
AcDbScale
 70
     0
300
1/32" = 1'-0"
140
0.03125
141
12.0
290
     0
  0
SCALE
  5
5C
102
{ACAD_REACTORS
330
47
102
}
330
47
100
AcDbScale
 70
     0
300
1/16" = 1'-0"
140
0.0625
141
12.0
290
     0
  0
SCALE
  5
5D
102
{ACAD_REACTORS
330
47
102
}
330
47
100
AcDbScale
 70
     0
300
3/32" = 1'-0"
140
0.09375
141
12.0
290
     0
  0
SCALE
  5
5E
102
{ACAD_REACTORS
330
47
102
}
330
47
100
AcDbScale
 70
     0
300
1/8" = 1'-0"
140
0.125
141
12.0
290
     0
  0
SCALE
  5
5F
102
{ACAD_REACTORS
330
47
102
}
330
47
100
AcDbScale
 70
     0
300
3/16" = 1'-0"
140
0.1875
141
12.0
290
     0
  0
SCALE
  5
60
102
{ACAD_REACTORS
330
47
102
}
330
47
100
AcDbScale
 70
     0
300
1/4" = 1'-0"
140
0.25
141
12.0
290
     0
  0
SCALE
  5
61
102
{ACAD_REACTORS
330
47
102
}
330
47
100
AcDbScale
 70
     0
300
3/8" = 1'-0"
140
0.375
141
12.0
290
     0
  0
SCALE
  5
62
102
{ACAD_REACTORS
330
47
102
}
330
47
100
AcDbScale
 70
     0
300
1/2" = 1'-0"
140
0.5
141
12.0
290
     0
  0
SCALE
  5
63
102
{ACAD_REACTORS
330
47
102
}
330
47
100
AcDbScale
 70
     0
300
3/4" = 1'-0"
140
0.75
141
12.0
290
     0
  0
SCALE
  5
64
102
{ACAD_REACTORS
330
47
102
}
330
47
100
AcDbScale
 70
     0
300
1" = 1'-0"
140
1.0
141
12.0
290
     0
  0
SCALE
  5
65
102
{ACAD_REACTORS
330
47
102
}
330
47
100
AcDbScale
 70
     0
300
1-1/2" = 1'-0"
140
1.5
141
12.0
290
     0
  0
SCALE
  5
66
102
{ACAD_REACTORS
330
47
102
}
330
47
100
AcDbScale
 70
     0
300
3" = 1'-0"
140
3.0
141
12.0
290
     0
  0
SCALE
  5
67
102
{ACAD_REACTORS
330
47
102
}
330
47
100
AcDbScale
 70
     0
300
6" = 1'-0"
140
6.0
141
12.0
290
     0
  0
SCALE
  5
68
102
{ACAD_REACTORS
330
47
102
}
330
47
100
AcDbScale
 70
     0
300
1'-0" = 1'-0"
140
12.0
141
12.0
290
     0
  0
ENDSEC
  0
EOF
