  0
SECTION
  2
HEADER
  9
$ACADVER
  1
AC1015
  9
$ACADMAINTVER
 70
     6
  9
$DWGCODEPAGE
  3
ANSI_1252
  9
$INSBASE
 10
0.0
 20
0.0
 30
0.0
  9
$EXTMIN
 10
0.0
 20
0.0
 30
0.0
  9
$EXTMAX
 10
30.0
 20
22.0
 30
0.0
  9
$LIMMIN
 10
0.0
 20
0.0
  9
$LIMMAX
 10
30.0
 20
22.0
  9
$ORTHOMODE
 70
     0
  9
$REGENMODE
 70
     1
  9
$FILLMODE
 70
     1
  9
$QTEXTMODE
 70
     0
  9
$MIRRTEXT
 70
     1
  9
$LTSCALE
 40
1.0
  9
$ATTMODE
 70
     1
  9
$TEXTSIZE
 40
0.125
  9
$TRACEWID
 40
0.05
  9
$TEXTSTYLE
  7
Standard
  9
$CLAYER
  8
0
  9
$CELTYPE
  6
ByLayer
  9
$CECOLOR
 62
   256
  9
$CELTSCALE
 40
1.0
  9
$DISPSILH
 70
     0
  9
$DIMSCALE
 40
1.0
  9
$DIMASZ
 40
0.13
  9
$DIMEXO
 40
0.05
  9
$DIMDLI
 40
0.38
  9
$DIMRND
 40
0.0
  9
$DIMDLE
 40
0.0
  9
$DIMEXE
 40
0.125
  9
$DIMTP
 40
0.0
  9
$DIMTM
 40
0.0
  9
$DIMTXT
 40
0.1377952756
  9
$DIMCEN
 40
0.09
  9
$DIMTSZ
 40
0.0
  9
$DIMTOL
 70
     0
  9
$DIMLIM
 70
     0
  9
$DIMTIH
 70
     1
  9
$DIMTOH
 70
     1
  9
$DIMSE1
 70
     0
  9
$DIMSE2
 70
     0
  9
$DIMTAD
 70
     1
  9
$DIMZIN
 70
     1
  9
$DIMBLK
  1

  9
$DIMASO
 70
     1
  9
$DIMSHO
 70
     1
  9
$DIMPOST
  1

  9
$DIMAPOST
  1

  9
$DIMALT
 70
     0
  9
$DIMALTD
 70
     2
  9
$DIMALTF
 40
25.4
  9
$DIMLFAC
 40
0.5
  9
$DIMTOFL
 70
     0
  9
$DIMTVP
 40
0.0
  9
$DIMTIX
 70
     0
  9
$DIMSOXD
 70
     0
  9
$DIMSAH
 70
     0
  9
$DIMBLK1
  1

  9
$DIMBLK2
  1

  9
$DIMSTYLE
  2
Standard
  9
$DIMCLRD
 70
     0
  9
$DIMCLRE
 70
     0
  9
$DIMCLRT
 70
     0
  9
$DIMTFAC
 40
1.0
  9
$DIMGAP
 40
0.06
  9
$DIMJUST
 70
     0
  9
$DIMSD1
 70
     0
  9
$DIMSD2
 70
     0
  9
$DIMTOLJ
 70
     1
  9
$DIMTZIN
 70
     1
  9
$DIMALTZ
 70
     0
  9
$DIMALTTZ
 70
     0
  9
$DIMUPT
 70
     0
  9
$DIMDEC
 70
     2
  9
$DIMTDEC
 70
     2
  9
$DIMALTU
 70
     2
  9
$DIMALTTD
 70
     2
  9
$DIMTXSTY
  7
Standard
  9
$DIMAUNIT
 70
     0
  9
$DIMADEC
 70
     2
  9
$DIMALTRND
 40
0.0
  9
$DIMAZIN
 70
     0
  9
$DIMDSEP
 70
    46
  9
$DIMATFIT
 70
     3
  9
$DIMFRAC
 70
     0
  9
$DIMLDRBLK
  1

  9
$DIMLUNIT
 70
     2
  9
$DIMLWD
 70
    -2
  9
$DIMLWE
 70
    -2
  9
$DIMTMOVE
 70
     0
  9
$LUNITS
 70
     2
  9
$LUPREC
 70
     3
  9
$SKETCHINC
 40
0.1
  9
$FILLETRAD
 40
0.5
  9
$AUNITS
 70
     0
  9
$AUPREC
 70
     2
  9
$MENU
  1
.
  9
$ELEVATION
 40
0.0
  9
$PELEVATION
 40
0.0
  9
$THICKNESS
 40
0.0
  9
$LIMCHECK
 70
     0
  9
$CHAMFERA
 40
0.0
  9
$CHAMFERB
 40
0.0
  9
$CHAMFERC
 40
0.0
  9
$CHAMFERD
 40
0.0
  9
$SKPOLY
 70
     0
  9
$TDCREATE
 40
2459269.372259167
  9
$TDUCREATE
 40
2459269.5805925
  9
$TDUPDATE
 40
2459269.372260775
  9
$TDUUPDATE
 40
2459269.580594109
  9
$TDINDWG
 40
0.0000000116
  9
$TDUSRTIMER
 40
0.0000000116
  9
$USRTIMER
 70
     1
  9
$ANGBASE
 50
0.0
  9
$ANGDIR
 70
     0
  9
$PDMODE
 70
     0
  9
$PDSIZE
 40
-1.0
  9
$PLINEWID
 40
0.0
  9
$SPLFRAME
 70
     0
  9
$SPLINETYPE
 70
     6
  9
$SPLINESEGS
 70
     8
  9
$HANDSEED
  5
312
  9
$SURFTAB1
 70
     6
  9
$SURFTAB2
 70
     6
  9
$SURFTYPE
 70
     6
  9
$SURFU
 70
     6
  9
$SURFV
 70
     6
  9
$UCSBASE
  2

  9
$UCSNAME
  2

  9
$UCSORG
 10
0.0
 20
0.0
 30
0.0
  9
$UCSXDIR
 10
1.0
 20
0.0
 30
0.0
  9
$UCSYDIR
 10
0.0
 20
1.0
 30
0.0
  9
$UCSORTHOREF
  2

  9
$UCSORTHOVIEW
 70
     0
  9
$UCSORGTOP
 10
0.0
 20
0.0
 30
0.0
  9
$UCSORGBOTTOM
 10
0.0
 20
0.0
 30
0.0
  9
$UCSORGLEFT
 10
0.0
 20
0.0
 30
0.0
  9
$UCSORGRIGHT
 10
0.0
 20
0.0
 30
0.0
  9
$UCSORGFRONT
 10
0.0
 20
0.0
 30
0.0
  9
$UCSORGBACK
 10
0.0
 20
0.0
 30
0.0
  9
$PUCSBASE
  2

  9
$PUCSNAME
  2

  9
$PUCSORG
 10
0.0
 20
0.0
 30
0.0
  9
$PUCSXDIR
 10
1.0
 20
0.0
 30
0.0
  9
$PUCSYDIR
 10
0.0
 20
1.0
 30
0.0
  9
$PUCSORTHOREF
  2

  9
$PUCSORTHOVIEW
 70
     0
  9
$PUCSORGTOP
 10
0.0
 20
0.0
 30
0.0
  9
$PUCSORGBOTTOM
 10
0.0
 20
0.0
 30
0.0
  9
$PUCSORGLEFT
 10
0.0
 20
0.0
 30
0.0
  9
$PUCSORGRIGHT
 10
0.0
 20
0.0
 30
0.0
  9
$PUCSORGFRONT
 10
0.0
 20
0.0
 30
0.0
  9
$PUCSORGBACK
 10
0.0
 20
0.0
 30
0.0
  9
$USERI1
 70
     0
  9
$USERI2
 70
     0
  9
$USERI3
 70
     0
  9
$USERI4
 70
     0
  9
$USERI5
 70
     0
  9
$USERR1
 40
0.0
  9
$USERR2
 40
0.0
  9
$USERR3
 40
0.0
  9
$USERR4
 40
0.0
  9
$USERR5
 40
0.0
  9
$WORLDVIEW
 70
     1
  9
$SHADEDGE
 70
     3
  9
$SHADEDIF
 70
    70
  9
$TILEMODE
 70
     1
  9
$MAXACTVP
 70
    64
  9
$PINSBASE
 10
0.0
 20
0.0
 30
0.0
  9
$PLIMCHECK
 70
     0
  9
$PEXTMIN
 10
1.0000000000E+20
 20
1.0000000000E+20
 30
1.0000000000E+20
  9
$PEXTMAX
 10
-1.0000000000E+20
 20
-1.0000000000E+20
 30
-1.0000000000E+20
  9
$PLIMMIN
 10
0.0
 20
0.0
  9
$PLIMMAX
 10
12.0
 20
9.0
  9
$UNITMODE
 70
     0
  9
$VISRETAIN
 70
     1
  9
$PLINEGEN
 70
     0
  9
$PSLTSCALE
 70
     1
  9
$TREEDEPTH
 70
  3020
  9
$CMLSTYLE
  2
Standard
  9
$CMLJUST
 70
     0
  9
$CMLSCALE
 40
1.0
  9
$PROXYGRAPHICS
 70
     1
  9
$MEASUREMENT
 70
     0
  9
$CELWEIGHT
370
    -1
  9
$ENDCAPS
280
     0
  9
$JOINSTYLE
280
     0
  9
$LWDISPLAY
290
     1
  9
$INSUNITS
 70
     1
  9
$HYPERLINKBASE
  1

  9
$STYLESHEET
  1

  9
$XEDIT
290
     1
  9
$CEPSNTYPE
380
     0
  9
$PSTYLEMODE
290
     1
  9
$FINGERPRINTGUID
  2
{443e916d-5394-4056-b696-521e59086060}
  9
$VERSIONGUID
  2
{FAEB1C32-E019-11D5-929B-00C0DF256EC4}
  9
$EXTNAMES
290
     1
  9
$PSVPSCALE
 40
0.0
  9
$OLESTARTUP
290
     0
  0
ENDSEC
  0
SECTION
  2
CLASSES
  0
CLASS
  1
ACDBDICTIONARYWDFLT
  2
AcDbDictionaryWithDefault
  3
ObjectDBX Classes
 90
        0
280
     0
281
     0
  0
CLASS
  1
VISUALSTYLE
  2
AcDbVisualStyle
  3
ObjectDBX Classes
 90
     4095
280
     0
281
     0
  0
CLASS
  1
MATERIAL
  2
AcDbMaterial
  3
ObjectDBX Classes
 90
     1153
280
     0
281
     0
  0
CLASS
  1
SCALE
  2
AcDbScale
  3
ObjectDBX Classes
 90
     1153
280
     0
281
     0
  0
CLASS
  1
TABLESTYLE
  2
AcDbTableStyle
  3
ObjectDBX Classes
 90
     4095
280
     0
281
     0
  0
CLASS
  1
MLEADERSTYLE
  2
AcDbMLeaderStyle
  3
ACDB_MLEADERSTYLE_CLASS
 90
     4095
280
     0
281
     0
  0
CLASS
  1
SUN
  2
AcDbSun
  3
SCENEOE
 90
     1153
280
     0
281
     0
  0
CLASS
  1
ACDBPLACEHOLDER
  2
AcDbPlaceHolder
  3
ObjectDBX Classes
 90
        0
280
     0
281
     0
  0
CLASS
  1
LAYOUT
  2
AcDbLayout
  3
ObjectDBX Classes
 90
        0
280
     0
281
     0
  0
ENDSEC
  0
SECTION
  2
TABLES
  0
TABLE
  2
VPORT
  5
8
330
0
100
AcDbSymbolTable
 70
     1
  0
VPORT
  5
29
330
8
100
AcDbSymbolTableRecord
100
AcDbViewportTableRecord
  2
*Active
 70
     0
 10
0.0
 20
0.0
 11
1.0
 21
1.0
 12
15.0
 22
11.0
 13
0.0
 23
0.0
 14
0.5
 24
0.5
 15
0.5
 25
0.5
 16
0.0
 26
0.0
 36
1.0
 17
0.0
 27
0.0
 37
0.0
 40
22.0
 41
1.3636363636
 42
50.0
 43
0.0
 44
0.0
 50
0.0
 51
0.0
 71
     0
 72
  2000
 73
     1
 74
     3
 75
     0
 76
     0
 77
     0
 78
     0
281
     0
 65
     1
110
0.0
120
0.0
130
0.0
111
1.0
121
0.0
131
0.0
112
0.0
122
1.0
132
0.0
 79
     0
146
0.0
  0
ENDTAB
  0
TABLE
  2
LTYPE
  5
5
330
0
100
AcDbSymbolTable
 70
     6
  0
LTYPE
  5
14
330
5
100
AcDbSymbolTableRecord
100
AcDbLinetypeTableRecord
  2
ByBlock
 70
     0
  3

 72
    65
 73
     0
 40
0.0
  0
LTYPE
  5
15
330
5
100
AcDbSymbolTableRecord
100
AcDbLinetypeTableRecord
  2
ByLayer
 70
     0
  3

 72
    65
 73
     0
 40
0.0
  0
LTYPE
  5
16
330
5
100
AcDbSymbolTableRecord
100
AcDbLinetypeTableRecord
  2
Continuous
 70
     0
  3
Solid line
 72
    65
 73
     0
 40
0.0
  0
LTYPE
  5
6E
330
5
100
AcDbSymbolTableRecord
100
AcDbLinetypeTableRecord
  2
HIDDEN
 70
     0
  3
Hidden __ __ __ __ __ __ __ __ __ __ __ __ __ __
 72
    65
 73
     2
 40
0.075
 49
0.05
 74
     0
 49
-0.025
 74
     0
  0
LTYPE
  5
6F
330
5
100
AcDbSymbolTableRecord
100
AcDbLinetypeTableRecord
  2
PHANTOM
 70
     0
  3
Phantom ______  __  __  ______  __  __  ______
 72
    65
 73
     6
 40
0.5
 49
0.25
 74
     0
 49
-0.05
 74
     0
 49
0.05
 74
     0
 49
-0.05
 74
     0
 49
0.05
 74
     0
 49
-0.05
 74
     0
  0
LTYPE
  5
70
330
5
100
AcDbSymbolTableRecord
100
AcDbLinetypeTableRecord
  2
CENTER
 70
     0
  3
Center ____ _ ____ _ ____ _ ____ _ ____ _ ____
 72
    65
 73
     4
 40
0.4
 49
0.25
 74
     0
 49
-0.05
 74
     0
 49
0.05
 74
     0
 49
-0.05
 74
     0
  0
LTYPE
  5
71
330
5
100
AcDbSymbolTableRecord
100
AcDbLinetypeTableRecord
  2
CENTERX2
 70
     0
  3
Center (2x) ________  __  ________  __  _____
 72
    65
 73
     4
 40
0.8
 49
0.5
 74
     0
 49
-0.1
 74
     0
 49
0.1
 74
     0
 49
-0.1
 74
     0
  0
LTYPE
  5
72
330
5
100
AcDbSymbolTableRecord
100
AcDbLinetypeTableRecord
  2
DOT2
 70
     0
  3
Dot (.5x) ........................................
 72
    65
 73
     2
 40
0.025
 49
0.0
 74
     0
 49
-0.025
 74
     0
  0
ENDTAB
  0
TABLE
  2
LAYER
  5
2
330
0
100
AcDbSymbolTable
 70
     1
  0
LAYER
  5
10
330
2
100
AcDbSymbolTableRecord
100
AcDbLayerTableRecord
  2
0
 70
     0
 62
     7
  6
Continuous
370
    -3
390
F
  0
ENDTAB
  0
TABLE
  2
STYLE
  5
3
330
0
100
AcDbSymbolTable
 70
     4
  0
STYLE
  5
11
330
3
100
AcDbSymbolTableRecord
100
AcDbTextStyleTableRecord
  2
Standard
 70
     0
 40
0.0
 41
1.0
 50
0.0
 71
     0
 42
0.125
  3
txt
  4

  0
STYLE
  5
A6
330
3
100
AcDbSymbolTableRecord
100
AcDbTextStyleTableRecord
  2
SLDTEXTSTYLE0
 70
     0
 40
0.0
 41
0.75
 50
0.0
 71
     0
 42
0.125
  3
TXT
  4

  0
STYLE
  5
AA
330
3
100
AcDbSymbolTableRecord
100
AcDbTextStyleTableRecord
  2
SLDTEXTSTYLE1
 70
     0
 40
0.0
 41
0.6833333333
 50
0.0
 71
     0
 42
0.125
  3
TXT
  4

  0
STYLE
  5
1C9
330
3
100
AcDbSymbolTableRecord
100
AcDbTextStyleTableRecord
  2
SLDTEXTSTYLE2
 70
     0
 40
0.0
 41
0.6666666667
 50
0.0
 71
     0
 42
0.125
  3
TXT
  4

  0
ENDTAB
  0
TABLE
  2
VIEW
  5
6
330
0
100
AcDbSymbolTable
 70
     0
  0
ENDTAB
  0
TABLE
  2
UCS
  5
7
330
0
100
AcDbSymbolTable
 70
     0
  0
ENDTAB
  0
TABLE
  2
APPID
  5
9
330
0
100
AcDbSymbolTable
 70
     1
  0
APPID
  5
12
330
9
100
AcDbSymbolTableRecord
100
AcDbRegAppTableRecord
  2
ACAD
 70
     0
  0
ENDTAB
  0
TABLE
  2
DIMSTYLE
  5
A
330
0
100
AcDbSymbolTable
 70
     3
100
AcDbDimStyleTable
  0
DIMSTYLE
105
27
330
A
100
AcDbSymbolTableRecord
100
AcDbDimStyleTableRecord
  2
Standard
 70
     0
178
     0
340
11
  0
DIMSTYLE
105
166
102
{ACAD_REACTORS
330
165
330
18F
330
1A3
102
}
330
A
100
AcDbSymbolTableRecord
100
AcDbDimStyleTableRecord
  2
SLDDIMSTYLE0
 70
     0
 41
0.13
 44
0.0
 45
0.000000001
 78
    12
 79
     3
140
0.125
147
0.03125
148
0.000000001
170
     1
173
     1
178
     0
271
     2
272
     2
276
     2
284
    12
340
A6
  0
DIMSTYLE
105
17B
102
{ACAD_REACTORS
330
17A
330
1B7
330
251
102
}
330
A
100
AcDbSymbolTableRecord
100
AcDbDimStyleTableRecord
  2
SLDDIMSTYLE1
 70
     0
 41
0.13
 44
0.0
 45
0.000000001
 78
     4
 79
     1
140
0.125
147
0.03125
148
0.000000001
170
     1
173
     1
178
     0
271
     2
272
     2
276
     2
284
    12
340
A6
  0
ENDTAB
  0
TABLE
  2
BLOCK_RECORD
  5
1
330
0
100
AcDbSymbolTable
 70
    14
  0
BLOCK_RECORD
  5
1F
330
1
100
AcDbSymbolTableRecord
100
AcDbBlockTableRecord
  2
*Model_Space
340
22
  0
BLOCK_RECORD
  5
1B
330
1
100
AcDbSymbolTableRecord
100
AcDbBlockTableRecord
  2
*Paper_Space
340
1E
  0
BLOCK_RECORD
  5
23
330
1
100
AcDbSymbolTableRecord
100
AcDbBlockTableRecord
  2
*Paper_Space0
340
26
  0
BLOCK_RECORD
  5
A3
330
1
100
AcDbSymbolTableRecord
100
AcDbBlockTableRecord
  2
SW_NOTE_0
340
0
102
{BLKREFS
331
B1
102
}
  0
BLOCK_RECORD
  5
B2
330
1
100
AcDbSymbolTableRecord
100
AcDbBlockTableRecord
  2
SW_NOTE_0_1
340
0
102
{BLKREFS
331
B9
102
}
  0
BLOCK_RECORD
  5
BA
330
1
100
AcDbSymbolTableRecord
100
AcDbBlockTableRecord
  2
SW_NOTE_0_2
340
0
102
{BLKREFS
331
BF
102
}
  0
BLOCK_RECORD
  5
C0
330
1
100
AcDbSymbolTableRecord
100
AcDbBlockTableRecord
  2
SW_NOTE_0_3
340
0
102
{BLKREFS
331
C5
102
}
  0
BLOCK_RECORD
  5
C6
330
1
100
AcDbSymbolTableRecord
100
AcDbBlockTableRecord
  2
SW_NOTE_0_4
340
0
102
{BLKREFS
331
CB
102
}
  0
BLOCK_RECORD
  5
167
330
1
100
AcDbSymbolTableRecord
100
AcDbBlockTableRecord
  2
_D
340
0
  0
BLOCK_RECORD
  5
17C
330
1
100
AcDbSymbolTableRecord
100
AcDbBlockTableRecord
  2
_D_1
340
0
  0
BLOCK_RECORD
  5
190
330
1
100
AcDbSymbolTableRecord
100
AcDbBlockTableRecord
  2
_D_2
340
0
  0
BLOCK_RECORD
  5
1A4
330
1
100
AcDbSymbolTableRecord
100
AcDbBlockTableRecord
  2
_D_3
340
0
  0
BLOCK_RECORD
  5
1B8
330
1
100
AcDbSymbolTableRecord
100
AcDbBlockTableRecord
  2
_D_4
340
0
  0
BLOCK_RECORD
  5
1CB
330
1
100
AcDbSymbolTableRecord
100
AcDbBlockTableRecord
  2
SW_CENTERMARKSYMBOL_0
340
0
102
{BLKREFS
331
1D6
102
}
  0
BLOCK_RECORD
  5
1D7
330
1
100
AcDbSymbolTableRecord
100
AcDbBlockTableRecord
  2
SW_CENTERMARKSYMBOL_1
340
0
102
{BLKREFS
331
1E2
102
}
  0
BLOCK_RECORD
  5
252
330
1
100
AcDbSymbolTableRecord
100
AcDbBlockTableRecord
  2
_D_5
340
0
  0
ENDTAB
  0
ENDSEC
  0
SECTION
  2
BLOCKS
  0
BLOCK
  5
20
330
1F
100
AcDbEntity
  8
0
100
AcDbBlockBegin
  2
*Model_Space
 70
     0
 10
0.0
 20
0.0
 30
0.0
  3
*Model_Space
  1

  0
ENDBLK
  5
21
330
1F
100
AcDbEntity
  8
0
100
AcDbBlockEnd
  0
BLOCK
  5
1C
330
1B
100
AcDbEntity
 67
     1
  8
0
100
AcDbBlockBegin
  2
*Paper_Space
 70
     0
 10
0.0
 20
0.0
 30
0.0
  3
*Paper_Space
  1

  0
ENDBLK
  5
1D
330
1B
100
AcDbEntity
 67
     1
  8
0
100
AcDbBlockEnd
  0
BLOCK
  5
24
330
23
100
AcDbEntity
  8
0
100
AcDbBlockBegin
  2
*Paper_Space0
 70
     0
 10
0.0
 20
0.0
 30
0.0
  3
*Paper_Space0
  1

  0
ENDBLK
  5
25
330
23
100
AcDbEntity
  8
0
100
AcDbBlockEnd
  0
BLOCK
  5
A4
330
A3
100
AcDbEntity
  8
0
100
AcDbBlockBegin
  2
SW_NOTE_0
 70
     0
 10
0.0
 20
0.0
 30
0.0
  3
SW_NOTE_0
  1

  0
MTEXT
  5
A7
330
A3
100
AcDbEntity
  8
0
  6
Continuous
 62
     0
370
     0
100
AcDbMText
 10
0.0
 20
0.3222669349
 30
0.0
 40
0.25
 41
0.0
 71
     1
 72
     1
  1
NOTES:
  7
SLDTEXTSTYLE0
 73
     1
 44
1.0
  0
MTEXT
  5
A8
330
A3
100
AcDbEntity
  8
0
  6
Continuous
 62
     0
370
     0
100
AcDbMText
 10
0.3937007786
 20
-0.4231398941
 30
0.0
 40
0.25
 41
0.0
 71
     1
 72
     1
  1
MATERIAL: POLYCARBONATE.
  7
SLDTEXTSTYLE0
 73
     1
 44
1.0
  0
MTEXT
  5
A9
330
A3
100
AcDbEntity
  8
0
  6
Continuous
 62
     0
370
     0
100
AcDbMText
 10
0.0
 20
-0.4231398941
 30
0.0
 40
0.25
 41
0.0
 71
     1
 72
     1
  1
1.
  7
SLDTEXTSTYLE0
 73
     1
 44
1.0
  0
MTEXT
  5
AB
330
A3
100
AcDbEntity
  8
0
  6
Continuous
 62
     0
370
     0
100
AcDbMText
 10
0.4874507786
 20
-1.1685467231
 30
0.0
 40
0.25
 41
0.0
 71
     1
 72
     1
  1
QTY PER KIT - 2
  7
SLDTEXTSTYLE1
 73
     1
 44
1.0
  0
MTEXT
  5
AC
330
A3
100
AcDbEntity
  8
0
  6
Continuous
 62
     0
370
     0
100
AcDbMText
 10
0.0
 20
-1.1685467231
 30
0.0
 40
0.25
 41
0.0
 71
     1
 72
     1
  1
2.
  7
SLDTEXTSTYLE0
 73
     1
 44
1.0
  0
MTEXT
  5
AD
330
A3
100
AcDbEntity
  8
0
  6
Continuous
 62
     0
370
     0
100
AcDbMText
 10
0.3937007786
 20
-1.913953552
 30
0.0
 40
0.25
 41
0.0
 71
     1
 72
     1
  1
FITS: DPH-28710, DPS-28710, DPH-28711, DPS-28711, DPH-28709 & DPS-28709
  7
SLDTEXTSTYLE0
 73
     1
 44
1.0
  0
MTEXT
  5
AE
330
A3
100
AcDbEntity
  8
0
  6
Continuous
 62
     0
370
     0
100
AcDbMText
 10
0.0
 20
-1.913953552
 30
0.0
 40
0.25
 41
0.0
 71
     1
 72
     1
  1
3.
  7
SLDTEXTSTYLE0
 73
     1
 44
1.0
  0
MTEXT
  5
AF
330
A3
100
AcDbEntity
  8
0
  6
Continuous
 62
     0
370
     0
100
AcDbMText
 10
0.3937007786
 20
-2.659360381
 30
0.0
 40
0.25
 41
0.0
 71
     1
 72
     1
  1
SUPPLIED WITH DPX-103275X (X 4#10-32 X 3/4" LONG, PAN HEAD, EACH PHILLIPS, SS FOR DPH/S SERIES)
  7
SLDTEXTSTYLE0
 73
     1
 44
1.0
  0
MTEXT
  5
B0
330
A3
100
AcDbEntity
  8
0
  6
Continuous
 62
     0
370
     0
100
AcDbMText
 10
0.0
 20
-2.659360381
 30
0.0
 40
0.25
 41
0.0
 71
     1
 72
     1
  1
4.
  7
SLDTEXTSTYLE0
 73
     1
 44
1.0
  0
ENDBLK
  5
A5
330
A3
100
AcDbEntity
  8
0
100
AcDbBlockEnd
  0
BLOCK
  5
B3
330
B2
100
AcDbEntity
  8
0
100
AcDbBlockBegin
  2
SW_NOTE_0_1
 70
     0
 10
0.0
 20
0.0
 30
0.0
  3
SW_NOTE_0_1
  1

  0
MTEXT
  5
B5
330
B2
100
AcDbEntity
  8
0
  6
Continuous
 62
     0
370
     0
100
AcDbMText
 10
1.7024739583
 20
0.2685557791
 30
0.0
 40
0.2083333333
 41
0.0
 71
     2
 72
     1
  1
DRAWING FOR REFERENCE
  7
SLDTEXTSTYLE0
 73
     1
 44
1.0
  0
MTEXT
  5
B6
330
B2
100
AcDbEntity
  8
0
  6
Continuous
 62
     0
370
     0
100
AcDbMText
 10
1.6945168489
 20
-0.0485920805
 30
0.0
 40
0.2083333333
 41
0.0
 71
     2
 72
     1
  1
WE RESERVE THE RIGHT TO MAKE CHANGES TO OUR
  7
SLDTEXTSTYLE0
 73
     1
 44
1.0
  0
MTEXT
  5
B7
330
B2
100
AcDbEntity
  8
0
  6
Continuous
 62
     0
370
     0
100
AcDbMText
 10
1.6763360126
 20
-0.3657399401
 30
0.0
 40
0.2083333333
 41
0.0
 71
     2
 72
     1
  1
STANDARD PRODUCTS. PLEASE CONSULT WITH BUD INDUSTRIES
  7
SLDTEXTSTYLE0
 73
     1
 44
1.0
  0
MTEXT
  5
B8
330
B2
100
AcDbEntity
  8
0
  6
Continuous
 62
     0
370
     0
100
AcDbMText
 10
1.7117817199
 20
-0.6828877997
 30
0.0
 40
0.2083333333
 41
0.0
 71
     2
 72
     1
  1
PRIOR TO USING THIS DRAWING FOR DESIGN PURPOSE.
  7
SLDTEXTSTYLE0
 73
     1
 44
1.0
  0
ENDBLK
  5
B4
330
B2
100
AcDbEntity
  8
0
100
AcDbBlockEnd
  0
BLOCK
  5
BB
330
BA
100
AcDbEntity
  8
0
100
AcDbBlockBegin
  2
SW_NOTE_0_2
 70
     0
 10
0.0
 20
0.0
 30
0.0
  3
SW_NOTE_0_2
  1

  0
MTEXT
  5
BD
330
BA
100
AcDbEntity
  8
0
  6
Continuous
 62
     0
370
     0
100
AcDbMText
 10
0.189453125
 20
0.1611334675
 30
0.0
 40
0.125
 41
0.0
 71
     2
 72
     1
  1
PART
  7
SLDTEXTSTYLE0
 73
     1
 44
1.0
  0
MTEXT
  5
BE
330
BA
100
AcDbEntity
  8
0
  6
Continuous
 62
     0
370
     0
100
AcDbMText
 10
0.18777127
 20
-0.003236607
 30
0.0
 40
0.125
 41
0.0
 71
     2
 72
     1
  1
NAME
  7
SLDTEXTSTYLE0
 73
     1
 44
1.0
  0
ENDBLK
  5
BC
330
BA
100
AcDbEntity
  8
0
100
AcDbBlockEnd
  0
BLOCK
  5
C1
330
C0
100
AcDbEntity
  8
0
100
AcDbBlockBegin
  2
SW_NOTE_0_3
 70
     0
 10
0.0
 20
0.0
 30
0.0
  3
SW_NOTE_0_3
  1

  0
MTEXT
  5
C3
330
C0
100
AcDbEntity
  8
0
  6
Continuous
 62
     0
370
     0
100
AcDbMText
 10
0.189453125
 20
0.1611334675
 30
0.0
 40
0.125
 41
0.0
 71
     2
 72
     1
  1
PART
  7
SLDTEXTSTYLE0
 73
     1
 44
1.0
  0
MTEXT
  5
C4
330
C0
100
AcDbEntity
  8
0
  6
Continuous
 62
     0
370
     0
100
AcDbMText
 10
0.1950954881
 20
-0.003236607
 30
0.0
 40
0.125
 41
0.0
 71
     2
 72
     1
  1
No.
  7
SLDTEXTSTYLE0
 73
     1
 44
1.0
  0
ENDBLK
  5
C2
330
C0
100
AcDbEntity
  8
0
100
AcDbBlockEnd
  0
BLOCK
  5
C7
330
C6
100
AcDbEntity
  8
0
100
AcDbBlockBegin
  2
SW_NOTE_0_4
 70
     0
 10
0.0
 20
0.0
 30
0.0
  3
SW_NOTE_0_4
  1

  0
MTEXT
  5
C9
330
C6
100
AcDbEntity
  8
0
  6
Continuous
 62
     0
370
     0
100
AcDbMText
 10
0.3671875
 20
0.1611334675
 30
0.0
 40
0.125
 41
0.0
 71
     2
 72
     1
  1
REVISION
  7
SLDTEXTSTYLE0
 73
     1
 44
1.0
  0
MTEXT
  5
CA
330
C6
100
AcDbEntity
  8
0
  6
Continuous
 62
     0
370
     0
100
AcDbMText
 10
0.3534939236
 20
-0.003236607
 30
0.0
 40
0.125
 41
0.0
 71
     2
 72
     1
  1
DATE
  7
SLDTEXTSTYLE0
 73
     1
 44
1.0
  0
ENDBLK
  5
C8
330
C6
100
AcDbEntity
  8
0
100
AcDbBlockEnd
  0
BLOCK
  5
168
330
167
100
AcDbEntity
  8
0
100
AcDbBlockBegin
  2
_D
 70
     0
 10
0.0
 20
0.0
 30
0.0
  3
_D
  1

  0
SOLID
  5
16A
330
167
100
AcDbEntity
  8
0
  6
Continuous
 62
     7
370
    18
100
AcDbTrace
 10
18.3165042036
 20
13.6733840137
 30
0.0
 11
18.2965042036
 21
13.5433840137
 31
0.0
 12
18.3365042036
 22
13.5433840137
 32
0.0
 13
18.3365042036
 23
13.5433840137
 33
0.0
  0
SOLID
  5
16B
330
167
100
AcDbEntity
  8
0
  6
Continuous
 62
     7
370
    18
100
AcDbTrace
 10
18.3165042036
 20
5.9233840137
 30
0.0
 11
18.3365042036
 21
6.0533840137
 31
0.0
 12
18.2965042036
 22
6.0533840137
 32
0.0
 13
18.2965042036
 23
6.0533840137
 33
0.0
  0
LINE
  5
16C
330
167
100
AcDbEntity
  8
0
  6
Continuous
 62
     7
370
     0
100
AcDbLine
 10
18.1086917076
 20
9.7974291331
 30
0.0
 11
18.0706057705
 21
9.7974291331
 31
0.0
  0
LINE
  5
16D
330
167
100
AcDbEntity
  8
0
  6
Continuous
 62
     7
370
     0
100
AcDbLine
 10
18.0706057705
 20
9.7974291331
 30
0.0
 11
18.0706057705
 21
9.5989916271
 31
0.0
  0
LINE
  5
16E
330
167
100
AcDbEntity
  8
0
  6
Continuous
 62
     7
370
     0
100
AcDbLine
 10
18.0706057705
 20
9.5989916271
 30
0.0
 11
18.1086917076
 21
9.5989916271
 31
0.0
  0
LINE
  5
16F
330
167
100
AcDbEntity
  8
0
  6
Continuous
 62
     7
370
     0
100
AcDbLine
 10
18.5243166996
 20
9.7974291331
 30
0.0
 11
18.5624026367
 21
9.7974291331
 31
0.0
  0
LINE
  5
170
330
167
100
AcDbEntity
  8
0
  6
Continuous
 62
     7
370
     0
100
AcDbLine
 10
18.5624026367
 20
9.7974291331
 30
0.0
 11
18.5624026367
 21
9.5989916271
 31
0.0
  0
LINE
  5
171
330
167
100
AcDbEntity
  8
0
  6
Continuous
 62
     7
370
     0
100
AcDbLine
 10
18.5624026367
 20
9.5989916271
 30
0.0
 11
18.5243166996
 21
9.5989916271
 31
0.0
  0
LINE
  5
172
330
167
100
AcDbEntity
  8
0
  6
Continuous
 62
     7
370
     0
100
AcDbLine
 10
16.2054795973
 20
13.6733840137
 30
0.0
 11
18.4415042036
 21
13.6733840137
 31
0.0
  0
LINE
  5
173
330
167
100
AcDbEntity
  8
0
  6
Continuous
 62
     7
370
     0
100
AcDbLine
 10
16.2054795973
 20
5.9233840137
 30
0.0
 11
18.4415042036
 21
5.9233840137
 31
0.0
  0
LINE
  5
174
330
167
100
AcDbEntity
  8
0
  6
Continuous
 62
     7
370
     0
100
AcDbLine
 10
18.3165042036
 20
13.6733840137
 30
0.0
 11
18.3165042036
 21
10.0231669853
 31
0.0
  0
LINE
  5
175
330
167
100
AcDbEntity
  8
0
  6
Continuous
 62
     7
370
     0
100
AcDbLine
 10
18.3165042036
 20
5.9233840137
 30
0.0
 11
18.3165042036
 21
9.5736010421
 31
0.0
  0
MTEXT
  5
176
330
167
100
AcDbEntity
  8
0
  6
Continuous
 62
     7
370
    18
100
AcDbMText
 10
18.0332142777
 20
9.9858629606
 30
0.0
 40
0.125
 41
0.0
 71
     1
 72
     1
  1

  7
SLDTEXTSTYLE0
 73
     1
 44
1.0
  0
MTEXT
  5
177
330
167
100
AcDbEntity
  8
0
  6
Continuous
 62
     7
370
    18
100
AcDbMText
 10
18.154872245
 20
9.9839532291
 30
0.0
 40
0.125
 41
0.0
 71
     1
 72
     1
  1
7.75
  7
SLDTEXTSTYLE0
 73
     1
 44
1.0
  0
MTEXT
  5
178
330
167
100
AcDbEntity
  8
0
  6
Continuous
 62
     7
370
    18
100
AcDbMText
 10
18.1086917076
 20
9.7601251083
 30
0.0
 40
0.125
 41
0.0
 71
     1
 72
     1
  1
196.9
  7
SLDTEXTSTYLE0
 73
     1
 44
1.0
  0
MTEXT
  5
179
330
167
100
AcDbEntity
  8
0
  6
Continuous
 62
     7
370
    18
100
AcDbMText
 10
18.6473635464
 20
9.9858629606
 30
0.0
 40
0.125
 41
0.0
 71
     1
 72
     1
  1

  7
SLDTEXTSTYLE0
 73
     1
 44
1.0
  0
ENDBLK
  5
169
330
167
100
AcDbEntity
  8
0
100
AcDbBlockEnd
  0
BLOCK
  5
17D
330
17C
100
AcDbEntity
  8
0
100
AcDbBlockBegin
  2
_D_1
 70
     0
 10
0.0
 20
0.0
 30
0.0
  3
_D_1
  1

  0
SOLID
  5
17F
330
17C
100
AcDbEntity
  8
0
  6
Continuous
 62
     7
370
    18
100
AcDbTrace
 10
16.5054795973
 20
15.0527950026
 30
0.0
 11
16.3754795973
 21
15.0727950026
 31
0.0
 12
16.3754795973
 22
15.0327950026
 32
0.0
 13
16.3754795973
 23
15.0327950026
 33
0.0
  0
SOLID
  5
180
330
17C
100
AcDbEntity
  8
0
  6
Continuous
 62
     7
370
    18
100
AcDbTrace
 10
13.5054795973
 20
15.0527950026
 30
0.0
 11
13.6354795973
 21
15.0327950026
 31
0.0
 12
13.6354795973
 22
15.0727950026
 32
0.0
 13
13.6354795973
 23
15.0727950026
 33
0.0
  0
LINE
  5
181
330
17C
100
AcDbEntity
  8
0
  6
Continuous
 62
     7
370
     0
100
AcDbLine
 10
14.8438476662
 20
15.051840122
 30
0.0
 11
14.8057617291
 21
15.051840122
 31
0.0
  0
LINE
  5
182
330
17C
100
AcDbEntity
  8
0
  6
Continuous
 62
     7
370
     0
100
AcDbLine
 10
14.8057617291
 20
15.051840122
 30
0.0
 11
14.8057617291
 21
14.853402616
 31
0.0
  0
LINE
  5
183
330
17C
100
AcDbEntity
  8
0
  6
Continuous
 62
     7
370
     0
100
AcDbLine
 10
14.8057617291
 20
14.853402616
 30
0.0
 11
14.8438476662
 21
14.853402616
 31
0.0
  0
LINE
  5
184
330
17C
100
AcDbEntity
  8
0
  6
Continuous
 62
     7
370
     0
100
AcDbLine
 10
15.1671115651
 20
15.051840122
 30
0.0
 11
15.2051975023
 21
15.051840122
 31
0.0
  0
LINE
  5
185
330
17C
100
AcDbEntity
  8
0
  6
Continuous
 62
     7
370
     0
100
AcDbLine
 10
15.2051975023
 20
15.051840122
 30
0.0
 11
15.2051975023
 21
14.853402616
 31
0.0
  0
LINE
  5
186
330
17C
100
AcDbEntity
  8
0
  6
Continuous
 62
     7
370
     0
100
AcDbLine
 10
15.2051975023
 20
14.853402616
 30
0.0
 11
15.1671115651
 21
14.853402616
 31
0.0
  0
LINE
  5
187
330
17C
100
AcDbEntity
  8
0
  6
Continuous
 62
     7
370
     0
100
AcDbLine
 10
16.5054795973
 20
13.3733840137
 30
0.0
 11
16.5054795973
 21
15.1777950026
 31
0.0
  0
LINE
  5
188
330
17C
100
AcDbEntity
  8
0
  6
Continuous
 62
     7
370
     0
100
AcDbLine
 10
13.5054795973
 20
12.4824626544
 30
0.0
 11
13.5054795973
 21
15.1777950026
 31
0.0
  0
LINE
  5
189
330
17C
100
AcDbEntity
  8
0
  6
Continuous
 62
     7
370
     0
100
AcDbLine
 10
16.5054795973
 20
15.0527950026
 30
0.0
 11
15.3148408326
 21
15.0527950026
 31
0.0
  0
LINE
  5
18A
330
17C
100
AcDbEntity
  8
0
  6
Continuous
 62
     7
370
     0
100
AcDbLine
 10
13.5054795973
 20
15.0527950026
 30
0.0
 11
14.6961183621
 21
15.0527950026
 31
0.0
  0
MTEXT
  5
18B
330
17C
100
AcDbEntity
  8
0
  6
Continuous
 62
     7
370
    18
100
AcDbMText
 10
14.7683702363
 20
15.2402739495
 30
0.0
 40
0.125
 41
0.0
 71
     1
 72
     1
  1

  7
SLDTEXTSTYLE0
 73
     1
 44
1.0
  0
MTEXT
  5
18C
330
17C
100
AcDbEntity
  8
0
  6
Continuous
 62
     7
370
    18
100
AcDbMText
 10
14.843847657
 20
15.238364218
 30
0.0
 40
0.125
 41
0.0
 71
     1
 72
     1
  1
3.00
  7
SLDTEXTSTYLE0
 73
     1
 44
1.0
  0
MTEXT
  5
18D
330
17C
100
AcDbEntity
  8
0
  6
Continuous
 62
     7
370
    18
100
AcDbMText
 10
14.8438476662
 20
15.0145360973
 30
0.0
 40
0.125
 41
0.0
 71
     1
 72
     1
  1
76.2
  7
SLDTEXTSTYLE0
 73
     1
 44
1.0
  0
MTEXT
  5
18E
330
17C
100
AcDbEntity
  8
0
  6
Continuous
 62
     7
370
    18
100
AcDbMText
 10
15.2901584119
 20
15.2402739495
 30
0.0
 40
0.125
 41
0.0
 71
     1
 72
     1
  1

  7
SLDTEXTSTYLE0
 73
     1
 44
1.0
  0
ENDBLK
  5
17E
330
17C
100
AcDbEntity
  8
0
100
AcDbBlockEnd
  0
BLOCK
  5
191
330
190
100
AcDbEntity
  8
0
100
AcDbBlockBegin
  2
_D_2
 70
     0
 10
0.0
 20
0.0
 30
0.0
  3
_D_2
  1

  0
SOLID
  5
193
330
190
100
AcDbEntity
  8
0
  6
Continuous
 62
     7
370
    18
100
AcDbTrace
 10
17.3716223139
 20
9.7983840137
 30
0.0
 11
17.3916223139
 21
9.9283840137
 31
0.0
 12
17.3516223139
 22
9.9283840137
 32
0.0
 13
17.3516223139
 23
9.9283840137
 33
0.0
  0
SOLID
  5
194
330
190
100
AcDbEntity
  8
0
  6
Continuous
 62
     7
370
    18
100
AcDbTrace
 10
17.3716223139
 20
12.5483840137
 30
0.0
 11
17.3516223139
 21
12.4183840137
 31
0.0
 12
17.3916223139
 22
12.4183840137
 32
0.0
 13
17.3916223139
 23
12.4183840137
 33
0.0
  0
LINE
  5
195
330
190
100
AcDbEntity
  8
0
  6
Continuous
 62
     7
370
     0
100
AcDbLine
 10
17.2099903827
 20
11.1724291331
 30
0.0
 11
17.1719044456
 21
11.1724291331
 31
0.0
  0
LINE
  5
196
330
190
100
AcDbEntity
  8
0
  6
Continuous
 62
     7
370
     0
100
AcDbLine
 10
17.1719044456
 20
11.1724291331
 30
0.0
 11
17.1719044456
 21
10.9739916271
 31
0.0
  0
LINE
  5
197
330
190
100
AcDbEntity
  8
0
  6
Continuous
 62
     7
370
     0
100
AcDbLine
 10
17.1719044456
 20
10.9739916271
 30
0.0
 11
17.2099903827
 21
10.9739916271
 31
0.0
  0
LINE
  5
198
330
190
100
AcDbEntity
  8
0
  6
Continuous
 62
     7
370
     0
100
AcDbLine
 10
17.5332542817
 20
11.1724291331
 30
0.0
 11
17.5713402188
 21
11.1724291331
 31
0.0
  0
LINE
  5
199
330
190
100
AcDbEntity
  8
0
  6
Continuous
 62
     7
370
     0
100
AcDbLine
 10
17.5713402188
 20
11.1724291331
 30
0.0
 11
17.5713402188
 21
10.9739916271
 31
0.0
  0
LINE
  5
19A
330
190
100
AcDbEntity
  8
0
  6
Continuous
 62
     7
370
     0
100
AcDbLine
 10
17.5713402188
 20
10.9739916271
 30
0.0
 11
17.5332542817
 21
10.9739916271
 31
0.0
  0
LINE
  5
19B
330
190
100
AcDbEntity
  8
0
  6
Continuous
 62
     7
370
     0
100
AcDbLine
 10
16.6844569315
 20
9.7983840137
 30
0.0
 11
17.4966223139
 21
9.7983840137
 31
0.0
  0
LINE
  5
19C
330
190
100
AcDbEntity
  8
0
  6
Continuous
 62
     7
370
     0
100
AcDbLine
 10
16.2559795973
 20
12.5483840137
 30
0.0
 11
17.4966223139
 21
12.5483840137
 31
0.0
  0
LINE
  5
19D
330
190
100
AcDbEntity
  8
0
  6
Continuous
 62
     7
370
     0
100
AcDbLine
 10
17.3716223139
 20
9.7983840137
 30
0.0
 11
17.3716223139
 21
10.9486010421
 31
0.0
  0
LINE
  5
19E
330
190
100
AcDbEntity
  8
0
  6
Continuous
 62
     7
370
     0
100
AcDbLine
 10
17.3716223139
 20
12.5483840137
 30
0.0
 11
17.3716223139
 21
11.3981669853
 31
0.0
  0
MTEXT
  5
19F
330
190
100
AcDbEntity
  8
0
  6
Continuous
 62
     7
370
    18
100
AcDbMText
 10
17.1345129528
 20
11.3608629606
 30
0.0
 40
0.125
 41
0.0
 71
     1
 72
     1
  1

  7
SLDTEXTSTYLE0
 73
     1
 44
1.0
  0
MTEXT
  5
1A0
330
190
100
AcDbEntity
  8
0
  6
Continuous
 62
     7
370
    18
100
AcDbMText
 10
17.2099903736
 20
11.3589532291
 30
0.0
 40
0.125
 41
0.0
 71
     1
 72
     1
  1
2.75
  7
SLDTEXTSTYLE0
 73
     1
 44
1.0
  0
MTEXT
  5
1A1
330
190
100
AcDbEntity
  8
0
  6
Continuous
 62
     7
370
    18
100
AcDbMText
 10
17.2099903827
 20
11.1351251083
 30
0.0
 40
0.125
 41
0.0
 71
     1
 72
     1
  1
69.9
  7
SLDTEXTSTYLE0
 73
     1
 44
1.0
  0
MTEXT
  5
1A2
330
190
100
AcDbEntity
  8
0
  6
Continuous
 62
     7
370
    18
100
AcDbMText
 10
17.6563011284
 20
11.3608629606
 30
0.0
 40
0.125
 41
0.0
 71
     1
 72
     1
  1

  7
SLDTEXTSTYLE0
 73
     1
 44
1.0
  0
ENDBLK
  5
192
330
190
100
AcDbEntity
  8
0
100
AcDbBlockEnd
  0
BLOCK
  5
1A5
330
1A4
100
AcDbEntity
  8
0
100
AcDbBlockBegin
  2
_D_3
 70
     0
 10
0.0
 20
0.0
 30
0.0
  3
_D_3
  1

  0
SOLID
  5
1A7
330
1A4
100
AcDbEntity
  8
0
  6
Continuous
 62
     7
370
    18
100
AcDbTrace
 10
17.3716223139
 20
9.7983840137
 30
0.0
 11
17.3516223139
 21
9.6683840137
 31
0.0
 12
17.3916223139
 22
9.6683840137
 32
0.0
 13
17.3916223139
 23
9.6683840137
 33
0.0
  0
SOLID
  5
1A8
330
1A4
100
AcDbEntity
  8
0
  6
Continuous
 62
     7
370
    18
100
AcDbTrace
 10
17.3716223139
 20
7.0483840137
 30
0.0
 11
17.3916223139
 21
7.1783840137
 31
0.0
 12
17.3516223139
 22
7.1783840137
 32
0.0
 13
17.3516223139
 23
7.1783840137
 33
0.0
  0
LINE
  5
1A9
330
1A4
100
AcDbEntity
  8
0
  6
Continuous
 62
     7
370
     0
100
AcDbLine
 10
17.2099903827
 20
8.4224291331
 30
0.0
 11
17.1719044456
 21
8.4224291331
 31
0.0
  0
LINE
  5
1AA
330
1A4
100
AcDbEntity
  8
0
  6
Continuous
 62
     7
370
     0
100
AcDbLine
 10
17.1719044456
 20
8.4224291331
 30
0.0
 11
17.1719044456
 21
8.2239916271
 31
0.0
  0
LINE
  5
1AB
330
1A4
100
AcDbEntity
  8
0
  6
Continuous
 62
     7
370
     0
100
AcDbLine
 10
17.1719044456
 20
8.2239916271
 30
0.0
 11
17.2099903827
 21
8.2239916271
 31
0.0
  0
LINE
  5
1AC
330
1A4
100
AcDbEntity
  8
0
  6
Continuous
 62
     7
370
     0
100
AcDbLine
 10
17.5332542817
 20
8.4224291331
 30
0.0
 11
17.5713402188
 21
8.4224291331
 31
0.0
  0
LINE
  5
1AD
330
1A4
100
AcDbEntity
  8
0
  6
Continuous
 62
     7
370
     0
100
AcDbLine
 10
17.5713402188
 20
8.4224291331
 30
0.0
 11
17.5713402188
 21
8.2239916271
 31
0.0
  0
LINE
  5
1AE
330
1A4
100
AcDbEntity
  8
0
  6
Continuous
 62
     7
370
     0
100
AcDbLine
 10
17.5713402188
 20
8.2239916271
 30
0.0
 11
17.5332542817
 21
8.2239916271
 31
0.0
  0
LINE
  5
1AF
330
1A4
100
AcDbEntity
  8
0
  6
Continuous
 62
     7
370
     0
100
AcDbLine
 10
16.6844569315
 20
9.7983840137
 30
0.0
 11
17.4966223139
 21
9.7983840137
 31
0.0
  0
LINE
  5
1B0
330
1A4
100
AcDbEntity
  8
0
  6
Continuous
 62
     7
370
     0
100
AcDbLine
 10
16.2559795973
 20
7.0483840137
 30
0.0
 11
17.4966223139
 21
7.0483840137
 31
0.0
  0
LINE
  5
1B1
330
1A4
100
AcDbEntity
  8
0
  6
Continuous
 62
     7
370
     0
100
AcDbLine
 10
17.3716223139
 20
9.7983840137
 30
0.0
 11
17.3716223139
 21
8.6481669853
 31
0.0
  0
LINE
  5
1B2
330
1A4
100
AcDbEntity
  8
0
  6
Continuous
 62
     7
370
     0
100
AcDbLine
 10
17.3716223139
 20
7.0483840137
 30
0.0
 11
17.3716223139
 21
8.1986010421
 31
0.0
  0
MTEXT
  5
1B3
330
1A4
100
AcDbEntity
  8
0
  6
Continuous
 62
     7
370
    18
100
AcDbMText
 10
17.1345129528
 20
8.6108629606
 30
0.0
 40
0.125
 41
0.0
 71
     1
 72
     1
  1

  7
SLDTEXTSTYLE0
 73
     1
 44
1.0
  0
MTEXT
  5
1B4
330
1A4
100
AcDbEntity
  8
0
  6
Continuous
 62
     7
370
    18
100
AcDbMText
 10
17.2099903736
 20
8.6089532291
 30
0.0
 40
0.125
 41
0.0
 71
     1
 72
     1
  1
2.75
  7
SLDTEXTSTYLE0
 73
     1
 44
1.0
  0
MTEXT
  5
1B5
330
1A4
100
AcDbEntity
  8
0
  6
Continuous
 62
     7
370
    18
100
AcDbMText
 10
17.2099903827
 20
8.3851251083
 30
0.0
 40
0.125
 41
0.0
 71
     1
 72
     1
  1
69.9
  7
SLDTEXTSTYLE0
 73
     1
 44
1.0
  0
MTEXT
  5
1B6
330
1A4
100
AcDbEntity
  8
0
  6
Continuous
 62
     7
370
    18
100
AcDbMText
 10
17.6563011284
 20
8.6108629606
 30
0.0
 40
0.125
 41
0.0
 71
     1
 72
     1
  1

  7
SLDTEXTSTYLE0
 73
     1
 44
1.0
  0
ENDBLK
  5
1A6
330
1A4
100
AcDbEntity
  8
0
100
AcDbBlockEnd
  0
BLOCK
  5
1B9
330
1B8
100
AcDbEntity
  8
0
100
AcDbBlockBegin
  2
_D_4
 70
     0
 10
0.0
 20
0.0
 30
0.0
  3
_D_4
  1

  0
SOLID
  5
1BB
330
1B8
100
AcDbEntity
  8
0
  6
Continuous
 62
     7
370
    18
100
AcDbTrace
 10
16.5054795973
 20
14.3240015908
 30
0.0
 11
16.3754795973
 21
14.3440015908
 31
0.0
 12
16.3754795973
 22
14.3040015908
 32
0.0
 13
16.3754795973
 23
14.3040015908
 33
0.0
  0
SOLID
  5
1BC
330
1B8
100
AcDbEntity
  8
0
  6
Continuous
 62
     7
370
    18
100
AcDbTrace
 10
16.0054795973
 20
14.3240015908
 30
0.0
 11
16.1354795973
 21
14.3040015908
 31
0.0
 12
16.1354795973
 22
14.3440015908
 32
0.0
 13
16.1354795973
 23
14.3440015908
 33
0.0
  0
LINE
  5
1BD
330
1B8
100
AcDbEntity
  8
0
  6
Continuous
 62
     7
370
     0
100
AcDbLine
 10
15.1694579763
 20
14.3230467102
 30
0.0
 11
15.1313720392
 21
14.3230467102
 31
0.0
  0
LINE
  5
1BE
330
1B8
100
AcDbEntity
  8
0
  6
Continuous
 62
     7
370
     0
100
AcDbLine
 10
15.1313720392
 20
14.3230467102
 30
0.0
 11
15.1313720392
 21
14.1246092042
 31
0.0
  0
LINE
  5
1BF
330
1B8
100
AcDbEntity
  8
0
  6
Continuous
 62
     7
370
     0
100
AcDbLine
 10
15.1313720392
 20
14.1246092042
 30
0.0
 11
15.1694579763
 21
14.1246092042
 31
0.0
  0
LINE
  5
1C0
330
1B8
100
AcDbEntity
  8
0
  6
Continuous
 62
     7
370
     0
100
AcDbLine
 10
15.4927218753
 20
14.3230467102
 30
0.0
 11
15.5308078124
 21
14.3230467102
 31
0.0
  0
LINE
  5
1C1
330
1B8
100
AcDbEntity
  8
0
  6
Continuous
 62
     7
370
     0
100
AcDbLine
 10
15.5308078124
 20
14.3230467102
 30
0.0
 11
15.5308078124
 21
14.1246092042
 31
0.0
  0
LINE
  5
1C2
330
1B8
100
AcDbEntity
  8
0
  6
Continuous
 62
     7
370
     0
100
AcDbLine
 10
15.5308078124
 20
14.1246092042
 30
0.0
 11
15.4927218753
 21
14.1246092042
 31
0.0
  0
LINE
  5
1C3
330
1B8
100
AcDbEntity
  8
0
  6
Continuous
 62
     7
370
     0
100
AcDbLine
 10
16.5054795973
 20
13.3733840137
 30
0.0
 11
16.5054795973
 21
14.4490015908
 31
0.0
  0
LINE
  5
1C4
330
1B8
100
AcDbEntity
  8
0
  6
Continuous
 62
     7
370
     0
100
AcDbLine
 10
16.0054795973
 20
12.7988840137
 30
0.0
 11
16.0054795973
 21
14.4490015908
 31
0.0
  0
LINE
  5
1C5
330
1B8
100
AcDbEntity
  8
0
  6
Continuous
 62
     7
370
     0
100
AcDbLine
 10
16.5054795973
 20
14.3240015908
 30
0.0
 11
16.0054795973
 21
14.3240015908
 31
0.0
  0
LINE
  5
1C6
330
1B8
100
AcDbEntity
  8
0
  6
Continuous
 62
     7
370
     0
100
AcDbLine
 10
16.0054795973
 20
14.3240015908
 30
0.0
 11
15.8805553149
 21
14.3240015908
 31
0.0
  0
MTEXT
  5
1C7
330
1B8
100
AcDbEntity
  8
0
  6
Continuous
 62
     7
370
    18
100
AcDbMText
 10
15.215638532
 20
14.5095708062
 30
0.0
 40
0.125
 41
0.0
 71
     1
 72
     1
  1
.50
  7
SLDTEXTSTYLE0
 73
     1
 44
1.0
  0
MTEXT
  5
1C8
330
1B8
100
AcDbEntity
  8
0
  6
Continuous
 62
     7
370
    18
100
AcDbMText
 10
15.1694579763
 20
14.2857426854
 30
0.0
 40
0.125
 41
0.0
 71
     1
 72
     1
  1
12.7
  7
SLDTEXTSTYLE0
 73
     1
 44
1.0
  0
MTEXT
  5
1CA
330
1B8
100
AcDbEntity
  8
0
  6
Continuous
 62
     7
370
    18
100
AcDbMText
 10
15.6157687312
 20
14.5114805377
 30
0.0
 40
0.125
 41
0.0
 71
     1
 72
     1
  1
X 2
  7
SLDTEXTSTYLE2
 73
     1
 44
1.0
  0
ENDBLK
  5
1BA
330
1B8
100
AcDbEntity
  8
0
100
AcDbBlockEnd
  0
BLOCK
  5
1CC
330
1CB
100
AcDbEntity
  8
0
100
AcDbBlockBegin
  2
SW_CENTERMARKSYMBOL_0
 70
     0
 10
0.0
 20
0.0
 30
0.0
  3
SW_CENTERMARKSYMBOL_0
  1

  0
LINE
  5
1CE
330
1CB
100
AcDbEntity
  8
0
  6
Continuous
 62
     0
370
    18
100
AcDbLine
 10
0.0
 20
0.0
 30
0.0
 11
0.0
 21
0.1
 31
0.0
  0
LINE
  5
1CF
330
1CB
100
AcDbEntity
  8
0
  6
Continuous
 62
     0
370
    18
100
AcDbLine
 10
0.0
 20
0.0
 30
0.0
 11
-0.1
 21
0.0
 31
0.0
  0
LINE
  5
1D0
330
1CB
100
AcDbEntity
  8
0
  6
Continuous
 62
     0
370
    18
100
AcDbLine
 10
0.0
 20
0.0
 30
0.0
 11
0.0
 21
-0.1
 31
0.0
  0
LINE
  5
1D1
330
1CB
100
AcDbEntity
  8
0
  6
Continuous
 62
     0
370
    18
100
AcDbLine
 10
0.0
 20
0.0
 30
0.0
 11
0.1
 21
0.0
 31
0.0
  0
LINE
  5
1D2
330
1CB
100
AcDbEntity
  8
0
  6
Continuous
 62
     0
370
    18
100
AcDbLine
 10
0.0
 20
0.2
 30
0.0
 11
0.0
 21
0.2005
 31
0.0
  0
LINE
  5
1D3
330
1CB
100
AcDbEntity
  8
0
  6
Continuous
 62
     0
370
    18
100
AcDbLine
 10
-0.2
 20
0.0
 30
0.0
 11
-0.2005
 21
0.0
 31
0.0
  0
LINE
  5
1D4
330
1CB
100
AcDbEntity
  8
0
  6
Continuous
 62
     0
370
    18
100
AcDbLine
 10
0.0
 20
-0.2
 30
0.0
 11
0.0
 21
-0.2005
 31
0.0
  0
LINE
  5
1D5
330
1CB
100
AcDbEntity
  8
0
  6
Continuous
 62
     0
370
    18
100
AcDbLine
 10
0.2
 20
0.0
 30
0.0
 11
0.2005
 21
0.0
 31
0.0
  0
ENDBLK
  5
1CD
330
1CB
100
AcDbEntity
  8
0
100
AcDbBlockEnd
  0
BLOCK
  5
1D8
330
1D7
100
AcDbEntity
  8
0
100
AcDbBlockBegin
  2
SW_CENTERMARKSYMBOL_1
 70
     0
 10
0.0
 20
0.0
 30
0.0
  3
SW_CENTERMARKSYMBOL_1
  1

  0
LINE
  5
1DA
330
1D7
100
AcDbEntity
  8
0
  6
Continuous
 62
     0
370
    18
100
AcDbLine
 10
0.0
 20
0.0
 30
0.0
 11
0.0
 21
0.1
 31
0.0
  0
LINE
  5
1DB
330
1D7
100
AcDbEntity
  8
0
  6
Continuous
 62
     0
370
    18
100
AcDbLine
 10
0.0
 20
0.0
 30
0.0
 11
-0.1
 21
0.0
 31
0.0
  0
LINE
  5
1DC
330
1D7
100
AcDbEntity
  8
0
  6
Continuous
 62
     0
370
    18
100
AcDbLine
 10
0.0
 20
0.0
 30
0.0
 11
0.0
 21
-0.1
 31
0.0
  0
LINE
  5
1DD
330
1D7
100
AcDbEntity
  8
0
  6
Continuous
 62
     0
370
    18
100
AcDbLine
 10
0.0
 20
0.0
 30
0.0
 11
0.1
 21
0.0
 31
0.0
  0
LINE
  5
1DE
330
1D7
100
AcDbEntity
  8
0
  6
Continuous
 62
     0
370
    18
100
AcDbLine
 10
0.0
 20
0.2
 30
0.0
 11
0.0
 21
0.2005
 31
0.0
  0
LINE
  5
1DF
330
1D7
100
AcDbEntity
  8
0
  6
Continuous
 62
     0
370
    18
100
AcDbLine
 10
-0.2
 20
0.0
 30
0.0
 11
-0.2005
 21
0.0
 31
0.0
  0
LINE
  5
1E0
330
1D7
100
AcDbEntity
  8
0
  6
Continuous
 62
     0
370
    18
100
AcDbLine
 10
0.0
 20
-0.2
 30
0.0
 11
0.0
 21
-0.2005
 31
0.0
  0
LINE
  5
1E1
330
1D7
100
AcDbEntity
  8
0
  6
Continuous
 62
     0
370
    18
100
AcDbLine
 10
0.2
 20
0.0
 30
0.0
 11
0.2005
 21
0.0
 31
0.0
  0
ENDBLK
  5
1D9
330
1D7
100
AcDbEntity
  8
0
100
AcDbBlockEnd
  0
BLOCK
  5
253
330
252
100
AcDbEntity
  8
0
100
AcDbBlockBegin
  2
_D_5
 70
     0
 10
0.0
 20
0.0
 30
0.0
  3
_D_5
  1

  0
SOLID
  5
255
330
252
100
AcDbEntity
  8
0
  6
Continuous
 62
     7
370
    18
100
AcDbTrace
 10
6.9199662492
 20
14.2122479037
 30
0.0
 11
7.0499662492
 21
14.1922479037
 31
0.0
 12
7.0499662492
 22
14.2322479037
 32
0.0
 13
7.0499662492
 23
14.2322479037
 33
0.0
  0
SOLID
  5
256
330
252
100
AcDbEntity
  8
0
  6
Continuous
 62
     7
370
    18
100
AcDbTrace
 10
7.4199662492
 20
14.2122479037
 30
0.0
 11
7.2899662492
 21
14.2322479037
 31
0.0
 12
7.2899662492
 22
14.1922479037
 32
0.0
 13
7.2899662492
 23
14.1922479037
 33
0.0
  0
LINE
  5
257
330
252
100
AcDbEntity
  8
0
  6
Continuous
 62
     7
370
     0
100
AcDbLine
 10
6.1283016794
 20
14.2112930231
 30
0.0
 11
6.0902157423
 21
14.2112930231
 31
0.0
  0
LINE
  5
258
330
252
100
AcDbEntity
  8
0
  6
Continuous
 62
     7
370
     0
100
AcDbLine
 10
6.0902157423
 20
14.2112930231
 30
0.0
 11
6.0902157423
 21
14.0128555171
 31
0.0
  0
LINE
  5
259
330
252
100
AcDbEntity
  8
0
  6
Continuous
 62
     7
370
     0
100
AcDbLine
 10
6.0902157423
 20
14.0128555171
 30
0.0
 11
6.1283016794
 21
14.0128555171
 31
0.0
  0
LINE
  5
25A
330
252
100
AcDbEntity
  8
0
  6
Continuous
 62
     7
370
     0
100
AcDbLine
 10
6.4515655784
 20
14.2112930231
 30
0.0
 11
6.4896515155
 21
14.2112930231
 31
0.0
  0
LINE
  5
25B
330
252
100
AcDbEntity
  8
0
  6
Continuous
 62
     7
370
     0
100
AcDbLine
 10
6.4896515155
 20
14.2112930231
 30
0.0
 11
6.4896515155
 21
14.0128555171
 31
0.0
  0
LINE
  5
25C
330
252
100
AcDbEntity
  8
0
  6
Continuous
 62
     7
370
     0
100
AcDbLine
 10
6.4896515155
 20
14.0128555171
 30
0.0
 11
6.4515655784
 21
14.0128555171
 31
0.0
  0
LINE
  5
25D
330
252
100
AcDbEntity
  8
0
  6
Continuous
 62
     7
370
     0
100
AcDbLine
 10
6.9199662492
 20
13.7233840137
 30
0.0
 11
6.9199662492
 21
14.3372479037
 31
0.0
  0
LINE
  5
25E
330
252
100
AcDbEntity
  8
0
  6
Continuous
 62
     7
370
     0
100
AcDbLine
 10
7.4199662492
 20
13.6070284902
 30
0.0
 11
7.4199662492
 21
14.3372479037
 31
0.0
  0
LINE
  5
25F
330
252
100
AcDbEntity
  8
0
  6
Continuous
 62
     7
370
     0
100
AcDbLine
 10
6.9199662492
 20
14.2122479037
 30
0.0
 11
6.5992948458
 21
14.2122479037
 31
0.0
  0
LINE
  5
260
330
252
100
AcDbEntity
  8
0
  6
Continuous
 62
     7
370
     0
100
AcDbLine
 10
7.4199662492
 20
14.2122479037
 30
0.0
 11
6.9199662492
 21
14.2122479037
 31
0.0
  0
MTEXT
  5
261
330
252
100
AcDbEntity
  8
0
  6
Continuous
 62
     7
370
    18
100
AcDbMText
 10
6.0528242495
 20
14.3997268506
 30
0.0
 40
0.125
 41
0.0
 71
     1
 72
     1
  1

  7
SLDTEXTSTYLE0
 73
     1
 44
1.0
  0
MTEXT
  5
262
330
252
100
AcDbEntity
  8
0
  6
Continuous
 62
     7
370
    18
100
AcDbMText
 10
6.1744822351
 20
14.3978171191
 30
0.0
 40
0.125
 41
0.0
 71
     1
 72
     1
  1
.50
  7
SLDTEXTSTYLE0
 73
     1
 44
1.0
  0
MTEXT
  5
263
330
252
100
AcDbEntity
  8
0
  6
Continuous
 62
     7
370
    18
100
AcDbMText
 10
6.1283016794
 20
14.1739889984
 30
0.0
 40
0.125
 41
0.0
 71
     1
 72
     1
  1
12.7
  7
SLDTEXTSTYLE0
 73
     1
 44
1.0
  0
MTEXT
  5
264
330
252
100
AcDbEntity
  8
0
  6
Continuous
 62
     7
370
    18
100
AcDbMText
 10
6.5746124251
 20
14.3997268506
 30
0.0
 40
0.125
 41
0.0
 71
     1
 72
     1
  1

  7
SLDTEXTSTYLE0
 73
     1
 44
1.0
  0
ENDBLK
  5
254
330
252
100
AcDbEntity
  8
0
100
AcDbBlockEnd
  0
ENDSEC
  0
SECTION
  2
ENTITIES
  0
LINE
  5
73
330
1F
100
AcDbEntity
  8
0
  6
Continuous
 62
     7
370
    18
100
AcDbLine
 10
0.3132516046
 20
21.6547094286
 30
0.0
 11
29.6806766458
 21
21.6547094286
 31
0.0
  0
LINE
  5
74
330
1F
100
AcDbEntity
  8
0
  6
Continuous
 62
     7
370
    18
100
AcDbLine
 10
29.6806766458
 20
0.3290731707
 30
0.0
 11
29.6806766458
 21
21.6547094286
 31
0.0
  0
LINE
  5
75
330
1F
100
AcDbEntity
  8
0
  6
Continuous
 62
     7
370
    18
100
AcDbLine
 10
29.6806766458
 20
0.3290731707
 30
0.0
 11
0.3132516046
 21
0.3290731707
 31
0.0
  0
LINE
  5
76
330
1F
100
AcDbEntity
  8
0
  6
Continuous
 62
     7
370
    18
100
AcDbLine
 10
0.3132516046
 20
21.6547094286
 30
0.0
 11
0.3132516046
 21
0.3290731707
 31
0.0
  0
LINE
  5
77
330
1F
100
AcDbEntity
  8
0
  6
Continuous
 62
     7
370
    18
100
AcDbLine
 10
0.2512516046
 20
21.7112959898
 30
0.0
 11
29.736905992
 21
21.7112959898
 31
0.0
  0
LINE
  5
78
330
1F
100
AcDbEntity
  8
0
  6
Continuous
 62
     7
370
    18
100
AcDbLine
 10
29.736905992
 20
0.2670731707
 30
0.0
 11
0.2512516046
 21
0.2670731707
 31
0.0
  0
LINE
  5
79
330
1F
100
AcDbEntity
  8
0
  6
Continuous
 62
     7
370
    18
100
AcDbLine
 10
0.2512516046
 20
21.7112959898
 30
0.0
 11
0.2512516046
 21
0.2670731707
 31
0.0
  0
LINE
  5
7A
330
1F
100
AcDbEntity
  8
0
  6
Continuous
 62
     7
370
    18
100
AcDbLine
 10
29.736905992
 20
0.2670731707
 30
0.0
 11
29.736905992
 21
21.7112959898
 31
0.0
  0
LINE
  5
7B
330
1F
100
AcDbEntity
  8
0
  6
Continuous
 62
     7
370
    18
100
AcDbLine
 10
0.3132516046
 20
21.0474115071
 30
0.0
 11
29.6806766458
 21
21.0474115071
 31
0.0
  0
LINE
  5
7C
330
1F
100
AcDbEntity
  8
0
  6
Continuous
 62
     7
370
    18
100
AcDbLine
 10
1.8437192207
 20
21.6547094286
 30
0.0
 11
1.8437192207
 21
21.0474115071
 31
0.0
  0
LINE
  5
7D
330
1F
100
AcDbEntity
  8
0
  6
Continuous
 62
     7
370
    18
100
AcDbLine
 10
1.1108318837
 20
21.6547094286
 30
0.0
 11
1.1108318837
 21
21.0474115071
 31
0.0
  0
LINE
  5
7E
330
1F
100
AcDbEntity
  8
0
  6
Continuous
 62
     7
370
    18
100
AcDbLine
 10
26.4279502466
 20
21.6547094286
 30
0.0
 11
26.4279502466
 21
21.0474115071
 31
0.0
  0
LINE
  5
7F
330
1F
100
AcDbEntity
  8
0
  6
Continuous
 62
     7
370
    18
100
AcDbLine
 10
26.492176063
 20
21.6547094286
 30
0.0
 11
26.492176063
 21
21.0474115071
 31
0.0
  0
LINE
  5
80
330
1F
100
AcDbEntity
  8
0
  6
Continuous
 62
     7
370
    18
100
AcDbLine
 10
27.492176063
 20
21.6547094286
 30
0.0
 11
27.492176063
 21
21.0474115071
 31
0.0
  0
LINE
  5
81
330
1F
100
AcDbEntity
  8
0
  6
Continuous
 62
     7
370
    18
100
AcDbLine
 10
0.4348627823
 20
21.2300617377
 30
0.0
 11
0.4348627823
 21
21.4955964918
 31
0.0
  0
LINE
  5
82
330
1F
100
AcDbEntity
  8
0
  6
Continuous
 62
     7
370
    18
100
AcDbLine
 10
0.6197680095
 20
21.2466576598
 30
0.0
 11
0.6197680095
 21
21.4955964918
 31
0.0
  0
LINE
  5
83
330
1F
100
AcDbEntity
  8
0
  6
Continuous
 62
     7
370
    18
100
AcDbLine
 10
0.691418785
 20
21.2733855748
 30
0.0
 11
0.691418785
 21
21.4955964918
 31
0.0
  0
LINE
  5
84
330
1F
100
AcDbEntity
  8
0
  6
Continuous
 62
     7
370
    18
100
AcDbLine
 10
0.6683056316
 20
21.2733855748
 30
0.0
 11
0.6683056316
 21
21.4955964918
 31
0.0
  0
LINE
  5
85
330
1F
100
AcDbEntity
  8
0
  6
Continuous
 62
     7
370
    18
100
AcDbLine
 10
0.7942669867
 20
21.2300617377
 30
0.0
 11
0.7942669867
 21
21.4955964918
 31
0.0
  0
LINE
  5
86
330
1F
100
AcDbEntity
  8
0
  6
Continuous
 62
     7
370
    18
100
AcDbLine
 10
0.7399564071
 20
21.2466576598
 30
0.0
 11
0.7399564071
 21
21.4955964918
 31
0.0
  0
LINE
  5
87
330
1F
100
AcDbEntity
  8
0
  6
Continuous
 62
     7
370
    18
100
AcDbLine
 10
0.6363639316
 20
21.2300617377
 30
0.0
 11
0.723360485
 21
21.2300617377
 31
0.0
  0
LINE
  5
88
330
1F
100
AcDbEntity
  8
0
  6
Continuous
 62
     7
370
    18
100
AcDbLine
 10
0.4348627823
 20
21.2300617377
 30
0.0
 11
0.5203814499
 21
21.2300617377
 31
0.0
  0
LINE
  5
89
330
1F
100
AcDbEntity
  8
0
  6
Continuous
 62
     7
370
    18
100
AcDbLine
 10
0.5203814499
 20
21.3561907459
 30
0.0
 11
0.4475750167
 21
21.3561907459
 31
0.0
  0
LINE
  5
8A
330
1F
100
AcDbEntity
  8
0
  6
Continuous
 62
     7
370
    18
100
AcDbLine
 10
0.5203814499
 20
21.3694674836
 30
0.0
 11
0.4475750167
 21
21.3694674836
 31
0.0
  0
LINE
  5
8B
330
1F
100
AcDbEntity
  8
0
  6
Continuous
 62
     7
370
    18
100
AcDbLine
 10
0.4475750167
 20
21.3694674836
 30
0.0
 11
0.4475750167
 21
21.3628291147
 31
0.0
  0
LINE
  5
8C
330
1F
100
AcDbEntity
  8
0
  6
Continuous
 62
     7
370
    18
100
AcDbLine
 10
0.4475750167
 20
21.3561907459
 30
0.0
 11
0.4475750167
 21
21.3628291147
 31
0.0
  0
LINE
  5
8D
330
1F
100
AcDbEntity
  8
0
  6
Continuous
 62
     7
370
    18
100
AcDbLine
 10
0.7942669867
 20
21.2300617377
 30
0.0
 11
0.8272965087
 21
21.2300617377
 31
0.0
  0
LINE
  5
8E
330
1F
100
AcDbEntity
  8
0
  6
Continuous
 62
     7
370
    18
100
AcDbLine
 10
0.9202336726
 20
21.3229989016
 30
0.0
 11
0.9202336726
 21
21.4026593279
 31
0.0
  0
LINE
  5
8F
330
1F
100
AcDbEntity
  8
0
  6
Continuous
 62
     7
370
    18
100
AcDbLine
 10
0.8713952948
 20
21.3561907459
 30
0.0
 11
0.8713952948
 21
21.3694674836
 31
0.0
  0
LINE
  5
90
330
1F
100
AcDbEntity
  8
0
  6
Continuous
 62
     7
370
    18
100
AcDbLine
 10
0.8300977053
 20
21.3561907459
 30
0.0
 11
0.8300977053
 21
21.3694674836
 31
0.0
  0
LINE
  5
91
330
1F
100
AcDbEntity
  8
0
  6
Continuous
 62
     7
370
    18
100
AcDbLine
 10
0.8713952948
 20
21.3561907459
 30
0.0
 11
0.8300977053
 21
21.3561907459
 31
0.0
  0
LINE
  5
92
330
1F
100
AcDbEntity
  8
0
  6
Continuous
 62
     7
370
    18
100
AcDbLine
 10
0.8713952948
 20
21.3694674836
 30
0.0
 11
0.8300977053
 21
21.3694674836
 31
0.0
  0
LINE
  5
93
330
1F
100
AcDbEntity
  8
0
  6
Continuous
 62
     7
370
    18
100
AcDbLine
 10
0.691418785
 20
21.4955964918
 30
0.0
 11
0.7399564071
 21
21.4955964918
 31
0.0
  0
LINE
  5
94
330
1F
100
AcDbEntity
  8
0
  6
Continuous
 62
     7
370
    18
100
AcDbLine
 10
0.4348627823
 20
21.4955964918
 30
0.0
 11
0.5203814499
 21
21.4955964918
 31
0.0
  0
LINE
  5
95
330
1F
100
AcDbEntity
  8
0
  6
Continuous
 62
     7
370
    18
100
AcDbLine
 10
0.6197680095
 20
21.4955964918
 30
0.0
 11
0.6683056316
 21
21.4955964918
 31
0.0
  0
LINE
  5
96
330
1F
100
AcDbEntity
  8
0
  6
Continuous
 62
     7
370
    18
100
AcDbLine
 10
0.7942669867
 20
21.4955964918
 30
0.0
 11
0.8272965087
 21
21.4955964918
 31
0.0
  0
LINE
  5
97
330
1F
100
AcDbEntity
  8
0
  6
Continuous
 62
     7
370
    18
100
AcDbLine
 10
1.050100026
 20
21.6547094286
 30
0.0
 11
1.050100026
 21
21.0474115071
 31
0.0
  0
LINE
  5
98
330
1F
100
AcDbEntity
  8
0
  6
Continuous
 62
     7
370
    18
100
AcDbLine
 10
14.4831953769
 20
21.0474115071
 30
0.0
 11
14.4831953769
 21
21.6547094286
 31
0.0
  0
LINE
  5
99
330
1F
100
AcDbEntity
  8
0
  6
Continuous
 62
     7
370
    18
100
AcDbLine
 10
14.5451953769
 20
21.0474115071
 30
0.0
 11
14.5451953769
 21
21.6547094286
 31
0.0
  0
LINE
  5
9A
330
1F
100
AcDbEntity
  8
0
  6
Continuous
 62
     7
370
    18
100
AcDbLine
 10
15.2951953769
 20
21.0474115071
 30
0.0
 11
15.2951953769
 21
21.6547094286
 31
0.0
  0
ARC
  5
9B
330
1F
100
AcDbEntity
  8
0
  6
Continuous
 62
     7
370
    18
100
AcDbCircle
 10
0.5203814499
 20
21.4325319877
 30
0.0
 40
0.0630645040985804
100
AcDbArc
 50
270.0
 51
90.0
  0
ARC
  5
9C
330
1F
100
AcDbEntity
  8
0
  6
Continuous
 62
     7
370
    18
100
AcDbCircle
 10
0.8272965087
 20
21.4026593279
 30
0.0
 40
0.0929371639347458
100
AcDbArc
 50
0.0
 51
90.0
  0
ARC
  5
9D
330
1F
100
AcDbEntity
  8
0
  6
Continuous
 62
     7
370
    18
100
AcDbCircle
 10
0.5203814499
 20
21.2931262418
 30
0.0
 40
0.0630645040985769
100
AcDbArc
 50
270.0
 51
90.0
  0
ARC
  5
9E
330
1F
100
AcDbEntity
  8
0
  6
Continuous
 62
     7
370
    18
100
AcDbCircle
 10
0.6363639316
 20
21.2466576598
 30
0.0
 40
0.0165959221312093
100
AcDbArc
 50
180.0
 51
270.0
  0
ARC
  5
9F
330
1F
100
AcDbEntity
  8
0
  6
Continuous
 62
     7
370
    18
100
AcDbCircle
 10
0.6781420473
 20
21.2733855748
 30
0.0
 40
0.0132767377049623
100
AcDbArc
 50
277.4442840975
 51
0.0
  0
ARC
  5
A0
330
1F
100
AcDbEntity
  8
0
  6
Continuous
 62
     7
370
    18
100
AcDbCircle
 10
0.6815823693
 20
21.2733855748
 30
0.0
 40
0.0132767377049732
100
AcDbArc
 50
180.0
 51
262.5557159021
  0
ARC
  5
A1
330
1F
100
AcDbEntity
  8
0
  6
Continuous
 62
     7
370
    18
100
AcDbCircle
 10
0.8272965087
 20
21.3229989016
 30
0.0
 40
0.0929371639347458
100
AcDbArc
 50
270.0
 51
0.0
  0
ARC
  5
A2
330
1F
100
AcDbEntity
  8
0
  6
Continuous
 62
     7
370
    18
100
AcDbCircle
 10
0.723360485
 20
21.2466576598
 30
0.0
 40
0.0165959221312058
100
AcDbArc
 50
270.0
 51
0.0
  0
INSERT
  5
B1
330
1F
100
AcDbEntity
  8
0
  6
Continuous
 62
     7
370
     0
100
AcDbBlockReference
  2
SW_NOTE_0
 10
0.8348550376
 20
19.9841239768
 30
0.0
  0
INSERT
  5
B9
330
1F
100
AcDbEntity
  8
0
  6
Continuous
 62
     7
370
     0
100
AcDbBlockReference
  2
SW_NOTE_0_1
 10
3.2158291563
 20
1.6868927965
 30
0.0
  0
INSERT
  5
BF
330
1F
100
AcDbEntity
  8
0
  6
Continuous
 62
     7
370
     0
100
AcDbBlockReference
  2
SW_NOTE_0_2
 10
1.3110399819
 20
21.3576108566
 30
0.0
  0
INSERT
  5
C5
330
1F
100
AcDbEntity
  8
0
  6
Continuous
 62
     7
370
     0
100
AcDbBlockReference
  2
SW_NOTE_0_3
 10
14.7392714976
 20
21.3450943114
 30
0.0
  0
INSERT
  5
CB
330
1F
100
AcDbEntity
  8
0
  6
Continuous
 62
     7
370
     0
100
AcDbBlockReference
  2
SW_NOTE_0_4
 10
26.6314561413
 20
21.34680783
 30
0.0
  0
MTEXT
  5
CC
330
1F
100
AcDbEntity
  8
0
  6
Continuous
 62
     7
370
     0
100
AcDbMText
 10
27.9267364462
 20
21.466163024
 30
0.0
 40
0.25
 41
0.0
 71
     1
 72
     1
  1
2/22/21
  7
SLDTEXTSTYLE0
 73
     1
 44
1.0
  0
MTEXT
  5
CD
330
1F
100
AcDbEntity
  8
0
  6
Continuous
 62
     7
370
     0
100
AcDbMText
 10
20.8261799544
 20
21.466163024
 30
0.0
 40
0.25
 41
0.0
 71
     2
 72
     1
  1
DPX-824KIT
  7
SLDTEXTSTYLE0
 73
     1
 44
1.0
  0
MTEXT
  5
CE
330
1F
100
AcDbEntity
  8
0
  6
Continuous
 62
     7
370
     0
100
AcDbMText
 10
8.0401520791
 20
21.4750503312
 30
0.0
 40
0.25
 41
0.0
 71
     2
 72
     1
  1
8" FLANGE KIT
  7
SLDTEXTSTYLE0
 73
     1
 44
1.0
  0
CIRCLE
  5
CF
330
1F
100
AcDbEntity
  8
0
  6
Continuous
 62
     7
370
    25
100
AcDbCircle
 10
15.5174795973
 20
7.0483840137
 30
0.0
 40
0.1437061151203762
  0
CIRCLE
  5
D0
330
1F
100
AcDbEntity
  8
0
  6
Continuous
 62
     7
370
    25
100
AcDbCircle
 10
15.5174795973
 20
7.0483840137
 30
0.0
 40
0.1512938848799363
  0
CIRCLE
  5
D1
330
1F
100
AcDbEntity
  8
0
  6
Continuous
 62
     7
370
    25
100
AcDbCircle
 10
15.5174795973
 20
12.5483840137
 30
0.0
 40
0.1437061151203771
  0
CIRCLE
  5
D2
330
1F
100
AcDbEntity
  8
0
  6
Continuous
 62
     7
370
    25
100
AcDbCircle
 10
15.5174795973
 20
12.5483840137
 30
0.0
 40
0.1124989421592968
  0
CIRCLE
  5
D3
330
1F
100
AcDbEntity
  8
0
  6
Continuous
 62
     7
370
    25
100
AcDbCircle
 10
15.5174795973
 20
12.5483840137
 30
0.0
 40
0.1825010578410158
  0
CIRCLE
  5
D4
330
1F
100
AcDbEntity
  8
0
  6
Continuous
 62
     7
370
    25
100
AcDbCircle
 10
15.5174795973
 20
12.5483840137
 30
0.0
 40
0.1512938848799372
  0
CIRCLE
  5
D5
330
1F
100
AcDbEntity
  8
0
  6
Continuous
 62
     7
370
    25
100
AcDbCircle
 10
15.5174795973
 20
7.0483840137
 30
0.0
 40
0.1124989421592959
  0
CIRCLE
  5
D6
330
1F
100
AcDbEntity
  8
0
  6
Continuous
 62
     7
370
    25
100
AcDbCircle
 10
15.5174795973
 20
7.0483840137
 30
0.0
 40
0.1825010578410158
  0
CIRCLE
  5
D7
330
1F
100
AcDbEntity
  8
0
  6
Continuous
 62
     7
370
    25
100
AcDbCircle
 10
15.5174795973
 20
7.0483840137
 30
0.0
 40
0.1867550254795631
  0
CIRCLE
  5
D8
330
1F
100
AcDbEntity
  8
0
  6
Continuous
 62
     7
370
    25
100
AcDbCircle
 10
15.5174795973
 20
7.0483840137
 30
0.0
 40
0.1082449745207521
  0
CIRCLE
  5
D9
330
1F
100
AcDbEntity
  8
0
  6
Continuous
 62
     7
370
    25
100
AcDbCircle
 10
15.5174795973
 20
12.5483840137
 30
0.0
 40
0.1867550254795631
  0
CIRCLE
  5
DA
330
1F
100
AcDbEntity
  8
0
  6
Continuous
 62
     7
370
    25
100
AcDbCircle
 10
15.5174795973
 20
12.5483840137
 30
0.0
 40
0.108244974520753
  0
CIRCLE
  5
DB
330
1F
100
AcDbEntity
  8
0
  6
Continuous
 62
     7
370
    25
100
AcDbCircle
 10
15.5174795973
 20
12.5483840137
 30
0.0
 40
0.2017344685008826
  0
CIRCLE
  5
DC
330
1F
100
AcDbEntity
  8
0
  6
Continuous
 62
     7
370
    25
100
AcDbCircle
 10
15.5174795973
 20
12.5483840137
 30
0.0
 40
0.0932655314994335
  0
CIRCLE
  5
DD
330
1F
100
AcDbEntity
  8
0
  6
Continuous
 62
     7
370
    25
100
AcDbCircle
 10
15.5174795973
 20
7.0483840137
 30
0.0
 40
0.0932655314994335
  0
CIRCLE
  5
DE
330
1F
100
AcDbEntity
  8
0
  6
Continuous
 62
     7
370
    25
100
AcDbCircle
 10
15.5174795973
 20
7.0483840137
 30
0.0
 40
0.2017344685008826
  0
CIRCLE
  5
DF
330
1F
100
AcDbEntity
  8
0
  6
Continuous
 62
     7
370
    25
100
AcDbCircle
 10
16.0054795973
 20
12.5483840137
 30
0.0
 40
0.100500000000002
  0
CIRCLE
  5
E0
330
1F
100
AcDbEntity
  8
0
  6
Continuous
 62
     7
370
    25
100
AcDbCircle
 10
16.0054795973
 20
7.0483840137
 30
0.0
 40
0.1005000000000003
  0
LINE
  5
E1
330
1F
100
AcDbEntity
  8
0
  6
Continuous
 62
     7
370
    25
100
AcDbLine
 10
16.1554795973
 20
6.0397395372
 30
0.0
 11
15.6371320949
 21
6.0397395372
 31
0.0
  0
SPLINE
  5
E2
330
1F
100
AcDbEntity
  8
0
  6
Continuous
 62
     7
370
    25
100
AcDbSpline
210
0.0
220
0.0
230
1.0
 70
     8
 71
     3
 72
     8
 73
     4
 74
     0
 42
0.000000001
 43
0.00000001
 40
0.0
 40
0.0
 40
0.0
 40
0.0
 40
1.0
 40
1.0
 40
1.0
 40
1.0
 10
15.63713209491644
 20
6.039739537206306
 30
0.0
 10
15.56000951449417
 20
6.039739537207376
 30
0.0
 10
15.48292276751326
 20
6.049888199976809
 30
0.0
 10
15.40842807529327
 20
6.069848992597975
 30
0.0
  0
LINE
  5
E3
330
1F
100
AcDbEntity
  8
0
  6
Continuous
 62
     7
370
    25
100
AcDbLine
 10
15.4084280753
 20
6.0698489926
 30
0.0
 11
15.1642512954
 21
6.1352759636
 31
0.0
  0
SPLINE
  5
E4
330
1F
100
AcDbEntity
  8
0
  6
Continuous
 62
     7
370
    25
100
AcDbSpline
210
0.0
220
0.0
230
1.0
 70
     8
 71
     3
 72
     8
 73
     4
 74
     0
 42
0.000000001
 43
0.00000001
 40
0.0
 40
0.0
 40
0.0
 40
0.0
 40
1.0
 40
1.0
 40
1.0
 40
1.0
 10
15.16425129538778
 20
6.135275963582747
 30
0.0
 10
15.16367466984521
 20
6.192560593983935
 30
0.0
 10
15.16341332215723
 20
6.249846761666136
 30
0.0
 10
15.16341332214256
 20
6.307134203667963
 30
0.0
  0
LINE
  5
E5
330
1F
100
AcDbEntity
  8
0
  6
Continuous
 62
     7
370
    25
100
AcDbLine
 10
15.1634133221
 20
13.2896338238
 30
0.0
 11
15.1634133221
 21
6.3071342037
 31
0.0
  0
SPLINE
  5
E6
330
1F
100
AcDbEntity
  8
0
  6
Continuous
 62
     7
370
    25
100
AcDbSpline
210
0.0
220
0.0
230
1.0
 70
     8
 71
     3
 72
     8
 73
     4
 74
     0
 42
0.000000001
 43
0.00000001
 40
0.0
 40
0.0
 40
0.0
 40
0.0
 40
1.0
 40
1.0
 40
1.0
 40
1.0
 10
15.16425129538778
 20
13.461492063871
 30
0.0
 10
15.16367466984521
 20
13.40420743346981
 30
0.0
 10
15.16341332215723
 20
13.34692126578761
 30
0.0
 10
15.16341332214256
 20
13.28963382378578
 30
0.0
  0
LINE
  5
E7
330
1F
100
AcDbEntity
  8
0
  6
Continuous
 62
     7
370
    25
100
AcDbLine
 10
15.4084280753
 20
13.5269190349
 30
0.0
 11
15.1642512954
 21
13.4614920639
 31
0.0
  0
SPLINE
  5
E8
330
1F
100
AcDbEntity
  8
0
  6
Continuous
 62
     7
370
    25
100
AcDbSpline
210
0.0
220
0.0
230
1.0
 70
     8
 71
     3
 72
    10
 73
     6
 74
     0
 42
0.000000001
 43
0.00000001
 40
0.0
 40
0.0
 40
0.0
 40
0.0
 40
0.5
 40
0.5
 40
1.0
 40
1.0
 40
1.0
 40
1.0
 10
15.63713209491644
 20
13.55702849024744
 30
0.0
 10
15.5985778930153
 20
13.55702849024744
 30
0.0
 10
15.56011813778664
 20
13.55450351283729
 30
0.0
 10
15.48347111627135
 20
13.54441460673099
 30
0.0
 10
15.44568226569277
 20
13.5369012650882
 30
0.0
 10
15.40842807529327
 20
13.52691903485577
 30
0.0
  0
LINE
  5
E9
330
1F
100
AcDbEntity
  8
0
  6
Continuous
 62
     7
370
    25
100
AcDbLine
 10
16.1554795973
 20
13.5570284902
 30
0.0
 11
15.6371320949
 21
13.5570284902
 31
0.0
  0
SPLINE
  5
EA
330
1F
100
AcDbEntity
  8
0
  6
Continuous
 62
     7
370
    25
100
AcDbSpline
210
0.0
220
0.0
230
1.0
 70
     8
 71
     3
 72
    16
 73
    12
 74
     0
 42
0.000000001
 43
0.00000001
 40
0.0
 40
0.0
 40
0.0
 40
0.0
 40
0.25
 40
0.25
 40
0.5
 40
0.5
 40
0.75
 40
0.75
 40
0.875
 40
0.875
 40
1.0
 40
1.0
 40
1.0
 40
1.0
 10
16.38912407384961
 20
13.32338401372687
 30
0.0
 10
16.38912407384961
 20
13.3539580704082
 30
0.0
 10
16.38302963695788
 20
13.38456480654863
 30
0.0
 10
16.35964825718354
 20
13.44102696136119
 30
0.0
 10
16.34229554166736
 20
13.46698732894116
 30
0.0
 10
16.29908684045968
 20
13.51020388598153
 30
0.0
 10
16.273121678842
 20
13.5275470206543
 30
0.0
 10
16.23077636191462
 20
13.54509153487566
 30
0.0
 10
16.21614687769393
 20
13.54952254275782
 30
0.0
 10
16.1859743736133
 20
13.55552730074952
 30
0.0
 10
16.1707806975051
 20
13.55702849024744
 30
0.0
 10
16.15547959732904
 20
13.55702849024744
 30
0.0
  0
LINE
  5
EB
330
1F
100
AcDbEntity
  8
0
  6
Continuous
 62
     7
370
    25
100
AcDbLine
 10
16.3891240738
 20
9.7983840137
 30
0.0
 11
16.3891240738
 21
13.3233840137
 31
0.0
  0
LINE
  5
EC
330
1F
100
AcDbEntity
  8
0
  6
Continuous
 62
     7
370
    25
100
AcDbLine
 10
16.3891240738
 20
9.7983840137
 30
0.0
 11
16.3891240738
 21
6.2733840137
 31
0.0
  0
SPLINE
  5
ED
330
1F
100
AcDbEntity
  8
0
  6
Continuous
 62
     7
370
    25
100
AcDbSpline
210
0.0
220
0.0
230
1.0
 70
     8
 71
     3
 72
    14
 73
    10
 74
     0
 42
0.000000001
 43
0.00000001
 40
0.0
 40
0.0
 40
0.0
 40
0.0
 40
0.25
 40
0.25
 40
0.5
 40
0.5
 40
0.75
 40
0.75
 40
1.0
 40
1.0
 40
1.0
 40
1.0
 10
16.38912407384961
 20
6.273384013726873
 30
0.0
 10
16.3891240738496
 20
6.242794509159254
 30
0.0
 10
16.38304293345916
 20
6.212228066171632
 30
0.0
 10
16.35963496068225
 20
6.155716220826043
 30
0.0
 10
16.34231733800968
 20
6.129798566938518
 30
0.0
 10
16.29906504411736
 20
6.086546273046278
 30
0.0
 10
16.27314739022992
 20
6.0692286503737
 30
0.0
 10
16.21663554488424
 20
6.045820677596714
 30
0.0
 10
16.1860691018967
 20
6.039739537206305
 30
0.0
 10
16.15547959732904
 20
6.039739537206306
 30
0.0
  0
SPLINE
  5
EE
330
1F
100
AcDbEntity
  8
0
  6
Continuous
 62
     7
370
    25
100
AcDbSpline
210
0.0
220
0.0
230
1.0
 70
     8
 71
     3
 72
    14
 73
    10
 74
     0
 42
0.000000001
 43
0.00000001
 40
0.0
 40
0.0
 40
0.0
 40
0.0
 40
0.25
 40
0.25
 40
0.5
 40
0.5
 40
0.75
 40
0.75
 40
1.0
 40
1.0
 40
1.0
 40
1.0
 10
16.15547959732904
 20
5.944869731404627
 30
0.0
 10
16.19848976940453
 20
5.944869731404625
 30
0.0
 10
16.24146751589668
 20
5.953420078927569
 30
0.0
 10
16.32092562504147
 20
5.986332705375863
 30
0.0
 10
16.35736697213904
 20
6.010682035043478
 30
0.0
 10
16.41818157601244
 20
6.071496638916884
 30
0.0
 10
16.44253090568009
 20
6.107937986014524
 30
0.0
 10
16.47544353212832
 20
6.187396095159159
 30
0.0
 10
16.48399387965129
 20
6.230373841651443
 30
0.0
 10
16.48399387965129
 20
6.273384013726873
 30
0.0
  0
SPLINE
  5
EF
330
1F
100
AcDbEntity
  8
0
  6
Continuous
 62
     7
370
    25
100
AcDbSpline
210
0.0
220
0.0
230
1.0
 70
    24
 71
     3
 72
    22
 73
    18
 74
     0
 42
0.000000001
 43
0.00000001
 40
0.0
 40
0.0
 40
0.0
 40
0.0
 40
0.125
 40
0.125
 40
0.25
 40
0.25
 40
0.375
 40
0.375
 40
0.5
 40
0.5
 40
0.625
 40
0.625
 40
0.75
 40
0.75
 40
0.875
 40
0.875
 40
1.0
 40
1.0
 40
1.0
 40
1.0
 10
16.15547959732904
 20
6.039739537206306
 30
0.0
 10
16.15547959732906
 20
6.037235325155254
 30
0.0
 10
16.15547959732907
 20
6.034124075081211
 30
0.0
 10
16.1554795973291
 20
6.026492410415113
 30
0.0
 10
16.15547959732911
 20
6.021962494443427
 30
0.0
 10
16.15547959732913
 20
6.011654401056266
 30
0.0
 10
16.15547959732914
 20
6.005874171767822
 30
0.0
 10
16.15547959732916
 20
5.993816512163234
 30
0.0
 10
16.15547959732916
 20
5.987554814433802
 30
0.0
 10
16.15547959732916
 20
5.975696088708593
 30
0.0
 10
16.15547959732916
 20
5.970120839823421
 30
0.0
 10
16.15547959732914
 20
5.960573621706413
 30
0.0
 10
16.15547959732913
 20
5.956606489047885
 30
0.0
 10
16.15547959732911
 20
5.950517332049568
 30
0.0
 10
16.1554795973291
 20
5.948384253824078
 30
0.0
 10
16.15547959732907
 20
5.945631597093683
 30
0.0
 10
16.15547959732906
 20
5.945000791736952
 30
0.0
 10
16.15547959732904
 20
5.944869731404625
 30
0.0
  0
SPLINE
  5
F0
330
1F
100
AcDbEntity
  8
0
  6
Continuous
 62
     7
370
    25
100
AcDbSpline
210
0.0
220
0.0
230
1.0
 70
    24
 71
     3
 72
    22
 73
    18
 74
     0
 42
0.000000001
 43
0.00000001
 40
0.0
 40
0.0
 40
0.0
 40
0.0
 40
0.1249999999999999
 40
0.1249999999999999
 40
0.2499999999999999
 40
0.2499999999999999
 40
0.3749999999999998
 40
0.3749999999999998
 40
0.4999999999999998
 40
0.4999999999999998
 40
0.6249999999999998
 40
0.6249999999999998
 40
0.7499999999999999
 40
0.7499999999999999
 40
0.8749999999999999
 40
0.8749999999999999
 40
1.0
 40
1.0
 40
1.0
 40
1.0
 10
16.38912407384961
 20
6.273384013726873
 30
0.0
 10
16.39162828590067
 20
6.273384013726872
 30
0.0
 10
16.3947395359747
 20
6.273384013726873
 30
0.0
 10
16.4023712006408
 20
6.273384013726873
 30
0.0
 10
16.40690111661249
 20
6.273384013726873
 30
0.0
 10
16.41720920999965
 20
6.273384013726873
 30
0.0
 10
16.4229894392881
 20
6.273384013726874
 30
0.0
 10
16.43504709889268
 20
6.273384013726874
 30
0.0
 10
16.44130879662211
 20
6.273384013726873
 30
0.0
 10
16.45316752234733
 20
6.273384013726873
 30
0.0
 10
16.4587427712325
 20
6.273384013726873
 30
0.0
 10
16.4682899893495
 20
6.273384013726873
 30
0.0
 10
16.47225712200803
 20
6.273384013726874
 30
0.0
 10
16.47834627900635
 20
6.273384013726873
 30
0.0
 10
16.48047935723184
 20
6.273384013726872
 30
0.0
 10
16.48323201396224
 20
6.273384013726873
 30
0.0
 10
16.48386281931897
 20
6.273384013726873
 30
0.0
 10
16.48399387965129
 20
6.273384013726873
 30
0.0
  0
SPLINE
  5
F1
330
1F
100
AcDbEntity
  8
0
  6
Continuous
 62
     7
370
    25
100
AcDbSpline
210
0.0
220
0.0
230
1.0
 70
    24
 71
     3
 72
    22
 73
    18
 74
     0
 42
0.000000001
 43
0.00000001
 40
0.0
 40
0.0
 40
0.0
 40
0.0
 40
0.125
 40
0.125
 40
0.25
 40
0.25
 40
0.375
 40
0.375
 40
0.5
 40
0.5
 40
0.625
 40
0.625
 40
0.75
 40
0.75
 40
0.875
 40
0.875
 40
1.0
 40
1.0
 40
1.0
 40
1.0
 10
16.15547959732904
 20
13.55702849024744
 30
0.0
 10
16.15547959732904
 20
13.55953270229849
 30
0.0
 10
16.15547959732904
 20
13.56264395237254
 30
0.0
 10
16.15547959732904
 20
13.57027561703863
 30
0.0
 10
16.15547959732904
 20
13.57480553301032
 30
0.0
 10
16.15547959732904
 20
13.58511362639748
 30
0.0
 10
16.15547959732904
 20
13.59089385568593
 30
0.0
 10
16.15547959732904
 20
13.60295151529051
 30
0.0
 10
16.15547959732904
 20
13.60921321301994
 30
0.0
 10
16.15547959732904
 20
13.62107193874515
 30
0.0
 10
16.15547959732904
 20
13.62664718763033
 30
0.0
 10
16.15547959732904
 20
13.63619440574733
 30
0.0
 10
16.15547959732904
 20
13.64016153840586
 30
0.0
 10
16.15547959732904
 20
13.64625069540418
 30
0.0
 10
16.15547959732904
 20
13.64838377362967
 30
0.0
 10
16.15547959732904
 20
13.65113643036006
 30
0.0
 10
16.15547959732904
 20
13.65176723571679
 30
0.0
 10
16.15547959732904
 20
13.65189829604912
 30
0.0
  0
SPLINE
  5
F2
330
1F
100
AcDbEntity
  8
0
  6
Continuous
 62
     7
370
    25
100
AcDbSpline
210
0.0
220
0.0
230
1.0
 70
     8
 71
     3
 72
    14
 73
    10
 74
     0
 42
0.000000001
 43
0.00000001
 40
0.0
 40
0.0
 40
0.0
 40
0.0
 40
0.25
 40
0.25
 40
0.5
 40
0.5
 40
0.75
 40
0.75
 40
1.0
 40
1.0
 40
1.0
 40
1.0
 10
16.15547959732904
 20
13.65189829604912
 30
0.0
 10
16.19848201632666
 20
13.65189829604912
 30
0.0
 10
16.2414675157087
 20
13.64334794860405
 30
0.0
 10
16.32092562522945
 20
13.61043532200003
 30
0.0
 10
16.35736697199509
 20
13.58608599255421
 30
0.0
 10
16.41818157615638
 20
13.52527138839293
 30
0.0
 10
16.44253090560219
 20
13.48883004162728
 30
0.0
 10
16.47544353220622
 20
13.40937193210653
 30
0.0
 10
16.48399387965129
 20
13.3663864327245
 30
0.0
 10
16.48399387965129
 20
13.32338401372687
 30
0.0
  0
SPLINE
  5
F3
330
1F
100
AcDbEntity
  8
0
  6
Continuous
 62
     7
370
    25
100
AcDbSpline
210
0.0
220
0.0
230
1.0
 70
    24
 71
     3
 72
    22
 73
    18
 74
     0
 42
0.000000001
 43
0.00000001
 40
0.0
 40
0.0
 40
0.0
 40
0.0
 40
0.125
 40
0.125
 40
0.25
 40
0.25
 40
0.375
 40
0.375
 40
0.5
 40
0.5
 40
0.625
 40
0.625
 40
0.75
 40
0.75
 40
0.875
 40
0.875
 40
1.0
 40
1.0
 40
1.0
 40
1.0
 10
16.38912407384961
 20
13.32338401372687
 30
0.0
 10
16.39162828590067
 20
13.32338401372687
 30
0.0
 10
16.3947395359747
 20
13.32338401372687
 30
0.0
 10
16.4023712006408
 20
13.32338401372687
 30
0.0
 10
16.40690111661249
 20
13.32338401372687
 30
0.0
 10
16.41720920999965
 20
13.32338401372687
 30
0.0
 10
16.4229894392881
 20
13.32338401372687
 30
0.0
 10
16.43504709889268
 20
13.32338401372687
 30
0.0
 10
16.44130879662211
 20
13.32338401372687
 30
0.0
 10
16.45316752234733
 20
13.32338401372687
 30
0.0
 10
16.4587427712325
 20
13.32338401372687
 30
0.0
 10
16.4682899893495
 20
13.32338401372687
 30
0.0
 10
16.47225712200803
 20
13.32338401372687
 30
0.0
 10
16.47834627900635
 20
13.32338401372687
 30
0.0
 10
16.48047935723184
 20
13.32338401372687
 30
0.0
 10
16.48323201396224
 20
13.32338401372687
 30
0.0
 10
16.48386281931897
 20
13.32338401372687
 30
0.0
 10
16.48399387965129
 20
13.32338401372687
 30
0.0
  0
SPLINE
  5
F4
330
1F
100
AcDbEntity
  8
0
  6
Continuous
 62
     7
370
    25
100
AcDbSpline
210
0.0
220
0.0
230
1.0
 70
     8
 71
     3
 72
     8
 73
     4
 74
     0
 42
0.000000001
 43
0.00000001
 40
0.0
 40
0.0
 40
0.0
 40
0.0
 40
1.0
 40
1.0
 40
1.0
 40
1.0
 10
15.16425129538778
 20
13.461492063871
 30
0.0
 10
15.15867894827197
 20
13.46134731713573
 30
0.0
 10
15.15290806410929
 20
13.46120434412052
 30
0.0
 10
15.14820513122204
 20
13.46105044799968
 30
0.0
  0
SPLINE
  5
F5
330
1F
100
AcDbEntity
  8
0
  6
Continuous
 62
     7
370
    25
100
AcDbSpline
210
0.0
220
0.0
230
1.0
 70
     8
 71
     3
 72
     8
 73
     4
 74
     0
 42
0.000000001
 43
0.00000001
 40
0.0
 40
0.0
 40
0.0
 40
0.0
 40
1.0
 40
1.0
 40
1.0
 40
1.0
 10
15.16273164780165
 20
13.46655374656951
 30
0.0
 10
15.157519882387
 20
13.46489518069291
 30
0.0
 10
15.15248587942904
 20
13.46298497362524
 30
0.0
 10
15.14820513312936
 20
13.46105044798063
 30
0.0
  0
SPLINE
  5
F6
330
1F
100
AcDbEntity
  8
0
  6
Continuous
 62
     7
370
    25
100
AcDbSpline
210
0.0
220
0.0
230
1.0
 70
     8
 71
     3
 72
     8
 73
     4
 74
     0
 42
0.000000001
 43
0.00000001
 40
0.0
 40
0.0
 40
0.0
 40
0.0
 40
1.0
 40
1.0
 40
1.0
 40
1.0
 10
15.16273164780164
 20
13.46655374656956
 30
0.0
 10
15.16330080512578
 20
13.46463286228587
 30
0.0
 10
15.16380500791362
 20
13.46295439163186
 30
0.0
 10
15.16425129538777
 20
13.46149206387103
 30
0.0
  0
SPLINE
  5
F7
330
1F
100
AcDbEntity
  8
0
  6
Continuous
 62
     7
370
    25
100
AcDbSpline
210
0.0
220
0.0
230
1.0
 70
     8
 71
     3
 72
    26
 73
    22
 74
     0
 42
0.000000001
 43
0.00000001
 40
0.0
 40
0.0
 40
0.0
 40
0.0
 40
0.0110966397518772
 40
0.024134345178226
 40
0.0393636200801266
 40
0.056967790927353
 40
0.0770895659089783
 40
0.0998458117297815
 40
0.1253349734851603
 40
0.180915007789863
 40
0.2504289721932828
 40
0.3034639988441817
 40
0.3751406633494678
 40
0.4994250343462439
 40
0.6239368386499783
 40
0.7492481352872077
 40
0.8744854378469541
 40
0.9072389796731338
 40
0.9372083615907821
 40
0.9683646551162227
 40
1.0
 40
1.0
 40
1.0
 40
1.0
 10
15.0569227677907
 20
13.53002294164941
 30
0.0
 10
15.05714399600342
 20
13.52993298712464
 30
0.0
 10
15.05762515049416
 20
13.52973734289364
 30
0.0
 10
15.05874009623217
 20
13.5294517081332
 30
0.0
 10
15.06018477769025
 20
13.52912398726579
 30
0.0
 10
15.06200493111419
 20
13.52874238243442
 30
0.0
 10
15.06419289502076
 20
13.5282883918817
 30
0.0
 10
15.06675844969612
 20
13.52774489078736
 30
0.0
 10
15.07075635728434
 20
13.52686226845969
 30
0.0
 10
15.07671486690481
 20
13.52543702523626
 30
0.0
 10
15.08384835731832
 20
13.52344329854528
 30
0.0
 10
15.0916668885602
 20
13.52097847687669
 30
0.0
 10
15.10164705083984
 20
13.51739196547067
 30
0.0
 10
15.11437981308692
 20
13.5119738372308
 30
0.0
 10
15.12882064406044
 20
13.50428879337319
 30
0.0
 10
15.14256448834729
 20
13.49493338083449
 30
0.0
 10
15.15200734024477
 20
13.48610752662658
 30
0.0
 10
15.15718452380447
 20
13.47902549929072
 30
0.0
 10
15.15947737296246
 20
13.47519603874416
 30
0.0
 10
15.16133934132121
 20
13.47109294315965
 30
0.0
 10
15.16226519113686
 20
13.46807448825389
 30
0.0
 10
15.16273164780165
 20
13.46655374656951
 30
0.0
  0
SPLINE
  5
F8
330
1F
100
AcDbEntity
  8
0
  6
Continuous
 62
     7
370
    25
100
AcDbSpline
210
0.0
220
0.0
230
1.0
 70
     8
 71
     3
 72
     9
 73
     5
 74
     0
 42
0.000000001
 43
0.00000001
 40
0.0
 40
0.0
 40
0.0
 40
0.0
 40
0.4676555140224711
 40
1.0
 40
1.0
 40
1.0
 40
1.0
 10
15.0577980052214
 20
13.53118444092456
 30
0.0
 10
15.0576431791839
 20
13.53106629878335
 30
0.0
 10
15.05731211062412
 20
13.53081367235714
 30
0.0
 10
15.05705802752663
 20
13.53029764563144
 30
0.0
 10
15.0569227677907
 20
13.53002294164941
 30
0.0
  0
LINE
  5
F9
330
1F
100
AcDbEntity
  8
0
  6
Continuous
 62
     7
370
    25
100
AcDbLine
 10
15.0577980052
 20
13.5311844409
 30
0.0
 11
15.3838739627
 21
13.6185562304
 31
0.0
  0
SPLINE
  5
FA
330
1F
100
AcDbEntity
  8
0
  6
Continuous
 62
     7
370
    25
100
AcDbSpline
210
0.0
220
0.0
230
1.0
 70
    24
 71
     3
 72
    22
 73
    18
 74
     0
 42
0.000000001
 43
0.00000001
 40
0.0
 40
0.0
 40
0.0
 40
0.0
 40
0.125
 40
0.125
 40
0.25
 40
0.25
 40
0.375
 40
0.375
 40
0.5
 40
0.5
 40
0.625
 40
0.625
 40
0.75
 40
0.75
 40
0.875
 40
0.875
 40
1.0
 40
1.0
 40
1.0
 40
1.0
 10
15.40842807529327
 20
13.52691903485577
 30
0.0
 10
15.40777993752148
 20
13.52933791795039
 30
0.0
 10
15.40697468674824
 20
13.53234315474895
 30
0.0
 10
15.40499946658682
 20
13.53971477674751
 30
0.0
 10
15.40382703806063
 20
13.54409033957548
 30
0.0
 10
15.40115910717334
 20
13.55404719319794
 30
0.0
 10
15.39966307374843
 20
13.55963046594952
 30
0.0
 10
15.3965423218034
 20
13.57127727076619
 30
0.0
 10
15.39492167517635
 20
13.57732560631947
 30
0.0
 10
15.39185241110802
 20
13.58878025576433
 30
0.0
 10
15.39040943051535
 20
13.5941655326505
 30
0.0
 10
15.38793842863892
 20
13.60338743719893
 30
0.0
 10
15.38691165915244
 20
13.60721939309012
 30
0.0
 10
15.38533566935266
 20
13.61310106709512
 30
0.0
 10
15.38478358808321
 20
13.61516146244262
 30
0.0
 10
15.38407114809675
 20
13.61782032466942
 30
0.0
 10
15.38390788365668
 20
13.61842963585485
 30
0.0
 10
15.38387396274662
 20
13.61855623041464
 30
0.0
  0
SPLINE
  5
FB
330
1F
100
AcDbEntity
  8
0
  6
Continuous
 62
     7
370
    25
100
AcDbSpline
210
0.0
220
0.0
230
1.0
 70
     8
 71
     3
 72
    15
 73
    11
 74
     0
 42
0.000000001
 43
0.00000001
 40
0.0
 40
0.0
 40
0.0
 40
0.0
 40
0.2010915454205949
 40
0.38178127270069
 40
0.5408341810836933
 40
0.6775844102808325
 40
0.7917859470622384
 40
0.8834662265926448
 40
0.9527984499922373
 40
0.9999999999999999
 40
0.9999999999999999
 40
0.9999999999999999
 40
0.9999999999999999
 10
15.16273164731493
 20
6.130214279067162
 30
0.0
 10
15.16169462951052
 20
6.130550712549105
 30
0.0
 10
15.15972580493188
 20
6.131189446527932
 30
0.0
 10
15.15698695694654
 20
6.132153670533928
 30
0.0
 10
15.15463161805483
 20
6.133029081504761
 30
0.0
 10
15.15266360011548
 20
6.133801424511358
 30
0.0
 10
15.15106887452202
 20
6.134457937251209
 30
0.0
 10
15.14982608667394
 20
6.134991380546255
 30
0.0
 10
15.14890911854757
 20
6.135398605451209
 30
0.0
 10
15.14840809904043
 20
6.135625615426135
 30
0.0
 10
15.14820516304489
 20
6.135717564930305
 30
0.0
  0
SPLINE
  5
FC
330
1F
100
AcDbEntity
  8
0
  6
Continuous
 62
     7
370
    25
100
AcDbSpline
210
0.0
220
0.0
230
1.0
 70
     8
 71
     3
 72
     8
 73
     4
 74
     0
 42
0.000000001
 43
0.00000001
 40
0.0
 40
0.0
 40
0.0
 40
0.0
 40
1.0
 40
1.0
 40
1.0
 40
1.0
 10
15.16425129538778
 20
6.135275963582747
 30
0.0
 10
15.15859313928365
 20
6.13539877310438
 30
0.0
 10
15.15298403520746
 20
6.13555316583205
 30
0.0
 10
15.14820513312936
 20
6.135717579473114
 30
0.0
  0
SPLINE
  5
FD
330
1F
100
AcDbEntity
  8
0
  6
Continuous
 62
     7
370
    25
100
AcDbSpline
210
0.0
220
0.0
230
1.0
 70
    24
 71
     3
 72
     8
 73
     4
 74
     0
 42
0.000000001
 43
0.00000001
 40
0.0
 40
0.0
 40
0.0
 40
0.0
 40
1.0
 40
1.0
 40
1.0
 40
1.0
 10
15.16273164780165
 20
6.130214280884235
 30
0.0
 10
15.16323145895663
 20
6.131879065205795
 30
0.0
 10
15.16374082327739
 20
6.133575669466518
 30
0.0
 10
15.16425129538778
 20
6.135275963582747
 30
0.0
  0
SPLINE
  5
FE
330
1F
100
AcDbEntity
  8
0
  6
Continuous
 62
     7
370
    25
100
AcDbSpline
210
0.0
220
0.0
230
1.0
 70
    24
 71
     3
 72
    22
 73
    18
 74
     0
 42
0.000000001
 43
0.00000001
 40
0.0
 40
0.0
 40
0.0
 40
0.0
 40
0.125
 40
0.125
 40
0.25
 40
0.25
 40
0.375
 40
0.375
 40
0.5
 40
0.5
 40
0.625
 40
0.625
 40
0.75
 40
0.75
 40
0.875
 40
0.875
 40
1.0
 40
1.0
 40
1.0
 40
1.0
 10
15.40842807529327
 20
6.069848992597979
 30
0.0
 10
15.40777993752147
 20
6.067430109503366
 30
0.0
 10
15.40697468674822
 20
6.064424872704808
 30
0.0
 10
15.40499946658677
 20
6.05705325070625
 30
0.0
 10
15.40382703806058
 20
6.052677687878283
 30
0.0
 10
15.40115910717326
 20
6.042720834255832
 30
0.0
 10
15.39966307374835
 20
6.037137561504252
 30
0.0
 10
15.39654232180331
 20
6.025490756687581
 30
0.0
 10
15.39492167517625
 20
6.019442421134306
 30
0.0
 10
15.39185241110792
 20
6.007987771689447
 30
0.0
 10
15.39040943051525
 20
6.002602494803269
 30
0.0
 10
15.38793842863883
 20
5.993380590254834
 30
0.0
 10
15.38691165915237
 20
5.989548634363642
 30
0.0
 10
15.3853356693526
 20
5.983666960358635
 30
0.0
 10
15.38478358808316
 20
5.981606565011136
 30
0.0
 10
15.38407114809673
 20
5.97894770278433
 30
0.0
 10
15.38390788365667
 20
5.978338391598899
 30
0.0
 10
15.38387396274662
 20
5.9782117970391
 30
0.0
  0
LINE
  5
FF
330
1F
100
AcDbEntity
  8
0
  6
Continuous
 62
     7
370
    25
100
AcDbLine
 10
15.0577980052
 20
6.0655835865
 30
0.0
 11
15.3838739627
 21
5.978211797
 31
0.0
  0
SPLINE
  5
100
330
1F
100
AcDbEntity
  8
0
  6
Continuous
 62
     7
370
    25
100
AcDbSpline
210
0.0
220
0.0
230
1.0
 70
     8
 71
     3
 72
     8
 73
     4
 74
     0
 42
0.000000001
 43
0.00000001
 40
0.0
 40
0.0
 40
0.0
 40
0.0
 40
1.0
 40
1.0
 40
1.0
 40
1.0
 10
15.0577980052214
 20
6.065583586529188
 30
0.0
 10
15.05745091584629
 20
6.065775701819294
 30
0.0
 10
15.05716703976314
 20
6.066200498272723
 30
0.0
 10
15.0569227677907
 20
6.066745085804341
 30
0.0
  0
SPLINE
  5
101
330
1F
100
AcDbEntity
  8
0
  6
Continuous
 62
     7
370
    25
100
AcDbSpline
210
0.0
220
0.0
230
1.0
 70
     8
 71
     3
 72
    36
 73
    32
 74
     0
 42
0.000000001
 43
0.00000001
 40
0.0
 40
0.0
 40
0.0
 40
0.0
 40
0.0078124999999996
 40
0.0078124999999996
 40
0.0156249999999992
 40
0.0156249999999992
 40
0.0312499999999983
 40
0.0312499999999983
 40
0.0624999999999967
 40
0.0624999999999967
 40
0.1249999999999963
 40
0.1249999999999963
 40
0.2499999999999964
 40
0.2499999999999964
 40
0.4999999999999959
 40
0.4999999999999959
 40
0.7499999999999952
 40
0.7499999999999952
 40
0.8750000000000001
 40
0.8750000000000001
 40
0.9375000000000026
 40
0.9375000000000026
 40
0.968750000000005
 40
0.968750000000005
 40
0.9843750000000023
 40
0.9843750000000023
 40
0.9921875000000014
 40
0.9921875000000014
 40
0.9960937500000007
 40
0.9960937500000007
 40
1.0
 40
1.0
 40
1.0
 40
1.0
 10
15.05692275935739
 20
6.06674509159847
 30
0.0
 10
15.05726692258798
 20
6.06691426683043
 30
0.0
 10
15.05758826719329
 20
6.067006335099209
 30
0.0
 10
15.05822795945274
 20
6.067187927696627
 30
0.0
 10
15.05854408110977
 20
6.067269204174225
 30
0.0
 10
15.0594855164668
 20
6.067497586397806
 30
0.0
 10
15.06010425281595
 20
6.067630645198109
 30
0.0
 10
15.06195239146738
 20
6.068026341461016
 30
0.0
 10
15.06316924107029
 20
6.068272358465865
 30
0.0
 10
15.06679406381735
 20
6.069030190094383
 30
0.0
 10
15.0691731804471
 20
6.069547360832494
 30
0.0
 10
15.07626217899683
 20
6.071214569330481
 30
0.0
 10
15.08092110023657
 20
6.072467666010732
 30
0.0
 10
15.09477335350844
 20
6.076697541082648
 30
0.0
 10
15.10373633656072
 20
6.080084876244518
 30
0.0
 10
15.12131401957009
 20
6.088271064629029
 30
0.0
 10
15.12992467796142
 20
6.09299566065571
 30
0.0
 10
15.14255306344537
 20
6.10222775086968
 30
0.0
 10
15.14668647052033
 20
6.105614284677882
 30
0.0
 10
15.15268816269319
 20
6.111908369083168
 30
0.0
 10
15.15464410658289
 20
6.114165900167387
 30
0.0
 10
15.157525758228
 20
6.118335856994697
 30
0.0
 10
15.15847143510517
 20
6.119816519225132
 30
0.0
 10
15.1599203600057
 20
6.122600032553572
 30
0.0
 10
15.16040480664663
 20
6.123595315983779
 30
0.0
 10
15.16117136049103
 20
6.125447597675359
 30
0.0
 10
15.16143409386201
 20
6.126129370128683
 30
0.0
 10
15.16184302663498
 20
6.127286632329771
 30
0.0
 10
15.16198499165388
 20
6.127707767207468
 30
0.0
 10
15.16230891668284
 20
6.128740469091055
 30
0.0
 10
15.16245777144153
 20
6.12922418013974
 30
0.0
 10
15.16273165560949
 20
6.130214276775527
 30
0.0
  0
SPLINE
  5
102
330
1F
100
AcDbEntity
  8
0
  6
Continuous
 62
     7
370
    25
100
AcDbSpline
210
0.0
220
0.0
230
1.0
 70
     8
 71
     3
 72
     9
 73
     5
 74
     0
 42
0.000000001
 43
0.00000001
 40
0.0
 40
0.0
 40
0.0
 40
0.0
 40
0.4765329974763752
 40
1.0
 40
1.0
 40
1.0
 40
1.0
 10
15.14871718893137
 20
13.28963382378578
 30
0.0
 10
15.14869596260547
 20
13.31686302501794
 30
0.0
 10
15.1486514193608
 20
13.37400324694667
 30
0.0
 10
15.14835847385348
 20
13.43114081602803
 30
0.0
 10
15.14820512654686
 20
13.46105044804654
 30
0.0
  0
LINE
  5
103
330
1F
100
AcDbEntity
  8
0
  6
Continuous
 62
     7
370
    25
100
AcDbLine
 10
15.1634133221
 20
13.2896338238
 30
0.0
 11
15.1487171889
 21
13.2896338238
 31
0.0
  0
SPLINE
  5
104
330
1F
100
AcDbEntity
  8
0
  6
Continuous
 62
     7
370
    25
100
AcDbSpline
210
0.0
220
0.0
230
1.0
 70
     8
 71
     3
 72
     8
 73
     4
 74
     0
 42
0.000000001
 43
0.00000001
 40
0.0
 40
0.0
 40
0.0
 40
0.0
 40
1.0
 40
1.0
 40
1.0
 40
1.0
 10
15.14871718894559
 20
6.307134203668109
 30
0.0
 10
15.14871716566117
 20
6.250004041090577
 30
0.0
 10
15.14853824559377
 20
6.192867949049882
 30
0.0
 10
15.14820512830841
 20
6.135717579489551
 30
0.0
  0
LINE
  5
105
330
1F
100
AcDbEntity
  8
0
  6
Continuous
 62
     7
370
    25
100
AcDbLine
 10
15.1634133221
 20
6.3071342037
 30
0.0
 11
15.1487171889
 21
6.3071342037
 31
0.0
  0
SPLINE
  5
106
330
1F
100
AcDbEntity
  8
0
  6
Continuous
 62
     7
370
    25
100
AcDbSpline
210
0.0
220
0.0
230
1.0
 70
     8
 71
     3
 72
     8
 73
     4
 74
     0
 42
0.000000001
 43
0.00000001
 40
0.0
 40
0.0
 40
0.0
 40
0.0
 40
1.0
 40
1.0
 40
1.0
 40
1.0
 10
15.38387396274662
 20
13.61855623041465
 30
0.0
 10
15.4663557986445
 20
13.64065717173372
 30
0.0
 10
15.55174061489488
 20
13.65189829604912
 30
0.0
 10
15.63713209491644
 20
13.65189829604912
 30
0.0
  0
SPLINE
  5
107
330
1F
100
AcDbEntity
  8
0
  6
Continuous
 62
     7
370
    25
100
AcDbSpline
210
0.0
220
0.0
230
1.0
 70
    24
 71
     3
 72
    22
 73
    18
 74
     0
 42
0.000000001
 43
0.00000001
 40
0.0
 40
0.0
 40
0.0
 40
0.0
 40
0.125
 40
0.125
 40
0.25
 40
0.25
 40
0.375
 40
0.375
 40
0.5
 40
0.5
 40
0.625
 40
0.625
 40
0.75
 40
0.75
 40
0.875
 40
0.875
 40
1.0
 40
1.0
 40
1.0
 40
1.0
 10
15.63713209491644
 20
13.55702849024744
 30
0.0
 10
15.63713209491644
 20
13.55953270229849
 30
0.0
 10
15.63713209491644
 20
13.56264395237254
 30
0.0
 10
15.63713209491644
 20
13.57027561703863
 30
0.0
 10
15.63713209491644
 20
13.57480553301032
 30
0.0
 10
15.63713209491644
 20
13.58511362639748
 30
0.0
 10
15.63713209491644
 20
13.59089385568593
 30
0.0
 10
15.63713209491644
 20
13.60295151529051
 30
0.0
 10
15.63713209491644
 20
13.60921321301994
 30
0.0
 10
15.63713209491644
 20
13.62107193874515
 30
0.0
 10
15.63713209491644
 20
13.62664718763033
 30
0.0
 10
15.63713209491644
 20
13.63619440574733
 30
0.0
 10
15.63713209491644
 20
13.64016153840586
 30
0.0
 10
15.63713209491644
 20
13.64625069540418
 30
0.0
 10
15.63713209491644
 20
13.64838377362967
 30
0.0
 10
15.63713209491644
 20
13.65113643036006
 30
0.0
 10
15.63713209491644
 20
13.65176723571679
 30
0.0
 10
15.63713209491644
 20
13.65189829604912
 30
0.0
  0
SPLINE
  5
108
330
1F
100
AcDbEntity
  8
0
  6
Continuous
 62
     7
370
    25
100
AcDbSpline
210
0.0
220
0.0
230
1.0
 70
     8
 71
     3
 72
     8
 73
     4
 74
     0
 42
0.000000001
 43
0.00000001
 40
0.0
 40
0.0
 40
0.0
 40
0.0
 40
1.0
 40
1.0
 40
1.0
 40
1.0
 10
15.38387396274662
 20
5.9782117970391
 30
0.0
 10
15.46636655137376
 20
5.956107974534907
 30
0.0
 10
15.55172948285039
 20
5.944869731404625
 30
0.0
 10
15.63713209491644
 20
5.944869731404625
 30
0.0
  0
SPLINE
  5
109
330
1F
100
AcDbEntity
  8
0
  6
Continuous
 62
     7
370
    25
100
AcDbSpline
210
0.0
220
0.0
230
1.0
 70
    24
 71
     3
 72
    22
 73
    18
 74
     0
 42
0.000000001
 43
0.00000001
 40
0.0
 40
0.0
 40
0.0
 40
0.0
 40
0.125
 40
0.125
 40
0.25
 40
0.25
 40
0.375
 40
0.375
 40
0.5
 40
0.5
 40
0.625
 40
0.625
 40
0.75
 40
0.75
 40
0.875
 40
0.875
 40
1.0
 40
1.0
 40
1.0
 40
1.0
 10
15.63713209491644
 20
6.039739537206306
 30
0.0
 10
15.63713209491644
 20
6.037235325155254
 30
0.0
 10
15.63713209491644
 20
6.034124075081211
 30
0.0
 10
15.63713209491643
 20
6.026492410415113
 30
0.0
 10
15.63713209491643
 20
6.021962494443427
 30
0.0
 10
15.63713209491643
 20
6.011654401056266
 30
0.0
 10
15.63713209491643
 20
6.005874171767822
 30
0.0
 10
15.63713209491643
 20
5.993816512163234
 30
0.0
 10
15.63713209491643
 20
5.987554814433802
 30
0.0
 10
15.63713209491643
 20
5.975696088708593
 30
0.0
 10
15.63713209491643
 20
5.970120839823421
 30
0.0
 10
15.63713209491643
 20
5.960573621706413
 30
0.0
 10
15.63713209491643
 20
5.956606489047885
 30
0.0
 10
15.63713209491643
 20
5.950517332049568
 30
0.0
 10
15.63713209491643
 20
5.948384253824078
 30
0.0
 10
15.63713209491644
 20
5.945631597093683
 30
0.0
 10
15.63713209491644
 20
5.945000791736952
 30
0.0
 10
15.63713209491644
 20
5.944869731404625
 30
0.0
  0
LINE
  5
10A
330
1F
100
AcDbEntity
  8
0
  6
Continuous
 62
     7
370
    25
100
AcDbLine
 10
15.1487171889
 20
6.3071342037
 30
0.0
 11
15.1487171889
 21
13.2896338238
 31
0.0
  0
SPLINE
  5
10B
330
1F
100
AcDbEntity
  8
0
  6
Continuous
 62
     7
370
    25
100
AcDbSpline
210
0.0
220
0.0
230
1.0
 70
    24
 71
     3
 72
    22
 73
    18
 74
     0
 42
0.000000001
 43
0.00000001
 40
0.0
 40
0.0
 40
0.0
 40
0.0
 40
0.1250000000000001
 40
0.1250000000000001
 40
0.2500000000000001
 40
0.2500000000000001
 40
0.3750000000000002
 40
0.3750000000000002
 40
0.5000000000000002
 40
0.5000000000000002
 40
0.6250000000000002
 40
0.6250000000000002
 40
0.7500000000000002
 40
0.7500000000000002
 40
0.8750000000000001
 40
0.8750000000000001
 40
1.0
 40
1.0
 40
1.0
 40
1.0
 10
16.48399387965129
 20
9.798384013726873
 30
0.0
 10
16.48386281931897
 20
9.798384013726873
 30
0.0
 10
16.48323201396224
 20
9.798384013726873
 30
0.0
 10
16.48047935723184
 20
9.798384013726873
 30
0.0
 10
16.47834627900635
 20
9.798384013726873
 30
0.0
 10
16.47225712200803
 20
9.798384013726873
 30
0.0
 10
16.46828998934951
 20
9.798384013726873
 30
0.0
 10
16.4587427712325
 20
9.798384013726873
 30
0.0
 10
16.45316752234733
 20
9.798384013726873
 30
0.0
 10
16.44130879662212
 20
9.798384013726873
 30
0.0
 10
16.43504709889269
 20
9.798384013726873
 30
0.0
 10
16.4229894392881
 20
9.798384013726873
 30
0.0
 10
16.41720920999965
 20
9.798384013726873
 30
0.0
 10
16.40690111661249
 20
9.798384013726873
 30
0.0
 10
16.4023712006408
 20
9.798384013726873
 30
0.0
 10
16.39473953597471
 20
9.798384013726873
 30
0.0
 10
16.39162828590067
 20
9.798384013726873
 30
0.0
 10
16.38912407384961
 20
9.798384013726873
 30
0.0
  0
LINE
  5
10C
330
1F
100
AcDbEntity
  8
0
  6
Continuous
 62
     7
370
    25
100
AcDbLine
 10
16.4839938797
 20
6.2733840137
 30
0.0
 11
16.4839938797
 21
9.7983840137
 31
0.0
  0
LINE
  5
10D
330
1F
100
AcDbEntity
  8
0
  6
Continuous
 62
     7
370
    25
100
AcDbLine
 10
16.4839938797
 20
13.3233840137
 30
0.0
 11
16.4839938797
 21
9.7983840137
 31
0.0
  0
LINE
  5
10E
330
1F
100
AcDbEntity
  8
0
  6
Continuous
 62
     7
370
    25
100
AcDbLine
 10
15.6371320949
 20
5.9448697314
 30
0.0
 11
16.1554795973
 21
5.9448697314
 31
0.0
  0
LINE
  5
10F
330
1F
100
AcDbEntity
  8
0
  6
Continuous
 62
     7
370
    25
100
AcDbLine
 10
15.6371320949
 20
13.651898296
 30
0.0
 11
16.1554795973
 21
13.651898296
 31
0.0
  0
SPLINE
  5
110
330
1F
100
AcDbEntity
  8
0
  6
Continuous
 62
     7
370
    25
100
AcDbSpline
210
0.0
220
0.0
230
1.0
 70
     8
 71
     3
 72
    12
 73
     8
 74
     0
 42
0.000000001
 43
0.00000001
 40
0.0
 40
0.0
 40
0.0
 40
0.0
 40
0.5
 40
0.5
 40
0.75
 40
0.75
 40
1.0
 40
1.0
 40
1.0
 40
1.0
 10
15.0569227677907
 20
6.066745085804341
 30
0.0
 10
15.05453464903138
 20
6.068624736249681
 30
0.0
 10
15.0525861594745
 20
6.071880404653743
 30
0.0
 10
15.05062900933164
 20
6.078148750933719
 30
0.0
 10
15.05013112078198
 20
6.080501654521817
 30
0.0
 10
15.04950930481372
 20
6.085434125502605
 30
0.0
 10
15.04937694080366
 20
6.088013075531668
 30
0.0
 10
15.04943025266452
 20
6.090707867462704
 30
0.0
  0
SPLINE
  5
111
330
1F
100
AcDbEntity
  8
0
  6
Continuous
 62
     7
370
    25
100
AcDbSpline
210
0.0
220
0.0
230
1.0
 70
     8
 71
     3
 72
    24
 73
    20
 74
     0
 42
0.000000001
 43
0.00000001
 40
0.0
 40
0.0
 40
0.0
 40
0.0
 40
0.0312499999999979
 40
0.0312499999999979
 40
0.0624999999999958
 40
0.0624999999999958
 40
0.1249999999999966
 40
0.1249999999999966
 40
0.2499999999999986
 40
0.2499999999999986
 40
0.4999999999999968
 40
0.4999999999999968
 40
0.7499999999999949
 40
0.7499999999999949
 40
0.8749999999999971
 40
0.8749999999999971
 40
0.9374999999999986
 40
0.9374999999999986
 40
1.0
 40
1.0
 40
1.0
 40
1.0
 10
15.14820516304489
 20
6.135717564930303
 30
0.0
 10
15.14778049274399
 20
6.134490918140089
 30
0.0
 10
15.14703454917507
 20
6.133387367094297
 30
0.0
 10
15.1455624512561
 20
6.13132869566212
 30
0.0
 10
15.14477070797333
 20
6.13037601117176
 30
0.0
 10
15.14231294943943
 20
6.127629680897298
 30
0.0
 10
15.14055076979439
 20
6.125963734119915
 30
0.0
 10
15.13508086364089
 20
6.121224606376043
 30
0.0
 10
15.13120059923189
 20
6.1184545554353
 30
0.0
 10
15.11927169282818
 20
6.110815288918874
 30
0.0
 10
15.11101210333715
 20
6.106690097679062
 30
0.0
 10
15.09410334033442
 20
6.099609793234613
 30
0.0
 10
15.08544320246291
 20
6.096672570010885
 30
0.0
 10
15.07209614150656
 20
6.093302663605725
 30
0.0
 10
15.06761146383005
 20
6.092359576668994
 30
0.0
 10
15.06083723502896
 20
6.09133637188669
 30
0.0
 10
15.05857064712058
 20
6.091058810467091
 30
0.0
 10
15.054011533546
 20
6.090693106336602
 30
0.0
 10
15.05172104608869
 20
6.09056360013601
 30
0.0
 10
15.04943025263796
 20
6.090707865518399
 30
0.0
  0
SPLINE
  5
112
330
1F
100
AcDbEntity
  8
0
  6
Continuous
 62
     7
370
    25
100
AcDbSpline
210
0.0
220
0.0
230
1.0
 70
     8
 71
     3
 72
    23
 73
    19
 74
     0
 42
0.000000001
 43
0.00000001
 40
0.0
 40
0.0
 40
0.0
 40
0.0
 40
0.0123966691390649
 40
0.0281658648882272
 40
0.0474242215180833
 40
0.0701915791374373
 40
0.0964409072249987
 40
0.1261217889530585
 40
0.1775060401053427
 40
0.2514448115980078
 40
0.3221730075976005
 40
0.3760492689825093
 40
0.5009848274899444
 40
0.7503287300027598
 40
0.8745774171308542
 40
0.9369462847672823
 40
0.9741409156470895
 40
0.9999999999999999
 40
0.9999999999999999
 40
0.9999999999999999
 40
0.9999999999999999
 10
15.14820512654686
 20
13.46105044804653
 30
0.0
 10
15.14800540063267
 20
13.46152418272777
 30
0.0
 10
15.14755161316358
 20
13.46260053209831
 30
0.0
 10
15.14649740733069
 20
13.46420254528979
 30
0.0
 10
15.14510430383711
 20
13.46602912198811
 30
0.0
 10
15.14332367831737
 20
13.46803634654618
 30
0.0
 10
15.1411666426375
 20
13.47020774896753
 30
0.0
 10
15.13810129344527
 20
13.47298783648633
 30
0.0
 10
15.13346573606431
 20
13.47666434816325
 30
0.0
 10
15.12736638831423
 20
13.48087244732723
 30
0.0
 10
15.1209845327794
 20
13.4846949662931
 30
0.0
 10
15.11279299068194
 20
13.4890882092623
 30
0.0
 10
15.09838717552372
 20
13.49571093603879
 30
0.0
 10
15.08100846998984
 20
13.50158439881209
 30
0.0
 10
15.06541745974064
 20
13.50487607503822
 30
0.0
 10
15.05729489892953
 20
13.50585533798812
 30
0.0
 10
15.05270642223555
 20
13.50614782782689
 30
0.0
 10
15.05038281620106
 20
13.50608572872767
 30
0.0
 10
15.04942987751652
 20
13.50606026114278
 30
0.0
  0
SPLINE
  5
113
330
1F
100
AcDbEntity
  8
0
  6
Continuous
 62
     7
370
    25
100
AcDbSpline
210
0.0
220
0.0
230
1.0
 70
     8
 71
     3
 72
    19
 73
    15
 74
     0
 42
0.000000001
 43
0.00000001
 40
0.0
 40
0.0
 40
0.0
 40
0.0
 40
0.1063241345637586
 40
0.2105246953213086
 40
0.3116965040236008
 40
0.4090468329558629
 40
0.5019185330782588
 40
0.5898001571076185
 40
0.6723242547215637
 40
0.7492563766376173
 40
0.8204778997382721
 40
0.8859656893058542
 40
0.9457710864416029
 40
0.9999999999999999
 40
0.9999999999999999
 40
0.9999999999999999
 40
0.9999999999999999
 10
15.0569227593574
 20
13.53002293585528
 30
0.0
 10
15.05643178996075
 20
13.52959310610972
 30
0.0
 10
15.05545965712311
 20
13.52874203145395
 30
0.0
 10
15.05416296373946
 20
13.52704190528205
 30
0.0
 10
15.05302262914979
 20
13.5251118186698
 30
0.0
 10
15.05205660968201
 20
13.52298666705489
 30
0.0
 10
15.05126293923839
 20
13.52074350119789
 30
0.0
 10
15.05063482020962
 20
13.51844567242772
 30
0.0
 10
15.05015883959454
 20
13.51615207788925
 30
0.0
 10
15.04981808056924
 20
13.51391163882415
 30
0.0
 10
15.04959284410628
 20
13.51176350952595
 30
0.0
 10
15.04946523530187
 20
13.5097363360088
 30
0.0
 10
15.04941044077035
 20
13.50785191989958
 30
0.0
 10
15.04942386754659
 20
13.50663762078407
 30
0.0
 10
15.04943025263792
 20
13.50606016193534
 30
0.0
  0
SPLINE
  5
114
330
1F
100
AcDbEntity
  8
0
  6
Continuous
 62
     7
370
    25
100
AcDbSpline
210
0.0
220
0.0
230
1.0
 70
     8
 71
     3
 72
    12
 73
     8
 74
     0
 42
0.000000001
 43
0.00000001
 40
0.0
 40
0.0
 40
0.0
 40
0.0
 40
0.2499999999999998
 40
0.2499999999999998
 40
0.4999999999999996
 40
0.4999999999999996
 40
1.0
 40
1.0
 40
1.0
 40
1.0
 10
15.04943051064613
 20
6.090707847091029
 30
0.0
 10
15.01795025363817
 20
6.096886385699191
 30
0.0
 10
14.98580406049977
 20
6.103114010919864
 30
0.0
 10
14.9207707719991
 20
6.116620844731811
 30
0.0
 10
14.88769791690481
 20
6.123869363162147
 30
0.0
 10
14.78785458094698
 20
6.146682939519225
 30
0.0
 10
14.7200676459608
 20
6.163353821390835
 30
0.0
 10
14.65014346536675
 20
6.181599347446912
 30
0.0
  0
SPLINE
  5
115
330
1F
100
AcDbEntity
  8
0
  6
Continuous
 62
     7
370
    25
100
AcDbSpline
210
0.0
220
0.0
230
1.0
 70
     8
 71
     3
 72
    22
 73
    18
 74
     0
 42
0.000000001
 43
0.00000001
 40
0.0
 40
0.0
 40
0.0
 40
0.0
 40
0.125
 40
0.125
 40
0.25
 40
0.25
 40
0.375
 40
0.375
 40
0.5
 40
0.5
 40
0.625
 40
0.625
 40
0.75
 40
0.75
 40
0.875
 40
0.875
 40
1.0
 40
1.0
 40
1.0
 40
1.0
 10
14.78131385865171
 20
6.307134203667963
 30
0.0
 10
14.78876749053626
 20
6.304407110694515
 30
0.0
 10
14.7939262669717
 20
6.302310322384432
 30
0.0
 10
14.79971890372227
 20
6.299211552155474
 30
0.0
 10
14.80032759307344
 20
6.298212517641806
 30
0.0
 10
14.79758016256907
 20
6.296879391456894
 30
0.0
 10
14.79430735049175
 20
6.296542063812752
 30
0.0
 10
14.78502786292913
 20
6.295570925657499
 30
0.0
 10
14.77902841592486
 20
6.294962819665971
 30
0.0
 10
14.76484168355624
 20
6.29184375936578
 30
0.0
 10
14.75671623437153
 20
6.289323941695116
 30
0.0
 10
14.7385718572283
 20
6.280028820303726
 30
0.0
 10
14.72850820759374
 20
6.273134866987186
 30
0.0
 10
14.7070624503682
 20
6.254199964208051
 30
0.0
 10
14.69571332812747
 20
6.242219180980967
 30
0.0
 10
14.6729056679429
 20
6.214564265713558
 30
0.0
 10
14.66144702224569
 20
6.198936807471605
 30
0.0
 10
14.65014336496898
 20
6.181599436445982
 30
0.0
  0
LINE
  5
116
330
1F
100
AcDbEntity
  8
0
  6
Continuous
 62
     7
370
    25
100
AcDbLine
 10
14.7813138587
 20
6.3071342037
 30
0.0
 11
15.1487171889
 21
6.3071342037
 31
0.0
  0
LINE
  5
117
330
1F
100
AcDbEntity
  8
0
  6
Continuous
 62
     7
370
    25
100
AcDbLine
 10
14.7813138587
 20
13.2896338238
 30
0.0
 11
15.1487171889
 21
13.2896338238
 31
0.0
  0
SPLINE
  5
118
330
1F
100
AcDbEntity
  8
0
  6
Continuous
 62
     7
370
    25
100
AcDbSpline
210
0.0
220
0.0
230
1.0
 70
     8
 71
     3
 72
    27
 73
    23
 74
     0
 42
0.000000001
 43
0.00000001
 40
0.0
 40
0.0
 40
0.0
 40
0.0
 40
0.0374682071986304
 40
0.0636100015830615
 40
0.0710084433866069
 40
0.0763421052095951
 40
0.0822799356100245
 40
0.0857685122563006
 40
0.0890837551999422
 40
0.094783449373957
 40
0.106673095633008
 40
0.1264006563417416
 40
0.165521792531832
 40
0.1896664496167425
 40
0.2213446896742641
 40
0.2523239941771007
 40
0.3650715721970451
 40
0.5026123510656899
 40
0.6332539478035153
 40
0.7873103972844668
 40
0.8884362086830513
 40
1.0
 40
1.0
 40
1.0
 40
1.0
 10
14.78131385865171
 20
13.28963382378578
 30
0.0
 10
14.78412688142413
 20
13.29067841938851
 30
0.0
 10
14.78890256716909
 20
13.29245183565022
 30
0.0
 10
14.79415443433546
 20
13.29465976356852
 30
0.0
 10
14.79693937781923
 20
13.29604276561523
 30
0.0
 10
14.79823687101382
 20
13.29680818505849
 30
0.0
 10
14.79918058099204
 20
13.29746290683579
 30
0.0
 10
14.79978169023845
 20
13.29848403102667
 30
0.0
 10
14.79898852364157
 20
13.29932050858461
 30
0.0
 10
14.79739256954501
 20
13.29973412261473
 30
0.0
 10
14.79444652360756
 20
13.30021596452591
 30
0.0
 10
14.78885136134635
 20
13.30078327362657
 30
0.0
 10
14.78230677950157
 20
13.30155802130596
 30
0.0
 10
14.77488711494512
 20
13.30267715685799
 30
0.0
 10
14.76823503212697
 20
13.30416488443302
 30
0.0
 10
14.75514688581629
 20
13.30802273133459
 30
0.0
 10
14.73599101786828
 20
13.31778389412555
 30
0.0
 10
14.71460539229609
 20
13.33520410497343
 30
0.0
 10
14.69399063327852
 20
13.3564728525456
 30
0.0
 10
14.67712016907656
 20
13.37696062152893
 30
0.0
 10
14.66227850279681
 20
13.39699751164308
 30
0.0
 10
14.654318690078
 20
13.40891664233312
 30
0.0
 10
14.65014346536675
 20
13.41516868000683
 30
0.0
  0
SPLINE
  5
119
330
1F
100
AcDbEntity
  8
0
  6
Continuous
 62
     7
370
    25
100
AcDbSpline
210
0.0
220
0.0
230
1.0
 70
     8
 71
     3
 72
    19
 73
    15
 74
     0
 42
0.000000001
 43
0.00000001
 40
0.0
 40
0.0
 40
0.0
 40
0.0
 40
0.0569144505591893
 40
0.1252302036076078
 40
0.1877816273399502
 40
0.2502385733016267
 40
0.3750565427604733
 40
0.4992717924178803
 40
0.6226458736170833
 40
0.7494181056579988
 40
0.8104830866372736
 40
0.8727216249503361
 40
0.9359537472483939
 40
1.0
 40
1.0
 40
1.0
 40
1.0
 10
15.04942987751652
 20
13.50606026114278
 30
0.0
 10
15.04234032715299
 20
13.50469189343406
 30
0.0
 10
15.02674102281484
 20
13.50168104179463
 30
0.0
 10
15.00310070488595
 20
13.49697131912615
 30
0.0
 10
14.97857111220178
 20
13.4920973866373
 30
0.0
 10
14.94660877491214
 20
13.48557240289501
 30
0.0
 10
14.90622740022156
 20
13.4768656971371
 30
0.0
 10
14.85697067561146
 20
13.46598198610178
 30
0.0
 10
14.80650373871958
 20
13.45418836032691
 30
0.0
 10
14.7638200009401
 20
13.44392230373762
 30
0.0
 10
14.72921784206133
 20
13.43535680234465
 30
0.0
 10
14.70328656319928
 20
13.42883793587952
 30
0.0
 10
14.676856541899
 20
13.42210563710635
 30
0.0
 10
14.6590857200522
 20
13.41749081727155
 30
0.0
 10
14.65014347399383
 20
13.41516864810945
 30
0.0
  0
LINE
  5
11A
330
1F
100
AcDbEntity
  8
0
  6
Continuous
 62
     7
370
    25
100
AcDbLine
 10
14.7813138587
 20
6.3071342037
 30
0.0
 11
14.7813138587
 21
13.2896338238
 31
0.0
  0
SPLINE
  5
11B
330
1F
100
AcDbEntity
  8
0
  6
Continuous
 62
     7
370
    25
100
AcDbSpline
210
0.0
220
0.0
230
1.0
 70
     8
 71
     3
 72
     8
 73
     4
 74
     0
 42
0.000000001
 43
0.00000001
 40
0.0
 40
0.0
 40
0.0
 40
0.0
 40
1.0
 40
1.0
 40
1.0
 40
1.0
 10
15.0577980052214
 20
6.065583586529188
 30
0.0
 10
15.05694309791462
 20
6.065900753759813
 30
0.0
 10
15.05613331373245
 20
6.06638555511851
 30
0.0
 10
15.05538214693086
 20
6.067029655523042
 30
0.0
  0
SPLINE
  5
11C
330
1F
100
AcDbEntity
  8
0
  6
Continuous
 62
     7
370
    25
100
AcDbSpline
210
0.0
220
0.0
230
1.0
 70
     8
 71
     3
 72
    12
 73
     8
 74
     0
 42
0.000000001
 43
0.00000001
 40
0.0
 40
0.0
 40
0.0
 40
0.0
 40
0.5
 40
0.5
 40
0.75
 40
0.75
 40
1.0
 40
1.0
 40
1.0
 40
1.0
 10
14.64679244385973
 20
6.168939780068533
 30
0.0
 10
14.71947746474205
 20
6.149470660949715
 30
0.0
 10
14.78978274708002
 20
6.131347236036887
 30
0.0
 10
14.89270875808633
 20
6.105593844180292
 30
0.0
 10
14.9266913985501
 20
6.097226149692181
 30
0.0
 10
14.99311659503274
 20
6.081062924836075
 30
0.0
 10
15.02572905442551
 20
6.073216677766499
 30
0.0
 10
15.0577980052214
 20
6.065583586529188
 30
0.0
  0
ARC
  5
11D
330
1F
100
AcDbEntity
  8
0
  6
Continuous
 62
     7
370
    25
100
AcDbCircle
 10
16.3079605079
 20
5.7359974251
 30
0.0
 40
1.71665908665098
100
AcDbArc
 50
164.9551495132
 51
165.392232682
  0
SPLINE
  5
11E
330
1F
100
AcDbEntity
  8
0
  6
Continuous
 62
     7
370
    25
100
AcDbSpline
210
0.0
220
0.0
230
1.0
 70
     8
 71
     3
 72
    13
 73
     9
 74
     0
 42
0.000000001
 43
0.00000001
 40
0.0
 40
0.0
 40
0.0
 40
0.0
 40
0.0968813558509747
 40
0.2234492436985593
 40
0.3799924286403554
 40
0.5650000245407345
 40
0.7741779506992715
 40
1.0
 40
1.0
 40
1.0
 40
1.0
 10
15.05538215732873
 20
6.067029683861537
 30
0.0
 10
15.05496706744286
 20
6.06742022000897
 30
0.0
 10
15.05400969519876
 20
6.068320960982447
 30
0.0
 10
15.05257710115717
 20
6.070393390181978
 30
0.0
 10
15.05110719681026
 20
6.073529270052302
 30
0.0
 10
15.04988672293566
 20
6.078008444464682
 30
0.0
 10
15.04914961117611
 20
6.083826482290233
 30
0.0
 10
15.04933451915139
 20
6.088356285183151
 30
0.0
 10
15.04943051064625
 20
6.090707847091006
 30
0.0
  0
ARC
  5
11F
330
1F
100
AcDbEntity
  8
0
  6
Continuous
 62
     7
370
    25
100
AcDbCircle
 10
16.307960508
 20
13.8607706024
 30
0.0
 40
1.716659086716724
100
AcDbArc
 50
194.607767318
 51
195.0448504867
  0
SPLINE
  5
120
330
1F
100
AcDbEntity
  8
0
  6
Continuous
 62
     7
370
    25
100
AcDbSpline
210
0.0
220
0.0
230
1.0
 70
     8
 71
     3
 72
    12
 73
     8
 74
     0
 42
0.000000001
 43
0.00000001
 40
0.0
 40
0.0
 40
0.0
 40
0.0
 40
0.5
 40
0.5
 40
0.75
 40
0.75
 40
1.0
 40
1.0
 40
1.0
 40
1.0
 10
14.64679244385973
 20
13.42782824738521
 30
0.0
 10
14.71947746474205
 20
13.44729736650403
 30
0.0
 10
14.78978274708002
 20
13.46542079141686
 30
0.0
 10
14.89270875808633
 20
13.49117418327346
 30
0.0
 10
14.9266913985501
 20
13.49954187776157
 30
0.0
 10
14.99311659503274
 20
13.51570510261767
 30
0.0
 10
15.02572905442551
 20
13.52355134968725
 30
0.0
 10
15.0577980052214
 20
13.53118444092456
 30
0.0
  0
SPLINE
  5
121
330
1F
100
AcDbEntity
  8
0
  6
Continuous
 62
     7
370
    25
100
AcDbSpline
210
0.0
220
0.0
230
1.0
 70
     8
 71
     3
 72
     8
 73
     4
 74
     0
 42
0.000000001
 43
0.00000001
 40
0.0
 40
0.0
 40
0.0
 40
0.0
 40
1.0
 40
1.0
 40
1.0
 40
1.0
 10
15.0577980052214
 20
13.53118444092456
 30
0.0
 10
15.05694434679137
 20
13.53086692847648
 30
0.0
 10
15.05613916940909
 20
13.53038384063411
 30
0.0
 10
15.05538214693086
 20
13.5297383719307
 30
0.0
  0
SPLINE
  5
122
330
1F
100
AcDbEntity
  8
0
  6
Continuous
 62
     7
370
    25
100
AcDbSpline
210
0.0
220
0.0
230
1.0
 70
     8
 71
     3
 72
    10
 73
     6
 74
     0
 42
0.000000001
 43
0.00000001
 40
0.0
 40
0.0
 40
0.0
 40
0.0
 40
0.5
 40
0.5
 40
1.0
 40
1.0
 40
1.0
 40
1.0
 10
15.05538214693086
 20
13.5297383719307
 30
0.0
 10
15.05317231883737
 20
13.52785418101788
 30
0.0
 10
15.05145600783967
 20
13.52462151317574
 30
0.0
 10
15.04938529153684
 20
13.51637184080514
 30
0.0
 10
15.04903141811466
 20
13.51136192554577
 30
0.0
 10
15.04943025266452
 20
13.50606015999104
 30
0.0
  0
SPLINE
  5
123
330
1F
100
AcDbEntity
  8
0
  6
Continuous
 62
     7
370
    25
100
AcDbSpline
210
0.0
220
0.0
230
1.0
 70
     8
 71
     3
 72
     8
 73
     4
 74
     0
 42
0.000000001
 43
0.00000001
 40
0.0
 40
0.0
 40
0.0
 40
0.0
 40
1.0
 40
1.0
 40
1.0
 40
1.0
 10
15.0569227677907
 20
6.066745085804338
 30
0.0
 10
15.05640679733348
 20
6.066830704588046
 30
0.0
 10
15.05588329480902
 20
6.066894238862373
 30
0.0
 10
15.05538214693086
 20
6.067029655523042
 30
0.0
  0
SPLINE
  5
124
330
1F
100
AcDbEntity
  8
0
  6
Continuous
 62
     7
370
    25
100
AcDbSpline
210
0.0
220
0.0
230
1.0
 70
     8
 71
     3
 72
     8
 73
     4
 74
     0
 42
0.000000001
 43
0.00000001
 40
0.0
 40
0.0
 40
0.0
 40
0.0
 40
1.0
 40
1.0
 40
1.0
 40
1.0
 10
15.0569227677907
 20
13.53002294164941
 30
0.0
 10
15.05640679733344
 20
13.52993732286567
 30
0.0
 10
15.05588329480902
 20
13.52987378859137
 30
0.0
 10
15.05538214693086
 20
13.5297383719307
 30
0.0
  0
LINE
  5
125
330
1F
100
AcDbEntity
  8
0
  6
Continuous
 62
     7
370
    25
100
AcDbLine
 10
16.4839938797
 20
6.2733840137
 30
0.0
 11
16.5054795973
 21
6.2733840137
 31
0.0
  0
ARC
  5
126
330
1F
100
AcDbEntity
  8
0
  6
Continuous
 62
     7
370
    25
100
AcDbCircle
 10
16.1554795973
 20
6.2733840137
 30
0.0
 40
0.3500000000000014
100
AcDbArc
 50
270.0
 51
0.0
  0
LINE
  5
127
330
1F
100
AcDbEntity
  8
0
  6
Continuous
 62
     7
370
    25
100
AcDbLine
 10
16.1554795973
 20
5.9448697314
 30
0.0
 11
16.1554795973
 21
5.9233840137
 31
0.0
  0
LINE
  5
128
330
1F
100
AcDbEntity
  8
0
  6
Continuous
 62
     7
370
    25
100
AcDbLine
 10
16.1554795973
 20
5.9233840137
 30
0.0
 11
15.6371320949
 21
5.9233840137
 31
0.0
  0
LINE
  5
129
330
1F
100
AcDbEntity
  8
0
  6
Continuous
 62
     7
370
    25
100
AcDbLine
 10
15.6371320949
 20
5.9448697314
 30
0.0
 11
15.6371320949
 21
5.9233840137
 31
0.0
  0
LINE
  5
12A
330
1F
100
AcDbEntity
  8
0
  6
Continuous
 62
     7
370
    25
100
AcDbLine
 10
16.4839938797
 20
13.3233840137
 30
0.0
 11
16.5054795973
 21
13.3233840137
 31
0.0
  0
LINE
  5
12B
330
1F
100
AcDbEntity
  8
0
  6
Continuous
 62
     7
370
    25
100
AcDbLine
 10
16.5054795973
 20
6.2733840137
 30
0.0
 11
16.5054795973
 21
13.3233840137
 31
0.0
  0
LINE
  5
12C
330
1F
100
AcDbEntity
  8
0
  6
Continuous
 62
     7
370
    25
100
AcDbLine
 10
16.1554795973
 20
13.6733840137
 30
0.0
 11
15.6371320949
 21
13.6733840137
 31
0.0
  0
LINE
  5
12D
330
1F
100
AcDbEntity
  8
0
  6
Continuous
 62
     7
370
    25
100
AcDbLine
 10
16.1554795973
 20
13.651898296
 30
0.0
 11
16.1554795973
 21
13.6733840137
 31
0.0
  0
LINE
  5
12E
330
1F
100
AcDbEntity
  8
0
  6
Continuous
 62
     7
370
    25
100
AcDbLine
 10
15.6371320949
 20
13.651898296
 30
0.0
 11
15.6371320949
 21
13.6733840137
 31
0.0
  0
ARC
  5
12F
330
1F
100
AcDbEntity
  8
0
  6
Continuous
 62
     7
370
    25
100
AcDbCircle
 10
16.1554795973
 20
13.3233840137
 30
0.0
 40
0.3500000000000014
100
AcDbArc
 50
0.0
 51
90.0
  0
LINE
  5
130
330
1F
100
AcDbEntity
  8
0
  6
Continuous
 62
     7
370
    25
100
AcDbLine
 10
15.3838739627
 20
13.6185562304
 30
0.0
 11
15.3783130498
 21
13.63930984
 31
0.0
  0
SPLINE
  5
131
330
1F
100
AcDbEntity
  8
0
  6
Continuous
 62
     7
370
    25
100
AcDbSpline
210
0.0
220
0.0
230
1.0
 70
     8
 71
     3
 72
    15
 73
    11
 74
     0
 42
0.000000001
 43
0.00000001
 40
0.0
 40
0.0
 40
0.0
 40
0.0
 40
0.0625000000000008
 40
0.0625000000000008
 40
0.1250000000000015
 40
0.2500000000000018
 40
0.2500000000000018
 40
0.5000000000000012
 40
0.5000000000000012
 40
1.0
 40
1.0
 40
1.0
 40
1.0
 10
14.00910598803005
 20
13.2570166701542
 30
0.0
 10
14.02239323452328
 20
13.26056626253578
 30
0.0
 10
14.03567718802965
 20
13.26412985831026
 30
0.0
 10
14.06224721681732
 20
13.2712480270331
 30
0.0
 10
14.1021023011562
 20
13.28192510516263
 30
0.0
 10
14.14195749759875
 20
13.29260170630606
 30
0.0
 10
14.22166800593691
 20
13.31395441848653
 30
0.0
 10
14.27480850126398
 20
13.3281888983629
 30
0.0
 10
14.43423011632922
 20
13.3708917920842
 30
0.0
 10
14.54051124006569
 20
13.39936018901996
 30
0.0
 10
14.64679244385973
 20
13.42782824738521
 30
0.0
  0
LINE
  5
132
330
1F
100
AcDbEntity
  8
0
  6
Continuous
 62
     7
370
    25
100
AcDbLine
 10
14.009105988
 20
13.2570166702
 30
0.0
 11
14.0052521772
 21
13.271399288
 31
0.0
  0
LINE
  5
133
330
1F
100
AcDbEntity
  8
0
  6
Continuous
 62
     7
370
    25
100
AcDbLine
 10
15.3783130498
 20
13.63930984
 30
0.0
 11
14.0052521772
 21
13.271399288
 31
0.0
  0
ARC
  5
134
330
1F
100
AcDbEntity
  8
0
  6
Continuous
 62
     7
370
    25
100
AcDbCircle
 10
15.6371320949
 20
12.6733840137
 30
0.0
 40
1.0
100
AcDbArc
 50
90.0
 51
105.0
  0
SPLINE
  5
135
330
1F
100
AcDbEntity
  8
0
  6
Continuous
 62
     7
370
    25
100
AcDbSpline
210
0.0
220
0.0
230
1.0
 70
     8
 71
     3
 72
    15
 73
    11
 74
     0
 42
0.000000001
 43
0.00000001
 40
0.0
 40
0.0
 40
0.0
 40
0.0
 40
0.0625000000000008
 40
0.0625000000000008
 40
0.1250000000000015
 40
0.2500000000000018
 40
0.2500000000000018
 40
0.5000000000000012
 40
0.5000000000000012
 40
1.0
 40
1.0
 40
1.0
 40
1.0
 10
14.00910598803005
 20
6.339751357299543
 30
0.0
 10
14.02239323452328
 20
6.336201764917965
 30
0.0
 10
14.03567718802965
 20
6.33263816914349
 30
0.0
 10
14.06224721681732
 20
6.325520000420648
 30
0.0
 10
14.1021023011562
 20
6.31484292229112
 30
0.0
 10
14.14195749759875
 20
6.304166321147688
 30
0.0
 10
14.22166800593691
 20
6.282813608967211
 30
0.0
 10
14.27480850126398
 20
6.268579129090849
 30
0.0
 10
14.43423011632922
 20
6.225876235369547
 30
0.0
 10
14.54051124006569
 20
6.197407838433783
 30
0.0
 10
14.64679244385973
 20
6.168939780068533
 30
0.0
  0
LINE
  5
136
330
1F
100
AcDbEntity
  8
0
  6
Continuous
 62
     7
370
    25
100
AcDbLine
 10
15.3838739627
 20
5.978211797
 30
0.0
 11
15.3783130498
 21
5.9574581874
 31
0.0
  0
LINE
  5
137
330
1F
100
AcDbEntity
  8
0
  6
Continuous
 62
     7
370
    25
100
AcDbLine
 10
15.3783130498
 20
5.9574581874
 30
0.0
 11
14.0052521772
 21
6.3253687394
 31
0.0
  0
LINE
  5
138
330
1F
100
AcDbEntity
  8
0
  6
Continuous
 62
     7
370
    25
100
AcDbLine
 10
14.009105988
 20
6.3397513573
 30
0.0
 11
14.0052521772
 21
6.3253687394
 31
0.0
  0
ARC
  5
139
330
1F
100
AcDbEntity
  8
0
  6
Continuous
 62
     7
370
    25
100
AcDbCircle
 10
15.6371320949
 20
6.9233840137
 30
0.0
 40
0.9999999999999991
100
AcDbArc
 50
255.0
 51
270.0
  0
CIRCLE
  5
13A
330
1F
100
AcDbEntity
  8
0
  6
Continuous
 62
     7
370
    25
100
AcDbCircle
 10
14.1304795973
 20
12.5483840137
 30
0.0
 40
0.1660000000000004
  0
CIRCLE
  5
13B
330
1F
100
AcDbEntity
  8
0
  6
Continuous
 62
     7
370
    25
100
AcDbCircle
 10
14.1304795973
 20
7.0483840137
 30
0.0
 40
0.1659999999999995
  0
LINE
  5
13C
330
1F
100
AcDbEntity
  8
0
  6
Continuous
 62
     7
370
    25
100
AcDbLine
 10
13.9689795973
 20
9.4791382777
 30
0.0
 11
13.9689795973
 21
9.2098840137
 31
0.0
  0
ARC
  5
13D
330
1F
100
AcDbEntity
  8
0
  6
Continuous
 62
     7
370
    25
100
AcDbCircle
 10
14.1304795973
 20
9.2098840137
 30
0.0
 40
0.1615000000000002
100
AcDbArc
 50
180.0
 51
0.0
  0
LINE
  5
13E
330
1F
100
AcDbEntity
  8
0
  6
Continuous
 62
     7
370
    25
100
AcDbLine
 10
14.2919795973
 20
9.4791382777
 30
0.0
 11
14.2919795973
 21
9.2098840137
 31
0.0
  0
ARC
  5
13F
330
1F
100
AcDbEntity
  8
0
  6
Continuous
 62
     7
370
    25
100
AcDbCircle
 10
14.3719795973
 20
9.4791382777
 30
0.0
 40
0.0800000000000013
100
AcDbArc
 50
127.1064324652
 51
180.0
  0
ARC
  5
140
330
1F
100
AcDbEntity
  8
0
  6
Continuous
 62
     7
370
    25
100
AcDbCircle
 10
14.1304795973
 20
9.7983840137
 30
0.0
 40
0.3203000000000004
100
AcDbArc
 50
307.1064324656
 51
52.8935675348
  0
ARC
  5
141
330
1F
100
AcDbEntity
  8
0
  6
Continuous
 62
     7
370
    25
100
AcDbCircle
 10
14.3719795973
 20
10.1176297498
 30
0.0
 40
0.0800000000000013
100
AcDbArc
 50
180.0
 51
232.8935675348
  0
LINE
  5
142
330
1F
100
AcDbEntity
  8
0
  6
Continuous
 62
     7
370
    25
100
AcDbLine
 10
14.2919795973
 20
10.1176297498
 30
0.0
 11
14.2919795973
 21
10.3868840137
 31
0.0
  0
ARC
  5
143
330
1F
100
AcDbEntity
  8
0
  6
Continuous
 62
     7
370
    25
100
AcDbCircle
 10
14.1304795973
 20
10.3868840137
 30
0.0
 40
0.1615000000000002
100
AcDbArc
 50
0.0
 51
180.0
  0
LINE
  5
144
330
1F
100
AcDbEntity
  8
0
  6
Continuous
 62
     7
370
    25
100
AcDbLine
 10
13.9689795973
 20
10.1176297498
 30
0.0
 11
13.9689795973
 21
10.3868840137
 31
0.0
  0
ARC
  5
145
330
1F
100
AcDbEntity
  8
0
  6
Continuous
 62
     7
370
    25
100
AcDbCircle
 10
13.8889795973
 20
10.1176297498
 30
0.0
 40
0.0800000000000013
100
AcDbArc
 50
307.1064324652
 51
360.0
  0
ARC
  5
146
330
1F
100
AcDbEntity
  8
0
  6
Continuous
 62
     7
370
    25
100
AcDbCircle
 10
14.1304795973
 20
9.7983840137
 30
0.0
 40
0.3202999999999993
100
AcDbArc
 50
127.1064324652
 51
232.8935675344
  0
ARC
  5
147
330
1F
100
AcDbEntity
  8
0
  6
Continuous
 62
     7
370
    25
100
AcDbCircle
 10
13.8889795973
 20
9.4791382777
 30
0.0
 40
0.0799999999999983
100
AcDbArc
 50
0.0
 51
52.8935675348
  0
SPLINE
  5
148
330
1F
100
AcDbEntity
  8
0
  6
Continuous
 62
     7
370
    25
100
AcDbSpline
210
0.0
220
0.0
230
1.0
 70
     8
 71
     3
 72
    67
 73
    63
 74
     0
 42
0.000000001
 43
0.00000001
 40
0.0
 40
0.0
 40
0.0
 40
0.0
 40
0.0312500000000042
 40
0.0468750000000058
 40
0.054687500000007
 40
0.0585937500000068
 40
0.0585937500000068
 40
0.0625000000000066
 40
0.0625000000000066
 40
0.0937500000000062
 40
0.1093750000000065
 40
0.1171875000000066
 40
0.1210937500000071
 40
0.1210937500000071
 40
0.1250000000000077
 40
0.1250000000000077
 40
0.1875000000000275
 40
0.2187500000000369
 40
0.2343750000000405
 40
0.2421875000000425
 40
0.2460937500000439
 40
0.2460937500000439
 40
0.2500000000000453
 40
0.2500000000000453
 40
0.3125000000000632
 40
0.3437500000000714
 40
0.3437500000000714
 40
0.3750000000000796
 40
0.3750000000000796
 40
0.4375000000000976
 40
0.4687500000001057
 40
0.4843750000001099
 40
0.4921875000001111
 40
0.4921875000001111
 40
0.5000000000001124
 40
0.5000000000001124
 40
0.5625000000001164
 40
0.5937500000001191
 40
0.6093750000001203
 40
0.6171875000001205
 40
0.6210937500001188
 40
0.6210937500001188
 40
0.6250000000001172
 40
0.6250000000001172
 40
0.6875000000000753
 40
0.7187500000000542
 40
0.7343750000000447
 40
0.7421875000000411
 40
0.7460937500000381
 40
0.7460937500000381
 40
0.7500000000000352
 40
0.7500000000000352
 40
0.8124999999999941
 40
0.8437499999999745
 40
0.8593749999999647
 40
0.8671874999999601
 40
0.8710937499999588
 40
0.8730468749999586
 40
0.8730468749999586
 40
0.8749999999999583
 40
0.8749999999999583
 40
1.0
 40
1.0
 40
1.0
 40
1.0
 10
14.22944802683358
 20
13.12091150695028
 30
0.0
 10
14.22170311390376
 20
13.1185437146749
 30
0.0
 10
14.21009116629075
 20
13.11466624046929
 30
0.0
 10
14.19655333392362
 20
13.10957255330963
 30
0.0
 10
14.18978677770206
 20
13.10688321791651
 30
0.0
 10
14.18688733074183
 20
13.10570011164519
 30
0.0
 10
14.18495447848081
 20
13.10490458880654
 30
0.0
 10
14.1839112355099
 20
13.10447125187141
 30
0.0
 10
14.17590626901746
 20
13.10111997685961
 30
0.0
 10
14.16517534730104
 20
13.09635011486723
 30
0.0
 10
14.15255508077715
 20
13.09025765908366
 30
0.0
 10
14.14621973305153
 20
13.08707952699377
 30
0.0
 10
14.1434991809269
 20
13.0856892051985
 30
0.0
 10
14.14168427882173
 20
13.08475604284936
 30
0.0
 10
14.14070086043772
 20
13.08424710012185
 30
0.0
 10
14.12653501961507
 20
13.07687519717089
 30
0.0
 10
14.1067621506835
 20
13.06567691753613
 30
0.0
 10
14.0840892426459
 20
13.0512282053038
 30
0.0
 10
14.07285164838941
 20
13.04365783602302
 30
0.0
 10
14.06725756620174
 20
13.03978614809148
 30
0.0
 10
14.06486539846573
 20
13.03810831684415
 30
0.0
 10
14.06327179687697
 20
13.03698564347492
 30
0.0
 10
14.06243087249545
 20
13.0363904700061
 30
0.0
 10
14.04966537097197
 20
13.02731793198845
 30
0.0
 10
14.03201033058185
 20
13.01393011792575
 30
0.0
 10
14.01490555636219
 20
12.99967301621819
 30
0.0
 10
14.00362465492029
 20
12.98997510671429
 30
0.0
 10
13.99798334827823
 20
12.9849729161418
 30
0.0
 10
13.98161483004918
 20
12.97001647170267
 30
0.0
 10
13.96578210956784
 20
12.95465858936734
 30
0.0
 10
13.94824824839811
 20
12.93603854365775
 30
0.0
 10
13.93971572932788
 20
12.92655289172336
 30
0.0
 10
13.93610916647948
 20
12.92244997752014
 30
0.0
 10
13.9337159537003
 20
12.91970633809516
 30
0.0
 10
13.93256159851278
 20
12.91837303068182
 30
0.0
 10
13.92156257330426
 20
12.90556713816872
 30
0.0
 10
13.90758364441383
 20
12.88820366473867
 30
0.0
 10
13.89247616063661
 20
12.86744061643156
 30
0.0
 10
13.88522273539673
 20
12.85693267661833
 30
0.0
 10
13.88167110193898
 20
12.85164710279679
 30
0.0
 10
13.88016506170612
 20
12.84937508460579
 30
0.0
 10
13.87916461008242
 20
12.84785890086347
 30
0.0
 10
13.87870052397568
 20
12.84715259596892
 30
0.0
 10
13.86967347774125
 20
12.8333462793741
 30
0.0
 10
13.85782189361666
 20
12.81368768517307
 30
0.0
 10
13.84555688747955
 20
12.7904598421053
 30
0.0
 10
13.83981484491306
 20
12.77877271644644
 30
0.0
 10
13.83704143875533
 20
12.77291085258577
 30
0.0
 10
13.8358737536432
 20
12.77039470356735
 30
0.0
 10
13.83509994524108
 20
12.76871639941073
 30
0.0
 10
13.83475606704986
 20
12.76796625562294
 30
0.0
 10
13.82756578611716
 20
12.75216530667199
 30
0.0
 10
13.81857788422249
 20
12.72980224166662
 30
0.0
 10
13.81012739384383
 20
12.70361427398564
 30
0.0
 10
13.80641099744578
 20
12.69049585885147
 30
0.0
 10
13.80468001144457
 20
12.68393054346097
 30
0.0
 10
13.80384632149342
 20
12.68064635880986
 30
0.0
 10
13.80349584073924
 20
12.67923852389742
 30
0.0
 10
13.80326370133405
 20
12.67829989457694
 30
0.0
 10
13.80316460757074
 20
12.67789699937751
 30
0.0
 10
13.79466429786359
 20
12.64306719207108
 30
0.0
 10
13.79047952662365
 20
12.60909986581559
 30
0.0
 10
13.79047959732905
 20
12.57545917742167
 30
0.0
  0
LINE
  5
149
330
1F
100
AcDbEntity
  8
0
  6
Continuous
 62
     7
370
    25
100
AcDbLine
 10
14.7813138587
 20
13.2896338238
 30
0.0
 11
14.2294480268
 21
13.120911507
 31
0.0
  0
LINE
  5
14A
330
1F
100
AcDbEntity
  8
0
  6
Continuous
 62
     7
370
    25
100
AcDbLine
 10
14.7813138587
 20
6.3071342037
 30
0.0
 11
14.2294480268
 21
6.4758565205
 31
0.0
  0
SPLINE
  5
14B
330
1F
100
AcDbEntity
  8
0
  6
Continuous
 62
     7
370
    25
100
AcDbSpline
210
0.0
220
0.0
230
1.0
 70
     8
 71
     3
 72
    15
 73
    11
 74
     0
 42
0.000000001
 43
0.00000001
 40
0.0
 40
0.0
 40
0.0
 40
0.0
 40
0.125
 40
0.25
 40
0.375
 40
0.5
 40
0.625
 40
0.75
 40
0.875
 40
1.0
 40
1.0
 40
1.0
 40
1.0
 10
14.22944802683358
 20
6.475856520503467
 30
0.0
 10
14.19729715518115
 20
6.485686028403255
 30
0.0
 10
14.13801459213987
 20
6.511303500346165
 30
0.0
 10
14.06020893729896
 20
6.55963643668496
 30
0.0
 10
13.99122969539567
 20
6.615618525561243
 30
0.0
 10
13.93003564544959
 20
6.678573358228928
 30
0.0
 10
13.87666497929471
 20
6.748995583396565
 30
0.0
 10
13.83232194268025
 20
6.828009961556281
 30
0.0
 10
13.80004630469216
 20
6.917352209068409
 30
0.0
 10
13.79047959732905
 20
6.985132510583486
 30
0.0
 10
13.79047959732905
 20
7.021308850032081
 30
0.0
  0
LINE
  5
14C
330
1F
100
AcDbEntity
  8
0
  6
Continuous
 62
     7
370
    25
100
AcDbLine
 10
13.7904795973
 20
7.02130885
 30
0.0
 11
13.7904795973
 21
9.7983840137
 31
0.0
  0
LINE
  5
14D
330
1F
100
AcDbEntity
  8
0
  6
Continuous
 62
     7
370
    25
100
AcDbLine
 10
13.7904795973
 20
12.5754591774
 30
0.0
 11
13.7904795973
 21
9.7983840137
 31
0.0
  0
SPLINE
  5
14E
330
1F
100
AcDbEntity
  8
0
  6
Continuous
 62
     7
370
    25
100
AcDbSpline
210
0.0
220
0.0
230
1.0
 70
     8
 71
     3
 72
    16
 73
    12
 74
     0
 42
0.000000001
 43
0.00000001
 40
0.0
 40
0.0
 40
0.0
 40
0.0
 40
0.4999999999999997
 40
0.4999999999999997
 40
0.7499999999999996
 40
0.7499999999999996
 40
0.8750000000000001
 40
0.9375
 40
0.96875
 40
0.96875
 40
1.0
 40
1.0
 40
1.0
 40
1.0
 10
14.65014346536675
 20
6.181599347446912
 30
0.0
 10
14.54628220360579
 20
6.20966138692873
 30
0.0
 10
14.44241557834426
 20
6.237718320445357
 30
0.0
 10
14.28661857859631
 20
6.279794250735988
 30
0.0
 10
14.23468658307733
 20
6.293815305108163
 30
0.0
 10
14.15678403461724
 20
6.31482256475449
 30
0.0
 10
14.11783163170161
 20
6.325320222860105
 30
0.0
 10
14.07238430494891
 20
6.337554155743841
 30
0.0
 10
14.05290617903784
 20
6.342794119703875
 30
0.0
 10
14.03992059699446
 20
6.346286698718335
 30
0.0
 10
14.03346170358744
 20
6.347987070530031
 30
0.0
 10
14.02691274715032
 20
6.349807716664748
 30
0.0
  0
SPLINE
  5
14F
330
1F
100
AcDbEntity
  8
0
  6
Continuous
 62
     7
370
    25
100
AcDbSpline
210
0.0
220
0.0
230
1.0
 70
     8
 71
     3
 72
     9
 73
     5
 74
     0
 42
0.000000001
 43
0.00000001
 40
0.0
 40
0.0
 40
0.0
 40
0.0
 40
0.3250517471636312
 40
1.0
 40
1.0
 40
1.0
 40
1.0
 10
14.02691274715032
 20
6.349807716664748
 30
0.0
 10
14.0253549932753
 20
6.350255035859353
 30
0.0
 10
14.02056266747296
 20
6.351631183498947
 30
0.0
 10
14.01577259755349
 20
6.353015965421361
 30
0.0
 10
14.01253954823038
 20
6.353950621560455
 30
0.0
  0
SPLINE
  5
150
330
1F
100
AcDbEntity
  8
0
  6
Continuous
 62
     7
370
    25
100
AcDbSpline
210
0.0
220
0.0
230
1.0
 70
     8
 71
     3
 72
    28
 73
    24
 74
     0
 42
0.000000001
 43
0.00000001
 40
0.0
 40
0.0
 40
0.0
 40
0.0
 40
0.1250000000000013
 40
0.1250000000000013
 40
0.2500000000000027
 40
0.2500000000000027
 40
0.3125000000000029
 40
0.3125000000000029
 40
0.375000000000003
 40
0.375000000000003
 40
0.5000000000000042
 40
0.5000000000000042
 40
0.5625000000000044
 40
0.5625000000000044
 40
0.6250000000000048
 40
0.6250000000000048
 40
0.7500000000000038
 40
0.7500000000000038
 40
0.8750000000000028
 40
0.8750000000000028
 40
0.9375000000000013
 40
0.9375000000000013
 40
1.0
 40
1.0
 40
1.0
 40
1.0
 10
14.01253954820231
 20
6.353950621568534
 30
0.0
 10
13.97120898871403
 20
6.365839363531018
 30
0.0
 10
13.93126255173977
 20
6.38146954299068
 30
0.0
 10
13.85497265259575
 20
6.421273152893574
 30
0.0
 10
13.81974798611137
 20
6.444894289793911
 30
0.0
 10
13.7713025559053
 20
6.485970528362766
 30
0.0
 10
13.75589373581108
 20
6.500595028313606
 30
0.0
 10
13.7265619514352
 20
6.53177346653034
 30
0.0
 10
13.71277858517968
 20
6.548200685864981
 30
0.0
 10
13.67448829321144
 20
6.599017980100969
 30
0.0
 10
13.65274100154474
 20
6.635213008880174
 30
0.0
 10
13.62484949426177
 20
6.692512629958667
 30
0.0
 10
13.61636050544213
 20
6.71209638621958
 30
0.0
 10
13.60108691450248
 20
6.751446401486337
 30
0.0
 10
13.59425469049495
 20
6.771306108991589
 30
0.0
 10
13.57584521671225
 20
6.831371531907458
 30
0.0
 10
13.56634025413037
 20
6.87206676461459
 30
0.0
 10
13.55167709924537
 20
6.954470841399223
 30
0.0
 10
13.5465243190116
 20
6.996321525559849
 30
0.0
 10
13.5415733651491
 20
7.059257493466903
 30
0.0
 10
13.54038934149421
 20
7.080258190494404
 30
0.0
 10
13.53888244344087
 20
7.122293478129243
 30
0.0
 10
13.53860940244647
 20
7.143382152659361
 30
0.0
 10
13.53859844051341
 20
7.164293542544518
 30
0.0
  0
SPLINE
  5
151
330
1F
100
AcDbEntity
  8
0
  6
Continuous
 62
     7
370
    25
100
AcDbSpline
210
0.0
220
0.0
230
1.0
 70
     8
 71
     3
 72
    12
 73
     8
 74
     0
 42
0.000000001
 43
0.00000001
 40
0.0
 40
0.0
 40
0.0
 40
0.0
 40
0.25
 40
0.25
 40
0.5
 40
0.5
 40
1.0
 40
1.0
 40
1.0
 40
1.0
 10
13.53859844051341
 20
7.164293542539128
 30
0.0
 10
13.53848336647518
 20
7.383812851865605
 30
0.0
 10
13.5385664175403
 20
7.603325225024822
 30
0.0
 10
13.53864145382047
 20
8.042332441504396
 30
0.0
 10
13.53862926501344
 20
8.261837474761226
 30
0.0
 10
13.53864191371794
 20
8.92036022288163
 30
0.0
 10
13.53868407634661
 20
9.359371323709079
 30
0.0
 10
13.53868909416008
 20
9.798384260513176
 30
0.0
  0
SPLINE
  5
152
330
1F
100
AcDbEntity
  8
0
  6
Continuous
 62
     7
370
    25
100
AcDbSpline
210
0.0
220
0.0
230
1.0
 70
    24
 71
     3
 72
     8
 73
     4
 74
     0
 42
0.000000001
 43
0.00000001
 40
0.0
 40
0.0
 40
0.0
 40
0.0
 40
1.0
 40
1.0
 40
1.0
 40
1.0
 10
13.53868909409892
 20
9.798384013726873
 30
0.0
 10
13.65328638016243
 20
9.798384013726873
 30
0.0
 10
13.76382774801202
 20
9.798384013726873
 30
0.0
 10
13.79047959732905
 20
9.798384013726873
 30
0.0
  0
SPLINE
  5
153
330
1F
100
AcDbEntity
  8
0
  6
Continuous
 62
     7
370
    25
100
AcDbSpline
210
0.0
220
0.0
230
1.0
 70
     8
 71
     3
 72
    14
 73
    10
 74
     0
 42
0.000000001
 43
0.00000001
 40
0.0
 40
0.0
 40
0.0
 40
0.0
 40
0.2499999999999999
 40
0.2499999999999999
 40
0.4999999999999998
 40
0.4999999999999998
 40
0.7499999999999999
 40
0.7499999999999999
 40
1.0
 40
1.0
 40
1.0
 40
1.0
 10
13.53859844051341
 20
12.43247448490923
 30
0.0
 10
13.53835813237966
 20
12.2027406704727
 30
0.0
 10
13.53852011025457
 20
11.97844215323828
 30
0.0
 10
13.53864552871946
 20
11.53406594409471
 30
0.0
 10
13.53861609377848
 20
11.31402084003936
 30
0.0
 10
13.53862273277171
 20
10.8773174278853
 30
0.0
 10
13.53865745798438
 20
10.66065510432264
 30
0.0
 10
13.53869097189197
 20
10.22878414525516
 30
0.0
 10
13.53869003239986
 20
10.01357649935808
 30
0.0
 10
13.53868909409896
 20
9.798384013726873
 30
0.0
  0
SPLINE
  5
154
330
1F
100
AcDbEntity
  8
0
  6
Continuous
 62
     7
370
    25
100
AcDbSpline
210
0.0
220
0.0
230
1.0
 70
     8
 71
     3
 72
    25
 73
    21
 74
     0
 42
0.000000001
 43
0.00000001
 40
0.0
 40
0.0
 40
0.0
 40
0.0
 40
0.0153219942626922
 40
0.0315095237487281
 40
0.0485742606601385
 40
0.0665288000478049
 40
0.0853872019948269
 40
0.1051657062199381
 40
0.125881551279225
 40
0.172561798542506
 40
0.2506914632192208
 40
0.3701088548317483
 40
0.5005869911952312
 40
0.6112303894927209
 40
0.7497199510180633
 40
0.8331511592678659
 40
0.8747091800632961
 40
0.9172556040589803
 40
0.9590176915498531
 40
1.0
 40
1.0
 40
1.0
 40
1.0
 10
14.01253954823038
 20
13.24281740589329
 30
0.0
 10
14.00756906633418
 20
13.24135261334822
 30
0.0
 10
13.99734732139251
 20
13.23834028253185
 30
0.0
 10
13.98173198334954
 20
13.23323326572793
 30
0.0
 10
13.96540316030175
 20
13.22746190005064
 30
0.0
 10
13.94839654962952
 20
13.22091584960989
 30
0.0
 10
13.93074114556993
 20
13.21352245643251
 30
0.0
 10
13.91247728791999
 20
13.20518811044812
 30
0.0
 10
13.88607832964452
 20
13.1920539757006
 30
0.0
 10
13.84331087058152
 20
13.16759673941147
 30
0.0
 10
13.776293589152
 20
13.11887368526604
 30
0.0
 10
13.69908860154901
 20
13.03797793323847
 30
0.0
 10
13.63511890504422
 20
12.93315007586939
 30
0.0
 10
13.58752095349647
 20
12.81351899724804
 30
0.0
 10
13.56093282225185
 20
12.70383295445406
 30
0.0
 10
13.54836299311098
 20
12.61557046777079
 30
0.0
 10
13.54306551526463
 20
12.55915178817103
 30
0.0
 10
13.54033797773767
 20
12.51666850551901
 30
0.0
 10
13.53876943452389
 20
12.47431854783593
 30
0.0
 10
13.53865507929091
 20
12.44633459944236
 30
0.0
 10
13.53859844051341
 20
12.43247448490923
 30
0.0
  0
SPLINE
  5
155
330
1F
100
AcDbEntity
  8
0
  6
Continuous
 62
     7
370
    25
100
AcDbSpline
210
0.0
220
0.0
230
1.0
 70
     8
 71
     3
 72
     9
 73
     5
 74
     0
 42
0.000000001
 43
0.00000001
 40
0.0
 40
0.0
 40
0.0
 40
0.0
 40
0.4977583364234482
 40
1.0
 40
1.0
 40
1.0
 40
1.0
 10
14.02691280770732
 20
13.2469600867418
 30
0.0
 10
14.02452832255753
 20
13.24627182177514
 30
0.0
 10
14.01973787511487
 20
13.24488909261462
 30
0.0
 10
14.0149461514801
 20
13.24351002906475
 30
0.0
 10
14.01253954823038
 20
13.24281740589329
 30
0.0
  0
SPLINE
  5
156
330
1F
100
AcDbEntity
  8
0
  6
Continuous
 62
     7
370
    25
100
AcDbSpline
210
0.0
220
0.0
230
1.0
 70
     8
 71
     3
 72
    10
 73
     6
 74
     0
 42
0.000000001
 43
0.00000001
 40
0.0
 40
0.0
 40
0.0
 40
0.0
 40
0.5
 40
0.5
 40
1.0
 40
1.0
 40
1.0
 40
1.0
 10
14.65014346536675
 20
13.41516868000683
 30
0.0
 10
14.54826065633081
 20
13.38764587150084
 30
0.0
 10
14.4460662554205
 20
13.36004194061986
 30
0.0
 10
14.23933654401436
 20
13.3041954563699
 30
0.0
 10
14.13471183691326
 20
13.27594011786544
 30
0.0
 10
14.02691280770732
 20
13.2469600867418
 30
0.0
  0
ARC
  5
157
330
1F
100
AcDbEntity
  8
0
  6
Continuous
 62
     7
370
    25
100
AcDbCircle
 10
14.2341226687
 20
6.2928542726
 30
0.0
 40
0.2298517851721071
100
AcDbArc
 50
164.5850545887
 51
168.2271697216
  0
ARC
  5
158
330
1F
100
AcDbEntity
  8
0
  6
Continuous
 62
     7
370
    25
100
AcDbCircle
 10
14.2341226687
 20
13.3039137549
 30
0.0
 40
0.2298517851712963
100
AcDbArc
 50
191.7728302784
 51
195.4149454113
  0
ARC
  5
159
330
1F
100
AcDbEntity
  8
0
  6
Continuous
 62
     7
370
    25
100
AcDbCircle
 10
13.5359991187
 20
2.1885043363
 30
0.0
 40
10.24397047835064
100
AcDbArc
 50
89.9854616752
 51
90.08828277
  0
SPLINE
  5
15A
330
1F
100
AcDbEntity
  8
0
  6
Continuous
 62
     7
370
    25
100
AcDbSpline
210
0.0
220
0.0
230
1.0
 70
     8
 71
     3
 72
    22
 73
    18
 74
     0
 42
0.000000001
 43
0.00000001
 40
0.0
 40
0.0
 40
0.0
 40
0.0
 40
0.0132442497191851
 40
0.0313339099229745
 40
0.0626682384886323
 40
0.1253090911185693
 40
0.2502604802329852
 40
0.3868836878305326
 40
0.4994373092789214
 40
0.6335695064880229
 40
0.7492926652185372
 40
0.8165242787065472
 40
0.8740970007499109
 40
0.904266826722896
 40
0.9352844142760781
 40
0.9671848906209606
 40
1.0
 40
1.0
 40
1.0
 40
1.0
 10
13.52021495905786
 20
12.43246265437092
 30
0.0
 10
13.52022505737954
 20
12.43704737868298
 30
0.0
 10
13.52024894849521
 20
12.44789414929376
 30
0.0
 10
13.52053573741379
 20
12.46958636203964
 30
0.0
 10
13.52159135252402
 20
12.50836726598631
 30
0.0
 10
13.5258820133883
 20
12.58404800503498
 30
0.0
 10
13.53953543447077
 20
12.69561692702248
 30
0.0
 10
13.57006594126319
 20
12.82193132152351
 30
0.0
 10
13.61956130559692
 20
12.94549648116834
 30
0.0
 10
13.6864730463816
 20
13.05279110011227
 30
0.0
 10
13.76387194326911
 20
13.13182534886201
 30
0.0
 10
13.83145360640168
 20
13.18078316334176
 30
0.0
 10
13.87824209392128
 20
13.20722687584239
 30
0.0
 10
13.91547560745735
 20
13.22468737016947
 30
0.0
 10
13.94533483236882
 20
13.23682930593425
 30
0.0
 10
13.97661015330792
 20
13.24784304379223
 30
0.0
 10
13.99817246223446
 20
13.25393011825223
 30
0.0
 10
14.00910598803005
 20
13.2570166701542
 30
0.0
  0
ARC
  5
15B
330
1F
100
AcDbEntity
  8
0
  6
Continuous
 62
     7
370
    25
100
AcDbCircle
 10
13.5359991187
 20
17.4082636965
 30
0.0
 40
10.2439704837046
100
AcDbArc
 50
269.91171723
 51
270.0145383248
  0
SPLINE
  5
15C
330
1F
100
AcDbEntity
  8
0
  6
Continuous
 62
     7
370
    25
100
AcDbSpline
210
0.0
220
0.0
230
1.0
 70
     8
 71
     3
 72
    28
 73
    24
 74
     0
 42
0.000000001
 43
0.00000001
 40
0.0
 40
0.0
 40
0.0
 40
0.0
 40
0.0625000000000002
 40
0.0625000000000002
 40
0.1250000000000004
 40
0.1250000000000004
 40
0.2499999999999992
 40
0.2499999999999992
 40
0.374999999999998
 40
0.374999999999998
 40
0.4374999999999982
 40
0.4374999999999982
 40
0.4999999999999984
 40
0.4999999999999984
 40
0.6249999999999988
 40
0.6249999999999988
 40
0.687499999999999
 40
0.687499999999999
 40
0.7499999999999991
 40
0.7499999999999991
 40
0.8749999999999996
 40
0.8749999999999996
 40
1.0
 40
1.0
 40
1.0
 40
1.0
 10
13.52021495905786
 20
7.164305373082825
 30
0.0
 10
13.52021448069665
 20
7.143076279278853
 30
0.0
 10
13.52058220749112
 20
7.121846522772286
 30
0.0
 10
13.52212240031079
 20
7.07938358759317
 30
0.0
 10
13.52329709693437
 20
7.058150422073644
 30
0.0
 10
13.52819001799996
 20
6.994442509907687
 30
0.0
 10
13.53327564873021
 20
6.952004582073261
 30
0.0
 10
13.54791565082281
 20
6.868219887915683
 30
0.0
 10
13.55746909317236
 20
6.826751418022931
 30
0.0
 10
13.57614181791899
 20
6.765372383973586
 30
0.0
 10
13.58309429949027
 20
6.745050533938524
 30
0.0
 10
13.59869343477033
 20
6.704732995335338
 30
0.0
 10
13.60738915779916
 20
6.684641104732612
 30
0.0
 10
13.63605341442479
 20
6.625795172302319
 30
0.0
 10
13.65852145932071
 20
6.58850647070392
 30
0.0
 10
13.69825098239485
 20
6.536204447128823
 30
0.0
 10
13.71257820464767
 20
6.519300528282932
 30
0.0
 10
13.74310665866871
 20
6.48723937445024
 30
0.0
 10
13.75916077938181
 20
6.472219850136788
 30
0.0
 10
13.8096149576017
 20
6.430200345605922
 30
0.0
 10
13.84629440338728
 20
6.406233051543149
 30
0.0
 10
13.92540865313488
 20
6.366388824230904
 30
0.0
 10
13.96666472137356
 20
6.35109070369463
 30
0.0
 10
14.00910598803068
 20
6.339751357299376
 30
0.0
  0
LWPOLYLINE
  5
15D
330
1F
100
AcDbEntity
  8
0
  6
Continuous
 62
     7
370
    25
100
AcDbPolyline
 90
        5
 70
   128
 43
0.0
 10
13.5202114555
 20
9.7983840137
 10
13.5202128432
 20
8.9027972716
 10
13.5202137945
 20
8.3232999679
 10
13.5202158126
 20
7.7438026667
 10
13.5202149591
 20
7.1643053731
  0
LINE
  5
15E
330
1F
100
AcDbEntity
  8
0
  6
Continuous
 62
     7
370
    25
100
AcDbLine
 10
13.5386890941
 20
9.7983840137
 30
0.0
 11
13.5202114555
 21
9.7983840137
 31
0.0
  0
LWPOLYLINE
  5
15F
330
1F
100
AcDbEntity
  8
0
  6
Continuous
 62
     7
370
    25
100
AcDbPolyline
 90
        5
 70
   128
 43
0.0
 10
13.5202114555
 20
9.7983840137
 10
13.5202128432
 20
10.6939707559
 10
13.5202137945
 20
11.2734680596
 10
13.5202158126
 20
11.8529653607
 10
13.5202149591
 20
12.4324626544
  0
LINE
  5
160
330
1F
100
AcDbEntity
  8
0
  6
Continuous
 62
     7
370
    25
100
AcDbLine
 10
13.5202149591
 20
12.4324626544
 30
0.0
 11
13.5054795973
 21
12.4324626544
 31
0.0
  0
SPLINE
  5
161
330
1F
100
AcDbEntity
  8
0
  6
Continuous
 62
     7
370
    25
100
AcDbSpline
210
0.0
220
0.0
230
1.0
 70
     8
 71
     3
 72
     8
 73
     4
 74
     0
 42
0.000000001
 43
0.00000001
 40
0.0
 40
0.0
 40
0.0
 40
0.0
 40
1.0
 40
1.0
 40
1.0
 40
1.0
 10
14.00525217719817
 20
13.27139928803977
 30
0.0
 10
13.73625907944609
 20
13.19932280501941
 30
0.0
 10
13.5054795974183
 20
12.96854332265054
 30
0.0
 10
13.50547959732904
 20
12.43246265437092
 30
0.0
  0
SPLINE
  5
162
330
1F
100
AcDbEntity
  8
0
  6
Continuous
 62
     7
370
    25
100
AcDbSpline
210
0.0
220
0.0
230
1.0
 70
     8
 71
     3
 72
     8
 73
     4
 74
     0
 42
0.000000001
 43
0.00000001
 40
0.0
 40
0.0
 40
0.0
 40
0.0
 40
1.0
 40
1.0
 40
1.0
 40
1.0
 10
14.00525217719817
 20
6.325368739413971
 30
0.0
 10
13.73625907944609
 20
6.397445222434335
 30
0.0
 10
13.5054795974183
 20
6.628224704803202
 30
0.0
 10
13.50547959732904
 20
7.164305373082825
 30
0.0
  0
LINE
  5
163
330
1F
100
AcDbEntity
  8
0
  6
Continuous
 62
     7
370
    25
100
AcDbLine
 10
13.5202149591
 20
7.1643053731
 30
0.0
 11
13.5054795973
 21
7.1643053731
 31
0.0
  0
LINE
  5
164
330
1F
100
AcDbEntity
  8
0
  6
Continuous
 62
     7
370
    25
100
AcDbLine
 10
13.5054795973
 20
12.4324626544
 30
0.0
 11
13.5054795973
 21
7.1643053731
 31
0.0
  0
DIMENSION
  5
165
330
1F
100
AcDbEntity
  8
0
  6
Continuous
 62
     7
370
    18
100
AcDbDimension
  2
_D
 10
18.3165042036
 20
5.9233840137
 30
0.0
 11
18.3165042036
 21
9.7983840137
 31
0.0
 70
   160
  1
<>
 71
     2
 42
-1.0
  3
SLDDIMSTYLE0
100
AcDbAlignedDimension
 13
16.1554795973
 23
13.6733840137
 33
0.0
 14
16.1554795973
 24
5.9233840137
 34
0.0
 50
90.0
100
AcDbRotatedDimension
  0
DIMENSION
  5
17A
330
1F
100
AcDbEntity
  8
0
  6
Continuous
 62
     7
370
    18
100
AcDbDimension
  2
_D_1
 10
13.5054795973
 20
15.0527950026
 30
0.0
 11
15.0054795973
 21
15.0527950026
 31
0.0
 70
   160
  1
<>
 71
     2
 42
-1.0
  3
SLDDIMSTYLE1
100
AcDbAlignedDimension
 13
16.5054795973
 23
13.3233840137
 33
0.0
 14
13.5054795973
 24
12.4324626544
 34
0.0
100
AcDbRotatedDimension
  0
DIMENSION
  5
18F
330
1F
100
AcDbEntity
  8
0
  6
Continuous
 62
     7
370
    18
100
AcDbDimension
  2
_D_2
 10
17.3716223139
 20
12.5483840137
 30
0.0
 11
17.3716223139
 21
11.1733840137
 31
0.0
 70
   160
  1
<>
 71
     2
 42
-1.0
  3
SLDDIMSTYLE0
100
AcDbAlignedDimension
 13
16.6344569315
 23
9.7983840137
 33
0.0
 14
16.2059795973
 24
12.5483840137
 34
0.0
 50
90.0
100
AcDbRotatedDimension
  0
DIMENSION
  5
1A3
330
1F
100
AcDbEntity
  8
0
  6
Continuous
 62
     7
370
    18
100
AcDbDimension
  2
_D_3
 10
17.3716223139
 20
7.0483840137
 30
0.0
 11
17.3716223139
 21
8.4233840137
 31
0.0
 70
   160
  1
<>
 71
     2
 42
-1.0
  3
SLDDIMSTYLE0
100
AcDbAlignedDimension
 13
16.6344569315
 23
9.7983840137
 33
0.0
 14
16.2059795973
 24
7.0483840137
 34
0.0
 50
90.0
100
AcDbRotatedDimension
  0
DIMENSION
  5
1B7
330
1F
100
AcDbEntity
  8
0
  6
Continuous
 62
     7
370
    18
100
AcDbDimension
  2
_D_4
 10
16.0054795973
 20
14.3240015908
 30
0.0
 11
15.4742322714
 21
14.3240015908
 31
0.0
 70
   160
  1
<> X 2
 71
     2
 42
-1.0
  3
SLDDIMSTYLE1
100
AcDbAlignedDimension
 13
16.5054795973
 23
13.3233840137
 33
0.0
 14
16.0054795973
 24
12.7488840137
 34
0.0
100
AcDbRotatedDimension
  0
INSERT
  5
1D6
330
1F
100
AcDbEntity
  8
0
  6
Continuous
 62
     7
370
    18
100
AcDbBlockReference
  2
SW_CENTERMARKSYMBOL_0
 10
16.0054795973
 20
12.5483840137
 30
0.0
  0
INSERT
  5
1E2
330
1F
100
AcDbEntity
  8
0
  6
Continuous
 62
     7
370
    18
100
AcDbBlockReference
  2
SW_CENTERMARKSYMBOL_1
 10
16.0054795973
 20
7.0483840137
 30
0.0
  0
LINE
  5
1E3
330
1F
100
AcDbEntity
  8
0
  6
CENTERX2
 62
     7
370
    18
100
AcDbLine
 10
16.6344569315
 20
9.7983840137
 30
0.0
 11
13.2477326037
 21
9.7983840137
 31
0.0
  0
ARC
  5
1E4
330
1F
100
AcDbEntity
  8
0
  6
Continuous
 62
     7
370
    25
100
AcDbCircle
 10
7.4349662492
 20
6.8466495452
 30
0.0
 40
0.0150000000000006
100
AcDbArc
 50
93.0
 51
180.0
  0
ARC
  5
1E5
330
1F
100
AcDbEntity
  8
0
  6
Continuous
 62
     7
370
    25
100
AcDbCircle
 10
7.4349662492
 20
7.2501184822
 30
0.0
 40
0.0150000000000006
100
AcDbArc
 50
180.0
 51
267.0
  0
ARC
  5
1E6
330
1F
100
AcDbEntity
  8
0
  6
Continuous
 62
     7
370
    25
100
AcDbCircle
 10
7.4349662492
 20
12.3466495452
 30
0.0
 40
0.0150000000000008
100
AcDbArc
 50
93.0
 51
180.0
  0
ARC
  5
1E7
330
1F
100
AcDbEntity
  8
0
  6
Continuous
 62
     7
370
    25
100
AcDbCircle
 10
7.4349662492
 20
12.7501184822
 30
0.0
 40
0.0150000000000006
100
AcDbArc
 50
180.0
 51
267.0
  0
LINE
  5
1E8
330
1F
100
AcDbEntity
  8
0
  6
Continuous
 62
     7
370
    25
100
AcDbLine
 10
7.4341811957
 20
6.861628846
 30
0.0
 11
7.5153517513
 21
6.8658830102
 31
0.0
  0
LINE
  5
1E9
330
1F
100
AcDbEntity
  8
0
  6
Continuous
 62
     7
370
    25
100
AcDbLine
 10
7.5153517513
 20
7.2308851937
 30
0.0
 11
7.4341811957
 21
7.2351390646
 31
0.0
  0
LINE
  5
1EA
330
1F
100
AcDbEntity
  8
0
  6
Continuous
 62
     7
370
    25
100
AcDbLine
 10
7.4341811957
 20
12.3616289629
 30
0.0
 11
7.5153517513
 21
12.3658828338
 31
0.0
  0
LINE
  5
1EB
330
1F
100
AcDbEntity
  8
0
  6
Continuous
 62
     7
370
    25
100
AcDbLine
 10
7.5153517513
 20
12.7308850172
 30
0.0
 11
7.4341811957
 21
12.7351391814
 31
0.0
  0
ARC
  5
1EC
330
1F
100
AcDbEntity
  8
0
  6
Continuous
 62
     7
370
    25
100
AcDbCircle
 10
7.5137162492
 20
7.1996778986
 30
0.0
 40
0.0312500000000009
100
AcDbArc
 50
0.0
 51
87.0
  0
ARC
  5
1ED
330
1F
100
AcDbEntity
  8
0
  6
Continuous
 62
     7
370
    25
100
AcDbCircle
 10
7.5137162492
 20
6.8970901288
 30
0.0
 40
0.0312500000000009
100
AcDbArc
 50
273.0
 51
0.0
  0
ARC
  5
1EE
330
1F
100
AcDbEntity
  8
0
  6
Continuous
 62
     7
370
    25
100
AcDbCircle
 10
7.5137162492
 20
12.6996778986
 30
0.0
 40
0.0312500000000009
100
AcDbArc
 50
0.0
 51
87.0
  0
ARC
  5
1EF
330
1F
100
AcDbEntity
  8
0
  6
Continuous
 62
     7
370
    25
100
AcDbCircle
 10
7.5137162492
 20
12.3970901288
 30
0.0
 40
0.0312500000000009
100
AcDbArc
 50
273.0
 51
0.0
  0
LINE
  5
1F0
330
1F
100
AcDbEntity
  8
0
  6
Continuous
 62
     7
370
    25
100
AcDbLine
 10
7.2040840204
 20
13.257016566
 30
0.0
 11
6.9199662492
 21
13.2713994132
 31
0.0
  0
SPLINE
  5
1F1
330
1F
100
AcDbEntity
  8
0
  6
Continuous
 62
     7
370
    25
100
AcDbSpline
210
0.0
220
0.0
230
1.0
 70
     8
 71
     3
 72
    22
 73
    18
 74
     0
 42
0.000000001
 43
0.00000001
 40
0.0
 40
0.0
 40
0.0
 40
0.0
 40
0.0132442497191851
 40
0.0313339099229745
 40
0.0626682384886323
 40
0.1253090911185693
 40
0.2502604802329852
 40
0.3868836878305326
 40
0.4994373092789214
 40
0.6335695064880229
 40
0.7492926652185372
 40
0.8165242787065472
 40
0.8740970007499109
 40
0.904266826722896
 40
0.9352844142760781
 40
0.9671848906209606
 40
1.0
 40
1.0
 40
1.0
 40
1.0
 10
7.201133700539678
 20
12.43246265437092
 30
0.0
 10
7.201134142476906
 20
12.43704737868299
 30
0.0
 10
7.201135188034156
 20
12.44789414929376
 30
0.0
 10
7.201166001254116
 20
12.46958636203964
 30
0.0
 10
7.201210704704703
 20
12.50836726598631
 30
0.0
 10
7.201101920463243
 20
12.58404800503498
 30
0.0
 10
7.200839726299559
 20
12.69561692702249
 30
0.0
 10
7.200589154555358
 20
12.82193132152351
 30
0.0
 10
7.200505268349289
 20
12.94549648116834
 30
0.0
 10
7.200680179095053
 20
13.05279110011227
 30
0.0
 10
7.201216671733977
 20
13.13182534886201
 30
0.0
 10
7.201855137527083
 20
13.18078316334176
 30
0.0
 10
7.202360632507675
 20
13.20722687584239
 30
0.0
 10
7.202821245069625
 20
13.22468737016947
 30
0.0
 10
7.20320610579652
 20
13.23682930593425
 30
0.0
 10
7.203626382991591
 20
13.24784304379223
 30
0.0
 10
7.203930047380072
 20
13.25393011825224
 30
0.0
 10
7.204084025436687
 20
13.2570166701542
 30
0.0
  0
LINE
  5
1F2
330
1F
100
AcDbEntity
  8
0
  6
Continuous
 62
     7
370
    25
100
AcDbLine
 10
7.2011337078
 20
12.4324625713
 30
0.0
 11
6.9199662492
 21
12.4324625713
 31
0.0
  0
SPLINE
  5
1F3
330
1F
100
AcDbEntity
  8
0
  6
Continuous
 62
     7
370
    25
100
AcDbSpline
210
0.0
220
0.0
230
1.0
 70
    24
 71
     3
 72
     8
 73
     4
 74
     0
 42
0.000000001
 43
0.00000001
 40
0.0
 40
0.0
 40
0.0
 40
0.0
 40
1.0
 40
1.0
 40
1.0
 40
1.0
 10
6.919966249248965
 20
13.27139928803978
 30
0.0
 10
6.919966249248795
 20
13.19932280501941
 30
0.0
 10
6.919966249248795
 20
12.96854332265054
 30
0.0
 10
6.919966249248965
 20
12.43246265437092
 30
0.0
  0
LINE
  5
1F4
330
1F
100
AcDbEntity
  8
0
  6
Continuous
 62
     7
370
    25
100
AcDbLine
 10
6.9199662492
 20
12.4324625713
 30
0.0
 11
6.9199662492
 21
7.1643054562
 31
0.0
  0
LWPOLYLINE
  5
1F5
330
1F
100
AcDbEntity
  8
0
  6
Continuous
 62
     7
370
    25
100
AcDbPolyline
 90
        5
 70
   128
 43
0.0
 10
7.201066847
 20
9.7983840137
 10
7.20109332
 20
10.6939707878
 10
7.2011114881
 20
11.2734680001
 10
7.2011499877
 20
11.852965359
 10
7.2011337078
 20
12.4324625713
  0
LWPOLYLINE
  5
1F6
330
1F
100
AcDbEntity
  8
0
  6
Continuous
 62
     7
370
    25
100
AcDbPolyline
 90
        5
 70
   128
 43
0.0
 10
7.201066847
 20
9.7983840137
 10
7.20109332
 20
8.9027972396
 10
7.2011114881
 20
8.3233000274
 10
7.2011499877
 20
7.7438026684
 10
7.2011337078
 20
7.1643054562
  0
LINE
  5
1F7
330
1F
100
AcDbEntity
  8
0
  6
Continuous
 62
     7
370
    25
100
AcDbLine
 10
7.2011337078
 20
7.1643054562
 30
0.0
 11
6.9199662492
 21
7.1643054562
 31
0.0
  0
SPLINE
  5
1F8
330
1F
100
AcDbEntity
  8
0
  6
Continuous
 62
     7
370
    25
100
AcDbSpline
210
0.0
220
0.0
230
1.0
 70
     8
 71
     3
 72
    28
 73
    24
 74
     0
 42
0.000000001
 43
0.00000001
 40
0.0
 40
0.0
 40
0.0
 40
0.0
 40
0.0625000000000002
 40
0.0625000000000002
 40
0.1250000000000004
 40
0.1250000000000004
 40
0.2499999999999992
 40
0.2499999999999992
 40
0.374999999999998
 40
0.374999999999998
 40
0.4374999999999982
 40
0.4374999999999982
 40
0.4999999999999984
 40
0.4999999999999984
 40
0.6249999999999988
 40
0.6249999999999988
 40
0.687499999999999
 40
0.687499999999999
 40
0.7499999999999991
 40
0.7499999999999991
 40
0.8749999999999996
 40
0.8749999999999996
 40
1.0
 40
1.0
 40
1.0
 40
1.0
 10
7.20113370053968
 20
7.164305373082827
 30
0.0
 10
7.20112457279112
 20
7.143076279278856
 30
0.0
 10
7.201190907401742
 20
7.121846522772287
 30
0.0
 10
7.20118711398476
 20
7.079383587593171
 30
0.0
 10
7.201162878588913
 20
7.058150422073647
 30
0.0
 10
7.201065466880832
 20
6.99444250990769
 30
0.0
 10
7.200962303745269
 20
6.952004582073264
 30
0.0
 10
7.200773098654092
 20
6.868219887915685
 30
0.0
 10
7.200687279790541
 20
6.826751418022933
 30
0.0
 10
7.20059453756935
 20
6.765372383973587
 30
0.0
 10
7.200571083878864
 20
6.745050533938525
 30
0.0
 10
7.200543272379153
 20
6.70473299533534
 30
0.0
 10
7.200539017138581
 20
6.684641104732615
 30
0.0
 10
7.200554884637532
 20
6.625795172302322
 30
0.0
 10
7.200616802822286
 20
6.588506470703923
 30
0.0
 10
7.200807752305042
 20
6.536204447128824
 30
0.0
 10
7.200878458661869
 20
6.519300528282934
 30
0.0
 10
7.201073820293153
 20
6.487239374450243
 30
0.0
 10
7.201199837699654
 20
6.47221985013679
 30
0.0
 10
7.201643510002619
 20
6.430200345605924
 30
0.0
 10
7.201988445317585
 20
6.40623305154315
 30
0.0
 10
7.202931855342939
 20
6.366388824230906
 30
0.0
 10
7.203480288160536
 20
6.351090703694632
 30
0.0
 10
7.204084025436687
 20
6.339751357299379
 30
0.0
  0
LINE
  5
1F9
330
1F
100
AcDbEntity
  8
0
  6
Continuous
 62
     7
370
    25
100
AcDbLine
 10
7.2040840204
 20
6.3397514615
 30
0.0
 11
6.9199662492
 21
6.3253686143
 31
0.0
  0
SPLINE
  5
1FA
330
1F
100
AcDbEntity
  8
0
  6
Continuous
 62
     7
370
    25
100
AcDbSpline
210
0.0
220
0.0
230
1.0
 70
    24
 71
     3
 72
     8
 73
     4
 74
     0
 42
0.000000001
 43
0.00000001
 40
0.0
 40
0.0
 40
0.0
 40
0.0
 40
1.0
 40
1.0
 40
1.0
 40
1.0
 10
6.919966249248965
 20
6.325368739413973
 30
0.0
 10
6.919966249248795
 20
6.397445222434337
 30
0.0
 10
6.919966249248795
 20
6.628224704803205
 30
0.0
 10
6.919966249248965
 20
7.164305373082827
 30
0.0
  0
LWPOLYLINE
  5
1FB
330
1F
100
AcDbEntity
  8
0
  6
Continuous
 62
     7
370
    25
100
AcDbPolyline
 90
        9
 70
   128
 43
0.0
 10
7.2011337078
 20
7.1643054562
 10
7.205307408
 20
7.1643034029
 10
7.2093682494
 20
7.1643016429
 10
7.213236428
 20
7.1642998829
 10
7.2168359715
 20
7.1642984162
 10
7.2200961321
 20
7.1642969496
 10
7.2229528541
 20
7.1642954829
 10
7.2253500198
 20
7.1642943096
 10
7.2272405129
 20
7.1642934296
  0
LINE
  5
1FC
330
1F
100
AcDbEntity
  8
0
  6
Continuous
 62
     7
370
    25
100
AcDbLine
 10
7.2272128482
 20
9.7983840137
 30
0.0
 11
7.201066847
 21
9.7983840137
 31
0.0
  0
SPLINE
  5
1FD
330
1F
100
AcDbEntity
  8
0
  6
Continuous
 62
     7
370
    25
100
AcDbSpline
210
0.0
220
0.0
230
1.0
 70
     8
 71
     3
 72
    12
 73
     8
 74
     0
 42
0.000000001
 43
0.00000001
 40
0.0
 40
0.0
 40
0.0
 40
0.0
 40
0.25
 40
0.25
 40
0.5
 40
0.5
 40
1.0
 40
1.0
 40
1.0
 40
1.0
 10
7.227240505143024
 20
7.16429354253913
 30
0.0
 10
7.227286211309357
 20
7.383812851865607
 30
0.0
 10
7.227259282793004
 20
7.603325225024824
 30
0.0
 10
7.22723025375626
 20
8.042332441504398
 30
0.0
 10
7.227234013537128
 20
8.261837474761228
 30
0.0
 10
7.227230483546659
 20
8.920360222881634
 30
0.0
 10
7.227214678475135
 20
9.35937132370908
 30
0.0
 10
7.227212848071062
 20
9.798384260513178
 30
0.0
  0
LWPOLYLINE
  5
1FE
330
1F
100
AcDbEntity
  8
0
  6
Continuous
 62
     7
370
    25
100
AcDbPolyline
 90
        9
 70
   128
 43
0.0
 10
7.2011337078
 20
12.4324625713
 10
7.205307408
 20
12.4324646246
 10
7.2093682494
 20
12.4324663846
 10
7.213236428
 20
12.4324681446
 10
7.2168359715
 20
12.4324696112
 10
7.2200961321
 20
12.4324710779
 10
7.2229528541
 20
12.4324725445
 10
7.2253500198
 20
12.4324737178
 10
7.2272405129
 20
12.4324745978
  0
SPLINE
  5
1FF
330
1F
100
AcDbEntity
  8
0
  6
Continuous
 62
     7
370
    25
100
AcDbSpline
210
0.0
220
0.0
230
1.0
 70
     8
 71
     3
 72
    14
 73
    10
 74
     0
 42
0.000000001
 43
0.00000001
 40
0.0
 40
0.0
 40
0.0
 40
0.0
 40
0.2499999999999999
 40
0.2499999999999999
 40
0.4999999999999998
 40
0.4999999999999998
 40
0.7499999999999999
 40
0.7499999999999999
 40
1.0
 40
1.0
 40
1.0
 40
1.0
 10
7.227240505143025
 20
12.43247448490923
 30
0.0
 10
7.227238200405797
 20
12.2027406704727
 30
0.0
 10
7.227235895663388
 20
11.97844215323828
 30
0.0
 10
7.22723128616822
 20
11.53406594409471
 30
0.0
 10
7.227228981415459
 20
11.31402084003937
 30
0.0
 10
7.2272243718996
 20
10.8773174278853
 30
0.0
 10
7.227222067136499
 20
10.66065510432264
 30
0.0
 10
7.227217457599967
 20
10.22878414525516
 30
0.0
 10
7.227215152826535
 20
10.01357649935808
 30
0.0
 10
7.227212848047943
 20
9.798384013726874
 30
0.0
  0
SPLINE
  5
200
330
1F
100
AcDbEntity
  8
0
  6
Continuous
 62
     7
370
    25
100
AcDbSpline
210
0.0
220
0.0
230
1.0
 70
     8
 71
     3
 72
    28
 73
    24
 74
     0
 42
0.000000001
 43
0.00000001
 40
0.0
 40
0.0
 40
0.0
 40
0.0
 40
0.1250000000000013
 40
0.1250000000000013
 40
0.2500000000000027
 40
0.2500000000000027
 40
0.3125000000000029
 40
0.3125000000000029
 40
0.375000000000003
 40
0.375000000000003
 40
0.5000000000000042
 40
0.5000000000000042
 40
0.5625000000000044
 40
0.5625000000000044
 40
0.6250000000000048
 40
0.6250000000000048
 40
0.7500000000000038
 40
0.7500000000000038
 40
0.8750000000000028
 40
0.8750000000000028
 40
0.9375000000000013
 40
0.9375000000000013
 40
1.0
 40
1.0
 40
1.0
 40
1.0
 10
7.228284128177253
 20
6.353950621568536
 30
0.0
 10
7.228154616000939
 20
6.36583936353102
 30
0.0
 10
7.227987228664015
 20
6.381469542990683
 30
0.0
 10
7.227630745444142
 20
6.421273152893576
 30
0.0
 10
7.22749643978905
 20
6.444894289793914
 30
0.0
 10
7.22728459440594
 20
6.485970528362768
 30
0.0
 10
7.227219333248913
 20
6.500595028313609
 30
0.0
 10
7.22712573635806
 20
6.531773466530343
 30
0.0
 10
7.227096481138412
 20
6.548200685864983
 30
0.0
 10
7.226999955843963
 20
6.599017980100971
 30
0.0
 10
7.226961228742938
 20
6.635213008880176
 30
0.0
 10
7.226952034146673
 20
6.69251262995867
 30
0.0
 10
7.226952169628678
 20
6.712096386219582
 30
0.0
 10
7.226962588800696
 20
6.751446401486339
 30
0.0
 10
7.226972771568519
 20
6.771306108991591
 30
0.0
 10
7.227015263024368
 20
6.831371531907461
 30
0.0
 10
7.227054542383673
 20
6.872066764614591
 30
0.0
 10
7.227139746381197
 20
6.954470841399225
 30
0.0
 10
7.227188816642401
 20
6.996321525559852
 30
0.0
 10
7.227237926241459
 20
7.059257493466904
 30
0.0
 10
7.227253163688479
 20
7.080258190494407
 30
0.0
 10
7.227264516062592
 20
7.122293478129246
 30
0.0
 10
7.227236151173678
 20
7.143382152659364
 30
0.0
 10
7.227240505143025
 20
7.164293542544521
 30
0.0
  0
ARC
  5
201
330
1F
100
AcDbEntity
  8
0
  6
Continuous
 62
     7
370
    25
100
AcDbCircle
 10
7.2025991935
 20
6.3700041706
 30
0.0
 40
0.0302891254221986
100
AcDbArc
 50
272.8098673957
 51
327.9939875166
  0
SPLINE
  5
202
330
1F
100
AcDbEntity
  8
0
  6
Continuous
 62
     7
370
    25
100
AcDbSpline
210
0.0
220
0.0
230
1.0
 70
     8
 71
     3
 72
    25
 73
    21
 74
     0
 42
0.000000001
 43
0.00000001
 40
0.0
 40
0.0
 40
0.0
 40
0.0
 40
0.0153219942626922
 40
0.0315095237487281
 40
0.0485742606601385
 40
0.0665288000478049
 40
0.0853872019948269
 40
0.1051657062199381
 40
0.125881551279225
 40
0.172561798542506
 40
0.2506914632192208
 40
0.3701088548317483
 40
0.5005869911952312
 40
0.6112303894927209
 40
0.7497199510180633
 40
0.8331511592678659
 40
0.8747091800632961
 40
0.9172556040589803
 40
0.9590176915498531
 40
1.0
 40
1.0
 40
1.0
 40
1.0
 10
7.22828412817734
 20
13.24281740589329
 30
0.0
 10
7.22826815550002
 20
13.24135261334822
 30
0.0
 10
7.228235307853248
 20
13.23834028253186
 30
0.0
 10
7.228180131209231
 20
13.23323326572793
 30
0.0
 10
7.228119027589941
 20
13.22746190005064
 30
0.0
 10
7.228051651139602
 20
13.22091584960989
 30
0.0
 10
7.227977932048599
 20
13.21352245643251
 30
0.0
 10
7.227898554745916
 20
13.20518811044812
 30
0.0
 10
7.227775302924996
 20
13.19205397570061
 30
0.0
 10
7.227594402840389
 20
13.16759673941147
 30
0.0
 10
7.227300287232544
 20
13.11887368526604
 30
0.0
 10
7.227024413183683
 20
13.03797793323847
 30
0.0
 10
7.226935081127459
 20
12.93315007586939
 30
0.0
 10
7.226977137524085
 20
12.81351899724804
 30
0.0
 10
7.227074207729443
 20
12.70383295445406
 30
0.0
 10
7.227166612724894
 20
12.61557046777079
 30
0.0
 10
7.227224311256493
 20
12.55915178817104
 30
0.0
 10
7.227248170913668
 20
12.51666850551902
 30
0.0
 10
7.227256141750649
 20
12.47431854783593
 30
0.0
 10
7.227245684496019
 20
12.44633459944237
 30
0.0
 10
7.227240505143025
 20
12.43247448490923
 30
0.0
  0
ARC
  5
203
330
1F
100
AcDbEntity
  8
0
  6
Continuous
 62
     7
370
    25
100
AcDbCircle
 10
7.2025991935
 20
13.2267638569
 30
0.0
 40
0.0302891254222057
100
AcDbArc
 50
32.0060124834
 51
87.1901326043
  0
SPLINE
  5
204
330
1F
100
AcDbEntity
  8
0
  6
Continuous
 62
     7
370
    25
100
AcDbSpline
210
0.0
220
0.0
230
1.0
 70
     8
 71
     3
 72
     9
 73
     5
 74
     0
 42
0.000000001
 43
0.00000001
 40
0.0
 40
0.0
 40
0.0
 40
0.0
 40
0.4977583364234482
 40
1.0
 40
1.0
 40
1.0
 40
1.0
 10
7.228224546547382
 20
13.2469600867418
 30
0.0
 10
7.228247589057589
 20
13.24627182177514
 30
0.0
 10
7.228293881622717
 20
13.24488909261462
 30
0.0
 10
7.228287389028607
 20
13.24351002906475
 30
0.0
 10
7.22828412817734
 20
13.24281740589329
 30
0.0
  0
SPLINE
  5
205
330
1F
100
AcDbEntity
  8
0
  6
Continuous
 62
     7
370
    25
100
AcDbSpline
210
0.0
220
0.0
230
1.0
 70
     8
 71
     3
 72
    10
 73
     6
 74
     0
 42
0.000000001
 43
0.00000001
 40
0.0
 40
0.0
 40
0.0
 40
0.0
 40
0.5
 40
0.5
 40
1.0
 40
1.0
 40
1.0
 40
1.0
 10
7.228357755165873
 20
13.41516868000683
 30
0.0
 10
7.228335554834557
 20
13.38764587150084
 30
0.0
 10
7.228313353947747
 20
13.36004194061987
 30
0.0
 10
7.22826895107197
 20
13.3041954563699
 30
0.0
 10
7.228246749083005
 20
13.27594011786545
 30
0.0
 10
7.228224546547382
 20
13.24696008674181
 30
0.0
  0
SPLINE
  5
206
330
1F
100
AcDbEntity
  8
0
  6
Continuous
 62
     7
370
    25
100
AcDbSpline
210
0.0
220
0.0
230
1.0
 70
     8
 71
     3
 72
    27
 73
    23
 74
     0
 42
0.000000001
 43
0.00000001
 40
0.0
 40
0.0
 40
0.0
 40
0.0
 40
0.0374682071986304
 40
0.0636100015830615
 40
0.0710084433866069
 40
0.0763421052095951
 40
0.0822799356100245
 40
0.0857685122563006
 40
0.0890837551999422
 40
0.094783449373957
 40
0.106673095633008
 40
0.1264006563417416
 40
0.165521792531832
 40
0.1896664496167425
 40
0.2213446896742641
 40
0.2523239941771007
 40
0.3650715721970451
 40
0.5026123510656899
 40
0.6332539478035153
 40
0.7873103972844668
 40
0.8884362086830513
 40
1.0
 40
1.0
 40
1.0
 40
1.0
 10
7.319966249248965
 20
13.28963382378578
 30
0.0
 10
7.319964742835176
 20
13.29067841938851
 30
0.0
 10
7.319962185387394
 20
13.29245183565023
 30
0.0
 10
7.319929479541404
 20
13.29465976356852
 30
0.0
 10
7.319881977073876
 20
13.29604276561523
 30
0.0
 10
7.319841581870244
 20
13.29680818505849
 30
0.0
 10
7.319798898231571
 20
13.29746290683579
 30
0.0
 10
7.319674455664527
 20
13.29848403102667
 30
0.0
 10
7.319475695039309
 20
13.29932050858461
 30
0.0
 10
7.319278510951398
 20
13.29973412261473
 30
0.0
 10
7.318946666000195
 20
13.30021596452591
 30
0.0
 10
7.318307142525612
 20
13.30078327362657
 30
0.0
 10
7.317393227511205
 20
13.30155802130597
 30
0.0
 10
7.316136536491968
 20
13.30267715685799
 30
0.0
 10
7.314718480420522
 20
13.30416488443303
 30
0.0
 10
7.311306911384905
 20
13.30802273133459
 30
0.0
 10
7.303612037827533
 20
13.31778389412556
 30
0.0
 10
7.290243393378861
 20
13.33520410497344
 30
0.0
 10
7.273842052472977
 20
13.3564728525456
 30
0.0
 10
7.257952989656851
 20
13.37696062152894
 30
0.0
 10
7.242406012155723
 20
13.39699751164308
 30
0.0
 10
7.233191249093852
 20
13.40891664233312
 30
0.0
 10
7.228357755165873
 20
13.41516868000683
 30
0.0
  0
LINE
  5
207
330
1F
100
AcDbEntity
  8
0
  6
Continuous
 62
     7
370
    25
100
AcDbLine
 10
7.3199662517
 20
13.2896336825
 30
0.0
 11
7.3199662517
 21
13.1209114716
 31
0.0
  0
SPLINE
  5
208
330
1F
100
AcDbEntity
  8
0
  6
Continuous
 62
     7
370
    25
100
AcDbSpline
210
0.0
220
0.0
230
1.0
 70
    24
 71
     3
 72
    67
 73
    63
 74
     0
 42
0.000000001
 43
0.00000001
 40
0.0
 40
0.0
 40
0.0
 40
0.0
 40
0.0312500000000042
 40
0.0468750000000058
 40
0.054687500000007
 40
0.0585937500000068
 40
0.0585937500000068
 40
0.0625000000000066
 40
0.0625000000000066
 40
0.0937500000000062
 40
0.1093750000000065
 40
0.1171875000000066
 40
0.1210937500000071
 40
0.1210937500000071
 40
0.1250000000000077
 40
0.1250000000000077
 40
0.1875000000000275
 40
0.2187500000000369
 40
0.2343750000000405
 40
0.2421875000000425
 40
0.2460937500000439
 40
0.2460937500000439
 40
0.2500000000000453
 40
0.2500000000000453
 40
0.3125000000000632
 40
0.3437500000000714
 40
0.3437500000000714
 40
0.3750000000000796
 40
0.3750000000000796
 40
0.4375000000000976
 40
0.4687500000001057
 40
0.4843750000001099
 40
0.4921875000001111
 40
0.4921875000001111
 40
0.5000000000001124
 40
0.5000000000001124
 40
0.5625000000001164
 40
0.5937500000001191
 40
0.6093750000001203
 40
0.6171875000001205
 40
0.6210937500001188
 40
0.6210937500001188
 40
0.6250000000001172
 40
0.6250000000001172
 40
0.6875000000000753
 40
0.7187500000000542
 40
0.7343750000000447
 40
0.7421875000000411
 40
0.7460937500000381
 40
0.7460937500000381
 40
0.7500000000000352
 40
0.7500000000000352
 40
0.8124999999999941
 40
0.8437499999999745
 40
0.8593749999999647
 40
0.8671874999999601
 40
0.8710937499999588
 40
0.8730468749999586
 40
0.8730468749999586
 40
0.8749999999999583
 40
0.8749999999999583
 40
1.0
 40
1.0
 40
1.0
 40
1.0
 10
7.319966249248965
 20
13.12091150695028
 30
0.0
 10
7.319966249248965
 20
13.1185437146749
 30
0.0
 10
7.319966249248965
 20
13.11466624046929
 30
0.0
 10
7.319966249248965
 20
13.10957255330963
 30
0.0
 10
7.319966249248965
 20
13.10688321791651
 30
0.0
 10
7.319966249248965
 20
13.10570011164519
 30
0.0
 10
7.319966249248965
 20
13.10490458880654
 30
0.0
 10
7.319966249248965
 20
13.10447125187141
 30
0.0
 10
7.319966249248965
 20
13.10111997685961
 30
0.0
 10
7.319966249248965
 20
13.09635011486723
 30
0.0
 10
7.319966249248965
 20
13.09025765908367
 30
0.0
 10
7.319966249248965
 20
13.08707952699377
 30
0.0
 10
7.319966249248965
 20
13.0856892051985
 30
0.0
 10
7.319966249248965
 20
13.08475604284937
 30
0.0
 10
7.319966249248965
 20
13.08424710012185
 30
0.0
 10
7.319966249248965
 20
13.07687519717089
 30
0.0
 10
7.319966249248965
 20
13.06567691753613
 30
0.0
 10
7.319966249248965
 20
13.0512282053038
 30
0.0
 10
7.319966249248965
 20
13.04365783602302
 30
0.0
 10
7.319966249248965
 20
13.03978614809149
 30
0.0
 10
7.319966249248965
 20
13.03810831684416
 30
0.0
 10
7.319966249248965
 20
13.03698564347492
 30
0.0
 10
7.319966249248965
 20
13.0363904700061
 30
0.0
 10
7.319966249248965
 20
13.02731793198845
 30
0.0
 10
7.319966249248965
 20
13.01393011792575
 30
0.0
 10
7.319966249248965
 20
12.99967301621819
 30
0.0
 10
7.319966249248965
 20
12.98997510671429
 30
0.0
 10
7.319966249248965
 20
12.9849729161418
 30
0.0
 10
7.319966249248965
 20
12.97001647170267
 30
0.0
 10
7.319966249248965
 20
12.95465858936734
 30
0.0
 10
7.319966249248965
 20
12.93603854365776
 30
0.0
 10
7.319966249248965
 20
12.92655289172337
 30
0.0
 10
7.319966249248965
 20
12.92244997752014
 30
0.0
 10
7.319966249248965
 20
12.91970633809517
 30
0.0
 10
7.319966249248965
 20
12.91837303068182
 30
0.0
 10
7.319966249248965
 20
12.90556713816872
 30
0.0
 10
7.319966249248965
 20
12.88820366473867
 30
0.0
 10
7.319966249248965
 20
12.86744061643156
 30
0.0
 10
7.319966249248965
 20
12.85693267661833
 30
0.0
 10
7.319966249248965
 20
12.8516471027968
 30
0.0
 10
7.319966249248965
 20
12.84937508460579
 30
0.0
 10
7.319966249248965
 20
12.84785890086347
 30
0.0
 10
7.319966249248965
 20
12.84715259596893
 30
0.0
 10
7.319966249248965
 20
12.8333462793741
 30
0.0
 10
7.319966249248965
 20
12.81368768517307
 30
0.0
 10
7.319966249248965
 20
12.7904598421053
 30
0.0
 10
7.319966249248965
 20
12.77877271644644
 30
0.0
 10
7.319966249248965
 20
12.77291085258577
 30
0.0
 10
7.319966249248965
 20
12.77039470356735
 30
0.0
 10
7.319966249248965
 20
12.76871639941073
 30
0.0
 10
7.319966249248965
 20
12.76796625562294
 30
0.0
 10
7.319966249248965
 20
12.75216530667199
 30
0.0
 10
7.319966249248965
 20
12.72980224166662
 30
0.0
 10
7.319966249248965
 20
12.70361427398564
 30
0.0
 10
7.319966249248965
 20
12.69049585885147
 30
0.0
 10
7.319966249248965
 20
12.68393054346097
 30
0.0
 10
7.319966249248965
 20
12.68064635880987
 30
0.0
 10
7.319966249248965
 20
12.67923852389742
 30
0.0
 10
7.319966249248965
 20
12.67829989457695
 30
0.0
 10
7.319966249248965
 20
12.67789699937752
 30
0.0
 10
7.319966249248965
 20
12.64306719207108
 30
0.0
 10
7.319966249248965
 20
12.60909986581559
 30
0.0
 10
7.319966249248965
 20
12.57545917742167
 30
0.0
  0
LINE
  5
209
330
1F
100
AcDbEntity
  8
0
  6
Continuous
 62
     7
370
    25
100
AcDbLine
 10
7.3199662517
 20
12.5754591594
 30
0.0
 11
7.3199662517
 21
9.7983840137
 31
0.0
  0
SPLINE
  5
20A
330
1F
100
AcDbEntity
  8
0
  6
Continuous
 62
     7
370
    25
100
AcDbSpline
210
0.0
220
0.0
230
1.0
 70
    24
 71
     3
 72
     8
 73
     4
 74
     0
 42
0.000000001
 43
0.00000001
 40
0.0
 40
0.0
 40
0.0
 40
0.0
 40
1.0
 40
1.0
 40
1.0
 40
1.0
 10
7.227212848047925
 20
9.798384013726874
 30
0.0
 10
7.274684204298461
 20
9.798384013726874
 30
0.0
 10
7.319966249248965
 20
9.798384013726874
 30
0.0
 10
7.319966249248965
 20
9.798384013726874
 30
0.0
  0
SPLINE
  5
20B
330
1F
100
AcDbEntity
  8
0
  6
Continuous
 62
     7
370
    25
100
AcDbSpline
210
0.0
220
0.0
230
1.0
 70
    24
 71
     3
 72
    15
 73
    11
 74
     0
 42
0.000000001
 43
0.00000001
 40
0.0
 40
0.0
 40
0.0
 40
0.0
 40
0.125
 40
0.25
 40
0.375
 40
0.5
 40
0.625
 40
0.75
 40
0.875
 40
1.0
 40
1.0
 40
1.0
 40
1.0
 10
7.319966249248965
 20
6.47585652050347
 30
0.0
 10
7.319966249248965
 20
6.485686028403258
 30
0.0
 10
7.319966249248965
 20
6.511303500346168
 30
0.0
 10
7.319966249248965
 20
6.559636436684962
 30
0.0
 10
7.319966249248965
 20
6.615618525561245
 30
0.0
 10
7.319966249248965
 20
6.678573358228929
 30
0.0
 10
7.319966249248965
 20
6.748995583396567
 30
0.0
 10
7.319966249248965
 20
6.828009961556284
 30
0.0
 10
7.319966249248965
 20
6.917352209068412
 30
0.0
 10
7.319966249248965
 20
6.985132510583488
 30
0.0
 10
7.319966249248965
 20
7.021308850032084
 30
0.0
  0
LINE
  5
20C
330
1F
100
AcDbEntity
  8
0
  6
Continuous
 62
     7
370
    25
100
AcDbLine
 10
7.3199662517
 20
6.3071343449
 30
0.0
 11
7.3199662517
 21
6.4758565558
 31
0.0
  0
SPLINE
  5
20D
330
1F
100
AcDbEntity
  8
0
  6
Continuous
 62
     7
370
    25
100
AcDbSpline
210
0.0
220
0.0
230
1.0
 70
     8
 71
     3
 72
    22
 73
    18
 74
     0
 42
0.000000001
 43
0.00000001
 40
0.0
 40
0.0
 40
0.0
 40
0.0
 40
0.125
 40
0.125
 40
0.25
 40
0.25
 40
0.375
 40
0.375
 40
0.5
 40
0.5
 40
0.625
 40
0.625
 40
0.75
 40
0.75
 40
0.875
 40
0.875
 40
1.0
 40
1.0
 40
1.0
 40
1.0
 10
7.319966249248965
 20
6.307134203667966
 30
0.0
 10
7.319966249248965
 20
6.304407110694518
 30
0.0
 10
7.319946336748798
 20
6.302310322384435
 30
0.0
 10
7.319815340216895
 20
6.299211552155476
 30
0.0
 10
7.319705194974326
 20
6.298212517641808
 30
0.0
 10
7.319270431277004
 20
6.296879391456897
 30
0.0
 10
7.318955897200935
 20
6.296542063812755
 30
0.0
 10
7.31780656907406
 20
6.295570925657501
 30
0.0
 10
7.316993123861542
 20
6.294962819665972
 30
0.0
 10
7.31398926291411
 20
6.291843759365782
 30
0.0
 10
7.311809424346611
 20
6.289323941695118
 30
0.0
 10
7.30442973733535
 20
6.280028820303729
 30
0.0
 10
7.299133904085583
 20
6.273134866987188
 30
0.0
 10
7.284566208550692
 20
6.254199964208054
 30
0.0
 10
7.275322617108512
 20
6.242219180980968
 30
0.0
 10
7.253891982612887
 20
6.21456426571356
 30
0.0
 10
7.241737338620598
 20
6.198936807471608
 30
0.0
 10
7.228357724660665
 20
6.181599436445984
 30
0.0
  0
SPLINE
  5
20E
330
1F
100
AcDbEntity
  8
0
  6
Continuous
 62
     7
370
    25
100
AcDbSpline
210
0.0
220
0.0
230
1.0
 70
     8
 71
     3
 72
    16
 73
    12
 74
     0
 42
0.000000001
 43
0.00000001
 40
0.0
 40
0.0
 40
0.0
 40
0.0
 40
0.4999999999999997
 40
0.4999999999999997
 40
0.7499999999999996
 40
0.7499999999999996
 40
0.8750000000000001
 40
0.9375
 40
0.96875
 40
0.96875
 40
1.0
 40
1.0
 40
1.0
 40
1.0
 10
7.228357755165872
 20
6.181599347446914
 30
0.0
 10
7.228338252001798
 20
6.209661386928731
 30
0.0
 10
7.228315754623971
 20
6.237718320445358
 30
0.0
 10
7.228276001416583
 20
6.27979425073599
 30
0.0
 10
7.228261603587963
 20
6.293815305108166
 30
0.0
 10
7.228240970773703
 20
6.314822564754492
 30
0.0
 10
7.228230902546221
 20
6.325320222860107
 30
0.0
 10
7.228220214564784
 20
6.337554155743843
 30
0.0
 10
7.228215923011928
 20
6.342794119703877
 30
0.0
 10
7.228213132939032
 20
6.346286698718338
 30
0.0
 10
7.228195107894912
 20
6.347987070530033
 30
0.0
 10
7.228224926362654
 20
6.349807716664751
 30
0.0
  0
SPLINE
  5
20F
330
1F
100
AcDbEntity
  8
0
  6
Continuous
 62
     7
370
    25
100
AcDbSpline
210
0.0
220
0.0
230
1.0
 70
     8
 71
     3
 72
     9
 73
     5
 74
     0
 42
0.000000001
 43
0.00000001
 40
0.0
 40
0.0
 40
0.0
 40
0.0
 40
0.3250517471636312
 40
1.0
 40
1.0
 40
1.0
 40
1.0
 10
7.228224926362654
 20
6.349807716664751
 30
0.0
 10
7.228239399825904
 20
6.350255035859355
 30
0.0
 10
7.22828392646936
 20
6.351631183498949
 30
0.0
 10
7.228284046895754
 20
6.353015965421363
 30
0.0
 10
7.228284128177339
 20
6.353950621560458
 30
0.0
  0
LINE
  5
210
330
1F
100
AcDbEntity
  8
0
  6
Continuous
 62
     7
370
    25
100
AcDbLine
 10
7.3199662517
 20
7.0213088681
 30
0.0
 11
7.3199662517
 21
9.7983840137
 31
0.0
  0
LINE
  5
211
330
1F
100
AcDbEntity
  8
0
  6
Continuous
 62
     7
370
    25
100
AcDbLine
 10
7.3299381499
 20
13.6185562828
 30
0.0
 11
6.9199662492
 21
13.639309963
 31
0.0
  0
LINE
  5
212
330
1F
100
AcDbEntity
  8
0
  6
Continuous
 62
     7
370
    25
100
AcDbLine
 10
7.3299381499
 20
13.5311844388
 30
0.0
 11
7.3299381499
 21
13.6185562828
 31
0.0
  0
SPLINE
  5
213
330
1F
100
AcDbEntity
  8
0
  6
Continuous
 62
     7
370
    25
100
AcDbSpline
210
0.0
220
0.0
230
1.0
 70
     8
 71
     3
 72
    12
 73
     8
 74
     0
 42
0.000000001
 43
0.00000001
 40
0.0
 40
0.0
 40
0.0
 40
0.0
 40
0.5
 40
0.5
 40
0.75
 40
0.75
 40
1.0
 40
1.0
 40
1.0
 40
1.0
 10
7.205116041995829
 20
13.42782824738521
 30
0.0
 10
7.205240884646036
 20
13.44729736650403
 30
0.0
 10
7.218415681703023
 20
13.46542079141686
 30
0.0
 10
7.252062319667159
 20
13.49117418327346
 30
0.0
 10
7.265663016969836
 20
13.49954187776157
 30
0.0
 10
7.295804145278695
 20
13.51570510261767
 30
0.0
 10
7.312248896922815
 20
13.52355134968725
 30
0.0
 10
7.329938165092016
 20
13.53118444092456
 30
0.0
  0
SPLINE
  5
214
330
1F
100
AcDbEntity
  8
0
  6
Continuous
 62
     7
370
    25
100
AcDbSpline
210
0.0
220
0.0
230
1.0
 70
     8
 71
     3
 72
    15
 73
    11
 74
     0
 42
0.000000001
 43
0.00000001
 40
0.0
 40
0.0
 40
0.0
 40
0.0
 40
0.0625000000000008
 40
0.0625000000000008
 40
0.1250000000000015
 40
0.2500000000000018
 40
0.2500000000000018
 40
0.5000000000000012
 40
0.5000000000000012
 40
1.0
 40
1.0
 40
1.0
 40
1.0
 10
7.204084025436687
 20
13.25701667015421
 30
0.0
 10
7.204281505570343
 20
13.26056626253578
 30
0.0
 10
7.204204627073129
 20
13.26412985831026
 30
0.0
 10
7.204227647966393
 20
13.2712480270331
 30
0.0
 10
7.204265607148624
 20
13.28192510516263
 30
0.0
 10
7.204312911274926
 20
13.29260170630606
 30
0.0
 10
7.204417122831965
 20
13.31395441848654
 30
0.0
 10
7.204499563273393
 20
13.3281888983629
 30
0.0
 10
7.204757583693084
 20
13.3708917920842
 30
0.0
 10
7.204933495069546
 20
13.39936018901996
 30
0.0
 10
7.205116041995829
 20
13.42782824738521
 30
0.0
  0
LINE
  5
215
330
1F
100
AcDbEntity
  8
0
  6
Continuous
 62
     7
370
    25
100
AcDbLine
 10
6.9199662492
 20
13.639309963
 30
0.0
 11
6.9199662492
 21
13.2713994132
 31
0.0
  0
SPLINE
  5
216
330
1F
100
AcDbEntity
  8
0
  6
Continuous
 62
     7
370
    25
100
AcDbSpline
210
0.0
220
0.0
230
1.0
 70
     8
 71
     3
 72
    15
 73
    11
 74
     0
 42
0.000000001
 43
0.00000001
 40
0.0
 40
0.0
 40
0.0
 40
0.0
 40
0.0625000000000008
 40
0.0625000000000008
 40
0.1250000000000015
 40
0.2500000000000018
 40
0.2500000000000018
 40
0.5000000000000012
 40
0.5000000000000012
 40
1.0
 40
1.0
 40
1.0
 40
1.0
 10
7.204084025436687
 20
6.339751357299545
 30
0.0
 10
7.204281505570343
 20
6.336201764917968
 30
0.0
 10
7.204204627073129
 20
6.332638169143492
 30
0.0
 10
7.204227647966393
 20
6.325520000420649
 30
0.0
 10
7.204265607148624
 20
6.314842922291123
 30
0.0
 10
7.204312911274926
 20
6.30416632114769
 30
0.0
 10
7.204417122831965
 20
6.282813608967214
 30
0.0
 10
7.204499563273393
 20
6.268579129090851
 30
0.0
 10
7.204757583693084
 20
6.225876235369549
 30
0.0
 10
7.204933495069546
 20
6.197407838433786
 30
0.0
 10
7.205116041995829
 20
6.168939780068536
 30
0.0
  0
SPLINE
  5
217
330
1F
100
AcDbEntity
  8
0
  6
Continuous
 62
     7
370
    25
100
AcDbSpline
210
0.0
220
0.0
230
1.0
 70
     8
 71
     3
 72
    12
 73
     8
 74
     0
 42
0.000000001
 43
0.00000001
 40
0.0
 40
0.0
 40
0.0
 40
0.0
 40
0.5
 40
0.5
 40
0.75
 40
0.75
 40
1.0
 40
1.0
 40
1.0
 40
1.0
 10
7.205116041995829
 20
6.168939780068536
 30
0.0
 10
7.205240884646036
 20
6.149470660949718
 30
0.0
 10
7.218415681703023
 20
6.131347236036889
 30
0.0
 10
7.252062319667159
 20
6.105593844180293
 30
0.0
 10
7.265663016969836
 20
6.097226149692184
 30
0.0
 10
7.295804145278695
 20
6.081062924836078
 30
0.0
 10
7.312248896922815
 20
6.073216677766502
 30
0.0
 10
7.329938165092016
 20
6.06558358652919
 30
0.0
  0
LINE
  5
218
330
1F
100
AcDbEntity
  8
0
  6
Continuous
 62
     7
370
    25
100
AcDbLine
 10
7.3299381499
 20
6.0655835887
 30
0.0
 11
7.3299381499
 21
5.9782117447
 31
0.0
  0
LINE
  5
219
330
1F
100
AcDbEntity
  8
0
  6
Continuous
 62
     7
370
    25
100
AcDbLine
 10
7.3299381499
 20
5.9782117447
 30
0.0
 11
6.9199662492
 21
5.9574580644
 31
0.0
  0
LINE
  5
21A
330
1F
100
AcDbEntity
  8
0
  6
Continuous
 62
     7
370
    25
100
AcDbLine
 10
6.9199662492
 20
5.9574580644
 30
0.0
 11
6.9199662492
 21
6.3253686143
 31
0.0
  0
ARC
  5
21B
330
1F
100
AcDbEntity
  8
0
  6
Continuous
 62
     7
370
    25
100
AcDbCircle
 10
7.2037213929
 20
6.1991649008
 30
0.0
 40
0.0302571986436805
100
AcDbArc
 50
272.6418873112
 51
324.5114872097
  0
ARC
  5
21C
330
1F
100
AcDbEntity
  8
0
  6
Continuous
 62
     7
370
    25
100
AcDbCircle
 10
7.2037213929
 20
13.3976031266
 30
0.0
 40
0.0302571986436796
100
AcDbArc
 50
35.4885127903
 51
87.3581126888
  0
SPLINE
  5
21D
330
1F
100
AcDbEntity
  8
0
  6
Continuous
 62
     7
370
    25
100
AcDbSpline
210
0.0
220
0.0
230
1.0
 70
     8
 71
     3
 72
     8
 73
     4
 74
     0
 42
0.000000001
 43
0.00000001
 40
0.0
 40
0.0
 40
0.0
 40
0.0
 40
1.0
 40
1.0
 40
1.0
 40
1.0
 10
7.329938165092016
 20
6.06558358652919
 30
0.0
 10
7.33156185011909
 20
6.065900753759816
 30
0.0
 10
7.333176323254842
 20
6.066385555118512
 30
0.0
 10
7.334753515045788
 20
6.067029655523045
 30
0.0
  0
SPLINE
  5
21E
330
1F
100
AcDbEntity
  8
0
  6
Continuous
 62
     7
370
    25
100
AcDbSpline
210
0.0
220
0.0
230
1.0
 70
     8
 71
     3
 72
    12
 73
     8
 74
     0
 42
0.000000001
 43
0.00000001
 40
0.0
 40
0.0
 40
0.0
 40
0.0
 40
0.2499999999999998
 40
0.2499999999999998
 40
0.4999999999999996
 40
0.4999999999999996
 40
1.0
 40
1.0
 40
1.0
 40
1.0
 10
7.35340798407337
 20
6.090707847091031
 30
0.0
 10
7.335859663842465
 20
6.096886385699194
 30
0.0
 10
7.319308541403232
 20
6.103114010919866
 30
0.0
 10
7.289091554740287
 20
6.116620844731814
 30
0.0
 10
7.275509402477629
 20
6.123869363162149
 30
0.0
 10
7.241934150088927
 20
6.146682939519227
 30
0.0
 10
7.2287954540949
 20
6.163353821390838
 30
0.0
 10
7.228357755165873
 20
6.181599347446914
 30
0.0
  0
SPLINE
  5
21F
330
1F
100
AcDbEntity
  8
0
  6
Continuous
 62
     7
370
    25
100
AcDbSpline
210
0.0
220
0.0
230
1.0
 70
     8
 71
     3
 72
    13
 73
     9
 74
     0
 42
0.000000001
 43
0.00000001
 40
0.0
 40
0.0
 40
0.0
 40
0.0
 40
0.0968813558509747
 40
0.2234492436985593
 40
0.3799924286403554
 40
0.5650000245407345
 40
0.7741779506992715
 40
1.0
 40
1.0
 40
1.0
 40
1.0
 10
7.334753508424834
 20
6.06702968386154
 30
0.0
 10
7.335624427660624
 20
6.067420220008973
 30
0.0
 10
7.337633134525328
 20
6.068320960982449
 30
0.0
 10
7.340861890875041
 20
6.07039339018198
 30
0.0
 10
7.344534643605168
 20
6.073529270052305
 30
0.0
 10
7.34824223977313
 20
6.078008444464683
 30
0.0
 10
7.351568996026541
 20
6.083826482290235
 30
0.0
 10
7.35277954852827
 20
6.088356285183154
 30
0.0
 10
7.353407984073439
 20
6.090707847091008
 30
0.0
  0
SPLINE
  5
220
330
1F
100
AcDbEntity
  8
0
  6
Continuous
 62
     7
370
    25
100
AcDbSpline
210
0.0
220
0.0
230
1.0
 70
     8
 71
     3
 72
     8
 73
     4
 74
     0
 42
0.000000001
 43
0.00000001
 40
0.0
 40
0.0
 40
0.0
 40
0.0
 40
1.0
 40
1.0
 40
1.0
 40
1.0
 10
7.329938165092016
 20
13.53118444092456
 30
0.0
 10
7.331574380463772
 20
13.53086692847649
 30
0.0
 10
7.333179661908867
 20
13.53038384063411
 30
0.0
 10
7.334753515045788
 20
13.52973837193071
 30
0.0
  0
SPLINE
  5
221
330
1F
100
AcDbEntity
  8
0
  6
Continuous
 62
     7
370
    25
100
AcDbSpline
210
0.0
220
0.0
230
1.0
 70
     8
 71
     3
 72
    10
 73
     6
 74
     0
 42
0.000000001
 43
0.00000001
 40
0.0
 40
0.0
 40
0.0
 40
0.0
 40
0.5
 40
0.5
 40
1.0
 40
1.0
 40
1.0
 40
1.0
 10
7.334753515045788
 20
13.52973837193071
 30
0.0
 10
7.339347757590802
 20
13.52785418101788
 30
0.0
 10
7.343513322334862
 20
13.52462151317574
 30
0.0
 10
7.350007530832421
 20
13.51637184080515
 30
0.0
 10
7.352332828411692
 20
13.51136192554577
 30
0.0
 10
7.353408461268864
 20
13.50606015999105
 30
0.0
  0
SPLINE
  5
222
330
1F
100
AcDbEntity
  8
0
  6
Continuous
 62
     7
370
    25
100
AcDbSpline
210
0.0
220
0.0
230
1.0
 70
     8
 71
     3
 72
    19
 73
    15
 74
     0
 42
0.000000001
 43
0.00000001
 40
0.0
 40
0.0
 40
0.0
 40
0.0
 40
0.0569144505591893
 40
0.1252302036076078
 40
0.1877816273399502
 40
0.2502385733016267
 40
0.3750565427604733
 40
0.4992717924178803
 40
0.6226458736170833
 40
0.7494181056579988
 40
0.8104830866372736
 40
0.8727216249503361
 40
0.9359537472483939
 40
1.0
 40
1.0
 40
1.0
 40
1.0
 10
7.353409099104619
 20
13.50606026114278
 30
0.0
 10
7.349500618709095
 20
13.50469189343406
 30
0.0
 10
7.340900697407583
 20
13.50168104179463
 30
0.0
 10
7.328536945032782
 20
13.49697131912615
 30
0.0
 10
7.316194260912136
 20
13.4920973866373
 30
0.0
 10
7.300871278990504
 20
13.48557240289501
 30
0.0
 10
7.283143285411938
 20
13.47686569713711
 30
0.0
 10
7.264574936343646
 20
13.46598198610178
 30
0.0
 10
7.249250669403692
 20
13.45418836032691
 30
0.0
 10
7.239630657210726
 20
13.44392230373762
 30
0.0
 10
7.234030688784413
 20
13.43535680234465
 30
0.0
 10
7.230953202681891
 20
13.42883793587952
 30
0.0
 10
7.228888451272898
 20
13.42210563710635
 30
0.0
 10
7.228535374267788
 20
13.41749081727155
 30
0.0
 10
7.228357706544569
 20
13.41516864810946
 30
0.0
  0
LINE
  5
223
330
1F
100
AcDbEntity
  8
0
  6
Continuous
 62
     7
370
    25
100
AcDbLine
 10
7.3199662517
 20
6.3071343449
 30
0.0
 11
7.416120101
 21
6.3071343449
 31
0.0
  0
SPLINE
  5
224
330
1F
100
AcDbEntity
  8
0
  6
Continuous
 62
     7
370
    25
100
AcDbSpline
210
0.0
220
0.0
230
1.0
 70
     8
 71
     3
 72
     8
 73
     4
 74
     0
 42
0.000000001
 43
0.00000001
 40
0.0
 40
0.0
 40
0.0
 40
0.0
 40
1.0
 40
1.0
 40
1.0
 40
1.0
 10
7.41612009540257
 20
6.307134203668111
 30
0.0
 10
7.416120082318784
 20
6.250004041090579
 30
0.0
 10
7.415891240745107
 20
6.192867949049884
 30
0.0
 10
7.415317562482394
 20
6.135717579489554
 30
0.0
  0
SPLINE
  5
225
330
1F
100
AcDbEntity
  8
0
  6
Continuous
 62
     7
370
    25
100
AcDbSpline
210
0.0
220
0.0
230
1.0
 70
     8
 71
     3
 72
    24
 73
    20
 74
     0
 42
0.000000001
 43
0.00000001
 40
0.0
 40
0.0
 40
0.0
 40
0.0
 40
0.0312499999999979
 40
0.0312499999999979
 40
0.0624999999999958
 40
0.0624999999999958
 40
0.1249999999999966
 40
0.1249999999999966
 40
0.2499999999999986
 40
0.2499999999999986
 40
0.4999999999999968
 40
0.4999999999999968
 40
0.7499999999999949
 40
0.7499999999999949
 40
0.8749999999999971
 40
0.8749999999999971
 40
0.9374999999999986
 40
0.9374999999999986
 40
1.0
 40
1.0
 40
1.0
 40
1.0
 10
7.415317580143696
 20
6.135717564930305
 30
0.0
 10
7.415041102527688
 20
6.134490918140092
 30
0.0
 10
7.414561004460285
 20
6.1333873670943
 30
0.0
 10
7.413612998909147
 20
6.131328695662122
 30
0.0
 10
7.413103615793355
 20
6.130376011171762
 30
0.0
 10
7.411523118857165
 20
6.127629680897301
 30
0.0
 10
7.410391055632128
 20
6.125963734119916
 30
0.0
 10
7.406881404194715
 20
6.121224606376046
 30
0.0
 10
7.404397508153616
 20
6.118454555435303
 30
0.0
 10
7.396785233697388
 20
6.110815288918876
 30
0.0
 10
7.391544972207424
 20
6.106690097679063
 30
0.0
 10
7.380880253073555
 20
6.099609793234615
 30
0.0
 10
7.375443675734588
 20
6.096672570010887
 30
0.0
 10
7.3671460998274
 20
6.093302663605727
 30
0.0
 10
7.364371108361184
 20
6.092359576668996
 30
0.0
 10
7.360227329972394
 20
6.091336371886692
 30
0.0
 10
7.358848520443062
 20
6.091058810467094
 30
0.0
 10
7.356104249312345
 20
6.090693106336603
 30
0.0
 10
7.354733037872393
 20
6.090563600136012
 30
0.0
 10
7.353408460942181
 20
6.090707865518401
 30
0.0
  0
LINE
  5
226
330
1F
100
AcDbEntity
  8
0
  6
Continuous
 62
     7
370
    25
100
AcDbLine
 10
7.3199662517
 20
13.2896336825
 30
0.0
 11
7.416120101
 21
13.2896336825
 31
0.0
  0
SPLINE
  5
227
330
1F
100
AcDbEntity
  8
0
  6
Continuous
 62
     7
370
    25
100
AcDbSpline
210
0.0
220
0.0
230
1.0
 70
     8
 71
     3
 72
    23
 73
    19
 74
     0
 42
0.000000001
 43
0.00000001
 40
0.0
 40
0.0
 40
0.0
 40
0.0
 40
0.0123966691390649
 40
0.0281658648882272
 40
0.0474242215180833
 40
0.0701915791374373
 40
0.0964409072249987
 40
0.1261217889530585
 40
0.1775060401053427
 40
0.2514448115980078
 40
0.3221730075976005
 40
0.3760492689825093
 40
0.5009848274899444
 40
0.7503287300027598
 40
0.8745774171308542
 40
0.9369462847672823
 40
0.9741409156470895
 40
0.9999999999999999
 40
0.9999999999999999
 40
0.9999999999999999
 40
0.9999999999999999
 10
7.415317571714794
 20
13.46105044804654
 30
0.0
 10
7.415188097909605
 20
13.46152418272777
 30
0.0
 10
7.414893926817146
 20
13.46260053209831
 30
0.0
 10
7.414214750449137
 20
13.4642025452898
 30
0.0
 10
7.413318039446679
 20
13.46602912198811
 30
0.0
 10
7.412172984149523
 20
13.46803634654618
 30
0.0
 10
7.410786880069945
 20
13.47020774896753
 30
0.0
 10
7.408818854031155
 20
13.47298783648633
 30
0.0
 10
7.405847900463726
 20
13.47666434816325
 30
0.0
 10
7.401948352216993
 20
13.48087244732723
 30
0.0
 10
7.397881986896056
 20
13.48469496629311
 30
0.0
 10
7.392678436941909
 20
13.4890882092623
 30
0.0
 10
7.383568361710089
 20
13.49571093603879
 30
0.0
 10
7.372661935466391
 20
13.50158439881209
 30
0.0
 10
7.363012328731211
 20
13.50487607503822
 30
0.0
 10
7.358074651379334
 20
13.50585533798812
 30
0.0
 10
7.355323696349131
 20
13.50614782782689
 30
0.0
 10
7.353965933799719
 20
13.50608572872767
 30
0.0
 10
7.353409099104619
 20
13.50606026114279
 30
0.0
  0
SPLINE
  5
228
330
1F
100
AcDbEntity
  8
0
  6
Continuous
 62
     7
370
    25
100
AcDbSpline
210
0.0
220
0.0
230
1.0
 70
     8
 71
     3
 72
     9
 73
     5
 74
     0
 42
0.000000001
 43
0.00000001
 40
0.0
 40
0.0
 40
0.0
 40
0.0
 40
0.4765329974763752
 40
1.0
 40
1.0
 40
1.0
 40
1.0
 10
7.41612009540281
 20
13.28963382378578
 30
0.0
 10
7.416094783146576
 20
13.31686302501794
 30
0.0
 10
7.416041665615642
 20
13.37400324694667
 30
0.0
 10
7.415566372156936
 20
13.43114081602804
 30
0.0
 10
7.415317571714788
 20
13.46105044804654
 30
0.0
  0
LINE
  5
229
330
1F
100
AcDbEntity
  8
0
  6
Continuous
 62
     7
370
    25
100
AcDbLine
 10
7.416120101
 20
6.3071343449
 30
0.0
 11
7.416120101
 21
13.2896336825
 31
0.0
  0
SPLINE
  5
22A
330
1F
100
AcDbEntity
  8
0
  6
Continuous
 62
     7
370
    25
100
AcDbSpline
210
0.0
220
0.0
230
1.0
 70
     8
 71
     3
 72
    15
 73
    11
 74
     0
 42
0.000000001
 43
0.00000001
 40
0.0
 40
0.0
 40
0.0
 40
0.0
 40
0.2010915454205949
 40
0.38178127270069
 40
0.5408341810836933
 40
0.6775844102808325
 40
0.7917859470622384
 40
0.8834662265926448
 40
0.9527984499922373
 40
0.9999999999999999
 40
0.9999999999999999
 40
0.9999999999999999
 40
0.9999999999999999
 10
7.419388229479983
 20
6.130214279067165
 30
0.0
 10
7.419364904303198
 20
6.130550712549107
 30
0.0
 10
7.419320620414183
 20
6.131189446527935
 30
0.0
 10
7.418876818080247
 20
6.13215367053393
 30
0.0
 10
7.418276021087307
 20
6.133029081504763
 30
0.0
 10
7.417587562869843
 20
6.133801424511359
 30
0.0
 10
7.416898020244632
 20
6.134457937251212
 30
0.0
 10
7.416269165298874
 20
6.134991380546258
 30
0.0
 10
7.415752988832598
 20
6.13539860545121
 30
0.0
 10
7.415443099576977
 20
6.135625615426138
 30
0.0
 10
7.415317580143696
 20
6.135717564930308
 30
0.0
  0
SPLINE
  5
22B
330
1F
100
AcDbEntity
  8
0
  6
Continuous
 62
     7
370
    25
100
AcDbSpline
210
0.0
220
0.0
230
1.0
 70
     8
 71
     3
 72
    36
 73
    32
 74
     0
 42
0.000000001
 43
0.00000001
 40
0.0
 40
0.0
 40
0.0
 40
0.0
 40
0.0078124999999996
 40
0.0078124999999996
 40
0.0156249999999992
 40
0.0156249999999992
 40
0.0312499999999983
 40
0.0312499999999983
 40
0.0624999999999967
 40
0.0624999999999967
 40
0.1249999999999963
 40
0.1249999999999963
 40
0.2499999999999964
 40
0.2499999999999964
 40
0.4999999999999959
 40
0.4999999999999959
 40
0.7499999999999952
 40
0.7499999999999952
 40
0.8750000000000001
 40
0.8750000000000001
 40
0.9375000000000026
 40
0.9375000000000026
 40
0.968750000000005
 40
0.968750000000005
 40
0.9843750000000023
 40
0.9843750000000023
 40
0.9921875000000014
 40
0.9921875000000014
 40
0.9960937500000007
 40
0.9960937500000007
 40
1.0
 40
1.0
 40
1.0
 40
1.0
 10
7.335344087028217
 20
6.066745091598473
 30
0.0
 10
7.336309390783125
 20
6.066914266830432
 30
0.0
 10
7.336857377452739
 20
6.067006335099211
 30
0.0
 10
7.337918706453086
 20
6.067187927696629
 30
0.0
 10
7.338389244321948
 20
6.067269204174226
 30
0.0
 10
7.339694285477818
 20
6.067497586397809
 30
0.0
 10
7.340429433161662
 20
6.067630645198112
 30
0.0
 10
7.342536332503593
 20
6.068026341461018
 30
0.0
 10
7.343737457588233
 20
6.068272358465868
 30
0.0
 10
7.347190172650269
 20
6.069030190094385
 30
0.0
 10
7.349208505430558
 20
6.069547360832495
 30
0.0
 10
7.355058330551685
 20
6.071214569330484
 30
0.0
 10
7.358603317347857
 20
6.072467666010733
 30
0.0
 10
7.368972696486189
 20
6.07669754108265
 30
0.0
 10
7.375376592413514
 20
6.08008487624452
 30
0.0
 10
7.387965857528584
 20
6.088271064629032
 30
0.0
 10
7.394107076863252
 20
6.092995660655713
 30
0.0
 10
7.403354987644154
 20
6.102227750869682
 30
0.0
 10
7.406419247218564
 20
6.105614284677885
 30
0.0
 10
7.411037168053507
 20
6.11190836908317
 30
0.0
 10
7.412569277957322
 20
6.114165900167389
 30
0.0
 10
7.414919623652095
 20
6.118335856994698
 30
0.0
 10
7.415706112668631
 20
6.119816519225134
 30
0.0
 10
7.416950446438923
 20
6.122600032553573
 30
0.0
 10
7.417374084936239
 20
6.123595315983782
 30
0.0
 10
7.418051630838528
 20
6.125447597675362
 30
0.0
 10
7.418284516120594
 20
6.126129370128685
 30
0.0
 10
7.41864771384255
 20
6.127286632329773
 30
0.0
 10
7.418773046659684
 20
6.12770776720747
 30
0.0
 10
7.419049735229408
 20
6.128740469091057
 30
0.0
 10
7.419181523381075
 20
6.129224180139743
 30
0.0
 10
7.419388229466408
 20
6.130214276775528
 30
0.0
  0
SPLINE
  5
22C
330
1F
100
AcDbEntity
  8
0
  6
Continuous
 62
     7
370
    25
100
AcDbSpline
210
0.0
220
0.0
230
1.0
 70
     8
 71
     3
 72
    12
 73
     8
 74
     0
 42
0.000000001
 43
0.00000001
 40
0.0
 40
0.0
 40
0.0
 40
0.0
 40
0.5
 40
0.5
 40
0.75
 40
0.75
 40
1.0
 40
1.0
 40
1.0
 40
1.0
 10
7.335344071083445
 20
6.066745085804343
 30
0.0
 10
7.339921413633477
 20
6.068624736249683
 30
0.0
 10
7.34400912547177
 20
6.071880404653744
 30
0.0
 10
7.348729628688115
 20
6.078148750933722
 30
0.0
 10
7.35008594227266
 20
6.080501654521819
 30
0.0
 10
7.352188596418416
 20
6.085434125502607
 30
0.0
 10
7.352949619720963
 20
6.08801307553167
 30
0.0
 10
7.353408461268864
 20
6.090707867462705
 30
0.0
  0
SPLINE
  5
22D
330
1F
100
AcDbEntity
  8
0
  6
Continuous
 62
     7
370
    25
100
AcDbSpline
210
0.0
220
0.0
230
1.0
 70
     8
 71
     3
 72
    26
 73
    22
 74
     0
 42
0.000000001
 43
0.00000001
 40
0.0
 40
0.0
 40
0.0
 40
0.0
 40
0.0110966397518772
 40
0.024134345178226
 40
0.0393636200801266
 40
0.056967790927353
 40
0.0770895659089783
 40
0.0998458117297815
 40
0.1253349734851603
 40
0.180915007789863
 40
0.2504289721932828
 40
0.3034639988441817
 40
0.3751406633494678
 40
0.4994250343462439
 40
0.6239368386499783
 40
0.7492481352872077
 40
0.8744854378469541
 40
0.9072389796731338
 40
0.9372083615907821
 40
0.9683646551162227
 40
1.0
 40
1.0
 40
1.0
 40
1.0
 10
7.335344071083445
 20
13.53002294164941
 30
0.0
 10
7.335866233270636
 20
13.52993298712465
 30
0.0
 10
7.337001896205225
 20
13.52973734289364
 30
0.0
 10
7.338688834408635
 20
13.52945170813321
 30
0.0
 10
7.34053815566842
 20
13.5291239872658
 30
0.0
 10
7.342547387521956
 20
13.52874238243442
 30
0.0
 10
7.344731651312925
 20
13.5282883918817
 30
0.0
 10
7.347097960369249
 20
13.52774489078736
 30
0.0
 10
7.350562983348684
 20
13.5268622684597
 30
0.0
 10
7.355359798421802
 20
13.52543702523626
 30
0.0
 10
7.360822691230104
 20
13.52344329854528
 30
0.0
 10
7.366608138924718
 20
13.52097847687669
 30
0.0
 10
7.373890260267499
 20
13.51739196547067
 30
0.0
 10
7.382997969064119
 20
13.51197383723081
 30
0.0
 10
7.393335133960466
 20
13.50428879337319
 30
0.0
 10
7.403317770171761
 20
13.4949333808345
 30
0.0
 10
7.410444741044435
 20
13.48610752662658
 30
0.0
 10
7.414635265047582
 20
13.47902549929073
 30
0.0
 10
7.416545134101095
 20
13.47519603874416
 30
0.0
 10
7.418238170610949
 20
13.47109294315965
 30
0.0
 10
7.419002925462935
 20
13.4680744882539
 30
0.0
 10
7.419388220131256
 20
13.46655374656951
 30
0.0
  0
SPLINE
  5
22E
330
1F
100
AcDbEntity
  8
0
  6
Continuous
 62
     7
370
    25
100
AcDbSpline
210
0.0
220
0.0
230
1.0
 70
     8
 71
     3
 72
     8
 73
     4
 74
     0
 42
0.000000001
 43
0.00000001
 40
0.0
 40
0.0
 40
0.0
 40
0.0
 40
1.0
 40
1.0
 40
1.0
 40
1.0
 10
7.419388220131256
 20
13.46655374656951
 30
0.0
 10
7.419439245468025
 20
13.46489518069292
 30
0.0
 10
7.418013771362149
 20
13.46298497362524
 30
0.0
 10
7.415317561311569
 20
13.46105044798063
 30
0.0
  0
SPLINE
  5
22F
330
1F
100
AcDbEntity
  8
0
  6
Continuous
 62
     7
370
    25
100
AcDbSpline
210
0.0
220
0.0
230
1.0
 70
     8
 71
     3
 72
    19
 73
    15
 74
     0
 42
0.000000001
 43
0.00000001
 40
0.0
 40
0.0
 40
0.0
 40
0.0
 40
0.1063241345637586
 40
0.2105246953213086
 40
0.3116965040236008
 40
0.4090468329558629
 40
0.5019185330782588
 40
0.5898001571076185
 40
0.6723242547215637
 40
0.7492563766376173
 40
0.8204778997382721
 40
0.8859656893058542
 40
0.9457710864416029
 40
0.9999999999999999
 40
0.9999999999999999
 40
0.9999999999999999
 40
0.9999999999999999
 10
7.335344087028201
 20
13.53002293585528
 30
0.0
 10
7.336294093358119
 20
13.52959310610972
 30
0.0
 10
7.338175131882251
 20
13.52874203145395
 30
0.0
 10
7.340800556956271
 20
13.52704190528205
 30
0.0
 10
7.34319873288353
 20
13.52511181866981
 30
0.0
 10
7.34533082887572
 20
13.5229866670549
 30
0.0
 10
7.347184331864836
 20
13.52074350119789
 30
0.0
 10
7.348758103868459
 20
13.51844567242772
 30
0.0
 10
7.350063595997792
 20
13.51615207788926
 30
0.0
 10
7.351120522679417
 20
13.51391163882415
 30
0.0
 10
7.351955531559325
 20
13.51176350952595
 30
0.0
 10
7.352594331159059
 20
13.5097363360088
 30
0.0
 10
7.353076122879362
 20
13.50785191989958
 30
0.0
 10
7.353301352973909
 20
13.50663762078407
 30
0.0
 10
7.353408460942148
 20
13.50606016193534
 30
0.0
  0
SPLINE
  5
230
330
1F
100
AcDbEntity
  8
0
  6
Continuous
 62
     7
370
    25
100
AcDbSpline
210
0.0
220
0.0
230
1.0
 70
     8
 71
     3
 72
     8
 73
     4
 74
     0
 42
0.000000001
 43
0.00000001
 40
0.0
 40
0.0
 40
0.0
 40
0.0
 40
1.0
 40
1.0
 40
1.0
 40
1.0
 10
7.335344071083442
 20
6.06674508580434
 30
0.0
 10
7.335149735410008
 20
6.066830704588049
 30
0.0
 10
7.334960868501217
 20
6.066894238862375
 30
0.0
 10
7.334753515045788
 20
6.067029655523045
 30
0.0
  0
SPLINE
  5
231
330
1F
100
AcDbEntity
  8
0
  6
Continuous
 62
     7
370
    25
100
AcDbSpline
210
0.0
220
0.0
230
1.0
 70
     8
 71
     3
 72
     8
 73
     4
 74
     0
 42
0.000000001
 43
0.00000001
 40
0.0
 40
0.0
 40
0.0
 40
0.0
 40
1.0
 40
1.0
 40
1.0
 40
1.0
 10
7.335344071083442
 20
13.53002294164941
 30
0.0
 10
7.335149735410095
 20
13.52993732286568
 30
0.0
 10
7.334960868501217
 20
13.52987378859137
 30
0.0
 10
7.334753515045788
 20
13.52973837193071
 30
0.0
  0
SPLINE
  5
232
330
1F
100
AcDbEntity
  8
0
  6
Continuous
 62
     7
370
    25
100
AcDbSpline
210
0.0
220
0.0
230
1.0
 70
     8
 71
     3
 72
     9
 73
     5
 74
     0
 42
0.000000001
 43
0.00000001
 40
0.0
 40
0.0
 40
0.0
 40
0.0
 40
0.4676555140224711
 40
1.0
 40
1.0
 40
1.0
 40
1.0
 10
7.329938165092002
 20
13.53118444092456
 30
0.0
 10
7.330791186231552
 20
13.53106629878335
 30
0.0
 10
7.332615223613715
 20
13.53081367235714
 30
0.0
 10
7.334396055205241
 20
13.53029764563145
 30
0.0
 10
7.335344071083445
 20
13.53002294164941
 30
0.0
  0
SPLINE
  5
233
330
1F
100
AcDbEntity
  8
0
  6
Continuous
 62
     7
370
    25
100
AcDbSpline
210
0.0
220
0.0
230
1.0
 70
     8
 71
     3
 72
    22
 73
    18
 74
     0
 42
0.000000001
 43
0.00000001
 40
0.0
 40
0.0
 40
0.0
 40
0.0
 40
0.125
 40
0.125
 40
0.25
 40
0.25
 40
0.375
 40
0.375
 40
0.5
 40
0.5
 40
0.625
 40
0.625
 40
0.75
 40
0.75
 40
0.875
 40
0.875
 40
1.0
 40
1.0
 40
1.0
 40
1.0
 10
7.419966249248964
 20
13.52691903485577
 30
0.0
 10
7.419966249248964
 20
13.52933791795039
 30
0.0
 10
7.419497631916202
 20
13.53234315474895
 30
0.0
 10
7.417141156185742
 20
13.53971477674751
 30
0.0
 10
7.415242553475299
 20
13.54409033957548
 30
0.0
 10
7.40968526432981
 20
13.55404719319794
 30
0.0
 10
7.406015616373408
 20
13.55963046594952
 30
0.0
 10
7.397087211333053
 20
13.5712772707662
 30
0.0
 10
7.391832472949927
 20
13.57732560631947
 30
0.0
 10
7.380578962430312
 20
13.58878025576433
 30
0.0
 10
7.374600857898082
 20
13.59416553265051
 30
0.0
 10
7.363026999512437
 20
13.60338743719894
 30
0.0
 10
7.357446746362215
 20
13.60721939309013
 30
0.0
 10
7.347443625900334
 20
13.61310106709513
 30
0.0
 10
7.343019283209432
 20
13.61516146244262
 30
0.0
 10
7.335521405885238
 20
13.61782032466942
 30
0.0
 10
7.332438945207515
 20
13.61842963585485
 30
0.0
 10
7.329938165092044
 20
13.61855623041465
 30
0.0
  0
LINE
  5
234
330
1F
100
AcDbEntity
  8
0
  6
Continuous
 62
     7
370
    25
100
AcDbLine
 10
7.4199662432
 20
13.526919128
 30
0.0
 11
7.4199662432
 21
13.4614921772
 31
0.0
  0
SPLINE
  5
235
330
1F
100
AcDbEntity
  8
0
  6
Continuous
 62
     7
370
    25
100
AcDbSpline
210
0.0
220
0.0
230
1.0
 70
     8
 71
     3
 72
     8
 73
     4
 74
     0
 42
0.000000001
 43
0.00000001
 40
0.0
 40
0.0
 40
0.0
 40
0.0
 40
1.0
 40
1.0
 40
1.0
 40
1.0
 10
7.419388220131246
 20
13.46655374656956
 30
0.0
 10
7.419791899889149
 20
13.46463286228587
 30
0.0
 10
7.41996624924894
 20
13.46295439163187
 30
0.0
 10
7.419966249248964
 20
13.46149206387103
 30
0.0
  0
SPLINE
  5
236
330
1F
100
AcDbEntity
  8
0
  6
Continuous
 62
     7
370
    25
100
AcDbSpline
210
0.0
220
0.0
230
1.0
 70
     8
 71
     3
 72
    22
 73
    18
 74
     0
 42
0.000000001
 43
0.00000001
 40
0.0
 40
0.0
 40
0.0
 40
0.0
 40
0.125
 40
0.125
 40
0.25
 40
0.25
 40
0.375
 40
0.375
 40
0.5
 40
0.5
 40
0.625
 40
0.625
 40
0.75
 40
0.75
 40
0.875
 40
0.875
 40
1.0
 40
1.0
 40
1.0
 40
1.0
 10
7.419966249248964
 20
6.069848992597981
 30
0.0
 10
7.419966249248964
 20
6.067430109503368
 30
0.0
 10
7.419497631916202
 20
6.06442487270481
 30
0.0
 10
7.417141156185742
 20
6.057053250706252
 30
0.0
 10
7.415242553475299
 20
6.052677687878286
 30
0.0
 10
7.40968526432981
 20
6.042720834255833
 30
0.0
 10
7.406015616373408
 20
6.037137561504253
 30
0.0
 10
7.397087211333053
 20
6.025490756687582
 30
0.0
 10
7.391832472949927
 20
6.019442421134308
 30
0.0
 10
7.380578962430312
 20
6.007987771689448
 30
0.0
 10
7.374600857898082
 20
6.002602494803272
 30
0.0
 10
7.363026999512437
 20
5.993380590254835
 30
0.0
 10
7.357446746362215
 20
5.989548634363643
 30
0.0
 10
7.347443625900334
 20
5.983666960358637
 30
0.0
 10
7.343019283209432
 20
5.981606565011138
 30
0.0
 10
7.335521405885238
 20
5.978947702784332
 30
0.0
 10
7.332438945207515
 20
5.978338391598902
 30
0.0
 10
7.329938165092044
 20
5.978211797039102
 30
0.0
  0
SPLINE
  5
237
330
1F
100
AcDbEntity
  8
0
  6
Continuous
 62
     7
370
    25
100
AcDbSpline
210
0.0
220
0.0
230
1.0
 70
     8
 71
     3
 72
     8
 73
     4
 74
     0
 42
0.000000001
 43
0.00000001
 40
0.0
 40
0.0
 40
0.0
 40
0.0
 40
1.0
 40
1.0
 40
1.0
 40
1.0
 10
7.329938165092029
 20
6.06558358652919
 30
0.0
 10
7.331764912591312
 20
6.065775701819295
 30
0.0
 10
7.333575041247285
 20
6.066200498272726
 30
0.0
 10
7.335344071083447
 20
6.066745085804343
 30
0.0
  0
SPLINE
  5
238
330
1F
100
AcDbEntity
  8
0
  6
Continuous
 62
     7
370
    25
100
AcDbSpline
210
0.0
220
0.0
230
1.0
 70
     8
 71
     3
 72
     8
 73
     4
 74
     0
 42
0.000000001
 43
0.00000001
 40
0.0
 40
0.0
 40
0.0
 40
0.0
 40
1.0
 40
1.0
 40
1.0
 40
1.0
 10
7.419388220131256
 20
6.130214280884238
 30
0.0
 10
7.41973842067376
 20
6.131879065205797
 30
0.0
 10
7.419966249248964
 20
6.13357566946652
 30
0.0
 10
7.419966249248964
 20
6.135275963582749
 30
0.0
  0
LINE
  5
239
330
1F
100
AcDbEntity
  8
0
  6
Continuous
 62
     7
370
    25
100
AcDbLine
 10
7.4199662432
 20
6.0698488994
 30
0.0
 11
7.4199662432
 21
6.1352758503
 31
0.0
  0
SPLINE
  5
23A
330
1F
100
AcDbEntity
  8
0
  6
Continuous
 62
     7
370
    25
100
AcDbSpline
210
0.0
220
0.0
230
1.0
 70
     8
 71
     3
 72
     8
 73
     4
 74
     0
 42
0.000000001
 43
0.00000001
 40
0.0
 40
0.0
 40
0.0
 40
0.0
 40
1.0
 40
1.0
 40
1.0
 40
1.0
 10
7.419966249248964
 20
13.461492063871
 30
0.0
 10
7.419966249112715
 20
13.46134731713574
 30
0.0
 10
7.418292191062898
 20
13.46120434412053
 30
0.0
 10
7.415317564325655
 20
13.46105044799968
 30
0.0
  0
SPLINE
  5
23B
330
1F
100
AcDbEntity
  8
0
  6
Continuous
 62
     7
370
    25
100
AcDbSpline
210
0.0
220
0.0
230
1.0
 70
    24
 71
     3
 72
     8
 73
     4
 74
     0
 42
0.000000001
 43
0.00000001
 40
0.0
 40
0.0
 40
0.0
 40
0.0
 40
1.0
 40
1.0
 40
1.0
 40
1.0
 10
7.419966249248964
 20
13.461492063871
 30
0.0
 10
7.419966249248964
 20
13.40420743346981
 30
0.0
 10
7.419966249248964
 20
13.34692126578761
 30
0.0
 10
7.419966249248964
 20
13.28963382378578
 30
0.0
  0
LINE
  5
23C
330
1F
100
AcDbEntity
  8
0
  6
Continuous
 62
     7
370
    25
100
AcDbLine
 10
7.4199662432
 20
13.2896336825
 30
0.0
 11
7.416120101
 21
13.2896336825
 31
0.0
  0
SPLINE
  5
23D
330
1F
100
AcDbEntity
  8
0
  6
Continuous
 62
     7
370
    25
100
AcDbSpline
210
0.0
220
0.0
230
1.0
 70
     8
 71
     3
 72
     8
 73
     4
 74
     0
 42
0.000000001
 43
0.00000001
 40
0.0
 40
0.0
 40
0.0
 40
0.0
 40
1.0
 40
1.0
 40
1.0
 40
1.0
 10
7.419966249248964
 20
6.135275963582749
 30
0.0
 10
7.419966249248964
 20
6.135398773104383
 30
0.0
 10
7.418340192424211
 20
6.135553165832052
 30
0.0
 10
7.415317561311569
 20
6.135717579473115
 30
0.0
  0
LINE
  5
23E
330
1F
100
AcDbEntity
  8
0
  6
Continuous
 62
     7
370
    25
100
AcDbLine
 10
7.4199662432
 20
6.3071343449
 30
0.0
 11
7.416120101
 21
6.3071343449
 31
0.0
  0
SPLINE
  5
23F
330
1F
100
AcDbEntity
  8
0
  6
Continuous
 62
     7
370
    25
100
AcDbSpline
210
0.0
220
0.0
230
1.0
 70
    24
 71
     3
 72
     8
 73
     4
 74
     0
 42
0.000000001
 43
0.00000001
 40
0.0
 40
0.0
 40
0.0
 40
0.0
 40
1.0
 40
1.0
 40
1.0
 40
1.0
 10
7.419966249248964
 20
6.135275963582749
 30
0.0
 10
7.419966249248964
 20
6.192560593983937
 30
0.0
 10
7.419966249248964
 20
6.249846761666139
 30
0.0
 10
7.419966249248964
 20
6.307134203667966
 30
0.0
  0
LINE
  5
240
330
1F
100
AcDbEntity
  8
0
  6
Continuous
 62
     7
370
    25
100
AcDbLine
 10
7.4199662432
 20
13.2896336825
 30
0.0
 11
7.4199662432
 21
6.3071343449
 31
0.0
  0
LINE
  5
241
330
1F
100
AcDbEntity
  8
0
  6
Continuous
 62
     7
370
    25
100
AcDbLine
 10
7.5449662692
 20
6.8971091562
 30
0.0
 11
7.5449662692
 21
7.1996778209
 31
0.0
  0
LINE
  5
242
330
1F
100
AcDbEntity
  8
0
  6
Continuous
 62
     7
370
    25
100
AcDbLine
 10
7.5449662692
 20
12.6996588713
 30
0.0
 11
7.5449662692
 21
12.3970902066
 31
0.0
  0
LINE
  5
243
330
1F
100
AcDbEntity
  8
0
  6
Continuous
 62
     7
370
    25
100
AcDbLine
 10
7.3299381499
 20
13.6518982176
 30
0.0
 11
6.9199662492
 21
13.6733840494
 31
0.0
  0
SPLINE
  5
244
330
1F
100
AcDbEntity
  8
0
  6
Continuous
 62
     7
370
    25
100
AcDbSpline
210
0.0
220
0.0
230
1.0
 70
    24
 71
     3
 72
     8
 73
     4
 74
     0
 42
0.000000001
 43
0.00000001
 40
0.0
 40
0.0
 40
0.0
 40
0.0
 40
1.0
 40
1.0
 40
1.0
 40
1.0
 10
7.329938165092044
 20
13.61855623041465
 30
0.0
 10
7.329938165092044
 20
13.64065717173372
 30
0.0
 10
7.329938165092044
 20
13.65189829604913
 30
0.0
 10
7.329938165092044
 20
13.65189829604913
 30
0.0
  0
LINE
  5
245
330
1F
100
AcDbEntity
  8
0
  6
Continuous
 62
     7
370
    25
100
AcDbLine
 10
6.9199662492
 20
13.639309963
 30
0.0
 11
6.9199662492
 21
13.6733840494
 31
0.0
  0
SPLINE
  5
246
330
1F
100
AcDbEntity
  8
0
  6
Continuous
 62
     7
370
    25
100
AcDbSpline
210
0.0
220
0.0
230
1.0
 70
    24
 71
     3
 72
     8
 73
     4
 74
     0
 42
0.000000001
 43
0.00000001
 40
0.0
 40
0.0
 40
0.0
 40
0.0
 40
1.0
 40
1.0
 40
1.0
 40
1.0
 10
7.329938165092044
 20
5.978211797039102
 30
0.0
 10
7.329938165092094
 20
5.95610797453491
 30
0.0
 10
7.3299381650921
 20
5.944869731404627
 30
0.0
 10
7.329938165092044
 20
5.944869731404627
 30
0.0
  0
LINE
  5
247
330
1F
100
AcDbEntity
  8
0
  6
Continuous
 62
     7
370
    25
100
AcDbLine
 10
7.3299381499
 20
5.9448698099
 30
0.0
 11
6.9199662492
 21
5.9233839781
 31
0.0
  0
LINE
  5
248
330
1F
100
AcDbEntity
  8
0
  6
Continuous
 62
     7
370
    25
100
AcDbLine
 10
6.9199662492
 20
5.9574580644
 30
0.0
 11
6.9199662492
 21
5.9233839781
 31
0.0
  0
SPLINE
  5
249
330
1F
100
AcDbEntity
  8
0
  6
Continuous
 62
     7
370
    25
100
AcDbSpline
210
0.0
220
0.0
230
1.0
 70
     8
 71
     3
 72
    22
 73
    18
 74
     0
 42
0.000000001
 43
0.00000001
 40
0.0
 40
0.0
 40
0.0
 40
0.0
 40
0.125
 40
0.125
 40
0.25
 40
0.25
 40
0.375
 40
0.375
 40
0.5
 40
0.5
 40
0.625
 40
0.625
 40
0.75
 40
0.75
 40
0.875
 40
0.875
 40
1.0
 40
1.0
 40
1.0
 40
1.0
 10
7.419966249248964
 20
13.55702849024744
 30
0.0
 10
7.419966249248964
 20
13.5595327022985
 30
0.0
 10
7.419497631916202
 20
13.56264395237254
 30
0.0
 10
7.417141156185742
 20
13.57027561703863
 30
0.0
 10
7.415242553475299
 20
13.57480553301032
 30
0.0
 10
7.40968526432981
 20
13.58511362639748
 30
0.0
 10
7.406015616373408
 20
13.59089385568593
 30
0.0
 10
7.397087211333053
 20
13.60295151529051
 30
0.0
 10
7.391832472949927
 20
13.60921321301995
 30
0.0
 10
7.380578962430312
 20
13.62107193874516
 30
0.0
 10
7.374600857898082
 20
13.62664718763033
 30
0.0
 10
7.363026999512437
 20
13.63619440574733
 30
0.0
 10
7.357446746362215
 20
13.64016153840586
 30
0.0
 10
7.347443625900334
 20
13.64625069540418
 30
0.0
 10
7.343019283209432
 20
13.64838377362967
 30
0.0
 10
7.335521405885238
 20
13.65113643036006
 30
0.0
 10
7.332438945207515
 20
13.6517672357168
 30
0.0
 10
7.329938165092044
 20
13.65189829604912
 30
0.0
  0
SPLINE
  5
24A
330
1F
100
AcDbEntity
  8
0
  6
Continuous
 62
     7
370
    25
100
AcDbSpline
210
0.0
220
0.0
230
1.0
 70
    24
 71
     3
 72
    10
 73
     6
 74
     0
 42
0.000000001
 43
0.00000001
 40
0.0
 40
0.0
 40
0.0
 40
0.0
 40
0.5
 40
0.5
 40
1.0
 40
1.0
 40
1.0
 40
1.0
 10
7.419966249248964
 20
13.55702849024744
 30
0.0
 10
7.419966249248964
 20
13.55702849024744
 30
0.0
 10
7.419966249248964
 20
13.55450351283729
 30
0.0
 10
7.419966249248964
 20
13.54441460673099
 30
0.0
 10
7.419966249248964
 20
13.5369012650882
 30
0.0
 10
7.419966249248964
 20
13.52691903485577
 30
0.0
  0
SPLINE
  5
24B
330
1F
100
AcDbEntity
  8
0
  6
Continuous
 62
     7
370
    25
100
AcDbSpline
210
0.0
220
0.0
230
1.0
 70
     8
 71
     3
 72
    22
 73
    18
 74
     0
 42
0.000000001
 43
0.00000001
 40
0.0
 40
0.0
 40
0.0
 40
0.0
 40
0.125
 40
0.125
 40
0.25
 40
0.25
 40
0.375
 40
0.375
 40
0.5
 40
0.5
 40
0.625
 40
0.625
 40
0.75
 40
0.75
 40
0.875
 40
0.875
 40
1.0
 40
1.0
 40
1.0
 40
1.0
 10
7.419966249248964
 20
6.039739537206308
 30
0.0
 10
7.419966249248964
 20
6.037235325155256
 30
0.0
 10
7.419497631916202
 20
6.034124075081214
 30
0.0
 10
7.417141156185742
 20
6.026492410415115
 30
0.0
 10
7.415242553475299
 20
6.021962494443429
 30
0.0
 10
7.40968526432981
 20
6.011654401056268
 30
0.0
 10
7.406015616373408
 20
6.005874171767824
 30
0.0
 10
7.397087211333053
 20
5.993816512163237
 30
0.0
 10
7.391832472949927
 20
5.987554814433805
 30
0.0
 10
7.380578962430312
 20
5.975696088708595
 30
0.0
 10
7.374600857898082
 20
5.970120839823423
 30
0.0
 10
7.363026999512437
 20
5.960573621706415
 30
0.0
 10
7.357446746362215
 20
5.956606489047886
 30
0.0
 10
7.347443625900334
 20
5.950517332049571
 30
0.0
 10
7.343019283209432
 20
5.94838425382408
 30
0.0
 10
7.335521405885238
 20
5.945631597093685
 30
0.0
 10
7.332438945207515
 20
5.945000791736954
 30
0.0
 10
7.329938165092044
 20
5.944869731404627
 30
0.0
  0
SPLINE
  5
24C
330
1F
100
AcDbEntity
  8
0
  6
Continuous
 62
     7
370
    25
100
AcDbSpline
210
0.0
220
0.0
230
1.0
 70
    24
 71
     3
 72
     8
 73
     4
 74
     0
 42
0.000000001
 43
0.00000001
 40
0.0
 40
0.0
 40
0.0
 40
0.0
 40
1.0
 40
1.0
 40
1.0
 40
1.0
 10
7.419966249248964
 20
6.039739537206308
 30
0.0
 10
7.419966249248964
 20
6.039739537207379
 30
0.0
 10
7.419966249248964
 20
6.049888199976812
 30
0.0
 10
7.419966249248964
 20
6.069848992597977
 30
0.0
  0
LINE
  5
24D
330
1F
100
AcDbEntity
  8
0
  6
Continuous
 62
     8
370
    25
100
AcDbLine
 10
7.4341811957
 20
6.861628846
 30
0.0
 11
7.4341811957
 21
7.2351390646
 31
0.0
  0
LINE
  5
24E
330
1F
100
AcDbEntity
  8
0
  6
Continuous
 62
     8
370
    25
100
AcDbLine
 10
7.4341811957
 20
12.7351391814
 30
0.0
 11
7.4341811957
 21
12.3616289629
 31
0.0
  0
LINE
  5
24F
330
1F
100
AcDbEntity
  8
0
  6
Continuous
 62
     8
370
    25
100
AcDbLine
 10
7.5153517513
 20
7.2308851937
 30
0.0
 11
7.5153517513
 21
6.8658830102
 31
0.0
  0
LINE
  5
250
330
1F
100
AcDbEntity
  8
0
  6
Continuous
 62
     8
370
    25
100
AcDbLine
 10
7.5153517513
 20
12.3658828338
 30
0.0
 11
7.5153517513
 21
12.7308850172
 31
0.0
  0
DIMENSION
  5
251
330
1F
100
AcDbEntity
  8
0
  6
Continuous
 62
     7
370
    18
100
AcDbDimension
  2
_D_5
 10
7.4199662492
 20
14.2122479037
 30
0.0
 11
6.2899336106
 21
14.2122479037
 31
0.0
 70
   160
  1
<>
 71
     2
 42
-1.0
  3
SLDDIMSTYLE1
100
AcDbAlignedDimension
 13
6.9199662492
 23
13.6733840137
 33
0.0
 14
7.4199662492
 24
13.5570284902
 34
0.0
 50
0.0
100
AcDbRotatedDimension
  0
SPLINE
  5
265
330
1F
100
AcDbEntity
  8
0
  6
Continuous
 62
     7
370
    25
100
AcDbSpline
210
0.0
220
0.0
230
1.0
 70
     8
 71
     3
 72
     9
 73
     5
 74
     0
 42
0.000000001
 43
0.00000001
 40
0.0
 40
0.0
 40
0.0
 40
0.0
 40
0.4965286065679267
 40
1.0
 40
1.0
 40
1.0
 40
1.0
 10
26.70352168534382
 20
16.37911590364461
 30
0.0
 10
26.69675016482853
 20
16.39149266919141
 30
0.0
 10
26.68311243998102
 20
16.41641926029427
 30
0.0
 10
26.65066370090914
 20
16.43642841671685
 30
0.0
 10
26.63432668903351
 20
16.44650245458233
 30
0.0
  0
LINE
  5
266
330
1F
100
AcDbEntity
  8
0
  6
Continuous
 62
     7
370
    25
100
AcDbLine
 10
26.8382944099
 20
16.0427747795
 30
0.0
 11
26.7036853431
 21
16.3787171382
 31
0.0
  0
LINE
  5
267
330
1F
100
AcDbEntity
  8
0
  6
Continuous
 62
     7
370
    25
100
AcDbLine
 10
26.634326689
 20
16.4465024546
 30
0.0
 11
24.7460185649
 21
17.4095072931
 31
0.0
  0
SPLINE
  5
268
330
1F
100
AcDbEntity
  8
0
  6
Continuous
 62
     7
370
    25
100
AcDbSpline
210
0.0
220
0.0
230
1.0
 70
     8
 71
     3
 72
    19
 73
    15
 74
     0
 42
0.000000001
 43
0.00000001
 40
0.0
 40
0.0
 40
0.0
 40
0.0
 40
0.0555750520965608
 40
0.1303825901823397
 40
0.2072932798838994
 40
0.2898502382312296
 40
0.3788084754769431
 40
0.4713185305131905
 40
0.5635938834987833
 40
0.6548724686765374
 40
0.7454143434258691
 40
0.8356400860925127
 40
0.9259712388713897
 40
1.0
 40
1.0
 40
1.0
 40
1.0
 10
25.59016152670914
 20
16.39318565870745
 30
0.0
 10
25.58842525457784
 20
16.39739329939956
 30
0.0
 10
25.58435185024982
 20
16.40726469081169
 30
0.0
 10
25.57269552045078
 20
16.41988897190622
 30
0.0
 10
25.55702016673181
 20
16.43106340852304
 30
0.0
 10
25.53758860203198
 20
16.43940066944437
 30
0.0
 10
25.51446338261788
 20
16.44485502483964
 30
0.0
 10
25.4880483360717
 20
16.44707941195195
 30
0.0
 10
25.45943135589683
 20
16.44597876123278
 30
0.0
 10
25.42975748646261
 20
16.4417094963139
 30
0.0
 10
25.39986331647837
 20
16.43452231125945
 30
0.0
 10
25.37056825495242
 20
16.42462736886534
 30
0.0
 10
25.34412563550384
 20
16.41318231387486
 30
0.0
 10
25.32861667371552
 20
16.40442147025884
 30
0.0
 10
25.32163133769116
 20
16.40047553001151
 30
0.0
  0
SPLINE
  5
269
330
1F
100
AcDbEntity
  8
0
  6
Continuous
 62
     7
370
    25
100
AcDbSpline
210
0.0
220
0.0
230
1.0
 70
     8
 71
     3
 72
    15
 73
    11
 74
     0
 42
0.000000001
 43
0.00000001
 40
0.0
 40
0.0
 40
0.0
 40
0.0
 40
0.0832155818436224
 40
0.2423792755233194
 40
0.404351549895143
 40
0.570017076080869
 40
0.7119732020255265
 40
0.8434166439270906
 40
0.9688812780797302
 40
1.0
 40
1.0
 40
1.0
 40
1.0
 10
25.32163133769116
 20
16.40047553001151
 30
0.0
 10
25.31727977885679
 20
16.3977804378334
 30
0.0
 10
25.30460513722955
 20
16.38993053190082
 30
0.0
 10
25.2858577632065
 20
16.37551549585745
 30
0.0
 10
25.26705751542518
 20
16.35682338342085
 30
0.0
 10
25.25333894215217
 20
16.33743760695463
 30
0.0
 10
25.24477226925038
 20
16.31797390517422
 30
0.0
 10
25.24171433298392
 20
16.29941888238939
 30
0.0
 10
25.2418849366345
 20
16.28542048563263
 30
0.0
 10
25.24466853311729
 20
16.27855759251436
 30
0.0
 10
25.24522173345134
 20
16.27719368981186
 30
0.0
  0
LINE
  5
26A
330
1F
100
AcDbEntity
  8
0
  6
Continuous
 62
     7
370
    25
100
AcDbLine
 10
25.6171756802
 20
16.3271900898
 30
0.0
 11
25.5905442076
 21
16.3936542153
 31
0.0
  0
LINE
  5
26B
330
1F
100
AcDbEntity
  8
0
  6
Continuous
 62
     7
370
    25
100
AcDbLine
 10
25.244401105
 20
16.2783010086
 30
0.0
 11
25.262964535
 21
16.2091480002
 31
0.0
  0
SPLINE
  5
26C
330
1F
100
AcDbEntity
  8
0
  6
Continuous
 62
     7
370
    25
100
AcDbSpline
210
0.0
220
0.0
230
1.0
 70
     8
 71
     3
 72
    24
 73
    20
 74
     0
 42
0.000000001
 43
0.00000001
 40
0.0
 40
0.0
 40
0.0
 40
0.0
 40
0.0591470434003228
 40
0.115306698048991
 40
0.175049434407341
 40
0.2336687362256398
 40
0.2933623644689016
 40
0.3548397295136161
 40
0.4177652271997843
 40
0.4816249853035229
 40
0.5459262618646906
 40
0.6101857848976622
 40
0.6738495785991776
 40
0.7364365750268564
 40
0.7974538208154182
 40
0.856623975822374
 40
0.9146013548352179
 40
0.9736724669129231
 40
0.9999999999999999
 40
0.9999999999999999
 40
0.9999999999999999
 40
0.9999999999999999
 10
25.52538621569351
 20
16.36762102539355
 30
0.0
 10
25.52546657561836
 20
16.36747595346739
 30
0.0
 10
25.52562323666273
 20
16.36719313688311
 30
0.0
 10
25.52462201499037
 20
16.36218923381954
 30
0.0
 10
25.51989634206207
 20
16.35362820970524
 30
0.0
 10
25.51064481800805
 20
16.34282260014929
 30
0.0
 10
25.4972404088802
 20
16.33123669579798
 30
0.0
 10
25.47997890758391
 20
16.31962796493445
 30
0.0
 10
25.45948100170695
 20
16.30875859460041
 30
0.0
 10
25.43668650878127
 20
16.29933153311259
 30
0.0
 10
25.41272828553616
 20
16.29191644020738
 30
0.0
 10
25.38885527422753
 20
16.28691520011162
 30
0.0
 10
25.36635666842302
 20
16.28452725992977
 30
0.0
 10
25.34649857811859
 20
16.28470856111587
 30
0.0
 10
25.33045192060568
 20
16.28710417326018
 30
0.0
 10
25.31916129936238
 20
16.29094423857615
 30
0.0
 10
25.31321413621693
 20
16.29486016758202
 30
0.0
 10
25.31209893804687
 20
16.2964724849504
 30
0.0
 10
25.31207909124777
 20
16.2966368352937
 30
0.0
 10
25.31207297268162
 20
16.29668750283172
 30
0.0
  0
LINE
  5
26D
330
1F
100
AcDbEntity
  8
0
  6
Continuous
 62
     7
370
    25
100
AcDbLine
 10
23.1817161349
 20
16.2635561968
 30
0.0
 11
23.2635978281
 21
16.0402026796
 31
0.0
  0
SPLINE
  5
26E
330
1F
100
AcDbEntity
  8
0
  6
Continuous
 62
     7
370
    25
100
AcDbSpline
210
0.0
220
0.0
230
1.0
 70
     8
 71
     3
 72
    13
 73
     9
 74
     0
 42
0.000000001
 43
0.00000001
 40
0.0
 40
0.0
 40
0.0
 40
0.0
 40
0.0802302927202367
 40
0.2761199762732052
 40
0.4715789892409081
 40
0.6664738930084271
 40
0.8606839515002855
 40
1.0
 40
1.0
 40
1.0
 40
1.0
 10
23.06735775437616
 20
16.10757284412689
 30
0.0
 10
23.07276524379476
 20
16.10847045544775
 30
0.0
 10
23.09137561899514
 20
16.11155966786633
 30
0.0
 10
23.12193809496763
 20
16.11391972522119
 30
0.0
 10
23.15828538370839
 20
16.11467850867218
 30
0.0
 10
23.19181865991577
 20
16.11237790572297
 30
0.0
 10
23.21982807609681
 20
16.10816459315549
 30
0.0
 10
23.23478034250481
 20
16.1036563712289
 30
0.0
 10
23.24102600252484
 20
16.10177325727948
 30
0.0
  0
SPLINE
  5
26F
330
1F
100
AcDbEntity
  8
0
  6
Continuous
 62
     7
370
    25
100
AcDbSpline
210
0.0
220
0.0
230
1.0
 70
     8
 71
     3
 72
     9
 73
     5
 74
     0
 42
0.000000001
 43
0.00000001
 40
0.0
 40
0.0
 40
0.0
 40
0.0
 40
0.470358904020331
 40
1.0
 40
1.0
 40
1.0
 40
1.0
 10
23.02299887784392
 20
16.09953934109465
 30
0.0
 10
23.03002817122837
 20
16.10107534613208
 30
0.0
 10
23.04497270257321
 20
16.10434094825908
 30
0.0
 10
23.05960688824054
 20
16.1064537941262
 30
0.0
 10
23.06735775437616
 20
16.10757284412689
 30
0.0
  0
LINE
  5
270
330
1F
100
AcDbEntity
  8
0
  6
Continuous
 62
     7
370
    25
100
AcDbLine
 10
22.6533644874
 20
16.1026558863
 30
0.0
 11
22.606448624
 21
16.2587516243
 31
0.0
  0
SPLINE
  5
271
330
1F
100
AcDbEntity
  8
0
  6
Continuous
 62
     7
370
    25
100
AcDbSpline
210
0.0
220
0.0
230
1.0
 70
     8
 71
     3
 72
    11
 73
     7
 74
     0
 42
0.000000001
 43
0.00000001
 40
0.0
 40
0.0
 40
0.0
 40
0.0
 40
0.1833899835281665
 40
0.4970372101032275
 40
0.8245550174278753
 40
1.0
 40
1.0
 40
1.0
 40
1.0
 10
22.97208266209856
 20
16.10241360042819
 30
0.0
 10
22.97465195708206
 20
16.10129508843457
 30
0.0
 10
22.98161545195765
 20
16.09826361381375
 30
0.0
 10
22.99519015916093
 20
16.09637564200183
 30
0.0
 10
23.01012780429619
 20
16.09698687215485
 30
0.0
 10
23.01967025254524
 20
16.09887923977089
 30
0.0
 10
23.02299887784392
 20
16.09953934109465
 30
0.0
  0
LINE
  5
272
330
1F
100
AcDbEntity
  8
0
  6
Continuous
 62
     7
370
    25
100
AcDbLine
 10
22.8278457741
 20
16.1759719457
 30
0.0
 11
22.9720826621
 21
16.1024136004
 31
0.0
  0
SPLINE
  5
273
330
1F
100
AcDbEntity
  8
0
  6
Continuous
 62
     7
370
    25
100
AcDbSpline
210
0.0
220
0.0
230
1.0
 70
     8
 71
     3
 72
    16
 73
    12
 74
     0
 42
0.000000001
 43
0.00000001
 40
0.0
 40
0.0
 40
0.0
 40
0.0
 40
0.0534500872061921
 40
0.1026249595239286
 40
0.2342525234785839
 40
0.3658175077165935
 40
0.4970251746173023
 40
0.627602616003368
 40
0.7572445612216554
 40
0.885670360666484
 40
1.0
 40
1.0
 40
1.0
 40
1.0
 10
22.63619618501681
 20
16.15977770751941
 30
0.0
 10
22.6400053528117
 20
16.16126493568751
 30
0.0
 10
22.64731901142675
 20
16.1641204358098
 30
0.0
 10
22.66389317539123
 20
16.17087892908435
 30
0.0
 10
22.68717145163549
 20
16.17753273458414
 30
0.0
 10
22.71625630844277
 20
16.18395955624419
 30
0.0
 10
22.74447786137031
 20
16.18751572134658
 30
0.0
 10
22.77081112550496
 20
16.18833045873242
 30
0.0
 10
22.79428179887714
 20
16.18638400225234
 30
0.0
 10
22.81380524316613
 20
16.18219249855983
 30
0.0
 10
22.82335035010423
 20
16.17796360990589
 30
0.0
 10
22.82784577413726
 20
16.17597194571489
 30
0.0
  0
LINE
  5
274
330
1F
100
AcDbEntity
  8
0
  6
Continuous
 62
     7
370
    25
100
AcDbLine
 10
24.7460185649
 20
17.4095072931
 30
0.0
 11
22.8577104407
 21
18.3725121317
 31
0.0
  0
SPLINE
  5
275
330
1F
100
AcDbEntity
  8
0
  6
Continuous
 62
     7
370
    25
100
AcDbSpline
210
0.0
220
0.0
230
1.0
 70
     8
 71
     3
 72
    18
 73
    14
 74
     0
 42
0.000000001
 43
0.00000001
 40
0.0
 40
0.0
 40
0.0
 40
0.0
 40
0.1541192078028185
 40
0.2706118502282526
 40
0.3487423063213953
 40
0.3915078354985202
 40
0.4311851310435798
 40
0.477021959164477
 40
0.5577822770156293
 40
0.6681339837055009
 40
0.7626022178231353
 40
0.873042031843766
 40
1.0
 40
1.0
 40
1.0
 40
1.0
 10
20.97708627396965
 20
17.06645940786459
 30
0.0
 10
20.96123020214905
 20
17.0522250883589
 30
0.0
 10
20.9333891497981
 20
17.027231607059
 30
0.0
 10
20.90400052131264
 20
16.99403894483091
 30
0.0
 10
20.88663019494669
 20
16.97138454856109
 30
0.0
 10
20.87577687920669
 20
16.95547121856084
 30
0.0
 10
20.86769339530898
 20
16.94252275266621
 30
0.0
 10
20.85827063900215
 20
16.92577449694538
 30
0.0
 10
20.84703888000368
 20
16.90193346385106
 30
0.0
 10
20.8375562851011
 20
16.87324847899372
 30
0.0
 10
20.83218120475068
 20
16.84210422437793
 30
0.0
 10
20.83135558301723
 20
16.8100096792757
 30
0.0
 10
20.83592023493025
 20
16.78845024756745
 30
0.0
 10
20.83836136528499
 20
16.77692047833716
 30
0.0
  0
LINE
  5
276
330
1F
100
AcDbEntity
  8
0
  6
Continuous
 62
     7
370
    25
100
AcDbLine
 10
20.838379737
 20
16.7768520589
 30
0.0
 11
20.9025538815
 21
16.5377950783
 31
0.0
  0
SPLINE
  5
277
330
1F
100
AcDbEntity
  8
0
  6
Continuous
 62
     7
370
    25
100
AcDbSpline
210
0.0
220
0.0
230
1.0
 70
     8
 71
     3
 72
    26
 73
    22
 74
     0
 42
0.000000001
 43
0.00000001
 40
0.0
 40
0.0
 40
0.0
 40
0.0
 40
0.0211250379447201
 40
0.0689950797549531
 40
0.1174016745947074
 40
0.1689084481264944
 40
0.2246085531824519
 40
0.2832396833816414
 40
0.3422516424403179
 40
0.4006472742101718
 40
0.4585060521225137
 40
0.5160867501047615
 40
0.5736613574393742
 40
0.6314398049222885
 40
0.6897071401274956
 40
0.7488269062846074
 40
0.8091859824018359
 40
0.864344758393272
 40
0.9154950688547645
 40
0.963178257367189
 40
1.0
 40
1.0
 40
1.0
 40
1.0
 10
22.64359960718056
 20
17.89601558987009
 30
0.0
 10
22.64274080763501
 20
17.89858430154102
 30
0.0
 10
22.63993593962513
 20
17.9069737996838
 30
0.0
 10
22.63013461856585
 20
17.9187942019902
 30
0.0
 10
22.61550983408547
 20
17.930807925541
 30
0.0
 10
22.59708100520882
 20
17.93990469643469
 30
0.0
 10
22.57499988052264
 20
17.94620572131725
 30
0.0
 10
22.54941393657706
 20
17.94935358003633
 30
0.0
 10
22.52129818977097
 20
17.94917664937361
 30
0.0
 10
22.49182265420844
 20
17.94577207552606
 30
0.0
 10
22.46191920174021
 20
17.93937298795208
 30
0.0
 10
22.43235615260763
 20
17.93022600472203
 30
0.0
 10
22.40388530373333
 20
17.91858965611629
 30
0.0
 10
22.37723519448606
 20
17.90473234207939
 30
0.0
 10
22.35308714122361
 20
17.88890462606029
 30
0.0
 10
22.33205786048
 20
17.87128290778354
 30
0.0
 10
22.31542046698008
 20
17.85262324628457
 30
0.0
 10
22.3036677500757
 20
17.83354896679024
 30
0.0
 10
22.29708848752313
 20
17.81477041683745
 30
0.0
 10
22.29489016562491
 20
17.7973107990329
 30
0.0
 10
22.29718127521728
 20
17.78670930895837
 30
0.0
 10
22.29817959148842
 20
17.78208987037937
 30
0.0
  0
LINE
  5
278
330
1F
100
AcDbEntity
  8
0
  6
Continuous
 62
     7
370
    25
100
AcDbLine
 10
22.670879343
 20
17.8297508172
 30
0.0
 11
22.6442477133
 21
17.8962150228
 31
0.0
  0
LINE
  5
279
330
1F
100
AcDbEntity
  8
0
  6
Continuous
 62
     7
370
    25
100
AcDbLine
 10
22.2981047678
 20
17.780861736
 30
0.0
 11
22.3166680407
 21
17.7117088077
 31
0.0
  0
SPLINE
  5
27A
330
1F
100
AcDbEntity
  8
0
  6
Continuous
 62
     7
370
    25
100
AcDbSpline
210
0.0
220
0.0
230
1.0
 70
     8
 71
     3
 72
    14
 73
    10
 74
     0
 42
0.000000001
 43
0.00000001
 40
0.0
 40
0.0
 40
0.0
 40
0.0
 40
0.0683740403788354
 40
0.2401982581371539
 40
0.3945440242092952
 40
0.5581087849290587
 40
0.722186306563082
 40
0.8906802920871365
 40
0.9999999999999999
 40
0.9999999999999999
 40
0.9999999999999999
 40
0.9999999999999999
 10
22.57906889994044
 20
17.87035474816651
 30
0.0
 10
22.57909432910204
 20
17.87030994595655
 30
0.0
 10
22.57918366184132
 20
17.87015255562635
 30
0.0
 10
22.57928513654785
 20
17.86832537662359
 30
0.0
 10
22.57696217809502
 20
17.86175838412392
 30
0.0
 10
22.57067537077761
 20
17.85233341980715
 30
0.0
 10
22.55987819539087
 20
17.8411921157164
 30
0.0
 10
22.54699098694688
 20
17.83094798563557
 30
0.0
 10
22.53721170638171
 20
17.82484566124411
 30
0.0
 10
22.53336355879129
 20
17.82244439616674
 30
0.0
  0
SPLINE
  5
27B
330
1F
100
AcDbEntity
  8
0
  6
Continuous
 62
     7
370
    25
100
AcDbSpline
210
0.0
220
0.0
230
1.0
 70
     8
 71
     3
 72
    18
 73
    14
 74
     0
 42
0.000000001
 43
0.00000001
 40
0.0
 40
0.0
 40
0.0
 40
0.0
 40
0.0515881915848215
 40
0.1505870292396196
 40
0.2503991627785522
 40
0.3505215443114965
 40
0.4500992323549872
 40
0.5483600648627509
 40
0.644529875387448
 40
0.7379410977587979
 40
0.8287183626775418
 40
0.9194616525574388
 40
1.0
 40
1.0
 40
1.0
 40
1.0
 10
22.53336355879129
 20
17.82244439616674
 30
0.0
 10
22.5299321697584
 20
17.82047191901228
 30
0.0
 10
22.51991587213769
 20
17.81471421621619
 30
0.0
 10
22.50129670092937
 20
17.8061111585754
 30
0.0
 10
22.47775138531897
 20
17.79767515650183
 30
0.0
 10
22.45366946462146
 20
17.79150536122033
 30
0.0
 10
22.43036762253606
 20
17.78787976661339
 30
0.0
 10
22.4091168194696
 20
17.7868789606124
 30
0.0
 10
22.39114531106387
 20
17.78830139129947
 30
0.0
 10
22.37752423898241
 20
17.79159583471191
 30
0.0
 10
22.36903563490435
 20
17.7956812356921
 30
0.0
 10
22.36590090582501
 20
17.7987390386602
 30
0.0
 10
22.36584065570365
 20
17.79902679490565
 30
0.0
 10
22.36581232549101
 20
17.79916210078454
 30
0.0
  0
SPLINE
  5
27C
330
1F
100
AcDbEntity
  8
0
  6
Continuous
 62
     7
370
    25
100
AcDbSpline
210
0.0
220
0.0
230
1.0
 70
     8
 71
     3
 72
    12
 73
     8
 74
     0
 42
0.000000001
 43
0.00000001
 40
0.0
 40
0.0
 40
0.0
 40
0.0
 40
0.3489077458698491
 40
0.6286333438622825
 40
0.8652741407092961
 40
0.9933897140935631
 40
0.9999999999999999
 40
0.9999999999999999
 40
0.9999999999999999
 40
0.9999999999999999
 10
21.62732417723658
 20
17.74148720018693
 30
0.0
 10
21.61498774326212
 20
17.71810066121939
 30
0.0
 10
21.59276096889984
 20
17.67596471449261
 30
0.0
 10
21.55998863666425
 20
17.62024230269484
 30
0.0
 10
21.53411663888522
 20
17.58026505174577
 30
0.0
 10
21.5186078557654
 20
17.55742209095292
 30
0.0
 10
21.51278283444321
 20
17.54950007685136
 30
0.0
 10
21.51249703143142
 20
17.54911138548623
 30
0.0
  0
LINE
  5
27D
330
1F
100
AcDbEntity
  8
0
  6
Continuous
 62
     7
370
    25
100
AcDbLine
 10
21.8676344439
 20
17.9654851593
 30
0.0
 11
21.7020392133
 21
17.8263855933
 31
0.0
  0
SPLINE
  5
27E
330
1F
100
AcDbEntity
  8
0
  6
Continuous
 62
     7
370
    25
100
AcDbSpline
210
0.0
220
0.0
230
1.0
 70
     8
 71
     3
 72
    13
 73
     9
 74
     0
 42
0.000000001
 43
0.00000001
 40
0.0
 40
0.0
 40
0.0
 40
0.0
 40
0.2858861028361371
 40
0.4677916333752762
 40
0.682166035985485
 40
0.7731517103225972
 40
0.8750834611706443
 40
1.0
 40
1.0
 40
1.0
 40
1.0
 10
21.6981396649786
 20
17.82320382442859
 30
0.0
 10
21.6903565211936
 20
17.81604499646602
 30
0.0
 10
21.67762106638184
 20
17.8043311013433
 30
0.0
 10
21.66071632739646
 20
17.78543802909662
 30
0.0
 10
21.64909247980395
 20
17.77152224453125
 30
0.0
 10
21.63984736033371
 20
17.75938672537002
 30
0.0
 10
21.63281452142334
 20
17.74974305701741
 30
0.0
 10
21.62830781255587
 20
17.74255042510471
 30
0.0
 10
21.62582614309282
 20
17.73858972218346
 30
0.0
  0
SPLINE
  5
27F
330
1F
100
AcDbEntity
  8
0
  6
Continuous
 62
     7
370
    25
100
AcDbSpline
210
0.0
220
0.0
230
1.0
 70
     8
 71
     3
 72
     9
 73
     5
 74
     0
 42
0.000000001
 43
0.00000001
 40
0.0
 40
0.0
 40
0.0
 40
0.0
 40
0.4989972097107234
 40
1.0
 40
1.0
 40
1.0
 40
1.0
 10
22.04252133668828
 20
18.0885411363168
 30
0.0
 10
22.01104590629071
 20
18.06898604373132
 30
0.0
 10
21.94796853875228
 20
18.02979726230143
 30
0.0
 10
21.8944482552746
 20
17.98695117076178
 30
0.0
 10
21.8676344439152
 20
17.96548515934743
 30
0.0
  0
LINE
  5
280
330
1F
100
AcDbEntity
  8
0
  6
Continuous
 62
     7
370
    25
100
AcDbLine
 10
22.4557096087
 20
18.3351762588
 30
0.0
 11
22.0425213367
 21
18.0885411363
 31
0.0
  0
SPLINE
  5
281
330
1F
100
AcDbEntity
  8
0
  6
Continuous
 62
     7
370
    25
100
AcDbSpline
210
0.0
220
0.0
230
1.0
 70
     8
 71
     3
 72
    20
 73
    16
 74
     0
 42
0.000000001
 43
0.00000001
 40
0.0
 40
0.0
 40
0.0
 40
0.0
 40
0.0961735152841619
 40
0.1750907337378992
 40
0.2464253730925769
 40
0.2938867627781987
 40
0.3309440774453003
 40
0.3712732097811591
 40
0.4152784747481076
 40
0.5022613125940801
 40
0.6271289815657036
 40
0.704921338500859
 40
0.7929490446484171
 40
0.8912759295533823
 40
1.0
 40
1.0
 40
1.0
 40
1.0
 10
22.85771044070596
 20
18.37251213169327
 30
0.0
 10
22.84633479891527
 20
18.37789554754233
 30
0.0
 10
22.82562463289934
 20
18.38769643948482
 30
0.0
 10
22.79258248616986
 20
18.39734096170162
 30
0.0
 10
22.76519553863422
 20
18.40274200051708
 30
0.0
 10
22.7431839917485
 20
18.40531944712373
 30
0.0
 10
22.7258173933046
 20
18.40645528838028
 30
0.0
 10
22.70920765800436
 20
18.40683849980647
 30
0.0
 10
22.68593260901564
 20
18.40637992438342
 30
0.0
 10
22.6511799826166
 20
18.40353680573863
 30
0.0
 10
22.61059152593468
 20
18.39629823135265
 30
0.0
 10
22.5698208309555
 20
18.38545994362639
 30
0.0
 10
22.53332769178666
 20
18.37305589571985
 30
0.0
 10
22.49382912373678
 20
18.35646667198168
 30
0.0
 10
22.46883448718568
 20
18.34250673205607
 30
0.0
 10
22.45570960872011
 20
18.3351762587949
 30
0.0
  0
SPLINE
  5
282
330
1F
100
AcDbEntity
  8
0
  6
Continuous
 62
     7
370
    25
100
AcDbSpline
210
0.0
220
0.0
230
1.0
 70
     8
 71
     3
 72
    15
 73
    11
 74
     0
 42
0.000000001
 43
0.00000001
 40
0.0
 40
0.0
 40
0.0
 40
0.0
 40
0.125
 40
0.25
 40
0.375
 40
0.5
 40
0.625
 40
0.75
 40
0.875
 40
1.0
 40
1.0
 40
1.0
 40
1.0
 10
24.75265039686188
 20
15.40105712609686
 30
0.0
 10
24.72175652876902
 20
15.3884447586663
 30
0.0
 10
24.66077782486163
 20
15.36723600966507
 30
0.0
 10
24.57286542942414
 20
15.34341948394134
 30
0.0
 10
24.48789122091251
 20
15.32589235115103
 30
0.0
 10
24.4053875605651
 20
15.31397439748439
 30
0.0
 10
24.32511991359121
 20
15.30781892951248
 30
0.0
 10
24.24744569237447
 20
15.3083062164239
 30
0.0
 10
24.17385816960747
 20
15.31735679727414
 30
0.0
 10
24.12992305085378
 20
15.33132195346487
 30
0.0
 10
24.11054373815734
 20
15.34120507140295
 30
0.0
  0
LINE
  5
283
330
1F
100
AcDbEntity
  8
0
  6
Continuous
 62
     7
370
    25
100
AcDbLine
 10
25.2829398722
 20
15.6175469521
 30
0.0
 11
24.7526504171
 21
15.4010571617
 31
0.0
  0
SPLINE
  5
284
330
1F
100
AcDbEntity
  8
0
  6
Continuous
 62
     7
370
    25
100
AcDbSpline
210
0.0
220
0.0
230
1.0
 70
     8
 71
     3
 72
    22
 73
    18
 74
     0
 42
0.000000001
 43
0.00000001
 40
0.0
 40
0.0
 40
0.0
 40
0.0
 40
0.125
 40
0.125
 40
0.25
 40
0.25
 40
0.375
 40
0.375
 40
0.5
 40
0.5
 40
0.625
 40
0.625
 40
0.75
 40
0.75
 40
0.875
 40
0.875
 40
1.0
 40
1.0
 40
1.0
 40
1.0
 10
25.28293991428018
 20
15.6175468909314
 30
0.0
 10
25.29034227536397
 20
15.62034838409879
 30
0.0
 10
25.29558324729332
 20
15.62221350819821
 30
0.0
 10
25.30189718735339
 20
15.62401362413393
 30
0.0
 10
25.30294825059717
 20
15.62393822944341
 30
0.0
 10
25.30159347643696
 20
15.62190329116295
 30
0.0
 10
25.29925296965574
 20
15.61999093322266
 30
0.0
 10
25.29269649739384
 20
15.61434945931033
 30
0.0
 10
25.28846657616645
 20
15.61064865359137
 30
0.0
 10
25.27966573210827
 20
15.60053499293149
 30
0.0
 10
25.27514590156974
 20
15.59415798186111
 30
0.0
 10
25.26771794031059
 20
15.57681559225837
 30
0.0
 10
25.26486446297141
 20
15.56571627291124
 30
0.0
 10
25.26197150625948
 20
15.53816003903614
 30
0.0
 10
25.26191821323416
 20
15.52175889194511
 30
0.0
 10
25.26452298841454
 20
15.48543468404017
 30
0.0
 10
25.26714694117925
 20
15.4655514099564
 30
0.0
 10
25.27115171728686
 20
15.44425061579685
 30
0.0
  0
SPLINE
  5
285
330
1F
100
AcDbEntity
  8
0
  6
Continuous
 62
     7
370
    25
100
AcDbSpline
210
0.0
220
0.0
230
1.0
 70
     8
 71
     3
 72
    16
 73
    12
 74
     0
 42
0.000000001
 43
0.00000001
 40
0.0
 40
0.0
 40
0.0
 40
0.0
 40
0.4999999999999997
 40
0.4999999999999997
 40
0.7499999999999996
 40
0.7499999999999996
 40
0.8750000000000001
 40
0.9375
 40
0.96875
 40
0.96875
 40
1.0
 40
1.0
 40
1.0
 40
1.0
 10
25.27115183649328
 20
15.44425066475695
 30
0.0
 10
25.17333419462083
 20
15.40248244049067
 30
0.0
 10
25.07551584680974
 20
15.36070776600635
 30
0.0
 10
24.92879741381937
 20
15.29803954291143
 30
0.0
 10
24.879894137957
 20
15.27714817453332
 30
0.0
 10
24.80654835355645
 20
15.24580311587761
 30
0.0
 10
24.769877691496
 20
15.23012862556796
 30
0.0
 10
24.72709982381402
 20
15.21183760273759
 30
0.0
 10
24.70876750080764
 20
15.20399764084161
 30
0.0
 10
24.69654619223409
 20
15.19877078099569
 30
0.0
 10
24.69049178964191
 20
15.19614703209949
 30
0.0
 10
24.6842878357844
 20
15.19355328766174
 30
0.0
  0
SPLINE
  5
286
330
1F
100
AcDbEntity
  8
0
  6
Continuous
 62
     7
370
    25
100
AcDbSpline
210
0.0
220
0.0
230
1.0
 70
     8
 71
     3
 72
     9
 73
     5
 74
     0
 42
0.000000001
 43
0.00000001
 40
0.0
 40
0.0
 40
0.0
 40
0.0
 40
0.3250517471636312
 40
1.0
 40
1.0
 40
1.0
 40
1.0
 10
24.6842878357844
 20
15.19355328766174
 30
0.0
 10
24.68280245258086
 20
15.19294639704846
 30
0.0
 10
24.67823277031794
 20
15.19107933859215
 30
0.0
 10
24.67367263319344
 20
15.18917858676672
 30
0.0
 10
24.67059477660856
 20
15.18789567764307
 30
0.0
  0
SPLINE
  5
287
330
1F
100
AcDbEntity
  8
0
  6
Continuous
 62
     7
370
    25
100
AcDbSpline
210
0.0
220
0.0
230
1.0
 70
     8
 71
     3
 72
    28
 73
    24
 74
     0
 42
0.000000001
 43
0.00000001
 40
0.0
 40
0.0
 40
0.0
 40
0.0
 40
0.1250000000000013
 40
0.1250000000000013
 40
0.2500000000000027
 40
0.2500000000000027
 40
0.3125000000000029
 40
0.3125000000000029
 40
0.375000000000003
 40
0.375000000000003
 40
0.5000000000000042
 40
0.5000000000000042
 40
0.5625000000000044
 40
0.5625000000000044
 40
0.6250000000000048
 40
0.6250000000000048
 40
0.7500000000000038
 40
0.7500000000000038
 40
0.8750000000000028
 40
0.8750000000000028
 40
0.9375000000000013
 40
0.9375000000000013
 40
1.0
 40
1.0
 40
1.0
 40
1.0
 10
24.67059477658189
 20
15.18789567763185
 30
0.0
 10
24.63131651277595
 20
15.17136980946031
 30
0.0
 10
24.59114786998732
 20
15.1564929898946
 30
0.0
 10
24.50911212135867
 20
15.13076948955596
 30
0.0
 10
24.46841742959249
 20
15.12035006780055
 30
0.0
 10
24.40785519876074
 20
15.10834385189919
 30
0.0
 10
24.38775640780433
 20
15.10495292301743
 30
0.0
 10
24.34769937095352
 20
15.0994360309708
 30
0.0
 10
24.32792054055783
 20
15.09734110255847
 30
0.0
 10
24.27020291618295
 20
15.09292440662102
 30
0.0
 10
24.23348904961547
 20
15.09243266537534
 30
0.0
 10
24.18056371616389
 20
15.09480775706794
 30
0.0
 10
24.16330605703259
 20
15.09611886377222
 30
0.0
 10
24.13004875738003
 20
15.09961038488691
 30
0.0
 10
24.11396112488039
 20
15.10179358539645
 30
0.0
 10
24.0670981534895
 20
15.1094791363466
 30
0.0
 10
24.03771051686837
 20
15.11610706299633
 30
0.0
 10
23.98185533412005
 20
15.1317136219173
 30
0.0
 10
23.9553152433269
 20
15.14073620888681
 30
0.0
 10
23.91764084148735
 20
15.15561520897495
 30
0.0
 10
23.90544291118914
 20
15.16080181805217
 30
0.0
 10
23.88172066642552
 20
15.17157805218293
 30
0.0
 10
23.87021392366471
 20
15.17718569761862
 30
0.0
 10
23.85900194465242
 20
15.18289696451092
 30
0.0
  0
SPLINE
  5
288
330
1F
100
AcDbEntity
  8
0
  6
Continuous
 62
     7
370
    25
100
AcDbSpline
210
0.0
220
0.0
230
1.0
 70
     8
 71
     3
 72
    12
 73
     8
 74
     0
 42
0.000000001
 43
0.00000001
 40
0.0
 40
0.0
 40
0.0
 40
0.0
 40
0.25
 40
0.25
 40
0.5
 40
0.5
 40
1.0
 40
1.0
 40
1.0
 40
1.0
 10
23.85900194465531
 20
15.18289696450945
 30
0.0
 10
23.74130312578632
 20
15.24285153322665
 30
0.0
 10
23.62378619030722
 20
15.30283775120096
 30
0.0
 10
23.388682201514
 20
15.42278282535
 30
0.0
 10
23.27108472956354
 20
15.48274737877127
 30
0.0
 10
22.91833157331807
 20
15.662654164319
 30
0.0
 10
22.68319561488578
 20
15.7825957138403
 30
0.0
 10
22.44802517029465
 20
15.90253177448972
 30
0.0
  0
SPLINE
  5
289
330
1F
100
AcDbEntity
  8
0
  6
Continuous
 62
     7
370
    25
100
AcDbSpline
210
0.0
220
0.0
230
1.0
 70
     8
 71
     3
 72
     8
 73
     4
 74
     0
 42
0.000000001
 43
0.00000001
 40
0.0
 40
0.0
 40
0.0
 40
0.0
 40
1.0
 40
1.0
 40
1.0
 40
1.0
 10
22.44802530245337
 20
15.90253170702102
 30
0.0
 10
22.52614757232944
 20
15.99674644514039
 30
0.0
 10
22.60164673816089
 20
16.087200973914
 30
0.0
 10
22.62289162080508
 20
16.09988220082109
 30
0.0
  0
LINE
  5
28A
330
1F
100
AcDbEntity
  8
0
  6
Continuous
 62
     7
370
    25
100
AcDbLine
 10
24.1105436671
 20
15.3412050422
 30
0.0
 11
22.6228915595
 21
16.0998821667
 31
0.0
  0
SPLINE
  5
28B
330
1F
100
AcDbEntity
  8
0
  6
Continuous
 62
     7
370
    25
100
AcDbSpline
210
0.0
220
0.0
230
1.0
 70
     8
 71
     3
 72
    15
 73
    11
 74
     0
 42
0.000000001
 43
0.00000001
 40
0.0
 40
0.0
 40
0.0
 40
0.0
 40
0.0625000000000008
 40
0.0625000000000008
 40
0.1250000000000015
 40
0.2500000000000018
 40
0.2500000000000018
 40
0.5000000000000012
 40
0.5000000000000012
 40
1.0
 40
1.0
 40
1.0
 40
1.0
 10
24.68220670391935
 20
15.16215045753467
 30
0.0
 10
24.69464477510429
 20
15.16766804633777
 30
0.0
 10
24.70716416314224
 20
15.17295086669796
 30
0.0
 10
24.73215054421434
 20
15.1836677761038
 30
0.0
 10
24.76962909986193
 20
15.1997460734202
 30
0.0
 10
24.80710488571638
 20
15.21583236717343
 30
0.0
 10
24.88205361129069
 20
15.24801317229546
 30
0.0
 10
24.93201558610275
 20
15.2694781377578
 30
0.0
 10
25.0818983400744
 20
15.33388218962052
 30
0.0
 10
25.18181902103072
 20
15.3768215596064
 30
0.0
 10
25.28173773567356
 20
15.41976660779336
 30
0.0
  0
SPLINE
  5
28C
330
1F
100
AcDbEntity
  8
0
  6
Continuous
 62
     7
370
    25
100
AcDbSpline
210
0.0
220
0.0
230
1.0
 70
     8
 71
     3
 72
    12
 73
     8
 74
     0
 42
0.000000001
 43
0.00000001
 40
0.0
 40
0.0
 40
0.0
 40
0.0
 40
0.5
 40
0.5
 40
0.75
 40
0.75
 40
1.0
 40
1.0
 40
1.0
 40
1.0
 10
25.28173773567356
 20
15.41976660779336
 30
0.0
 10
25.35007149179495
 20
15.44913644566527
 30
0.0
 10
25.41215151437605
 20
15.4886519536885
 30
0.0
 10
25.49861791557703
 20
15.55871965746758
 30
0.0
 10
25.52639950334439
 20
15.58397374243675
 30
0.0
 10
25.5796094822595
 20
15.63636318304924
 30
0.0
 10
25.60522713391019
 20
15.66348553285413
 30
0.0
 10
25.62995061484133
 20
15.69144797926075
 30
0.0
  0
LWPOLYLINE
  5
28D
330
1F
100
AcDbEntity
  8
0
  6
Continuous
 62
     7
370
    25
100
AcDbPolyline
 90
        3
 70
   128
 43
0.0
 10
25.6299506571
 20
15.6914479905
 10
25.8017182333
 20
15.7649652614
 10
25.9366784934
 20
15.8227289312
  0
LINE
  5
28E
330
1F
100
AcDbEntity
  8
0
  6
Continuous
 62
     7
370
    25
100
AcDbLine
 10
25.9366784934
 20
15.8227289312
 30
0.0
 11
26.057587442
 21
15.4716585672
 31
0.0
  0
LINE
  5
28F
330
1F
100
AcDbEntity
  8
0
  6
Continuous
 62
     7
370
    25
100
AcDbLine
 10
24.6822066237
 20
15.1621504664
 30
0.0
 11
24.7659987709
 21
14.9188524594
 31
0.0
  0
LINE
  5
290
330
1F
100
AcDbEntity
  8
0
  6
Continuous
 62
     7
370
    25
100
AcDbLine
 10
26.057587442
 20
15.4716585672
 30
0.0
 11
24.7659987709
 21
14.9188524594
 31
0.0
  0
SPLINE
  5
291
330
1F
100
AcDbEntity
  8
0
  6
Continuous
 62
     7
370
    25
100
AcDbSpline
210
0.0
220
0.0
230
1.0
 70
     8
 71
     3
 72
    12
 73
     8
 74
     0
 42
0.000000001
 43
0.00000001
 40
0.0
 40
0.0
 40
0.0
 40
0.0
 40
0.2499999999999998
 40
0.2499999999999998
 40
0.4999999999999996
 40
0.4999999999999996
 40
1.0
 40
1.0
 40
1.0
 40
1.0
 10
25.60328281321765
 20
15.71395221633163
 30
0.0
 10
25.57976851495913
 20
15.685990341868
 30
0.0
 10
25.55541925268057
 20
15.65855871974701
 30
0.0
 10
25.50476293788773
 20
15.60604243538327
 30
0.0
 10
25.47830092850981
 20
15.58093098930688
 30
0.0
 10
25.39584674928218
 20
15.51158659923243
 30
0.0
 10
25.3365422217891
 20
15.4729027047426
 30
0.0
 10
25.27115183649328
 20
15.44425066475695
 30
0.0
  0
ARC
  5
292
330
1F
100
AcDbEntity
  8
0
  6
Continuous
 62
     7
370
    25
100
AcDbCircle
 10
24.8387893792
 20
16.3469302252
 30
0.0
 40
0.8539728447048195
100
AcDbArc
 50
301.3388979929
 51
326.27112088
  0
SPLINE
  5
293
330
1F
100
AcDbEntity
  8
0
  6
Continuous
 62
     7
370
    25
100
AcDbSpline
210
0.0
220
0.0
230
1.0
 70
     8
 71
     3
 72
     8
 73
     4
 74
     0
 42
0.000000001
 43
0.00000001
 40
0.0
 40
0.0
 40
0.0
 40
0.0
 40
1.0
 40
1.0
 40
1.0
 40
1.0
 10
25.54901681231751
 20
15.8727500921846
 30
0.0
 10
25.57962086906518
 20
15.85714251718675
 30
0.0
 10
25.61014925382655
 20
15.84125689059104
 30
0.0
 10
25.6406584488085
 20
15.82500569608026
 30
0.0
  0
SPLINE
  5
294
330
1F
100
AcDbEntity
  8
0
  6
Continuous
 62
     7
370
    25
100
AcDbSpline
210
0.0
220
0.0
230
1.0
 70
     8
 71
     3
 72
    24
 73
    20
 74
     0
 42
0.000000001
 43
0.00000001
 40
0.0
 40
0.0
 40
0.0
 40
0.0
 40
0.0312499999999979
 40
0.0312499999999979
 40
0.0624999999999958
 40
0.0624999999999958
 40
0.1249999999999966
 40
0.1249999999999966
 40
0.2499999999999986
 40
0.2499999999999986
 40
0.4999999999999968
 40
0.4999999999999968
 40
0.7499999999999949
 40
0.7499999999999949
 40
0.8749999999999971
 40
0.8749999999999971
 40
0.9374999999999986
 40
0.9374999999999986
 40
1.0
 40
1.0
 40
1.0
 40
1.0
 10
25.64065847937641
 20
15.82500572339638
 30
0.0
 10
25.6410540970442
 20
15.82423740215448
 30
0.0
 10
25.64118440985194
 20
15.82317960890763
 30
0.0
 10
25.64137790063659
 20
15.8211241803959
 30
0.0
 10
25.64139904679584
 20
15.82006132723745
 30
0.0
 10
25.64135143528054
 20
15.81682025683133
 30
0.0
 10
25.64115459673991
 20
15.81458021361915
 30
0.0
 10
25.64031093661688
 20
15.80774865532501
 30
0.0
 10
25.63939381568595
 20
15.80306897982019
 30
0.0
 10
25.63609814480627
 20
15.78894189012241
 30
0.0
 10
25.63318404877742
 20
15.77950382785
 30
0.0
 10
25.62646982947398
 20
15.76060799600299
 30
0.0
 10
25.62265475945731
 20
15.75113976428487
 30
0.0
 10
25.61613252098264
 20
15.73693131825182
 30
0.0
 10
25.61383602309598
 20
15.7322198014885
 30
0.0
 10
25.61013874668402
 20
15.72525263833063
 30
0.0
 10
25.6088648337792
 20
15.72294559855311
 30
0.0
 10
25.60619114362398
 20
15.71838208484318
 30
0.0
 10
25.60481675108996
 20
15.7161104733814
 30
0.0
 10
25.60328246481869
 20
15.71395249728635
 30
0.0
  0
SPLINE
  5
295
330
1F
100
AcDbEntity
  8
0
  6
Continuous
 62
     7
370
    25
100
AcDbSpline
210
0.0
220
0.0
230
1.0
 70
     8
 71
     3
 72
    28
 73
    24
 74
     0
 42
0.000000001
 43
0.00000001
 40
0.0
 40
0.0
 40
0.0
 40
0.0
 40
0.0625000000000002
 40
0.0625000000000002
 40
0.1250000000000004
 40
0.1250000000000004
 40
0.2499999999999992
 40
0.2499999999999992
 40
0.374999999999998
 40
0.374999999999998
 40
0.4374999999999982
 40
0.4374999999999982
 40
0.4999999999999984
 40
0.4999999999999984
 40
0.6249999999999988
 40
0.6249999999999988
 40
0.687499999999999
 40
0.687499999999999
 40
0.7499999999999991
 40
0.7499999999999991
 40
0.8749999999999996
 40
0.8749999999999996
 40
1.0
 40
1.0
 40
1.0
 40
1.0
 10
23.85161539043866
 20
15.15232669895267
 30
0.0
 10
23.86298977103383
 20
15.14651920311354
 30
0.0
 10
23.87463698763488
 20
15.14094981194648
 30
0.0
 10
23.8986127531123
 20
15.13007890917561
 30
0.0
 10
23.91093028665731
 20
15.1248168307817
 30
0.0
 10
23.94898540973403
 20
15.10965894571489
 30
0.0
 10
23.97580162568704
 20
15.10039875348902
 30
0.0
 10
24.03240691223638
 20
15.08431705388372
 30
0.0
 10
24.06226037555263
 20
15.07746204243794
 30
0.0
 10
24.11005088042012
 20
15.06950086797153
 30
0.0
 10
24.12648563607705
 20
15.06723753813774
 30
0.0
 10
24.16052557417783
 20
15.06362205317131
 30
0.0
 10
24.17822137696945
 20
15.06226704977331
 30
0.0
 10
24.23258917379412
 20
15.05984277785841
 30
0.0
 10
24.27045698002119
 20
15.06039806614128
 30
0.0
 10
24.33009090005988
 20
15.06517288853807
 30
0.0
 10
24.35054706662034
 20
15.06743101336794
 30
0.0
 10
24.39200250901003
 20
15.07336122149265
 30
0.0
 10
24.41281036901279
 20
15.0770020681951
 30
0.0
 10
24.47541453320294
 20
15.08990019132785
 30
0.0
 10
24.517395615947
 20
15.10109334026017
 30
0.0
 10
24.60154095996139
 20
15.12864029641335
 30
0.0
 10
24.64246949837751
 20
15.14454953919048
 30
0.0
 10
24.68220670391993
 20
15.16215045753492
 30
0.0
  0
LINE
  5
296
330
1F
100
AcDbEntity
  8
0
  6
Continuous
 62
     7
370
    25
100
AcDbLine
 10
23.8516153686
 20
15.1523267425
 30
0.0
 11
23.9182067096
 21
14.9102470115
 31
0.0
  0
SPLINE
  5
297
330
1F
100
AcDbEntity
  8
0
  6
Continuous
 62
     7
370
    25
100
AcDbSpline
210
0.0
220
0.0
230
1.0
 70
     8
 71
     3
 72
     8
 73
     4
 74
     0
 42
0.000000001
 43
0.00000001
 40
0.0
 40
0.0
 40
0.0
 40
0.0
 40
1.0
 40
1.0
 40
1.0
 40
1.0
 10
24.76599869623213
 20
14.91885248904268
 30
0.0
 10
24.51296662813041
 20
14.81055355852454
 30
0.0
 10
24.205379976511
 20
14.76379359113348
 30
0.0
 10
23.91820678369958
 20
14.91024700649163
 30
0.0
  0
ARC
  5
298
330
1F
100
AcDbEntity
  8
0
  6
Continuous
 62
     7
370
    25
100
AcDbCircle
 10
23.8855350544
 20
15.1603082438
 30
0.0
 40
0.0348460822306284
100
AcDbArc
 50
139.5906806886
 51
193.2411580942
  0
ARC
  5
299
330
1F
100
AcDbEntity
  8
0
  6
Continuous
 62
     7
370
    25
100
AcDbCircle
 10
24.5028297109
 20
15.0967381928
 30
0.0
 40
0.1909315122410668
100
AcDbArc
 50
20.0350840111
 51
28.5180761275
  0
LWPOLYLINE
  5
29A
330
1F
100
AcDbEntity
  8
0
  6
Continuous
 62
     7
370
    25
100
AcDbPolyline
 90
       34
 70
   128
 43
0.0
 10
21.331841644
 20
17.0582881381
 10
21.3084064315
 20
17.0425207042
 10
21.2890321021
 20
17.0256840294
 10
21.2744188228
 20
17.008386676
 10
21.2650951738
 20
16.9912539268
 10
21.261397728
 20
16.9749048127
 10
21.2634606014
 20
16.9599303951
 10
21.2712084898
 20
16.9468716947
 10
21.2843619708
 20
16.9362009416
 10
21.302445462
 20
16.9283035399
 10
21.3248054748
 20
16.9234651358
 10
21.3506335521
 20
16.9218604374
 10
21.378996524
 20
16.9235476192
 10
21.40886909
 20
16.9284656824
 10
21.439171768
 20
16.9364365826
 10
21.4688090795
 20
16.9471725437
 10
21.4967101464
 20
16.9602855055
 10
21.521866356
 20
16.9753014322
 10
21.5433684955
 20
16.9916776081
 10
21.5604394872
 20
17.0088221773
 10
21.572462256
 20
17.0261156479
 10
21.5790025068
 20
17.0429326633
 10
21.5798236607
 20
17.0586657011
 10
21.5748960182
 20
17.072746023
 10
21.5643976244
 20
17.0846647147
 10
21.5487079919
 20
17.0939910283
 10
21.5283944463
 20
17.1003878862
 10
21.5041908252
 20
17.1036240385
 10
21.4769719761
 20
17.103582669
 10
21.4477217143
 20
17.1002650538
 10
21.4174972416
 20
17.0937912379
 10
21.3873909816
 20
17.0843951689
 10
21.3584909921
 20
17.0724165472
 10
21.331841644
 20
17.0582881381
  0
LWPOLYLINE
  5
29B
330
1F
100
AcDbEntity
  8
0
  6
Continuous
 62
     7
370
    25
100
AcDbPolyline
 90
       34
 70
   128
 43
0.0
 10
24.2781381383
 20
15.5557273306
 10
24.3047874864
 20
15.5698557397
 10
24.3336873188
 20
15.5818344416
 10
24.3637937359
 20
15.5912304304
 10
24.3940182087
 20
15.5977042463
 10
24.4232684704
 20
15.6010218615
 10
24.4504871624
 20
15.6010633112
 10
24.4746909406
 20
15.5978270787
 10
24.4950044863
 20
15.5914302208
 10
24.5106939616
 20
15.5821039873
 10
24.5211923554
 20
15.5701852956
 10
24.5261199979
 20
15.5561049737
 10
24.525298844
 20
15.5403719359
 10
24.5187587503
 20
15.5235548404
 10
24.5067358244
 20
15.5062614499
 10
24.4896648327
 20
15.4891168807
 10
24.4681626932
 20
15.4727407048
 10
24.4430064836
 20
15.4577247781
 10
24.4151054167
 20
15.4446118163
 10
24.3854681052
 20
15.4338758552
 10
24.3551655844
 20
15.4259048749
 10
24.3252928612
 20
15.4209868918
 10
24.2969298893
 20
15.41929971
 10
24.271101812
 20
15.4209044085
 10
24.2487417992
 20
15.4257428125
 10
24.2306584652
 20
15.4336401341
 10
24.2175049841
 20
15.4443108872
 10
24.2097569385
 20
15.4573696677
 10
24.2076942223
 20
15.4723440052
 10
24.2113916681
 20
15.4886931193
 10
24.2207153171
 20
15.5058258685
 10
24.2353284393
 20
15.523123302
 10
24.2547029258
 20
15.5399598967
 10
24.2781381383
 20
15.5557273306
  0
LINE
  5
29C
330
1F
100
AcDbEntity
  8
0
  6
Continuous
 62
     7
370
    25
100
AcDbLine
 10
22.9361954335
 20
16.0975987023
 30
0.0
 11
23.0804323215
 21
16.024040357
 31
0.0
  0
LWPOLYLINE
  5
29D
330
1F
100
AcDbEntity
  8
0
  6
Continuous
 62
     7
370
    25
100
AcDbPolyline
 90
       17
 70
   128
 43
0.0
 10
23.3379040071
 20
16.1777271023
 10
23.3523084725
 20
16.1676430769
 10
23.3612120563
 20
16.1549934965
 10
23.3642727116
 20
16.1402645409
 10
23.3613728012
 20
16.1240221846
 10
23.3526237749
 20
16.1068906593
 10
23.3383618038
 20
16.0895282818
 10
23.3191349685
 20
16.0726022821
 10
23.2956821544
 20
16.0567630748
 10
23.2689047375
 20
16.0426194873
 10
23.2398316504
 20
16.0307149076
 10
23.2095801954
 20
16.0215068933
 10
23.1793129257
 20
16.0153493041
 10
23.1501929299
 20
16.0124787427
 10
23.1233392412
 20
16.0130054614
 10
23.0997839701
 20
16.0169093417
 10
23.0804323215
 20
16.024040357
  0
LINE
  5
29E
330
1F
100
AcDbEntity
  8
0
  6
Continuous
 62
     7
370
    25
100
AcDbLine
 10
23.1936671192
 20
16.2512854476
 30
0.0
 11
23.3379040071
 21
16.1777271023
 31
0.0
  0
ARC
  5
29F
330
1F
100
AcDbEntity
  8
0
  6
Continuous
 62
     7
370
    25
100
AcDbCircle
 10
23.2021132805
 20
16.2710682544
 30
0.0
 40
0.0215103949009537
100
AcDbArc
 50
143.6562074257
 51
246.8802055931
  0
LWPOLYLINE
  5
2A0
330
1F
100
AcDbEntity
  8
0
  6
Continuous
 62
     7
370
    25
100
AcDbPolyline
 90
       14
 70
   128
 43
0.0
 10
23.1847871832
 20
16.2838159382
 10
23.1960283651
 20
16.3082695234
 10
23.2011858891
 20
16.3317845466
 10
23.200155733
 20
16.3538873705
 10
23.1929585936
 20
16.3741328912
 10
23.1797395646
 20
16.392113502
 10
23.1607647181
 20
16.4074670484
 10
23.1364162017
 20
16.4198843753
 10
23.1071843323
 20
16.4291154292
 10
23.0736577215
 20
16.434974295
 10
23.036511628
 20
16.4373430644
 10
22.9964939359
 20
16.4361739409
 10
22.9544105125
 20
16.4314904947
 10
22.9111089871
 20
16.4233871362
  0
ARC
  5
2A1
330
1F
100
AcDbEntity
  8
0
  6
Continuous
 62
     7
370
    25
100
AcDbCircle
 10
22.884869246
 20
16.5138567968
 30
0.0
 40
0.0941981077403026
100
AcDbArc
 50
249.3395870973
 51
286.1742266884
  0
LINE
  5
2A2
330
1F
100
AcDbEntity
  8
0
  6
Continuous
 62
     7
370
    25
100
AcDbLine
 10
22.8516334749
 20
16.4257167547
 30
0.0
 11
22.7073965869
 21
16.4992751
 31
0.0
  0
LWPOLYLINE
  5
2A3
330
1F
100
AcDbEntity
  8
0
  6
Continuous
 62
     7
370
    25
100
AcDbPolyline
 90
       17
 70
   128
 43
0.0
 10
22.7073965869
 20
16.4992751
 10
22.6880449383
 20
16.5064061153
 10
22.6644896672
 20
16.5103099956
 10
22.6376360953
 20
16.5108367841
 10
22.6085160996
 20
16.5079662227
 10
22.5782488298
 20
16.5018086335
 10
22.5479973748
 20
16.4926006192
 10
22.5189242878
 20
16.4806960395
 10
22.492146754
 20
16.4665523822
 10
22.4686940567
 20
16.4507132447
 10
22.4494672215
 20
16.433787245
 10
22.4352052503
 20
16.4164248675
 10
22.426456224
 20
16.3992933422
 10
22.4235563137
 20
16.3830509858
 10
22.426616852
 20
16.3683219605
 10
22.4355204359
 20
16.3556723801
 10
22.4499249012
 20
16.3455883547
  0
LINE
  5
2A4
330
1F
100
AcDbEntity
  8
0
  6
Continuous
 62
     7
370
    25
100
AcDbLine
 10
22.5941617892
 20
16.2720300094
 30
0.0
 11
22.4499249012
 21
16.3455883547
 31
0.0
  0
ARC
  5
2A5
330
1F
100
AcDbEntity
  8
0
  6
Continuous
 62
     7
370
    25
100
AcDbCircle
 10
22.5857157764
 20
16.2522472431
 30
0.0
 40
0.0215102992758812
100
AcDbArc
 50
323.6558859208
 51
66.8805270981
  0
LWPOLYLINE
  5
2A6
330
1F
100
AcDbEntity
  8
0
  6
Continuous
 62
     7
370
    25
100
AcDbPolyline
 90
       14
 70
   128
 43
0.0
 10
22.6030417251
 20
16.2394995188
 10
22.5918004263
 20
16.2150458638
 10
22.5866430193
 20
16.1915309104
 10
22.5876732923
 20
16.1694281563
 10
22.5948703147
 20
16.1491825658
 10
22.6080894607
 20
16.1312020248
 10
22.6270641903
 20
16.1158484086
 10
22.6514127067
 20
16.1034310817
 10
22.6806446929
 20
16.0942000976
 10
22.7141711868
 20
16.088341162
 10
22.7513173972
 20
16.0859724624
 10
22.7913349724
 20
16.0871415161
 10
22.8334182789
 20
16.0918248925
 10
22.8767199213
 20
16.0999283208
  0
ARC
  5
2A7
330
1F
100
AcDbEntity
  8
0
  6
Continuous
 62
     7
370
    25
100
AcDbCircle
 10
22.902959692
 20
16.0094594185
 30
0.0
 40
0.0941973877098066
100
AcDbArc
 50
69.3394412602
 51
106.1743725255
  0
SPLINE
  5
2A8
330
1F
100
AcDbEntity
  8
0
  6
Continuous
 62
     7
370
    25
100
AcDbSpline
210
0.0
220
0.0
230
1.0
 70
     8
 71
     3
 72
    67
 73
    63
 74
     0
 42
0.000000001
 43
0.00000001
 40
0.0
 40
0.0
 40
0.0
 40
0.0
 40
0.0312500000000042
 40
0.0468750000000058
 40
0.054687500000007
 40
0.0585937500000068
 40
0.0585937500000068
 40
0.0625000000000066
 40
0.0625000000000066
 40
0.0937500000000062
 40
0.1093750000000065
 40
0.1171875000000066
 40
0.1210937500000071
 40
0.1210937500000071
 40
0.1250000000000077
 40
0.1250000000000077
 40
0.1875000000000275
 40
0.2187500000000369
 40
0.2343750000000405
 40
0.2421875000000425
 40
0.2460937500000439
 40
0.2460937500000439
 40
0.2500000000000453
 40
0.2500000000000453
 40
0.3125000000000632
 40
0.3437500000000714
 40
0.3437500000000714
 40
0.3750000000000796
 40
0.3750000000000796
 40
0.4375000000000976
 40
0.4687500000001057
 40
0.4843750000001099
 40
0.4921875000001111
 40
0.4921875000001111
 40
0.5000000000001124
 40
0.5000000000001124
 40
0.5625000000001164
 40
0.5937500000001191
 40
0.6093750000001203
 40
0.6171875000001205
 40
0.6210937500001188
 40
0.6210937500001188
 40
0.6250000000001172
 40
0.6250000000001172
 40
0.6875000000000753
 40
0.7187500000000542
 40
0.7343750000000447
 40
0.7421875000000411
 40
0.7460937500000381
 40
0.7460937500000381
 40
0.7500000000000352
 40
0.7500000000000352
 40
0.8124999999999941
 40
0.8437499999999745
 40
0.8593749999999647
 40
0.8671874999999601
 40
0.8710937499999588
 40
0.8730468749999586
 40
0.8730468749999586
 40
0.8749999999999583
 40
0.8749999999999583
 40
1.0
 40
1.0
 40
1.0
 40
1.0
 10
21.19295916136883
 20
17.21643875776853
 30
0.0
 10
21.18805389298915
 20
17.2121067837377
 30
0.0
 10
21.18087483253893
 20
17.20552240007643
 30
0.0
 10
21.17281211266839
 20
17.19768939972739
 30
0.0
 10
21.16885896539681
 20
17.19373509470014
 30
0.0
 10
21.16718151927978
 20
17.19203229150574
 30
0.0
 10
21.16606694628097
 20
17.19089528914506
 30
0.0
 10
21.16546748453642
 20
17.19028051873646
 30
0.0
 10
21.16088176281776
 20
17.18555612804803
 30
0.0
 10
21.1548830344822
 20
17.17914715168609
 30
0.0
 10
21.148086760847
 20
17.17147788223672
 30
0.0
 10
21.14473918471849
 20
17.16759521492194
 30
0.0
 10
21.14331534366821
 20
17.1659209219463
 30
0.0
 10
21.14236852395321
 20
17.164802439363
 30
0.0
 10
21.14185725123029
 20
17.16419547915135
 30
0.0
 10
21.13451434748767
 20
17.15544127354546
 30
0.0
 10
21.12475168845112
 20
17.14297384686814
 30
0.0
 10
21.11441855786057
 20
17.12823855643854
 30
0.0
 10
21.10951615213665
 20
17.12082342139722
 30
0.0
 10
21.10713098916754
 20
17.11710398141993
 30
0.0
 10
21.10612292787209
 20
17.11550739161754
 30
0.0
 10
21.10545403176526
 20
17.11444243306086
 30
0.0
 10
21.10510253768806
 20
17.11387971535303
 30
0.0
 10
21.09978689448301
 20
17.10532720436812
 30
0.0
 10
21.09288532395618
 20
17.09326929733158
 30
0.0
 10
21.086888053838
 20
17.08123572947298
 30
0.0
 10
21.08309082940558
 20
17.07321875960679
 30
0.0
 10
21.08127362184898
 20
17.06916800448419
 30
0.0
 10
21.07623787163022
 20
17.05729369943134
 30
0.0
 10
21.07184426611019
 20
17.04556466254529
 30
0.0
 10
21.06784214622629
 20
17.0321350054701
 30
0.0
 10
21.06612202459004
 20
17.02548373175549
 30
0.0
 10
21.06544503066858
 20
17.02264680476842
 30
0.0
 10
21.06500707940217
 20
17.02075854653053
 30
0.0
 10
21.06480115263808
 20
17.01984504225813
 30
0.0
 10
21.06289353531372
 20
17.01111311324055
 30
0.0
 10
21.06105201092711
 20
16.99971821647678
 30
0.0
 10
21.06013200522304
 20
16.98685760195679
 30
0.0
 10
21.0599791122244
 20
16.98053565262289
 30
0.0
 10
21.05997944318844
 20
16.97740176743746
 30
0.0
 10
21.05999603734374
 20
16.97606447867546
 30
0.0
 10
21.06001075618362
 20
16.97517424280945
 30
0.0
 10
21.06001918172399
 20
16.97476046835643
 30
0.0
 10
21.06021939759289
 20
16.9666935187058
 30
0.0
 10
21.0613031089217
 20
16.95568382406537
 30
0.0
 10
21.06396928266052
 20
16.943502325599
 30
0.0
 10
21.06565283049372
 20
16.93757736268602
 30
0.0
 10
21.06658221965128
 20
16.93465632780958
 30
0.0
 10
21.06699930398472
 20
16.93341333712969
 30
0.0
 10
21.06728153236134
 20
16.9325866503231
 30
0.0
 10
21.06740926282743
 20
16.93221809557265
 30
0.0
 10
21.07014211724206
 20
16.92448017860819
 30
0.0
 10
21.07495730286633
 20
16.91409421159977
 30
0.0
 10
21.08224983630489
 20
16.90291901444331
 30
0.0
 10
21.08631480724339
 20
16.89756685695342
 30
0.0
 10
21.08845196876745
 20
16.89494963848056
 30
0.0
 10
21.08954671854318
 20
16.89365574431216
 30
0.0
 10
21.09002150466429
 20
16.89310437146884
 30
0.0
 10
21.09033927488854
 20
16.89273749029083
 30
0.0
 10
21.09047611170537
 20
16.89258027235318
 30
0.0
 10
21.10235828217932
 20
16.87902048168788
 30
0.0
 10
21.11721845796882
 20
16.86774969275034
 30
0.0
 10
21.13523950345283
 20
16.85855933023922
 30
0.0
  0
LINE
  5
2A9
330
1F
100
AcDbEntity
  8
0
  6
Continuous
 62
     7
370
    25
100
AcDbLine
 10
21.5424829844
 20
17.5251159739
 30
0.0
 11
21.1929592195
 21
17.216438774
 31
0.0
  0
LINE
  5
2AA
330
1F
100
AcDbEntity
  8
0
  6
Continuous
 62
     7
370
    25
100
AcDbLine
 10
25.2829398722
 20
15.6175469521
 30
0.0
 11
21.5424829844
 21
17.5251159739
 31
0.0
  0
LINE
  5
2AB
330
1F
100
AcDbEntity
  8
0
  6
Continuous
 62
     7
370
    25
100
AcDbLine
 10
21.1352394518
 20
16.8585592912
 30
0.0
 11
22.6228915595
 21
16.0998821667
 31
0.0
  0
ARC
  5
2AC
330
1F
100
AcDbEntity
  8
0
  6
Continuous
 62
     7
370
    25
100
AcDbCircle
 10
25.1060662395
 20
15.3583439704
 30
0.0
 40
0.186100026792693
100
AcDbArc
 50
19.2719324663
 51
27.4914290503
  0
SPLINE
  5
2AD
330
1F
100
AcDbEntity
  8
0
  6
Continuous
 62
     7
370
    25
100
AcDbSpline
210
0.0
220
0.0
230
1.0
 70
     8
 71
     3
 72
     8
 73
     4
 74
     0
 42
0.000000001
 43
0.00000001
 40
0.0
 40
0.0
 40
0.0
 40
0.0
 40
1.0
 40
1.0
 40
1.0
 40
1.0
 10
25.62995061484133
 20
15.69144797926075
 30
0.0
 10
25.62864686036469
 20
15.69248532596932
 30
0.0
 10
25.62729184130183
 20
15.69358223762829
 30
0.0
 10
25.62590859985496
 20
15.69471939055239
 30
0.0
  0
SPLINE
  5
2AE
330
1F
100
AcDbEntity
  8
0
  6
Continuous
 62
     7
370
    25
100
AcDbSpline
210
0.0
220
0.0
230
1.0
 70
     8
 71
     3
 72
    13
 73
     9
 74
     0
 42
0.000000001
 43
0.00000001
 40
0.0
 40
0.0
 40
0.0
 40
0.0
 40
0.0968813558509747
 40
0.2234492436985593
 40
0.3799924286403554
 40
0.5650000245407345
 40
0.7741779506992715
 40
1.0
 40
1.0
 40
1.0
 40
1.0
 10
25.6259085948074
 20
15.69471939770627
 30
0.0
 10
25.62512585870518
 20
15.69535671240604
 30
0.0
 10
25.62332053931714
 20
15.69682662874247
 30
0.0
 10
25.62016882279935
 20
15.69941054193333
 30
0.0
 10
25.61629398126266
 20
15.70263843028977
 30
0.0
 10
25.6118886695558
 20
15.70638110940498
 30
0.0
 10
25.60725754980765
 20
15.71040114612214
 30
0.0
 10
25.60464109597548
 20
15.71273871266222
 30
0.0
 10
25.60328281321774
 20
15.71395221633174
 30
0.0
  0
SPLINE
  5
2AF
330
1F
100
AcDbEntity
  8
0
  6
Continuous
 62
     7
370
    25
100
AcDbSpline
210
0.0
220
0.0
230
1.0
 70
     8
 71
     3
 72
    22
 73
    18
 74
     0
 42
0.000000001
 43
0.00000001
 40
0.0
 40
0.0
 40
0.0
 40
0.0
 40
0.125
 40
0.125
 40
0.25
 40
0.25
 40
0.375
 40
0.375
 40
0.5
 40
0.5
 40
0.625
 40
0.625
 40
0.75
 40
0.75
 40
0.875
 40
0.875
 40
1.0
 40
1.0
 40
1.0
 40
1.0
 10
25.88207890040063
 20
15.93471415888724
 30
0.0
 10
25.88285802503104
 20
15.93374494658842
 30
0.0
 10
25.88395657835947
 20
15.9321490057751
 30
0.0
 10
25.88698753342225
 20
15.92722518275574
 30
0.0
 10
25.88892588480113
 20
15.92388464048199
 30
0.0
 10
25.89368133860231
 20
15.91524892974139
 30
0.0
 10
25.89650213345393
 20
15.9099438028145
 30
0.0
 10
25.90274116402725
 20
15.8978125501554
 30
0.0
 10
25.90615338526912
 20
15.89099587326292
 30
0.0
 10
25.91297833054703
 20
15.87699772328893
 30
0.0
 10
25.9163785202483
 20
15.86984195847182
 30
0.0
 10
25.92257354975887
 20
15.85647061283119
 30
0.0
 10
25.92536256606517
 20
15.85026986319543
 30
0.0
 10
25.93004407363591
 20
15.83955010730533
 30
0.0
 10
25.93194041510991
 20
15.83502558935177
 30
0.0
 10
25.93488585472237
 20
15.82769166295904
 30
0.0
 10
25.93594093274807
 20
15.82487044679068
 30
0.0
 10
25.93667846262386
 20
15.82272895909528
 30
0.0
  0
SPLINE
  5
2B0
330
1F
100
AcDbEntity
  8
0
  6
Continuous
 62
     7
370
    25
100
AcDbSpline
210
0.0
220
0.0
230
1.0
 70
     8
 71
     3
 72
     8
 73
     4
 74
     0
 42
0.000000001
 43
0.00000001
 40
0.0
 40
0.0
 40
0.0
 40
0.0
 40
1.0
 40
1.0
 40
1.0
 40
1.0
 10
25.62995061484133
 20
15.69144797926075
 30
0.0
 10
25.62906206820684
 20
15.69286255694992
 30
0.0
 10
25.62810389575039
 20
15.69435688492502
 30
0.0
 10
25.62712457257516
 20
15.69586842258049
 30
0.0
  0
SPLINE
  5
2B1
330
1F
100
AcDbEntity
  8
0
  6
Continuous
 62
     7
370
    25
100
AcDbSpline
210
0.0
220
0.0
230
1.0
 70
     8
 71
     3
 72
    36
 73
    32
 74
     0
 42
0.000000001
 43
0.00000001
 40
0.0
 40
0.0
 40
0.0
 40
0.0
 40
0.0078124999999996
 40
0.0078124999999996
 40
0.0156249999999992
 40
0.0156249999999992
 40
0.0312499999999983
 40
0.0312499999999983
 40
0.0624999999999967
 40
0.0624999999999967
 40
0.1249999999999963
 40
0.1249999999999963
 40
0.2499999999999964
 40
0.2499999999999964
 40
0.4999999999999959
 40
0.4999999999999959
 40
0.7499999999999952
 40
0.7499999999999952
 40
0.8750000000000001
 40
0.8750000000000001
 40
0.9375000000000026
 40
0.9375000000000026
 40
0.968750000000005
 40
0.968750000000005
 40
0.9843750000000023
 40
0.9843750000000023
 40
0.9921875000000014
 40
0.9921875000000014
 40
0.9960937500000007
 40
0.9960937500000007
 40
1.0
 40
1.0
 40
1.0
 40
1.0
 10
25.62712455830644
 20
15.69586843348128
 30
0.0
 10
25.62703932661043
 20
15.69688544412393
 30
0.0
 10
25.62709348164162
 20
15.69752163677095
 30
0.0
 10
25.62721041793589
 20
15.69876293689499
 30
0.0
 10
25.6272877690367
 20
15.69932894553761
 30
0.0
 10
25.62755226611479
 20
15.70093035492223
 30
0.0
 10
25.62776937583991
 20
15.70187572287801
 30
0.0
 10
25.62844359187661
 20
15.7046246491082
 30
0.0
 10
25.62894713456253
 20
15.70627504270754
 30
0.0
 10
25.63046863554133
 20
15.71109342810107
 30
0.0
 10
25.63152571117857
 20
15.71405413956037
 30
0.0
 10
25.63465358284448
 20
15.72277334136039
 30
0.0
 10
25.63670837373275
 20
15.72829620770494
 30
0.0
 10
25.64259540285373
 20
15.74471208614899
 30
0.0
 10
25.64614124906256
 20
15.75525610334688
 30
0.0
 10
25.6522600642063
 20
15.77638133965162
 30
0.0
 10
25.65488189115057
 20
15.78690343796866
 30
0.0
 10
25.65742616284221
 20
15.80316595963701
 30
0.0
 10
25.65805312880655
 20
15.80861971141906
 30
0.0
 10
25.65817893432286
 20
15.81705566444758
 30
0.0
 10
25.65810186262178
 20
15.81988397607347
 30
0.0
 10
25.6575102564484
 20
15.8243592915406
 30
0.0
 10
25.65725177650339
 20
15.82587130047424
 30
0.0
 10
25.65656896181507
 20
15.82836146818789
 30
0.0
 10
25.65630393136418
 20
15.82921805783453
 30
0.0
 10
25.65573394799573
 20
15.83065528068074
 30
0.0
 10
25.65551327551947
 20
15.83116124974162
 30
0.0
 10
25.65511812022683
 20
15.83197562938236
 30
0.0
 10
25.65497076684318
 20
15.83226301265049
 30
0.0
 10
25.6545986781202
 20
15.83293059024625
 30
0.0
 10
25.65442149673219
 20
15.83324374403367
 30
0.0
 10
25.65405184048906
 20
15.83381736375835
 30
0.0
  0
SPLINE
  5
2B2
330
1F
100
AcDbEntity
  8
0
  6
Continuous
 62
     7
370
    25
100
AcDbSpline
210
0.0
220
0.0
230
1.0
 70
     8
 71
     3
 72
     8
 73
     4
 74
     0
 42
0.000000001
 43
0.00000001
 40
0.0
 40
0.0
 40
0.0
 40
0.0
 40
1.0
 40
1.0
 40
1.0
 40
1.0
 10
25.65405183466514
 20
15.83381735336117
 30
0.0
 10
25.65346086744175
 20
15.83480275908619
 30
0.0
 10
25.65289456427042
 20
15.83569909489748
 30
0.0
 10
25.65239064387576
 20
15.83640649105966
 30
0.0
  0
LWPOLYLINE
  5
2B3
330
1F
100
AcDbEntity
  8
0
  6
Continuous
 62
     7
370
    25
100
AcDbPolyline
 90
        3
 70
   128
 43
0.0
 10
25.8820789695
 20
15.9347141388
 10
25.7534534769
 20
15.8796618944
 10
25.6523907136
 20
15.8364064595
  0
SPLINE
  5
2B4
330
1F
100
AcDbEntity
  8
0
  6
Continuous
 62
     7
370
    25
100
AcDbSpline
210
0.0
220
0.0
230
1.0
 70
     8
 71
     3
 72
    15
 73
    11
 74
     0
 42
0.000000001
 43
0.00000001
 40
0.0
 40
0.0
 40
0.0
 40
0.0
 40
0.2010915454205949
 40
0.38178127270069
 40
0.5408341810836933
 40
0.6775844102808325
 40
0.7917859470622384
 40
0.8834662265926448
 40
0.9527984499922373
 40
0.9999999999999999
 40
0.9999999999999999
 40
0.9999999999999999
 40
0.9999999999999999
 10
25.65405183264586
 20
15.83381736044912
 30
0.0
 10
25.65305147336128
 20
15.83339634694575
 30
0.0
 10
25.65115224661842
 20
15.83259703402185
 30
0.0
 10
25.64857616398103
 20
15.83118624238035
 30
0.0
 10
25.6463971036911
 20
15.82980241076879
 30
0.0
 10
25.64460642320572
 20
15.82850142438918
 30
0.0
 10
25.64317565504083
 20
15.82734550377175
 30
0.0
 10
25.64207444424559
 20
15.82637415468723
 30
0.0
 10
25.64126917293139
 20
15.82561755625283
 30
0.0
 10
25.64083452985698
 20
15.82518210231431
 30
0.0
 10
25.64065847937641
 20
15.82500572339638
 30
0.0
  0
SPLINE
  5
2B5
330
1F
100
AcDbEntity
  8
0
  6
Continuous
 62
     7
370
    25
100
AcDbSpline
210
0.0
220
0.0
230
1.0
 70
     8
 71
     3
 72
    12
 73
     8
 74
     0
 42
0.000000001
 43
0.00000001
 40
0.0
 40
0.0
 40
0.0
 40
0.0
 40
0.5
 40
0.5
 40
0.75
 40
0.75
 40
1.0
 40
1.0
 40
1.0
 40
1.0
 10
25.62712457257516
 20
15.69586842258049
 30
0.0
 10
25.62293871644811
 20
15.69907249924871
 30
0.0
 10
25.61850259900428
 20
15.70245232137196
 30
0.0
 10
25.61226941092244
 20
15.70718010645396
 30
0.0
 10
25.61023421481366
 20
15.7087199406731
 30
0.0
 10
25.60651044249174
 20
15.71152950214989
 30
0.0
 10
25.60481138114282
 20
15.71280732195298
 30
0.0
 10
25.6032824637073
 20
15.71395249810329
 30
0.0
  0
LWPOLYLINE
  5
2B6
330
1F
100
AcDbEntity
  8
0
  6
Continuous
 62
     7
370
    25
100
AcDbPolyline
 90
       26
 70
   128
 43
0.0
 10
22.8336792124
 20
18.0161429327
 10
22.8552934322
 20
18.0271724361
 10
22.8789323912
 20
18.0357837312
 10
22.9031105397
 20
18.0414358553
 10
22.9263089594
 20
18.0437735132
 10
22.947069815
 20
18.0426498877
 10
22.964088804
 20
18.0381355575
 10
22.9762963215
 20
18.030514245
 10
22.9829254369
 20
18.0202647772
 10
22.9835596641
 20
18.0080311597
 10
22.9781591647
 20
17.994582038
 10
22.9670631509
 20
17.9807625622
 10
22.9509690986
 20
17.9674409311
 10
22.9308879139
 20
17.9554543241
 10
22.9080813823
 20
17.9455559102
 10
22.8839828448
 20
17.9383674991
 10
22.8601062453
 20
17.9343409048
 10
22.8379519286
 20
17.9337290225
 10
22.8189119781
 20
17.9365703714
 10
22.8041826434
 20
17.9426863927
 10
22.7946893272
 20
17.9516928523
 10
22.7910287609
 20
17.9630237665
 10
22.7934308106
 20
17.9759672173
 10
22.8017447111
 20
17.9897098365
 10
22.8154477733
 20
18.0033882689
 10
22.8336792124
 20
18.0161429327
  0
LWPOLYLINE
  5
2B7
330
1F
100
AcDbEntity
  8
0
  6
Continuous
 62
     7
370
    25
100
AcDbPolyline
 90
       26
 70
   128
 43
0.0
 10
25.8876494195
 20
16.4586703737
 10
25.9058808586
 20
16.4714250375
 10
25.9195839209
 20
16.4851034699
 10
25.9278978213
 20
16.4988460891
 10
25.930299871
 20
16.5117895399
 10
25.9266392755
 20
16.5231204366
 10
25.9171459885
 20
16.5321269137
 10
25.9024166538
 20
16.538242935
 10
25.8833766741
 20
16.5410842665
 10
25.8612223866
 20
16.5404724016
 10
25.8373457579
 20
16.5364457898
 10
25.8132472204
 20
16.5292573787
 10
25.790440718
 20
16.5193589823
 10
25.7703595334
 20
16.5073723753
 10
25.7542654518
 20
16.4940507267
 10
25.743169438
 20
16.4802312509
 10
25.7377689678
 20
16.4667821467
 10
25.7384031658
 20
16.4545485118
 10
25.7450323104
 20
16.4442990614
 10
25.7572398279
 20
16.4366777489
 10
25.7742587877
 20
16.4321634013
 10
25.7950196726
 20
16.4310397932
 10
25.8182180922
 20
16.4333774511
 10
25.8423962407
 20
16.4390295752
 10
25.8660351997
 20
16.4476408702
 10
25.8876494195
 20
16.4586703737
  0
LINE
  5
2B8
330
1F
100
AcDbEntity
  8
0
  6
Continuous
 62
     7
370
    25
100
AcDbLine
 10
26.4937024883
 20
16.2819433198
 30
0.0
 11
26.0805142162
 21
16.0353081973
 31
0.0
  0
SPLINE
  5
2B9
330
1F
100
AcDbEntity
  8
0
  6
Continuous
 62
     7
370
    25
100
AcDbSpline
210
0.0
220
0.0
230
1.0
 70
     8
 71
     3
 72
     8
 73
     4
 74
     0
 42
0.000000001
 43
0.00000001
 40
0.0
 40
0.0
 40
0.0
 40
0.0
 40
1.0
 40
1.0
 40
1.0
 40
1.0
 10
26.08051416793944
 20
16.03530821994428
 30
0.0
 10
26.01903775214501
 20
15.99861249461754
 30
0.0
 10
25.95215336031895
 20
15.9647063615056
 30
0.0
 10
25.88207890040063
 20
15.93471415888723
 30
0.0
  0
SPLINE
  5
2BA
330
1F
100
AcDbEntity
  8
0
  6
Continuous
 62
     7
370
    25
100
AcDbSpline
210
0.0
220
0.0
230
1.0
 70
     8
 71
     3
 72
     8
 73
     4
 74
     0
 42
0.000000001
 43
0.00000001
 40
0.0
 40
0.0
 40
0.0
 40
0.0
 40
1.0
 40
1.0
 40
1.0
 40
1.0
 10
25.65239064387576
 20
15.83640649105966
 30
0.0
 10
25.62124418207878
 20
15.85178187912149
 30
0.0
 10
25.59034821295762
 20
15.86730769963754
 30
0.0
 10
25.55965988822722
 20
15.88295822022786
 30
0.0
  0
LINE
  5
2BB
330
1F
100
AcDbEntity
  8
0
  6
Continuous
 62
     7
370
    25
100
AcDbLine
 10
21.8192028777
 20
17.7905272465
 30
0.0
 11
25.5596597655
 21
15.8829582247
 31
0.0
  0
SPLINE
  5
2BC
330
1F
100
AcDbEntity
  8
0
  6
Continuous
 62
     7
370
    25
100
AcDbSpline
210
0.0
220
0.0
230
1.0
 70
     8
 71
     3
 72
     8
 73
     4
 74
     0
 42
0.000000001
 43
0.00000001
 40
0.0
 40
0.0
 40
0.0
 40
0.0
 40
1.0
 40
1.0
 40
1.0
 40
1.0
 10
21.72780803399295
 20
17.83787648118719
 30
0.0
 10
21.75803520933922
 20
17.8219523642729
 30
0.0
 10
21.78851452437425
 20
17.80617783986442
 30
0.0
 10
21.81920284908126
 20
17.79052731926014
 30
0.0
  0
LWPOLYLINE
  5
2BD
330
1F
100
AcDbEntity
  8
0
  6
Continuous
 62
     7
370
    25
100
AcDbPolyline
 90
        3
 70
   128
 43
0.0
 10
21.8873990775
 20
17.9719325436
 10
21.7980281709
 20
17.8968611319
 10
21.7278079824
 20
17.8378765115
  0
SPLINE
  5
2BE
330
1F
100
AcDbEntity
  8
0
  6
Continuous
 62
     7
370
    25
100
AcDbSpline
210
0.0
220
0.0
230
1.0
 70
     8
 71
     3
 72
    10
 73
     6
 74
     0
 42
0.000000001
 43
0.00000001
 40
0.0
 40
0.0
 40
0.0
 40
0.0
 40
0.5
 40
0.5
 40
1.0
 40
1.0
 40
1.0
 40
1.0
 10
22.05357569182643
 20
18.08897795076713
 30
0.0
 10
22.02284313420587
 20
18.07063346079518
 30
0.0
 10
21.99353846829182
 20
18.05164410371058
 30
0.0
 10
21.93784566161643
 20
18.01241843705708
 30
0.0
 10
21.91174800939205
 20
17.99238551784516
 30
0.0
 10
21.88739910828099
 20
17.97193251274807
 30
0.0
  0
LINE
  5
2BF
330
1F
100
AcDbEntity
  8
0
  6
Continuous
 62
     7
370
    25
100
AcDbLine
 10
22.46676393
 20
18.3356130924
 30
0.0
 11
22.053575658
 21
18.08897797
 31
0.0
  0
SPLINE
  5
2C0
330
1F
100
AcDbEntity
  8
0
  6
Continuous
 62
     7
370
    25
100
AcDbSpline
210
0.0
220
0.0
230
1.0
 70
     8
 71
     3
 72
    16
 73
    12
 74
     0
 42
0.000000001
 43
0.00000001
 40
0.0
 40
0.0
 40
0.0
 40
0.0
 40
0.25
 40
0.25
 40
0.5
 40
0.5
 40
0.75
 40
0.75
 40
0.875
 40
0.875
 40
1.0
 40
1.0
 40
1.0
 40
1.0
 10
22.77816913755854
 20
18.38295354536073
 30
0.0
 10
22.76179091317605
 20
18.39130615960067
 30
0.0
 10
22.74053714848539
 20
18.39676790522106
 30
0.0
 10
22.69165301581073
 20
18.40106785973643
 30
0.0
 10
22.66391399864117
 20
18.39990344462191
 30
0.0
 10
22.60632052980977
 20
18.3911507506794
 30
0.0
 10
22.5763324754727
 20
18.38353427762299
 30
0.0
 10
22.53317949601926
 20
18.36817897188199
 30
0.0
 10
22.51914430568213
 20
18.36242863099314
 30
0.0
 10
22.49187632713716
 20
18.34971269701725
 30
0.0
 10
22.47896087993763
 20
18.34289350227652
 30
0.0
 10
22.46676397481106
 20
18.33561307978304
 30
0.0
  0
LINE
  5
2C1
330
1F
100
AcDbEntity
  8
0
  6
Continuous
 62
     7
370
    25
100
AcDbLine
 10
24.6664773103
 20
17.4199486816
 30
0.0
 11
22.7781691861
 21
18.3829535202
 31
0.0
  0
LINE
  5
2C2
330
1F
100
AcDbEntity
  8
0
  6
Continuous
 62
     7
370
    25
100
AcDbLine
 10
24.6664773103
 20
17.4199486816
 30
0.0
 11
26.5547854344
 21
16.4569438431
 31
0.0
  0
SPLINE
  5
2C3
330
1F
100
AcDbEntity
  8
0
  6
Continuous
 62
     7
370
    25
100
AcDbSpline
210
0.0
220
0.0
230
1.0
 70
     8
 71
     3
 72
    14
 73
    10
 74
     0
 42
0.000000001
 43
0.00000001
 40
0.0
 40
0.0
 40
0.0
 40
0.0
 40
0.25
 40
0.25
 40
0.5
 40
0.5
 40
0.75
 40
0.75
 40
1.0
 40
1.0
 40
1.0
 40
1.0
 10
26.55478547277491
 20
16.45694382393798
 30
0.0
 10
26.57117197243961
 20
16.44858698944567
 30
0.0
 10
26.58269868298751
 20
16.43734298541136
 30
0.0
 10
26.59431242389196
 20
16.41076659555466
 30
0.0
 10
26.59439193096576
 20
16.3954461724941
 30
0.0
 10
26.58308423453622
 20
16.36305006329541
 30
0.0
 10
26.57170147997221
 20
16.34598712319464
 30
0.0
 10
26.53919384048562
 20
16.31270330860795
 30
0.0
 10
26.51808614103703
 20
16.29649815316096
 30
0.0
 10
26.49370245092406
 20
16.28194334896019
 30
0.0
  0
SPLINE
  5
2C4
330
1F
100
AcDbEntity
  8
0
  6
Continuous
 62
     7
370
    25
100
AcDbSpline
210
0.0
220
0.0
230
1.0
 70
     8
 71
     3
 72
     8
 73
     4
 74
     0
 42
0.000000001
 43
0.00000001
 40
0.0
 40
0.0
 40
0.0
 40
0.0
 40
1.0
 40
1.0
 40
1.0
 40
1.0
 10
25.93667846262386
 20
15.82272895909528
 30
0.0
 10
26.01427625413123
 20
15.85594118346859
 30
0.0
 10
26.08834148557479
 20
15.89348754559689
 30
0.0
 10
26.15641813006085
 20
15.93412299603727
 30
0.0
  0
SPLINE
  5
2C5
330
1F
100
AcDbEntity
  8
0
  6
Continuous
 62
     7
370
    25
100
AcDbSpline
210
0.0
220
0.0
230
1.0
 70
     8
 71
     3
 72
    22
 73
    18
 74
     0
 42
0.000000001
 43
0.00000001
 40
0.0
 40
0.0
 40
0.0
 40
0.0
 40
0.125
 40
0.125
 40
0.25
 40
0.25
 40
0.375
 40
0.375
 40
0.5
 40
0.5
 40
0.625
 40
0.625
 40
0.75
 40
0.75
 40
0.875
 40
0.875
 40
1.0
 40
1.0
 40
1.0
 40
1.0
 10
26.08051416793944
 20
16.03530821994428
 30
0.0
 10
26.08185564994495
 20
16.03462408707126
 30
0.0
 10
26.08365287989869
 20
16.0333823308743
 30
0.0
 10
26.08839763667703
 20
16.02932729633469
 30
0.0
 10
26.09135324681965
 20
16.0265024395611
 30
0.0
 10
26.09842353347892
 20
16.01904020186665
 30
0.0
 10
26.1025423632029
 20
16.0143930960709
 30
0.0
 10
26.11148911727036
 20
16.00363448702436
 30
0.0
 10
26.11630749415197
 20
15.9975306416161
 30
0.0
 10
26.12579548941715
 20
15.98488248862773
 30
0.0
 10
26.1304476826487
 20
15.97836140997872
 30
0.0
 10
26.13878667936739
 20
15.96607691936599
 30
0.0
 10
26.14246657322838
 20
15.96032778799468
 30
0.0
 10
26.14851548989873
 20
15.95030122155705
 30
0.0
 10
26.1508908452291
 20
15.94601953316555
 30
0.0
 10
26.15445443409642
 20
15.93899896913354
 30
0.0
 10
26.1556511686741
 20
15.93624956382832
 30
0.0
 10
26.15641813006085
 20
15.93412299603727
 30
0.0
  0
SPLINE
  5
2C6
330
1F
100
AcDbEntity
  8
0
  6
Continuous
 62
     7
370
    25
100
AcDbSpline
210
0.0
220
0.0
230
1.0
 70
     8
 71
     3
 72
     8
 73
     4
 74
     0
 42
0.000000001
 43
0.00000001
 40
0.0
 40
0.0
 40
0.0
 40
0.0
 40
1.0
 40
1.0
 40
1.0
 40
1.0
 10
25.62712457257516
 20
15.69586842258048
 30
0.0
 10
25.62672155868795
 20
15.69548383567695
 30
0.0
 10
25.6263228475733
 20
15.69509420373677
 30
0.0
 10
25.62590859985496
 20
15.69471939055239
 30
0.0
  0
LINE
  5
2C7
330
1F
100
AcDbEntity
  8
0
  6
Continuous
 62
     7
370
    25
100
AcDbLine
 10
26.1564180978
 20
15.9341230081
 30
0.0
 11
26.2821519716
 21
15.5854985479
 31
0.0
  0
ARC
  5
2C8
330
1F
100
AcDbEntity
  8
0
  6
Continuous
 62
     7
370
    25
100
AcDbCircle
 10
25.316923076
 20
17.2111294297
 30
0.0
 40
1.890593183304111
100
AcDbArc
 50
293.0642399657
 51
300.6999977178
  0
SPLINE
  5
2C9
330
1F
100
AcDbEntity
  8
0
  6
Continuous
 62
     7
370
    25
100
AcDbSpline
210
0.0
220
0.0
230
1.0
 70
     8
 71
     3
 72
     8
 73
     4
 74
     0
 42
0.000000001
 43
0.00000001
 40
0.0
 40
0.0
 40
0.0
 40
0.0
 40
1.0
 40
1.0
 40
1.0
 40
1.0
 10
25.65239064387576
 20
15.83640649105966
 30
0.0
 10
25.64781459253993
 20
15.83374783226358
 30
0.0
 10
25.64371376607251
 20
15.82976168564581
 30
0.0
 10
25.64065845298642
 20
15.82500569739076
 30
0.0
  0
ARC
  5
2CA
330
1F
100
AcDbEntity
  8
0
  6
Continuous
 62
     7
370
    25
100
AcDbCircle
 10
25.5774257691
 20
15.8537828911
 30
0.0
 40
0.0341589077165853
100
AcDbArc
 50
121.3388725585
 51
146.2710832201
  0
ARC
  5
2CB
330
1F
100
AcDbEntity
  8
0
  6
Continuous
 62
     7
370
    25
100
AcDbCircle
 10
21.0983324914
 20
18.254499247
 30
0.0
 40
0.8539728447049693
100
AcDbArc
 50
301.3388979929
 51
326.27112088
  0
LINE
  5
2CC
330
1F
100
AcDbEntity
  8
0
  6
Continuous
 62
     7
370
    25
100
AcDbLine
 10
25.549016694
 20
15.8727501109
 30
0.0
 11
21.8085598062
 21
17.7803191328
 31
0.0
  0
LINE
  5
2CD
330
1F
100
AcDbEntity
  8
0
  6
Continuous
 62
     7
370
    25
100
AcDbLine
 10
26.1564180978
 20
15.9341230081
 30
0.0
 11
26.5696063699
 21
16.1807581305
 31
0.0
  0
SPLINE
  5
2CE
330
1F
100
AcDbEntity
  8
0
  6
Continuous
 62
     7
370
    25
100
AcDbSpline
210
0.0
220
0.0
230
1.0
 70
     8
 71
     3
 72
    22
 73
    18
 74
     0
 42
0.000000001
 43
0.00000001
 40
0.0
 40
0.0
 40
0.0
 40
0.0
 40
0.125
 40
0.125
 40
0.25
 40
0.25
 40
0.375
 40
0.375
 40
0.5
 40
0.5
 40
0.625
 40
0.625
 40
0.75
 40
0.75
 40
0.875
 40
0.875
 40
1.0
 40
1.0
 40
1.0
 40
1.0
 10
26.49370245092406
 20
16.28194334896019
 30
0.0
 10
26.49504393292958
 20
16.28125921608717
 30
0.0
 10
26.49684116288334
 20
16.28001745989022
 30
0.0
 10
26.5015859196617
 20
16.27596242535062
 30
0.0
 10
26.50454152980434
 20
16.27313756857704
 30
0.0
 10
26.51161181646362
 20
16.2656753308826
 30
0.0
 10
26.51573064618761
 20
16.26102822508686
 30
0.0
 10
26.52467740025508
 20
16.25026961604033
 30
0.0
 10
26.5294957771367
 20
16.24416577063207
 30
0.0
 10
26.53898377240187
 20
16.23151761764369
 30
0.0
 10
26.54363596563343
 20
16.22499653899468
 30
0.0
 10
26.5519749623521
 20
16.21271204838195
 30
0.0
 10
26.55565485621308
 20
16.20696291701063
 30
0.0
 10
26.56170377288342
 20
16.19693635057299
 30
0.0
 10
26.56407912821377
 20
16.19265466218149
 30
0.0
 10
26.56764271708106
 20
16.18563409814947
 30
0.0
 10
26.56883945165873
 20
16.18288469284424
 30
0.0
 10
26.56960641304547
 20
16.18075812505317
 30
0.0
  0
LINE
  5
2CF
330
1F
100
AcDbEntity
  8
0
  6
Continuous
 62
     7
370
    25
100
AcDbLine
 10
26.5696063699
 20
16.1807581305
 30
0.0
 11
26.6953402436
 21
15.8321336704
 31
0.0
  0
LINE
  5
2D0
330
1F
100
AcDbEntity
  8
0
  6
Continuous
 62
     7
370
    25
100
AcDbLine
 10
26.6953402436
 20
15.8321336704
 30
0.0
 11
26.2821519716
 21
15.5854985479
 31
0.0
  0
ARC
  5
2D1
330
1F
100
AcDbEntity
  8
0
  6
Continuous
 62
     7
370
    25
100
AcDbCircle
 10
21.8369688813
 20
17.7613519129
 30
0.0
 40
0.0341589077165806
100
AcDbArc
 50
121.3388725585
 51
146.2710832201
  0
LWPOLYLINE
  5
2D2
330
1F
100
AcDbEntity
  8
0
  6
Continuous
 62
     7
370
    25
100
AcDbPolyline
 90
       10
 70
   128
 43
0.0
 10
26.8382944099
 20
16.0427747795
 10
26.8432104055
 20
16.0241648013
 10
26.8433272355
 20
16.0016629348
 10
26.8377038421
 20
15.9778964638
 10
26.8264365686
 20
15.9532719739
 10
26.8097181742
 20
15.9282108154
 10
26.7878346569
 20
15.903141815
 10
26.7611606363
 20
15.8784938231
 10
26.7301522663
 20
15.8546887015
 10
26.6953402436
 20
15.8321336704
  0
LWPOLYLINE
  5
2D3
330
1F
100
AcDbEntity
  8
0
  6
Continuous
 62
     7
370
    25
100
AcDbPolyline
 90
        5
 70
   128
 43
0.0
 10
22.440580963
 20
15.8718806454
 10
22.9203318684
 20
15.6272355563
 10
23.2307585205
 20
15.4689366588
 10
23.5411805218
 20
15.3106552774
 10
23.8516153686
 20
15.1523267425
  0
ARC
  5
2D4
330
1F
100
AcDbEntity
  8
0
  6
Continuous
 62
     7
370
    25
100
AcDbCircle
 10
22.4745067952
 20
15.8798704616
 30
0.0
 40
0.0348539704190719
100
AcDbArc
 50
139.4449488298
 51
193.2521491748
  0
LINE
  5
2D5
330
1F
100
AcDbEntity
  8
0
  6
Continuous
 62
     7
370
    25
100
AcDbLine
 10
21.0295149122
 20
16.5915496954
 30
0.0
 11
21.0961062533
 21
16.3494699644
 31
0.0
  0
LWPOLYLINE
  5
2D6
330
1F
100
AcDbEntity
  8
0
  6
Continuous
 62
     7
370
    25
100
AcDbPolyline
 90
        5
 70
   128
 43
0.0
 10
22.440580963
 20
15.8718806454
 10
21.9608176441
 20
16.1165713955
 10
21.6503822712
 20
16.2749015092
 10
21.3399420904
 20
16.4332492191
 10
21.0295149122
 20
16.5915496954
  0
LINE
  5
2D7
330
1F
100
AcDbEntity
  8
0
  6
Continuous
 62
     7
370
    25
100
AcDbLine
 10
21.0961062533
 20
16.3494699644
 30
0.0
 11
23.9182067096
 21
14.9102470115
 31
0.0
  0
LWPOLYLINE
  5
2D8
330
1F
100
AcDbEntity
  8
0
  6
Continuous
 62
     7
370
    25
100
AcDbPolyline
 90
       32
 70
   128
 43
0.0
 10
25.3289415819
 20
16.3997687399
 10
25.3548772948
 20
16.413413604
 10
25.3830691944
 20
16.4248076327
 10
25.4123630951
 20
16.4334845146
 10
25.4415600174
 20
16.4390887791
 10
25.469464197
 20
16.441391235
 10
25.4949334338
 20
16.4402974566
 10
25.5169250861
 20
16.4358522791
 10
25.53453861
 20
16.4282377099
 10
25.5470531664
 20
16.4177654608
 10
25.5539561866
 20
16.4048642564
 10
25.5549651821
 20
16.3900622412
 10
25.5500387217
 20
16.3739655288
 10
25.5393785704
 20
16.3572330421
 10
25.5234213313
 20
16.3405497819
 10
25.5028200575
 20
16.3245988065
 10
25.4784181543
 20
16.3100331308
 10
25.4512147385
 20
16.2974491349
 10
25.4223234861
 20
16.2873620002
 10
25.3929273058
 20
16.2801845677
 10
25.3642296147
 20
16.2762107763
 10
25.33740521
 20
16.2756033837
 10
25.3135523935
 20
16.2783871299
 10
25.2936476342
 20
16.2844481125
 10
25.2785059484
 20
16.2935381399
 10
25.2687471058
 20
16.3052851716
 10
25.2647706891
 20
16.3192081727
 10
25.2667395886
 20
16.3347371777
 10
25.2745728873
 20
16.3512365248
 10
25.2879503715
 20
16.3680305068
 10
25.306323969
 20
16.3844317663
 10
25.3289415819
 20
16.3997687399
  0
LWPOLYLINE
  5
2D9
330
1F
100
AcDbEntity
  8
0
  6
Continuous
 62
     7
370
    25
100
AcDbPolyline
 90
       32
 70
   128
 43
0.0
 10
25.333006167
 20
16.3976958711
 10
25.3115229358
 20
16.3831280273
 10
25.294070811
 20
16.3675493502
 10
25.2813643867
 20
16.3515975372
 10
25.2739238809
 20
16.3359257527
 10
25.2720537075
 20
16.3211755746
 10
25.2758307088
 20
16.3079508386
 10
25.2851001266
 20
16.2967929693
 10
25.2994824356
 20
16.2881587968
 10
25.318388822
 20
16.2824017924
 10
25.3410453968
 20
16.2797576496
 10
25.3665244791
 20
16.2803346068
 10
25.3937830027
 20
16.2841090653
 10
25.4217048576
 20
16.2909265131
 10
25.4491470666
 20
16.3005078687
 10
25.4749862203
 20
16.3124606749
 10
25.4981643047
 20
16.3262958442
 10
25.5177322408
 20
16.3414468642
 10
25.5328893998
 20
16.3572933851
 10
25.543014887
 20
16.373186676
 10
25.5476941984
 20
16.3884761464
 10
25.5467358003
 20
16.4025357663
 10
25.5401789658
 20
16.4147899626
 10
25.5282921176
 20
16.424736981
 10
25.5115619541
 20
16.4319697019
 10
25.4906732143
 20
16.4361919123
 10
25.4664813074
 20
16.4372308409
 10
25.4399766092
 20
16.4350438491
 10
25.4122441337
 20
16.429720622
 10
25.3844192192
 20
16.4214789804
 10
25.3576411919
 20
16.410656354
 10
25.333006167
 20
16.3976958711
  0
SPLINE
  5
2DA
330
1F
100
AcDbEntity
  8
0
  6
Continuous
 62
     7
370
    25
100
AcDbSpline
210
0.0
220
0.0
230
1.0
 70
     8
 71
     3
 72
    14
 73
    10
 74
     0
 42
0.000000001
 43
0.00000001
 40
0.0
 40
0.0
 40
0.0
 40
0.0
 40
0.2499999999999999
 40
0.2499999999999999
 40
0.4999999999999998
 40
0.4999999999999998
 40
0.7499999999999999
 40
0.7499999999999999
 40
1.0
 40
1.0
 40
1.0
 40
1.0
 10
21.03688872425382
 20
16.62212642681
 30
0.0
 10
21.15976397737871
 20
16.55924851913145
 30
0.0
 10
21.28004826737803
 20
16.49804690774522
 30
0.0
 10
21.51819753312603
 20
16.37670231823762
 30
0.0
 10
21.63605073097849
 20
16.31657163278192
 30
0.0
 10
21.86999507190777
 20
16.19726668016724
 30
0.0
 10
21.9860872909285
 20
16.13809067427642
 30
0.0
 10
22.21746435650523
 20
16.02011870072761
 30
0.0
 10
22.33274888960721
 20
15.96132313275483
 30
0.0
 10
22.4480253024534
 20
15.90253170702106
 30
0.0
  0
SPLINE
  5
2DB
330
1F
100
AcDbEntity
  8
0
  6
Continuous
 62
     7
370
    25
100
AcDbSpline
210
0.0
220
0.0
230
1.0
 70
     8
 71
     3
 72
    25
 73
    21
 74
     0
 42
0.000000001
 43
0.00000001
 40
0.0
 40
0.0
 40
0.0
 40
0.0
 40
0.0153219942626922
 40
0.0315095237487281
 40
0.0485742606601385
 40
0.0665288000478049
 40
0.0853872019948269
 40
0.1051657062199381
 40
0.125881551279225
 40
0.172561798542506
 40
0.2506914632192208
 40
0.3701088548317483
 40
0.5005869911952312
 40
0.6112303894927209
 40
0.7497199510180633
 40
0.8331511592678659
 40
0.8747091800632961
 40
0.9172556040589803
 40
0.9590176915498531
 40
1.0
 40
1.0
 40
1.0
 40
1.0
 10
20.98029593563824
 20
17.06988495370142
 30
0.0
 10
20.97712296049287
 20
17.06710642201205
 30
0.0
 10
20.97059776971266
 20
17.06139240014573
 30
0.0
 10
20.96090152958019
 20
17.0525211293196
 30
0.0
 10
20.95099408854581
 20
17.04312392432433
 30
0.0
 10
20.9409631041425
 20
17.03318733821547
 30
0.0
 10
20.93087063004968
 20
17.02270525874834
 30
0.0
 10
20.92079877748043
 20
17.01167187862698
 30
0.0
 10
20.90682564867479
 20
16.99541978397533
 30
0.0
 10
20.88588649879403
 20
16.96823779943317
 30
0.0
 10
20.85864769023107
 20
16.92279359579402
 30
0.0
 10
20.84051751450577
 20
16.86372787481018
 30
0.0
 10
20.84570575616626
 20
16.80457751976327
 30
0.0
 10
20.87183767648516
 20
16.74928272322182
 30
0.0
 10
20.9093742848234
 20
16.70674752438896
 30
0.0
 10
20.94661015600829
 20
16.6767312418147
 30
0.0
 10
20.97259426007508
 20
16.65884570442239
 30
0.0
 10
20.99317130203042
 20
16.64596173160802
 30
0.0
 10
21.01460521448162
 20
16.6336523600063
 30
0.0
 10
21.02950770109209
 20
16.62594419074181
 30
0.0
 10
21.03688872425382
 20
16.62212642681
 30
0.0
  0
SPLINE
  5
2DC
330
1F
100
AcDbEntity
  8
0
  6
Continuous
 62
     7
370
    25
100
AcDbSpline
210
0.0
220
0.0
230
1.0
 70
     8
 71
     3
 72
     9
 73
     5
 74
     0
 42
0.000000001
 43
0.00000001
 40
0.0
 40
0.0
 40
0.0
 40
0.0
 40
0.4977583364234482
 40
1.0
 40
1.0
 40
1.0
 40
1.0
 10
20.9895506413235
 20
17.07780583792623
 30
0.0
 10
20.98801218302113
 20
17.07650251058885
 30
0.0
 10
20.98492140946739
 20
17.07388411679813
 30
0.0
 10
20.98184236170744
 20
17.07122198646739
 30
0.0
 10
20.98029593563824
 20
17.06988495370142
 30
0.0
  0
SPLINE
  5
2DD
330
1F
100
AcDbEntity
  8
0
  6
Continuous
 62
     7
370
    25
100
AcDbSpline
210
0.0
220
0.0
230
1.0
 70
     8
 71
     3
 72
    10
 73
     6
 74
     0
 42
0.000000001
 43
0.00000001
 40
0.0
 40
0.0
 40
0.0
 40
0.0
 40
0.5
 40
0.5
 40
1.0
 40
1.0
 40
1.0
 40
1.0
 10
21.39619919773215
 20
17.42041021867125
 30
0.0
 10
21.3297356451696
 20
17.36439572376783
 30
0.0
 10
21.26306717123648
 20
17.30821080769337
 30
0.0
 10
21.12820632757667
 20
17.19455267840305
 30
0.0
 10
21.05994954636216
 20
17.13703343654545
 30
0.0
 10
20.9895506413235
 20
17.07780583792623
 30
0.0
  0
SPLINE
  5
2DE
330
1F
100
AcDbEntity
  8
0
  6
Continuous
 62
     7
370
    25
100
AcDbSpline
210
0.0
220
0.0
230
1.0
 70
     8
 71
     3
 72
    27
 73
    23
 74
     0
 42
0.000000001
 43
0.00000001
 40
0.0
 40
0.0
 40
0.0
 40
0.0
 40
0.0374682071986304
 40
0.0636100015830615
 40
0.0710084433866069
 40
0.0763421052095951
 40
0.0822799356100245
 40
0.0857685122563006
 40
0.0890837551999422
 40
0.094783449373957
 40
0.106673095633008
 40
0.1264006563417416
 40
0.165521792531832
 40
0.1896664496167425
 40
0.2213446896742641
 40
0.2523239941771007
 40
0.3650715721970451
 40
0.5026123510656899
 40
0.6332539478035153
 40
0.7873103972844668
 40
0.8884362086830513
 40
1.0
 40
1.0
 40
1.0
 40
1.0
 10
21.54248287513422
 20
17.52511598996368
 30
0.0
 10
21.54416604880702
 20
17.52673857207574
 30
0.0
 10
21.54702358291384
 20
17.52949323952404
 30
0.0
 10
21.55003632974219
 20
17.53256797913009
 30
0.0
 10
21.55152865481553
 20
17.53423119631179
 30
0.0
 10
21.55216414735456
 20
17.53502389201116
 30
0.0
 10
21.55257756733814
 20
17.53561609893316
 30
0.0
 10
21.55254439238301
 20
17.5360770373038
 30
0.0
 10
21.55151942336305
 20
17.53576198740237
 30
0.0
 10
21.5500806161635
 20
17.53495075761997
 30
0.0
 10
21.5475665850845
 20
17.53340319702662
 30
0.0
 10
21.54298081420872
 20
17.53036127549408
 30
0.0
 10
21.5376035629164
 20
17.52669487750453
 30
0.0
 10
21.53143977756437
 20
17.52241961444021
 30
0.0
 10
21.52573535907977
 20
17.51847536311933
 30
0.0
 10
21.51418635871342
 20
17.51044960037749
 30
0.0
 10
21.49583166152496
 20
17.49756846394608
 30
0.0
 10
21.47317748399722
 20
17.48097525897056
 30
0.0
 10
21.44992111387823
 20
17.46326476441407
 30
0.0
 10
21.42992505310465
 20
17.4475507736596
 30
0.0
 10
21.41169242143382
 20
17.43296492763992
 30
0.0
 10
21.40152985211446
 20
17.42472983708452
 30
0.0
 10
21.39619919773215
 20
17.42041021867125
 30
0.0
  0
ARC
  5
2DF
330
1F
100
AcDbEntity
  8
0
  6
Continuous
 62
     7
370
    25
100
AcDbCircle
 10
21.0634248466
 20
16.599549587
 30
0.0
 40
0.0348408082666041
100
AcDbArc
 50
139.6088210945
 51
193.2742701826
  0
LINE
  5
2E0
330
1F
100
AcDbEntity
  8
0
  6
Continuous
 62
     7
370
    25
100
AcDbLine
 10
22.9111089871
 20
16.4233871362
 30
0.0
 11
23.019026701
 21
16.1062774645
 31
0.0
  0
ARC
  5
2E1
330
1F
100
AcDbEntity
  8
0
  6
Continuous
 62
     7
370
    25
100
AcDbCircle
 10
22.9960971072
 20
16.1853345904
 30
0.0
 40
0.0823152198957039
100
AcDbArc
 50
249.3395865238
 51
286.1741828166
  0
LINE
  5
2E2
330
1F
100
AcDbEntity
  8
0
  6
Continuous
 62
     7
370
    25
100
AcDbLine
 10
22.967053956
 20
16.1083132246
 30
0.0
 11
22.8516334749
 21
16.4257167547
 31
0.0
  0
LINE
  5
2E3
330
1F
100
AcDbEntity
  8
0
  6
Continuous
 62
     7
370
    25
100
AcDbLine
 10
22.822817068
 20
16.1818715699
 30
0.0
 11
22.967053956
 21
16.1083132246
 31
0.0
  0
LINE
  5
2E4
330
1F
100
AcDbEntity
  8
0
  6
Continuous
 62
     7
370
    25
100
AcDbLine
 10
22.7073965869
 20
16.4992751
 30
0.0
 11
22.822817068
 21
16.1818715699
 31
0.0
  0
LWPOLYLINE
  5
2E5
330
1F
100
AcDbEntity
  8
0
  6
Continuous
 62
     7
370
    25
100
AcDbPolyline
 90
        3
 70
   128
 43
0.0
 10
20.9779675928
 20
17.0677780344
 10
20.978694992
 20
17.0685973677
 10
20.9802960665
 20
17.0698850108
  0
SPLINE
  5
2E6
330
1F
100
AcDbEntity
  8
0
  6
Continuous
 62
     7
370
    25
100
AcDbSpline
210
0.0
220
0.0
230
1.0
 70
     8
 71
     3
 72
    12
 73
     8
 74
     0
 42
0.000000001
 43
0.00000001
 40
0.0
 40
0.0
 40
0.0
 40
0.0
 40
0.1113089739594676
 40
0.3030261280162523
 40
0.5130791220427208
 40
0.7444478854305453
 40
0.9999999999999999
 40
0.9999999999999999
 40
0.9999999999999999
 40
0.9999999999999999
 10
20.90382897380887
 20
16.5382116347569
 30
0.0
 10
20.90616698678603
 20
16.52924837323577
 30
0.0
 10
20.91253196343184
 20
16.50484690463421
 30
0.0
 10
20.93662382162875
 20
16.4681378085087
 30
0.0
 10
20.97529930616935
 20
16.42687136601985
 30
0.0
 10
21.02840125357332
 20
16.38638806018574
 30
0.0
 10
21.07280283884374
 20
16.36217682046943
 30
0.0
 10
21.0961062532582
 20
16.34946996441552
 30
0.0
  0
LWPOLYLINE
  5
2E7
330
1F
100
AcDbEntity
  8
0
  6
Continuous
 62
     7
370
    25
100
AcDbPolyline
 90
       32
 70
   128
 43
0.0
 10
22.5447383881
 20
17.8196647372
 10
22.5673560595
 20
17.8350017457
 10
22.5857295985
 20
17.8514029703
 10
22.5991070827
 20
17.8681969523
 10
22.6069403814
 20
17.8846962994
 10
22.608909281
 20
17.9002253045
 10
22.6049328643
 20
17.9141483055
 10
22.5951740217
 20
17.9258953372
 10
22.5800323358
 20
17.9349853647
 10
22.560127635
 20
17.9410463821
 10
22.5362748185
 20
17.9438301283
 10
22.5094503553
 20
17.9432227008
 10
22.4807526642
 20
17.9392489095
 10
22.451356484
 20
17.932071477
 10
22.4224652315
 20
17.9219843423
 10
22.3952618158
 20
17.9094003464
 10
22.3708599126
 20
17.8948346706
 10
22.3502586387
 20
17.8788836953
 10
22.3343013996
 20
17.8622004351
 10
22.3236412483
 20
17.8454679483
 10
22.3187147879
 20
17.829371236
 10
22.3197238419
 20
17.8145692556
 10
22.3266268621
 20
17.8016680512
 10
22.3391413601
 20
17.7911957672
 10
22.3567548839
 20
17.7835811981
 10
22.3787465362
 20
17.7791360206
 10
22.404215773
 20
17.7780422421
 10
22.4321199526
 20
17.780344698
 10
22.461316875
 20
17.7859489626
 10
22.4906107757
 20
17.7946258444
 10
22.5188027337
 20
17.806019908
 10
22.5447383881
 20
17.8196647372
  0
LINE
  5
2E8
330
1F
100
AcDbEntity
  8
0
  6
Continuous
 62
     7
370
    25
100
AcDbLine
 10
22.3163245168
 20
17.713080432
 30
0.0
 11
22.3166680407
 21
17.7117088077
 31
0.0
  0
LWPOLYLINE
  5
2E9
330
1F
100
AcDbEntity
  8
0
  6
Continuous
 62
     7
370
    25
100
AcDbPolyline
 90
       32
 70
   128
 43
0.0
 10
22.540673803
 20
17.8217376061
 10
22.5160387782
 20
17.8087771231
 10
22.4892607508
 20
17.7979544968
 10
22.4614358364
 20
17.7897128551
 10
22.4337033608
 20
17.784389628
 10
22.4071986626
 20
17.7822026362
 10
22.3830067557
 20
17.7832415648
 10
22.3621180744
 20
17.7874638101
 10
22.3453878525
 20
17.7946964961
 10
22.3335010043
 20
17.8046435146
 10
22.3269441697
 20
17.8168977109
 10
22.3259857717
 20
17.8309573307
 10
22.330665083
 20
17.8462468011
 10
22.3407905702
 20
17.862140092
 10
22.3559477293
 20
17.8779866129
 10
22.3755156653
 20
17.8931376329
 10
22.3986937497
 20
17.9069728022
 10
22.4245329035
 20
17.9189256085
 10
22.4519751125
 20
17.9285069641
 10
22.4798969673
 20
17.9353244119
 10
22.5071554909
 20
17.9390988703
 10
22.5326345732
 20
17.9396758275
 10
22.5552911481
 20
17.9370316848
 10
22.5741975345
 20
17.9312746804
 10
22.5885799019
 20
17.9226405428
 10
22.5978492612
 20
17.9114826386
 10
22.6016262625
 20
17.8982579025
 10
22.5997560891
 20
17.8835077245
 10
22.5923155833
 20
17.8678359399
 10
22.579609159
 20
17.851884127
 10
22.5621570343
 20
17.8363054498
 10
22.540673803
 20
17.8217376061
  0
SPLINE
  5
2EA
330
1F
100
AcDbEntity
  8
0
  6
Continuous
 62
     7
370
    25
100
AcDbSpline
210
0.0
220
0.0
230
1.0
 70
     8
 71
     3
 72
    19
 73
    15
 74
     0
 42
0.000000001
 43
0.00000001
 40
0.0
 40
0.0
 40
0.0
 40
0.0
 40
0.0569144505591893
 40
0.1252302036076078
 40
0.1877816273399502
 40
0.2502385733016267
 40
0.3750565427604733
 40
0.4992717924178803
 40
0.6226458736170833
 40
0.7494181056579988
 40
0.8104830866372736
 40
0.8727216249503361
 40
0.9359537472483939
 40
1.0
 40
1.0
 40
1.0
 40
1.0
 10
21.63094993286344
 20
17.73977424265064
 30
0.0
 10
21.62712064840975
 20
17.73275946971998
 30
0.0
 10
21.61869498380094
 20
17.71732469992538
 30
0.0
 10
21.60581834464908
 20
17.69445308320377
 30
0.0
 10
21.59231493712842
 20
17.6711310933537
 30
0.0
 10
21.57460150176965
 20
17.64132980985524
 30
0.0
 10
21.55201583100725
 20
17.6049159335982
 30
0.0
 10
21.52375572362564
 20
17.56298175684414
 30
0.0
 10
21.49411450863061
 20
17.52293536276897
 30
0.0
 10
21.46826989207404
 20
17.491778626586
 30
0.0
 10
21.44683629895698
 20
17.46829270399891
 30
0.0
 10
21.43051532735038
 20
17.45160050936077
 30
0.0
 10
21.4136289661891
 20
17.43545939080359
 30
0.0
 10
21.40203386806765
 20
17.42544792517404
 30
0.0
 10
21.39619923524274
 20
17.42041017341241
 30
0.0
  0
SPLINE
  5
2EB
330
1F
100
AcDbEntity
  8
0
  6
Continuous
 62
     7
370
    25
100
AcDbSpline
210
0.0
220
0.0
230
1.0
 70
     8
 71
     3
 72
    23
 73
    19
 74
     0
 42
0.000000001
 43
0.00000001
 40
0.0
 40
0.0
 40
0.0
 40
0.0
 40
0.0123966691390649
 40
0.0281658648882272
 40
0.0474242215180833
 40
0.0701915791374373
 40
0.0964409072249987
 40
0.1261217889530585
 40
0.1775060401053427
 40
0.2514448115980078
 40
0.3221730075976005
 40
0.3760492689825093
 40
0.5009848274899444
 40
0.7503287300027598
 40
0.8745774171308542
 40
0.9369462847672823
 40
0.9741409156470895
 40
0.9999999999999999
 40
0.9999999999999999
 40
0.9999999999999999
 40
0.9999999999999999
 10
21.71654897358528
 20
17.82623440047828
 30
0.0
 10
21.71617206508861
 20
17.8261605439078
 30
0.0
 10
21.71531570975048
 20
17.82599273801074
 30
0.0
 10
21.71380642037971
 20
17.82536097294414
 30
0.0
 10
21.71196729868819
 20
17.82444743739853
 30
0.0
 10
21.70979169413187
 20
17.82319123971203
 30
0.0
 10
21.70729525444938
 20
17.8215992669121
 30
0.0
 10
21.7039108396565
 20
17.81925488497414
 30
0.0
 10
21.69907399553336
 20
17.81556978647074
 30
0.0
 10
21.69304427973364
 20
17.81055708088733
 30
0.0
 10
21.68704239884226
 20
17.80516515093396
 30
0.0
 10
21.67960907455591
 20
17.79811733426498
 30
0.0
 10
21.66711629339161
 20
17.78545575264361
 30
0.0
 10
21.65315560684406
 20
17.76967311621799
 30
0.0
 10
21.64165280847622
 20
17.7550865149442
 30
0.0
 10
21.63602923084696
 20
17.74736112657683
 30
0.0
 10
21.63298140871785
 20
17.74295786745157
 30
0.0
 10
21.63154076012031
 20
17.74070015683463
 30
0.0
 10
21.63094993286343
 20
17.73977424265064
 30
0.0
  0
SPLINE
  5
2EC
330
1F
100
AcDbEntity
  8
0
  6
Continuous
 62
     7
370
    25
100
AcDbSpline
210
0.0
220
0.0
230
1.0
 70
     8
 71
     3
 72
     9
 73
     5
 74
     0
 42
0.000000001
 43
0.00000001
 40
0.0
 40
0.0
 40
0.0
 40
0.0
 40
0.4765329974763752
 40
1.0
 40
1.0
 40
1.0
 40
1.0
 10
21.80855977316023
 20
17.78031919121027
 30
0.0
 10
21.79396348756931
 20
17.7877267529212
 30
0.0
 10
21.76333331994563
 20
17.80327145129499
 30
0.0
 10
21.73262418986086
 20
17.81834427475966
 30
0.0
 10
21.71654897358528
 20
17.82623440047828
 30
0.0
  0
SPLINE
  5
2ED
330
1F
100
AcDbEntity
  8
0
  6
Continuous
 62
     7
370
    25
100
AcDbSpline
210
0.0
220
0.0
230
1.0
 70
     8
 71
     3
 72
     8
 73
     4
 74
     0
 42
0.000000001
 43
0.00000001
 40
0.0
 40
0.0
 40
0.0
 40
0.0
 40
1.0
 40
1.0
 40
1.0
 40
1.0
 10
21.72780803399295
 20
17.83787648118719
 30
0.0
 10
21.72344371055357
 20
17.83518555662443
 30
0.0
 10
21.71938659473959
 20
17.83100106400767
 30
0.0
 10
21.71654897939581
 20
17.82623439651233
 30
0.0
  0
LINE
  5
2EE
330
1F
100
AcDbEntity
  8
0
  6
Continuous
 62
     7
370
    25
100
AcDbLine
 10
21.6965490454
 20
17.8212914693
 30
0.0
 11
21.7022292069
 21
17.8261620314
 31
0.0
  0
SPLINE
  5
2EF
330
1F
100
AcDbEntity
  8
0
  6
Continuous
 62
     7
370
    25
100
AcDbSpline
210
0.0
220
0.0
230
1.0
 70
     8
 71
     3
 72
     8
 73
     4
 74
     0
 42
0.000000001
 43
0.00000001
 40
0.0
 40
0.0
 40
0.0
 40
0.0
 40
1.0
 40
1.0
 40
1.0
 40
1.0
 10
21.72404623653751
 20
17.83805297471822
 30
0.0
 10
21.72541645461293
 20
17.83813650797522
 30
0.0
 10
21.7266689318948
 20
17.8380636304839
 30
0.0
 10
21.72780803399293
 20
17.83787648118719
 30
0.0
  0
SPLINE
  5
2F0
330
1F
100
AcDbEntity
  8
0
  6
Continuous
 62
     7
370
    25
100
AcDbSpline
210
0.0
220
0.0
230
1.0
 70
     8
 71
     3
 72
     8
 73
     4
 74
     0
 42
0.000000001
 43
0.00000001
 40
0.0
 40
0.0
 40
0.0
 40
0.0
 40
1.0
 40
1.0
 40
1.0
 40
1.0
 10
21.72404623653754
 20
17.83805297471822
 30
0.0
 10
21.72076606388786
 20
17.83516271364078
 30
0.0
 10
21.71817376623202
 20
17.8310538682177
 30
0.0
 10
21.71654898176616
 20
17.82623439489474
 30
0.0
  0
LWPOLYLINE
  5
2F1
330
1F
100
AcDbEntity
  8
0
  6
Continuous
 62
     8
370
    25
100
AcDbPolyline
 90
       24
 70
   128
 43
0.0
 10
22.6624394243
 20
17.8508141094
 10
22.6756489629
 20
17.8414505074
 10
22.686589572
 20
17.8278406292
 10
22.6918157781
 20
17.81206286
 10
22.6911687908
 20
17.79459656
 10
22.6846680756
 20
17.7759725295
 10
22.6725113753
 20
17.7567564989
 10
22.65506806
 20
17.7375324615
 10
22.6328679277
 20
17.7188845103
 10
22.6065858145
 20
17.7013791279
 10
22.5770199734
 20
17.6855484551
 10
22.5450690483
 20
17.6718732414
 10
22.5117036012
 20
17.6607691542
 10
22.4779375197
 20
17.6525735383
 10
22.4447969355
 20
17.6475353852
 10
22.4132885175
 20
17.6458078869
 10
22.3843698209
 20
17.647443434
 10
22.3589194539
 20
17.6523923309
 10
22.3377108641
 20
17.6605041943
 10
22.3213881564
 20
17.6715326506
 10
22.3104475474
 20
17.6851425289
 10
22.3052213413
 20
17.700920298
 10
22.3058684857
 20
17.7183865179
 10
22.3107850771
 20
17.7336242123
  0
LWPOLYLINE
  5
2F2
330
1F
100
AcDbEntity
  8
0
  6
Continuous
 62
     8
370
    25
100
AcDbPolyline
 90
       10
 70
   128
 43
0.0
 10
25.5528821517
 20
16.1988184005
 10
25.5791644221
 20
16.2163237028
 10
25.6013645543
 20
16.234971654
 10
25.6188078696
 20
16.2541956914
 10
25.6309645699
 20
16.273411722
 10
25.637465128
 20
16.2920358326
 10
25.6381122724
 20
16.3095020525
 10
25.6328860663
 20
16.3252798216
 10
25.6219454573
 20
16.3388896999
 10
25.6087357615
 20
16.348253382
  0
LWPOLYLINE
  5
2F3
330
1F
100
AcDbEntity
  8
0
  6
Continuous
 62
     8
370
    25
100
AcDbPolyline
 90
       15
 70
   128
 43
0.0
 10
25.2570815715
 20
16.2310634048
 10
25.2521648229
 20
16.2158257905
 10
25.2515178356
 20
16.1983594905
 10
25.2567440417
 20
16.1825817213
 10
25.2676846507
 20
16.1689718431
 10
25.2840072013
 20
16.1579434669
 10
25.3052159482
 20
16.1498315234
 10
25.3306663152
 20
16.1448826265
 10
25.3595850118
 20
16.1432470794
 10
25.3910932727
 20
16.1449746578
 10
25.424234014
 20
16.1500127308
 10
25.4580000955
 20
16.1582083467
 10
25.4913655427
 20
16.1693124339
 10
25.5233164678
 20
16.1829876476
 10
25.5528821517
 20
16.1988184005
  0
SPLINE
  5
2F4
330
1F
100
AcDbEntity
  8
0
  6
Continuous
 62
     8
370
    25
100
AcDbSpline
210
0.0
220
0.0
230
1.0
 70
     8
 71
     3
 72
    13
 73
     9
 74
     0
 42
0.000000001
 43
0.00000001
 40
0.0
 40
0.0
 40
0.0
 40
0.0
 40
0.1677855720830566
 40
0.335571239893081
 40
0.5033567188103033
 40
0.671142325045918
 40
0.8389278673681465
 40
1.0
 40
1.0
 40
1.0
 40
1.0
 10
26.56960636986234
 20
16.18075813054957
 30
0.0
 10
26.58609144073192
 20
16.19132287220947
 30
0.0
 10
26.61906159187633
 20
16.21245236155681
 30
0.0
 10
26.65802403095799
 20
16.2472959186216
 30
0.0
 10
26.68737910213348
 20
16.28280720815529
 30
0.0
 10
26.70506234368904
 20
16.31782413221513
 30
0.0
 10
26.71166602439805
 20
16.35088643014769
 30
0.0
 10
26.70595162755523
 20
16.37000837678922
 30
0.0
 10
26.70315275693041
 20
16.37937416922831
 30
0.0
  0
SPLINE
  5
2F5
330
1F
100
AcDbEntity
  8
0
  6
Continuous
 62
     8
370
    25
100
AcDbSpline
210
0.0
220
0.0
230
1.0
 70
     8
 71
     3
 72
    12
 73
     8
 74
     0
 42
0.000000001
 43
0.00000001
 40
0.0
 40
0.0
 40
0.0
 40
0.0
 40
0.0765944645876588
 40
0.1877563021616087
 40
0.3379034051705184
 40
0.7953491345212825
 40
1.0
 40
1.0
 40
1.0
 40
1.0
 10
26.5547854344377
 20
16.45694384308561
 30
0.0
 10
26.55690300126736
 20
16.45793242103879
 30
0.0
 10
26.56209380088529
 20
16.46035572593279
 30
0.0
 10
26.57174573061863
 20
16.46165298206994
 30
0.0
 10
26.59170825298296
 20
16.46163671715306
 30
0.0
 10
26.61352999503025
 20
16.45676004454353
 30
0.0
 10
26.62938581704958
 20
16.44885635093875
 30
0.0
 10
26.63428677519446
 20
16.4464133573494
 30
0.0
  0
SPLINE
  5
2F6
330
1F
100
AcDbEntity
  8
0
  6
Continuous
 62
     8
370
    25
100
AcDbSpline
210
0.0
220
0.0
230
1.0
 70
     8
 71
     3
 72
    12
 73
     8
 74
     0
 42
0.000000001
 43
0.00000001
 40
0.0
 40
0.0
 40
0.0
 40
0.0
 40
0.4365326795224082
 40
0.6569411344786992
 40
0.8310948474848823
 40
0.9301366257193512
 40
1.0
 40
1.0
 40
1.0
 40
1.0
 10
24.74591798104285
 20
17.40927095236152
 30
0.0
 10
24.73523424027158
 20
17.41412667418228
 30
0.0
 10
24.71915620279124
 20
17.42143408448917
 30
0.0
 10
24.69660079712045
 20
17.42471322204261
 30
0.0
 10
24.68286068599033
 20
17.42466786219153
 30
0.0
 10
24.67306345920748
 20
17.4230905947113
 30
0.0
 10
24.66840440926887
 20
17.42086800150173
 30
0.0
 10
24.66647731027393
 20
17.41994868164108
 30
0.0
  0
LWPOLYLINE
  5
2F7
330
1F
100
AcDbEntity
  8
0
  6
Continuous
 62
     8
370
    25
100
AcDbPolyline
 90
        8
 70
   128
 43
0.0
 10
25.5160032455
 20
16.2838193283
 10
25.5410699525
 20
16.3006242717
 10
25.5619535492
 20
16.3185549017
 10
25.577943357
 20
16.3370003818
 10
25.588494474
 20
16.355332818
 10
25.5932477842
 20
16.3729277239
 10
25.59204148
 20
16.3891860315
 10
25.5906115178
 20
16.3934849814
  0
LWPOLYLINE
  5
2F8
330
1F
100
AcDbEntity
  8
0
  6
Continuous
 62
     8
370
    25
100
AcDbPolyline
 90
       12
 70
   128
 43
0.0
 10
25.2446225142
 20
16.2775083831
 10
25.2515618802
 20
16.2638006187
 10
25.2643630039
 20
16.251812128
 10
25.2824040292
 20
16.2426115138
 10
25.3050707193
 20
16.2365120262
 10
25.3315913249
 20
16.2337214158
 10
25.3610625463
 20
16.2343346455
 10
25.3924809252
 20
16.2383308872
 10
25.4247765002
 20
16.2455739571
 10
25.4568492866
 20
16.2558173933
 10
25.4876074978
 20
16.2687121388
 10
25.5160032455
 20
16.2838193283
  0
LWPOLYLINE
  5
2F9
330
1F
100
AcDbEntity
  8
0
  6
Continuous
 62
     8
370
    25
100
AcDbPolyline
 90
       13
 70
   128
 43
0.0
 10
25.540897455
 20
16.214794938
 10
25.5127083703
 20
16.1997483184
 10
25.4822099314
 20
16.1868251366
 10
25.450382292
 20
16.1764406979
 10
25.4182484058
 20
16.1689288881
 10
25.3868411328
 20
16.1645310617
 10
25.3571697713
 20
16.1633885877
 10
25.3301882919
 20
16.1655381501
 10
25.3067636031
 20
16.170910721
 10
25.2876487466
 20
16.1793336485
 10
25.273457965
 20
16.1905361247
 10
25.2646475577
 20
16.2041581084
 10
25.262964535
 20
16.2091480002
  0
LWPOLYLINE
  5
2FA
330
1F
100
AcDbEntity
  8
0
  6
Continuous
 62
     8
370
    25
100
AcDbPolyline
 90
        8
 70
   128
 43
0.0
 10
25.6171756802
 20
16.3271900898
 10
25.6193535333
 20
16.319888006
 10
25.619619399
 20
16.3034781231
 10
25.6141394909
 20
16.2858577194
 10
25.6030901583
 20
16.2675931479
 10
25.5868263267
 20
16.2492714335
 10
25.5658709496
 20
16.2314814535
 10
25.540897455
 20
16.214794938
  0
LWPOLYLINE
  5
2FB
330
1F
100
AcDbEntity
  8
0
  6
Continuous
 62
     8
370
    25
100
AcDbPolyline
 90
       16
 70
   128
 43
0.0
 10
25.311977208
 20
16.296827371
 10
25.310445498
 20
16.302687485
 10
25.3116552358
 20
16.3158332387
 10
25.3186112549
 20
16.329940922
 10
25.3309381047
 20
16.3442500253
 10
25.3479714341
 20
16.3579891733
 10
25.3687928958
 20
16.3704176572
 10
25.3922799741
 20
16.3808654389
 10
25.4171666025
 20
16.3887693347
 10
25.4421109486
 20
16.3937032143
 10
25.465768593
 20
16.3954009843
 10
25.4868637339
 20
16.3937712617
 10
25.5042592311
 20
16.3889019631
 10
25.5170174626
 20
16.3810554085
 10
25.5244505797
 20
16.3706546629
 10
25.5254836841
 20
16.3674850465
  0
ARC
  5
2FC
330
1F
100
AcDbEntity
  8
0
  6
Continuous
 62
     8
370
    25
100
AcDbCircle
 10
25.4897352284
 20
16.1191601504
 30
0.0
 40
0.2060641584990285
100
AcDbArc
 50
90.7840963168
 51
126.1626066388
  0
LINE
  5
2FD
330
1F
100
AcDbEntity
  8
0
  6
Continuous
 62
     8
370
    25
100
AcDbLine
 10
23.3379040071
 20
16.1777271023
 30
0.0
 11
23.3593112916
 21
16.1188575239
 31
0.0
  0
LINE
  5
2FE
330
1F
100
AcDbEntity
  8
0
  6
Continuous
 62
     8
370
    25
100
AcDbLine
 10
23.2694531487
 20
16.0428758892
 30
0.0
 11
23.1936671192
 21
16.2512854476
 31
0.0
  0
LINE
  5
2FF
330
1F
100
AcDbEntity
  8
0
  6
Continuous
 62
     8
370
    25
100
AcDbLine
 10
22.6433633501
 20
16.1069288483
 30
0.0
 11
22.6030417251
 21
16.2394995188
 31
0.0
  0
ARC
  5
300
330
1F
100
AcDbEntity
  8
0
  6
Continuous
 62
     8
370
    25
100
AcDbCircle
 10
23.1307265855
 20
15.6928701743
 30
0.0
 40
0.4282317734567739
100
AcDbArc
 50
75.348202048
 51
105.1198979402
  0
LWPOLYLINE
  5
301
330
1F
100
AcDbEntity
  8
0
  6
Continuous
 62
     8
370
    25
100
AcDbPolyline
 90
        7
 70
   128
 43
0.0
 10
23.019026701
 20
16.1062774645
 10
23.0198453002
 20
16.1040568174
 10
23.0206593036
 20
16.1022122672
 10
23.021438514
 20
16.100812372
 10
23.022154001
 20
16.0999091885
 10
23.0227789882
 20
16.0995361767
 10
23.0229901111
 20
16.0995374914
  0
ARC
  5
302
330
1F
100
AcDbEntity
  8
0
  6
Continuous
 62
     8
370
    25
100
AcDbCircle
 10
22.7457288742
 20
15.9513988587
 30
0.0
 40
0.24302316810693
100
AcDbArc
 50
71.5060135282
 51
117.3797675017
  0
ARC
  5
303
330
1F
100
AcDbEntity
  8
0
  6
Continuous
 62
     8
370
    25
100
AcDbCircle
 10
22.9769303549
 20
16.1116388903
 30
0.0
 40
0.0104212911129813
100
AcDbArc
 50
198.6098498716
 51
242.3236285598
  0
ARC
  5
304
330
1F
100
AcDbEntity
  8
0
  6
Continuous
 62
     8
370
    25
100
AcDbCircle
 10
22.8326946425
 20
16.1851980011
 30
0.0
 40
0.0104226494473457
100
AcDbArc
 50
198.6117754075
 51
242.2752695469
  0
SPLINE
  5
305
330
1F
100
AcDbEntity
  8
0
  6
Continuous
 62
     8
370
    25
100
AcDbSpline
210
0.0
220
0.0
230
1.0
 70
     8
 71
     3
 72
    12
 73
     8
 74
     0
 42
0.000000001
 43
0.00000001
 40
0.0
 40
0.0
 40
0.0
 40
0.0
 40
0.0765970935565258
 40
0.1877627465629843
 40
0.337915003104351
 40
0.7953764334667646
 40
0.9999999999999999
 40
0.9999999999999999
 40
0.9999999999999999
 40
0.9999999999999999
 10
22.77816918611015
 20
18.38295352019655
 30
0.0
 10
22.78028675291938
 20
18.38394209810811
 30
0.0
 10
22.78547755248723
 20
18.38636540290008
 30
0.0
 10
22.79512948279322
 20
18.38766266020392
 30
0.0
 10
22.8150919997476
 20
18.38764638426512
 30
0.0
 10
22.83691287038599
 20
18.38277002099095
 30
0.0
 10
22.85276788298779
 20
18.3748667622117
 30
0.0
 10
22.85766802306228
 20
18.37242418609802
 30
0.0
  0
SPLINE
  5
306
330
1F
100
AcDbEntity
  8
0
  6
Continuous
 62
     8
370
    25
100
AcDbSpline
210
0.0
220
0.0
230
1.0
 70
     8
 71
     3
 72
    12
 73
     8
 74
     0
 42
0.000000001
 43
0.00000001
 40
0.0
 40
0.0
 40
0.0
 40
0.0
 40
0.244574671465231
 40
0.4897025492840121
 40
0.7346882582130443
 40
0.9834033257788393
 40
1.0
 40
1.0
 40
1.0
 40
1.0
 10
21.02951491220329
 20
16.59154969536137
 30
0.0
 10
21.00742612338115
 20
16.60358538954038
 30
0.0
 10
20.96319858284314
 20
16.62768400157796
 30
0.0
 10
20.90756405229137
 20
16.66946293230675
 30
0.0
 10
20.86434822072261
 20
16.7174877265992
 30
0.0
 10
20.84274802771738
 20
16.75453947706464
 30
0.0
 10
20.83880288025985
 20
16.77617914669771
 30
0.0
 10
20.83855609010022
 20
16.77753282424223
 30
0.0
  0
LWPOLYLINE
  5
307
330
1F
100
AcDbEntity
  8
0
  6
Continuous
 62
     8
370
    25
100
AcDbPolyline
 90
       20
 70
   128
 43
0.0
 10
22.6442354592
 20
17.8962452772
 10
22.6457451428
 20
17.8917467588
 10
22.646951447
 20
17.8754884512
 10
22.6421981368
 20
17.8578935454
 10
22.6316468626
 20
17.8395611893
 10
22.615657212
 20
17.8211156291
 10
22.5947734582
 20
17.8031850792
 10
22.5697069083
 20
17.7863800557
 10
22.5413110035
 20
17.7712729463
 10
22.5105529494
 20
17.7583781206
 10
22.4784800059
 20
17.7481347646
 10
22.446184588
 20
17.7408916145
 10
22.4147662091
 20
17.7368953728
 10
22.3852949877
 20
17.7362821432
 10
22.3587743821
 20
17.7390727536
 10
22.3361075349
 20
17.7451723213
 10
22.3180665096
 20
17.7543729355
 10
22.305265543
 20
17.7663613461
 10
22.2981406176
 20
17.7807293809
 10
22.2979190871
 20
17.7815793308
  0
LWPOLYLINE
  5
308
330
1F
100
AcDbEntity
  8
0
  6
Continuous
 62
     8
370
    25
100
AcDbPolyline
 90
       19
 70
   128
 43
0.0
 10
22.3166680407
 20
17.7117088077
 10
22.3220619277
 20
17.6996311335
 10
22.3336089808
 20
17.6871687143
 10
22.3503291602
 20
17.6773163865
 10
22.3716849166
 20
17.6703907365
 10
22.3969898708
 20
17.6666144694
 10
22.4254308451
 20
17.6661088615
 10
22.4560934261
 20
17.6688902348
 10
22.4879924207
 20
17.6748691779
 10
22.5201025588
 20
17.6838533928
 10
22.551391498
 20
17.6955543509
 10
22.5808538903
 20
17.7095958007
 10
22.6075426207
 20
17.7255265004
 10
22.6305998586
 20
17.7428344047
 10
22.6492847658
 20
17.7609632035
 10
22.6629963988
 20
17.7793303413
 10
22.671294496
 20
17.7973453383
 10
22.6739121159
 20
17.814429162
 10
22.670879343
 20
17.8297508172
  0
LWPOLYLINE
  5
309
330
1F
100
AcDbEntity
  8
0
  6
Continuous
 62
     8
370
    25
100
AcDbPolyline
 90
        7
 70
   128
 43
0.0
 10
22.4116781929
 20
17.866971997
 10
22.3926220011
 20
17.8537991265
 10
22.3778420463
 20
17.839679474
 10
22.368134982
 20
17.8253743349
 10
22.3640242031
 20
17.811654955
 10
22.3657314595
 20
17.7992607145
 10
22.3658493604
 20
17.7989719248
  0
LWPOLYLINE
  5
30A
330
1F
100
AcDbEntity
  8
0
  6
Continuous
 62
     8
370
    25
100
AcDbPolyline
 90
       10
 70
   128
 43
0.0
 10
22.5790327051
 20
17.870625185
 10
22.5751353042
 20
17.8787029477
 10
22.56497107
 20
17.8878886405
 10
22.5497915059
 20
17.8942898838
 10
22.5304150494
 20
17.8975615621
 10
22.5078863312
 20
17.8975273187
 10
22.4834200419
 20
17.8941888362
 10
22.4583349022
 20
17.8877262525
 10
22.4339833457
 20
17.8784880177
 10
22.4116781929
 20
17.866971997
  0
ARC
  5
30B
330
1F
100
AcDbEntity
  8
0
  6
Continuous
 62
     8
370
    25
100
AcDbCircle
 10
22.543427745
 20
17.6217461301
 30
0.0
 40
0.2060373690118575
100
AcDbArc
 50
90.754403246
 51
126.1634283697
  0
SPLINE
  5
30C
330
1F
100
AcDbEntity
  8
0
  6
Continuous
 62
     8
370
    25
100
AcDbSpline
210
0.0
220
0.0
230
1.0
 70
     8
 71
     3
 72
     9
 73
     5
 74
     0
 42
0.000000001
 43
0.00000001
 40
0.0
 40
0.0
 40
0.0
 40
0.0
 40
0.4837529191531247
 40
1.0
 40
1.0
 40
1.0
 40
1.0
 10
21.62596601843402
 20
17.73870342007738
 30
0.0
 10
21.62635040507575
 20
17.73913590214821
 30
0.0
 10
21.62714499798984
 20
17.740029916538
 30
0.0
 10
21.62965478416914
 20
17.73986103567098
 30
0.0
 10
21.63095045395776
 20
17.73977385141637
 30
0.0
  0
SPLINE
  5
30D
330
1F
100
AcDbEntity
  8
0
  6
Continuous
 62
     8
370
    25
100
AcDbSpline
210
0.0
220
0.0
230
1.0
 70
     8
 71
     3
 72
    12
 73
     8
 74
     0
 42
0.000000001
 43
0.00000001
 40
0.0
 40
0.0
 40
0.0
 40
0.0
 40
0.1841903238314982
 40
0.4659115585672083
 40
0.8147003933755715
 40
0.8877378735756133
 40
0.9999999999999999
 40
0.9999999999999999
 40
0.9999999999999999
 40
0.9999999999999999
 10
21.70222920691853
 20
17.82616203142377
 30
0.0
 10
21.70357270047803
 20
17.82736060553235
 30
0.0
 10
21.70697108300545
 20
17.83039241262932
 30
0.0
 10
21.71304061813736
 20
17.83423861183149
 30
0.0
 10
21.71821245669518
 20
17.83686459488651
 30
0.0
 10
21.72197254739826
 20
17.83785770587746
 30
0.0
 10
21.72326387216893
 20
17.83797935410211
 30
0.0
 10
21.72404620985059
 20
17.8380530536022
 30
0.0
  0
SPLINE
  5
30E
330
1F
100
AcDbEntity
  8
0
  6
Continuous
 62
     8
370
    25
100
AcDbSpline
210
0.0
220
0.0
230
1.0
 70
     8
 71
     3
 72
    11
 73
     7
 74
     0
 42
0.000000001
 43
0.00000001
 40
0.0
 40
0.0
 40
0.0
 40
0.0
 40
0.217975811186754
 40
0.5343250065627305
 40
0.9616174533663308
 40
0.9999999999999999
 40
0.9999999999999999
 40
0.9999999999999999
 40
0.9999999999999999
 10
21.88739907753283
 20
17.97193254358973
 30
0.0
 10
21.88561695415489
 20
17.97206958559503
 30
0.0
 10
21.88124842775545
 20
17.97240551722885
 30
0.0
 10
21.87500785370814
 20
17.96998731448076
 30
0.0
 10
21.86993637103728
 20
17.96795545690811
 30
0.0
 10
21.86791621706328
 20
17.9655588872069
 30
0.0
 10
21.86774970897243
 20
17.96536135362745
 30
0.0
  0
SPLINE
  5
30F
330
1F
100
AcDbEntity
  8
0
  6
Continuous
 62
     8
370
    25
100
AcDbSpline
210
0.0
220
0.0
230
1.0
 70
     8
 71
     3
 72
     9
 73
     5
 74
     0
 42
0.000000001
 43
0.00000001
 40
0.0
 40
0.0
 40
0.0
 40
0.0
 40
0.4832455729190537
 40
1.0
 40
1.0
 40
1.0
 40
1.0
 10
21.62641854144827
 20
17.73948026048168
 30
0.0
 10
21.62672747792584
 20
17.73979806299706
 30
0.0
 10
21.62736677292384
 20
17.74045570485286
 30
0.0
 10
21.62972950282258
 20
17.7400061571711
 30
0.0
 10
21.63095045395776
 20
17.73977385141637
 30
0.0
  0
SPLINE
  5
310
330
1F
100
AcDbEntity
  8
0
  6
Continuous
 62
     8
370
    25
100
AcDbSpline
210
0.0
220
0.0
230
1.0
 70
     8
 71
     3
 72
    10
 73
     6
 74
     0
 42
0.000000001
 43
0.00000001
 40
0.0
 40
0.0
 40
0.0
 40
0.0
 40
0.2862155390394879
 40
0.7016104538492781
 40
1.0
 40
1.0
 40
1.0
 40
1.0
 10
22.05357565801618
 20
18.08897796996661
 30
0.0
 10
22.0522837820725
 20
18.0894424874433
 30
0.0
 10
22.04911696006768
 20
18.09058117585531
 30
0.0
 10
22.04555279320334
 20
18.09003197627199
 30
0.0
 10
22.04350241300013
 20
18.08883125519744
 30
0.0
 10
22.04264527467374
 20
18.08832930729008
 30
0.0
  0
SPLINE
  5
311
330
1F
100
AcDbEntity
  8
0
  6
Continuous
 62
     8
370
    25
100
AcDbSpline
210
0.0
220
0.0
230
1.0
 70
     8
 71
     3
 72
    10
 73
     6
 74
     0
 42
0.000000001
 43
0.00000001
 40
0.0
 40
0.0
 40
0.0
 40
0.0
 40
0.2862151576285041
 40
0.7016095188828038
 40
1.0
 40
1.0
 40
1.0
 40
1.0
 10
22.466763930048
 20
18.33561309244471
 30
0.0
 10
22.46547205475906
 20
18.33607760880105
 30
0.0
 10
22.46230523435919
 20
18.33721629446672
 30
0.0
 10
22.45874104821018
 20
18.33666711902332
 30
0.0
 10
22.45669069599222
 20
18.33546634133692
 30
0.0
 10
22.45583356713706
 20
18.33496436845897
 30
0.0
  0
ENDSEC
  0
SECTION
  2
OBJECTS
  0
DICTIONARY
  5
C
330
0
100
AcDbDictionary
281
     1
  3
ACAD_GROUP
350
D
  3
ACAD_LAYOUT
350
1A
  3
ACAD_MLINESTYLE
350
17
  3
ACAD_PLOTSETTINGS
350
19
  3
ACAD_PLOTSTYLENAME
350
E
  3
ACAD_SCALELIST
350
47
  0
DICTIONARY
  5
D
102
{ACAD_REACTORS
330
C
102
}
330
C
100
AcDbDictionary
281
     1
  0
DICTIONARY
  5
1A
102
{ACAD_REACTORS
330
C
102
}
330
C
100
AcDbDictionary
281
     1
  3
Layout1
350
1E
  3
Layout2
350
26
  3
Model
350
22
  0
DICTIONARY
  5
17
102
{ACAD_REACTORS
330
C
102
}
330
C
100
AcDbDictionary
281
     1
  3
Standard
350
18
  0
DICTIONARY
  5
19
102
{ACAD_REACTORS
330
C
102
}
330
C
100
AcDbDictionary
281
     1
  0
ACDBDICTIONARYWDFLT
  5
E
102
{ACAD_REACTORS
330
C
102
}
330
C
100
AcDbDictionary
281
     1
  3
Normal
350
F
100
AcDbDictionaryWithDefault
340
F
  0
DICTIONARY
  5
47
102
{ACAD_REACTORS
330
C
102
}
330
C
100
AcDbDictionary
281
     1
  3
A0
350
48
  3
A1
350
49
  3
A2
350
4A
  3
A3
350
4B
  3
A4
350
4C
  3
A5
350
4D
  3
A6
350
4E
  3
A7
350
4F
  3
A8
350
50
  3
A9
350
51
  3
B0
350
52
  3
B1
350
53
  3
B2
350
54
  3
B3
350
55
  3
B4
350
56
  3
B5
350
57
  3
B6
350
58
  3
B7
350
59
  3
B8
350
5A
  3
B9
350
5B
  3
C0
350
5C
  3
C1
350
5D
  3
C2
350
5E
  3
C3
350
5F
  3
C4
350
60
  3
C5
350
61
  3
C6
350
62
  3
C7
350
63
  3
C8
350
64
  3
C9
350
65
  3
D0
350
66
  3
D1
350
67
  3
D2
350
68
  0
LAYOUT
  5
1E
102
{ACAD_REACTORS
330
1A
102
}
330
1A
100
AcDbPlotSettings
  1

  2
none_device
  4

  6

 40
0.0
 41
0.0
 42
0.0
 43
0.0
 44
0.0
 45
0.0
 46
0.0
 47
0.0
 48
0.0
 49
0.0
140
0.0
141
0.0
142
1.0
143
1.0
 70
   688
 72
     0
 73
     0
 74
     5
  7

 75
    16
147
1.0
148
0.0
149
0.0
100
AcDbLayout
  1
Layout1
 70
     1
 71
     1
 10
0.0
 20
0.0
 11
12.0
 21
9.0
 12
0.0
 22
0.0
 32
0.0
 14
1.0000000000E+20
 24
1.0000000000E+20
 34
1.0000000000E+20
 15
-1.0000000000E+20
 25
-1.0000000000E+20
 35
-1.0000000000E+20
146
0.0
 13
0.0
 23
0.0
 33
0.0
 16
1.0
 26
0.0
 36
0.0
 17
0.0
 27
1.0
 37
0.0
 76
     0
330
1B
  0
LAYOUT
  5
26
102
{ACAD_REACTORS
330
1A
102
}
330
1A
100
AcDbPlotSettings
  1

  2
none_device
  4

  6

 40
0.0
 41
0.0
 42
0.0
 43
0.0
 44
0.0
 45
0.0
 46
0.0
 47
0.0
 48
0.0
 49
0.0
140
0.0
141
0.0
142
1.0
143
1.0
 70
   688
 72
     0
 73
     0
 74
     5
  7

 75
    16
147
1.0
148
0.0
149
0.0
100
AcDbLayout
  1
Layout2
 70
     1
 71
     2
 10
0.0
 20
0.0
 11
0.0
 21
0.0
 12
0.0
 22
0.0
 32
0.0
 14
0.0
 24
0.0
 34
0.0
 15
0.0
 25
0.0
 35
0.0
146
0.0
 13
0.0
 23
0.0
 33
0.0
 16
1.0
 26
0.0
 36
0.0
 17
0.0
 27
1.0
 37
0.0
 76
     0
330
23
  0
LAYOUT
  5
22
102
{ACAD_REACTORS
330
1A
102
}
330
1A
100
AcDbPlotSettings
  1

  2
none_device
  4
Letter_(8.50_x_11.00_Inches)
  6

 40
6.35
 41
6.35
 42
6.35000508
 43
6.35000508
 44
215.9
 45
279.4
 46
0.0
 47
0.0
 48
0.0
 49
0.0
140
0.0
141
0.0
142
1.0
143
1.0
 70
  1712
 72
     0
 73
     0
 74
     0
  7

 75
     0
147
1.0
148
0.0
149
0.0
100
AcDbLayout
  1
Model
 70
     1
 71
     0
 10
0.0
 20
0.0
 11
30.0
 21
22.0
 12
0.0
 22
0.0
 32
0.0
 14
0.0
 24
0.0
 34
0.0
 15
30.0
 25
22.0
 35
0.0
146
0.0
 13
0.0
 23
0.0
 33
0.0
 16
1.0
 26
0.0
 36
0.0
 17
0.0
 27
1.0
 37
0.0
 76
     0
330
1F
331
29
  0
MLINESTYLE
  5
18
102
{ACAD_REACTORS
330
17
102
}
330
17
100
AcDbMlineStyle
  2
Standard
 70
     0
  3

 62
   256
 51
90.0
 52
90.0
 71
     2
 49
0.5
 62
   256
  6
BYLAYER
 49
-0.5
 62
   256
  6
BYLAYER
  0
ACDBPLACEHOLDER
  5
F
102
{ACAD_REACTORS
330
E
102
}
330
E
  0
SCALE
  5
48
102
{ACAD_REACTORS
330
47
102
}
330
47
100
AcDbScale
 70
     0
300
1:1
140
1.0
141
1.0
290
     1
  0
SCALE
  5
49
102
{ACAD_REACTORS
330
47
102
}
330
47
100
AcDbScale
 70
     0
300
1:2
140
1.0
141
2.0
290
     0
  0
SCALE
  5
4A
102
{ACAD_REACTORS
330
47
102
}
330
47
100
AcDbScale
 70
     0
300
1:4
140
1.0
141
4.0
290
     0
  0
SCALE
  5
4B
102
{ACAD_REACTORS
330
47
102
}
330
47
100
AcDbScale
 70
     0
300
1:5
140
1.0
141
5.0
290
     0
  0
SCALE
  5
4C
102
{ACAD_REACTORS
330
47
102
}
330
47
100
AcDbScale
 70
     0
300
1:8
140
1.0
141
8.0
290
     0
  0
SCALE
  5
4D
102
{ACAD_REACTORS
330
47
102
}
330
47
100
AcDbScale
 70
     0
300
1:10
140
1.0
141
10.0
290
     0
  0
SCALE
  5
4E
102
{ACAD_REACTORS
330
47
102
}
330
47
100
AcDbScale
 70
     0
300
1:16
140
1.0
141
16.0
290
     0
  0
SCALE
  5
4F
102
{ACAD_REACTORS
330
47
102
}
330
47
100
AcDbScale
 70
     0
300
1:20
140
1.0
141
20.0
290
     0
  0
SCALE
  5
50
102
{ACAD_REACTORS
330
47
102
}
330
47
100
AcDbScale
 70
     0
300
1:30
140
1.0
141
30.0
290
     0
  0
SCALE
  5
51
102
{ACAD_REACTORS
330
47
102
}
330
47
100
AcDbScale
 70
     0
300
1:40
140
1.0
141
40.0
290
     0
  0
SCALE
  5
52
102
{ACAD_REACTORS
330
47
102
}
330
47
100
AcDbScale
 70
     0
300
1:50
140
1.0
141
50.0
290
     0
  0
SCALE
  5
53
102
{ACAD_REACTORS
330
47
102
}
330
47
100
AcDbScale
 70
     0
300
1:100
140
1.0
141
100.0
290
     0
  0
SCALE
  5
54
102
{ACAD_REACTORS
330
47
102
}
330
47
100
AcDbScale
 70
     0
300
2:1
140
2.0
141
1.0
290
     0
  0
SCALE
  5
55
102
{ACAD_REACTORS
330
47
102
}
330
47
100
AcDbScale
 70
     0
300
4:1
140
4.0
141
1.0
290
     0
  0
SCALE
  5
56
102
{ACAD_REACTORS
330
47
102
}
330
47
100
AcDbScale
 70
     0
300
8:1
140
8.0
141
1.0
290
     0
  0
SCALE
  5
57
102
{ACAD_REACTORS
330
47
102
}
330
47
100
AcDbScale
 70
     0
300
10:1
140
10.0
141
1.0
290
     0
  0
SCALE
  5
58
102
{ACAD_REACTORS
330
47
102
}
330
47
100
AcDbScale
 70
     0
300
100:1
140
100.0
141
1.0
290
     0
  0
SCALE
  5
59
102
{ACAD_REACTORS
330
47
102
}
330
47
100
AcDbScale
 70
     0
300
1/128" = 1'-0"
140
0.0078125
141
12.0
290
     0
  0
SCALE
  5
5A
102
{ACAD_REACTORS
330
47
102
}
330
47
100
AcDbScale
 70
     0
300
1/64" = 1'-0"
140
0.015625
141
12.0
290
     0
  0
SCALE
  5
5B
102
{ACAD_REACTORS
330
47
102
}
330
47
100
AcDbScale
 70
     0
300
1/32" = 1'-0"
140
0.03125
141
12.0
290
     0
  0
SCALE
  5
5C
102
{ACAD_REACTORS
330
47
102
}
330
47
100
AcDbScale
 70
     0
300
1/16" = 1'-0"
140
0.0625
141
12.0
290
     0
  0
SCALE
  5
5D
102
{ACAD_REACTORS
330
47
102
}
330
47
100
AcDbScale
 70
     0
300
3/32" = 1'-0"
140
0.09375
141
12.0
290
     0
  0
SCALE
  5
5E
102
{ACAD_REACTORS
330
47
102
}
330
47
100
AcDbScale
 70
     0
300
1/8" = 1'-0"
140
0.125
141
12.0
290
     0
  0
SCALE
  5
5F
102
{ACAD_REACTORS
330
47
102
}
330
47
100
AcDbScale
 70
     0
300
3/16" = 1'-0"
140
0.1875
141
12.0
290
     0
  0
SCALE
  5
60
102
{ACAD_REACTORS
330
47
102
}
330
47
100
AcDbScale
 70
     0
300
1/4" = 1'-0"
140
0.25
141
12.0
290
     0
  0
SCALE
  5
61
102
{ACAD_REACTORS
330
47
102
}
330
47
100
AcDbScale
 70
     0
300
3/8" = 1'-0"
140
0.375
141
12.0
290
     0
  0
SCALE
  5
62
102
{ACAD_REACTORS
330
47
102
}
330
47
100
AcDbScale
 70
     0
300
1/2" = 1'-0"
140
0.5
141
12.0
290
     0
  0
SCALE
  5
63
102
{ACAD_REACTORS
330
47
102
}
330
47
100
AcDbScale
 70
     0
300
3/4" = 1'-0"
140
0.75
141
12.0
290
     0
  0
SCALE
  5
64
102
{ACAD_REACTORS
330
47
102
}
330
47
100
AcDbScale
 70
     0
300
1" = 1'-0"
140
1.0
141
12.0
290
     0
  0
SCALE
  5
65
102
{ACAD_REACTORS
330
47
102
}
330
47
100
AcDbScale
 70
     0
300
1-1/2" = 1'-0"
140
1.5
141
12.0
290
     0
  0
SCALE
  5
66
102
{ACAD_REACTORS
330
47
102
}
330
47
100
AcDbScale
 70
     0
300
3" = 1'-0"
140
3.0
141
12.0
290
     0
  0
SCALE
  5
67
102
{ACAD_REACTORS
330
47
102
}
330
47
100
AcDbScale
 70
     0
300
6" = 1'-0"
140
6.0
141
12.0
290
     0
  0
SCALE
  5
68
102
{ACAD_REACTORS
330
47
102
}
330
47
100
AcDbScale
 70
     0
300
1'-0" = 1'-0"
140
12.0
141
12.0
290
     0
  0
ENDSEC
  0
EOF
