  0
SECTION
  2
HEADER
  9
$ACADVER
  1
AC1009
  9
$DWGCODEPAGE
  3
ansi_1252
  9
$INSBASE
 10
0.0
 20
0.0
 30
0.0
  9
$EXTMIN
 10
0.0
 20
0.0
 30
0.0
  9
$EXTMAX
 10
45.54
 20
69.75
 30
0.0
  9
$LIMMIN
 10
0.0
 20
0.0
  9
$LIMMAX
 10
45.54
 20
69.75
  9
$ORTHOMODE
 70
     0
  9
$REGENMODE
 70
     1
  9
$FILLMODE
 70
     1
  9
$QTEXTMODE
 70
     0
  9
$MIRRTEXT
 70
     0
  9
$DRAGMODE
 70
     2
  9
$LTSCALE
 40
3.0
  9
$OSMODE
 70
    37
  9
$ATTMODE
 70
     1
  9
$TEXTSIZE
 40
0.5
  9
$TRACEWID
 40
0.05
  9
$TEXTSTYLE
  7
TXT
  9
$CLAYER
  8
OBJECT
  9
$CELTYPE
  6
BYLAYER
  9
$CECOLOR
 62
   256
  9
$DIMSCALE
 40
4.5
  9
$DIMASZ
 40
0.18
  9
$DIMEXO
 40
0.063
  9
$DIMDLI
 40
0.281
  9
$DIMRND
 40
0.0
  9
$DIMDLE
 40
0.0
  9
$DIMEXE
 40
0.093
  9
$DIMTP
 40
0.0
  9
$DIMTM
 40
0.0
  9
$DIMTXT
 40
0.125
  9
$DIMCEN
 40
0.09
  9
$DIMTSZ
 40
0.0
  9
$DIMTOL
 70
     0
  9
$DIMLIM
 70
     0
  9
$DIMTIH
 70
     1
  9
$DIMTOH
 70
     1
  9
$DIMSE1
 70
     0
  9
$DIMSE2
 70
     0
  9
$DIMTAD
 70
     0
  9
$DIMZIN
 70
     0
  9
$DIMBLK
  1

  9
$DIMASO
 70
     1
  9
$DIMSHO
 70
     1
  9
$DIMPOST
  1

  9
$DIMAPOST
  1

  9
$DIMALT
 70
     0
  9
$DIMALTD
 70
     2
  9
$DIMALTF
 40
25.4
  9
$DIMLFAC
 40
1.0
  9
$DIMTOFL
 70
     0
  9
$DIMTVP
 40
0.0
  9
$DIMTIX
 70
     0
  9
$DIMSOXD
 70
     0
  9
$DIMSAH
 70
     0
  9
$DIMBLK1
  1

  9
$DIMBLK2
  1

  9
$DIMSTYLE
  2
23NSTD
  9
$DIMCLRD
 70
     0
  9
$DIMCLRE
 70
     0
  9
$DIMCLRT
 70
     0
  9
$DIMTFAC
 40
1.0
  9
$DIMGAP
 40
0.09
  9
$LUNITS
 70
     2
  9
$LUPREC
 70
     3
  9
$SKETCHINC
 40
0.1
  9
$FILLETRAD
 40
0.0
  9
$AUNITS
 70
     0
  9
$AUPREC
 70
     0
  9
$MENU
  1
.
  9
$ELEVATION
 40
0.0
  9
$PELEVATION
 40
0.0
  9
$THICKNESS
 40
0.0
  9
$LIMCHECK
 70
     0
  9
$CHAMFERA
 40
0.0
  9
$CHAMFERB
 40
0.0
  9
$SKPOLY
 70
     0
  9
$TDCREATE
 40
2453353.550459155
  9
$TDUPDATE
 40
2459488.699162963
  9
$TDINDWG
 40
0.0841685648
  9
$TDUSRTIMER
 40
0.0841685648
  9
$USRTIMER
 70
     1
  9
$ANGBASE
 50
0.0
  9
$ANGDIR
 70
     0
  9
$PDMODE
 70
     0
  9
$PDSIZE
 40
0.0
  9
$PLINEWID
 40
0.0
  9
$COORDS
 70
     1
  9
$SPLFRAME
 70
     0
  9
$SPLINETYPE
 70
     6
  9
$SPLINESEGS
 70
     8
  9
$ATTDIA
 70
     0
  9
$ATTREQ
 70
     1
  9
$HANDLING
 70
     1
  9
$HANDSEED
  5
893
  9
$SURFTAB1
 70
     6
  9
$SURFTAB2
 70
     6
  9
$SURFTYPE
 70
     6
  9
$SURFU
 70
     6
  9
$SURFV
 70
     6
  9
$UCSNAME
  2

  9
$UCSORG
 10
0.0
 20
0.0
 30
0.0
  9
$UCSXDIR
 10
1.0
 20
0.0
 30
0.0
  9
$UCSYDIR
 10
0.0
 20
1.0
 30
0.0
  9
$PUCSNAME
  2

  9
$PUCSORG
 10
0.0
 20
0.0
 30
0.0
  9
$PUCSXDIR
 10
1.0
 20
0.0
 30
0.0
  9
$PUCSYDIR
 10
0.0
 20
1.0
 30
0.0
  9
$USERI1
 70
     0
  9
$USERI2
 70
     0
  9
$USERI3
 70
     0
  9
$USERI4
 70
     0
  9
$USERI5
 70
     0
  9
$USERR1
 40
0.0
  9
$USERR2
 40
0.0
  9
$USERR3
 40
0.0
  9
$USERR4
 40
0.0
  9
$USERR5
 40
0.0
  9
$WORLDVIEW
 70
     1
  9
$SHADEDGE
 70
     3
  9
$SHADEDIF
 70
    70
  9
$TILEMODE
 70
     1
  9
$MAXACTVP
 70
    16
  9
$PLIMCHECK
 70
     0
  9
$PEXTMIN
 10
1.000000000000000E+20
 20
1.000000000000000E+20
 30
1.000000000000000E+20
  9
$PEXTMAX
 10
-1.000000000000000E+20
 20
-1.000000000000000E+20
 30
-1.000000000000000E+20
  9
$PLIMMIN
 10
0.0
 20
0.0
  9
$PLIMMAX
 10
12.0
 20
9.0
  9
$UNITMODE
 70
     0
  9
$VISRETAIN
 70
     0
  9
$PLINEGEN
 70
     0
  9
$PSLTSCALE
 70
     0
  0
ENDSEC
  0
SECTION
  2
TABLES
  0
TABLE
  2
VPORT
 70
     1
  0
VPORT
  2
*ACTIVE
 70
     0
 10
0.0
 20
0.0
 11
1.0
 21
1.0
 12
22.77
 22
34.87499999999999
 13
0.0
 23
0.0
 14
1.0
 24
1.0
 15
0.5
 25
0.5
 16
0.0
 26
0.0
 36
1.0
 17
0.0
 27
0.0
 37
0.0
 40
71.14500000000001
 41
1.824707846410685
 42
50.0
 43
0.0
 44
0.0
 50
0.0
 51
0.0
 71
    16
 72
   100
 73
     1
 74
     0
 75
     0
 76
     0
 77
     0
 78
     0
  0
ENDTAB
  0
TABLE
  2
LTYPE
 70
     4
  0
LTYPE
  2
CONTINUOUS
 70
     0
  3
Solid line
 72
    65
 73
     0
 40
0.0
  0
LTYPE
  2
HIDDEN
 70
     0
  3
_ _ _ _ _ _ _ _ _ _ _ _ _ _ _ _ _ _ _ _ _ _ _
 72
    65
 73
     2
 40
0.375
 49
0.25
 49
-0.125
  0
LTYPE
  2
PHANTOM
 70
     0
  3
_____ _ _ _____ _ _ _____ _ _ _____ _ _ ____
 72
    65
 73
     6
 40
2.5
 49
1.25
 49
-0.25
 49
0.25
 49
-0.25
 49
0.25
 49
-0.25
  0
LTYPE
  2
CENTER
 70
     0
  3
____ _ ____ _ ____ _ ____ _ ____ _ ____ _ ____
 72
    65
 73
     4
 40
2.0
 49
1.25
 49
-0.25
 49
0.25
 49
-0.25
  0
ENDTAB
  0
TABLE
  2
LAYER
 70
     9
  0
LAYER
  2
0
 70
     0
 62
     7
  6
CONTINUOUS
  0
LAYER
  2
OBJECT
 70
     0
 62
     7
  6
CONTINUOUS
  0
LAYER
  2
DIM
 70
     0
 62
     7
  6
CONTINUOUS
  0
LAYER
  2
HIDDEN
 70
     0
 62
     7
  6
HIDDEN
  0
LAYER
  2
BEND
 70
     0
 62
     7
  6
PHANTOM
  0
LAYER
  2
TEXT
 70
     0
 62
     7
  6
CONTINUOUS
  0
LAYER
  2
TITLE
 70
     0
 62
     7
  6
CONTINUOUS
  0
LAYER
  2
CENTER
 70
     0
 62
     7
  6
CENTER
  0
LAYER
  2
DEFPOINTS
 70
     0
 62
     7
  6
CONTINUOUS
  0
ENDTAB
  0
TABLE
  2
STYLE
 70
     2
  0
STYLE
  2
STANDARD
 70
     0
 40
0.0
 41
1.0
 50
0.0
 71
     0
 42
0.2
  3
SIMPLEX
  4

  0
STYLE
  2
TXT
 70
     0
 40
0.0
 41
0.75
 50
0.0
 71
     0
 42
0.5
  3
TXT.shx
  4

  0
ENDTAB
  0
TABLE
  2
VIEW
 70
     0
  0
ENDTAB
  0
TABLE
  2
UCS
 70
     0
  0
ENDTAB
  0
TABLE
  2
APPID
 70
     1
  0
APPID
  2
ACAD
 70
     0
  0
ENDTAB
  0
TABLE
  2
DIMSTYLE
 70
     3
  0
DIMSTYLE
  2
STANDARD
 70
     0
  3

  4

  5

  6

  7

 40
1.0
 41
0.18
 42
0.0625
 43
0.38
 44
0.18
 45
0.0
 46
0.0
 47
0.0
 48
0.0
140
0.18
141
0.09
142
0.0
143
25.4
144
1.0
145
0.0
146
1.0
147
0.09
 71
     0
 72
     0
 73
     1
 74
     1
 75
     0
 76
     0
 77
     0
 78
     0
170
     0
171
     2
172
     0
173
     0
174
     0
175
     0
176
     0
177
     0
178
     0
  0
DIMSTYLE
  2
23NSTD
 70
     0
  3

  4

  5

  6

  7

 40
4.5
 41
0.18
 42
0.063
 43
0.281
 44
0.093
 45
0.0
 46
0.0
 47
0.0
 48
0.0
140
0.125
141
0.09
142
0.0
143
25.4
144
1.0
145
0.0
146
1.0
147
0.09
 71
     0
 72
     0
 73
     1
 74
     1
 75
     0
 76
     0
 77
     0
 78
     0
170
     0
171
     2
172
     0
173
     0
174
     0
175
     0
176
     0
177
     0
178
     0
  0
DIMSTYLE
  2
23NSTDI
 70
     0
  3

  4

  5

  6

  7

 40
4.5
 41
0.18
 42
0.063
 43
0.281
 44
0.093
 45
0.0
 46
0.0
 47
0.0
 48
0.0
140
0.125
141
0.09
142
0.0
143
25.4
144
1.0
145
0.0
146
1.0
147
0.09
 71
     0
 72
     0
 73
     1
 74
     1
 75
     0
 76
     0
 77
     0
 78
     0
170
     0
171
     2
172
     0
173
     0
174
     1
175
     0
176
     0
177
     0
178
     0
  0
ENDTAB
  0
ENDSEC
  0
SECTION
  2
BLOCKS
  0
BLOCK
  8
0
  2
$MODEL_SPACE
 70
     0
 10
0.0
 20
0.0
 30
0.0
  3
$MODEL_SPACE
  1

  0
ENDBLK
  5
21
  8
0
  0
BLOCK
 67
     1
  8
0
  2
$PAPER_SPACE
 70
     0
 10
0.0
 20
0.0
 30
0.0
  3
$PAPER_SPACE
  1

  0
ENDBLK
  5
76
 67
     1
  8
0
  0
BLOCK
  8
0
  2
HB
 70
     0
 10
0.0
 20
0.0
 30
0.0
  3
HB
  1

  0
TEXT
  5
43
  8
TEXT
 10
0.207625000000003
 20
15.06007919564008
 30
0.0
 40
0.125
  1
NAME
  7
TXT
 72
     1
 11
0.437000000000003
 21
15.06007919564008
 31
0.0
  0
TEXT
  5
45
  8
TEXT
 10
0.207625000000003
 20
15.26841252897341
 30
0.0
 40
0.125
  1
PART
  7
TXT
 72
     1
 11
0.437000000000003
 21
15.26841252897341
 31
0.0
  0
TEXT
  5
46
  8
TEXT
 10
5.371999999999997
 20
15.06007919564008
 30
0.0
 40
0.125
  1
No.
  7
TXT
 72
     1
 11
5.496999999999997
 21
15.06007919564008
 31
0.0
  0
TEXT
  5
47
  8
TEXT
 10
5.267624999999997
 20
15.26841252897341
 30
0.0
 40
0.125
  1
PART
  7
TXT
 72
     1
 11
5.496999999999997
 21
15.26841252897341
 31
0.0
  0
LINE
  5
48
  8
TITLE
 10
5.872000000000001
 20
15.438
 30
0.0
 11
5.872000000000001
 21
15.01999999999999
 31
0.0
  0
LINE
  5
49
  8
TITLE
 10
5.122000000000001
 20
15.438
 30
0.0
 11
5.122000000000001
 21
15.01999999999999
 31
0.0
  0
LINE
  5
4A
  8
TITLE
 10
5.06
 20
15.438
 30
0.0
 11
5.06
 21
15.01999999999999
 31
0.0
  0
LINE
  5
4B
  8
TITLE
 10
0.8120000000000029
 20
15.01999999999999
 30
0.0
 11
0.812000000000001
 21
15.438
 31
0.0
  0
LINE
  5
4C
  8
TITLE
 10
0.0620000000000012
 20
15.01999999999999
 30
0.0
 11
10.058
 21
15.01999999999999
 31
0.0
  0
LINE
  5
4D
  8
TITLE
 10
10.058
 20
0.0619999999999994
 30
0.0
 11
0.0619999999999976
 21
0.0620000000000012
 31
0.0
  0
LINE
  5
4E
  8
TITLE
 10
10.058
 20
15.438
 30
0.0
 11
10.058
 21
0.0619999999999994
 31
0.0
  0
LINE
  5
4F
  8
TITLE
 10
0.0620000000000012
 20
15.438
 30
0.0
 11
10.058
 21
15.438
 31
0.0
  0
LINE
  5
50
  8
TITLE
 10
0.0619999999999976
 20
0.0620000000000012
 30
0.0
 11
0.0620000000000012
 21
15.438
 31
0.0
  0
LINE
  5
51
  8
TITLE
 10
0.0
 20
0.0
 30
0.0
 11
0.0
 21
15.5
 31
0.0
  0
LINE
  5
52
  8
TITLE
 10
10.12
 20
-0.0000000000000018
 30
0.0
 11
0.0
 21
0.0
 31
0.0
  0
LINE
  5
53
  8
TITLE
 10
10.12
 20
15.49999999999999
 30
0.0
 11
10.12
 21
-0.0000000000000018
 31
0.0
  0
LINE
  5
54
  8
TITLE
 10
0.0
 20
15.5
 30
0.0
 11
10.12
 21
15.49999999999999
 31
0.0
  0
ENDBLK
  5
775
  8
0
  0
BLOCK
  8
0
  2
*D1
 70
     1
 10
0.0
 20
0.0
 30
0.0
  3
*D1
  1

  0
POINT
  5
5E3
  8
DEFPOINTS
  6
BYBLOCK
 62
     0
 10
38.6923311625436
 20
28.49433665227731
 30
0.0
  0
POINT
  5
5E4
  8
DEFPOINTS
  6
BYBLOCK
 62
     0
 10
38.6923311625436
 20
46.40033665227732
 30
0.0
  0
LINE
  5
5E5
  8
0
  6
BYBLOCK
 62
     0
 10
38.4088311625436
 20
28.49433665227731
 30
0.0
 11
37.11309216446538
 21
28.49433665227731
 31
0.0
  0
LINE
  5
5E6
  8
0
  6
BYBLOCK
 62
     0
 10
38.4088311625436
 20
46.40033665227732
 30
0.0
 11
37.11309216446538
 21
46.40033665227732
 31
0.0
  0
LINE
  5
5E7
  8
0
  6
BYBLOCK
 62
     0
 10
37.53159216446538
 20
29.30433665227731
 30
0.0
 11
37.53159216446538
 21
36.76108665227731
 31
0.0
  0
SOLID
  5
5E8
  8
0
  6
BYBLOCK
 62
     0
 10
37.53159216446538
 20
28.49433665227731
 30
0.0
 11
37.66659216446541
 21
29.30433665227731
 31
0.0
 12
37.39659216446535
 22
29.30433665227731
 32
0.0
 13
37.39659216446535
 23
29.30433665227731
 33
0.0
  0
LINE
  5
5E9
  8
0
  6
BYBLOCK
 62
     0
 10
37.53159216446538
 20
45.59033665227732
 30
0.0
 11
37.53159216446538
 21
38.13358665227732
 31
0.0
  0
SOLID
  5
5EA
  8
0
  6
BYBLOCK
 62
     0
 10
37.53159216446538
 20
46.40033665227732
 30
0.0
 11
37.66659216446541
 21
45.59033665227732
 31
0.0
 12
37.39659216446535
 22
45.59033665227732
 32
0.0
 13
37.39659216446535
 23
45.59033665227732
 33
0.0
  0
TEXT
  5
5EB
  8
0
  6
BYBLOCK
 62
     0
 10
37.39026403946538
 20
37.16608665227731
 30
0.0
 40
0.5625
  1
A
 41
0.75
  7
TXT
  0
ENDBLK
  5
777
  8
OBJECT
  0
BLOCK
  8
0
  2
*D2
 70
     1
 10
0.0
 20
0.0
 30
0.0
  3
*D2
  1

  0
POINT
  5
5EF
  8
DEFPOINTS
  6
BYBLOCK
 62
     0
 10
34.07175008629561
 20
18.78738338983647
 30
0.0
  0
POINT
  5
5F0
  8
DEFPOINTS
  6
BYBLOCK
 62
     0
 10
34.25925008629561
 20
17.89738338983647
 30
0.0
  0
LINE
  5
5F1
  8
0
  6
BYBLOCK
 62
     0
 10
34.35525008629561
 20
18.78738338983647
 30
0.0
 11
36.0770335110025
 21
18.78738338983647
 31
0.0
  0
LINE
  5
5F2
  8
0
  6
BYBLOCK
 62
     0
 10
34.54275008629561
 20
17.89738338983647
 30
0.0
 11
36.0770335110025
 21
17.89738338983647
 31
0.0
  0
LINE
  5
5F3
  8
0
  6
BYBLOCK
 62
     0
 10
35.6585335110025
 20
19.59738338983647
 30
0.0
 11
35.6585335110025
 21
20.40738338983647
 31
0.0
  0
SOLID
  5
5F4
  8
0
  6
BYBLOCK
 62
     0
 10
35.6585335110025
 20
18.78738338983647
 30
0.0
 11
35.52353351100248
 21
19.59738338983647
 31
0.0
 12
35.79353351100253
 22
19.59738338983647
 32
0.0
 13
35.79353351100253
 23
19.59738338983647
 33
0.0
  0
LINE
  5
5F5
  8
0
  6
BYBLOCK
 62
     0
 10
35.6585335110025
 20
17.08738338983647
 30
0.0
 11
35.6585335110025
 21
16.27738338983647
 31
0.0
  0
SOLID
  5
5F6
  8
0
  6
BYBLOCK
 62
     0
 10
35.6585335110025
 20
17.89738338983647
 30
0.0
 11
35.52353351100248
 21
17.08738338983647
 31
0.0
 12
35.79353351100253
 22
17.08738338983647
 32
0.0
 13
35.79353351100253
 23
17.08738338983647
 33
0.0
  0
TEXT
  5
5F7
  8
0
  6
BYBLOCK
 62
     0
 10
34.88650226100251
 20
18.06113338983647
 30
0.0
 40
0.5625
  1
0.890
 41
0.75
  7
TXT
  0
ENDBLK
  5
779
  8
OBJECT
  0
BLOCK
  8
0
  2
*D3
 70
     1
 10
0.0
 20
0.0
 30
0.0
  3
*D3
  1

  0
POINT
  5
5FB
  8
DEFPOINTS
  6
BYBLOCK
 62
     0
 10
34.07175008629561
 20
18.78738338983647
 30
0.0
  0
POINT
  5
5FC
  8
DEFPOINTS
  6
BYBLOCK
 62
     0
 10
34.32125008629561
 20
17.20938338983647
 30
0.0
  0
LINE
  5
5FD
  8
0
  6
BYBLOCK
 62
     0
 10
34.35525008629561
 20
18.78738338983647
 30
0.0
 11
38.34571149497636
 21
18.78738338983647
 31
0.0
  0
LINE
  5
5FE
  8
0
  6
BYBLOCK
 62
     0
 10
34.6047500862956
 20
17.20938338983647
 30
0.0
 11
38.34571149497636
 21
17.20938338983647
 31
0.0
  0
LINE
  5
5FF
  8
0
  6
BYBLOCK
 62
     0
 10
37.92721149497636
 20
19.59738338983647
 30
0.0
 11
37.92721149497636
 21
20.40738338983647
 31
0.0
  0
SOLID
  5
600
  8
0
  6
BYBLOCK
 62
     0
 10
37.92721149497636
 20
18.78738338983647
 30
0.0
 11
37.79221149497634
 21
19.59738338983647
 31
0.0
 12
38.06221149497639
 22
19.59738338983647
 32
0.0
 13
38.06221149497639
 23
19.59738338983647
 33
0.0
  0
LINE
  5
601
  8
0
  6
BYBLOCK
 62
     0
 10
37.92721149497636
 20
16.39938338983647
 30
0.0
 11
37.92721149497636
 21
15.58938338983647
 31
0.0
  0
SOLID
  5
602
  8
0
  6
BYBLOCK
 62
     0
 10
37.92721149497636
 20
17.20938338983647
 30
0.0
 11
37.79221149497634
 21
16.39938338983647
 31
0.0
 12
38.06221149497639
 22
16.39938338983647
 32
0.0
 13
38.06221149497639
 23
16.39938338983647
 33
0.0
  0
TEXT
  5
603
  8
0
  6
BYBLOCK
 62
     0
 10
37.15307086997636
 20
17.71713338983647
 30
0.0
 40
0.5625
  1
1.578
 41
0.75
  7
TXT
  0
ENDBLK
  5
77B
  8
OBJECT
  0
BLOCK
  8
0
  2
*D4
 70
     1
 10
0.0
 20
0.0
 30
0.0
  3
*D4
  1

  0
POINT
  5
607
  8
DEFPOINTS
  6
BYBLOCK
 62
     0
 10
7.821250086295624
 20
17.95938338983646
 30
0.0
  0
POINT
  5
608
  8
DEFPOINTS
  6
BYBLOCK
 62
     0
 10
7.821250086295624
 20
17.20938338983647
 30
0.0
  0
LINE
  5
609
  8
0
  6
BYBLOCK
 62
     0
 10
7.537750086295624
 20
17.95938338983646
 30
0.0
 11
5.81750529375331
 21
17.95938338983646
 31
0.0
  0
LINE
  5
60A
  8
0
  6
BYBLOCK
 62
     0
 10
7.537750086295624
 20
17.20938338983647
 30
0.0
 11
5.81750529375331
 21
17.20938338983647
 31
0.0
  0
LINE
  5
60B
  8
0
  6
BYBLOCK
 62
     0
 10
6.10100529375331
 20
18.76938338983646
 30
0.0
 11
6.10100529375331
 21
19.57938338983646
 31
0.0
  0
SOLID
  5
60C
  8
0
  6
BYBLOCK
 62
     0
 10
6.10100529375331
 20
17.95938338983646
 30
0.0
 11
5.966005293753283
 21
18.76938338983646
 31
0.0
 12
6.236005293753338
 22
18.76938338983646
 32
0.0
 13
6.236005293753338
 23
18.76938338983646
 33
0.0
  0
LINE
  5
60D
  8
0
  6
BYBLOCK
 62
     0
 10
6.10100529375331
 20
16.39938338983647
 30
0.0
 11
6.10100529375331
 21
15.58938338983647
 31
0.0
  0
SOLID
  5
60E
  8
0
  6
BYBLOCK
 62
     0
 10
6.10100529375331
 20
17.20938338983647
 30
0.0
 11
5.966005293753283
 21
16.39938338983647
 31
0.0
 12
6.236005293753338
 22
16.39938338983647
 32
0.0
 13
6.236005293753338
 23
16.39938338983647
 33
0.0
  0
LINE
  5
60F
  8
0
  6
BYBLOCK
 62
     0
 10
6.10100529375331
 20
15.58938338983647
 30
0.0
 11
5.29100529375331
 21
15.58938338983647
 31
0.0
  0
TEXT
  5
610
  8
0
  6
BYBLOCK
 62
     0
 10
3.34194279375331
 20
15.30813338983647
 30
0.0
 40
0.5625
  1
0.750
 41
0.75
  7
TXT
  0
ENDBLK
  5
77D
  8
OBJECT
  0
BLOCK
  8
0
  2
*D5
 70
     1
 10
0.0
 20
0.0
 30
0.0
  3
*D5
  1

  0
POINT
  5
614
  8
DEFPOINTS
  6
BYBLOCK
 62
     0
 10
8.19625008629562
 20
17.20938338983647
 30
0.0
  0
POINT
  5
615
  8
DEFPOINTS
  6
BYBLOCK
 62
     0
 10
7.821250086295624
 20
17.20938338983647
 30
0.0
  0
LINE
  5
616
  8
0
  6
BYBLOCK
 62
     0
 10
8.19625008629562
 20
16.92588338983647
 30
0.0
 11
8.19625008629562
 21
14.13039872762037
 31
0.0
  0
LINE
  5
617
  8
0
  6
BYBLOCK
 62
     0
 10
7.821250086295624
 20
16.92588338983647
 30
0.0
 11
7.821250086295624
 21
14.13039872762037
 31
0.0
  0
LINE
  5
618
  8
0
  6
BYBLOCK
 62
     0
 10
9.006250086295621
 20
14.54889872762037
 30
0.0
 11
9.81625008629562
 21
14.54889872762037
 31
0.0
  0
SOLID
  5
619
  8
0
  6
BYBLOCK
 62
     0
 10
8.19625008629562
 20
14.54889872762037
 30
0.0
 11
9.006250086295621
 21
14.6838987276204
 31
0.0
 12
9.006250086295621
 22
14.41389872762034
 32
0.0
 13
9.006250086295621
 23
14.41389872762034
 33
0.0
  0
LINE
  5
61A
  8
0
  6
BYBLOCK
 62
     0
 10
7.011250086295624
 20
14.54889872762037
 30
0.0
 11
6.201250086295624
 21
14.54889872762037
 31
0.0
  0
SOLID
  5
61B
  8
0
  6
BYBLOCK
 62
     0
 10
7.821250086295624
 20
14.54889872762037
 30
0.0
 11
7.011250086295624
 21
14.6838987276204
 31
0.0
 12
7.011250086295624
 22
14.41389872762034
 32
0.0
 13
7.011250086295624
 23
14.41389872762034
 33
0.0
  0
TEXT
  5
61C
  8
0
  6
BYBLOCK
 62
     0
 10
4.180468836295624
 20
14.26764872762037
 30
0.0
 40
0.5625
  1
0.375
 41
0.75
  7
TXT
  0
ENDBLK
  5
77F
  8
OBJECT
  0
BLOCK
  8
0
  2
*D6
 70
     1
 10
0.0
 20
0.0
 30
0.0
  3
*D6
  1

  0
POINT
  5
620
  8
DEFPOINTS
  6
BYBLOCK
 62
     0
 10
7.821250086295624
 20
17.20938338983647
 30
0.0
  0
POINT
  5
621
  8
DEFPOINTS
  6
BYBLOCK
 62
     0
 10
34.32125008629561
 20
17.20938338983647
 30
0.0
  0
LINE
  5
622
  8
0
  6
BYBLOCK
 62
     0
 10
7.821250086295624
 20
16.92588338983647
 30
0.0
 11
7.821250086295624
 21
12.86589872762037
 31
0.0
  0
LINE
  5
623
  8
0
  6
BYBLOCK
 62
     0
 10
34.32125008629561
 20
16.92588338983647
 30
0.0
 11
34.32125008629561
 21
12.86589872762037
 31
0.0
  0
LINE
  5
624
  8
0
  6
BYBLOCK
 62
     0
 10
8.631250086295625
 20
13.28439872762037
 30
0.0
 11
20.52492196129562
 21
13.28439872762037
 31
0.0
  0
SOLID
  5
625
  8
0
  6
BYBLOCK
 62
     0
 10
7.821250086295624
 20
13.28439872762037
 30
0.0
 11
8.631250086295625
 21
13.14939872762034
 31
0.0
 12
8.631250086295625
 22
13.4193987276204
 32
0.0
 13
8.631250086295625
 23
13.4193987276204
 33
0.0
  0
LINE
  5
626
  8
0
  6
BYBLOCK
 62
     0
 10
33.5112500862956
 20
13.28439872762037
 30
0.0
 11
21.61757821129562
 21
13.28439872762037
 31
0.0
  0
SOLID
  5
627
  8
0
  6
BYBLOCK
 62
     0
 10
34.32125008629561
 20
13.28439872762037
 30
0.0
 11
33.5112500862956
 21
13.14939872762034
 31
0.0
 12
33.5112500862956
 22
13.4193987276204
 32
0.0
 13
33.5112500862956
 23
13.4193987276204
 33
0.0
  0
TEXT
  5
628
  8
0
  6
BYBLOCK
 62
     0
 10
20.92992196129561
 20
13.00314872762037
 30
0.0
 40
0.5625
  1
B
 41
0.75
  7
TXT
  0
ENDBLK
  5
781
  8
OBJECT
  0
BLOCK
  8
0
  2
*D7
 70
     1
 10
0.0
 20
0.0
 30
0.0
  3
*D7
  1

  0
POINT
  5
62C
  8
DEFPOINTS
  6
BYBLOCK
 62
     0
 10
9.383750086295613
 20
18.44038338983646
 30
0.0
  0
POINT
  5
62D
  8
DEFPOINTS
  6
BYBLOCK
 62
     0
 10
7.94575008629562
 20
18.66238338983647
 30
0.0
  0
LINE
  5
62E
  8
0
  6
BYBLOCK
 62
     0
 10
9.383750086295613
 20
18.72388338983646
 30
0.0
 11
9.383750086295613
 21
21.0239221220947
 31
0.0
  0
LINE
  5
62F
  8
0
  6
BYBLOCK
 62
     0
 10
7.94575008629562
 20
18.94588338983647
 30
0.0
 11
7.94575008629562
 21
21.0239221220947
 31
0.0
  0
LINE
  5
630
  8
0
  6
BYBLOCK
 62
     0
 10
10.19375008629561
 20
20.6054221220947
 30
0.0
 11
11.00375008629561
 21
20.6054221220947
 31
0.0
  0
SOLID
  5
631
  8
0
  6
BYBLOCK
 62
     0
 10
9.383750086295613
 20
20.6054221220947
 30
0.0
 11
10.19375008629561
 21
20.74042212209473
 31
0.0
 12
10.19375008629561
 22
20.47042212209467
 32
0.0
 13
10.19375008629561
 23
20.47042212209467
 33
0.0
  0
LINE
  5
632
  8
0
  6
BYBLOCK
 62
     0
 10
7.135750086295619
 20
20.6054221220947
 30
0.0
 11
6.32575008629562
 21
20.6054221220947
 31
0.0
  0
SOLID
  5
633
  8
0
  6
BYBLOCK
 62
     0
 10
7.94575008629562
 20
20.6054221220947
 30
0.0
 11
7.135750086295619
 21
20.74042212209473
 31
0.0
 12
7.135750086295619
 22
20.47042212209467
 32
0.0
 13
7.135750086295619
 23
20.47042212209467
 33
0.0
  0
TEXT
  5
634
  8
0
  6
BYBLOCK
 62
     0
 10
4.372468836295619
 20
20.3241721220947
 30
0.0
 40
0.5625
  1
1.438
 41
0.75
  7
TXT
  0
ENDBLK
  5
783
  8
OBJECT
  0
BLOCK
  8
0
  2
*D8
 70
     1
 10
0.0
 20
0.0
 30
0.0
  3
*D8
  1

  0
POINT
  5
638
  8
DEFPOINTS
  6
BYBLOCK
 62
     0
 10
9.383750086295613
 20
18.44038338983646
 30
0.0
  0
POINT
  5
639
  8
DEFPOINTS
  6
BYBLOCK
 62
     0
 10
7.821250086295624
 20
17.95938338983646
 30
0.0
  0
LINE
  5
63A
  8
0
  6
BYBLOCK
 62
     0
 10
9.383750086295613
 20
18.72388338983646
 30
0.0
 11
9.383750086295613
 21
22.2884221220947
 31
0.0
  0
LINE
  5
63B
  8
0
  6
BYBLOCK
 62
     0
 10
7.821250086295624
 20
18.24288338983646
 30
0.0
 11
7.821250086295624
 21
22.2884221220947
 31
0.0
  0
LINE
  5
63C
  8
0
  6
BYBLOCK
 62
     0
 10
10.19375008629561
 20
21.8699221220947
 30
0.0
 11
11.00375008629561
 21
21.8699221220947
 31
0.0
  0
SOLID
  5
63D
  8
0
  6
BYBLOCK
 62
     0
 10
9.383750086295613
 20
21.8699221220947
 30
0.0
 11
10.19375008629561
 21
22.00492212209473
 31
0.0
 12
10.19375008629561
 22
21.73492212209467
 32
0.0
 13
10.19375008629561
 23
21.73492212209467
 33
0.0
  0
LINE
  5
63E
  8
0
  6
BYBLOCK
 62
     0
 10
7.011250086295624
 20
21.8699221220947
 30
0.0
 11
6.201250086295624
 21
21.8699221220947
 31
0.0
  0
SOLID
  5
63F
  8
0
  6
BYBLOCK
 62
     0
 10
7.821250086295624
 20
21.8699221220947
 30
0.0
 11
7.011250086295624
 21
22.00492212209473
 31
0.0
 12
7.011250086295624
 22
21.73492212209467
 32
0.0
 13
7.011250086295624
 23
21.73492212209467
 33
0.0
  0
TEXT
  5
640
  8
0
  6
BYBLOCK
 62
     0
 10
4.247968836295623
 20
21.5886721220947
 30
0.0
 40
0.5625
  1
1.562
 41
0.75
  7
TXT
  0
ENDBLK
  5
785
  8
OBJECT
  0
BLOCK
  8
0
  2
*D9
 70
     1
 10
0.0
 20
0.0
 30
0.0
  3
*D9
  1

  0
POINT
  5
644
  8
DEFPOINTS
  6
BYBLOCK
 62
     0
 10
9.383750086295613
 20
18.44038338983646
 30
0.0
  0
POINT
  5
645
  8
DEFPOINTS
  6
BYBLOCK
 62
     0
 10
32.75875008629561
 20
18.44038338983646
 30
0.0
  0
LINE
  5
646
  8
0
  6
BYBLOCK
 62
     0
 10
9.383750086295613
 20
18.72388338983646
 30
0.0
 11
9.383750086295613
 21
22.2884221220947
 31
0.0
  0
LINE
  5
647
  8
0
  6
BYBLOCK
 62
     0
 10
32.75875008629561
 20
18.72388338983646
 30
0.0
 11
32.75875008629561
 21
22.2884221220947
 31
0.0
  0
LINE
  5
648
  8
0
  6
BYBLOCK
 62
     0
 10
10.19375008629561
 20
21.8699221220947
 30
0.0
 11
16.51500008629561
 21
21.8699221220947
 31
0.0
  0
SOLID
  5
649
  8
0
  6
BYBLOCK
 62
     0
 10
9.383750086295613
 20
21.8699221220947
 30
0.0
 11
10.19375008629561
 21
21.73492212209467
 31
0.0
 12
10.19375008629561
 22
22.00492212209473
 32
0.0
 13
10.19375008629561
 23
22.00492212209473
 33
0.0
  0
LINE
  5
64A
  8
0
  6
BYBLOCK
 62
     0
 10
31.94875008629561
 20
21.8699221220947
 30
0.0
 11
25.62750008629561
 21
21.8699221220947
 31
0.0
  0
SOLID
  5
64B
  8
0
  6
BYBLOCK
 62
     0
 10
32.75875008629561
 20
21.8699221220947
 30
0.0
 11
31.94875008629561
 21
21.73492212209467
 31
0.0
 12
31.94875008629561
 22
22.00492212209473
 32
0.0
 13
31.94875008629561
 23
22.00492212209473
 33
0.0
  0
TEXT
  5
64C
  8
0
  6
BYBLOCK
 62
     0
 10
16.92000008629561
 20
21.5886721220947
 30
0.0
 40
0.5625
  1
(C) SPACES @ (D) = (E)
 41
0.75
  7
TXT
  0
ENDBLK
  5
787
  8
OBJECT
  0
ENDSEC
  0
SECTION
  2
ENTITIES
  0
LINE
  5
DB
  8
HIDDEN
 10
33.94625008629561
 20
28.57233665227731
 30
0.0
 11
33.94625008629562
 21
46.32233665227731
 31
0.0
  0
LINE
  5
DC
  8
HIDDEN
 10
8.19625008629562
 20
46.32233665227731
 30
0.0
 11
8.19625008629562
 21
28.57233665227731
 31
0.0
  0
LINE
  5
DD
  8
OBJECT
 10
7.821250086295624
 20
28.57233665227731
 30
0.0
 11
7.94575008629562
 21
28.57233665227731
 31
0.0
  0
LINE
  5
DE
  8
OBJECT
 10
34.19675008629562
 20
28.49433665227731
 30
0.0
 11
34.19675008629561
 21
28.57233665227731
 31
0.0
  0
LINE
  5
DF
  8
OBJECT
 10
7.94575008629562
 20
28.57233665227731
 30
0.0
 11
7.94575008629562
 21
28.49433665227731
 31
0.0
  0
LINE
  5
E0
  8
OBJECT
 10
34.19675008629561
 20
28.57233665227731
 30
0.0
 11
34.32125008629561
 21
28.57233665227731
 31
0.0
  0
LINE
  5
E1
  8
OBJECT
 10
38.6923311625436
 20
28.49433665227731
 30
0.0
 11
39.5823311625436
 21
28.49433665227731
 31
0.0
  0
LINE
  5
E2
  8
OBJECT
 10
39.5823311625436
 20
28.49433665227731
 30
0.0
 11
39.5823311625436
 21
28.57233665227731
 31
0.0
  0
LINE
  5
E3
  8
OBJECT
 10
38.6923311625436
 20
28.55633665227732
 30
0.0
 11
39.5203311625436
 21
28.55633665227732
 31
0.0
  0
LINE
  5
E4
  8
OBJECT
 10
39.5203311625436
 20
28.55633665227732
 30
0.0
 11
39.5203311625436
 21
46.3383366522773
 31
0.0
  0
LINE
  5
E5
  8
OBJECT
 10
38.6923311625436
 20
28.49433665227731
 30
0.0
 11
38.6923311625436
 21
28.55633665227732
 31
0.0
  0
LINE
  5
E6
  8
OBJECT
 10
38.6923311625436
 20
46.40033665227732
 30
0.0
 11
38.6923311625436
 21
46.3383366522773
 31
0.0
  0
LINE
  5
E7
  8
OBJECT
 10
38.6923311625436
 20
46.3383366522773
 30
0.0
 11
39.5203311625436
 21
46.3383366522773
 31
0.0
  0
LINE
  5
E8
  8
OBJECT
 10
38.6923311625436
 20
46.40033665227732
 30
0.0
 11
39.5823311625436
 21
46.40033665227732
 31
0.0
  0
LINE
  5
E9
  8
OBJECT
 10
33.94625008629561
 20
17.20938338983647
 30
0.0
 11
34.32125008629561
 21
17.20938338983647
 31
0.0
  0
LINE
  5
EA
  8
OBJECT
 10
34.32125008629561
 20
17.20938338983647
 30
0.0
 11
34.32125008629561
 21
17.95938338983646
 31
0.0
  0
LINE
  5
EB
  8
OBJECT
 10
34.32125008629561
 20
17.95938338983646
 30
0.0
 11
34.19675008629561
 21
17.95938338983646
 31
0.0
  0
LINE
  5
EC
  8
OBJECT
 10
33.94625008629561
 20
17.27138338983646
 30
0.0
 11
34.25925008629561
 21
17.27138338983646
 31
0.0
  0
LINE
  5
ED
  8
OBJECT
 10
34.25925008629561
 20
17.27138338983646
 30
0.0
 11
34.25925008629561
 21
17.89738338983647
 31
0.0
  0
LINE
  5
EE
  8
OBJECT
 10
34.25925008629561
 20
17.89738338983647
 30
0.0
 11
7.88325008629562
 21
17.89738338983647
 31
0.0
  0
LINE
  5
EF
  8
OBJECT
 10
33.94625008629561
 20
17.20938338983647
 30
0.0
 11
33.94625008629561
 21
17.27138338983646
 31
0.0
  0
LINE
  5
F0
  8
OBJECT
 10
8.19625008629562
 20
17.20938338983647
 30
0.0
 11
8.19625008629562
 21
17.27138338983646
 31
0.0
  0
LINE
  5
F1
  8
OBJECT
 10
7.88325008629562
 20
17.27138338983646
 30
0.0
 11
7.88325008629562
 21
17.89738338983647
 31
0.0
  0
LINE
  5
F2
  8
OBJECT
 10
8.19625008629562
 20
17.27138338983646
 30
0.0
 11
7.88325008629562
 21
17.27138338983646
 31
0.0
  0
LINE
  5
F3
  8
OBJECT
 10
7.821250086295624
 20
17.20938338983647
 30
0.0
 11
7.821250086295624
 21
17.95938338983646
 31
0.0
  0
LINE
  5
F4
  8
OBJECT
 10
8.19625008629562
 20
17.20938338983647
 30
0.0
 11
7.821250086295624
 21
17.20938338983647
 31
0.0
  0
ARC
  5
1D2
  8
OBJECT
 10
34.07175008629561
 20
18.66238338983647
 30
0.0
 40
0.125
 50
0.0
 51
90.0
  0
ARC
  5
1D3
  8
OBJECT
 10
8.070750086295611
 20
18.66238338983647
 30
0.0
 40
0.125
 50
90.0
 51
180.0
  0
LINE
  5
1D4
  8
CENTER
 10
14.66819452629561
 20
18.35038338983645
 30
0.0
 11
14.48819452629561
 21
18.35038338983645
 31
0.0
  0
LINE
  5
1D5
  8
CENTER
 10
14.57819452629561
 20
18.26038338983646
 30
0.0
 11
14.57819452629561
 21
18.44038338983646
 31
0.0
  0
LINE
  5
1D6
  8
OBJECT
 10
14.29719452629562
 20
18.47538338983645
 30
0.0
 11
14.85919452629561
 21
18.47538338983645
 31
0.0
  0
LINE
  5
1D7
  8
OBJECT
 10
14.85919452629561
 20
18.22538338983646
 30
0.0
 11
14.29719452629562
 21
18.22538338983646
 31
0.0
  0
ARC
  5
1D8
  8
OBJECT
 10
14.29719452629561
 20
18.35038338983645
 30
0.0
 40
0.125
 50
90.0
 51
270.0000000000008
  0
ARC
  5
1D9
  8
OBJECT
 10
14.85919452629561
 20
18.35038338983645
 30
0.0
 40
0.125
 50
270.0
 51
90.00000000000081
  0
ARC
  5
1DA
  8
OBJECT
 10
12.26197230629561
 20
18.35038338983645
 30
0.0
 40
0.125
 50
269.9999999999992
 51
90.0
  0
ARC
  5
1DB
  8
OBJECT
 10
11.69997230629561
 20
18.35038338983645
 30
0.0
 40
0.125
 50
89.99999999999919
 51
270.0
  0
LINE
  5
1DC
  8
OBJECT
 10
12.26197230629561
 20
18.22538338983646
 30
0.0
 11
11.69997230629562
 21
18.22538338983646
 31
0.0
  0
LINE
  5
1DD
  8
OBJECT
 10
11.69997230629562
 20
18.47538338983645
 30
0.0
 11
12.26197230629561
 21
18.47538338983645
 31
0.0
  0
LINE
  5
1DE
  8
CENTER
 10
11.98097230629561
 20
18.26038338983646
 30
0.0
 11
11.98097230629561
 21
18.44038338983646
 31
0.0
  0
LINE
  5
1DF
  8
CENTER
 10
12.07097230629561
 20
18.35038338983645
 30
0.0
 11
11.89097230629561
 21
18.35038338983645
 31
0.0
  0
LINE
  5
1E0
  8
CENTER
 10
17.26541674629561
 20
18.35038338983645
 30
0.0
 11
17.08541674629561
 21
18.35038338983645
 31
0.0
  0
LINE
  5
1E1
  8
CENTER
 10
17.17541674629561
 20
18.26038338983646
 30
0.0
 11
17.17541674629561
 21
18.44038338983646
 31
0.0
  0
LINE
  5
1E2
  8
OBJECT
 10
16.89441674629562
 20
18.47538338983645
 30
0.0
 11
17.45641674629561
 21
18.47538338983645
 31
0.0
  0
LINE
  5
1E3
  8
OBJECT
 10
17.45641674629561
 20
18.22538338983646
 30
0.0
 11
16.89441674629562
 21
18.22538338983646
 31
0.0
  0
ARC
  5
1E4
  8
OBJECT
 10
16.89441674629561
 20
18.35038338983645
 30
0.0
 40
0.125
 50
90.0
 51
270.0000000000008
  0
ARC
  5
1E5
  8
OBJECT
 10
17.45641674629561
 20
18.35038338983645
 30
0.0
 40
0.125
 50
270.0
 51
90.00000000000081
  0
LINE
  5
1E6
  8
CENTER
 10
30.2515278462956
 20
18.35038338983645
 30
0.0
 11
30.07152784629559
 21
18.35038338983645
 31
0.0
  0
LINE
  5
1E7
  8
CENTER
 10
30.1615278462956
 20
18.26038338983646
 30
0.0
 11
30.1615278462956
 21
18.44038338983646
 31
0.0
  0
LINE
  5
1E8
  8
OBJECT
 10
29.8805278462956
 20
18.47538338983645
 30
0.0
 11
30.44252784629559
 21
18.47538338983645
 31
0.0
  0
LINE
  5
1E9
  8
OBJECT
 10
30.44252784629559
 20
18.22538338983646
 30
0.0
 11
29.8805278462956
 21
18.22538338983646
 31
0.0
  0
ARC
  5
1EA
  8
OBJECT
 10
29.8805278462956
 20
18.35038338983645
 30
0.0
 40
0.125
 50
90.0
 51
270.0000000000008
  0
ARC
  5
1EB
  8
OBJECT
 10
30.44252784629559
 20
18.35038338983645
 30
0.0
 40
0.125
 50
270.0
 51
90.00000000000081
  0
LINE
  5
1EC
  8
CENTER
 10
27.65430562629559
 20
18.35038338983645
 30
0.0
 11
27.47430562629559
 21
18.35038338983645
 31
0.0
  0
LINE
  5
1ED
  8
CENTER
 10
27.56430562629559
 20
18.26038338983646
 30
0.0
 11
27.56430562629559
 21
18.44038338983646
 31
0.0
  0
LINE
  5
1EE
  8
OBJECT
 10
27.28330562629559
 20
18.47538338983645
 30
0.0
 11
27.84530562629559
 21
18.47538338983645
 31
0.0
  0
LINE
  5
1EF
  8
OBJECT
 10
27.84530562629559
 20
18.22538338983646
 30
0.0
 11
27.28330562629559
 21
18.22538338983646
 31
0.0
  0
ARC
  5
1F0
  8
OBJECT
 10
27.28330562629558
 20
18.35038338983645
 30
0.0
 40
0.125
 50
90.0
 51
270.0000000000008
  0
ARC
  5
1F1
  8
OBJECT
 10
27.84530562629559
 20
18.35038338983645
 30
0.0
 40
0.125
 50
270.0
 51
90.00000000000081
  0
ARC
  5
1F2
  8
OBJECT
 10
9.664750086295602
 20
18.35038338983645
 30
0.0
 40
0.125
 50
269.9999999999992
 51
90.0
  0
ARC
  5
1F3
  8
OBJECT
 10
9.102750086295613
 20
18.35038338983645
 30
0.0
 40
0.125
 50
89.99999999999919
 51
270.0
  0
LINE
  5
1F4
  8
OBJECT
 10
9.664750086295612
 20
18.22538338983646
 30
0.0
 11
9.102750086295622
 21
18.22538338983646
 31
0.0
  0
LINE
  5
1F5
  8
OBJECT
 10
9.102750086295622
 20
18.47538338983645
 30
0.0
 11
9.664750086295612
 21
18.47538338983645
 31
0.0
  0
LINE
  5
1F6
  8
CENTER
 10
9.383750086295613
 20
18.26038338983646
 30
0.0
 11
9.383750086295613
 21
18.44038338983646
 31
0.0
  0
LINE
  5
1F7
  8
CENTER
 10
9.473750086295613
 20
18.35038338983645
 30
0.0
 11
9.293750086295612
 21
18.35038338983645
 31
0.0
  0
ARC
  5
1F8
  8
OBJECT
 10
20.05363896629561
 20
18.35038338983645
 30
0.0
 40
0.125
 50
270.0
 51
90.00000000000081
  0
ARC
  5
1F9
  8
OBJECT
 10
19.49163896629561
 20
18.35038338983645
 30
0.0
 40
0.125
 50
90.0
 51
270.0000000000008
  0
LINE
  5
1FA
  8
OBJECT
 10
20.05363896629561
 20
18.22538338983646
 30
0.0
 11
19.49163896629562
 21
18.22538338983646
 31
0.0
  0
LINE
  5
1FB
  8
OBJECT
 10
19.49163896629562
 20
18.47538338983645
 30
0.0
 11
20.05363896629561
 21
18.47538338983645
 31
0.0
  0
LINE
  5
1FC
  8
CENTER
 10
19.77263896629561
 20
18.26038338983646
 30
0.0
 11
19.77263896629561
 21
18.44038338983646
 31
0.0
  0
LINE
  5
1FD
  8
CENTER
 10
19.86263896629561
 20
18.35038338983645
 30
0.0
 11
19.68263896629561
 21
18.35038338983645
 31
0.0
  0
ARC
  5
1FE
  8
OBJECT
 10
22.65086118629561
 20
18.35038338983645
 30
0.0
 40
0.125
 50
270.0
 51
90.00000000000081
  0
ARC
  5
1FF
  8
OBJECT
 10
22.08886118629561
 20
18.35038338983645
 30
0.0
 40
0.125
 50
90.0
 51
270.0000000000008
  0
LINE
  5
200
  8
OBJECT
 10
22.65086118629561
 20
18.22538338983646
 30
0.0
 11
22.08886118629562
 21
18.22538338983646
 31
0.0
  0
LINE
  5
201
  8
OBJECT
 10
22.08886118629562
 20
18.47538338983645
 30
0.0
 11
22.65086118629561
 21
18.47538338983645
 31
0.0
  0
LINE
  5
202
  8
CENTER
 10
22.36986118629561
 20
18.26038338983646
 30
0.0
 11
22.36986118629561
 21
18.44038338983646
 31
0.0
  0
LINE
  5
203
  8
CENTER
 10
22.45986118629561
 20
18.35038338983645
 30
0.0
 11
22.27986118629561
 21
18.35038338983645
 31
0.0
  0
ARC
  5
204
  8
OBJECT
 10
25.2480834062956
 20
18.35038338983645
 30
0.0
 40
0.125
 50
270.0
 51
90.00000000000081
  0
ARC
  5
205
  8
OBJECT
 10
24.68608340629561
 20
18.35038338983645
 30
0.0
 40
0.125
 50
90.0
 51
270.0000000000008
  0
LINE
  5
206
  8
OBJECT
 10
25.2480834062956
 20
18.22538338983646
 30
0.0
 11
24.68608340629561
 21
18.22538338983646
 31
0.0
  0
LINE
  5
207
  8
OBJECT
 10
24.68608340629561
 20
18.47538338983645
 30
0.0
 11
25.2480834062956
 21
18.47538338983645
 31
0.0
  0
LINE
  5
208
  8
CENTER
 10
24.96708340629561
 20
18.26038338983646
 30
0.0
 11
24.96708340629561
 21
18.44038338983646
 31
0.0
  0
LINE
  5
209
  8
CENTER
 10
25.0570834062956
 20
18.35038338983645
 30
0.0
 11
24.8770834062956
 21
18.35038338983645
 31
0.0
  0
ARC
  5
20A
  8
OBJECT
 10
33.03975008629561
 20
18.35038338983645
 30
0.0
 40
0.125
 50
270.0
 51
90.00000000000081
  0
ARC
  5
20B
  8
OBJECT
 10
32.47775008629561
 20
18.35038338983645
 30
0.0
 40
0.125
 50
90.0
 51
270.0000000000008
  0
LINE
  5
20C
  8
OBJECT
 10
33.03975008629561
 20
18.22538338983646
 30
0.0
 11
32.47775008629561
 21
18.22538338983646
 31
0.0
  0
LINE
  5
20D
  8
OBJECT
 10
32.47775008629561
 20
18.47538338983645
 30
0.0
 11
33.03975008629561
 21
18.47538338983645
 31
0.0
  0
LINE
  5
20E
  8
CENTER
 10
32.75875008629561
 20
18.26038338983646
 30
0.0
 11
32.75875008629561
 21
18.44038338983646
 31
0.0
  0
LINE
  5
20F
  8
CENTER
 10
32.84875008629561
 20
18.35038338983645
 30
0.0
 11
32.66875008629562
 21
18.35038338983645
 31
0.0
  0
LINE
  5
210
  8
OBJECT
 10
34.19675008629562
 20
17.89738338983647
 30
0.0
 11
34.19675008629561
 21
18.66238338983647
 31
0.0
  0
LINE
  5
211
  8
OBJECT
 10
7.94575008629562
 20
18.66238338983647
 30
0.0
 11
7.94575008629562
 21
17.89738338983647
 31
0.0
  0
LINE
  5
212
  8
OBJECT
 10
34.07175008629561
 20
18.78738338983647
 30
0.0
 11
8.070750086295611
 21
18.78738338983647
 31
0.0
  0
LINE
  5
213
  8
OBJECT
 10
7.94575008629562
 20
17.95938338983646
 30
0.0
 11
7.821250086295624
 21
17.95938338983646
 31
0.0
  0
LINE
  5
214
  8
HIDDEN
 10
34.19675008629562
 20
17.95938338983646
 30
0.0
 11
7.94575008629562
 21
17.95938338983646
 31
0.0
  0
LINE
  5
215
  8
OBJECT
 10
7.821250086295624
 20
28.57233665227731
 30
0.0
 11
7.821250086295624
 21
46.32233665227731
 31
0.0
  0
LINE
  5
216
  8
OBJECT
 10
34.32125008629561
 20
28.57233665227731
 30
0.0
 11
34.32125008629561
 21
46.32233665227731
 31
0.0
  0
LINE
  5
217
  8
HIDDEN
 10
7.94575008629562
 20
28.57233665227731
 30
0.0
 11
8.19625008629562
 21
28.57233665227731
 31
0.0
  0
LINE
  5
218
  8
HIDDEN
 10
34.19675008629561
 20
28.57233665227731
 30
0.0
 11
33.94625008629561
 21
28.57233665227731
 31
0.0
  0
LINE
  5
219
  8
HIDDEN
 10
34.25925008629561
 20
28.57233665227731
 30
0.0
 11
34.25925008629561
 21
46.32233665227731
 31
0.0
  0
LINE
  5
21A
  8
OBJECT
 10
34.19675008629561
 20
28.49433665227731
 30
0.0
 11
7.94575008629562
 21
28.49433665227731
 31
0.0
  0
LINE
  5
21B
  8
HIDDEN
 10
7.88325008629562
 20
28.57233665227731
 30
0.0
 11
7.88325008629562
 21
46.32233665227731
 31
0.0
  0
LINE
  5
21C
  8
OBJECT
 10
34.19675008629561
 20
28.55633665227732
 30
0.0
 11
7.94575008629562
 21
28.55633665227732
 31
0.0
  0
LINE
  5
21D
  8
OBJECT
 10
34.19675008629561
 20
46.33833665227732
 30
0.0
 11
7.94575008629562
 21
46.33833665227732
 31
0.0
  0
LINE
  5
21E
  8
OBJECT
 10
34.19675008629561
 20
46.40033665227732
 30
0.0
 11
7.94575008629562
 21
46.40033665227732
 31
0.0
  0
LINE
  5
21F
  8
HIDDEN
 10
34.19675008629561
 20
46.32233665227731
 30
0.0
 11
33.94625008629561
 21
46.32233665227731
 31
0.0
  0
LINE
  5
220
  8
HIDDEN
 10
7.94575008629562
 20
46.32233665227731
 30
0.0
 11
8.19625008629562
 21
46.32233665227731
 31
0.0
  0
LINE
  5
221
  8
OBJECT
 10
34.19675008629561
 20
46.32233665227731
 30
0.0
 11
34.32125008629561
 21
46.32233665227731
 31
0.0
  0
LINE
  5
222
  8
OBJECT
 10
7.94575008629562
 20
46.32233665227731
 30
0.0
 11
7.94575008629562
 21
46.40033665227732
 31
0.0
  0
LINE
  5
223
  8
OBJECT
 10
34.19675008629562
 20
46.40033665227732
 30
0.0
 11
34.19675008629561
 21
46.32233665227731
 31
0.0
  0
LINE
  5
224
  8
OBJECT
 10
7.821250086295624
 20
46.32233665227731
 30
0.0
 11
7.94575008629562
 21
46.32233665227731
 31
0.0
  0
LINE
  5
225
  8
OBJECT
 10
40.2703311625436
 20
28.57233665227731
 30
0.0
 11
40.2703311625436
 21
46.32233665227731
 31
0.0
  0
LINE
  5
226
  8
OBJECT
 10
39.5203311625436
 20
46.32233665227731
 30
0.0
 11
40.2703311625436
 21
46.32233665227731
 31
0.0
  0
LINE
  5
227
  8
OBJECT
 10
39.5203311625436
 20
28.57233665227731
 30
0.0
 11
40.2703311625436
 21
28.57233665227731
 31
0.0
  0
LINE
  5
228
  8
OBJECT
 10
39.5823311625436
 20
46.32233665227731
 30
0.0
 11
39.5823311625436
 21
46.40033665227732
 31
0.0
  0
LINE
  5
229
  8
HIDDEN
 10
39.5823311625436
 20
28.57233665227731
 30
0.0
 11
39.58233116254358
 21
46.32233665227731
 31
0.0
  0
LINE
  5
22A
  8
HIDDEN
 10
40.20833116254359
 20
28.57233665227731
 30
0.0
 11
40.20833116254359
 21
46.32233665227731
 31
0.0
  0
INSERT
  5
22B
  8
OBJECT
  2
HB
 10
0.0
 20
0.0
 30
0.0
 41
4.5
 42
4.5
 43
4.5
  0
LINE
  5
22C
  8
TITLE
 10
0.2789999999999893
 20
1.215000000000005
 30
0.0
 11
45.26100000000001
 21
1.214999999999997
 31
0.0
  0
LINE
  5
22D
  8
TITLE
 10
0.2789999999999893
 20
2.151000000000005
 30
0.0
 11
45.26100000000001
 21
2.150999999999997
 31
0.0
  0
LINE
  5
22E
  8
TITLE
 10
0.2789999999999894
 20
3.087000000000005
 30
0.0
 11
45.26100000000001
 21
3.086999999999997
 31
0.0
  0
LINE
  5
22F
  8
TITLE
 10
0.2789999999999895
 20
4.023000000000005
 30
0.0
 11
45.26100000000001
 21
4.022999999999997
 31
0.0
  0
LINE
  5
230
  8
TITLE
 10
0.2789999999999895
 20
4.959000000000004
 30
0.0
 11
45.26100000000001
 21
4.958999999999996
 31
0.0
  0
LINE
  5
235
  8
TITLE
 10
0.2789999999999899
 20
8.702999999999998
 30
0.0
 11
45.26100000000001
 21
8.702999999999989
 31
0.0
  0
LINE
  5
236
  8
TITLE
 10
9.278999999999987
 20
8.702999999999998
 30
0.0
 11
9.278999999999987
 21
0.279000000000003
 31
0.0
  0
SOLID
  5
267
  8
DIM
 10
33.58806825934442
 20
19.08667070452931
 30
0.0
 11
33.36017409387384
 21
19.23146106796715
 31
0.0
 12
33.0397500862956
 22
18.47538338983645
 32
0.0
 13
33.0397500862956
 23
18.47538338983645
 33
0.0
  0
LINE
  5
268
  8
DIM
 10
33.47412117660913
 20
19.15906588624823
 30
0.0
 11
36.12544934043488
 21
23.33214899024313
 31
0.0
  0
LINE
  5
269
  8
DIM
 10
36.12544934043488
 20
23.33214899024313
 30
0.0
 11
36.93544934043489
 21
23.33214899024313
 31
0.0
  0
TEXT
  5
26A
  8
DIM
 10
37.23424935543053
 20
23.02106439631719
 30
0.0
 40
0.562
  1
0.250 x 0.812
 41
0.75
  7
TXT
  0
TEXT
  5
26B
  8
DIM
 10
37.23424935543053
 20
22.08439772965052
 30
0.0
 40
0.562
  1
OBLONG
 41
0.75
  7
TXT
  0
TEXT
  5
26C
  8
DIM
 10
37.23424935543053
 20
21.14773106298385
 30
0.0
 40
0.562
  1
(F) HOLES
 41
0.75
  7
TXT
  0
TEXT
  5
273
  8
TEXT
 10
4.874872500000009
 20
68.179
 30
0.0
 40
0.7020000000000001
  1
STATIONARY SHELF (NON-VENTILATED)
 41
0.75
  7
TXT
 72
     1
 11
13.21200000000001
 21
68.179
 31
0.0
  0
TEXT
  5
274
  8
TEXT
 10
30.6643725
 20
68.179
 30
0.0
 40
0.7020000000000001
  1
SH-2379  TO  SH-2482
 41
0.75
  7
TXT
 72
     1
 11
35.8425
 21
68.179
 31
0.0
  0
TEXT
  5
275
  8
TEXT
 10
1.309757306559623
 20
64.82603482983723
 30
0.0
 40
0.562
  1
%%uMATERIAL:%%u 16 GA. STEEL
 41
0.75
  7
TXT
  0
TEXT
  5
276
  8
TEXT
 10
1.309757306559623
 20
62.95270149650388
 30
0.0
 40
0.562
  1
%%uFINISH:
 41
0.75
  7
TXT
  0
TEXT
  5
277
  8
TEXT
 10
1.995820657614665
 20
62.01603482983722
 30
0.0
 40
0.562
  1
SMOOTH BLACK
 41
0.75
  7
TXT
  0
TEXT
  5
278
  8
TEXT
 10
3.303749999999988
 20
7.018000000000002
 30
0.0
 40
0.5620000000000003
  1
PART NO.
 41
0.75
  7
TXT
 72
     1
 11
4.778999999999988
 21
7.018000000000002
 31
0.0
  0
TEXT
  5
27A
  8
TEXT
 10
3.373297499999988
 20
5.145333333333336
 30
0.0
 40
0.562
  1
SH-2379
 41
0.75
  7
TXT
 72
     1
 11
4.778999999999988
 21
5.145333333333336
 31
0.0
  0
TEXT
  5
27B
  8
TEXT
 10
3.373297499999988
 20
4.208666666666671
 30
0.0
 40
0.562
  1
SH-2382
 41
0.75
  7
TXT
 72
     1
 11
4.778999999999988
 21
4.208666666666671
 31
0.0
  0
TEXT
  5
27C
  8
TEXT
 10
3.373297499999988
 20
3.272000000000005
 30
0.0
 40
0.562
  1
SH-2479
 41
0.75
  7
TXT
 72
     1
 11
4.778999999999988
 21
3.272000000000005
 31
0.0
  0
TEXT
  5
27D
  8
TEXT
 10
3.409124999999988
 20
2.335333333333339
 30
0.0
 40
0.562
  1
SH-2480
 41
0.75
  7
TXT
 72
     1
 11
4.778999999999988
 21
2.335333333333339
 31
0.0
  0
TEXT
  5
27E
  8
TEXT
 10
3.444952499999988
 20
1.398666666666672
 30
0.0
 40
0.562
  1
SH-2481
 41
0.75
  7
TXT
 72
     1
 11
4.778999999999988
 21
1.398666666666672
 31
0.0
  0
TEXT
  5
27F
  8
TEXT
 10
3.373297499999988
 20
0.462000000000006
 30
0.0
 40
0.562
  1
SH-2482
 41
0.75
  7
TXT
 72
     1
 11
4.778999999999988
 21
0.462000000000006
 31
0.0
  0
TEXT
  5
28A
  8
TEXT
 10
12.08177375176566
 20
7.018000000000002
 30
0.0
 40
0.562
  1
A
 41
0.75
  7
TXT
 72
     1
 11
12.22297625176566
 21
7.018000000000002
 31
0.0
  0
TEXT
  5
28B
  8
TEXT
 10
18.08118378922395
 20
7.018000000000002
 30
0.0
 40
0.562
  1
B
 41
0.75
  7
TXT
 72
     1
 11
18.22238628922394
 21
7.018000000000002
 31
0.0
  0
TEXT
  5
28C
  8
TEXT
 10
24.01462213739758
 20
7.018000000000002
 30
0.0
 40
0.562
  1
C
 41
0.75
  7
TXT
 72
     1
 11
24.15582463739758
 21
7.018000000000002
 31
0.0
  0
TEXT
  5
28D
  8
TEXT
 10
30.09000386414048
 20
7.018000000000002
 30
0.0
 40
0.562
  1
D
 41
0.75
  7
TXT
 72
     1
 11
30.23120636414048
 21
7.018000000000002
 31
0.0
  0
TEXT
  5
28E
  8
TEXT
 10
35.98795636767179
 20
7.018000000000001
 30
0.0
 40
0.562
  1
E
 41
0.75
  7
TXT
 72
     1
 11
36.12915886767178
 21
7.018000000000001
 31
0.0
  0
TEXT
  5
28F
  8
TEXT
 10
42.09396451542857
 20
7.018000000000001
 30
0.0
 40
0.562
  1
F
 41
0.75
  7
TXT
 72
     1
 11
42.23516701542857
 21
7.018000000000001
 31
0.0
  0
TEXT
  5
295
  8
TEXT
 10
11.27460125176566
 20
5.146000000000002
 30
0.0
 40
0.562
  1
17.906
 41
0.75
  7
TXT
 72
     1
 11
12.22297625176566
 21
5.146000000000002
 31
0.0
  0
TEXT
  5
296
  8
TEXT
 10
11.27460125176566
 20
4.208000000000004
 30
0.0
 40
0.562
  1
17.906
 41
0.75
  7
TXT
 72
     1
 11
12.22297625176566
 21
4.208000000000004
 31
0.0
  0
TEXT
  5
297
  8
TEXT
 10
11.20505375176566
 20
3.271333333333338
 30
0.0
 40
0.562
  1
22.906
 41
0.75
  7
TXT
 72
     1
 11
12.22297625176566
 21
3.271333333333338
 31
0.0
  0
TEXT
  5
298
  8
TEXT
 10
11.20505375176566
 20
0.4613333333333381
 30
0.0
 40
0.562
  1
22.906
 41
0.75
  7
TXT
 72
     1
 11
12.22297625176566
 21
0.4613333333333381
 31
0.0
  0
TEXT
  5
299
  8
TEXT
 10
17.27401128922395
 20
5.146000000000002
 30
0.0
 40
0.562
  1
14.250
 41
0.75
  7
TXT
 72
     1
 11
18.22238628922394
 21
5.146000000000002
 31
0.0
  0
TEXT
  5
29C
  8
TEXT
 10
17.24029128922394
 20
4.208000000000004
 30
0.0
 40
0.562
  1
26.500
 41
0.75
  7
TXT
 72
     1
 11
18.22238628922394
 21
4.208000000000004
 31
0.0
  0
TEXT
  5
29D
  8
TEXT
 10
17.24029128922394
 20
0.4640000000000049
 30
0.0
 40
0.562
  1
26.500
 41
0.75
  7
TXT
 72
     1
 11
18.22238628922394
 21
0.4640000000000049
 31
0.0
  0
TEXT
  5
29E
  8
TEXT
 10
17.27401128922395
 20
1.400666666666671
 30
0.0
 40
0.562
  1
21.250
 41
0.75
  7
TXT
 72
     1
 11
18.22238628922394
 21
1.400666666666671
 31
0.0
  0
TEXT
  5
29F
  8
TEXT
 10
17.27401128922395
 20
2.337333333333337
 30
0.0
 40
0.562
  1
17.750
 41
0.75
  7
TXT
 72
     1
 11
18.22238628922394
 21
2.337333333333337
 31
0.0
  0
TEXT
  5
2A0
  8
TEXT
 10
17.27401128922395
 20
3.274000000000004
 30
0.0
 40
0.562
  1
14.250
 41
0.75
  7
TXT
 72
     1
 11
18.22238628922394
 21
3.274000000000004
 31
0.0
  0
TEXT
  5
2A1
  8
TEXT
 10
24.01462213739758
 20
5.146000000000003
 30
0.0
 40
0.562
  1
4
 41
0.75
  7
TXT
 72
     1
 11
24.15582463739758
 21
5.146000000000003
 31
0.0
  0
TEXT
  5
2A4
  8
TEXT
 10
24.01462213739758
 20
4.208000000000005
 30
0.0
 40
0.562
  1
9
 41
0.75
  7
TXT
 72
     1
 11
24.15582463739758
 21
4.208000000000005
 31
0.0
  0
TEXT
  5
2A5
  8
TEXT
 10
24.01462213739758
 20
3.271333333333338
 30
0.0
 40
0.562
  1
4
 41
0.75
  7
TXT
 72
     1
 11
24.15582463739758
 21
3.271333333333338
 31
0.0
  0
TEXT
  5
2A6
  8
TEXT
 10
24.01462213739758
 20
2.334666666666672
 30
0.0
 40
0.562
  1
6
 41
0.75
  7
TXT
 72
     1
 11
24.15582463739758
 21
2.334666666666672
 31
0.0
  0
TEXT
  5
2A7
  8
TEXT
 10
24.01462213739758
 20
1.398000000000005
 30
0.0
 40
0.562
  1
7
 41
0.75
  7
TXT
 72
     1
 11
24.15582463739758
 21
1.398000000000005
 31
0.0
  0
TEXT
  5
2A8
  8
TEXT
 10
24.01462213739758
 20
0.461333333333339
 30
0.0
 40
0.562
  1
9
 41
0.75
  7
TXT
 72
     1
 11
24.15582463739758
 21
0.461333333333339
 31
0.0
  0
TEXT
  5
2A9
  8
TEXT
 10
29.45986136414048
 20
5.146000000000003
 30
0.0
 40
0.562
  1
2.781
 41
0.75
  7
TXT
 72
     1
 11
30.23120636414048
 21
5.146000000000003
 31
0.0
  0
TEXT
  5
2AC
  8
TEXT
 10
29.38820636414048
 20
4.208000000000005
 30
0.0
 40
0.562
  1
2.597
 41
0.75
  7
TXT
 72
     1
 11
30.23120636414048
 21
4.208000000000005
 31
0.0
  0
TEXT
  5
2AD
  8
TEXT
 10
29.38820636414048
 20
0.4640000000000058
 30
0.0
 40
0.562
  1
2.597
 41
0.75
  7
TXT
 72
     1
 11
30.23120636414048
 21
0.4640000000000058
 31
0.0
  0
TEXT
  5
2AE
  8
TEXT
 10
29.38820636414048
 20
1.400666666666672
 30
0.0
 40
0.562
  1
2.589
 41
0.75
  7
TXT
 72
     1
 11
30.23120636414048
 21
1.400666666666672
 31
0.0
  0
TEXT
  5
2AF
  8
TEXT
 10
29.38820636414048
 20
2.337333333333338
 30
0.0
 40
0.562
  1
2.438
 41
0.75
  7
TXT
 72
     1
 11
30.23120636414048
 21
2.337333333333338
 31
0.0
  0
TEXT
  5
2B0
  8
TEXT
 10
29.45986136414048
 20
3.274000000000005
 30
0.0
 40
0.562
  1
2.781
 41
0.75
  7
TXT
 72
     1
 11
30.23120636414048
 21
3.274000000000005
 31
0.0
  0
TEXT
  5
2B1
  8
TEXT
 10
35.28405136767179
 20
5.146000000000001
 30
0.0
 40
0.562
  1
11.125
 41
0.75
  7
TXT
 72
     1
 11
36.12915886767178
 21
5.146000000000001
 31
0.0
  0
TEXT
  5
2B4
  8
TEXT
 10
35.07540886767178
 20
4.208000000000002
 30
0.0
 40
0.562
  1
23.375
 41
0.75
  7
TXT
 72
     1
 11
36.12915886767178
 21
4.208000000000002
 31
0.0
  0
TEXT
  5
2B5
  8
TEXT
 10
41.98858951542857
 20
5.146000000000001
 30
0.0
 40
0.562
  1
10
 41
0.75
  7
TXT
 72
     1
 11
42.23516701542857
 21
5.146000000000001
 31
0.0
  0
TEXT
  5
2B8
  8
TEXT
 10
41.91904201542857
 20
4.208000000000002
 30
0.0
 40
0.562
  1
20
 41
0.75
  7
TXT
 72
     1
 11
42.23516701542857
 21
4.208000000000002
 31
0.0
  0
TEXT
  5
2D5
  8
TEXT
 10
41.91904201542857
 20
0.4640000000000031
 30
0.0
 40
0.562
  1
20
 41
0.75
  7
TXT
 72
     1
 11
42.23516701542857
 21
0.4640000000000031
 31
0.0
  0
TEXT
  5
2D6
  8
TEXT
 10
41.95276201542858
 20
1.400666666666669
 30
0.0
 40
0.562
  1
16
 41
0.75
  7
TXT
 72
     1
 11
42.23516701542857
 21
1.400666666666669
 31
0.0
  0
TEXT
  5
2D7
  8
TEXT
 10
41.95276201542858
 20
2.337333333333336
 30
0.0
 40
0.562
  1
14
 41
0.75
  7
TXT
 72
     1
 11
42.23516701542857
 21
2.337333333333336
 31
0.0
  0
TEXT
  5
2D8
  8
TEXT
 10
41.98858951542857
 20
3.274000000000002
 30
0.0
 40
0.562
  1
10
 41
0.75
  7
TXT
 72
     1
 11
42.23516701542857
 21
3.274000000000002
 31
0.0
  0
TEXT
  5
2D9
  8
TEXT
 10
35.07540886767178
 20
0.4640000000000031
 30
0.0
 40
0.562
  1
23.375
 41
0.75
  7
TXT
 72
     1
 11
36.12915886767178
 21
0.4640000000000031
 31
0.0
  0
TEXT
  5
2DA
  8
TEXT
 10
35.21450386767178
 20
1.400666666666669
 30
0.0
 40
0.562
  1
18.125
 41
0.75
  7
TXT
 72
     1
 11
36.12915886767178
 21
1.400666666666669
 31
0.0
  0
TEXT
  5
2DB
  8
TEXT
 10
35.14495636767178
 20
2.337333333333336
 30
0.0
 40
0.562
  1
14.625
 41
0.75
  7
TXT
 72
     1
 11
36.12915886767178
 21
2.337333333333336
 31
0.0
  0
TEXT
  5
2DC
  8
TEXT
 10
35.28405136767179
 20
3.274000000000002
 30
0.0
 40
0.562
  1
11.125
 41
0.75
  7
TXT
 72
     1
 11
36.12915886767178
 21
3.274000000000002
 31
0.0
  0
LINE
  5
2E2
  8
TEXT
 10
12.22297625176566
 20
1.340000000000002
 30
0.0
 11
12.22297625176566
 21
2.962000000000003
 31
0.0
  0
DIMENSION
  5
527
  8
DIM
  2
*D1
 10
37.53159216446538
 20
46.40033665227732
 30
0.0
 11
37.53159216446538
 21
37.44733665227731
 31
0.0
 70
    32
  1
A
  3
23NSTD
 13
38.6923311625436
 23
28.49433665227731
 33
0.0
 14
38.6923311625436
 24
46.40033665227732
 34
0.0
 50
90.0
  0
DIMENSION
  5
528
  8
DIM
  2
*D2
 10
35.6585335110025
 20
17.89738338983647
 30
0.0
 11
35.6585335110025
 21
18.34238338983647
 31
0.0
 70
    32
  3
23NSTDI
 13
34.07175008629561
 23
18.78738338983647
 33
0.0
 14
34.25925008629561
 24
17.89738338983647
 34
0.0
 50
90.0
  0
DIMENSION
  5
529
  8
DIM
  2
*D3
 10
37.92721149497636
 20
17.20938338983647
 30
0.0
 11
37.92721149497636
 21
17.99838338983647
 31
0.0
 70
    32
  3
23NSTDI
 13
34.07175008629561
 23
18.78738338983647
 33
0.0
 14
34.32125008629561
 24
17.20938338983647
 34
0.0
 50
90.0
  0
DIMENSION
  5
52A
  8
DIM
  2
*D4
 10
6.10100529375331
 20
17.20938338983647
 30
0.0
 11
4.11397404375331
 21
15.58938338983647
 31
0.0
 70
    32
  3
23NSTD
 13
7.821250086295624
 23
17.95938338983646
 33
0.0
 14
7.821250086295624
 24
17.20938338983647
 34
0.0
 50
90.0
  0
DIMENSION
  5
52B
  8
DIM
  2
*D5
 10
7.821250086295624
 20
14.54889872762037
 30
0.0
 11
4.988359461295624
 21
14.54889872762037
 31
0.0
 70
    32
  3
23NSTD
 13
8.19625008629562
 23
17.20938338983647
 33
0.0
 14
7.821250086295624
 24
17.20938338983647
 34
0.0
  0
DIMENSION
  5
52C
  8
DIM
  2
*D6
 10
34.32125008629561
 20
13.28439872762037
 30
0.0
 11
21.07125008629561
 21
13.28439872762037
 31
0.0
 70
    32
  1
B
  3
23NSTD
 13
7.821250086295624
 23
17.20938338983647
 33
0.0
 14
34.32125008629561
 24
17.20938338983647
 34
0.0
  0
DIMENSION
  5
52D
  8
DIM
  2
*D7
 10
7.94575008629562
 20
20.6054221220947
 30
0.0
 11
5.146609461295619
 21
20.6054221220947
 31
0.0
 70
    32
  3
23NSTD
 13
9.383750086295613
 23
18.44038338983646
 33
0.0
 14
7.94575008629562
 24
18.66238338983647
 34
0.0
  0
DIMENSION
  5
52E
  8
DIM
  2
*D8
 10
7.821250086295624
 20
21.8699221220947
 30
0.0
 11
5.022109461295623
 21
21.8699221220947
 31
0.0
 70
    32
  3
23NSTD
 13
9.383750086295613
 23
18.44038338983646
 33
0.0
 14
7.821250086295624
 24
17.95938338983646
 34
0.0
  0
DIMENSION
  5
52F
  8
DIM
  2
*D9
 10
32.75875008629561
 20
21.8699221220947
 30
0.0
 11
21.07125008629561
 21
21.8699221220947
 31
0.0
 70
    32
  1
(C) SPACES @ (D) = (E)
  3
23NSTD
 13
9.383750086295613
 23
18.44038338983646
 33
0.0
 14
32.75875008629561
 24
18.44038338983646
 34
0.0
  0
TEXT
  5
532
  8
TEXT
 10
1.309757306559623
 20
59.59418433884835
 30
0.0
 40
0.562
  1
LOAD RATING:  200 LBS. MAX.
 41
0.75
  7
TXT
  0
LINE
  5
651
  8
TITLE
 10
0.2789999999999895
 20
5.895
 30
0.0
 11
45.26100000000001
 21
5.894999999999992
 31
0.0
  0
LINE
  5
661
  8
TITLE
 10
39.26400000000001
 20
8.702999999999989
 30
0.0
 11
39.26400000000001
 21
0.2789999999999986
 31
0.0
  0
LINE
  5
662
  8
TITLE
 10
33.26700000000001
 20
8.702999999999989
 30
0.0
 11
33.26700000000001
 21
0.2789999999999977
 31
0.0
  0
LINE
  5
663
  8
TITLE
 10
27.27000000000001
 20
8.702999999999989
 30
0.0
 11
27.27000000000001
 21
0.278999999999995
 31
0.0
  0
LINE
  5
664
  8
TITLE
 10
21.27300000000001
 20
8.702999999999989
 30
0.0
 11
21.27300000000001
 21
0.2789999999999959
 31
0.0
  0
LINE
  5
665
  8
TITLE
 10
15.27600000000001
 20
8.702999999999989
 30
0.0
 11
15.27600000000001
 21
0.2789999999999977
 31
0.0
  0
LINE
  5
6A1
  8
OBJECT
 10
30.07984500044679
 20
51.0700239967751
 30
0.0
 11
39.98004704384679
 21
56.7852889835751
 31
0.0
  0
LINE
  5
6A2
  8
OBJECT
 10
17.41652732964679
 20
57.7353946770751
 30
0.0
 11
29.96926368594679
 21
50.4888542255751
 31
0.0
  0
LINE
  5
6A3
  8
OBJECT
 10
39.97010396794679
 20
57.4400640510751
 30
0.0
 11
39.92626334754679
 21
57.4653727025751
 31
0.0
  0
LINE
  5
6A4
  8
OBJECT
 10
40.01363461594679
 20
56.8629284463751
 30
0.0
 11
39.99599739474679
 21
56.8731101973751
 31
0.0
  0
LINE
  5
6A5
  8
OBJECT
 10
39.42227293864679
 20
57.2043142760751
 30
0.0
 11
27.46089825964679
 21
64.1094688978751
 31
0.0
  0
LINE
  5
6A6
  8
OBJECT
 10
27.35231378774679
 20
64.7241592757751
 30
0.0
 11
27.30847316734679
 21
64.7494679272751
 31
0.0
  0
ARC
  5
6A7
  8
OBJECT
 10
30.24385674364679
 20
51.6841445083751
 30
0.0
 40
0.1921006009465125
 50
122.6054783399993
 51
177.3945215142993
  0
ARC
  5
6A8
  8
OBJECT
 10
30.28769736404679
 20
51.6588358568751
 30
0.0
 40
0.1921006009464809
 50
122.6054783400003
 51
177.3945215143003
  0
LINE
  5
6A9
  8
OBJECT
 10
39.17787484894679
 20
56.5537130227751
 30
0.0
 11
38.78048083794679
 21
56.3243023433751
 31
0.0
  0
POLYLINE
  5
6AA
  8
OBJECT
 66
     1
 10
0.0
 20
0.0
 30
0.0
  0
VERTEX
  5
790
  8
OBJECT
 10
39.17787484894679
 20
56.7578482257751
 30
0.0
  0
VERTEX
  5
791
  8
OBJECT
 10
39.20810544424679
 20
56.7691445473751
 30
0.0
  0
VERTEX
  5
792
  8
OBJECT
 10
39.23468978364679
 20
56.7667675068751
 30
0.0
  0
VERTEX
  5
793
  8
OBJECT
 10
39.25442140344679
 20
56.7510038102751
 30
0.0
  0
VERTEX
  5
794
  8
OBJECT
 10
39.26492037904679
 20
56.7237547921751
 30
0.0
  0
VERTEX
  5
795
  8
OBJECT
 10
39.26492037904679
 20
56.6883070861751
 30
0.0
  0
VERTEX
  5
796
  8
OBJECT
 10
39.25442140344679
 20
56.6489362087751
 30
0.0
  0
VERTEX
  5
797
  8
OBJECT
 10
39.23468978364679
 20
56.6103908689751
 30
0.0
  0
VERTEX
  5
798
  8
OBJECT
 10
39.20810544424679
 20
56.5773202035751
 30
0.0
  0
VERTEX
  5
799
  8
OBJECT
 10
39.17787484894679
 20
56.5537130227751
 30
0.0
  0
SEQEND
  5
78F
  8
OBJECT
  0
LINE
  5
6AB
  8
OBJECT
 10
38.78048083794679
 20
56.5284375463751
 30
0.0
 11
39.17787484894679
 21
56.7578482257751
 31
0.0
  0
POLYLINE
  5
6AC
  8
OBJECT
 66
     1
 10
0.0
 20
0.0
 30
0.0
  0
VERTEX
  5
79B
  8
OBJECT
 10
38.78048083794679
 20
56.5284375463751
 30
0.0
  0
VERTEX
  5
79C
  8
OBJECT
 10
38.75025024264679
 20
56.5048303655751
 30
0.0
  0
VERTEX
  5
79D
  8
OBJECT
 10
38.72366590324679
 20
56.4717597000751
 30
0.0
  0
VERTEX
  5
79E
  8
OBJECT
 10
38.70393428344679
 20
56.4332143602751
 30
0.0
  0
VERTEX
  5
79F
  8
OBJECT
 10
38.69343530784679
 20
56.3938434829751
 30
0.0
  0
VERTEX
  5
7A0
  8
OBJECT
 10
38.69343530784679
 20
56.3583957769751
 30
0.0
  0
VERTEX
  5
7A1
  8
OBJECT
 10
38.70393428344679
 20
56.3311467587751
 30
0.0
  0
VERTEX
  5
7A2
  8
OBJECT
 10
38.72366590324679
 20
56.3153830622751
 30
0.0
  0
VERTEX
  5
7A3
  8
OBJECT
 10
38.75025024264679
 20
56.3130060216751
 30
0.0
  0
VERTEX
  5
7A4
  8
OBJECT
 10
38.78048083794679
 20
56.3243023433751
 30
0.0
  0
SEQEND
  5
79A
  8
OBJECT
  0
LINE
  5
6AD
  8
OBJECT
 10
37.21123411374679
 20
55.4183954922751
 30
0.0
 11
36.81384010274679
 21
55.1889848128751
 31
0.0
  0
POLYLINE
  5
6AE
  8
OBJECT
 66
     1
 10
0.0
 20
0.0
 30
0.0
  0
VERTEX
  5
7A6
  8
OBJECT
 10
37.21123411374679
 20
55.6225306952751
 30
0.0
  0
VERTEX
  5
7A7
  8
OBJECT
 10
37.24146470914679
 20
55.6338270168751
 30
0.0
  0
VERTEX
  5
7A8
  8
OBJECT
 10
37.26804904844679
 20
55.6314499763751
 30
0.0
  0
VERTEX
  5
7A9
  8
OBJECT
 10
37.28778066824679
 20
55.6156862797751
 30
0.0
  0
VERTEX
  5
7AA
  8
OBJECT
 10
37.29827964384679
 20
55.5884372616751
 30
0.0
  0
VERTEX
  5
7AB
  8
OBJECT
 10
37.29827964384679
 20
55.5529895556751
 30
0.0
  0
VERTEX
  5
7AC
  8
OBJECT
 10
37.28778066824679
 20
55.5136186782751
 30
0.0
  0
VERTEX
  5
7AD
  8
OBJECT
 10
37.26804904844679
 20
55.4750733384751
 30
0.0
  0
VERTEX
  5
7AE
  8
OBJECT
 10
37.24146470914679
 20
55.4420026730751
 30
0.0
  0
VERTEX
  5
7AF
  8
OBJECT
 10
37.21123411374679
 20
55.4183954922751
 30
0.0
  0
SEQEND
  5
7A5
  8
OBJECT
  0
LINE
  5
6AF
  8
OBJECT
 10
36.81384010274679
 20
55.3931200157751
 30
0.0
 11
37.21123411374679
 21
55.6225306952751
 31
0.0
  0
POLYLINE
  5
6B0
  8
OBJECT
 66
     1
 10
0.0
 20
0.0
 30
0.0
  0
VERTEX
  5
7B1
  8
OBJECT
 10
36.81384010274679
 20
55.3931200157751
 30
0.0
  0
VERTEX
  5
7B2
  8
OBJECT
 10
36.78360950744679
 20
55.3695128350751
 30
0.0
  0
VERTEX
  5
7B3
  8
OBJECT
 10
36.75702516804679
 20
55.3364421695751
 30
0.0
  0
VERTEX
  5
7B4
  8
OBJECT
 10
36.73729354834679
 20
55.2978968297751
 30
0.0
  0
VERTEX
  5
7B5
  8
OBJECT
 10
36.72679457274679
 20
55.2585259524751
 30
0.0
  0
VERTEX
  5
7B6
  8
OBJECT
 10
36.72679457274679
 20
55.2230782464751
 30
0.0
  0
VERTEX
  5
7B7
  8
OBJECT
 10
36.73729354834679
 20
55.1958292282751
 30
0.0
  0
VERTEX
  5
7B8
  8
OBJECT
 10
36.75702516804679
 20
55.1800655317751
 30
0.0
  0
VERTEX
  5
7B9
  8
OBJECT
 10
36.78360950744679
 20
55.1776884911751
 30
0.0
  0
VERTEX
  5
7BA
  8
OBJECT
 10
36.81384010274679
 20
55.1889848128751
 30
0.0
  0
SEQEND
  5
7B0
  8
OBJECT
  0
LINE
  5
6B1
  8
OBJECT
 10
35.24459337864679
 20
54.2830779617751
 30
0.0
 11
34.84719936754679
 21
54.0536672823751
 31
0.0
  0
POLYLINE
  5
6B2
  8
OBJECT
 66
     1
 10
0.0
 20
0.0
 30
0.0
  0
VERTEX
  5
7BC
  8
OBJECT
 10
35.24459337864679
 20
54.4872131647751
 30
0.0
  0
VERTEX
  5
7BD
  8
OBJECT
 10
35.27482397394679
 20
54.4985094863751
 30
0.0
  0
VERTEX
  5
7BE
  8
OBJECT
 10
35.30140831334679
 20
54.4961324458751
 30
0.0
  0
VERTEX
  5
7BF
  8
OBJECT
 10
35.32113993304679
 20
54.4803687492751
 30
0.0
  0
VERTEX
  5
7C0
  8
OBJECT
 10
35.33163890864679
 20
54.4531197311751
 30
0.0
  0
VERTEX
  5
7C1
  8
OBJECT
 10
35.33163890864679
 20
54.4176720251751
 30
0.0
  0
VERTEX
  5
7C2
  8
OBJECT
 10
35.32113993304679
 20
54.3783011477751
 30
0.0
  0
VERTEX
  5
7C3
  8
OBJECT
 10
35.30140831334679
 20
54.3397558079751
 30
0.0
  0
VERTEX
  5
7C4
  8
OBJECT
 10
35.27482397394679
 20
54.3066851425751
 30
0.0
  0
VERTEX
  5
7C5
  8
OBJECT
 10
35.24459337864679
 20
54.2830779617751
 30
0.0
  0
SEQEND
  5
7BB
  8
OBJECT
  0
LINE
  5
6B3
  8
OBJECT
 10
34.84719936754679
 20
54.2578024852751
 30
0.0
 11
35.24459337864679
 21
54.4872131647751
 31
0.0
  0
POLYLINE
  5
6B4
  8
OBJECT
 66
     1
 10
0.0
 20
0.0
 30
0.0
  0
VERTEX
  5
7C7
  8
OBJECT
 10
34.84719936754679
 20
54.2578024852751
 30
0.0
  0
VERTEX
  5
7C8
  8
OBJECT
 10
34.81696877224679
 20
54.2341953045751
 30
0.0
  0
VERTEX
  5
7C9
  8
OBJECT
 10
34.79038443284679
 20
54.2011246390751
 30
0.0
  0
VERTEX
  5
7CA
  8
OBJECT
 10
34.77065281314679
 20
54.1625792992751
 30
0.0
  0
VERTEX
  5
7CB
  8
OBJECT
 10
34.76015383754679
 20
54.1232084219751
 30
0.0
  0
VERTEX
  5
7CC
  8
OBJECT
 10
34.76015383754679
 20
54.0877607159751
 30
0.0
  0
VERTEX
  5
7CD
  8
OBJECT
 10
34.77065281314679
 20
54.0605116977751
 30
0.0
  0
VERTEX
  5
7CE
  8
OBJECT
 10
34.79038443284679
 20
54.0447480011751
 30
0.0
  0
VERTEX
  5
7CF
  8
OBJECT
 10
34.81696877224679
 20
54.0423709606751
 30
0.0
  0
VERTEX
  5
7D0
  8
OBJECT
 10
34.84719936754679
 20
54.0536672823751
 30
0.0
  0
SEQEND
  5
7C6
  8
OBJECT
  0
ARC
  5
6B5
  8
OBJECT
 10
39.9421130988468
 20
57.3915743498751
 30
0.0
 40
0.0545886496785539
 50
350.7859630095012
 51
129.2032852357012
  0
LINE
  5
6B6
  8
OBJECT
 10
39.99599739474679
 20
57.3828334502751
 30
0.0
 11
39.99599739474679
 21
56.8205430336751
 31
0.0
  0
LINE
  5
6B7
  8
OBJECT
 10
30.09579535144679
 20
51.1052780468751
 30
0.0
 11
30.09579535144679
 21
51.6675684634751
 31
0.0
  0
LINE
  5
6B8
  8
OBJECT
 10
30.18418369904679
 20
51.8206615718751
 30
0.0
 11
39.90760904714679
 21
57.4338755447751
 31
0.0
  0
LINE
  5
6B9
  8
OBJECT
 10
31.31131190824679
 20
52.0124429007751
 30
0.0
 11
30.91391789724678
 21
51.7830322213751
 31
0.0
  0
POLYLINE
  5
6BA
  8
OBJECT
 66
     1
 10
0.0
 20
0.0
 30
0.0
  0
VERTEX
  5
7D2
  8
OBJECT
 10
31.31131190824679
 20
52.2165781037751
 30
0.0
  0
VERTEX
  5
7D3
  8
OBJECT
 10
31.34154250354678
 20
52.2278744253751
 30
0.0
  0
VERTEX
  5
7D4
  8
OBJECT
 10
31.36812684294679
 20
52.2254973848751
 30
0.0
  0
VERTEX
  5
7D5
  8
OBJECT
 10
31.38785846274678
 20
52.2097336882751
 30
0.0
  0
VERTEX
  5
7D6
  8
OBJECT
 10
31.39835743834679
 20
52.1824846701751
 30
0.0
  0
VERTEX
  5
7D7
  8
OBJECT
 10
31.39835743834679
 20
52.1470369641751
 30
0.0
  0
VERTEX
  5
7D8
  8
OBJECT
 10
31.38785846274678
 20
52.1076660867751
 30
0.0
  0
VERTEX
  5
7D9
  8
OBJECT
 10
31.36812684294679
 20
52.0691207469751
 30
0.0
  0
VERTEX
  5
7DA
  8
OBJECT
 10
31.34154250354678
 20
52.0360500814751
 30
0.0
  0
VERTEX
  5
7DB
  8
OBJECT
 10
31.31131190824679
 20
52.0124429007751
 30
0.0
  0
SEQEND
  5
7D1
  8
OBJECT
  0
LINE
  5
6BB
  8
OBJECT
 10
30.91391789724678
 20
51.9871674242751
 30
0.0
 11
31.31131190824679
 21
52.2165781037751
 31
0.0
  0
POLYLINE
  5
6BC
  8
OBJECT
 66
     1
 10
0.0
 20
0.0
 30
0.0
  0
VERTEX
  5
7DD
  8
OBJECT
 10
30.91391789724678
 20
51.9871674242751
 30
0.0
  0
VERTEX
  5
7DE
  8
OBJECT
 10
30.88368730194679
 20
51.9635602435751
 30
0.0
  0
VERTEX
  5
7DF
  8
OBJECT
 10
30.85710296254678
 20
51.9304895780751
 30
0.0
  0
VERTEX
  5
7E0
  8
OBJECT
 10
30.83737134274678
 20
51.8919442382751
 30
0.0
  0
VERTEX
  5
7E1
  8
OBJECT
 10
30.82687236714678
 20
51.8525733609751
 30
0.0
  0
VERTEX
  5
7E2
  8
OBJECT
 10
30.82687236714678
 20
51.8171256549751
 30
0.0
  0
VERTEX
  5
7E3
  8
OBJECT
 10
30.83737134274678
 20
51.7898766367751
 30
0.0
  0
VERTEX
  5
7E4
  8
OBJECT
 10
30.85710296254678
 20
51.7741129401751
 30
0.0
  0
VERTEX
  5
7E5
  8
OBJECT
 10
30.88368730194679
 20
51.7717358996751
 30
0.0
  0
VERTEX
  5
7E6
  8
OBJECT
 10
30.91391789724678
 20
51.7830322213751
 30
0.0
  0
SEQEND
  5
7DC
  8
OBJECT
  0
LINE
  5
6BD
  8
OBJECT
 10
33.27795264344679
 20
53.1477604312751
 30
0.0
 11
32.88055863244679
 21
52.9183497518751
 31
0.0
  0
POLYLINE
  5
6BE
  8
OBJECT
 66
     1
 10
0.0
 20
0.0
 30
0.0
  0
VERTEX
  5
7E8
  8
OBJECT
 10
33.27795264344679
 20
53.3518956342751
 30
0.0
  0
VERTEX
  5
7E9
  8
OBJECT
 10
33.30818323874679
 20
53.3631919558751
 30
0.0
  0
VERTEX
  5
7EA
  8
OBJECT
 10
33.33476757814679
 20
53.3608149153751
 30
0.0
  0
VERTEX
  5
7EB
  8
OBJECT
 10
33.35449919794679
 20
53.3450512187751
 30
0.0
  0
VERTEX
  5
7EC
  8
OBJECT
 10
33.36499817344679
 20
53.3178022006751
 30
0.0
  0
VERTEX
  5
7ED
  8
OBJECT
 10
33.36499817344679
 20
53.2823544946751
 30
0.0
  0
VERTEX
  5
7EE
  8
OBJECT
 10
33.35449919794679
 20
53.2429836172751
 30
0.0
  0
VERTEX
  5
7EF
  8
OBJECT
 10
33.33476757814679
 20
53.2044382774751
 30
0.0
  0
VERTEX
  5
7F0
  8
OBJECT
 10
33.30818323874679
 20
53.1713676120751
 30
0.0
  0
VERTEX
  5
7F1
  8
OBJECT
 10
33.27795264344679
 20
53.1477604312751
 30
0.0
  0
SEQEND
  5
7E7
  8
OBJECT
  0
LINE
  5
6BF
  8
OBJECT
 10
32.88055863244679
 20
53.1224849547751
 30
0.0
 11
33.27795264344679
 21
53.3518956342751
 31
0.0
  0
POLYLINE
  5
6C0
  8
OBJECT
 66
     1
 10
0.0
 20
0.0
 30
0.0
  0
VERTEX
  5
7F3
  8
OBJECT
 10
32.88055863244679
 20
53.1224849547751
 30
0.0
  0
VERTEX
  5
7F4
  8
OBJECT
 10
32.85032803704679
 20
53.0988777740751
 30
0.0
  0
VERTEX
  5
7F5
  8
OBJECT
 10
32.82374369774679
 20
53.0658071085751
 30
0.0
  0
VERTEX
  5
7F6
  8
OBJECT
 10
32.80401207794679
 20
53.0272617687751
 30
0.0
  0
VERTEX
  5
7F7
  8
OBJECT
 10
32.79351310234679
 20
52.9878908914751
 30
0.0
  0
VERTEX
  5
7F8
  8
OBJECT
 10
32.79351310234679
 20
52.9524431854751
 30
0.0
  0
VERTEX
  5
7F9
  8
OBJECT
 10
32.80401207794679
 20
52.9251941672751
 30
0.0
  0
VERTEX
  5
7FA
  8
OBJECT
 10
32.82374369774679
 20
52.9094304706751
 30
0.0
  0
VERTEX
  5
7FB
  8
OBJECT
 10
32.85032803704679
 20
52.9070534301751
 30
0.0
  0
VERTEX
  5
7FC
  8
OBJECT
 10
32.88055863244679
 20
52.9183497518751
 30
0.0
  0
SEQEND
  5
7F2
  8
OBJECT
  0
LINE
  5
6C1
  8
OBJECT
 10
30.05195473094679
 20
51.1305866983751
 30
0.0
 11
30.05195473094679
 21
51.6928771148751
 31
0.0
  0
LINE
  5
6C2
  8
OBJECT
 10
30.14034307864679
 20
51.8459702233751
 30
0.0
 11
39.86376842674679
 21
57.4591841961751
 31
0.0
  0
ARC
  5
6C3
  8
OBJECT
 10
17.51878861844678
 20
58.2519277654751
 30
0.0
 40
0.1183339701830558
 50
122.6054783399962
 51
177.3945215142962
  0
ARC
  5
6C4
  8
OBJECT
 10
30.07152497484679
 20
51.0053873138751
 30
0.0
 40
0.1183339701830596
 50
122.6054783399991
 51
177.3945215142991
  0
ARC
  5
6C5
  8
OBJECT
 10
30.02018219694678
 20
51.0350273381751
 30
0.0
 40
0.0230520721135531
 50
122.605478339995
 51
177.394521514395
  0
ARC
  5
6C6
  8
OBJECT
 10
30.06260262514679
 20
51.0998936526751
 30
0.0
 40
0.0336266082019864
 50
230.7967147642966
 51
9.21403699049665
  0
ARC
  5
6C7
  8
OBJECT
 10
39.95826724834678
 20
56.8163783548751
 30
0.0
 40
0.0379593006198413
 50
305.0133328836056
 51
6.298847509805523
  0
LINE
  5
6C8
  8
OBJECT
 10
30.04134812924679
 20
51.1244616469751
 30
0.0
 11
30.04134812924679
 21
51.0738361166751
 31
0.0
  0
ARC
  5
6C9
  8
OBJECT
 10
30.04548861544679
 20
51.1295377903751
 30
0.0
 40
0.0065506379614289
 50
230.7967147642629
 51
9.214036990462962
  0
LINE
  5
6CA
  8
OBJECT
 10
29.99715395544678
 20
50.5494169270751
 30
0.0
 11
29.99715395544678
 21
51.0360752509751
 31
0.0
  0
LINE
  5
6CB
  8
OBJECT
 10
29.95331333494679
 20
50.5241082756751
 30
0.0
 11
29.95331333494679
 21
51.0107665994751
 31
0.0
  0
LINE
  5
6CC
  8
OBJECT
 10
17.40057697864679
 20
57.7706487271751
 30
0.0
 11
17.40057697864679
 21
58.2573070510751
 31
0.0
  0
LINE
  5
6CD
  8
OBJECT
 10
30.00776055714679
 20
51.0544464239751
 30
0.0
 11
30.04134812924679
 21
51.0738361166751
 31
0.0
  0
LINE
  5
6CE
  8
OBJECT
 10
30.00776055714679
 20
51.1050719543751
 30
0.0
 11
30.04134812924679
 21
51.1244616469751
 31
0.0
  0
LINE
  5
6CF
  8
OBJECT
 10
17.45502420084679
 20
58.3516124058751
 30
0.0
 11
17.48861177294679
 21
58.3710020985751
 31
0.0
  0
LINE
  5
6D0
  8
OBJECT
 10
27.38881381634679
 20
64.0862670853751
 30
0.0
 11
27.42240138844679
 21
64.1056567779751
 31
0.0
  0
POLYLINE
  5
6D1
  8
OBJECT
 66
     1
 10
0.0
 20
0.0
 30
0.0
  0
VERTEX
  5
7FE
  8
OBJECT
 10
30.83347176974679
 20
51.7963734746751
 30
0.0
  0
VERTEX
  5
7FF
  8
OBJECT
 10
30.83984668144679
 20
51.7970445511751
 30
0.0
  0
VERTEX
  5
800
  8
OBJECT
 10
30.87007727684679
 20
51.8083408727751
 30
0.0
  0
SEQEND
  5
7FD
  8
OBJECT
  0
ARC
  5
6D2
  8
OBJECT
 10
17.43830712514679
 20
57.7664840483751
 30
0.0
 40
0.0379593006088962
 50
173.7011524803954
 51
234.9866671261954
  0
ARC
  5
6D3
  8
OBJECT
 10
29.98650606124679
 20
50.5187238814751
 30
0.0
 40
0.0336266082019998
 50
170.7859630095009
 51
309.2032852357009
  0
ARC
  5
6D4
  8
OBJECT
 10
30.00362007094679
 20
50.5483680191751
 30
0.0
 40
0.0065506379614304
 50
170.7859630094765
 51
309.2032852356766
  0
LINE
  5
6D5
  8
OBJECT
 10
30.21847837794679
 20
50.6649366843751
 30
0.0
 11
30.00776055714679
 21
50.5432918757751
 31
0.0
  0
LINE
  5
6D6
  8
OBJECT
 10
30.21847837794679
 20
50.6649366843751
 30
0.0
 11
30.21847837794679
 21
50.6143111540751
 31
0.0
  0
LINE
  5
6D7
  8
OBJECT
 10
30.21847837794679
 20
50.6143111540751
 30
0.0
 11
30.00776055714679
 21
50.4926663453751
 31
0.0
  0
LINE
  5
6D8
  8
OBJECT
 10
29.99715395544678
 20
50.7927045538751
 30
0.0
 11
30.21847837794679
 21
50.6649366843751
 31
0.0
  0
LINE
  5
6D9
  8
OBJECT
 10
31.26747128784679
 20
52.0377515522751
 30
0.0
 11
30.87007727684679
 21
51.8083408727751
 31
0.0
  0
ARC
  5
6DA
  8
OBJECT
 10
31.18765763394679
 20
52.1837606617751
 30
0.0
 40
0.166399757904689
 50
298.6625493886014
 51
15.61310155340142
  0
POLYLINE
  5
6DB
  8
OBJECT
 66
     1
 10
0.0
 20
0.0
 30
0.0
  0
VERTEX
  5
802
  8
OBJECT
 10
32.80011250494679
 20
52.9316910051751
 30
0.0
  0
VERTEX
  5
803
  8
OBJECT
 10
32.80648741664678
 20
52.9323620816751
 30
0.0
  0
VERTEX
  5
804
  8
OBJECT
 10
32.83671801194679
 20
52.9436584032751
 30
0.0
  0
SEQEND
  5
801
  8
OBJECT
  0
LINE
  5
6DC
  8
OBJECT
 10
33.23411202304678
 20
53.1730690827751
 30
0.0
 11
32.83671801194679
 21
52.9436584032751
 31
0.0
  0
ARC
  5
6DD
  8
OBJECT
 10
33.15429836914678
 20
53.3190781922751
 30
0.0
 40
0.1663997579046192
 50
298.6625493886033
 51
15.61310155350335
  0
POLYLINE
  5
6DE
  8
OBJECT
 66
     1
 10
0.0
 20
0.0
 30
0.0
  0
VERTEX
  5
806
  8
OBJECT
 10
34.76675324004679
 20
54.0670085356751
 30
0.0
  0
VERTEX
  5
807
  8
OBJECT
 10
34.77312815184678
 20
54.0676796121751
 30
0.0
  0
VERTEX
  5
808
  8
OBJECT
 10
34.80335874714678
 20
54.0789759337751
 30
0.0
  0
SEQEND
  5
805
  8
OBJECT
  0
LINE
  5
6DF
  8
OBJECT
 10
35.20075275814678
 20
54.3083866132751
 30
0.0
 11
34.80335874714678
 21
54.0789759337751
 31
0.0
  0
ARC
  5
6E0
  8
OBJECT
 10
35.12093910424679
 20
54.4543957228751
 30
0.0
 40
0.1663997579046504
 50
298.6625493885975
 51
15.6131015534975
  0
POLYLINE
  5
6E1
  8
OBJECT
 66
     1
 10
0.0
 20
0.0
 30
0.0
  0
VERTEX
  5
80A
  8
OBJECT
 10
36.73339397524679
 20
55.2023260661751
 30
0.0
  0
VERTEX
  5
80B
  8
OBJECT
 10
36.73976888694678
 20
55.2029971426751
 30
0.0
  0
VERTEX
  5
80C
  8
OBJECT
 10
36.76999948234678
 20
55.2142934642751
 30
0.0
  0
SEQEND
  5
809
  8
OBJECT
  0
LINE
  5
6E2
  8
OBJECT
 10
37.16739349334679
 20
55.4437041437751
 30
0.0
 11
36.76999948234678
 21
55.2142934642751
 31
0.0
  0
ARC
  5
6E3
  8
OBJECT
 10
37.0875798394468
 20
55.5897132533751
 30
0.0
 40
0.1663997579047077
 50
298.6625493885979
 51
15.61310155339786
  0
POLYLINE
  5
6E4
  8
OBJECT
 66
     1
 10
0.0
 20
0.0
 30
0.0
  0
VERTEX
  5
80E
  8
OBJECT
 10
38.70003471044679
 20
56.3376435966751
 30
0.0
  0
VERTEX
  5
80F
  8
OBJECT
 10
38.70640962214679
 20
56.3383146731751
 30
0.0
  0
VERTEX
  5
810
  8
OBJECT
 10
38.73664021754679
 20
56.3496109947751
 30
0.0
  0
SEQEND
  5
80D
  8
OBJECT
  0
LINE
  5
6E5
  8
OBJECT
 10
39.13403422854679
 20
56.5790216742751
 30
0.0
 11
38.73664021754679
 21
56.3496109947751
 31
0.0
  0
ARC
  5
6E6
  8
OBJECT
 10
39.05422057464678
 20
56.7250307838751
 30
0.0
 40
0.1663997579049478
 50
298.6625493887033
 51
15.61310155320326
  0
ARC
  5
6E7
  8
OBJECT
 10
39.90038343354679
 20
57.4080740300751
 30
0.0
 40
0.0628721544877399
 50
65.69288095390847
 51
125.6175774752085
  0
ARC
  5
6E8
  8
OBJECT
 10
39.99697770954679
 20
56.8332885660751
 30
0.0
 40
0.0330870388075841
 50
350.2308542549084
 51
91.69782849190847
  0
ARC
  5
6E9
  8
OBJECT
 10
27.44495623264679
 20
64.07417291567509
 30
0.0
 40
0.0387292471644194
 50
65.69288095389996
 51
125.6175774751999
  0
LINE
  5
6EA
  8
OBJECT
 10
39.98574434644679
 20
56.7897380751751
 30
0.0
 11
39.98574434644679
 21
56.3157074208751
 31
0.0
  0
LINE
  5
6EB
  8
OBJECT
 10
40.02958496694678
 20
56.8276743962751
 30
0.0
 11
40.02958496694678
 21
56.3410160723751
 31
0.0
  0
LINE
  5
6EC
  8
OBJECT
 10
39.97513774474678
 20
56.2973362478751
 30
0.0
 11
39.76441992394678
 21
56.1756914391751
 31
0.0
  0
LINE
  5
6ED
  8
OBJECT
 10
39.3442493162468
 20
56.4182507680751
 30
0.0
 11
39.76441992394678
 21
56.1756914391751
 31
0.0
  0
LINE
  5
6EE
  8
OBJECT
 10
39.97513774474678
 20
56.2467107175751
 30
0.0
 11
39.76441992394678
 21
56.1250659088751
 31
0.0
  0
LINE
  5
6EF
  8
OBJECT
 10
39.76441992394678
 20
56.1250659088751
 30
0.0
 11
39.76441992394678
 21
56.1756914391751
 31
0.0
  0
LINE
  5
6F0
  8
OBJECT
 10
39.30040156984679
 20
56.3929380028751
 30
0.0
 11
39.76441992394678
 21
56.1250659088751
 31
0.0
  0
ARC
  5
6F1
  8
OBJECT
 10
39.96271610494679
 20
56.3167553336751
 30
0.0
 40
0.0230520721135689
 50
302.6054783399908
 51
357.3945215143909
  0
ARC
  5
6F2
  8
OBJECT
 10
39.9113733270468
 20
56.3463953579751
 30
0.0
 40
0.1183339701830558
 50
302.6054783399962
 51
357.3945215142962
  0
LINE
  5
6F3
  8
OBJECT
 10
26.56008466874679
 20
63.8378082474751
 30
0.0
 11
26.16269065774679
 21
63.60839756807511
 31
0.0
  0
POLYLINE
  5
6F4
  8
OBJECT
 66
     1
 10
0.0
 20
0.0
 30
0.0
  0
VERTEX
  5
812
  8
OBJECT
 10
26.56008466874679
 20
64.0419434504751
 30
0.0
  0
VERTEX
  5
813
  8
OBJECT
 10
26.59031526414679
 20
64.0532397720751
 30
0.0
  0
VERTEX
  5
814
  8
OBJECT
 10
26.61689960344679
 20
64.05086273157511
 30
0.0
  0
VERTEX
  5
815
  8
OBJECT
 10
26.63663122324679
 20
64.0350990349751
 30
0.0
  0
VERTEX
  5
816
  8
OBJECT
 10
26.64713019884679
 20
64.0078500168751
 30
0.0
  0
VERTEX
  5
817
  8
OBJECT
 10
26.64713019884679
 20
63.9724023108751
 30
0.0
  0
VERTEX
  5
818
  8
OBJECT
 10
26.63663122324679
 20
63.9330314334751
 30
0.0
  0
VERTEX
  5
819
  8
OBJECT
 10
26.61689960344679
 20
63.8944860936751
 30
0.0
  0
VERTEX
  5
81A
  8
OBJECT
 10
26.59031526414679
 20
63.8614154282751
 30
0.0
  0
VERTEX
  5
81B
  8
OBJECT
 10
26.56008466874679
 20
63.8378082474751
 30
0.0
  0
SEQEND
  5
811
  8
OBJECT
  0
LINE
  5
6F5
  8
OBJECT
 10
26.16269065774679
 20
63.8125327709751
 30
0.0
 11
26.56008466874679
 21
64.0419434504751
 31
0.0
  0
POLYLINE
  5
6F6
  8
OBJECT
 66
     1
 10
0.0
 20
0.0
 30
0.0
  0
VERTEX
  5
81D
  8
OBJECT
 10
26.16269065774679
 20
63.8125327709751
 30
0.0
  0
VERTEX
  5
81E
  8
OBJECT
 10
26.13246006244679
 20
63.7889255902751
 30
0.0
  0
VERTEX
  5
81F
  8
OBJECT
 10
26.10587572304679
 20
63.7558549247751
 30
0.0
  0
VERTEX
  5
820
  8
OBJECT
 10
26.08614410324679
 20
63.7173095849751
 30
0.0
  0
VERTEX
  5
821
  8
OBJECT
 10
26.07564512774679
 20
63.6779387076751
 30
0.0
  0
VERTEX
  5
822
  8
OBJECT
 10
26.07564512774679
 20
63.6424910016751
 30
0.0
  0
VERTEX
  5
823
  8
OBJECT
 10
26.08614410324679
 20
63.6152419834751
 30
0.0
  0
VERTEX
  5
824
  8
OBJECT
 10
26.10587572304679
 20
63.5994782868751
 30
0.0
  0
VERTEX
  5
825
  8
OBJECT
 10
26.13246006244679
 20
63.5971012463751
 30
0.0
  0
VERTEX
  5
826
  8
OBJECT
 10
26.16269065774679
 20
63.60839756807511
 30
0.0
  0
SEQEND
  5
81C
  8
OBJECT
  0
LINE
  5
6F7
  8
OBJECT
 10
24.59344393364679
 20
62.7024907169751
 30
0.0
 11
24.19604992254678
 21
62.4730800375751
 31
0.0
  0
POLYLINE
  5
6F8
  8
OBJECT
 66
     1
 10
0.0
 20
0.0
 30
0.0
  0
VERTEX
  5
828
  8
OBJECT
 10
24.59344393364679
 20
62.9066259199751
 30
0.0
  0
VERTEX
  5
829
  8
OBJECT
 10
24.62367452894679
 20
62.9179222415751
 30
0.0
  0
VERTEX
  5
82A
  8
OBJECT
 10
24.65025886834679
 20
62.9155452010751
 30
0.0
  0
VERTEX
  5
82B
  8
OBJECT
 10
24.66999048804679
 20
62.8997815044751
 30
0.0
  0
VERTEX
  5
82C
  8
OBJECT
 10
24.68048946364679
 20
62.8725324863751
 30
0.0
  0
VERTEX
  5
82D
  8
OBJECT
 10
24.68048946364679
 20
62.8370847803751
 30
0.0
  0
VERTEX
  5
82E
  8
OBJECT
 10
24.66999048804679
 20
62.7977139029751
 30
0.0
  0
VERTEX
  5
82F
  8
OBJECT
 10
24.65025886834679
 20
62.7591685631751
 30
0.0
  0
VERTEX
  5
830
  8
OBJECT
 10
24.62367452894679
 20
62.7260978977751
 30
0.0
  0
VERTEX
  5
831
  8
OBJECT
 10
24.59344393364679
 20
62.7024907169751
 30
0.0
  0
SEQEND
  5
827
  8
OBJECT
  0
LINE
  5
6F9
  8
OBJECT
 10
24.19604992254678
 20
62.6772152404751
 30
0.0
 11
24.59344393364679
 21
62.9066259199751
 31
0.0
  0
POLYLINE
  5
6FA
  8
OBJECT
 66
     1
 10
0.0
 20
0.0
 30
0.0
  0
VERTEX
  5
833
  8
OBJECT
 10
24.19604992254678
 20
62.6772152404751
 30
0.0
  0
VERTEX
  5
834
  8
OBJECT
 10
24.16581932724679
 20
62.6536080597751
 30
0.0
  0
VERTEX
  5
835
  8
OBJECT
 10
24.13923498784678
 20
62.6205373942751
 30
0.0
  0
VERTEX
  5
836
  8
OBJECT
 10
24.11950336814679
 20
62.5819920544751
 30
0.0
  0
VERTEX
  5
837
  8
OBJECT
 10
24.10900439254679
 20
62.5426211771751
 30
0.0
  0
VERTEX
  5
838
  8
OBJECT
 10
24.10900439254679
 20
62.5071734711751
 30
0.0
  0
VERTEX
  5
839
  8
OBJECT
 10
24.11950336814679
 20
62.4799244529751
 30
0.0
  0
VERTEX
  5
83A
  8
OBJECT
 10
24.13923498784678
 20
62.4641607563751
 30
0.0
  0
VERTEX
  5
83B
  8
OBJECT
 10
24.16581932724679
 20
62.4617837158751
 30
0.0
  0
VERTEX
  5
83C
  8
OBJECT
 10
24.19604992254678
 20
62.4730800375751
 30
0.0
  0
SEQEND
  5
832
  8
OBJECT
  0
LINE
  5
6FB
  8
OBJECT
 10
22.62680319844679
 20
61.5671731864751
 30
0.0
 11
22.22940918744678
 21
61.3377625070751
 31
0.0
  0
POLYLINE
  5
6FC
  8
OBJECT
 66
     1
 10
0.0
 20
0.0
 30
0.0
  0
VERTEX
  5
83E
  8
OBJECT
 10
22.62680319844679
 20
61.7713083894751
 30
0.0
  0
VERTEX
  5
83F
  8
OBJECT
 10
22.65703379374678
 20
61.7826047110751
 30
0.0
  0
VERTEX
  5
840
  8
OBJECT
 10
22.68361813314679
 20
61.7802276705751
 30
0.0
  0
VERTEX
  5
841
  8
OBJECT
 10
22.70334975284679
 20
61.7644639739751
 30
0.0
  0
VERTEX
  5
842
  8
OBJECT
 10
22.71384872844678
 20
61.7372149558751
 30
0.0
  0
VERTEX
  5
843
  8
OBJECT
 10
22.71384872844678
 20
61.7017672498751
 30
0.0
  0
VERTEX
  5
844
  8
OBJECT
 10
22.70334975284679
 20
61.6623963724751
 30
0.0
  0
VERTEX
  5
845
  8
OBJECT
 10
22.68361813314679
 20
61.6238510326751
 30
0.0
  0
VERTEX
  5
846
  8
OBJECT
 10
22.65703379374678
 20
61.5907803672751
 30
0.0
  0
VERTEX
  5
847
  8
OBJECT
 10
22.62680319844679
 20
61.5671731864751
 30
0.0
  0
SEQEND
  5
83D
  8
OBJECT
  0
LINE
  5
6FD
  8
OBJECT
 10
22.22940918744678
 20
61.5418977099751
 30
0.0
 11
22.62680319844679
 21
61.7713083894751
 31
0.0
  0
POLYLINE
  5
6FE
  8
OBJECT
 66
     1
 10
0.0
 20
0.0
 30
0.0
  0
VERTEX
  5
849
  8
OBJECT
 10
22.22940918744678
 20
61.5418977099751
 30
0.0
  0
VERTEX
  5
84A
  8
OBJECT
 10
22.19917859204678
 20
61.5182905292751
 30
0.0
  0
VERTEX
  5
84B
  8
OBJECT
 10
22.17259425264679
 20
61.4852198637751
 30
0.0
  0
VERTEX
  5
84C
  8
OBJECT
 10
22.15286263294679
 20
61.4466745239751
 30
0.0
  0
VERTEX
  5
84D
  8
OBJECT
 10
22.14236365734678
 20
61.4073036466751
 30
0.0
  0
VERTEX
  5
84E
  8
OBJECT
 10
22.14236365734678
 20
61.3718559406751
 30
0.0
  0
VERTEX
  5
84F
  8
OBJECT
 10
22.15286263294679
 20
61.3446069224751
 30
0.0
  0
VERTEX
  5
850
  8
OBJECT
 10
22.17259425264679
 20
61.3288432258751
 30
0.0
  0
VERTEX
  5
851
  8
OBJECT
 10
22.19917859204678
 20
61.3264661853751
 30
0.0
  0
VERTEX
  5
852
  8
OBJECT
 10
22.22940918744678
 20
61.3377625070751
 30
0.0
  0
SEQEND
  5
848
  8
OBJECT
  0
LINE
  5
6FF
  8
OBJECT
 10
17.47800517124679
 20
58.3893732715751
 30
0.0
 11
17.47800517124679
 21
58.9516636881751
 31
0.0
  0
ARC
  5
700
  8
OBJECT
 10
17.66990718384679
 20
58.9429310815751
 30
0.0
 40
0.1921006009465125
 50
122.6054783399993
 51
177.3945215142993
  0
LINE
  5
701
  8
OBJECT
 10
17.56639351884679
 20
59.1047567965751
 30
0.0
 11
27.28981886694679
 21
64.7179707694751
 31
0.0
  0
ARC
  5
702
  8
OBJECT
 10
27.32432291864679
 20
64.6756695745751
 30
0.0
 40
0.0545886496785539
 50
350.7859630095012
 51
129.2032852357012
  0
LINE
  5
703
  8
OBJECT
 10
27.37820721464679
 20
64.6669286749751
 30
0.0
 11
27.37820721464679
 21
64.1046382583751
 31
0.0
  0
POLYLINE
  5
704
  8
OBJECT
 66
     1
 10
0.0
 20
0.0
 30
0.0
  0
VERTEX
  5
854
  8
OBJECT
 10
18.69352172804679
 20
59.5006733284751
 30
0.0
  0
VERTEX
  5
855
  8
OBJECT
 10
18.72375232344679
 20
59.5119696500751
 30
0.0
  0
VERTEX
  5
856
  8
OBJECT
 10
18.75033666274679
 20
59.5095926095751
 30
0.0
  0
VERTEX
  5
857
  8
OBJECT
 10
18.77006828254679
 20
59.4938289129751
 30
0.0
  0
VERTEX
  5
858
  8
OBJECT
 10
18.78056725814679
 20
59.4665798948751
 30
0.0
  0
VERTEX
  5
859
  8
OBJECT
 10
18.78056725814679
 20
59.4311321888751
 30
0.0
  0
VERTEX
  5
85A
  8
OBJECT
 10
18.77006828254679
 20
59.3917613114751
 30
0.0
  0
VERTEX
  5
85B
  8
OBJECT
 10
18.75033666274679
 20
59.3532159716751
 30
0.0
  0
VERTEX
  5
85C
  8
OBJECT
 10
18.72375232344679
 20
59.3201453061751
 30
0.0
  0
VERTEX
  5
85D
  8
OBJECT
 10
18.69352172804679
 20
59.2965381254751
 30
0.0
  0
SEQEND
  5
853
  8
OBJECT
  0
LINE
  5
705
  8
OBJECT
 10
18.29612771704679
 20
59.2712626489751
 30
0.0
 11
18.69352172804679
 21
59.5006733284751
 31
0.0
  0
POLYLINE
  5
706
  8
OBJECT
 66
     1
 10
0.0
 20
0.0
 30
0.0
  0
VERTEX
  5
85F
  8
OBJECT
 10
18.29612771704679
 20
59.2712626489751
 30
0.0
  0
VERTEX
  5
860
  8
OBJECT
 10
18.26589712174679
 20
59.2476554682751
 30
0.0
  0
VERTEX
  5
861
  8
OBJECT
 10
18.23931278234679
 20
59.2145848027751
 30
0.0
  0
VERTEX
  5
862
  8
OBJECT
 10
18.21958116254679
 20
59.1760394629751
 30
0.0
  0
VERTEX
  5
863
  8
OBJECT
 10
18.20908218704679
 20
59.1366685856751
 30
0.0
  0
VERTEX
  5
864
  8
OBJECT
 10
18.20908218704679
 20
59.1012208796751
 30
0.0
  0
VERTEX
  5
865
  8
OBJECT
 10
18.21958116254679
 20
59.0739718614751
 30
0.0
  0
VERTEX
  5
866
  8
OBJECT
 10
18.23931278234679
 20
59.0582081648751
 30
0.0
  0
VERTEX
  5
867
  8
OBJECT
 10
18.26589712174679
 20
59.0558311243751
 30
0.0
  0
VERTEX
  5
868
  8
OBJECT
 10
18.29612771704679
 20
59.0671274460751
 30
0.0
  0
SEQEND
  5
85E
  8
OBJECT
  0
LINE
  5
707
  8
OBJECT
 10
18.69352172804679
 20
59.2965381254751
 30
0.0
 11
18.29612771704679
 21
59.0671274460751
 31
0.0
  0
POLYLINE
  5
708
  8
OBJECT
 66
     1
 10
0.0
 20
0.0
 30
0.0
  0
VERTEX
  5
86A
  8
OBJECT
 10
20.66016246324678
 20
60.6359908589751
 30
0.0
  0
VERTEX
  5
86B
  8
OBJECT
 10
20.69039305854679
 20
60.6472871805751
 30
0.0
  0
VERTEX
  5
86C
  8
OBJECT
 10
20.71697739794678
 20
60.6449101400751
 30
0.0
  0
VERTEX
  5
86D
  8
OBJECT
 10
20.73670901774679
 20
60.6291464434751
 30
0.0
  0
VERTEX
  5
86E
  8
OBJECT
 10
20.74720799324679
 20
60.6018974253751
 30
0.0
  0
VERTEX
  5
86F
  8
OBJECT
 10
20.74720799324679
 20
60.5664497193751
 30
0.0
  0
VERTEX
  5
870
  8
OBJECT
 10
20.73670901774679
 20
60.5270788419751
 30
0.0
  0
VERTEX
  5
871
  8
OBJECT
 10
20.71697739794678
 20
60.4885335021751
 30
0.0
  0
VERTEX
  5
872
  8
OBJECT
 10
20.69039305854679
 20
60.4554628366751
 30
0.0
  0
VERTEX
  5
873
  8
OBJECT
 10
20.66016246324678
 20
60.4318556559751
 30
0.0
  0
SEQEND
  5
869
  8
OBJECT
  0
LINE
  5
709
  8
OBJECT
 10
20.26276845224679
 20
60.4065801794751
 30
0.0
 11
20.66016246324678
 21
60.6359908589751
 31
0.0
  0
POLYLINE
  5
70A
  8
OBJECT
 66
     1
 10
0.0
 20
0.0
 30
0.0
  0
VERTEX
  5
875
  8
OBJECT
 10
20.26276845224679
 20
60.4065801794751
 30
0.0
  0
VERTEX
  5
876
  8
OBJECT
 10
20.23253785684679
 20
60.3829729987751
 30
0.0
  0
VERTEX
  5
877
  8
OBJECT
 10
20.20595351754679
 20
60.3499023332751
 30
0.0
  0
VERTEX
  5
878
  8
OBJECT
 10
20.18622189774679
 20
60.3113569934751
 30
0.0
  0
VERTEX
  5
879
  8
OBJECT
 10
20.17572292214679
 20
60.2719861161751
 30
0.0
  0
VERTEX
  5
87A
  8
OBJECT
 10
20.17572292214679
 20
60.2365384101751
 30
0.0
  0
VERTEX
  5
87B
  8
OBJECT
 10
20.18622189774679
 20
60.2092893919751
 30
0.0
  0
VERTEX
  5
87C
  8
OBJECT
 10
20.20595351754679
 20
60.1935256953751
 30
0.0
  0
VERTEX
  5
87D
  8
OBJECT
 10
20.23253785684679
 20
60.1911486548751
 30
0.0
  0
VERTEX
  5
87E
  8
OBJECT
 10
20.26276845224679
 20
60.2024449765751
 30
0.0
  0
SEQEND
  5
874
  8
OBJECT
  0
LINE
  5
70B
  8
OBJECT
 10
20.66016246324678
 20
60.4318556559751
 30
0.0
 11
20.26276845224679
 21
60.2024449765751
 31
0.0
  0
ARC
  5
70C
  8
OBJECT
 10
17.62606656344679
 20
58.9682397330751
 30
0.0
 40
0.1921006009465321
 50
122.6054783400006
 51
177.3945215143006
  0
LINE
  5
70D
  8
OBJECT
 10
17.43416455074679
 20
58.4146819229751
 30
0.0
 11
17.43416455074679
 21
58.9769723395751
 31
0.0
  0
LINE
  5
70E
  8
OBJECT
 10
17.52255289844679
 20
59.1300654480751
 30
0.0
 11
27.24597824654679
 21
64.7432794208751
 31
0.0
  0
ARC
  5
70F
  8
OBJECT
 10
17.50103341274679
 20
58.3904211843751
 30
0.0
 40
0.0230520721135904
 50
182.6054784857105
 51
237.3945216600106
  0
ARC
  5
710
  8
OBJECT
 10
17.55047512154679
 20
58.4197735420751
 30
0.0
 40
0.1164219629753891
 50
182.5065833931983
 51
215.5718455166983
  0
ARC
  5
711
  8
OBJECT
 10
27.40123545614679
 20
64.10568617117511
 30
0.0
 40
0.0230520721135762
 50
182.6054784857121
 51
237.3945216600121
  0
POLYLINE
  5
712
  8
OBJECT
 66
     1
 10
0.0
 20
0.0
 30
0.0
  0
VERTEX
  5
880
  8
OBJECT
 10
18.21568158954679
 20
59.0804686993751
 30
0.0
  0
VERTEX
  5
881
  8
OBJECT
 10
18.22205650124679
 20
59.0811397758751
 30
0.0
  0
VERTEX
  5
882
  8
OBJECT
 10
18.25228709664679
 20
59.0924360974751
 30
0.0
  0
SEQEND
  5
87F
  8
OBJECT
  0
LINE
  5
713
  8
OBJECT
 10
18.64968110764679
 20
59.3218467769751
 30
0.0
 11
18.25228709664679
 21
59.0924360974751
 31
0.0
  0
ARC
  5
714
  8
OBJECT
 10
18.56986745374679
 20
59.4678558864751
 30
0.0
 40
0.1663997579047525
 50
298.6625493886006
 51
15.61310155340061
  0
POLYLINE
  5
715
  8
OBJECT
 66
     1
 10
0.0
 20
0.0
 30
0.0
  0
VERTEX
  5
884
  8
OBJECT
 10
20.18232232474679
 20
60.2157862298751
 30
0.0
  0
VERTEX
  5
885
  8
OBJECT
 10
20.18869723644679
 20
60.2164573063751
 30
0.0
  0
VERTEX
  5
886
  8
OBJECT
 10
20.21892783174679
 20
60.2277536279751
 30
0.0
  0
SEQEND
  5
883
  8
OBJECT
  0
LINE
  5
716
  8
OBJECT
 10
20.61632184284679
 20
60.4571643074751
 30
0.0
 11
20.21892783174679
 21
60.2277536279751
 31
0.0
  0
ARC
  5
717
  8
OBJECT
 10
20.53650818894679
 20
60.6031734169751
 30
0.0
 40
0.1663997579046634
 50
298.6625493886006
 51
15.61310155340061
  0
POLYLINE
  5
718
  8
OBJECT
 66
     1
 10
0.0
 20
0.0
 30
0.0
  0
VERTEX
  5
888
  8
OBJECT
 10
22.14896305994679
 20
61.3511037603751
 30
0.0
  0
VERTEX
  5
889
  8
OBJECT
 10
22.15533797164679
 20
61.3517748368751
 30
0.0
  0
VERTEX
  5
88A
  8
OBJECT
 10
22.18556856694679
 20
61.3630711584751
 30
0.0
  0
SEQEND
  5
887
  8
OBJECT
  0
LINE
  5
719
  8
OBJECT
 10
22.58296257794679
 20
61.5924818379751
 30
0.0
 11
22.18556856694679
 21
61.3630711584751
 31
0.0
  0
ARC
  5
71A
  8
OBJECT
 10
22.50314892414679
 20
61.7384909474751
 30
0.0
 40
0.1663997579047173
 50
298.6625493885988
 51
15.61310155339882
  0
POLYLINE
  5
71B
  8
OBJECT
 66
     1
 10
0.0
 20
0.0
 30
0.0
  0
VERTEX
  5
88C
  8
OBJECT
 10
24.11560379504679
 20
62.4864212908751
 30
0.0
  0
VERTEX
  5
88D
  8
OBJECT
 10
24.12197870684679
 20
62.4870923673751
 30
0.0
  0
VERTEX
  5
88E
  8
OBJECT
 10
24.15220930214679
 20
62.4983886889751
 30
0.0
  0
SEQEND
  5
88B
  8
OBJECT
  0
LINE
  5
71C
  8
OBJECT
 10
24.54960331314679
 20
62.7277993684751
 30
0.0
 11
24.15220930214679
 21
62.4983886889751
 31
0.0
  0
ARC
  5
71D
  8
OBJECT
 10
24.46978965924679
 20
62.8738084780751
 30
0.0
 40
0.1663997579046634
 50
298.6625493886006
 51
15.61310155340061
  0
POLYLINE
  5
71E
  8
OBJECT
 66
     1
 10
0.0
 20
0.0
 30
0.0
  0
VERTEX
  5
890
  8
OBJECT
 10
26.08224453024679
 20
63.6217388213751
 30
0.0
  0
VERTEX
  5
891
  8
OBJECT
 10
26.08861944194679
 20
63.6224098978751
 30
0.0
  0
VERTEX
  5
892
  8
OBJECT
 10
26.11885003734679
 20
63.6337062194751
 30
0.0
  0
SEQEND
  5
88F
  8
OBJECT
  0
LINE
  5
71F
  8
OBJECT
 10
26.51624404834678
 20
63.8631168989751
 30
0.0
 11
26.11885003734679
 21
63.6337062194751
 31
0.0
  0
ARC
  5
720
  8
OBJECT
 10
26.43643039444679
 20
64.0091260085751
 30
0.0
 40
0.1663997579045778
 50
298.6625493886028
 51
15.61310155350279
  0
ARC
  5
721
  8
OBJECT
 10
27.28259325334679
 20
64.6921692547751
 30
0.0
 40
0.0628721544877587
 50
65.69288095390199
 51
125.617577475202
  0
LINE
  5
722
  8
OBJECT
 10
30.05195473094679
 20
51.6928771148751
 30
0.0
 11
30.09579535144679
 21
51.6675684634751
 31
0.0
  0
LINE
  5
723
  8
OBJECT
 10
30.18418369904679
 20
51.8206615718751
 30
0.0
 11
30.14034307864679
 21
51.8459702233751
 31
0.0
  0
LINE
  5
724
  8
OBJECT
 10
39.99599739474679
 20
56.8205430336751
 30
0.0
 11
30.09579535144679
 21
51.1052780468751
 31
0.0
  0
LINE
  5
725
  8
OBJECT
 10
30.05195473094679
 20
51.1305866983751
 30
0.0
 11
30.09579535144679
 21
51.1052780468751
 31
0.0
  0
LINE
  5
726
  8
OBJECT
 10
39.86376842674679
 20
57.4591841961751
 30
0.0
 11
39.90760904714679
 21
57.4338755447751
 31
0.0
  0
LINE
  5
727
  8
OBJECT
 10
17.45502420084679
 20
58.3516124058751
 30
0.0
 11
30.00776055714679
 21
51.1050719543751
 31
0.0
  0
LINE
  5
728
  8
OBJECT
 10
17.40057697864679
 20
58.2573070510751
 30
0.0
 11
29.95331333494679
 21
51.0107665994751
 31
0.0
  0
LINE
  5
729
  8
OBJECT
 10
30.00776055714679
 20
51.0544464239751
 30
0.0
 11
30.00776055714679
 21
51.1050719543751
 31
0.0
  0
LINE
  5
72A
  8
OBJECT
 10
29.95331333494679
 20
51.0107665994751
 30
0.0
 11
29.99715395544678
 21
51.0360752509751
 31
0.0
  0
LINE
  5
72B
  8
OBJECT
 10
29.99715395544678
 20
50.5494169270751
 30
0.0
 11
29.95331333494679
 21
50.5241082756751
 31
0.0
  0
LINE
  5
72C
  8
OBJECT
 10
17.40057697864679
 20
57.7706487271751
 30
0.0
 11
29.95331333494679
 21
50.5241082756751
 31
0.0
  0
LINE
  5
72D
  8
OBJECT
 10
17.48861177294679
 20
58.3710020985751
 30
0.0
 11
27.38881381634679
 21
64.0862670853751
 31
0.0
  0
LINE
  5
72E
  8
OBJECT
 10
27.42240138844679
 20
64.1056567779751
 30
0.0
 11
39.39972275264679
 21
57.1912963307751
 31
0.0
  0
LINE
  5
72F
  8
OBJECT
 10
30.04134812924679
 20
51.1244616469751
 30
0.0
 11
30.05195473084679
 21
51.1305847077751
 31
0.0
  0
LINE
  5
730
  8
OBJECT
 10
30.91391789724678
 20
51.7830322213751
 30
0.0
 11
30.87007727684679
 21
51.8083408727751
 31
0.0
  0
LINE
  5
731
  8
OBJECT
 10
30.00776055714679
 20
50.4926663453751
 30
0.0
 11
30.00776055714679
 21
50.5432918757751
 31
0.0
  0
LINE
  5
732
  8
OBJECT
 10
29.99715395554679
 20
50.5494149364751
 30
0.0
 11
30.00776055714679
 21
50.5432918757751
 31
0.0
  0
LINE
  5
733
  8
OBJECT
 10
31.31131190824679
 20
52.0124429007751
 30
0.0
 11
31.26747128784679
 21
52.0377515522751
 31
0.0
  0
LINE
  5
734
  8
OBJECT
 10
32.88055863244679
 20
52.9183497518751
 30
0.0
 11
32.83671801194679
 21
52.9436584032751
 31
0.0
  0
LINE
  5
735
  8
OBJECT
 10
33.27795264344679
 20
53.1477604312751
 30
0.0
 11
33.23411202304678
 21
53.1730690827751
 31
0.0
  0
LINE
  5
736
  8
OBJECT
 10
34.84719936754679
 20
54.0536672823751
 30
0.0
 11
34.80335874714678
 21
54.0789759337751
 31
0.0
  0
LINE
  5
737
  8
OBJECT
 10
35.24459337864679
 20
54.2830779617751
 30
0.0
 11
35.20075275814678
 21
54.3083866132751
 31
0.0
  0
LINE
  5
738
  8
OBJECT
 10
36.81384010274679
 20
55.1889848128751
 30
0.0
 11
36.76999948234678
 21
55.2142934642751
 31
0.0
  0
LINE
  5
739
  8
OBJECT
 10
37.21123411374679
 20
55.4183954922751
 30
0.0
 11
37.16739349334679
 21
55.4437041437751
 31
0.0
  0
LINE
  5
73A
  8
OBJECT
 10
38.78048083794679
 20
56.3243023433751
 30
0.0
 11
38.73664021754679
 21
56.3496109947751
 31
0.0
  0
LINE
  5
73B
  8
OBJECT
 10
39.17787484894679
 20
56.5537130227751
 30
0.0
 11
39.13403422854679
 21
56.5790216742751
 31
0.0
  0
LINE
  5
73C
  8
OBJECT
 10
39.99467191284679
 20
56.8075195191751
 30
0.0
 11
40.02958496694678
 21
56.8276743962751
 31
0.0
  0
LINE
  5
73D
  8
OBJECT
 10
40.02958496694678
 20
56.3410160723751
 30
0.0
 11
39.98574434644679
 21
56.3157074208751
 31
0.0
  0
LINE
  5
73E
  8
OBJECT
 10
39.57618206444679
 20
56.5521426936751
 30
0.0
 11
39.98574434644679
 21
56.3157074208751
 31
0.0
  0
LINE
  5
73F
  8
OBJECT
 10
39.55496713704679
 20
56.5398955766751
 30
0.0
 11
39.97513774474678
 21
56.2973362478751
 31
0.0
  0
LINE
  5
740
  8
OBJECT
 10
39.97513774474678
 20
56.2973362478751
 30
0.0
 11
39.97513774474678
 21
56.2467107175751
 31
0.0
  0
LINE
  5
741
  8
OBJECT
 10
27.37820721464679
 20
64.1046382583751
 30
0.0
 11
17.47800517124679
 21
58.3893732715751
 31
0.0
  0
LINE
  5
742
  8
OBJECT
 10
17.52255289844679
 20
59.1300654480751
 30
0.0
 11
17.56639351884679
 21
59.1047567965751
 31
0.0
  0
LINE
  5
743
  8
OBJECT
 10
17.47800517124679
 20
58.9516636881751
 30
0.0
 11
17.43416455074679
 21
58.9769723395751
 31
0.0
  0
LINE
  5
744
  8
OBJECT
 10
17.47800517124679
 20
58.3893732715751
 30
0.0
 11
17.43416455074679
 21
58.4146819229751
 31
0.0
  0
LINE
  5
745
  8
OBJECT
 10
27.28981886694679
 20
64.7179707694751
 30
0.0
 11
27.24597824654679
 21
64.7432794208751
 31
0.0
  0
LINE
  5
746
  8
OBJECT
 10
18.25228709664679
 20
59.0924360974751
 30
0.0
 11
18.29612771704679
 21
59.0671274460751
 31
0.0
  0
LINE
  5
747
  8
OBJECT
 10
18.64968110764679
 20
59.3218467769751
 30
0.0
 11
18.69352172804679
 21
59.2965381254751
 31
0.0
  0
LINE
  5
748
  8
OBJECT
 10
20.21892783174679
 20
60.2277536279751
 30
0.0
 11
20.26276845224679
 21
60.2024449765751
 31
0.0
  0
LINE
  5
749
  8
OBJECT
 10
20.61632184284679
 20
60.4571643074751
 30
0.0
 11
20.66016246324678
 21
60.4318556559751
 31
0.0
  0
LINE
  5
74A
  8
OBJECT
 10
22.18556856694679
 20
61.3630711584751
 30
0.0
 11
22.22940918744678
 21
61.3377625070751
 31
0.0
  0
LINE
  5
74B
  8
OBJECT
 10
22.58296257794679
 20
61.5924818379751
 30
0.0
 11
22.62680319844679
 21
61.5671731864751
 31
0.0
  0
LINE
  5
74C
  8
OBJECT
 10
24.15220930214679
 20
62.4983886889751
 30
0.0
 11
24.19604992254678
 21
62.4730800375751
 31
0.0
  0
LINE
  5
74D
  8
OBJECT
 10
24.54960331314679
 20
62.7277993684751
 30
0.0
 11
24.59344393364679
 21
62.7024907169751
 31
0.0
  0
LINE
  5
74E
  8
OBJECT
 10
26.11885003734679
 20
63.6337062194751
 30
0.0
 11
26.16269065774679
 21
63.60839756807511
 31
0.0
  0
LINE
  5
74F
  8
OBJECT
 10
26.51624404834678
 20
63.8631168989751
 30
0.0
 11
26.56008466874679
 21
63.8378082474751
 31
0.0
  0
ENDSEC
  0
EOF
