  0
SECTION
  2
HEADER
  9
$ACADVER
  1
AC1015
  9
$ACADMAINTVER
 70
     6
  9
$DWGCODEPAGE
  3
ANSI_1252
  9
$INSBASE
 10
0.0
 20
0.0
 30
0.0
  9
$EXTMIN
 10
0.0
 20
0.0
 30
0.0
  9
$EXTMAX
 10
55.0
 20
42.5
 30
0.0
  9
$LIMMIN
 10
0.0
 20
0.0
  9
$LIMMAX
 10
12.0
 20
9.0
  9
$ORTHOMODE
 70
     0
  9
$REGENMODE
 70
     1
  9
$FILLMODE
 70
     1
  9
$QTEXTMODE
 70
     0
  9
$MIRRTEXT
 70
     1
  9
$LTSCALE
 40
5.0
  9
$ATTMODE
 70
     1
  9
$TEXTSIZE
 40
0.625
  9
$TRACEWID
 40
0.05
  9
$TEXTSTYLE
  7
Standard
  9
$CLAYER
  8
0
  9
$CELTYPE
  6
ByLayer
  9
$CECOLOR
 62
   256
  9
$CELTSCALE
 40
1.0
  9
$DISPSILH
 70
     0
  9
$DIMSCALE
 40
1.0
  9
$DIMASZ
 40
0.65
  9
$DIMEXO
 40
0.25
  9
$DIMDLI
 40
0.38
  9
$DIMRND
 40
0.0
  9
$DIMDLE
 40
0.0
  9
$DIMEXE
 40
0.625
  9
$DIMTP
 40
0.0
  9
$DIMTM
 40
0.0
  9
$DIMTXT
 40
0.625
  9
$DIMCEN
 40
0.09
  9
$DIMTSZ
 40
0.0
  9
$DIMTOL
 70
     0
  9
$DIMLIM
 70
     0
  9
$DIMTIH
 70
     1
  9
$DIMTOH
 70
     1
  9
$DIMSE1
 70
     0
  9
$DIMSE2
 70
     0
  9
$DIMTAD
 70
     0
  9
$DIMZIN
 70
     0
  9
$DIMBLK
  1

  9
$DIMASO
 70
     1
  9
$DIMSHO
 70
     1
  9
$DIMPOST
  1

  9
$DIMAPOST
  1

  9
$DIMALT
 70
     0
  9
$DIMALTD
 70
     2
  9
$DIMALTF
 40
25.4
  9
$DIMLFAC
 40
1.0
  9
$DIMTOFL
 70
     0
  9
$DIMTVP
 40
0.0
  9
$DIMTIX
 70
     0
  9
$DIMSOXD
 70
     0
  9
$DIMSAH
 70
     0
  9
$DIMBLK1
  1

  9
$DIMBLK2
  1

  9
$DIMSTYLE
  2
Standard
  9
$DIMCLRD
 70
     0
  9
$DIMCLRE
 70
     0
  9
$DIMCLRT
 70
     0
  9
$DIMTFAC
 40
1.0
  9
$DIMGAP
 40
0.3
  9
$DIMJUST
 70
     0
  9
$DIMSD1
 70
     0
  9
$DIMSD2
 70
     0
  9
$DIMTOLJ
 70
     1
  9
$DIMTZIN
 70
     0
  9
$DIMALTZ
 70
     0
  9
$DIMALTTZ
 70
     0
  9
$DIMUPT
 70
     0
  9
$DIMDEC
 70
     3
  9
$DIMTDEC
 70
     3
  9
$DIMALTU
 70
     2
  9
$DIMALTTD
 70
     2
  9
$DIMTXSTY
  7
Standard
  9
$DIMAUNIT
 70
     0
  9
$DIMADEC
 70
     3
  9
$DIMALTRND
 40
0.0
  9
$DIMAZIN
 70
     0
  9
$DIMDSEP
 70
    46
  9
$DIMATFIT
 70
     3
  9
$DIMFRAC
 70
     0
  9
$DIMLDRBLK
  1

  9
$DIMLUNIT
 70
     2
  9
$DIMLWD
 70
    -2
  9
$DIMLWE
 70
    -2
  9
$DIMTMOVE
 70
     0
  9
$LUNITS
 70
     2
  9
$LUPREC
 70
     3
  9
$SKETCHINC
 40
0.1
  9
$FILLETRAD
 40
0.5
  9
$AUNITS
 70
     0
  9
$AUPREC
 70
     2
  9
$MENU
  1
.
  9
$ELEVATION
 40
0.0
  9
$PELEVATION
 40
0.0
  9
$THICKNESS
 40
0.0
  9
$LIMCHECK
 70
     0
  9
$CHAMFERA
 40
0.0
  9
$CHAMFERB
 40
0.0
  9
$CHAMFERC
 40
0.0
  9
$CHAMFERD
 40
0.0
  9
$SKPOLY
 70
     0
  9
$TDCREATE
 40
2459626.447998102
  9
$TDUCREATE
 40
2459626.656331435
  9
$TDUPDATE
 40
2459626.44799963
  9
$TDUUPDATE
 40
2459626.656332963
  9
$TDINDWG
 40
0.0000000116
  9
$TDUSRTIMER
 40
0.0000000116
  9
$USRTIMER
 70
     1
  9
$ANGBASE
 50
0.0
  9
$ANGDIR
 70
     0
  9
$PDMODE
 70
     0
  9
$PDSIZE
 40
-1.0
  9
$PLINEWID
 40
0.0
  9
$SPLFRAME
 70
     0
  9
$SPLINETYPE
 70
     6
  9
$SPLINESEGS
 70
     8
  9
$HANDSEED
  5
255
  9
$SURFTAB1
 70
     6
  9
$SURFTAB2
 70
     6
  9
$SURFTYPE
 70
     6
  9
$SURFU
 70
     6
  9
$SURFV
 70
     6
  9
$UCSBASE
  2

  9
$UCSNAME
  2

  9
$UCSORG
 10
0.0
 20
0.0
 30
0.0
  9
$UCSXDIR
 10
1.0
 20
0.0
 30
0.0
  9
$UCSYDIR
 10
0.0
 20
1.0
 30
0.0
  9
$UCSORTHOREF
  2

  9
$UCSORTHOVIEW
 70
     0
  9
$UCSORGTOP
 10
0.0
 20
0.0
 30
0.0
  9
$UCSORGBOTTOM
 10
0.0
 20
0.0
 30
0.0
  9
$UCSORGLEFT
 10
0.0
 20
0.0
 30
0.0
  9
$UCSORGRIGHT
 10
0.0
 20
0.0
 30
0.0
  9
$UCSORGFRONT
 10
0.0
 20
0.0
 30
0.0
  9
$UCSORGBACK
 10
0.0
 20
0.0
 30
0.0
  9
$PUCSBASE
  2

  9
$PUCSNAME
  2

  9
$PUCSORG
 10
0.0
 20
0.0
 30
0.0
  9
$PUCSXDIR
 10
1.0
 20
0.0
 30
0.0
  9
$PUCSYDIR
 10
0.0
 20
1.0
 30
0.0
  9
$PUCSORTHOREF
  2

  9
$PUCSORTHOVIEW
 70
     0
  9
$PUCSORGTOP
 10
0.0
 20
0.0
 30
0.0
  9
$PUCSORGBOTTOM
 10
0.0
 20
0.0
 30
0.0
  9
$PUCSORGLEFT
 10
0.0
 20
0.0
 30
0.0
  9
$PUCSORGRIGHT
 10
0.0
 20
0.0
 30
0.0
  9
$PUCSORGFRONT
 10
0.0
 20
0.0
 30
0.0
  9
$PUCSORGBACK
 10
0.0
 20
0.0
 30
0.0
  9
$USERI1
 70
     0
  9
$USERI2
 70
     0
  9
$USERI3
 70
     0
  9
$USERI4
 70
     0
  9
$USERI5
 70
     0
  9
$USERR1
 40
0.0
  9
$USERR2
 40
0.0
  9
$USERR3
 40
0.0
  9
$USERR4
 40
0.0
  9
$USERR5
 40
0.0
  9
$WORLDVIEW
 70
     1
  9
$SHADEDGE
 70
     3
  9
$SHADEDIF
 70
    70
  9
$TILEMODE
 70
     0
  9
$MAXACTVP
 70
    64
  9
$PINSBASE
 10
0.0
 20
0.0
 30
0.0
  9
$PLIMCHECK
 70
     0
  9
$PEXTMIN
 10
0.0
 20
0.0
 30
0.0
  9
$PEXTMAX
 10
55.0
 20
42.5
 30
0.0
  9
$PLIMMIN
 10
0.0
 20
0.0
  9
$PLIMMAX
 10
55.0
 20
42.5
  9
$UNITMODE
 70
     0
  9
$VISRETAIN
 70
     1
  9
$PLINEGEN
 70
     0
  9
$PSLTSCALE
 70
     1
  9
$TREEDEPTH
 70
  3020
  9
$CMLSTYLE
  2
Standard
  9
$CMLJUST
 70
     0
  9
$CMLSCALE
 40
1.0
  9
$PROXYGRAPHICS
 70
     1
  9
$MEASUREMENT
 70
     0
  9
$CELWEIGHT
370
    -1
  9
$ENDCAPS
280
     0
  9
$JOINSTYLE
280
     0
  9
$LWDISPLAY
290
     1
  9
$INSUNITS
 70
     1
  9
$HYPERLINKBASE
  1

  9
$STYLESHEET
  1

  9
$XEDIT
290
     1
  9
$CEPSNTYPE
380
     0
  9
$PSTYLEMODE
290
     1
  9
$FINGERPRINTGUID
  2
{71d9fb99-771f-42ba-9592-475c344b3e10}
  9
$VERSIONGUID
  2
{FAEB1C32-E019-11D5-929B-00C0DF256EC4}
  9
$EXTNAMES
290
     1
  9
$PSVPSCALE
 40
0.0
  9
$OLESTARTUP
290
     0
  0
ENDSEC
  0
SECTION
  2
CLASSES
  0
CLASS
  1
ACDBDICTIONARYWDFLT
  2
AcDbDictionaryWithDefault
  3
ObjectDBX Classes
 90
        0
280
     0
281
     0
  0
CLASS
  1
VISUALSTYLE
  2
AcDbVisualStyle
  3
ObjectDBX Classes
 90
     4095
280
     0
281
     0
  0
CLASS
  1
MATERIAL
  2
AcDbMaterial
  3
ObjectDBX Classes
 90
     1153
280
     0
281
     0
  0
CLASS
  1
SCALE
  2
AcDbScale
  3
ObjectDBX Classes
 90
     1153
280
     0
281
     0
  0
CLASS
  1
TABLESTYLE
  2
AcDbTableStyle
  3
ObjectDBX Classes
 90
     4095
280
     0
281
     0
  0
CLASS
  1
MLEADERSTYLE
  2
AcDbMLeaderStyle
  3
ACDB_MLEADERSTYLE_CLASS
 90
     4095
280
     0
281
     0
  0
CLASS
  1
SUN
  2
AcDbSun
  3
SCENEOE
 90
     1153
280
     0
281
     0
  0
CLASS
  1
ACDBPLACEHOLDER
  2
AcDbPlaceHolder
  3
ObjectDBX Classes
 90
        0
280
     0
281
     0
  0
CLASS
  1
LAYOUT
  2
AcDbLayout
  3
ObjectDBX Classes
 90
        0
280
     0
281
     0
  0
ENDSEC
  0
SECTION
  2
TABLES
  0
TABLE
  2
VPORT
  5
8
330
0
100
AcDbSymbolTable
 70
     1
  0
VPORT
  5
29
330
8
100
AcDbSymbolTableRecord
100
AcDbViewportTableRecord
  2
*Active
 70
     0
 10
0.0
 20
0.0
 11
1.0
 21
1.0
 12
27.5
 22
21.25
 13
0.0
 23
0.0
 14
0.5
 24
0.5
 15
0.5
 25
0.5
 16
0.0
 26
0.0
 36
1.0
 17
0.0
 27
0.0
 37
0.0
 40
42.5
 41
1.2941176471
 42
50.0
 43
0.0
 44
0.0
 50
0.0
 51
0.0
 71
     0
 72
  2000
 73
     1
 74
     3
 75
     0
 76
     0
 77
     0
 78
     0
281
     0
 65
     1
110
0.0
120
0.0
130
0.0
111
1.0
121
0.0
131
0.0
112
0.0
122
1.0
132
0.0
 79
     0
146
0.0
  0
ENDTAB
  0
TABLE
  2
LTYPE
  5
5
330
0
100
AcDbSymbolTable
 70
     6
  0
LTYPE
  5
14
330
5
100
AcDbSymbolTableRecord
100
AcDbLinetypeTableRecord
  2
ByBlock
 70
     0
  3

 72
    65
 73
     0
 40
0.0
  0
LTYPE
  5
15
330
5
100
AcDbSymbolTableRecord
100
AcDbLinetypeTableRecord
  2
ByLayer
 70
     0
  3

 72
    65
 73
     0
 40
0.0
  0
LTYPE
  5
16
330
5
100
AcDbSymbolTableRecord
100
AcDbLinetypeTableRecord
  2
Continuous
 70
     0
  3
Solid line
 72
    65
 73
     0
 40
0.0
  0
LTYPE
  5
6E
330
5
100
AcDbSymbolTableRecord
100
AcDbLinetypeTableRecord
  2
HIDDEN
 70
     0
  3
Hidden __ __ __ __ __ __ __ __ __ __ __ __ __ __
 72
    65
 73
     2
 40
0.075
 49
0.05
 74
     0
 49
-0.025
 74
     0
  0
LTYPE
  5
6F
330
5
100
AcDbSymbolTableRecord
100
AcDbLinetypeTableRecord
  2
PHANTOM
 70
     0
  3
Phantom ______  __  __  ______  __  __  ______
 72
    65
 73
     6
 40
0.5
 49
0.25
 74
     0
 49
-0.05
 74
     0
 49
0.05
 74
     0
 49
-0.05
 74
     0
 49
0.05
 74
     0
 49
-0.05
 74
     0
  0
LTYPE
  5
70
330
5
100
AcDbSymbolTableRecord
100
AcDbLinetypeTableRecord
  2
CENTER
 70
     0
  3
Center ____ _ ____ _ ____ _ ____ _ ____ _ ____
 72
    65
 73
     4
 40
0.4
 49
0.25
 74
     0
 49
-0.05
 74
     0
 49
0.05
 74
     0
 49
-0.05
 74
     0
  0
LTYPE
  5
71
330
5
100
AcDbSymbolTableRecord
100
AcDbLinetypeTableRecord
  2
CENTERX2
 70
     0
  3
Center (2x) ________  __  ________  __  _____
 72
    65
 73
     4
 40
0.8
 49
0.5
 74
     0
 49
-0.1
 74
     0
 49
0.1
 74
     0
 49
-0.1
 74
     0
  0
LTYPE
  5
72
330
5
100
AcDbSymbolTableRecord
100
AcDbLinetypeTableRecord
  2
DOT2
 70
     0
  3
Dot (.5x) ........................................
 72
    65
 73
     2
 40
0.025
 49
0.0
 74
     0
 49
-0.025
 74
     0
  0
ENDTAB
  0
TABLE
  2
LAYER
  5
2
330
0
100
AcDbSymbolTable
 70
     1
  0
LAYER
  5
10
330
2
100
AcDbSymbolTableRecord
100
AcDbLayerTableRecord
  2
0
 70
     0
 62
     7
  6
Continuous
370
    -3
390
F
  0
ENDTAB
  0
TABLE
  2
STYLE
  5
3
330
0
100
AcDbSymbolTable
 70
     2
  0
STYLE
  5
11
330
3
100
AcDbSymbolTableRecord
100
AcDbTextStyleTableRecord
  2
Standard
 70
     0
 40
0.0
 41
1.0
 50
0.0
 71
     0
 42
0.625
  3
txt
  4

  0
STYLE
  5
A5
330
3
100
AcDbSymbolTableRecord
100
AcDbTextStyleTableRecord
  2
SLDTEXTSTYLE0
 70
     0
 40
0.0
 41
0.75
 50
0.0
 71
     0
 42
0.625
  3
TXT
  4

  0
ENDTAB
  0
TABLE
  2
VIEW
  5
6
330
0
100
AcDbSymbolTable
 70
     0
  0
ENDTAB
  0
TABLE
  2
UCS
  5
7
330
0
100
AcDbSymbolTable
 70
     0
  0
ENDTAB
  0
TABLE
  2
APPID
  5
9
330
0
100
AcDbSymbolTable
 70
     1
  0
APPID
  5
12
330
9
100
AcDbSymbolTableRecord
100
AcDbRegAppTableRecord
  2
ACAD
 70
     0
  0
ENDTAB
  0
TABLE
  2
DIMSTYLE
  5
A
330
0
100
AcDbSymbolTable
 70
     6
100
AcDbDimStyleTable
  0
DIMSTYLE
105
27
330
A
100
AcDbSymbolTableRecord
100
AcDbDimStyleTableRecord
  2
Standard
 70
     0
178
     0
340
11
  0
DIMSTYLE
105
FD
102
{ACAD_REACTORS
330
FC
330
185
330
1AD
102
}
330
A
100
AcDbSymbolTableRecord
100
AcDbDimStyleTableRecord
  2
SLDDIMSTYLE0
 70
     0
 41
0.65
 44
0.0
 45
0.000000001
 78
     4
 79
     1
140
0.625
147
0.15625
148
0.000000001
170
     1
173
     1
178
     0
271
     3
272
     3
276
     2
284
    12
340
A5
  0
DIMSTYLE
105
112
102
{ACAD_REACTORS
330
111
330
199
102
}
330
A
100
AcDbSymbolTableRecord
100
AcDbDimStyleTableRecord
  2
SLDDIMSTYLE1
 70
     0
 41
0.65
 44
0.0
 45
0.000000001
 78
    12
 79
     3
140
0.625
147
0.15625
148
0.000000001
170
     1
173
     1
178
     0
271
     3
272
     3
276
     2
284
    12
340
A5
  0
DIMSTYLE
105
14A
102
{ACAD_REACTORS
330
149
330
1C1
330
1D6
102
}
330
A
100
AcDbSymbolTableRecord
100
AcDbDimStyleTableRecord
  2
SLDDIMSTYLE2
 70
     0
 41
0.65
 44
0.0
 45
0.000000001
 78
    12
 79
     3
140
0.625
147
0.15625
148
0.000000001
170
     1
172
     1
173
     1
178
     0
271
     3
272
     3
276
     2
284
    12
289
     0
340
A5
  0
DIMSTYLE
105
160
102
{ACAD_REACTORS
330
15F
102
}
330
A
100
AcDbSymbolTableRecord
100
AcDbDimStyleTableRecord
  2
SLDDIMSTYLE3
 70
     0
 41
0.65
 44
0.0
 45
0.000000001
 78
     4
 79
     1
140
0.625
141
0.0
147
0.15625
148
0.000000001
170
     1
173
     1
178
     0
271
     3
272
     3
276
     2
284
    12
340
A5
  0
DIMSTYLE
105
171
102
{ACAD_REACTORS
330
170
102
}
330
A
100
AcDbSymbolTableRecord
100
AcDbDimStyleTableRecord
  2
SLDDIMSTYLE4
 70
     0
 41
0.65
 44
0.0
 45
0.000000001
 78
     4
 79
     1
140
0.625
147
0.15625
148
0.000000001
170
     1
172
     1
173
     1
178
     0
271
     3
272
     3
276
     2
284
    12
289
     0
340
A5
  0
ENDTAB
  0
TABLE
  2
BLOCK_RECORD
  5
1
330
0
100
AcDbSymbolTable
 70
    16
  0
BLOCK_RECORD
  5
1F
330
1
100
AcDbSymbolTableRecord
100
AcDbBlockTableRecord
  2
*Model_Space
340
22
  0
BLOCK_RECORD
  5
1B
330
1
100
AcDbSymbolTableRecord
100
AcDbBlockTableRecord
  2
*Paper_Space
340
1E
  0
BLOCK_RECORD
  5
A2
330
1
100
AcDbSymbolTableRecord
100
AcDbBlockTableRecord
  2
SW_NOTE_0
340
0
102
{BLKREFS
331
AA
102
}
  0
BLOCK_RECORD
  5
AB
330
1
100
AcDbSymbolTableRecord
100
AcDbBlockTableRecord
  2
SW_NOTE_0_1
340
0
102
{BLKREFS
331
B2
102
}
  0
BLOCK_RECORD
  5
B3
330
1
100
AcDbSymbolTableRecord
100
AcDbBlockTableRecord
  2
SW_NOTE_0_2
340
0
102
{BLKREFS
331
BC
102
}
  0
BLOCK_RECORD
  5
BD
330
1
100
AcDbSymbolTableRecord
100
AcDbBlockTableRecord
  2
SW_NOTE_0_3
340
0
102
{BLKREFS
331
C2
102
}
  0
BLOCK_RECORD
  5
C3
330
1
100
AcDbSymbolTableRecord
100
AcDbBlockTableRecord
  2
SW_NOTE_0_4
340
0
102
{BLKREFS
331
C8
102
}
  0
BLOCK_RECORD
  5
C9
330
1
100
AcDbSymbolTableRecord
100
AcDbBlockTableRecord
  2
SW_NOTE_0_5
340
0
102
{BLKREFS
331
CE
102
}
  0
BLOCK_RECORD
  5
FE
330
1
100
AcDbSymbolTableRecord
100
AcDbBlockTableRecord
  2
_D
340
0
  0
BLOCK_RECORD
  5
113
330
1
100
AcDbSymbolTableRecord
100
AcDbBlockTableRecord
  2
_D_1
340
0
  0
BLOCK_RECORD
  5
14B
330
1
100
AcDbSymbolTableRecord
100
AcDbBlockTableRecord
  2
_D_2
340
0
  0
BLOCK_RECORD
  5
161
330
1
100
AcDbSymbolTableRecord
100
AcDbBlockTableRecord
  2
_D_3
340
0
  0
BLOCK_RECORD
  5
172
330
1
100
AcDbSymbolTableRecord
100
AcDbBlockTableRecord
  2
_D_4
340
0
  0
BLOCK_RECORD
  5
186
330
1
100
AcDbSymbolTableRecord
100
AcDbBlockTableRecord
  2
_D_5
340
0
  0
BLOCK_RECORD
  5
19A
330
1
100
AcDbSymbolTableRecord
100
AcDbBlockTableRecord
  2
_D_6
340
0
  0
BLOCK_RECORD
  5
1AE
330
1
100
AcDbSymbolTableRecord
100
AcDbBlockTableRecord
  2
_D_7
340
0
  0
BLOCK_RECORD
  5
1C2
330
1
100
AcDbSymbolTableRecord
100
AcDbBlockTableRecord
  2
_D_8
340
0
  0
BLOCK_RECORD
  5
1D7
330
1
100
AcDbSymbolTableRecord
100
AcDbBlockTableRecord
  2
_D_9
340
0
  0
ENDTAB
  0
ENDSEC
  0
SECTION
  2
BLOCKS
  0
BLOCK
  5
20
330
1F
100
AcDbEntity
  8
0
100
AcDbBlockBegin
  2
*Model_Space
 70
     0
 10
0.0
 20
0.0
 30
0.0
  3
*Model_Space
  1

  0
ENDBLK
  5
21
330
1F
100
AcDbEntity
  8
0
100
AcDbBlockEnd
  0
BLOCK
  5
1C
330
1B
100
AcDbEntity
 67
     1
  8
0
100
AcDbBlockBegin
  2
*Paper_Space
 70
     0
 10
0.0
 20
0.0
 30
0.0
  3
*Paper_Space
  1

  0
ENDBLK
  5
1D
330
1B
100
AcDbEntity
 67
     1
  8
0
100
AcDbBlockEnd
  0
BLOCK
  5
A3
330
A2
100
AcDbEntity
  8
0
100
AcDbBlockBegin
  2
SW_NOTE_0
 70
     0
 10
0.0
 20
0.0
 30
0.0
  3
SW_NOTE_0
  1

  0
MTEXT
  5
A6
330
A2
100
AcDbEntity
  8
0
  6
Continuous
 62
     0
370
     0
100
AcDbMText
 10
0.0
 20
0.8056673374
 30
0.0
 40
0.625
 41
0.0
 71
     1
 72
     1
  1
MATERIAL: .050[1.27] THK. ALUMINUM
  7
SLDTEXTSTYLE0
 73
     1
 44
1.0
  0
MTEXT
  5
A7
330
A2
100
AcDbEntity
  8
0
  6
Continuous
 62
     0
370
     0
100
AcDbMText
 10
0.0
 20
-0.8380334078
 30
0.0
 40
0.625
 41
0.0
 71
     1
 72
     1
  1
FINISH: NATURAL
  7
SLDTEXTSTYLE0
 73
     1
 44
1.0
  0
MTEXT
  5
A8
330
A2
100
AcDbEntity
  8
0
  6
Continuous
 62
     0
370
     0
100
AcDbMText
 10
0.0
 20
-2.481734153
 30
0.0
 40
0.625
 41
0.0
 71
     1
 72
     1
  1
SUPPLIED WITH QTY. (8) #6 x 1/2 LG. SELF-TAPPING SCREWS
  7
SLDTEXTSTYLE0
 73
     1
 44
1.0
  0
MTEXT
  5
A9
330
A2
100
AcDbEntity
  8
0
  6
Continuous
 62
     0
370
     0
100
AcDbMText
 10
0.0
 20
-4.1254348981
 30
0.0
 40
0.625
 41
0.0
 71
     1
 72
     1
  1
DIMENSIONS ARE IN INCH [MILLIMETER]
  7
SLDTEXTSTYLE0
 73
     1
 44
1.0
  0
ENDBLK
  5
A4
330
A2
100
AcDbEntity
  8
0
100
AcDbBlockEnd
  0
BLOCK
  5
AC
330
AB
100
AcDbEntity
  8
0
100
AcDbBlockBegin
  2
SW_NOTE_0_1
 70
     0
 10
0.0
 20
0.0
 30
0.0
  3
SW_NOTE_0_1
  1

  0
MTEXT
  5
AE
330
AB
100
AcDbEntity
  8
0
  6
Continuous
 62
     0
370
     0
100
AcDbMText
 10
5.107421875
 20
0.8056673374
 30
0.0
 40
0.625
 41
0.0
 71
     2
 72
     1
  1
DRAWING FOR REFERENCE
  7
SLDTEXTSTYLE0
 73
     1
 44
1.0
  0
MTEXT
  5
AF
330
AB
100
AcDbEntity
  8
0
  6
Continuous
 62
     0
370
     0
100
AcDbMText
 10
5.1416346458
 20
-0.1072393981
 30
0.0
 40
0.31
 41
0.0
 71
     2
 72
     1
  1
WE RESERVE THE RIGHT TO MAKE CHANGES TO OUR
  7
SLDTEXTSTYLE0
 73
     1
 44
1.0
  0
MTEXT
  5
B0
330
AB
100
AcDbEntity
  8
0
  6
Continuous
 62
     0
370
     0
100
AcDbMText
 10
5.1162318233
 20
-0.6140898013
 30
0.0
 40
0.31
 41
0.0
 71
     2
 72
     1
  1
STANDARD PRODUCTS. PLEASE CONSULT WITH BUD INDUSTRIES
  7
SLDTEXTSTYLE0
 73
     1
 44
1.0
  0
MTEXT
  5
B1
330
AB
100
AcDbEntity
  8
0
  6
Continuous
 62
     0
370
     0
100
AcDbMText
 10
5.1683283424
 20
-1.1209402044
 30
0.0
 40
0.31
 41
0.0
 71
     2
 72
     1
  1
PRIOR TO USING THIS DRAWING FOR DESIGN PURPOSE.
  7
SLDTEXTSTYLE0
 73
     1
 44
1.0
  0
ENDBLK
  5
AD
330
AB
100
AcDbEntity
  8
0
100
AcDbBlockEnd
  0
BLOCK
  5
B4
330
B3
100
AcDbEntity
  8
0
100
AcDbBlockBegin
  2
SW_NOTE_0_2
 70
     0
 10
0.0
 20
0.0
 30
0.0
  3
SW_NOTE_0_2
  1

  0
MTEXT
  5
B6
330
B3
100
AcDbEntity
  8
0
  6
Continuous
 62
     0
370
     0
100
AcDbMText
 10
0.0
 20
0.8056673374
 30
0.0
 40
0.625
 41
0.0
 71
     1
 72
     1
  1
FITS THE FOLLOWING RACK
  7
SLDTEXTSTYLE0
 73
     1
 44
1.0
  0
MTEXT
  5
B7
330
B3
100
AcDbEntity
  8
0
  6
Continuous
 62
     0
370
     0
100
AcDbMText
 10
0.46875
 20
-0.0161830352
 30
0.0
 40
0.625
 41
0.0
 71
     1
 72
     1
  1
MOUNT CHASSIS':
  7
SLDTEXTSTYLE0
 73
     1
 44
1.0
  0
MTEXT
  5
B8
330
B3
100
AcDbEntity
  8
0
  6
Continuous
 62
     0
370
     0
100
AcDbMText
 10
0.0
 20
-0.8380334078
 30
0.0
 40
0.625
 41
0.0
 71
     1
 72
     1
  1
RM-14296
  7
SLDTEXTSTYLE0
 73
     1
 44
1.0
  0
MTEXT
  5
B9
330
B3
100
AcDbEntity
  8
0
  6
Continuous
 62
     0
370
     0
100
AcDbMText
 10
0.0
 20
-1.6598837804
 30
0.0
 40
0.625
 41
0.0
 71
     1
 72
     1
  1
RM-14297
  7
SLDTEXTSTYLE0
 73
     1
 44
1.0
  0
MTEXT
  5
BA
330
B3
100
AcDbEntity
  8
0
  6
Continuous
 62
     0
370
     0
100
AcDbMText
 10
0.0
 20
-2.481734153
 30
0.0
 40
0.625
 41
0.0
 71
     1
 72
     1
  1
RM-14298
  7
SLDTEXTSTYLE0
 73
     1
 44
1.0
  0
MTEXT
  5
BB
330
B3
100
AcDbEntity
  8
0
  6
Continuous
 62
     0
370
     0
100
AcDbMText
 10
0.0
 20
-3.3035845255
 30
0.0
 40
0.625
 41
0.0
 71
     1
 72
     1
  1
RM-14299
  7
SLDTEXTSTYLE0
 73
     1
 44
1.0
  0
ENDBLK
  5
B5
330
B3
100
AcDbEntity
  8
0
100
AcDbBlockEnd
  0
BLOCK
  5
BE
330
BD
100
AcDbEntity
  8
0
100
AcDbBlockBegin
  2
SW_NOTE_0_3
 70
     0
 10
0.0
 20
0.0
 30
0.0
  3
SW_NOTE_0_3
  1

  0
MTEXT
  5
C0
330
BD
100
AcDbEntity
  8
0
  6
Continuous
 62
     0
370
     0
100
AcDbMText
 10
0.947265625
 20
0.8056673374
 30
0.0
 40
0.625
 41
0.0
 71
     2
 72
     1
  1
PART
  7
SLDTEXTSTYLE0
 73
     1
 44
1.0
  0
MTEXT
  5
C1
330
BD
100
AcDbEntity
  8
0
  6
Continuous
 62
     0
370
     0
100
AcDbMText
 10
0.9344617176
 20
-0.0161830352
 30
0.0
 40
0.625
 41
0.0
 71
     2
 72
     1
  1
NAME
  7
SLDTEXTSTYLE0
 73
     1
 44
1.0
  0
ENDBLK
  5
BF
330
BD
100
AcDbEntity
  8
0
100
AcDbBlockEnd
  0
BLOCK
  5
C4
330
C3
100
AcDbEntity
  8
0
100
AcDbBlockBegin
  2
SW_NOTE_0_4
 70
     0
 10
0.0
 20
0.0
 30
0.0
  3
SW_NOTE_0_4
  1

  0
MTEXT
  5
C6
330
C3
100
AcDbEntity
  8
0
  6
Continuous
 62
     0
370
     0
100
AcDbMText
 10
0.947265625
 20
0.8056673374
 30
0.0
 40
0.625
 41
0.0
 71
     2
 72
     1
  1
PART
  7
SLDTEXTSTYLE0
 73
     1
 44
1.0
  0
MTEXT
  5
C7
330
C3
100
AcDbEntity
  8
0
  6
Continuous
 62
     0
370
     0
100
AcDbMText
 10
0.9722221657
 20
-0.0161830352
 30
0.0
 40
0.625
 41
0.0
 71
     2
 72
     1
  1
No.
  7
SLDTEXTSTYLE0
 73
     1
 44
1.0
  0
ENDBLK
  5
C5
330
C3
100
AcDbEntity
  8
0
100
AcDbBlockEnd
  0
BLOCK
  5
CA
330
C9
100
AcDbEntity
  8
0
100
AcDbBlockBegin
  2
SW_NOTE_0_5
 70
     0
 10
0.0
 20
0.0
 30
0.0
  3
SW_NOTE_0_5
  1

  0
MTEXT
  5
CC
330
C9
100
AcDbEntity
  8
0
  6
Continuous
 62
     0
370
     0
100
AcDbMText
 10
0.859375
 20
0.8056673374
 30
0.0
 40
0.625
 41
0.0
 71
     2
 72
     1
  1
REV.
  7
SLDTEXTSTYLE0
 73
     1
 44
1.0
  0
MTEXT
  5
CD
330
C9
100
AcDbEntity
  8
0
  6
Continuous
 62
     0
370
     0
100
AcDbMText
 10
0.8517796043
 20
-0.0161830352
 30
0.0
 40
0.625
 41
0.0
 71
     2
 72
     1
  1
DATE
  7
SLDTEXTSTYLE0
 73
     1
 44
1.0
  0
ENDBLK
  5
CB
330
C9
100
AcDbEntity
  8
0
100
AcDbBlockEnd
  0
BLOCK
  5
FF
330
FE
100
AcDbEntity
  8
0
100
AcDbBlockBegin
  2
_D
 70
     0
 10
0.0
 20
0.0
 30
0.0
  3
_D
  1

  0
SOLID
  5
101
330
FE
100
AcDbEntity
  8
0
  6
Continuous
 62
     7
370
    18
100
AcDbTrace
 10
9.0412229939
 20
26.9861517732
 30
0.0
 11
8.9412229939
 21
26.3361517732
 31
0.0
 12
9.1412229939
 22
26.3361517732
 32
0.0
 13
9.1412229939
 23
26.3361517732
 33
0.0
  0
SOLID
  5
102
330
FE
100
AcDbEntity
  8
0
  6
Continuous
 62
     7
370
    18
100
AcDbTrace
 10
9.0412229939
 20
10.1961517732
 30
0.0
 11
9.1412229939
 21
10.8461517732
 31
0.0
 12
8.9412229939
 22
10.8461517732
 32
0.0
 13
8.9412229939
 23
10.8461517732
 33
0.0
  0
LINE
  5
103
330
FE
100
AcDbEntity
  8
0
  6
Continuous
 62
     7
370
     0
100
AcDbLine
 10
7.7712577813
 20
18.58637737
 30
0.0
 11
7.5808280957
 21
18.58637737
 31
0.0
  0
LINE
  5
104
330
FE
100
AcDbEntity
  8
0
  6
Continuous
 62
     7
370
     0
100
AcDbLine
 10
7.5808280957
 20
18.58637737
 30
0.0
 11
7.5808280957
 21
17.5941898402
 31
0.0
  0
LINE
  5
105
330
FE
100
AcDbEntity
  8
0
  6
Continuous
 62
     7
370
     0
100
AcDbLine
 10
7.5808280957
 20
17.5941898402
 30
0.0
 11
7.7712577813
 21
17.5941898402
 31
0.0
  0
LINE
  5
106
330
FE
100
AcDbEntity
  8
0
  6
Continuous
 62
     7
370
     0
100
AcDbLine
 10
10.3111882064
 20
18.58637737
 30
0.0
 11
10.501617892
 21
18.58637737
 31
0.0
  0
LINE
  5
107
330
FE
100
AcDbEntity
  8
0
  6
Continuous
 62
     7
370
     0
100
AcDbLine
 10
10.501617892
 20
18.58637737
 30
0.0
 11
10.501617892
 21
17.5941898402
 31
0.0
  0
LINE
  5
108
330
FE
100
AcDbEntity
  8
0
  6
Continuous
 62
     7
370
     0
100
AcDbLine
 10
10.501617892
 20
17.5941898402
 30
0.0
 11
10.3111882064
 21
17.5941898402
 31
0.0
  0
LINE
  5
109
330
FE
100
AcDbEntity
  8
0
  6
Continuous
 62
     7
370
     0
100
AcDbLine
 10
11.6230419284
 20
26.9861517732
 30
0.0
 11
8.4162229939
 21
26.9861517732
 31
0.0
  0
LINE
  5
10A
330
FE
100
AcDbEntity
  8
0
  6
Continuous
 62
     7
370
     0
100
AcDbLine
 10
11.6230419284
 20
10.1961517732
 30
0.0
 11
8.4162229939
 21
10.1961517732
 31
0.0
  0
LINE
  5
10B
330
FE
100
AcDbEntity
  8
0
  6
Continuous
 62
     7
370
     0
100
AcDbLine
 10
9.0412229939
 20
26.9861517732
 30
0.0
 11
9.0412229939
 21
19.7150666313
 31
0.0
  0
LINE
  5
10C
330
FE
100
AcDbEntity
  8
0
  6
Continuous
 62
     7
370
     0
100
AcDbLine
 10
9.0412229939
 20
10.1961517732
 30
0.0
 11
9.0412229939
 21
17.4672369151
 31
0.0
  0
MTEXT
  5
10D
330
FE
100
AcDbEntity
  8
0
  6
Continuous
 62
     7
370
    18
100
AcDbMText
 10
7.3938706317
 20
19.5285465076
 30
0.0
 40
0.625
 41
0.0
 71
     1
 72
     1
  1

  7
SLDTEXTSTYLE0
 73
     1
 44
1.0
  0
MTEXT
  5
10E
330
FE
100
AcDbEntity
  8
0
  6
Continuous
 62
     7
370
    18
100
AcDbMText
 10
7.7712578271
 20
19.5189978502
 30
0.0
 40
0.625
 41
0.0
 71
     1
 72
     1
  1
16.790
  7
SLDTEXTSTYLE0
 73
     1
 44
1.0
  0
MTEXT
  5
10F
330
FE
100
AcDbEntity
  8
0
  6
Continuous
 62
     7
370
    18
100
AcDbMText
 10
7.7712577813
 20
18.3998572463
 30
0.0
 40
0.625
 41
0.0
 71
     1
 72
     1
  1
426.47
  7
SLDTEXTSTYLE0
 73
     1
 44
1.0
  0
MTEXT
  5
110
330
FE
100
AcDbEntity
  8
0
  6
Continuous
 62
     7
370
    18
100
AcDbMText
 10
10.9264226234
 20
19.5285465076
 30
0.0
 40
0.625
 41
0.0
 71
     1
 72
     1
  1

  7
SLDTEXTSTYLE0
 73
     1
 44
1.0
  0
ENDBLK
  5
100
330
FE
100
AcDbEntity
  8
0
100
AcDbBlockEnd
  0
BLOCK
  5
114
330
113
100
AcDbEntity
  8
0
100
AcDbBlockBegin
  2
_D_1
 70
     0
 10
0.0
 20
0.0
 30
0.0
  3
_D_1
  1

  0
SOLID
  5
116
330
113
100
AcDbEntity
  8
0
  6
Continuous
 62
     7
370
    18
100
AcDbTrace
 10
11.3417919284
 20
28.9546557102
 30
0.0
 11
11.9917919284
 21
28.8546557102
 31
0.0
 12
11.9917919284
 22
29.0546557102
 32
0.0
 13
11.9917919284
 23
29.0546557102
 33
0.0
  0
SOLID
  5
117
330
113
100
AcDbEntity
  8
0
  6
Continuous
 62
     7
370
    18
100
AcDbTrace
 10
37.2167919284
 20
28.9546557102
 30
0.0
 11
36.5667919284
 21
29.0546557102
 31
0.0
 12
36.5667919284
 22
28.8546557102
 32
0.0
 13
36.5667919284
 23
28.8546557102
 33
0.0
  0
LINE
  5
118
330
113
100
AcDbEntity
  8
0
  6
Continuous
 62
     7
370
     0
100
AcDbLine
 10
23.0093267159
 20
28.949881307
 30
0.0
 11
22.8188970303
 21
28.949881307
 31
0.0
  0
LINE
  5
119
330
113
100
AcDbEntity
  8
0
  6
Continuous
 62
     7
370
     0
100
AcDbLine
 10
22.8188970303
 20
28.949881307
 30
0.0
 11
22.8188970303
 21
27.9576937772
 31
0.0
  0
LINE
  5
11A
330
113
100
AcDbEntity
  8
0
  6
Continuous
 62
     7
370
     0
100
AcDbLine
 10
22.8188970303
 20
27.9576937772
 30
0.0
 11
23.0093267159
 21
27.9576937772
 31
0.0
  0
LINE
  5
11B
330
113
100
AcDbEntity
  8
0
  6
Continuous
 62
     7
370
     0
100
AcDbLine
 10
25.549257141
 20
28.949881307
 30
0.0
 11
25.7396868266
 21
28.949881307
 31
0.0
  0
LINE
  5
11C
330
113
100
AcDbEntity
  8
0
  6
Continuous
 62
     7
370
     0
100
AcDbLine
 10
25.7396868266
 20
28.949881307
 30
0.0
 11
25.7396868266
 21
27.9576937772
 31
0.0
  0
LINE
  5
11D
330
113
100
AcDbEntity
  8
0
  6
Continuous
 62
     7
370
     0
100
AcDbLine
 10
25.7396868266
 20
27.9576937772
 30
0.0
 11
25.549257141
 21
27.9576937772
 31
0.0
  0
LINE
  5
11E
330
113
100
AcDbEntity
  8
0
  6
Continuous
 62
     7
370
     0
100
AcDbLine
 10
11.3417919284
 20
27.1861517732
 30
0.0
 11
11.3417919284
 21
29.5796557102
 31
0.0
  0
LINE
  5
11F
330
113
100
AcDbEntity
  8
0
  6
Continuous
 62
     7
370
     0
100
AcDbLine
 10
37.2167919284
 20
27.1861517732
 30
0.0
 11
37.2167919284
 21
29.5796557102
 31
0.0
  0
LINE
  5
120
330
113
100
AcDbEntity
  8
0
  6
Continuous
 62
     7
370
     0
100
AcDbLine
 10
11.3417919284
 20
28.9546557102
 30
0.0
 11
22.2707862644
 21
28.9546557102
 31
0.0
  0
LINE
  5
121
330
113
100
AcDbEntity
  8
0
  6
Continuous
 62
     7
370
     0
100
AcDbLine
 10
37.2167919284
 20
28.9546557102
 30
0.0
 11
26.2877975925
 21
28.9546557102
 31
0.0
  0
MTEXT
  5
122
330
113
100
AcDbEntity
  8
0
  6
Continuous
 62
     7
370
    18
100
AcDbMText
 10
22.6319395663
 20
29.8920504446
 30
0.0
 40
0.625
 41
0.0
 71
     1
 72
     1
  1

  7
SLDTEXTSTYLE0
 73
     1
 44
1.0
  0
MTEXT
  5
123
330
113
100
AcDbEntity
  8
0
  6
Continuous
 62
     7
370
    18
100
AcDbMText
 10
23.0093267617
 20
29.8825017872
 30
0.0
 40
0.625
 41
0.0
 71
     1
 72
     1
  1
25.875
  7
SLDTEXTSTYLE0
 73
     1
 44
1.0
  0
MTEXT
  5
124
330
113
100
AcDbEntity
  8
0
  6
Continuous
 62
     7
370
    18
100
AcDbMText
 10
23.0093267159
 20
28.7633611833
 30
0.0
 40
0.625
 41
0.0
 71
     1
 72
     1
  1
657.23
  7
SLDTEXTSTYLE0
 73
     1
 44
1.0
  0
MTEXT
  5
125
330
113
100
AcDbEntity
  8
0
  6
Continuous
 62
     7
370
    18
100
AcDbMText
 10
26.164491558
 20
29.8920504446
 30
0.0
 40
0.625
 41
0.0
 71
     1
 72
     1
  1

  7
SLDTEXTSTYLE0
 73
     1
 44
1.0
  0
ENDBLK
  5
115
330
113
100
AcDbEntity
  8
0
100
AcDbBlockEnd
  0
BLOCK
  5
14C
330
14B
100
AcDbEntity
  8
0
100
AcDbBlockBegin
  2
_D_2
 70
     0
 10
0.0
 20
0.0
 30
0.0
  3
_D_2
  1

  0
SOLID
  5
14E
330
14B
100
AcDbEntity
  8
0
  6
Continuous
 62
     7
370
    18
100
AcDbTrace
 10
9.7198563538
 20
5.6230349544
 30
0.0
 11
9.8198563538
 21
6.2730349544
 31
0.0
 12
9.6198563538
 22
6.2730349544
 32
0.0
 13
9.6198563538
 23
6.2730349544
 33
0.0
  0
SOLID
  5
14F
330
14B
100
AcDbEntity
  8
0
  6
Continuous
 62
     7
370
    18
100
AcDbTrace
 10
9.7198563538
 20
5.4040349544
 30
0.0
 11
9.6198563538
 21
4.7540349544
 31
0.0
 12
9.8198563538
 22
4.7540349544
 32
0.0
 13
9.8198563538
 23
4.7540349544
 33
0.0
  0
LINE
  5
150
330
14B
100
AcDbEntity
  8
0
  6
Continuous
 62
     7
370
     0
100
AcDbLine
 10
6.4864399872
 20
3.8323782912
 30
0.0
 11
6.2960103016
 21
3.8323782912
 31
0.0
  0
LINE
  5
151
330
14B
100
AcDbEntity
  8
0
  6
Continuous
 62
     7
370
     0
100
AcDbLine
 10
6.2960103016
 20
3.8323782912
 30
0.0
 11
6.2960103016
 21
2.8401907614
 31
0.0
  0
LINE
  5
152
330
14B
100
AcDbEntity
  8
0
  6
Continuous
 62
     7
370
     0
100
AcDbLine
 10
6.2960103016
 20
2.8401907614
 30
0.0
 11
6.4864399872
 21
2.8401907614
 31
0.0
  0
LINE
  5
153
330
14B
100
AcDbEntity
  8
0
  6
Continuous
 62
     7
370
     0
100
AcDbLine
 10
8.102759482
 20
3.8323782912
 30
0.0
 11
8.2931891675
 21
3.8323782912
 31
0.0
  0
LINE
  5
154
330
14B
100
AcDbEntity
  8
0
  6
Continuous
 62
     7
370
     0
100
AcDbLine
 10
8.2931891675
 20
3.8323782912
 30
0.0
 11
8.2931891675
 21
2.8401907614
 31
0.0
  0
LINE
  5
155
330
14B
100
AcDbEntity
  8
0
  6
Continuous
 62
     7
370
     0
100
AcDbLine
 10
8.2931891675
 20
2.8401907614
 30
0.0
 11
8.102759482
 21
2.8401907614
 31
0.0
  0
LINE
  5
156
330
14B
100
AcDbEntity
  8
0
  6
Continuous
 62
     7
370
     0
100
AcDbLine
 10
12.0917919284
 20
5.6230349544
 30
0.0
 11
9.0948563538
 21
5.6230349544
 31
0.0
  0
LINE
  5
157
330
14B
100
AcDbEntity
  8
0
  6
Continuous
 62
     7
370
     0
100
AcDbLine
 10
11.1567919284
 20
5.4040349544
 30
0.0
 11
9.0948563538
 21
5.4040349544
 31
0.0
  0
LINE
  5
158
330
14B
100
AcDbEntity
  8
0
  6
Continuous
 62
     7
370
     0
100
AcDbLine
 10
9.0948563538
 20
3.8371526944
 30
0.0
 11
9.7198563538
 21
3.8371526944
 31
0.0
  0
LINE
  5
159
330
14B
100
AcDbEntity
  8
0
  6
Continuous
 62
     7
370
     0
100
AcDbLine
 10
9.7198563538
 20
3.8371526944
 30
0.0
 11
9.7198563538
 21
5.4040349544
 31
0.0
  0
LINE
  5
15A
330
14B
100
AcDbEntity
  8
0
  6
Continuous
 62
     7
370
     0
100
AcDbLine
 10
9.7198563538
 20
5.6230349544
 30
0.0
 11
9.7198563538
 21
6.8730349544
 31
0.0
  0
MTEXT
  5
15B
330
14B
100
AcDbEntity
  8
0
  6
Continuous
 62
     7
370
    18
100
AcDbMText
 10
6.1090528376
 20
4.7745474288
 30
0.0
 40
0.625
 41
0.0
 71
     1
 72
     1
  1

  7
SLDTEXTSTYLE0
 73
     1
 44
1.0
  0
MTEXT
  5
15C
330
14B
100
AcDbEntity
  8
0
  6
Continuous
 62
     7
370
    18
100
AcDbMText
 10
6.4864399413
 20
4.7649987714
 30
0.0
 40
0.625
 41
0.0
 71
     1
 72
     1
  1
.219
  7
SLDTEXTSTYLE0
 73
     1
 44
1.0
  0
MTEXT
  5
15D
330
14B
100
AcDbEntity
  8
0
  6
Continuous
 62
     7
370
    18
100
AcDbMText
 10
6.4864399872
 20
3.6458581675
 30
0.0
 40
0.625
 41
0.0
 71
     1
 72
     1
  1
5.56
  7
SLDTEXTSTYLE0
 73
     1
 44
1.0
  0
MTEXT
  5
15E
330
14B
100
AcDbEntity
  8
0
  6
Continuous
 62
     7
370
    18
100
AcDbMText
 10
8.7179937156
 20
4.7745474288
 30
0.0
 40
0.625
 41
0.0
 71
     1
 72
     1
  1

  7
SLDTEXTSTYLE0
 73
     1
 44
1.0
  0
ENDBLK
  5
14D
330
14B
100
AcDbEntity
  8
0
100
AcDbBlockEnd
  0
BLOCK
  5
162
330
161
100
AcDbEntity
  8
0
100
AcDbBlockBegin
  2
_D_3
 70
     0
 10
0.0
 20
0.0
 30
0.0
  3
_D_3
  1

  0
SOLID
  5
164
330
161
100
AcDbEntity
  8
0
  6
Continuous
 62
     7
370
    18
100
AcDbTrace
 10
12.3669224032
 20
5.5685513859
 30
0.0
 11
12.5483632654
 21
4.9364286023
 31
0.0
 12
12.7299751605
 22
5.0201968515
 32
0.0
 13
12.7299751605
 23
5.0201968515
 33
0.0
  0
LINE
  5
165
330
161
100
AcDbEntity
  8
0
  6
Continuous
 62
     7
370
     0
100
AcDbLine
 10
14.3554120494
 20
3.6342355785
 30
0.0
 11
14.1649823639
 21
3.6342355785
 31
0.0
  0
LINE
  5
166
330
161
100
AcDbEntity
  8
0
  6
Continuous
 62
     7
370
     0
100
AcDbLine
 10
14.1649823639
 20
3.6342355785
 30
0.0
 11
14.1649823639
 21
2.6420480487
 31
0.0
  0
LINE
  5
167
330
161
100
AcDbEntity
  8
0
  6
Continuous
 62
     7
370
     0
100
AcDbLine
 10
14.1649823639
 20
2.6420480487
 30
0.0
 11
14.3554120494
 21
2.6420480487
 31
0.0
  0
LINE
  5
168
330
161
100
AcDbEntity
  8
0
  6
Continuous
 62
     7
370
     0
100
AcDbLine
 10
15.9717315442
 20
3.6342355785
 30
0.0
 11
16.1621612298
 21
3.6342355785
 31
0.0
  0
LINE
  5
169
330
161
100
AcDbEntity
  8
0
  6
Continuous
 62
     7
370
     0
100
AcDbLine
 10
16.1621612298
 20
3.6342355785
 30
0.0
 11
16.1621612298
 21
2.6420480487
 31
0.0
  0
LINE
  5
16A
330
161
100
AcDbEntity
  8
0
  6
Continuous
 62
     7
370
     0
100
AcDbLine
 10
16.1621612298
 20
2.6420480487
 30
0.0
 11
15.9717315442
 21
2.6420480487
 31
0.0
  0
LINE
  5
16B
330
161
100
AcDbEntity
  8
0
  6
Continuous
 62
     7
370
     0
100
AcDbLine
 10
12.3669224032
 20
5.5685513859
 30
0.0
 11
13.259122998
 21
3.6342356702
 31
0.0
  0
LINE
  5
16C
330
161
100
AcDbEntity
  8
0
  6
Continuous
 62
     7
370
     0
100
AcDbLine
 10
13.259122998
 20
3.6342356702
 30
0.0
 11
13.884122998
 21
3.6342356702
 31
0.0
  0
MTEXT
  5
16D
330
161
100
AcDbEntity
  8
0
  6
Continuous
 62
     7
370
    18
100
AcDbMText
 10
13.884122998
 20
4.5668561045
 30
0.0
 40
0.625
 41
0.0
 71
     1
 72
     1
  1
%%c
  7
SLDTEXTSTYLE0
 73
     1
 44
1.0
  0
MTEXT
  5
16E
330
161
100
AcDbEntity
  8
0
  6
Continuous
 62
     7
370
    18
100
AcDbMText
 10
14.8267011009
 20
4.5668561045
 30
0.0
 40
0.625
 41
0.0
 71
     1
 72
     1
  1
.120
  7
SLDTEXTSTYLE0
 73
     1
 44
1.0
  0
MTEXT
  5
16F
330
161
100
AcDbEntity
  8
0
  6
Continuous
 62
     7
370
    18
100
AcDbMText
 10
14.3554120494
 20
3.4477154548
 30
0.0
 40
0.625
 41
0.0
 71
     1
 72
     1
  1
3.05
  7
SLDTEXTSTYLE0
 73
     1
 44
1.0
  0
ENDBLK
  5
163
330
161
100
AcDbEntity
  8
0
100
AcDbBlockEnd
  0
BLOCK
  5
173
330
172
100
AcDbEntity
  8
0
100
AcDbBlockBegin
  2
_D_4
 70
     0
 10
0.0
 20
0.0
 30
0.0
  3
_D_4
  1

  0
SOLID
  5
175
330
172
100
AcDbEntity
  8
0
  6
Continuous
 62
     7
370
    18
100
AcDbTrace
 10
12.3417919284
 20
8.0172516967
 30
0.0
 11
12.9917919284
 21
7.9172516967
 31
0.0
 12
12.9917919284
 22
8.1172516967
 32
0.0
 13
12.9917919284
 23
8.1172516967
 33
0.0
  0
SOLID
  5
176
330
172
100
AcDbEntity
  8
0
  6
Continuous
 62
     7
370
    18
100
AcDbTrace
 10
11.3417919284
 20
8.0172516967
 30
0.0
 11
10.6917919284
 21
8.1172516967
 31
0.0
 12
10.6917919284
 22
7.9172516967
 32
0.0
 13
10.6917919284
 23
7.9172516967
 33
0.0
  0
LINE
  5
177
330
172
100
AcDbEntity
  8
0
  6
Continuous
 62
     7
370
     0
100
AcDbLine
 10
7.4127781055
 20
8.0124772935
 30
0.0
 11
7.2223484199
 21
8.0124772935
 31
0.0
  0
LINE
  5
178
330
172
100
AcDbEntity
  8
0
  6
Continuous
 62
     7
370
     0
100
AcDbLine
 10
7.2223484199
 20
8.0124772935
 30
0.0
 11
7.2223484199
 21
7.0202897637
 31
0.0
  0
LINE
  5
179
330
172
100
AcDbEntity
  8
0
  6
Continuous
 62
     7
370
     0
100
AcDbLine
 10
7.2223484199
 20
7.0202897637
 30
0.0
 11
7.4127781055
 21
7.0202897637
 31
0.0
  0
LINE
  5
17A
330
172
100
AcDbEntity
  8
0
  6
Continuous
 62
     7
370
     0
100
AcDbLine
 10
9.4909030655
 20
8.0124772935
 30
0.0
 11
9.681332751
 21
8.0124772935
 31
0.0
  0
LINE
  5
17B
330
172
100
AcDbEntity
  8
0
  6
Continuous
 62
     7
370
     0
100
AcDbLine
 10
9.681332751
 20
8.0124772935
 30
0.0
 11
9.681332751
 21
7.0202897637
 31
0.0
  0
LINE
  5
17C
330
172
100
AcDbEntity
  8
0
  6
Continuous
 62
     7
370
     0
100
AcDbLine
 10
9.681332751
 20
7.0202897637
 30
0.0
 11
9.4909030655
 21
7.0202897637
 31
0.0
  0
LINE
  5
17D
330
172
100
AcDbEntity
  8
0
  6
Continuous
 62
     7
370
     0
100
AcDbLine
 10
12.3417919284
 20
5.8730349544
 30
0.0
 11
12.3417919284
 21
8.6422516967
 31
0.0
  0
LINE
  5
17E
330
172
100
AcDbEntity
  8
0
  6
Continuous
 62
     7
370
     0
100
AcDbLine
 10
11.3417919284
 20
6.0260349544
 30
0.0
 11
11.3417919284
 21
8.6422516967
 31
0.0
  0
LINE
  5
17F
330
172
100
AcDbEntity
  8
0
  6
Continuous
 62
     7
370
     0
100
AcDbLine
 10
12.3417919284
 20
8.0172516967
 30
0.0
 11
13.5917919284
 21
8.0172516967
 31
0.0
  0
LINE
  5
180
330
172
100
AcDbEntity
  8
0
  6
Continuous
 62
     7
370
     0
100
AcDbLine
 10
11.3417919284
 20
8.0172516967
 30
0.0
 11
10.2294435169
 21
8.0172516967
 31
0.0
  0
MTEXT
  5
181
330
172
100
AcDbEntity
  8
0
  6
Continuous
 62
     7
370
    18
100
AcDbMText
 10
7.0353909559
 20
8.954646431
 30
0.0
 40
0.625
 41
0.0
 71
     1
 72
     1
  1

  7
SLDTEXTSTYLE0
 73
     1
 44
1.0
  0
MTEXT
  5
182
330
172
100
AcDbEntity
  8
0
  6
Continuous
 62
     7
370
    18
100
AcDbMText
 10
7.4127780596
 20
8.9450977736
 30
0.0
 40
0.625
 41
0.0
 71
     1
 72
     1
  1
1.000
  7
SLDTEXTSTYLE0
 73
     1
 44
1.0
  0
MTEXT
  5
183
330
172
100
AcDbEntity
  8
0
  6
Continuous
 62
     7
370
    18
100
AcDbMText
 10
7.4127781055
 20
7.8259571698
 30
0.0
 40
0.625
 41
0.0
 71
     1
 72
     1
  1
25.40
  7
SLDTEXTSTYLE0
 73
     1
 44
1.0
  0
MTEXT
  5
184
330
172
100
AcDbEntity
  8
0
  6
Continuous
 62
     7
370
    18
100
AcDbMText
 10
10.1061372991
 20
8.954646431
 30
0.0
 40
0.625
 41
0.0
 71
     1
 72
     1
  1

  7
SLDTEXTSTYLE0
 73
     1
 44
1.0
  0
ENDBLK
  5
174
330
172
100
AcDbEntity
  8
0
100
AcDbBlockEnd
  0
BLOCK
  5
187
330
186
100
AcDbEntity
  8
0
100
AcDbBlockBegin
  2
_D_5
 70
     0
 10
0.0
 20
0.0
 30
0.0
  3
_D_5
  1

  0
SOLID
  5
189
330
186
100
AcDbEntity
  8
0
  6
Continuous
 62
     7
370
    18
100
AcDbTrace
 10
12.3417919284
 20
8.0172516967
 30
0.0
 11
12.9917919284
 21
7.9172516967
 31
0.0
 12
12.9917919284
 22
8.1172516967
 32
0.0
 13
12.9917919284
 23
8.1172516967
 33
0.0
  0
SOLID
  5
18A
330
186
100
AcDbEntity
  8
0
  6
Continuous
 62
     7
370
    18
100
AcDbTrace
 10
20.3417919284
 20
8.0172516967
 30
0.0
 11
19.6917919284
 21
8.1172516967
 31
0.0
 12
19.6917919284
 22
7.9172516967
 32
0.0
 13
19.6917919284
 23
7.9172516967
 33
0.0
  0
LINE
  5
18B
330
186
100
AcDbEntity
  8
0
  6
Continuous
 62
     7
370
     0
100
AcDbLine
 10
15.0718267159
 20
8.0124772935
 30
0.0
 11
14.8813970303
 21
8.0124772935
 31
0.0
  0
LINE
  5
18C
330
186
100
AcDbEntity
  8
0
  6
Continuous
 62
     7
370
     0
100
AcDbLine
 10
14.8813970303
 20
8.0124772935
 30
0.0
 11
14.8813970303
 21
7.0202897637
 31
0.0
  0
LINE
  5
18D
330
186
100
AcDbEntity
  8
0
  6
Continuous
 62
     7
370
     0
100
AcDbLine
 10
14.8813970303
 20
7.0202897637
 30
0.0
 11
15.0718267159
 21
7.0202897637
 31
0.0
  0
LINE
  5
18E
330
186
100
AcDbEntity
  8
0
  6
Continuous
 62
     7
370
     0
100
AcDbLine
 10
17.611757141
 20
8.0124772935
 30
0.0
 11
17.8021868266
 21
8.0124772935
 31
0.0
  0
LINE
  5
18F
330
186
100
AcDbEntity
  8
0
  6
Continuous
 62
     7
370
     0
100
AcDbLine
 10
17.8021868266
 20
8.0124772935
 30
0.0
 11
17.8021868266
 21
7.0202897637
 31
0.0
  0
LINE
  5
190
330
186
100
AcDbEntity
  8
0
  6
Continuous
 62
     7
370
     0
100
AcDbLine
 10
17.8021868266
 20
7.0202897637
 30
0.0
 11
17.611757141
 21
7.0202897637
 31
0.0
  0
LINE
  5
191
330
186
100
AcDbEntity
  8
0
  6
Continuous
 62
     7
370
     0
100
AcDbLine
 10
12.3417919284
 20
5.8730349544
 30
0.0
 11
12.3417919284
 21
8.6422516967
 31
0.0
  0
LINE
  5
192
330
186
100
AcDbEntity
  8
0
  6
Continuous
 62
     7
370
     0
100
AcDbLine
 10
20.3417919284
 20
5.8730349544
 30
0.0
 11
20.3417919284
 21
8.6422516967
 31
0.0
  0
LINE
  5
193
330
186
100
AcDbEntity
  8
0
  6
Continuous
 62
     7
370
     0
100
AcDbLine
 10
12.3417919284
 20
8.0172516967
 30
0.0
 11
14.3332862644
 21
8.0172516967
 31
0.0
  0
LINE
  5
194
330
186
100
AcDbEntity
  8
0
  6
Continuous
 62
     7
370
     0
100
AcDbLine
 10
20.3417919284
 20
8.0172516967
 30
0.0
 11
18.3502975925
 21
8.0172516967
 31
0.0
  0
MTEXT
  5
195
330
186
100
AcDbEntity
  8
0
  6
Continuous
 62
     7
370
    18
100
AcDbMText
 10
14.6944395663
 20
8.954646431
 30
0.0
 40
0.625
 41
0.0
 71
     1
 72
     1
  1

  7
SLDTEXTSTYLE0
 73
     1
 44
1.0
  0
MTEXT
  5
196
330
186
100
AcDbEntity
  8
0
  6
Continuous
 62
     7
370
    18
100
AcDbMText
 10
15.3027294943
 20
8.9450977736
 30
0.0
 40
0.625
 41
0.0
 71
     1
 72
     1
  1
8.000
  7
SLDTEXTSTYLE0
 73
     1
 44
1.0
  0
MTEXT
  5
197
330
186
100
AcDbEntity
  8
0
  6
Continuous
 62
     7
370
    18
100
AcDbMText
 10
15.0718267159
 20
7.8259571698
 30
0.0
 40
0.625
 41
0.0
 71
     1
 72
     1
  1
203.20
  7
SLDTEXTSTYLE0
 73
     1
 44
1.0
  0
MTEXT
  5
198
330
186
100
AcDbEntity
  8
0
  6
Continuous
 62
     7
370
    18
100
AcDbMText
 10
18.226991558
 20
8.954646431
 30
0.0
 40
0.625
 41
0.0
 71
     1
 72
     1
  1

  7
SLDTEXTSTYLE0
 73
     1
 44
1.0
  0
ENDBLK
  5
188
330
186
100
AcDbEntity
  8
0
100
AcDbBlockEnd
  0
BLOCK
  5
19B
330
19A
100
AcDbEntity
  8
0
100
AcDbBlockBegin
  2
_D_6
 70
     0
 10
0.0
 20
0.0
 30
0.0
  3
_D_6
  1

  0
SOLID
  5
19D
330
19A
100
AcDbEntity
  8
0
  6
Continuous
 62
     7
370
    18
100
AcDbTrace
 10
20.3417919284
 20
8.0172516967
 30
0.0
 11
20.9917919284
 21
7.9172516967
 31
0.0
 12
20.9917919284
 22
8.1172516967
 32
0.0
 13
20.9917919284
 23
8.1172516967
 33
0.0
  0
SOLID
  5
19E
330
19A
100
AcDbEntity
  8
0
  6
Continuous
 62
     7
370
    18
100
AcDbTrace
 10
28.2167919284
 20
8.0172516967
 30
0.0
 11
27.5667919284
 21
8.1172516967
 31
0.0
 12
27.5667919284
 22
7.9172516967
 32
0.0
 13
27.5667919284
 23
7.9172516967
 33
0.0
  0
LINE
  5
19F
330
19A
100
AcDbEntity
  8
0
  6
Continuous
 62
     7
370
     0
100
AcDbLine
 10
23.0093267159
 20
8.0124772935
 30
0.0
 11
22.8188970303
 21
8.0124772935
 31
0.0
  0
LINE
  5
1A0
330
19A
100
AcDbEntity
  8
0
  6
Continuous
 62
     7
370
     0
100
AcDbLine
 10
22.8188970303
 20
8.0124772935
 30
0.0
 11
22.8188970303
 21
7.0202897637
 31
0.0
  0
LINE
  5
1A1
330
19A
100
AcDbEntity
  8
0
  6
Continuous
 62
     7
370
     0
100
AcDbLine
 10
22.8188970303
 20
7.0202897637
 30
0.0
 11
23.0093267159
 21
7.0202897637
 31
0.0
  0
LINE
  5
1A2
330
19A
100
AcDbEntity
  8
0
  6
Continuous
 62
     7
370
     0
100
AcDbLine
 10
25.549257141
 20
8.0124772935
 30
0.0
 11
25.7396868266
 21
8.0124772935
 31
0.0
  0
LINE
  5
1A3
330
19A
100
AcDbEntity
  8
0
  6
Continuous
 62
     7
370
     0
100
AcDbLine
 10
25.7396868266
 20
8.0124772935
 30
0.0
 11
25.7396868266
 21
7.0202897637
 31
0.0
  0
LINE
  5
1A4
330
19A
100
AcDbEntity
  8
0
  6
Continuous
 62
     7
370
     0
100
AcDbLine
 10
25.7396868266
 20
7.0202897637
 30
0.0
 11
25.549257141
 21
7.0202897637
 31
0.0
  0
LINE
  5
1A5
330
19A
100
AcDbEntity
  8
0
  6
Continuous
 62
     7
370
     0
100
AcDbLine
 10
20.3417919284
 20
5.8730349544
 30
0.0
 11
20.3417919284
 21
8.6422516967
 31
0.0
  0
LINE
  5
1A6
330
19A
100
AcDbEntity
  8
0
  6
Continuous
 62
     7
370
     0
100
AcDbLine
 10
28.2167919284
 20
5.8730349544
 30
0.0
 11
28.2167919284
 21
8.6422516967
 31
0.0
  0
LINE
  5
1A7
330
19A
100
AcDbEntity
  8
0
  6
Continuous
 62
     7
370
     0
100
AcDbLine
 10
20.3417919284
 20
8.0172516967
 30
0.0
 11
22.2707862644
 21
8.0172516967
 31
0.0
  0
LINE
  5
1A8
330
19A
100
AcDbEntity
  8
0
  6
Continuous
 62
     7
370
     0
100
AcDbLine
 10
28.2167919284
 20
8.0172516967
 30
0.0
 11
26.2877975925
 21
8.0172516967
 31
0.0
  0
MTEXT
  5
1A9
330
19A
100
AcDbEntity
  8
0
  6
Continuous
 62
     7
370
    18
100
AcDbMText
 10
22.6319395663
 20
8.954646431
 30
0.0
 40
0.625
 41
0.0
 71
     1
 72
     1
  1

  7
SLDTEXTSTYLE0
 73
     1
 44
1.0
  0
MTEXT
  5
1AA
330
19A
100
AcDbEntity
  8
0
  6
Continuous
 62
     7
370
    18
100
AcDbMText
 10
23.2402294943
 20
8.9450977736
 30
0.0
 40
0.625
 41
0.0
 71
     1
 72
     1
  1
7.875
  7
SLDTEXTSTYLE0
 73
     1
 44
1.0
  0
MTEXT
  5
1AB
330
19A
100
AcDbEntity
  8
0
  6
Continuous
 62
     7
370
    18
100
AcDbMText
 10
23.0093267159
 20
7.8259571698
 30
0.0
 40
0.625
 41
0.0
 71
     1
 72
     1
  1
200.03
  7
SLDTEXTSTYLE0
 73
     1
 44
1.0
  0
MTEXT
  5
1AC
330
19A
100
AcDbEntity
  8
0
  6
Continuous
 62
     7
370
    18
100
AcDbMText
 10
26.164491558
 20
8.954646431
 30
0.0
 40
0.625
 41
0.0
 71
     1
 72
     1
  1

  7
SLDTEXTSTYLE0
 73
     1
 44
1.0
  0
ENDBLK
  5
19C
330
19A
100
AcDbEntity
  8
0
100
AcDbBlockEnd
  0
BLOCK
  5
1AF
330
1AE
100
AcDbEntity
  8
0
100
AcDbBlockBegin
  2
_D_7
 70
     0
 10
0.0
 20
0.0
 30
0.0
  3
_D_7
  1

  0
SOLID
  5
1B1
330
1AE
100
AcDbEntity
  8
0
  6
Continuous
 62
     7
370
    18
100
AcDbTrace
 10
28.2167919284
 20
8.0172516967
 30
0.0
 11
28.8667919284
 21
7.9172516967
 31
0.0
 12
28.8667919284
 22
8.1172516967
 32
0.0
 13
28.8667919284
 23
8.1172516967
 33
0.0
  0
SOLID
  5
1B2
330
1AE
100
AcDbEntity
  8
0
  6
Continuous
 62
     7
370
    18
100
AcDbTrace
 10
36.2167919284
 20
8.0172516967
 30
0.0
 11
35.5667919284
 21
8.1172516967
 31
0.0
 12
35.5667919284
 22
7.9172516967
 32
0.0
 13
35.5667919284
 23
7.9172516967
 33
0.0
  0
LINE
  5
1B3
330
1AE
100
AcDbEntity
  8
0
  6
Continuous
 62
     7
370
     0
100
AcDbLine
 10
30.9468267159
 20
8.0124772935
 30
0.0
 11
30.7563970303
 21
8.0124772935
 31
0.0
  0
LINE
  5
1B4
330
1AE
100
AcDbEntity
  8
0
  6
Continuous
 62
     7
370
     0
100
AcDbLine
 10
30.7563970303
 20
8.0124772935
 30
0.0
 11
30.7563970303
 21
7.0202897637
 31
0.0
  0
LINE
  5
1B5
330
1AE
100
AcDbEntity
  8
0
  6
Continuous
 62
     7
370
     0
100
AcDbLine
 10
30.7563970303
 20
7.0202897637
 30
0.0
 11
30.9468267159
 21
7.0202897637
 31
0.0
  0
LINE
  5
1B6
330
1AE
100
AcDbEntity
  8
0
  6
Continuous
 62
     7
370
     0
100
AcDbLine
 10
33.486757141
 20
8.0124772935
 30
0.0
 11
33.6771868266
 21
8.0124772935
 31
0.0
  0
LINE
  5
1B7
330
1AE
100
AcDbEntity
  8
0
  6
Continuous
 62
     7
370
     0
100
AcDbLine
 10
33.6771868266
 20
8.0124772935
 30
0.0
 11
33.6771868266
 21
7.0202897637
 31
0.0
  0
LINE
  5
1B8
330
1AE
100
AcDbEntity
  8
0
  6
Continuous
 62
     7
370
     0
100
AcDbLine
 10
33.6771868266
 20
7.0202897637
 30
0.0
 11
33.486757141
 21
7.0202897637
 31
0.0
  0
LINE
  5
1B9
330
1AE
100
AcDbEntity
  8
0
  6
Continuous
 62
     7
370
     0
100
AcDbLine
 10
28.2167919284
 20
5.8730349544
 30
0.0
 11
28.2167919284
 21
8.6422516967
 31
0.0
  0
LINE
  5
1BA
330
1AE
100
AcDbEntity
  8
0
  6
Continuous
 62
     7
370
     0
100
AcDbLine
 10
36.2167919284
 20
5.8730349544
 30
0.0
 11
36.2167919284
 21
8.6422516967
 31
0.0
  0
LINE
  5
1BB
330
1AE
100
AcDbEntity
  8
0
  6
Continuous
 62
     7
370
     0
100
AcDbLine
 10
28.2167919284
 20
8.0172516967
 30
0.0
 11
30.2082862644
 21
8.0172516967
 31
0.0
  0
LINE
  5
1BC
330
1AE
100
AcDbEntity
  8
0
  6
Continuous
 62
     7
370
     0
100
AcDbLine
 10
36.2167919284
 20
8.0172516967
 30
0.0
 11
34.2252975925
 21
8.0172516967
 31
0.0
  0
MTEXT
  5
1BD
330
1AE
100
AcDbEntity
  8
0
  6
Continuous
 62
     7
370
    18
100
AcDbMText
 10
30.5694395663
 20
8.954646431
 30
0.0
 40
0.625
 41
0.0
 71
     1
 72
     1
  1

  7
SLDTEXTSTYLE0
 73
     1
 44
1.0
  0
MTEXT
  5
1BE
330
1AE
100
AcDbEntity
  8
0
  6
Continuous
 62
     7
370
    18
100
AcDbMText
 10
31.1777294943
 20
8.9450977736
 30
0.0
 40
0.625
 41
0.0
 71
     1
 72
     1
  1
8.000
  7
SLDTEXTSTYLE0
 73
     1
 44
1.0
  0
MTEXT
  5
1BF
330
1AE
100
AcDbEntity
  8
0
  6
Continuous
 62
     7
370
    18
100
AcDbMText
 10
30.9468267159
 20
7.8259571698
 30
0.0
 40
0.625
 41
0.0
 71
     1
 72
     1
  1
203.20
  7
SLDTEXTSTYLE0
 73
     1
 44
1.0
  0
MTEXT
  5
1C0
330
1AE
100
AcDbEntity
  8
0
  6
Continuous
 62
     7
370
    18
100
AcDbMText
 10
34.101991558
 20
8.954646431
 30
0.0
 40
0.625
 41
0.0
 71
     1
 72
     1
  1

  7
SLDTEXTSTYLE0
 73
     1
 44
1.0
  0
ENDBLK
  5
1B0
330
1AE
100
AcDbEntity
  8
0
100
AcDbBlockEnd
  0
BLOCK
  5
1C3
330
1C2
100
AcDbEntity
  8
0
100
AcDbBlockBegin
  2
_D_8
 70
     0
 10
0.0
 20
0.0
 30
0.0
  3
_D_8
  1

  0
SOLID
  5
1C5
330
1C2
100
AcDbEntity
  8
0
  6
Continuous
 62
     7
370
    18
100
AcDbTrace
 10
38.9219490775
 20
5.4040349544
 30
0.0
 11
38.8219490775
 21
4.7540349544
 31
0.0
 12
39.0219490775
 22
4.7540349544
 32
0.0
 13
39.0219490775
 23
4.7540349544
 33
0.0
  0
SOLID
  5
1C6
330
1C2
100
AcDbEntity
  8
0
  6
Continuous
 62
     7
370
    18
100
AcDbTrace
 10
38.9219490775
 20
5.8410349544
 30
0.0
 11
39.0219490775
 21
6.4910349544
 31
0.0
 12
38.8219490775
 22
6.4910349544
 32
0.0
 13
38.8219490775
 23
6.4910349544
 33
0.0
  0
LINE
  5
1C7
330
1C2
100
AcDbEntity
  8
0
  6
Continuous
 62
     7
370
     0
100
AcDbLine
 10
40.5390461327
 20
7.1495866061
 30
0.0
 11
40.3486164471
 21
7.1495866061
 31
0.0
  0
LINE
  5
1C8
330
1C2
100
AcDbEntity
  8
0
  6
Continuous
 62
     7
370
     0
100
AcDbLine
 10
40.3486164471
 20
7.1495866061
 30
0.0
 11
40.3486164471
 21
6.1573990762
 31
0.0
  0
LINE
  5
1C9
330
1C2
100
AcDbEntity
  8
0
  6
Continuous
 62
     7
370
     0
100
AcDbLine
 10
40.3486164471
 20
6.1573990762
 30
0.0
 11
40.5390461327
 21
6.1573990762
 31
0.0
  0
LINE
  5
1CA
330
1C2
100
AcDbEntity
  8
0
  6
Continuous
 62
     7
370
     0
100
AcDbLine
 10
42.6171710926
 20
7.1495866061
 30
0.0
 11
42.8076007782
 21
7.1495866061
 31
0.0
  0
LINE
  5
1CB
330
1C2
100
AcDbEntity
  8
0
  6
Continuous
 62
     7
370
     0
100
AcDbLine
 10
42.8076007782
 20
7.1495866061
 30
0.0
 11
42.8076007782
 21
6.1573990762
 31
0.0
  0
LINE
  5
1CC
330
1C2
100
AcDbEntity
  8
0
  6
Continuous
 62
     7
370
     0
100
AcDbLine
 10
42.8076007782
 20
6.1573990762
 30
0.0
 11
42.6171710926
 21
6.1573990762
 31
0.0
  0
LINE
  5
1CD
330
1C2
100
AcDbEntity
  8
0
  6
Continuous
 62
     7
370
     0
100
AcDbLine
 10
37.4017919284
 20
5.4040349544
 30
0.0
 11
39.5469490775
 21
5.4040349544
 31
0.0
  0
LINE
  5
1CE
330
1C2
100
AcDbEntity
  8
0
  6
Continuous
 62
     7
370
     0
100
AcDbLine
 10
37.4017919284
 20
5.8410349544
 30
0.0
 11
39.5469490775
 21
5.8410349544
 31
0.0
  0
LINE
  5
1CF
330
1C2
100
AcDbEntity
  8
0
  6
Continuous
 62
     7
370
     0
100
AcDbLine
 10
39.5469490775
 20
7.1543610092
 30
0.0
 11
38.9219490775
 21
7.1543610092
 31
0.0
  0
LINE
  5
1D0
330
1C2
100
AcDbEntity
  8
0
  6
Continuous
 62
     7
370
     0
100
AcDbLine
 10
38.9219490775
 20
7.1543610092
 30
0.0
 11
38.9219490775
 21
5.8410349544
 31
0.0
  0
LINE
  5
1D1
330
1C2
100
AcDbEntity
  8
0
  6
Continuous
 62
     7
370
     0
100
AcDbLine
 10
38.9219490775
 20
5.4040349544
 30
0.0
 11
38.9219490775
 21
4.1540349544
 31
0.0
  0
MTEXT
  5
1D2
330
1C2
100
AcDbEntity
  8
0
  6
Continuous
 62
     7
370
    18
100
AcDbMText
 10
40.1616589831
 20
8.0917557436
 30
0.0
 40
0.625
 41
0.0
 71
     1
 72
     1
  1

  7
SLDTEXTSTYLE0
 73
     1
 44
1.0
  0
MTEXT
  5
1D3
330
1C2
100
AcDbEntity
  8
0
  6
Continuous
 62
     7
370
    18
100
AcDbMText
 10
40.7699488194
 20
8.0822070862
 30
0.0
 40
0.625
 41
0.0
 71
     1
 72
     1
  1
.437
  7
SLDTEXTSTYLE0
 73
     1
 44
1.0
  0
MTEXT
  5
1D4
330
1C2
100
AcDbEntity
  8
0
  6
Continuous
 62
     7
370
    18
100
AcDbMText
 10
40.5390461327
 20
6.9630664823
 30
0.0
 40
0.625
 41
0.0
 71
     1
 72
     1
  1
11.10
  7
SLDTEXTSTYLE0
 73
     1
 44
1.0
  0
MTEXT
  5
1D5
330
1C2
100
AcDbEntity
  8
0
  6
Continuous
 62
     7
370
    18
100
AcDbMText
 10
43.2324053263
 20
8.0917557436
 30
0.0
 40
0.625
 41
0.0
 71
     1
 72
     1
  1

  7
SLDTEXTSTYLE0
 73
     1
 44
1.0
  0
ENDBLK
  5
1C4
330
1C2
100
AcDbEntity
  8
0
100
AcDbBlockEnd
  0
BLOCK
  5
1D8
330
1D7
100
AcDbEntity
  8
0
100
AcDbBlockBegin
  2
_D_9
 70
     0
 10
0.0
 20
0.0
 30
0.0
  3
_D_9
  1

  0
SOLID
  5
1DA
330
1D7
100
AcDbEntity
  8
0
  6
Continuous
 62
     7
370
    18
100
AcDbTrace
 10
36.8417919284
 20
3.6459879428
 30
0.0
 11
36.1917919284
 21
3.7459879428
 31
0.0
 12
36.1917919284
 22
3.5459879428
 32
0.0
 13
36.1917919284
 23
3.5459879428
 33
0.0
  0
SOLID
  5
1DB
330
1D7
100
AcDbEntity
  8
0
  6
Continuous
 62
     7
370
    18
100
AcDbTrace
 10
37.2167919284
 20
3.6459879428
 30
0.0
 11
37.8667919284
 21
3.5459879428
 31
0.0
 12
37.8667919284
 22
3.7459879428
 32
0.0
 13
37.8667919284
 23
3.7459879428
 33
0.0
  0
LINE
  5
1DC
330
1D7
100
AcDbEntity
  8
0
  6
Continuous
 62
     7
370
     0
100
AcDbLine
 10
33.2712735415
 20
3.6412135397
 30
0.0
 11
33.0808438559
 21
3.6412135397
 31
0.0
  0
LINE
  5
1DD
330
1D7
100
AcDbEntity
  8
0
  6
Continuous
 62
     7
370
     0
100
AcDbLine
 10
33.0808438559
 20
3.6412135397
 30
0.0
 11
33.0808438559
 21
2.6490260098
 31
0.0
  0
LINE
  5
1DE
330
1D7
100
AcDbEntity
  8
0
  6
Continuous
 62
     7
370
     0
100
AcDbLine
 10
33.0808438559
 20
2.6490260098
 30
0.0
 11
33.2712735415
 21
2.6490260098
 31
0.0
  0
LINE
  5
1DF
330
1D7
100
AcDbEntity
  8
0
  6
Continuous
 62
     7
370
     0
100
AcDbLine
 10
34.8875930363
 20
3.6412135397
 30
0.0
 11
35.0780227218
 21
3.6412135397
 31
0.0
  0
LINE
  5
1E0
330
1D7
100
AcDbEntity
  8
0
  6
Continuous
 62
     7
370
     0
100
AcDbLine
 10
35.0780227218
 20
3.6412135397
 30
0.0
 11
35.0780227218
 21
2.6490260098
 31
0.0
  0
LINE
  5
1E1
330
1D7
100
AcDbEntity
  8
0
  6
Continuous
 62
     7
370
     0
100
AcDbLine
 10
35.0780227218
 20
2.6490260098
 30
0.0
 11
34.8875930363
 21
2.6490260098
 31
0.0
  0
LINE
  5
1E2
330
1D7
100
AcDbEntity
  8
0
  6
Continuous
 62
     7
370
     0
100
AcDbLine
 10
36.8417919284
 20
5.1540349544
 30
0.0
 11
36.8417919284
 21
3.0209879428
 31
0.0
  0
LINE
  5
1E3
330
1D7
100
AcDbEntity
  8
0
  6
Continuous
 62
     7
370
     0
100
AcDbLine
 10
37.2167919284
 20
5.2190349544
 30
0.0
 11
37.2167919284
 21
3.0209879428
 31
0.0
  0
LINE
  5
1E4
330
1D7
100
AcDbEntity
  8
0
  6
Continuous
 62
     7
370
     0
100
AcDbLine
 10
36.8417919284
 20
3.6459879428
 30
0.0
 11
35.6261333044
 21
3.6459879428
 31
0.0
  0
LINE
  5
1E5
330
1D7
100
AcDbEntity
  8
0
  6
Continuous
 62
     7
370
     0
100
AcDbLine
 10
37.2167919284
 20
3.6459879428
 30
0.0
 11
38.4667919284
 21
3.6459879428
 31
0.0
  0
MTEXT
  5
1E6
330
1D7
100
AcDbEntity
  8
0
  6
Continuous
 62
     7
370
    18
100
AcDbMText
 10
32.8938863919
 20
4.5833826772
 30
0.0
 40
0.625
 41
0.0
 71
     1
 72
     1
  1

  7
SLDTEXTSTYLE0
 73
     1
 44
1.0
  0
MTEXT
  5
1E7
330
1D7
100
AcDbEntity
  8
0
  6
Continuous
 62
     7
370
    18
100
AcDbMText
 10
33.2712734956
 20
4.5738340198
 30
0.0
 40
0.625
 41
0.0
 71
     1
 72
     1
  1
.375
  7
SLDTEXTSTYLE0
 73
     1
 44
1.0
  0
MTEXT
  5
1E8
330
1D7
100
AcDbEntity
  8
0
  6
Continuous
 62
     7
370
    18
100
AcDbMText
 10
33.2712735415
 20
3.4546934159
 30
0.0
 40
0.625
 41
0.0
 71
     1
 72
     1
  1
9.53
  7
SLDTEXTSTYLE0
 73
     1
 44
1.0
  0
MTEXT
  5
1E9
330
1D7
100
AcDbEntity
  8
0
  6
Continuous
 62
     7
370
    18
100
AcDbMText
 10
35.5028272699
 20
4.5833826772
 30
0.0
 40
0.625
 41
0.0
 71
     1
 72
     1
  1

  7
SLDTEXTSTYLE0
 73
     1
 44
1.0
  0
ENDBLK
  5
1D9
330
1D7
100
AcDbEntity
  8
0
100
AcDbBlockEnd
  0
ENDSEC
  0
SECTION
  2
ENTITIES
  0
VIEWPORT
  5
73
330
1B
100
AcDbEntity
 67
     1
  8
0
100
AcDbViewport
 10
27.5
 20
21.25
 30
0.0
 40
58.19
 41
44.965
 68
     1
 69
     1
 12
27.5
 22
21.25
 13
0.0
 23
0.0
 14
0.5
 24
0.5
 15
0.5
 25
0.5
 16
0.0
 26
0.0
 36
1.0
 17
0.0
 27
0.0
 37
0.0
 42
50.0
 43
0.0
 44
0.0
 45
44.965
 50
0.0
 51
0.0
 72
   100
 90
   557152
  1

281
     0
 71
     1
 74
     0
110
0.0
120
0.0
130
0.0
111
1.0
121
0.0
131
0.0
112
0.0
122
1.0
132
0.0
 79
     0
146
0.0
  0
LINE
  5
75
330
1B
100
AcDbEntity
 67
     1
  8
0
  6
Continuous
 62
     7
370
    18
100
AcDbLine
 10
1.959635
 20
40.6503658537
 30
0.0
 11
1.959635
 21
2.2703658537
 31
0.0
  0
LINE
  5
76
330
1B
100
AcDbEntity
 67
     1
  8
0
  6
Continuous
 62
     7
370
    18
100
AcDbLine
 10
1.649635
 20
40.9603658537
 30
0.0
 11
1.649635
 21
1.9603658537
 31
0.0
  0
LINE
  5
77
330
1B
100
AcDbEntity
 67
     1
  8
0
  6
Continuous
 62
     7
370
    18
100
AcDbLine
 10
53.149635
 20
1.9603658537
 30
0.0
 11
1.649635
 21
1.9603658537
 31
0.0
  0
LINE
  5
78
330
1B
100
AcDbEntity
 67
     1
  8
0
  6
Continuous
 62
     7
370
    18
100
AcDbLine
 10
53.149635
 20
1.9603658537
 30
0.0
 11
53.149635
 21
40.9603658537
 31
0.0
  0
LINE
  5
79
330
1B
100
AcDbEntity
 67
     1
  8
0
  6
Continuous
 62
     7
370
    18
100
AcDbLine
 10
52.839635
 20
2.2703658537
 30
0.0
 11
1.959635
 21
2.2703658537
 31
0.0
  0
LINE
  5
7A
330
1B
100
AcDbEntity
 67
     1
  8
0
  6
Continuous
 62
     7
370
    18
100
AcDbLine
 10
52.839635
 20
2.2703658537
 30
0.0
 11
52.839635
 21
40.6503658537
 31
0.0
  0
LINE
  5
7B
330
1B
100
AcDbEntity
 67
     1
  8
0
  6
Continuous
 62
     7
370
    18
100
AcDbLine
 10
1.959635
 20
40.6503658537
 30
0.0
 11
52.839635
 21
40.6503658537
 31
0.0
  0
LINE
  5
7C
330
1B
100
AcDbEntity
 67
     1
  8
0
  6
Continuous
 62
     7
370
    18
100
AcDbLine
 10
1.959635
 20
38.6203658537
 30
0.0
 11
52.839635
 21
38.6203658537
 31
0.0
  0
LINE
  5
7D
330
1B
100
AcDbEntity
 67
     1
  8
0
  6
Continuous
 62
     7
370
    18
100
AcDbLine
 10
4.769635
 20
40.6503658537
 30
0.0
 11
4.769635
 21
38.6203658537
 31
0.0
  0
LINE
  5
7E
330
1B
100
AcDbEntity
 67
     1
  8
0
  6
Continuous
 62
     7
370
    18
100
AcDbLine
 10
45.1045808154
 20
40.6503658537
 30
0.0
 11
45.1045808154
 21
38.6203658537
 31
0.0
  0
LINE
  5
7F
330
1B
100
AcDbEntity
 67
     1
  8
0
  6
Continuous
 62
     7
370
    18
100
AcDbLine
 10
47.9145808154
 20
40.6503658537
 30
0.0
 11
47.9145808154
 21
38.6203658537
 31
0.0
  0
LINE
  5
80
330
1B
100
AcDbEntity
 67
     1
  8
0
  6
Continuous
 62
     7
370
    18
100
AcDbLine
 10
27.269635
 20
40.6503658537
 30
0.0
 11
27.269635
 21
38.6203658537
 31
0.0
  0
LINE
  5
81
330
1B
100
AcDbEntity
 67
     1
  8
0
  6
Continuous
 62
     7
370
    18
100
AcDbLine
 10
30.079635
 20
40.6503658537
 30
0.0
 11
30.079635
 21
38.6203658537
 31
0.0
  0
LINE
  5
82
330
1B
100
AcDbEntity
 67
     1
  8
0
  6
Continuous
 62
     7
370
    18
100
AcDbLine
 10
2.1195743278
 20
38.9974040833
 30
0.0
 11
2.1195743278
 21
40.3250778538
 31
0.0
  0
LINE
  5
83
330
1B
100
AcDbEntity
 67
     1
  8
0
  6
Continuous
 62
     7
370
    18
100
AcDbLine
 10
3.0441004635
 20
39.0803836939
 30
0.0
 11
3.0441004635
 21
40.3250778538
 31
0.0
  0
LINE
  5
84
330
1B
100
AcDbEntity
 67
     1
  8
0
  6
Continuous
 62
     7
370
    18
100
AcDbLine
 10
3.4023543411
 20
39.2140232689
 30
0.0
 11
3.4023543411
 21
40.3250778538
 31
0.0
  0
LINE
  5
85
330
1B
100
AcDbEntity
 67
     1
  8
0
  6
Continuous
 62
     7
370
    18
100
AcDbLine
 10
3.2867885742
 20
39.2140232689
 30
0.0
 11
3.2867885742
 21
40.3250778538
 31
0.0
  0
LINE
  5
86
330
1B
100
AcDbEntity
 67
     1
  8
0
  6
Continuous
 62
     7
370
    18
100
AcDbLine
 10
3.9165953495
 20
38.9974040833
 30
0.0
 11
3.9165953495
 21
40.3250778538
 31
0.0
  0
LINE
  5
87
330
1B
100
AcDbEntity
 67
     1
  8
0
  6
Continuous
 62
     7
370
    18
100
AcDbLine
 10
3.6450424518
 20
39.0803836939
 30
0.0
 11
3.6450424518
 21
40.3250778538
 31
0.0
  0
LINE
  5
88
330
1B
100
AcDbEntity
 67
     1
  8
0
  6
Continuous
 62
     7
370
    18
100
AcDbLine
 10
3.1270800742
 20
38.9974040833
 30
0.0
 11
3.5620628411
 21
38.9974040833
 31
0.0
  0
LINE
  5
89
330
1B
100
AcDbEntity
 67
     1
  8
0
  6
Continuous
 62
     7
370
    18
100
AcDbLine
 10
2.1195743278
 20
38.9974040833
 30
0.0
 11
2.5471676656
 21
38.9974040833
 31
0.0
  0
LINE
  5
8A
330
1B
100
AcDbEntity
 67
     1
  8
0
  6
Continuous
 62
     7
370
    18
100
AcDbLine
 10
2.5471676656
 20
39.6280491243
 30
0.0
 11
2.1831354997
 21
39.6280491243
 31
0.0
  0
LINE
  5
8B
330
1B
100
AcDbEntity
 67
     1
  8
0
  6
Continuous
 62
     7
370
    18
100
AcDbLine
 10
2.5471676656
 20
39.6944328128
 30
0.0
 11
2.1831354997
 21
39.6944328128
 31
0.0
  0
LINE
  5
8C
330
1B
100
AcDbEntity
 67
     1
  8
0
  6
Continuous
 62
     7
370
    18
100
AcDbLine
 10
2.1831354997
 20
39.6944328128
 30
0.0
 11
2.1831354997
 21
39.6612409685
 31
0.0
  0
LINE
  5
8D
330
1B
100
AcDbEntity
 67
     1
  8
0
  6
Continuous
 62
     7
370
    18
100
AcDbLine
 10
2.1831354997
 20
39.6280491243
 30
0.0
 11
2.1831354997
 21
39.6612409685
 31
0.0
  0
LINE
  5
8E
330
1B
100
AcDbEntity
 67
     1
  8
0
  6
Continuous
 62
     7
370
    18
100
AcDbLine
 10
3.9165953495
 20
38.9974040833
 30
0.0
 11
4.0817429598
 21
38.9974040833
 31
0.0
  0
LINE
  5
8F
330
1B
100
AcDbEntity
 67
     1
  8
0
  6
Continuous
 62
     7
370
    18
100
AcDbLine
 10
4.5464287795
 20
39.462089903
 30
0.0
 11
4.5464287795
 21
39.8603920341
 31
0.0
  0
LINE
  5
90
330
1B
100
AcDbEntity
 67
     1
  8
0
  6
Continuous
 62
     7
370
    18
100
AcDbLine
 10
4.3022368905
 20
39.6280491243
 30
0.0
 11
4.3022368905
 21
39.6944328128
 31
0.0
  0
LINE
  5
91
330
1B
100
AcDbEntity
 67
     1
  8
0
  6
Continuous
 62
     7
370
    18
100
AcDbLine
 10
4.0957489429
 20
39.6280491243
 30
0.0
 11
4.0957489429
 21
39.6944328128
 31
0.0
  0
LINE
  5
92
330
1B
100
AcDbEntity
 67
     1
  8
0
  6
Continuous
 62
     7
370
    18
100
AcDbLine
 10
4.3022368905
 20
39.6280491243
 30
0.0
 11
4.0957489429
 21
39.6280491243
 31
0.0
  0
LINE
  5
93
330
1B
100
AcDbEntity
 67
     1
  8
0
  6
Continuous
 62
     7
370
    18
100
AcDbLine
 10
4.3022368905
 20
39.6944328128
 30
0.0
 11
4.0957489429
 21
39.6944328128
 31
0.0
  0
LINE
  5
94
330
1B
100
AcDbEntity
 67
     1
  8
0
  6
Continuous
 62
     7
370
    18
100
AcDbLine
 10
3.4023543411
 20
40.3250778538
 30
0.0
 11
3.6450424518
 21
40.3250778538
 31
0.0
  0
LINE
  5
95
330
1B
100
AcDbEntity
 67
     1
  8
0
  6
Continuous
 62
     7
370
    18
100
AcDbLine
 10
2.1195743278
 20
40.3250778538
 30
0.0
 11
2.5471676656
 21
40.3250778538
 31
0.0
  0
LINE
  5
96
330
1B
100
AcDbEntity
 67
     1
  8
0
  6
Continuous
 62
     7
370
    18
100
AcDbLine
 10
3.0441004635
 20
40.3250778538
 30
0.0
 11
3.2867885742
 21
40.3250778538
 31
0.0
  0
LINE
  5
97
330
1B
100
AcDbEntity
 67
     1
  8
0
  6
Continuous
 62
     7
370
    18
100
AcDbLine
 10
3.9165953495
 20
40.3250778538
 30
0.0
 11
4.0817429598
 21
40.3250778538
 31
0.0
  0
LINE
  5
98
330
1B
100
AcDbEntity
 67
     1
  8
0
  6
Continuous
 62
     7
370
    18
100
AcDbLine
 10
7.579635
 20
40.6503658537
 30
0.0
 11
7.579635
 21
38.6203658537
 31
0.0
  0
LINE
  5
99
330
1B
100
AcDbEntity
 67
     1
  8
0
  6
Continuous
 62
     7
370
    18
100
AcDbLine
 10
1.649635
 20
40.9603658537
 30
0.0
 11
53.149635
 21
40.9603658537
 31
0.0
  0
ARC
  5
9A
330
1B
100
AcDbEntity
 67
     1
  8
0
  6
Continuous
 62
     7
370
    18
100
AcDbCircle
 10
2.5471676656
 20
40.0097553333
 30
0.0
 40
0.3153225204928916
100
AcDbArc
 50
270.0
 51
90.0
  0
ARC
  5
9B
330
1B
100
AcDbEntity
 67
     1
  8
0
  6
Continuous
 62
     7
370
    18
100
AcDbCircle
 10
4.0817429598
 20
39.8603920341
 30
0.0
 40
0.4646858196737256
100
AcDbArc
 50
0.0
 51
90.0
  0
ARC
  5
9C
330
1B
100
AcDbEntity
 67
     1
  8
0
  6
Continuous
 62
     7
370
    18
100
AcDbCircle
 10
2.5471676656
 20
39.3127266038
 30
0.0
 40
0.3153225204928916
100
AcDbArc
 50
270.0
 51
90.0
  0
ARC
  5
9D
330
1B
100
AcDbEntity
 67
     1
  8
0
  6
Continuous
 62
     7
370
    18
100
AcDbCircle
 10
3.1270800742
 20
39.0803836939
 30
0.0
 40
0.082979610656047
100
AcDbArc
 50
180.0
 51
270.0
  0
ARC
  5
9E
330
1B
100
AcDbEntity
 67
     1
  8
0
  6
Continuous
 62
     7
370
    18
100
AcDbCircle
 10
3.3359706526
 20
39.2140232689
 30
0.0
 40
0.0663836885248014
100
AcDbArc
 50
277.4442840976
 51
0.0
  0
ARC
  5
9F
330
1B
100
AcDbEntity
 67
     1
  8
0
  6
Continuous
 62
     7
370
    18
100
AcDbCircle
 10
3.3531722627
 20
39.2140232689
 30
0.0
 40
0.0663836885248547
100
AcDbArc
 50
180.0
 51
262.5557159021
  0
ARC
  5
A0
330
1B
100
AcDbEntity
 67
     1
  8
0
  6
Continuous
 62
     7
370
    18
100
AcDbCircle
 10
4.0817429598
 20
39.462089903
 30
0.0
 40
0.4646858196737256
100
AcDbArc
 50
270.0
 51
0.0
  0
ARC
  5
A1
330
1B
100
AcDbEntity
 67
     1
  8
0
  6
Continuous
 62
     7
370
    18
100
AcDbCircle
 10
3.5620628411
 20
39.0803836939
 30
0.0
 40
0.0829796106560252
100
AcDbArc
 50
270.0
 51
0.0
  0
INSERT
  5
AA
330
1B
100
AcDbEntity
 67
     1
  8
0
  6
Continuous
 62
     7
370
     0
100
AcDbBlockReference
  2
SW_NOTE_0
 10
3.4699087248
 20
36.3339113646
 30
0.0
  0
INSERT
  5
B2
330
1B
100
AcDbEntity
 67
     1
  8
0
  6
Continuous
 62
     7
370
     0
100
AcDbBlockReference
  2
SW_NOTE_0_1
 10
40.9238011091
 20
23.1140413937
 30
0.0
  0
INSERT
  5
BC
330
1B
100
AcDbEntity
 67
     1
  8
0
  6
Continuous
 62
     7
370
     0
100
AcDbBlockReference
  2
SW_NOTE_0_2
 10
41.5685199382
 20
14.8907514978
 30
0.0
  0
INSERT
  5
C2
330
1B
100
AcDbEntity
 67
     1
  8
0
  6
Continuous
 62
     7
370
     0
100
AcDbBlockReference
  2
SW_NOTE_0_3
 10
5.1673996692
 20
39.6581396187
 30
0.0
  0
INSERT
  5
C8
330
1B
100
AcDbEntity
 67
     1
  8
0
  6
Continuous
 62
     7
370
     0
100
AcDbBlockReference
  2
SW_NOTE_0_4
 10
27.6969408639
 20
39.5678560462
 30
0.0
  0
INSERT
  5
CE
330
1B
100
AcDbEntity
 67
     1
  8
0
  6
Continuous
 62
     7
370
     0
100
AcDbBlockReference
  2
SW_NOTE_0_5
 10
45.6452459336
 20
39.5998646281
 30
0.0
  0
MTEXT
  5
CF
330
1B
100
AcDbEntity
 67
     1
  8
0
  6
Continuous
 62
     7
370
     0
100
AcDbMText
 10
17.0346007366
 20
40.1117764666
 30
0.0
 40
0.9375
 41
0.0
 71
     2
 72
     1
  1
TOP OR BOTTOM COVER
  7
SLDTEXTSTYLE0
 73
     1
 44
1.0
  0
MTEXT
  5
D0
330
1B
100
AcDbEntity
 67
     1
  8
0
  6
Continuous
 62
     7
370
     0
100
AcDbMText
 10
37.7402154889
 20
40.1290995353
 30
0.0
 40
0.9375
 41
0.0
 71
     2
 72
     1
  1
TBC-14255
  7
SLDTEXTSTYLE0
 73
     1
 44
1.0
  0
MTEXT
  5
D1
330
1B
100
AcDbEntity
 67
     1
  8
0
  6
Continuous
 62
     7
370
     0
100
AcDbMText
 10
50.2752445237
 20
40.114512981
 30
0.0
 40
0.9375
 41
0.0
 71
     2
 72
     1
  1
5-3-21
  7
SLDTEXTSTYLE0
 73
     1
 44
1.0
  0
LINE
  5
D2
330
1B
100
AcDbEntity
 67
     1
  8
0
  6
Continuous
 62
     7
370
    25
100
AcDbLine
 10
37.1517919284
 20
10.2461517732
 30
0.0
 11
37.2167919284
 21
10.2461517732
 31
0.0
  0
LINE
  5
D3
330
1B
100
AcDbEntity
 67
     1
  8
0
  6
Continuous
 62
     7
370
    25
100
AcDbLine
 10
37.2167919284
 20
10.2461517732
 30
0.0
 11
37.2167919284
 21
26.9361517732
 31
0.0
  0
LINE
  5
D4
330
1B
100
AcDbEntity
 67
     1
  8
0
  6
Continuous
 62
     7
370
    25
100
AcDbLine
 10
37.1517919284
 20
26.9361517732
 30
0.0
 11
37.2167919284
 21
26.9361517732
 31
0.0
  0
LINE
  5
D5
330
1B
100
AcDbEntity
 67
     1
  8
0
  6
Continuous
 62
     7
370
    25
100
AcDbLine
 10
11.4067919284
 20
26.9361517732
 30
0.0
 11
11.8730419284
 21
26.9361517732
 31
0.0
  0
LINE
  5
D6
330
1B
100
AcDbEntity
 67
     1
  8
0
  6
Continuous
 62
     7
370
    25
100
AcDbLine
 10
11.8730419284
 20
26.9361517732
 30
0.0
 11
11.8730419284
 21
26.9211517732
 31
0.0
  0
LINE
  5
D7
330
1B
100
AcDbEntity
 67
     1
  8
0
  6
Continuous
 62
     7
370
    25
100
AcDbLine
 10
36.6855419284
 20
26.9211517732
 30
0.0
 11
36.6855419284
 21
26.9361517732
 31
0.0
  0
LINE
  5
D8
330
1B
100
AcDbEntity
 67
     1
  8
0
  6
Continuous
 62
     7
370
    25
100
AcDbLine
 10
36.6855419284
 20
26.9361517732
 30
0.0
 11
37.1517919284
 21
26.9361517732
 31
0.0
  0
LINE
  5
D9
330
1B
100
AcDbEntity
 67
     1
  8
0
  6
Continuous
 62
     7
370
    25
100
AcDbLine
 10
36.6855419284
 20
10.2461517732
 30
0.0
 11
37.1517919284
 21
10.2461517732
 31
0.0
  0
LINE
  5
DA
330
1B
100
AcDbEntity
 67
     1
  8
0
  6
Continuous
 62
     7
370
    25
100
AcDbLine
 10
36.6855419284
 20
10.2611517732
 30
0.0
 11
36.6855419284
 21
10.2461517732
 31
0.0
  0
LINE
  5
DB
330
1B
100
AcDbEntity
 67
     1
  8
0
  6
Continuous
 62
     7
370
    25
100
AcDbLine
 10
11.8730419284
 20
10.2461517732
 30
0.0
 11
11.8730419284
 21
10.2611517732
 31
0.0
  0
LINE
  5
DC
330
1B
100
AcDbEntity
 67
     1
  8
0
  6
Continuous
 62
     7
370
    25
100
AcDbLine
 10
11.4067919284
 20
10.2461517732
 30
0.0
 11
11.8730419284
 21
10.2461517732
 31
0.0
  0
LINE
  5
DD
330
1B
100
AcDbEntity
 67
     1
  8
0
  6
Continuous
 62
     7
370
    25
100
AcDbLine
 10
11.8730419284
 20
26.9861517732
 30
0.0
 11
11.8730419284
 21
26.9361517732
 31
0.0
  0
LINE
  5
DE
330
1B
100
AcDbEntity
 67
     1
  8
0
  6
Continuous
 62
     7
370
    25
100
AcDbLine
 10
36.6855419284
 20
26.9861517732
 30
0.0
 11
11.8730419284
 21
26.9861517732
 31
0.0
  0
LINE
  5
DF
330
1B
100
AcDbEntity
 67
     1
  8
0
  6
Continuous
 62
     7
370
    25
100
AcDbLine
 10
36.6855419284
 20
26.9361517732
 30
0.0
 11
36.6855419284
 21
26.9861517732
 31
0.0
  0
LINE
  5
E0
330
1B
100
AcDbEntity
 67
     1
  8
0
  6
Continuous
 62
     7
370
    25
100
AcDbLine
 10
36.6855419284
 20
10.2461517732
 30
0.0
 11
36.6855419284
 21
10.1961517732
 31
0.0
  0
LINE
  5
E1
330
1B
100
AcDbEntity
 67
     1
  8
0
  6
Continuous
 62
     7
370
    25
100
AcDbLine
 10
36.6855419284
 20
10.1961517732
 30
0.0
 11
11.8730419284
 21
10.1961517732
 31
0.0
  0
LINE
  5
E2
330
1B
100
AcDbEntity
 67
     1
  8
0
  6
Continuous
 62
     7
370
    25
100
AcDbLine
 10
11.8730419284
 20
10.1961517732
 30
0.0
 11
11.8730419284
 21
10.2461517732
 31
0.0
  0
LINE
  5
E3
330
1B
100
AcDbEntity
 67
     1
  8
0
  6
Continuous
 62
     7
370
    25
100
AcDbLine
 10
11.3417919284
 20
10.2461517732
 30
0.0
 11
11.3417919284
 21
26.9361517732
 31
0.0
  0
LINE
  5
E4
330
1B
100
AcDbEntity
 67
     1
  8
0
  6
Continuous
 62
     7
370
    25
100
AcDbLine
 10
11.3417919284
 20
26.9361517732
 30
0.0
 11
11.4067919284
 21
26.9361517732
 31
0.0
  0
LINE
  5
E5
330
1B
100
AcDbEntity
 67
     1
  8
0
  6
Continuous
 62
     7
370
    25
100
AcDbLine
 10
11.3417919284
 20
10.2461517732
 30
0.0
 11
11.4067919284
 21
10.2461517732
 31
0.0
  0
LINE
  5
E6
330
1B
100
AcDbEntity
 67
     1
  8
0
  6
HIDDEN
 62
     7
370
    18
100
AcDbLine
 10
37.1667919284
 20
10.2461517732
 30
0.0
 11
37.1667919284
 21
26.9361517732
 31
0.0
  0
LINE
  5
E7
330
1B
100
AcDbEntity
 67
     1
  8
0
  6
HIDDEN
 62
     7
370
    18
100
AcDbLine
 10
36.6855419284
 20
10.2461517732
 30
0.0
 11
11.8730419284
 21
10.2461517732
 31
0.0
  0
LINE
  5
E8
330
1B
100
AcDbEntity
 67
     1
  8
0
  6
HIDDEN
 62
     7
370
    18
100
AcDbLine
 10
36.6855419284
 20
26.9361517732
 30
0.0
 11
11.8730419284
 21
26.9361517732
 31
0.0
  0
LINE
  5
E9
330
1B
100
AcDbEntity
 67
     1
  8
0
  6
HIDDEN
 62
     7
370
    18
100
AcDbLine
 10
11.3917919284
 20
10.2461517732
 30
0.0
 11
11.3917919284
 21
26.9361517732
 31
0.0
  0
LINE
  5
EA
330
1B
100
AcDbEntity
 67
     1
  8
0
  6
HIDDEN
 62
     7
370
    18
100
AcDbLine
 10
36.8417919284
 20
10.2461517732
 30
0.0
 11
36.8417919284
 21
26.9361517732
 31
0.0
  0
LINE
  5
EB
330
1B
100
AcDbEntity
 67
     1
  8
0
  6
HIDDEN
 62
     7
370
    18
100
AcDbLine
 10
11.7167919284
 20
10.2461517732
 30
0.0
 11
11.7167919284
 21
26.9361517732
 31
0.0
  0
LINE
  5
EC
330
1B
100
AcDbEntity
 67
     1
  8
0
  6
HIDDEN
 62
     7
370
    18
100
AcDbLine
 10
20.4017919284
 20
10.1961517732
 30
0.0
 11
20.4017919284
 21
10.2461517732
 31
0.0
  0
LINE
  5
ED
330
1B
100
AcDbEntity
 67
     1
  8
0
  6
HIDDEN
 62
     7
370
    18
100
AcDbLine
 10
20.2817919284
 20
10.2461517732
 30
0.0
 11
20.2817919284
 21
10.1961517732
 31
0.0
  0
LINE
  5
EE
330
1B
100
AcDbEntity
 67
     1
  8
0
  6
HIDDEN
 62
     7
370
    18
100
AcDbLine
 10
20.2817919284
 20
26.9861517732
 30
0.0
 11
20.2817919284
 21
26.9361517732
 31
0.0
  0
LINE
  5
EF
330
1B
100
AcDbEntity
 67
     1
  8
0
  6
HIDDEN
 62
     7
370
    18
100
AcDbLine
 10
20.4017919284
 20
26.9361517732
 30
0.0
 11
20.4017919284
 21
26.9861517732
 31
0.0
  0
LINE
  5
F0
330
1B
100
AcDbEntity
 67
     1
  8
0
  6
HIDDEN
 62
     7
370
    18
100
AcDbLine
 10
36.2767919284
 20
10.1961517732
 30
0.0
 11
36.2767919284
 21
10.2461517732
 31
0.0
  0
LINE
  5
F1
330
1B
100
AcDbEntity
 67
     1
  8
0
  6
HIDDEN
 62
     7
370
    18
100
AcDbLine
 10
36.1567919284
 20
10.2461517732
 30
0.0
 11
36.1567919284
 21
10.1961517732
 31
0.0
  0
LINE
  5
F2
330
1B
100
AcDbEntity
 67
     1
  8
0
  6
HIDDEN
 62
     7
370
    18
100
AcDbLine
 10
36.1567919284
 20
26.9861517732
 30
0.0
 11
36.1567919284
 21
26.9361517732
 31
0.0
  0
LINE
  5
F3
330
1B
100
AcDbEntity
 67
     1
  8
0
  6
HIDDEN
 62
     7
370
    18
100
AcDbLine
 10
36.2767919284
 20
26.9361517732
 30
0.0
 11
36.2767919284
 21
26.9861517732
 31
0.0
  0
LINE
  5
F4
330
1B
100
AcDbEntity
 67
     1
  8
0
  6
HIDDEN
 62
     7
370
    18
100
AcDbLine
 10
12.2817919284
 20
26.9861517732
 30
0.0
 11
12.2817919284
 21
26.9361517732
 31
0.0
  0
LINE
  5
F5
330
1B
100
AcDbEntity
 67
     1
  8
0
  6
HIDDEN
 62
     7
370
    18
100
AcDbLine
 10
12.4017919284
 20
26.9361517732
 30
0.0
 11
12.4017919284
 21
26.9861517732
 31
0.0
  0
LINE
  5
F6
330
1B
100
AcDbEntity
 67
     1
  8
0
  6
HIDDEN
 62
     7
370
    18
100
AcDbLine
 10
12.4017919284
 20
10.1961517732
 30
0.0
 11
12.4017919284
 21
10.2461517732
 31
0.0
  0
LINE
  5
F7
330
1B
100
AcDbEntity
 67
     1
  8
0
  6
HIDDEN
 62
     7
370
    18
100
AcDbLine
 10
12.2817919284
 20
10.2461517732
 30
0.0
 11
12.2817919284
 21
10.1961517732
 31
0.0
  0
LINE
  5
F8
330
1B
100
AcDbEntity
 67
     1
  8
0
  6
HIDDEN
 62
     7
370
    18
100
AcDbLine
 10
28.2767919284
 20
10.1961517732
 30
0.0
 11
28.2767919284
 21
10.2461517732
 31
0.0
  0
LINE
  5
F9
330
1B
100
AcDbEntity
 67
     1
  8
0
  6
HIDDEN
 62
     7
370
    18
100
AcDbLine
 10
28.1567919284
 20
10.2461517732
 30
0.0
 11
28.1567919284
 21
10.1961517732
 31
0.0
  0
LINE
  5
FA
330
1B
100
AcDbEntity
 67
     1
  8
0
  6
HIDDEN
 62
     7
370
    18
100
AcDbLine
 10
28.1567919284
 20
26.9861517732
 30
0.0
 11
28.1567919284
 21
26.9361517732
 31
0.0
  0
LINE
  5
FB
330
1B
100
AcDbEntity
 67
     1
  8
0
  6
HIDDEN
 62
     7
370
    18
100
AcDbLine
 10
28.2767919284
 20
26.9361517732
 30
0.0
 11
28.2767919284
 21
26.9861517732
 31
0.0
  0
DIMENSION
  5
FC
330
1B
100
AcDbEntity
 67
     1
  8
0
  6
Continuous
 62
     7
370
    18
100
AcDbDimension
  2
_D
 10
9.0412229939
 20
10.1961517732
 30
0.0
 11
9.0412229939
 21
18.5911517732
 31
0.0
 70
   160
  1
<>
 71
     2
 42
-1.0
  3
SLDDIMSTYLE0
100
AcDbAlignedDimension
 13
11.8730419284
 23
26.9861517732
 33
0.0
 14
11.8730419284
 24
10.1961517732
 34
0.0
 50
90.0
100
AcDbRotatedDimension
  0
DIMENSION
  5
111
330
1B
100
AcDbEntity
 67
     1
  8
0
  6
Continuous
 62
     7
370
    18
100
AcDbDimension
  2
_D_1
 10
37.2167919284
 20
28.9546557102
 30
0.0
 11
24.2792919284
 21
28.9546557102
 31
0.0
 70
   160
  1
<>
 71
     2
 42
-1.0
  3
SLDDIMSTYLE1
100
AcDbAlignedDimension
 13
11.3417919284
 23
26.9361517732
 33
0.0
 14
37.2167919284
 24
26.9361517732
 34
0.0
 50
0.0
100
AcDbRotatedDimension
  0
LINE
  5
126
330
1B
100
AcDbEntity
 67
     1
  8
0
  6
Continuous
 62
     7
370
    25
100
AcDbLine
 10
11.8730419284
 20
5.7760349544
 30
0.0
 11
11.8730419284
 21
5.4040349544
 31
0.0
  0
CIRCLE
  5
127
330
1B
100
AcDbEntity
 67
     1
  8
0
  6
Continuous
 62
     7
370
    25
100
AcDbCircle
 10
12.3417919284
 20
5.6230349544
 30
0.0
 40
0.0600000000000005
  0
CIRCLE
  5
128
330
1B
100
AcDbEntity
 67
     1
  8
0
  6
Continuous
 62
     7
370
    25
100
AcDbCircle
 10
28.2167919284
 20
5.6230349544
 30
0.0
 40
0.0600000000000005
  0
CIRCLE
  5
129
330
1B
100
AcDbEntity
 67
     1
  8
0
  6
Continuous
 62
     7
370
    25
100
AcDbCircle
 10
36.2167919284
 20
5.6230349544
 30
0.0
 40
0.0599999999999996
  0
CIRCLE
  5
12A
330
1B
100
AcDbEntity
 67
     1
  8
0
  6
Continuous
 62
     7
370
    25
100
AcDbCircle
 10
20.3417919284
 20
5.6230349544
 30
0.0
 40
0.0599999999999996
  0
LINE
  5
12B
330
1B
100
AcDbEntity
 67
     1
  8
0
  6
Continuous
 62
     7
370
    25
100
AcDbLine
 10
11.8730419284
 20
5.4040349544
 30
0.0
 11
36.6855419284
 21
5.4040349544
 31
0.0
  0
LINE
  5
12C
330
1B
100
AcDbEntity
 67
     1
  8
0
  6
Continuous
 62
     7
370
    25
100
AcDbLine
 10
36.6855419284
 20
5.4040349544
 30
0.0
 11
36.6855419284
 21
5.7760349544
 31
0.0
  0
LINE
  5
12D
330
1B
100
AcDbEntity
 67
     1
  8
0
  6
Continuous
 62
     7
370
    25
100
AcDbLine
 10
36.6855419284
 20
5.8392805076
 30
0.0
 11
36.6855419284
 21
5.7760349544
 31
0.0
  0
LINE
  5
12E
330
1B
100
AcDbEntity
 67
     1
  8
0
  6
Continuous
 62
     7
370
    25
100
AcDbLine
 10
11.8730419284
 20
5.7760349544
 30
0.0
 11
11.8730419284
 21
5.8392805076
 31
0.0
  0
LINE
  5
12F
330
1B
100
AcDbEntity
 67
     1
  8
0
  6
Continuous
 62
     7
370
    25
100
AcDbLine
 10
11.8730419284
 20
5.8410349544
 30
0.0
 11
36.6855419284
 21
5.8410349544
 31
0.0
  0
LINE
  5
130
330
1B
100
AcDbEntity
 67
     1
  8
0
  6
Continuous
 62
     7
370
    25
100
AcDbLine
 10
37.1667919284
 20
5.7760349544
 30
0.0
 11
37.1667919284
 21
5.4690349544
 31
0.0
  0
LINE
  5
131
330
1B
100
AcDbEntity
 67
     1
  8
0
  6
Continuous
 62
     7
370
    25
100
AcDbLine
 10
37.2167919284
 20
5.7760349544
 30
0.0
 11
37.2167919284
 21
5.4690349544
 31
0.0
  0
ARC
  5
132
330
1B
100
AcDbEntity
 67
     1
  8
0
  6
Continuous
 62
     7
370
    25
100
AcDbCircle
 10
37.1517919284
 20
5.4690349544
 30
0.0
 40
0.0650000000000048
100
AcDbArc
 50
270.0
 51
0.0
  0
ARC
  5
133
330
1B
100
AcDbEntity
 67
     1
  8
0
  6
Continuous
 62
     7
370
    25
100
AcDbCircle
 10
37.1517919284
 20
5.4690349544
 30
0.0
 40
0.0150000000000077
100
AcDbArc
 50
270.0
 51
0.0
  0
LINE
  5
134
330
1B
100
AcDbEntity
 67
     1
  8
0
  6
Continuous
 62
     7
370
    25
100
AcDbLine
 10
36.8417919284
 20
5.4040349544
 30
0.0
 11
36.8417919284
 21
5.4540349544
 31
0.0
  0
LINE
  5
135
330
1B
100
AcDbEntity
 67
     1
  8
0
  6
Continuous
 62
     7
370
    25
100
AcDbLine
 10
37.1517919284
 20
5.4040349544
 30
0.0
 11
36.8417919284
 21
5.4040349544
 31
0.0
  0
LINE
  5
136
330
1B
100
AcDbEntity
 67
     1
  8
0
  6
Continuous
 62
     7
370
    25
100
AcDbLine
 10
37.1517919284
 20
5.4540349544
 30
0.0
 11
36.8417919284
 21
5.4540349544
 31
0.0
  0
ARC
  5
137
330
1B
100
AcDbEntity
 67
     1
  8
0
  6
Continuous
 62
     7
370
    25
100
AcDbCircle
 10
37.1517919284
 20
5.7760349544
 30
0.0
 40
0.0150000000000077
100
AcDbArc
 50
0.0
 51
90.0
  0
ARC
  5
138
330
1B
100
AcDbEntity
 67
     1
  8
0
  6
Continuous
 62
     7
370
    25
100
AcDbCircle
 10
37.1517919284
 20
5.7760349544
 30
0.0
 40
0.0650000000000048
100
AcDbArc
 50
0.0
 51
90.0
  0
LINE
  5
139
330
1B
100
AcDbEntity
 67
     1
  8
0
  6
Continuous
 62
     7
370
    25
100
AcDbLine
 10
36.6855419284
 20
5.8392805076
 30
0.0
 11
36.6855419284
 21
5.8410349544
 31
0.0
  0
LINE
  5
13A
330
1B
100
AcDbEntity
 67
     1
  8
0
  6
Continuous
 62
     7
370
    25
100
AcDbLine
 10
36.6855419284
 20
5.8410349544
 30
0.0
 11
37.1517919284
 21
5.8410349544
 31
0.0
  0
LINE
  5
13B
330
1B
100
AcDbEntity
 67
     1
  8
0
  6
Continuous
 62
     7
370
    25
100
AcDbLine
 10
36.6855419284
 20
5.7910349544
 30
0.0
 11
37.1517919284
 21
5.7910349544
 31
0.0
  0
LINE
  5
13C
330
1B
100
AcDbEntity
 67
     1
  8
0
  6
Continuous
 62
     7
370
    25
100
AcDbLine
 10
11.7167919284
 20
5.4540349544
 30
0.0
 11
11.7167919284
 21
5.4040349544
 31
0.0
  0
LINE
  5
13D
330
1B
100
AcDbEntity
 67
     1
  8
0
  6
Continuous
 62
     7
370
    25
100
AcDbLine
 10
11.7167919284
 20
5.4040349544
 30
0.0
 11
11.4067919284
 21
5.4040349544
 31
0.0
  0
LINE
  5
13E
330
1B
100
AcDbEntity
 67
     1
  8
0
  6
Continuous
 62
     7
370
    25
100
AcDbLine
 10
11.7167919284
 20
5.4540349544
 30
0.0
 11
11.4067919284
 21
5.4540349544
 31
0.0
  0
LINE
  5
13F
330
1B
100
AcDbEntity
 67
     1
  8
0
  6
Continuous
 62
     7
370
    25
100
AcDbLine
 10
11.8730419284
 20
5.8392805076
 30
0.0
 11
11.8730419284
 21
5.8410349544
 31
0.0
  0
LINE
  5
140
330
1B
100
AcDbEntity
 67
     1
  8
0
  6
Continuous
 62
     7
370
    25
100
AcDbLine
 10
11.4067919284
 20
5.8410349544
 30
0.0
 11
11.8730419284
 21
5.8410349544
 31
0.0
  0
LINE
  5
141
330
1B
100
AcDbEntity
 67
     1
  8
0
  6
Continuous
 62
     7
370
    25
100
AcDbLine
 10
11.4067919284
 20
5.7910349544
 30
0.0
 11
11.8730419284
 21
5.7910349544
 31
0.0
  0
LINE
  5
142
330
1B
100
AcDbEntity
 67
     1
  8
0
  6
Continuous
 62
     7
370
    25
100
AcDbLine
 10
11.3417919284
 20
5.4690349544
 30
0.0
 11
11.3417919284
 21
5.7760349544
 31
0.0
  0
LINE
  5
143
330
1B
100
AcDbEntity
 67
     1
  8
0
  6
Continuous
 62
     7
370
    25
100
AcDbLine
 10
11.3917919284
 20
5.4690349544
 30
0.0
 11
11.3917919284
 21
5.7760349544
 31
0.0
  0
ARC
  5
144
330
1B
100
AcDbEntity
 67
     1
  8
0
  6
Continuous
 62
     7
370
    25
100
AcDbCircle
 10
11.4067919284
 20
5.4690349544
 30
0.0
 40
0.0649999999999995
100
AcDbArc
 50
180.0
 51
270.0
  0
ARC
  5
145
330
1B
100
AcDbEntity
 67
     1
  8
0
  6
Continuous
 62
     7
370
    25
100
AcDbCircle
 10
11.4067919284
 20
5.4690349544
 30
0.0
 40
0.0150000000000006
100
AcDbArc
 50
180.0
 51
270.0
  0
ARC
  5
146
330
1B
100
AcDbEntity
 67
     1
  8
0
  6
Continuous
 62
     7
370
    25
100
AcDbCircle
 10
11.4067919284
 20
5.7760349544
 30
0.0
 40
0.0150000000000006
100
AcDbArc
 50
90.0
 51
180.0
  0
ARC
  5
147
330
1B
100
AcDbEntity
 67
     1
  8
0
  6
Continuous
 62
     7
370
    25
100
AcDbCircle
 10
11.4067919284
 20
5.7760349544
 30
0.0
 40
0.0650000000000031
100
AcDbArc
 50
90.0
 51
180.0
  0
LINE
  5
148
330
1B
100
AcDbEntity
 67
     1
  8
0
  6
HIDDEN
 62
     7
370
    18
100
AcDbLine
 10
11.8730419284
 20
5.7910349544
 30
0.0
 11
36.6855419284
 21
5.7910349544
 31
0.0
  0
DIMENSION
  5
149
330
1B
100
AcDbEntity
 67
     1
  8
0
  6
Continuous
 62
     7
370
    18
100
AcDbDimension
  2
_D_2
 10
9.7198563538
 20
5.4040349544
 30
0.0
 11
9.7198563538
 21
3.8371526944
 31
0.0
 70
   160
  1
<>
 71
     2
 42
-1.0
  3
SLDDIMSTYLE2
100
AcDbAlignedDimension
 13
12.3417919284
 23
5.6230349544
 33
0.0
 14
11.4067919284
 24
5.4040349544
 34
0.0
 50
90.0
100
AcDbRotatedDimension
  0
DIMENSION
  5
15F
330
1B
100
AcDbEntity
 67
     1
  8
0
  6
Continuous
 62
     7
370
    18
100
AcDbDimension
  2
_D_3
 10
12.3166614537
 20
5.6775185229
 30
0.0
 11
15.163571751
 21
3.6342356702
 31
0.0
 70
   163
  1
<>
 71
     1
 42
-1.0
  3
SLDDIMSTYLE3
100
AcDbDiametricDimension
 15
12.3669224032
 25
5.5685513859
 35
0.0
 40
0.0
  0
DIMENSION
  5
170
330
1B
100
AcDbEntity
 67
     1
  8
0
  6
Continuous
 62
     7
370
    18
100
AcDbDimension
  2
_D_4
 10
11.3417919284
 20
8.0172516967
 30
0.0
 11
8.4518405855
 21
8.0172516967
 31
0.0
 70
   160
  1
<>
 71
     2
 42
-1.0
  3
SLDDIMSTYLE4
100
AcDbAlignedDimension
 13
12.3417919284
 23
5.6230349544
 33
0.0
 14
11.3417919284
 24
5.7760349544
 34
0.0
100
AcDbRotatedDimension
  0
DIMENSION
  5
185
330
1B
100
AcDbEntity
 67
     1
  8
0
  6
Continuous
 62
     7
370
    18
100
AcDbDimension
  2
_D_5
 10
20.3417919284
 20
8.0172516967
 30
0.0
 11
16.3417919284
 21
8.0172516967
 31
0.0
 70
   160
  1
<>
 71
     2
 42
-1.0
  3
SLDDIMSTYLE0
100
AcDbAlignedDimension
 13
12.3417919284
 23
5.6230349544
 33
0.0
 14
20.3417919284
 24
5.6230349544
 34
0.0
100
AcDbRotatedDimension
  0
DIMENSION
  5
199
330
1B
100
AcDbEntity
 67
     1
  8
0
  6
Continuous
 62
     7
370
    18
100
AcDbDimension
  2
_D_6
 10
28.2167919284
 20
8.0172516967
 30
0.0
 11
24.2792919284
 21
8.0172516967
 31
0.0
 70
   160
  1
<>
 71
     2
 42
-1.0
  3
SLDDIMSTYLE1
100
AcDbAlignedDimension
 13
20.3417919284
 23
5.6230349544
 33
0.0
 14
28.2167919284
 24
5.6230349544
 34
0.0
100
AcDbRotatedDimension
  0
DIMENSION
  5
1AD
330
1B
100
AcDbEntity
 67
     1
  8
0
  6
Continuous
 62
     7
370
    18
100
AcDbDimension
  2
_D_7
 10
36.2167919284
 20
8.0172516967
 30
0.0
 11
32.2167919284
 21
8.0172516967
 31
0.0
 70
   160
  1
<>
 71
     2
 42
-1.0
  3
SLDDIMSTYLE0
100
AcDbAlignedDimension
 13
28.2167919284
 23
5.6230349544
 33
0.0
 14
36.2167919284
 24
5.6230349544
 34
0.0
100
AcDbRotatedDimension
  0
DIMENSION
  5
1C1
330
1B
100
AcDbEntity
 67
     1
  8
0
  6
Continuous
 62
     7
370
    18
100
AcDbDimension
  2
_D_8
 10
38.9219490775
 20
5.8410349544
 30
0.0
 11
38.9219490775
 21
7.1543610092
 31
0.0
 70
   160
  1
<>
 71
     2
 42
-1.0
  3
SLDDIMSTYLE2
100
AcDbAlignedDimension
 13
37.1517919284
 23
5.4040349544
 33
0.0
 14
37.1517919284
 24
5.8410349544
 34
0.0
 50
90.0
100
AcDbRotatedDimension
  0
DIMENSION
  5
1D6
330
1B
100
AcDbEntity
 67
     1
  8
0
  6
Continuous
 62
     7
370
    18
100
AcDbDimension
  2
_D_9
 10
37.2167919284
 20
3.6459879428
 30
0.0
 11
34.0794331972
 21
3.6459879428
 31
0.0
 70
   160
  1
<>
 71
     2
 42
-1.0
  3
SLDDIMSTYLE2
100
AcDbAlignedDimension
 13
36.8417919284
 23
5.4040349544
 33
0.0
 14
37.2167919284
 24
5.4690349544
 34
0.0
100
AcDbRotatedDimension
  0
LINE
  5
1EA
330
1B
100
AcDbEntity
 67
     1
  8
0
  6
Continuous
 62
     7
370
    25
100
AcDbLine
 10
45.4711030235
 20
26.8873159042
 30
0.0
 11
52.8471106347
 21
31.1453944624
 31
0.0
  0
LINE
  5
1EB
330
1B
100
AcDbEntity
 67
     1
  8
0
  6
Continuous
 62
     7
370
    25
100
AcDbLine
 10
52.6344261732
 20
31.4875610009
 30
0.0
 11
41.6687467931
 21
37.8179129617
 31
0.0
  0
LINE
  5
1EC
330
1B
100
AcDbEntity
 67
     1
  8
0
  6
Continuous
 62
     7
370
    25
100
AcDbLine
 10
41.4286988852
 20
37.9406930879
 30
0.0
 11
34.0526912739
 21
33.6826145297
 31
0.0
  0
ARC
  5
1ED
330
1B
100
AcDbEntity
 67
     1
  8
0
  6
Continuous
 62
     7
370
    25
100
AcDbCircle
 10
45.4171502331
 20
27.0597515206
 30
0.0
 40
0.0624326953076512
100
AcDbArc
 50
2.6054784857
 51
57.39452166
  0
LINE
  5
1EE
330
1B
100
AcDbEntity
 67
     1
  8
0
  6
Continuous
 62
     7
370
    25
100
AcDbLine
 10
45.4507921742
 20
27.112344878
 30
0.0
 11
52.8267997855
 21
31.3704234362
 31
0.0
  0
ARC
  5
1EF
330
1B
100
AcDbEntity
 67
     1
  8
0
  6
Continuous
 62
     7
370
    25
100
AcDbCircle
 10
52.7931578443
 20
31.3178300788
 30
0.0
 40
0.0624326953075895
100
AcDbArc
 50
2.6054784856
 51
57.39452166
  0
LINE
  5
1F0
330
1B
100
AcDbEntity
 67
     1
  8
0
  6
Continuous
 62
     7
370
    25
100
AcDbLine
 10
45.4795183872
 20
27.0625896177
 30
0.0
 11
52.8555259985
 21
31.320668176
 31
0.0
  0
ARC
  5
1F1
330
1B
100
AcDbEntity
 67
     1
  8
0
  6
Continuous
 62
     7
370
    25
100
AcDbCircle
 10
45.4430286494
 20
27.074691049
 30
0.0
 40
0.0144075450709625
100
AcDbArc
 50
2.6054784856
 51
57.3945216601
  0
LINE
  5
1F2
330
1B
100
AcDbEntity
 67
     1
  8
0
  6
Continuous
 62
     7
370
    25
100
AcDbLine
 10
45.4507921742
 20
27.0868279776
 30
0.0
 11
45.4507921742
 21
27.112344878
 31
0.0
  0
LINE
  5
1F3
330
1B
100
AcDbEntity
 67
     1
  8
0
  6
Continuous
 62
     7
370
    25
100
AcDbLine
 10
45.4795183872
 20
27.0625896177
 30
0.0
 11
45.4574213003
 21
27.0753459945
 31
0.0
  0
LINE
  5
1F4
330
1B
100
AcDbEntity
 67
     1
  8
0
  6
Continuous
 62
     7
370
    25
100
AcDbLine
 10
45.4795183872
 20
27.0625896177
 30
0.0
 11
45.4795183872
 21
26.9059158495
 31
0.0
  0
LINE
  5
1F5
330
1B
100
AcDbEntity
 67
     1
  8
0
  6
Continuous
 62
     7
370
    25
100
AcDbLine
 10
52.8555259985
 20
31.320668176
 30
0.0
 11
52.8555259985
 21
31.1639944077
 31
0.0
  0
LINE
  5
1F6
330
1B
100
AcDbEntity
 67
     1
  8
0
  6
Continuous
 62
     7
370
    25
100
AcDbLine
 10
45.4795183872
 20
26.9059158495
 30
0.0
 11
52.8555259985
 21
31.1639944077
 31
0.0
  0
LINE
  5
1F7
330
1B
100
AcDbEntity
 67
     1
  8
0
  6
Continuous
 62
     7
370
    25
100
AcDbLine
 10
45.4574213003
 20
26.9186722262
 30
0.0
 11
45.4795183872
 21
26.9059158495
 31
0.0
  0
LINE
  5
1F8
330
1B
100
AcDbEntity
 67
     1
  8
0
  6
Continuous
 62
     7
370
    25
100
AcDbLine
 10
45.4574213003
 20
27.0753459945
 30
0.0
 11
45.4574213003
 21
26.9186722262
 31
0.0
  0
LINE
  5
1F9
330
1B
100
AcDbEntity
 67
     1
  8
0
  6
Continuous
 62
     7
370
    25
100
AcDbLine
 10
34.0730021232
 20
33.6806032651
 30
0.0
 11
41.4490097345
 21
37.9386818234
 31
0.0
  0
LINE
  5
1FA
330
1B
100
AcDbEntity
 67
     1
  8
0
  6
Continuous
 62
     7
370
    25
100
AcDbLine
 10
41.4490097345
 20
37.9386818234
 30
0.0
 11
41.6550650699
 21
37.8197286102
 31
0.0
  0
LINE
  5
1FB
330
1B
100
AcDbEntity
 67
     1
  8
0
  6
Continuous
 62
     7
370
    25
100
AcDbLine
 10
41.6550650699
 20
37.8197286102
 30
0.0
 11
41.6484359438
 21
37.8159016972
 31
0.0
  0
LINE
  5
1FC
330
1B
100
AcDbEntity
 67
     1
  8
0
  6
Continuous
 62
     7
370
    25
100
AcDbLine
 10
41.6484359438
 20
37.8159016972
 30
0.0
 11
52.614115324
 21
31.4855497364
 31
0.0
  0
LINE
  5
1FD
330
1B
100
AcDbEntity
 67
     1
  8
0
  6
Continuous
 62
     7
370
    25
100
AcDbLine
 10
52.614115324
 20
31.4855497364
 30
0.0
 11
52.62074445
 21
31.4893766494
 31
0.0
  0
LINE
  5
1FE
330
1B
100
AcDbEntity
 67
     1
  8
0
  6
Continuous
 62
     7
370
    25
100
AcDbLine
 10
52.62074445
 20
31.4893766494
 30
0.0
 11
52.8267997855
 21
31.3704234362
 31
0.0
  0
LINE
  5
1FF
330
1B
100
AcDbEntity
 67
     1
  8
0
  6
Continuous
 62
     7
370
    25
100
AcDbLine
 10
45.2447368388
 20
27.2312980912
 30
0.0
 11
45.4507921742
 21
27.112344878
 31
0.0
  0
LINE
  5
200
330
1B
100
AcDbEntity
 67
     1
  8
0
  6
Continuous
 62
     7
370
    25
100
AcDbLine
 10
45.2513659648
 20
27.2351250042
 30
0.0
 11
45.2447368388
 21
27.2312980912
 31
0.0
  0
LINE
  5
201
330
1B
100
AcDbEntity
 67
     1
  8
0
  6
Continuous
 62
     7
370
    25
100
AcDbLine
 10
34.2856865847
 20
33.565476965
 30
0.0
 11
45.2513659648
 21
27.2351250042
 31
0.0
  0
LINE
  5
202
330
1B
100
AcDbEntity
 67
     1
  8
0
  6
Continuous
 62
     7
370
    25
100
AcDbLine
 10
34.2790574587
 20
33.561650052
 30
0.0
 11
34.2856865847
 21
33.565476965
 31
0.0
  0
LINE
  5
203
330
1B
100
AcDbEntity
 67
     1
  8
0
  6
Continuous
 62
     7
370
    25
100
AcDbLine
 10
34.0730021232
 20
33.6806032651
 30
0.0
 11
34.2790574587
 21
33.561650052
 31
0.0
  0
LINE
  5
204
330
1B
100
AcDbEntity
 67
     1
  8
0
  6
Continuous
 62
     7
370
    25
100
AcDbLine
 10
45.2447368388
 20
27.2057811908
 30
0.0
 11
45.4507921742
 21
27.0868279776
 31
0.0
  0
LINE
  5
205
330
1B
100
AcDbEntity
 67
     1
  8
0
  6
Continuous
 62
     7
370
    25
100
AcDbLine
 10
45.2447368388
 20
27.2057811908
 30
0.0
 11
45.2447368388
 21
27.2304027303
 31
0.0
  0
LINE
  5
206
330
1B
100
AcDbEntity
 67
     1
  8
0
  6
Continuous
 62
     7
370
    25
100
AcDbLine
 10
45.2447368388
 20
27.2304027303
 30
0.0
 11
45.2447368388
 21
27.2312980912
 31
0.0
  0
ARC
  5
207
330
1B
100
AcDbEntity
 67
     1
  8
0
  6
Continuous
 62
     7
370
    25
100
AcDbCircle
 10
45.462005991
 20
26.9030750571
 30
0.0
 40
0.0177413111455521
100
AcDbArc
 50
230.7967147643
 51
9.2140369904
  0
ARC
  5
208
330
1B
100
AcDbEntity
 67
     1
  8
0
  6
Continuous
 62
     7
370
    25
100
AcDbCircle
 10
52.8362012727
 20
31.161533994
 30
0.0
 40
0.0194807253552705
100
AcDbArc
 50
304.0563508898
 51
7.2558295036
  0
ARC
  5
209
330
1B
100
AcDbEntity
 67
     1
  8
0
  6
Continuous
 62
     7
370
    25
100
AcDbCircle
 10
45.4533799781
 20
26.9180166587
 30
0.0
 40
0.0040941487258909
100
AcDbArc
 50
230.7967147642
 51
9.2140369905
  0
LINE
  5
20A
330
1B
100
AcDbEntity
 67
     1
  8
0
  6
Continuous
 62
     7
370
    25
100
AcDbLine
 10
45.4507921742
 20
26.8893271687
 30
0.0
 11
45.4507921742
 21
26.9148440691
 31
0.0
  0
LINE
  5
20B
330
1B
100
AcDbEntity
 67
     1
  8
0
  6
Continuous
 62
     7
370
    25
100
AcDbLine
 10
45.4507921742
 20
26.9148440691
 30
0.0
 11
45.4574213002
 21
26.9186709821
 31
0.0
  0
LINE
  5
20C
330
1B
100
AcDbEntity
 67
     1
  8
0
  6
Continuous
 62
     7
370
    25
100
AcDbLine
 10
45.4507921742
 20
26.9148440691
 30
0.0
 11
45.3137902354
 21
26.9939336049
 31
0.0
  0
LINE
  5
20D
330
1B
100
AcDbEntity
 67
     1
  8
0
  6
Continuous
 62
     7
370
    25
100
AcDbLine
 10
45.3137902354
 20
26.9939336049
 30
0.0
 11
45.4573128723
 21
27.0767874596
 31
0.0
  0
LINE
  5
20E
330
1B
100
AcDbEntity
 67
     1
  8
0
  6
Continuous
 62
     7
370
    25
100
AcDbLine
 10
45.3137902354
 20
26.9684167046
 30
0.0
 11
45.3137902354
 21
26.9939336049
 31
0.0
  0
LINE
  5
20F
330
1B
100
AcDbEntity
 67
     1
  8
0
  6
Continuous
 62
     7
370
    25
100
AcDbLine
 10
45.4507921742
 20
26.8893271687
 30
0.0
 11
45.3137902354
 21
26.9684167046
 31
0.0
  0
ARC
  5
210
330
1B
100
AcDbEntity
 67
     1
  8
0
  6
Continuous
 62
     7
370
    25
100
AcDbCircle
 10
45.2862158481
 20
27.1821116662
 30
0.0
 40
0.0636595246694103
100
AcDbArc
 50
130.6605203337
 51
177.0663354163
  0
LINE
  5
211
330
1B
100
AcDbEntity
 67
     1
  8
0
  6
Continuous
 62
     7
370
    25
100
AcDbLine
 10
45.2226397519
 20
27.1853697439
 30
0.0
 11
34.2569603717
 21
33.5157217047
 31
0.0
  0
ARC
  5
212
330
1B
100
AcDbEntity
 67
     1
  8
0
  6
Continuous
 62
     7
370
    25
100
AcDbCircle
 10
34.320536468
 20
33.512463627
 30
0.0
 40
0.0636595246694296
100
AcDbArc
 50
130.6605203337
 51
177.0663354163
  0
ARC
  5
213
330
1B
100
AcDbEntity
 67
     1
  8
0
  6
Continuous
 62
     7
370
    25
100
AcDbCircle
 10
34.3083840957
 20
33.5266000898
 30
0.0
 40
0.0450176457000398
100
AcDbArc
 50
120.2776920335
 51
130.6508334068
  0
LINE
  5
214
330
1B
100
AcDbEntity
 67
     1
  8
0
  6
Continuous
 62
     7
370
    25
100
AcDbLine
 10
45.2447368388
 20
27.1981261207
 30
0.0
 11
45.2226397519
 21
27.1853697439
 31
0.0
  0
ARC
  5
215
330
1B
100
AcDbEntity
 67
     1
  8
0
  6
Continuous
 62
     7
370
    25
100
AcDbCircle
 10
45.2582552621
 20
27.1976643229
 30
0.0
 40
0.0135263086313273
100
AcDbArc
 50
148.8562722007
 51
178.0435013569
  0
LINE
  5
216
330
1B
100
AcDbEntity
 67
     1
  8
0
  6
Continuous
 62
     7
370
    25
100
AcDbLine
 10
45.2447368388
 20
27.0082803819
 30
0.0
 11
45.2447368388
 21
27.1981261207
 31
0.0
  0
LINE
  5
217
330
1B
100
AcDbEntity
 67
     1
  8
0
  6
Continuous
 62
     7
370
    25
100
AcDbLine
 10
45.2226397519
 20
26.9955240052
 30
0.0
 11
45.2447368388
 21
27.0082803819
 31
0.0
  0
LINE
  5
218
330
1B
100
AcDbEntity
 67
     1
  8
0
  6
Continuous
 62
     7
370
    25
100
AcDbLine
 10
45.2226397519
 20
26.9955240052
 30
0.0
 11
45.2226397519
 21
27.1853697439
 31
0.0
  0
LINE
  5
219
330
1B
100
AcDbEntity
 67
     1
  8
0
  6
Continuous
 62
     7
370
    25
100
AcDbLine
 10
34.2569603717
 20
33.325875966
 30
0.0
 11
45.2226397519
 21
26.9955240052
 31
0.0
  0
LINE
  5
21A
330
1B
100
AcDbEntity
 67
     1
  8
0
  6
Continuous
 62
     7
370
    25
100
AcDbLine
 10
34.2569603717
 20
33.5157217047
 30
0.0
 11
34.2569603717
 21
33.325875966
 31
0.0
  0
LWPOLYLINE
  5
21B
330
1B
100
AcDbEntity
 67
     1
  8
0
  6
Continuous
 62
     7
370
    25
100
AcDbPolyline
 90
       17
 70
   128
 43
0.0
 10
34.4641205615
 20
33.348669238
 10
34.4539731347
 20
33.3521963928
 10
34.4453705615
 20
33.3505249101
 10
34.439622506
 20
33.3439092581
 10
34.4376040572
 20
33.3333566097
 10
34.439622506
 20
33.32047351
 10
34.4453705615
 20
33.3072212943
 10
34.4539731347
 20
33.2956174921
 10
34.4641205615
 20
33.2874286772
 10
34.4742679884
 20
33.2839015224
 10
34.4828705615
 20
33.285573005
 10
34.4886186171
 20
33.2921886571
 10
34.4906370658
 20
33.3027413055
 10
34.4886186171
 20
33.3156244052
 10
34.4828705615
 20
33.3288766209
 10
34.4742679884
 20
33.3404804231
 10
34.4641205615
 20
33.348669238
  0
LWPOLYLINE
  5
21C
330
1B
100
AcDbEntity
 67
     1
  8
0
  6
Continuous
 62
     7
370
    25
100
AcDbPolyline
 90
       17
 70
   128
 43
0.0
 10
41.4799456561
 20
29.2985196208
 10
41.4697982293
 20
29.3020467756
 10
41.4611956561
 20
29.3003752929
 10
41.4554476005
 20
29.2937596408
 10
41.4534291518
 20
29.2832069924
 10
41.4554476005
 20
29.2703238928
 10
41.4611956561
 20
29.257071677
 10
41.4697982293
 20
29.2454678748
 10
41.4799456561
 20
29.2372790599
 10
41.490093083
 20
29.2337519051
 10
41.4986956561
 20
29.2354233878
 10
41.5044437117
 20
29.2420390399
 10
41.5064621604
 20
29.2525916883
 10
41.5044437117
 20
29.2654747879
 10
41.4986956561
 20
29.2787270037
 10
41.490093083
 20
29.2903308059
 10
41.4799456561
 20
29.2985196208
  0
LWPOLYLINE
  5
21D
330
1B
100
AcDbEntity
 67
     1
  8
0
  6
Continuous
 62
     7
370
    25
100
AcDbPolyline
 90
       17
 70
   128
 43
0.0
 10
45.0154795621
 20
27.2574993412
 10
45.0053321352
 20
27.261026496
 10
44.9967295621
 20
27.2593550133
 10
44.9909815065
 20
27.2527393613
 10
44.9889630578
 20
27.2421867129
 10
44.9909815065
 20
27.2293036132
 10
44.9967295621
 20
27.2160513975
 10
45.0053321352
 20
27.2044475953
 10
45.0154795621
 20
27.1962587803
 10
45.0256269889
 20
27.1927316256
 10
45.0342295621
 20
27.1944031082
 10
45.0399776177
 20
27.2010187603
 10
45.0419960664
 20
27.2115714087
 10
45.0399776177
 20
27.2244545084
 10
45.0342295621
 20
27.2377067241
 10
45.0256269889
 20
27.2493105263
 10
45.0154795621
 20
27.2574993412
  0
LWPOLYLINE
  5
21E
330
1B
100
AcDbEntity
 67
     1
  8
0
  6
Continuous
 62
     7
370
    25
100
AcDbPolyline
 90
       17
 70
   128
 43
0.0
 10
37.9996544675
 20
31.3076489585
 10
37.9895070406
 20
31.3111761133
 10
37.9809044675
 20
31.3095046306
 10
37.9751564119
 20
31.3028889785
 10
37.9731379632
 20
31.2923363301
 10
37.9751564119
 20
31.2794532305
 10
37.9809044675
 20
31.2662010147
 10
37.9895070406
 20
31.2545972125
 10
37.9996544675
 20
31.2464083976
 10
38.0098018944
 20
31.2428812428
 10
38.0184044675
 20
31.2445527255
 10
38.0241525231
 20
31.2511683776
 10
38.0261709718
 20
31.2617210259
 10
38.0241525231
 20
31.2746041256
 10
38.0184044675
 20
31.2878563414
 10
38.0098018944
 20
31.2994601436
 10
37.9996544675
 20
31.3076489585
  0
ARC
  5
21F
330
1B
100
AcDbEntity
 67
     1
  8
0
  6
Continuous
 62
     7
370
    25
100
AcDbCircle
 10
45.0637110057
 20
27.2547224805
 30
0.0
 40
0.0525487613667654
100
AcDbArc
 50
174.7859634692
 51
245.2086599981
  0
ARC
  5
220
330
1B
100
AcDbEntity
 67
     1
  8
0
  6
Continuous
 62
     7
370
    25
100
AcDbCircle
 10
41.5281770998
 20
29.2957427601
 30
0.0
 40
0.052548761366752
100
AcDbArc
 50
174.7859634691
 51
245.2086599982
  0
ARC
  5
221
330
1B
100
AcDbEntity
 67
     1
  8
0
  6
Continuous
 62
     7
370
    25
100
AcDbCircle
 10
38.0478859111
 20
31.3048720978
 30
0.0
 40
0.0525487613668892
100
AcDbArc
 50
174.7859634695
 51
245.2086599978
  0
ARC
  5
222
330
1B
100
AcDbEntity
 67
     1
  8
0
  6
Continuous
 62
     7
370
    25
100
AcDbCircle
 10
41.6645406227
 20
37.7884451527
 30
0.0
 40
0.0318311563667376
100
AcDbArc
 50
107.3184139224
 51
120.3938209346
  0
ARC
  5
223
330
1B
100
AcDbEntity
 67
     1
  8
0
  6
Continuous
 62
     7
370
    25
100
AcDbCircle
 10
41.6608811075
 20
37.8031372611
 30
0.0
 40
0.016738886990486
100
AcDbArc
 50
61.9718741429
 51
110.3318310604
  0
ARC
  5
224
330
1B
100
AcDbEntity
 67
     1
  8
0
  6
Continuous
 62
     7
370
    25
100
AcDbCircle
 10
52.6264829685
 20
31.4738014759
 30
0.0
 40
0.0156912897630967
100
AcDbArc
 50
12.5966280806
 51
107.408748452
  0
ARC
  5
225
330
1B
100
AcDbEntity
 67
     1
  8
0
  6
Continuous
 62
     7
370
    25
100
AcDbCircle
 10
34.5123520052
 20
33.3458923773
 30
0.0
 40
0.0525487613667609
100
AcDbArc
 50
174.7859634692
 51
245.2086599981
  0
LINE
  5
226
330
1B
100
AcDbEntity
 67
     1
  8
0
  6
Continuous
 62
     7
370
    25
100
AcDbLine
 10
34.2790574587
 20
33.5607546911
 30
0.0
 11
34.2790574587
 21
33.561650052
 31
0.0
  0
LINE
  5
227
330
1B
100
AcDbEntity
 67
     1
  8
0
  6
Continuous
 62
     7
370
    25
100
AcDbLine
 10
34.0730021232
 20
33.6806032651
 30
0.0
 11
34.0730021232
 21
33.6550863648
 31
0.0
  0
LINE
  5
228
330
1B
100
AcDbEntity
 67
     1
  8
0
  6
Continuous
 62
     7
370
    25
100
AcDbLine
 10
34.0730021232
 20
33.6550863648
 30
0.0
 11
34.2653729728
 21
33.5440330371
 31
0.0
  0
ARC
  5
229
330
1B
100
AcDbEntity
 67
     1
  8
0
  6
Continuous
 62
     7
370
    25
100
AcDbCircle
 10
34.0704143193
 20
33.6519137751
 30
0.0
 40
0.0040941487258855
100
AcDbArc
 50
50.7967147642
 51
189.2140369906
  0
LINE
  5
22A
330
1B
100
AcDbEntity
 67
     1
  8
0
  6
Continuous
 62
     7
370
    25
100
AcDbLine
 10
34.0663729971
 20
33.6512582077
 30
0.0
 11
34.0442759102
 21
33.6640145844
 31
0.0
  0
ARC
  5
22B
330
1B
100
AcDbEntity
 67
     1
  8
0
  6
Continuous
 62
     7
370
    25
100
AcDbCircle
 10
34.0617883064
 20
33.6668553768
 30
0.0
 40
0.0177413111455398
100
AcDbArc
 50
50.7967147643
 51
189.2140369905
  0
ARC
  5
22C
330
1B
100
AcDbEntity
 67
     1
  8
0
  6
Continuous
 62
     7
370
    25
100
AcDbCircle
 10
41.4371098572
 20
37.9220710194
 30
0.0
 40
0.0204334502085198
100
AcDbArc
 50
54.3824225248
 51
114.3071190461
  0
LINE
  5
22D
330
1B
100
AcDbEntity
 67
     1
  8
0
  6
Continuous
 62
     7
370
    25
100
AcDbLine
 10
34.0663729971
 20
33.6512582077
 30
0.0
 11
34.0730032007
 21
33.6550857427
 31
0.0
  0
LINE
  5
22E
330
1B
100
AcDbEntity
 67
     1
  8
0
  6
Continuous
 62
     7
370
    25
100
AcDbLine
 10
34.2100040621
 20
33.4040129204
 30
0.0
 11
34.2100040621
 21
33.3784960201
 31
0.0
  0
LINE
  5
22F
330
1B
100
AcDbEntity
 67
     1
  8
0
  6
Continuous
 62
     7
370
    25
100
AcDbLine
 10
34.2100040621
 20
33.4040129204
 30
0.0
 11
34.2569603717
 21
33.431120221
 31
0.0
  0
LINE
  5
230
330
1B
100
AcDbEntity
 67
     1
  8
0
  6
Continuous
 62
     7
370
    25
100
AcDbLine
 10
34.2100040621
 20
33.3784960201
 30
0.0
 11
34.2569603717
 21
33.4056033206
 31
0.0
  0
LINE
  5
231
330
1B
100
AcDbEntity
 67
     1
  8
0
  6
Continuous
 62
     7
370
    25
100
AcDbLine
 10
34.2100040621
 20
33.3784960201
 30
0.0
 11
34.0730021232
 21
33.4575855559
 31
0.0
  0
LINE
  5
232
330
1B
100
AcDbEntity
 67
     1
  8
0
  6
Continuous
 62
     7
370
    25
100
AcDbLine
 10
34.0730021232
 20
33.4831024563
 30
0.0
 11
34.0730021232
 21
33.4575855559
 31
0.0
  0
LINE
  5
233
330
1B
100
AcDbEntity
 67
     1
  8
0
  6
Continuous
 62
     7
370
    25
100
AcDbLine
 10
34.2100040621
 20
33.4040129204
 30
0.0
 11
34.0730021232
 21
33.4831024563
 31
0.0
  0
LINE
  5
234
330
1B
100
AcDbEntity
 67
     1
  8
0
  6
Continuous
 62
     7
370
    25
100
AcDbLine
 10
34.0730021232
 20
33.4831024563
 30
0.0
 11
34.221960697
 21
33.5690944105
 31
0.0
  0
LINE
  5
235
330
1B
100
AcDbEntity
 67
     1
  8
0
  6
Continuous
 62
     7
370
    25
100
AcDbLine
 10
34.0663729971
 20
33.4945844394
 30
0.0
 11
34.0663729971
 21
33.6512582077
 31
0.0
  0
LINE
  5
236
330
1B
100
AcDbEntity
 67
     1
  8
0
  6
Continuous
 62
     7
370
    25
100
AcDbLine
 10
34.0663729971
 20
33.4945844394
 30
0.0
 11
34.2087013673
 21
33.5767488586
 31
0.0
  0
LINE
  5
237
330
1B
100
AcDbEntity
 67
     1
  8
0
  6
Continuous
 62
     7
370
    25
100
AcDbLine
 10
34.0442759102
 20
33.5073408161
 30
0.0
 11
34.0663729971
 21
33.4945844394
 31
0.0
  0
LINE
  5
238
330
1B
100
AcDbEntity
 67
     1
  8
0
  6
Continuous
 62
     7
370
    25
100
AcDbLine
 10
34.0442759102
 20
33.5073408161
 30
0.0
 11
34.0442759102
 21
33.6640145844
 31
0.0
  0
ARC
  5
239
330
1B
100
AcDbEntity
 67
     1
  8
0
  6
Continuous
 62
     7
370
    25
100
AcDbCircle
 10
34.0807656481
 20
33.4952393849
 30
0.0
 40
0.0144075450710018
100
AcDbArc
 50
182.6054784856
 51
237.3945216599
  0
ARC
  5
23A
330
1B
100
AcDbEntity
 67
     1
  8
0
  6
Continuous
 62
     7
370
    25
100
AcDbCircle
 10
34.1066440643
 20
33.5101789133
 30
0.0
 40
0.062432695307673
100
AcDbArc
 50
182.6054784857
 51
237.3945216599
  0
LINE
  5
23B
330
1B
100
AcDbEntity
 67
     1
  8
0
  6
Continuous
 62
     7
370
    25
100
AcDbLine
 10
41.6550650699
 20
37.8188332493
 30
0.0
 11
41.6550650699
 21
37.8197286102
 31
0.0
  0
LINE
  5
23C
330
1B
100
AcDbEntity
 67
     1
  8
0
  6
Continuous
 62
     7
370
    25
100
AcDbLine
 10
5.6065
 20
10.2461517732
 30
0.0
 11
5.6715
 21
10.2461517732
 31
0.0
  0
LINE
  5
23D
330
1B
100
AcDbEntity
 67
     1
  8
0
  6
Continuous
 62
     7
370
    25
100
AcDbLine
 10
5.6065
 20
10.2461517732
 30
0.0
 11
5.6065
 21
26.9361517732
 31
0.0
  0
LINE
  5
23E
330
1B
100
AcDbEntity
 67
     1
  8
0
  6
Continuous
 62
     7
370
    25
100
AcDbLine
 10
5.6065
 20
26.9361517732
 30
0.0
 11
5.6715
 21
26.9361517732
 31
0.0
  0
LINE
  5
23F
330
1B
100
AcDbEntity
 67
     1
  8
0
  6
Continuous
 62
     7
370
    25
100
AcDbLine
 10
5.6715
 20
10.2461517732
 30
0.0
 11
5.9785
 21
10.2461517732
 31
0.0
  0
LINE
  5
240
330
1B
100
AcDbEntity
 67
     1
  8
0
  6
Continuous
 62
     7
370
    25
100
AcDbLine
 10
5.6715
 20
26.9361517732
 30
0.0
 11
5.9785
 21
26.9361517732
 31
0.0
  0
LINE
  5
241
330
1B
100
AcDbEntity
 67
     1
  8
0
  6
Continuous
 62
     7
370
    25
100
AcDbLine
 10
5.9785
 20
26.9361517732
 30
0.0
 11
6.0435
 21
26.9361517732
 31
0.0
  0
LINE
  5
242
330
1B
100
AcDbEntity
 67
     1
  8
0
  6
Continuous
 62
     7
370
    25
100
AcDbLine
 10
6.0435
 20
10.2461517732
 30
0.0
 11
6.0435
 21
26.9361517732
 31
0.0
  0
LINE
  5
243
330
1B
100
AcDbEntity
 67
     1
  8
0
  6
Continuous
 62
     7
370
    25
100
AcDbLine
 10
5.9785
 20
10.2461517732
 30
0.0
 11
6.0435
 21
10.2461517732
 31
0.0
  0
LINE
  5
244
330
1B
100
AcDbEntity
 67
     1
  8
0
  6
Continuous
 62
     7
370
    25
100
AcDbLine
 10
5.6065
 20
10.1961517732
 30
0.0
 11
5.6065
 21
10.2461517732
 31
0.0
  0
LINE
  5
245
330
1B
100
AcDbEntity
 67
     1
  8
0
  6
Continuous
 62
     7
370
    25
100
AcDbLine
 10
5.9785
 20
10.1961517732
 30
0.0
 11
5.6065
 21
10.1961517732
 31
0.0
  0
ARC
  5
246
330
1B
100
AcDbEntity
 67
     1
  8
0
  6
Continuous
 62
     7
370
    25
100
AcDbCircle
 10
5.9785
 20
10.2611517732
 30
0.0
 40
0.0650000000000013
100
AcDbArc
 50
270.0
 51
346.6576362029
  0
ARC
  5
247
330
1B
100
AcDbEntity
 67
     1
  8
0
  6
Continuous
 62
     7
370
    25
100
AcDbCircle
 10
5.9785
 20
26.9211517732
 30
0.0
 40
0.0649999999999987
100
AcDbArc
 50
13.3423637971
 51
90.0
  0
LINE
  5
248
330
1B
100
AcDbEntity
 67
     1
  8
0
  6
Continuous
 62
     7
370
    25
100
AcDbLine
 10
5.9785
 20
26.9861517732
 30
0.0
 11
5.6065
 21
26.9861517732
 31
0.0
  0
LINE
  5
249
330
1B
100
AcDbEntity
 67
     1
  8
0
  6
Continuous
 62
     7
370
    25
100
AcDbLine
 10
5.6065
 20
26.9861517732
 30
0.0
 11
5.6065
 21
26.9361517732
 31
0.0
  0
LINE
  5
24A
330
1B
100
AcDbEntity
 67
     1
  8
0
  6
HIDDEN
 62
     7
370
    18
100
AcDbLine
 10
5.6565
 20
10.2461517732
 30
0.0
 11
5.6565
 21
26.9361517732
 31
0.0
  0
LINE
  5
24B
330
1B
100
AcDbEntity
 67
     1
  8
0
  6
HIDDEN
 62
     7
370
    18
100
AcDbLine
 10
5.9935
 20
10.2461517732
 30
0.0
 11
5.9935
 21
26.9361517732
 31
0.0
  0
ARC
  5
24C
330
1B
100
AcDbEntity
 67
     1
  8
0
  6
HIDDEN
 62
     7
370
    18
100
AcDbCircle
 10
5.9785
 20
10.2611517732
 30
0.0
 40
0.0150000000000006
100
AcDbArc
 50
270.0
 51
0.0000000001
  0
ARC
  5
24D
330
1B
100
AcDbEntity
 67
     1
  8
0
  6
HIDDEN
 62
     7
370
    18
100
AcDbCircle
 10
5.9785
 20
10.2611517732
 30
0.0
 40
0.0650000000000003
100
AcDbArc
 50
346.6576362029
 51
0.0
  0
ARC
  5
24E
330
1B
100
AcDbEntity
 67
     1
  8
0
  6
HIDDEN
 62
     7
370
    18
100
AcDbCircle
 10
5.9785
 20
26.9211517732
 30
0.0
 40
0.0149999999999979
100
AcDbArc
 50
0.0000000001
 51
90.0
  0
ARC
  5
24F
330
1B
100
AcDbEntity
 67
     1
  8
0
  6
HIDDEN
 62
     7
370
    18
100
AcDbCircle
 10
5.9785
 20
26.9211517732
 30
0.0
 40
0.0649999999999987
100
AcDbArc
 50
0.0
 51
13.3423637971
  0
LINE
  5
250
330
1B
100
AcDbEntity
 67
     1
  8
0
  6
HIDDEN
 62
     7
370
    18
100
AcDbLine
 10
5.8855
 20
10.1961517732
 30
0.0
 11
5.8855
 21
10.2461517732
 31
0.0
  0
LINE
  5
251
330
1B
100
AcDbEntity
 67
     1
  8
0
  6
HIDDEN
 62
     7
370
    18
100
AcDbLine
 10
5.7655
 20
10.2461517732
 30
0.0
 11
5.7655
 21
10.1961517732
 31
0.0
  0
LINE
  5
252
330
1B
100
AcDbEntity
 67
     1
  8
0
  6
HIDDEN
 62
     7
370
    18
100
AcDbLine
 10
5.7655
 20
26.9861517732
 30
0.0
 11
5.7655
 21
26.9361517732
 31
0.0
  0
LINE
  5
253
330
1B
100
AcDbEntity
 67
     1
  8
0
  6
HIDDEN
 62
     7
370
    18
100
AcDbLine
 10
5.8855
 20
26.9361517732
 30
0.0
 11
5.8855
 21
26.9861517732
 31
0.0
  0
ENDSEC
  0
SECTION
  2
OBJECTS
  0
DICTIONARY
  5
C
330
0
100
AcDbDictionary
281
     1
  3
ACAD_GROUP
350
D
  3
ACAD_LAYOUT
350
1A
  3
ACAD_MLINESTYLE
350
17
  3
ACAD_PLOTSETTINGS
350
19
  3
ACAD_PLOTSTYLENAME
350
E
  3
ACAD_SCALELIST
350
47
  3
DWGPROPS
350
254
  0
DICTIONARY
  5
D
102
{ACAD_REACTORS
330
C
102
}
330
C
100
AcDbDictionary
281
     1
  0
DICTIONARY
  5
1A
102
{ACAD_REACTORS
330
C
102
}
330
C
100
AcDbDictionary
281
     1
  3
Model
350
22
  3
Sheet1
350
1E
  0
DICTIONARY
  5
17
102
{ACAD_REACTORS
330
C
102
}
330
C
100
AcDbDictionary
281
     1
  3
Standard
350
18
  0
DICTIONARY
  5
19
102
{ACAD_REACTORS
330
C
102
}
330
C
100
AcDbDictionary
281
     1
  0
ACDBDICTIONARYWDFLT
  5
E
102
{ACAD_REACTORS
330
C
102
}
330
C
100
AcDbDictionary
281
     1
  3
Normal
350
F
100
AcDbDictionaryWithDefault
340
F
  0
DICTIONARY
  5
47
102
{ACAD_REACTORS
330
C
102
}
330
C
100
AcDbDictionary
281
     1
  3
A0
350
48
  3
A1
350
49
  3
A2
350
4A
  3
A3
350
4B
  3
A4
350
4C
  3
A5
350
4D
  3
A6
350
4E
  3
A7
350
4F
  3
A8
350
50
  3
A9
350
51
  3
B0
350
52
  3
B1
350
53
  3
B2
350
54
  3
B3
350
55
  3
B4
350
56
  3
B5
350
57
  3
B6
350
58
  3
B7
350
59
  3
B8
350
5A
  3
B9
350
5B
  3
C0
350
5C
  3
C1
350
5D
  3
C2
350
5E
  3
C3
350
5F
  3
C4
350
60
  3
C5
350
61
  3
C6
350
62
  3
C7
350
63
  3
C8
350
64
  3
C9
350
65
  3
D0
350
66
  3
D1
350
67
  3
D2
350
68
  0
XRECORD
  5
254
102
{ACAD_REACTORS
330
C
102
}
330
C
100
AcDbXrecord
280
     1
  1
DWGPROPS COOKIE
  2

  3

  4

  6

  7

  8
Eng-1
  9

300
=
301
=
302
=
303
=
304
=
305
=
306
=
307
=
308
=
309
=
 40
0.0
 41
2459626.656331435
 42
2459626.656332963
  1

 90
        0
  0
LAYOUT
  5
22
102
{ACAD_REACTORS
330
1A
102
}
330
1A
100
AcDbPlotSettings
  1

  2
none_device
  4
Letter_(8.50_x_11.00_Inches)
  6

 40
6.35
 41
6.35
 42
6.35000508
 43
6.35000508
 44
215.9
 45
279.4
 46
0.0
 47
0.0
 48
0.0
 49
0.0
140
0.0
141
0.0
142
1.0
143
1.0
 70
  1712
 72
     0
 73
     0
 74
     0
  7

 75
     0
147
1.0
148
0.0
149
0.0
100
AcDbLayout
  1
Model
 70
     1
 71
     0
 10
0.0
 20
0.0
 11
12.0
 21
9.0
 12
0.0
 22
0.0
 32
0.0
 14
0.0
 24
0.0
 34
0.0
 15
55.0
 25
42.5
 35
0.0
146
0.0
 13
0.0
 23
0.0
 33
0.0
 16
1.0
 26
0.0
 36
0.0
 17
0.0
 27
1.0
 37
0.0
 76
     0
330
1F
331
29
  0
LAYOUT
  5
1E
102
{ACAD_REACTORS
330
1A
102
}
330
1A
100
AcDbPlotSettings
  1

  2
none_device
  4
ANSI_A_(11.00_x_8.50_Inches)
  6

 40
6.35
 41
19.05
 42
6.35000508
 43
19.05000254
 44
279.4
 45
215.9
 46
0.0
 47
0.0
 48
0.0
 49
0.0
140
0.0
141
0.0
142
1.0
143
1.0
 70
  4832
 72
     0
 73
     0
 74
     1
  7

 75
     0
147
1.0
148
0.0
149
0.0
100
AcDbLayout
  1
Sheet1
 70
     1
 71
     0
 10
0.0
 20
0.0
 11
55.0
 21
42.5
 12
0.0
 22
0.0
 32
0.0
 14
0.0
 24
0.0
 34
0.0
 15
55.0
 25
42.5
 35
0.0
146
0.0
 13
0.0
 23
0.0
 33
0.0
 16
1.0
 26
0.0
 36
0.0
 17
0.0
 27
1.0
 37
0.0
 76
     0
330
1B
331
73
  0
MLINESTYLE
  5
18
102
{ACAD_REACTORS
330
17
102
}
330
17
100
AcDbMlineStyle
  2
Standard
 70
     0
  3

 62
   256
 51
90.0
 52
90.0
 71
     2
 49
0.5
 62
   256
  6
BYLAYER
 49
-0.5
 62
   256
  6
BYLAYER
  0
ACDBPLACEHOLDER
  5
F
102
{ACAD_REACTORS
330
E
102
}
330
E
  0
SCALE
  5
48
102
{ACAD_REACTORS
330
47
102
}
330
47
100
AcDbScale
 70
     0
300
1:1
140
1.0
141
1.0
290
     1
  0
SCALE
  5
49
102
{ACAD_REACTORS
330
47
102
}
330
47
100
AcDbScale
 70
     0
300
1:2
140
1.0
141
2.0
290
     0
  0
SCALE
  5
4A
102
{ACAD_REACTORS
330
47
102
}
330
47
100
AcDbScale
 70
     0
300
1:4
140
1.0
141
4.0
290
     0
  0
SCALE
  5
4B
102
{ACAD_REACTORS
330
47
102
}
330
47
100
AcDbScale
 70
     0
300
1:5
140
1.0
141
5.0
290
     0
  0
SCALE
  5
4C
102
{ACAD_REACTORS
330
47
102
}
330
47
100
AcDbScale
 70
     0
300
1:8
140
1.0
141
8.0
290
     0
  0
SCALE
  5
4D
102
{ACAD_REACTORS
330
47
102
}
330
47
100
AcDbScale
 70
     0
300
1:10
140
1.0
141
10.0
290
     0
  0
SCALE
  5
4E
102
{ACAD_REACTORS
330
47
102
}
330
47
100
AcDbScale
 70
     0
300
1:16
140
1.0
141
16.0
290
     0
  0
SCALE
  5
4F
102
{ACAD_REACTORS
330
47
102
}
330
47
100
AcDbScale
 70
     0
300
1:20
140
1.0
141
20.0
290
     0
  0
SCALE
  5
50
102
{ACAD_REACTORS
330
47
102
}
330
47
100
AcDbScale
 70
     0
300
1:30
140
1.0
141
30.0
290
     0
  0
SCALE
  5
51
102
{ACAD_REACTORS
330
47
102
}
330
47
100
AcDbScale
 70
     0
300
1:40
140
1.0
141
40.0
290
     0
  0
SCALE
  5
52
102
{ACAD_REACTORS
330
47
102
}
330
47
100
AcDbScale
 70
     0
300
1:50
140
1.0
141
50.0
290
     0
  0
SCALE
  5
53
102
{ACAD_REACTORS
330
47
102
}
330
47
100
AcDbScale
 70
     0
300
1:100
140
1.0
141
100.0
290
     0
  0
SCALE
  5
54
102
{ACAD_REACTORS
330
47
102
}
330
47
100
AcDbScale
 70
     0
300
2:1
140
2.0
141
1.0
290
     0
  0
SCALE
  5
55
102
{ACAD_REACTORS
330
47
102
}
330
47
100
AcDbScale
 70
     0
300
4:1
140
4.0
141
1.0
290
     0
  0
SCALE
  5
56
102
{ACAD_REACTORS
330
47
102
}
330
47
100
AcDbScale
 70
     0
300
8:1
140
8.0
141
1.0
290
     0
  0
SCALE
  5
57
102
{ACAD_REACTORS
330
47
102
}
330
47
100
AcDbScale
 70
     0
300
10:1
140
10.0
141
1.0
290
     0
  0
SCALE
  5
58
102
{ACAD_REACTORS
330
47
102
}
330
47
100
AcDbScale
 70
     0
300
100:1
140
100.0
141
1.0
290
     0
  0
SCALE
  5
59
102
{ACAD_REACTORS
330
47
102
}
330
47
100
AcDbScale
 70
     0
300
1/128" = 1'-0"
140
0.0078125
141
12.0
290
     0
  0
SCALE
  5
5A
102
{ACAD_REACTORS
330
47
102
}
330
47
100
AcDbScale
 70
     0
300
1/64" = 1'-0"
140
0.015625
141
12.0
290
     0
  0
SCALE
  5
5B
102
{ACAD_REACTORS
330
47
102
}
330
47
100
AcDbScale
 70
     0
300
1/32" = 1'-0"
140
0.03125
141
12.0
290
     0
  0
SCALE
  5
5C
102
{ACAD_REACTORS
330
47
102
}
330
47
100
AcDbScale
 70
     0
300
1/16" = 1'-0"
140
0.0625
141
12.0
290
     0
  0
SCALE
  5
5D
102
{ACAD_REACTORS
330
47
102
}
330
47
100
AcDbScale
 70
     0
300
3/32" = 1'-0"
140
0.09375
141
12.0
290
     0
  0
SCALE
  5
5E
102
{ACAD_REACTORS
330
47
102
}
330
47
100
AcDbScale
 70
     0
300
1/8" = 1'-0"
140
0.125
141
12.0
290
     0
  0
SCALE
  5
5F
102
{ACAD_REACTORS
330
47
102
}
330
47
100
AcDbScale
 70
     0
300
3/16" = 1'-0"
140
0.1875
141
12.0
290
     0
  0
SCALE
  5
60
102
{ACAD_REACTORS
330
47
102
}
330
47
100
AcDbScale
 70
     0
300
1/4" = 1'-0"
140
0.25
141
12.0
290
     0
  0
SCALE
  5
61
102
{ACAD_REACTORS
330
47
102
}
330
47
100
AcDbScale
 70
     0
300
3/8" = 1'-0"
140
0.375
141
12.0
290
     0
  0
SCALE
  5
62
102
{ACAD_REACTORS
330
47
102
}
330
47
100
AcDbScale
 70
     0
300
1/2" = 1'-0"
140
0.5
141
12.0
290
     0
  0
SCALE
  5
63
102
{ACAD_REACTORS
330
47
102
}
330
47
100
AcDbScale
 70
     0
300
3/4" = 1'-0"
140
0.75
141
12.0
290
     0
  0
SCALE
  5
64
102
{ACAD_REACTORS
330
47
102
}
330
47
100
AcDbScale
 70
     0
300
1" = 1'-0"
140
1.0
141
12.0
290
     0
  0
SCALE
  5
65
102
{ACAD_REACTORS
330
47
102
}
330
47
100
AcDbScale
 70
     0
300
1-1/2" = 1'-0"
140
1.5
141
12.0
290
     0
  0
SCALE
  5
66
102
{ACAD_REACTORS
330
47
102
}
330
47
100
AcDbScale
 70
     0
300
3" = 1'-0"
140
3.0
141
12.0
290
     0
  0
SCALE
  5
67
102
{ACAD_REACTORS
330
47
102
}
330
47
100
AcDbScale
 70
     0
300
6" = 1'-0"
140
6.0
141
12.0
290
     0
  0
SCALE
  5
68
102
{ACAD_REACTORS
330
47
102
}
330
47
100
AcDbScale
 70
     0
300
1'-0" = 1'-0"
140
12.0
141
12.0
290
     0
  0
ENDSEC
  0
EOF
